  0
SECTION
  2
HEADER
  9
$ACADVER
  1
AC1015
  9
$ACADMAINTVER
 70
     6
  9
$DWGCODEPAGE
  3
ANSI_949
  9
$INSBASE
 10
0.0
 20
0.0
 30
0.0
  9
$EXTMIN
 10
-117.775
 20
-49.97180738881174
 30
0.0
  9
$EXTMAX
 10
79.73835494594202
 20
38.69717000431202
 30
0.0
  9
$LIMMIN
 10
0.0
 20
0.0
  9
$LIMMAX
 10
420.0
 20
297.0
  9
$ORTHOMODE
 70
     0
  9
$REGENMODE
 70
     1
  9
$FILLMODE
 70
     1
  9
$QTEXTMODE
 70
     0
  9
$MIRRTEXT
 70
     1
  9
$LTSCALE
 40
1.0
  9
$ATTMODE
 70
     1
  9
$TEXTSIZE
 40
3.5
  9
$TRACEWID
 40
1.0
  9
$TEXTSTYLE
  7
Standard
  9
$CLAYER
  8
0
  9
$CELTYPE
  6
ByLayer
  9
$CECOLOR
 62
   256
  9
$CELTSCALE
 40
1.0
  9
$DISPSILH
 70
     0
  9
$DIMSCALE
 40
1.0
  9
$DIMASZ
 40
3.302
  9
$DIMEXO
 40
1.0
  9
$DIMDLI
 40
3.75
  9
$DIMRND
 40
0.0
  9
$DIMDLE
 40
0.0
  9
$DIMEXE
 40
1.0
  9
$DIMTP
 40
0.0
  9
$DIMTM
 40
0.0
  9
$DIMTXT
 40
3.5
  9
$DIMCEN
 40
2.5
  9
$DIMTSZ
 40
0.0
  9
$DIMTOL
 70
     0
  9
$DIMLIM
 70
     0
  9
$DIMTIH
 70
     1
  9
$DIMTOH
 70
     1
  9
$DIMSE1
 70
     0
  9
$DIMSE2
 70
     0
  9
$DIMTAD
 70
     1
  9
$DIMZIN
 70
     0
  9
$DIMBLK
  1

  9
$DIMASO
 70
     1
  9
$DIMSHO
 70
     1
  9
$DIMPOST
  1

  9
$DIMAPOST
  1

  9
$DIMALT
 70
     0
  9
$DIMALTD
 70
     3
  9
$DIMALTF
 40
0.0393700787401575
  9
$DIMLFAC
 40
1.0
  9
$DIMTOFL
 70
     1
  9
$DIMTVP
 40
0.0
  9
$DIMTIX
 70
     0
  9
$DIMSOXD
 70
     0
  9
$DIMSAH
 70
     0
  9
$DIMBLK1
  1

  9
$DIMBLK2
  1

  9
$DIMSTYLE
  2
ISO-25
  9
$DIMCLRD
 70
     0
  9
$DIMCLRE
 70
     0
  9
$DIMCLRT
 70
     0
  9
$DIMTFAC
 40
1.0
  9
$DIMGAP
 40
1.524
  9
$DIMJUST
 70
     0
  9
$DIMSD1
 70
     0
  9
$DIMSD2
 70
     0
  9
$DIMTOLJ
 70
     0
  9
$DIMTZIN
 70
     0
  9
$DIMALTZ
 70
     0
  9
$DIMALTTZ
 70
     0
  9
$DIMUPT
 70
     0
  9
$DIMDEC
 70
     2
  9
$DIMTDEC
 70
     2
  9
$DIMALTU
 70
     2
  9
$DIMALTTD
 70
     3
  9
$DIMTXSTY
  7
Standard
  9
$DIMAUNIT
 70
     0
  9
$DIMADEC
 70
     2
  9
$DIMALTRND
 40
0.0
  9
$DIMAZIN
 70
     0
  9
$DIMDSEP
 70
    44
  9
$DIMATFIT
 70
     3
  9
$DIMFRAC
 70
     0
  9
$DIMLDRBLK
  1

  9
$DIMLUNIT
 70
     2
  9
$DIMLWD
 70
    -2
  9
$DIMLWE
 70
    -2
  9
$DIMTMOVE
 70
     0
  9
$LUNITS
 70
     2
  9
$LUPREC
 70
     2
  9
$SKETCHINC
 40
1.0
  9
$FILLETRAD
 40
10.0
  9
$AUNITS
 70
     0
  9
$AUPREC
 70
     2
  9
$MENU
  1
.
  9
$ELEVATION
 40
0.0
  9
$PELEVATION
 40
0.0
  9
$THICKNESS
 40
0.0
  9
$LIMCHECK
 70
     0
  9
$CHAMFERA
 40
0.0
  9
$CHAMFERB
 40
0.0
  9
$CHAMFERC
 40
0.0
  9
$CHAMFERD
 40
0.0
  9
$SKPOLY
 70
     0
  9
$TDCREATE
 40
2458269.8255236
  9
$TDUCREATE
 40
2458269.4505236
  9
$TDUPDATE
 40
2459702.664182859
  9
$TDUUPDATE
 40
2459702.289182859
  9
$TDINDWG
 40
0.0009459606
  9
$TDUSRTIMER
 40
0.000031713
  9
$USRTIMER
 70
     1
  9
$ANGBASE
 50
0.0
  9
$ANGDIR
 70
     0
  9
$PDMODE
 70
     0
  9
$PDSIZE
 40
-1.0
  9
$PLINEWID
 40
0.0
  9
$SPLFRAME
 70
     0
  9
$SPLINETYPE
 70
     6
  9
$SPLINESEGS
 70
     8
  9
$HANDSEED
  5
272
  9
$SURFTAB1
 70
     6
  9
$SURFTAB2
 70
     6
  9
$SURFTYPE
 70
     6
  9
$SURFU
 70
     6
  9
$SURFV
 70
     6
  9
$UCSBASE
  2

  9
$UCSNAME
  2

  9
$UCSORG
 10
0.0
 20
0.0
 30
0.0
  9
$UCSXDIR
 10
1.0
 20
0.0
 30
0.0
  9
$UCSYDIR
 10
0.0
 20
1.0
 30
0.0
  9
$UCSORTHOREF
  2

  9
$UCSORTHOVIEW
 70
     0
  9
$UCSORGTOP
 10
0.0
 20
0.0
 30
0.0
  9
$UCSORGBOTTOM
 10
0.0
 20
0.0
 30
0.0
  9
$UCSORGLEFT
 10
0.0
 20
0.0
 30
0.0
  9
$UCSORGRIGHT
 10
0.0
 20
0.0
 30
0.0
  9
$UCSORGFRONT
 10
0.0
 20
0.0
 30
0.0
  9
$UCSORGBACK
 10
0.0
 20
0.0
 30
0.0
  9
$PUCSBASE
  2

  9
$PUCSNAME
  2

  9
$PUCSORG
 10
0.0
 20
0.0
 30
0.0
  9
$PUCSXDIR
 10
1.0
 20
0.0
 30
0.0
  9
$PUCSYDIR
 10
0.0
 20
1.0
 30
0.0
  9
$PUCSORTHOREF
  2

  9
$PUCSORTHOVIEW
 70
     0
  9
$PUCSORGTOP
 10
0.0
 20
0.0
 30
0.0
  9
$PUCSORGBOTTOM
 10
0.0
 20
0.0
 30
0.0
  9
$PUCSORGLEFT
 10
0.0
 20
0.0
 30
0.0
  9
$PUCSORGRIGHT
 10
0.0
 20
0.0
 30
0.0
  9
$PUCSORGFRONT
 10
0.0
 20
0.0
 30
0.0
  9
$PUCSORGBACK
 10
0.0
 20
0.0
 30
0.0
  9
$USERI1
 70
     0
  9
$USERI2
 70
     0
  9
$USERI3
 70
     0
  9
$USERI4
 70
     0
  9
$USERI5
 70
     0
  9
$USERR1
 40
0.0
  9
$USERR2
 40
0.0
  9
$USERR3
 40
0.0
  9
$USERR4
 40
0.0
  9
$USERR5
 40
0.0
  9
$WORLDVIEW
 70
     1
  9
$SHADEDGE
 70
     3
  9
$SHADEDIF
 70
    70
  9
$TILEMODE
 70
     1
  9
$MAXACTVP
 70
    64
  9
$PINSBASE
 10
0.0
 20
0.0
 30
0.0
  9
$PLIMCHECK
 70
     0
  9
$PEXTMIN
 10
1.000000000000000E+20
 20
1.000000000000000E+20
 30
1.000000000000000E+20
  9
$PEXTMAX
 10
-1.000000000000000E+20
 20
-1.000000000000000E+20
 30
-1.000000000000000E+20
  9
$PLIMMIN
 10
0.0
 20
0.0
  9
$PLIMMAX
 10
0.0
 20
0.0
  9
$UNITMODE
 70
     0
  9
$VISRETAIN
 70
     1
  9
$PLINEGEN
 70
     0
  9
$PSLTSCALE
 70
     1
  9
$TREEDEPTH
 70
  3020
  9
$CMLSTYLE
  2
Standard
  9
$CMLJUST
 70
     0
  9
$CMLSCALE
 40
20.0
  9
$PROXYGRAPHICS
 70
     1
  9
$MEASUREMENT
 70
     1
  9
$CELWEIGHT
370
    -1
  9
$ENDCAPS
280
     0
  9
$JOINSTYLE
280
     0
  9
$LWDISPLAY
290
     1
  9
$INSUNITS
 70
     4
  9
$HYPERLINKBASE
  1

  9
$STYLESHEET
  1

  9
$XEDIT
290
     1
  9
$CEPSNTYPE
380
     0
  9
$PSTYLEMODE
290
     1
  9
$FINGERPRINTGUID
  2
{6C0E84AB-1681-474E-87D7-3A5D645E4A69}
  9
$VERSIONGUID
  2
{FAEB1C32-E019-11D5-929B-00C0DF256EC4}
  9
$EXTNAMES
290
     1
  9
$PSVPSCALE
 40
0.0
  9
$OLESTARTUP
290
     0
  0
ENDSEC
  0
SECTION
  2
CLASSES
  0
CLASS
  1
ACDBDICTIONARYWDFLT
  2
AcDbDictionaryWithDefault
  3
ObjectDBX Classes
 90
        0
280
     0
281
     0
  0
CLASS
  1
VISUALSTYLE
  2
AcDbVisualStyle
  3
ObjectDBX Classes
 90
     4095
280
     0
281
     0
  0
CLASS
  1
MATERIAL
  2
AcDbMaterial
  3
ObjectDBX Classes
 90
     1153
280
     0
281
     0
  0
CLASS
  1
SCALE
  2
AcDbScale
  3
ObjectDBX Classes
 90
     1153
280
     0
281
     0
  0
CLASS
  1
SUN
  2
AcDbSun
  3
SCENEOE
 90
     1153
280
     0
281
     0
  0
CLASS
  1
ACDBPLACEHOLDER
  2
AcDbPlaceHolder
  3
ObjectDBX Classes
 90
        0
280
     0
281
     0
  0
CLASS
  1
LAYOUT
  2
AcDbLayout
  3
ObjectDBX Classes
 90
        0
280
     0
281
     0
  0
CLASS
  1
TABLESTYLE
  2
AcDbTableStyle
  3
ObjectDBX Classes
 90
     4095
280
     0
281
     0
  0
CLASS
  1
MLEADERSTYLE
  2
AcDbMLeaderStyle
  3
ACDB_MLEADERSTYLE_CLASS
 90
     4095
280
     0
281
     0
  0
CLASS
  1
SORTENTSTABLE
  2
AcDbSortentsTable
  3
ObjectDBX Classes
 90
        0
280
     0
281
     0
  0
CLASS
  1
BREAKDATA
  2
AcDbBreakData
  3
ObjectDBX Classes
 90
     1024
280
     0
281
     0
  0
CLASS
  1
DIMASSOC
  2
AcDbDimAssoc
  3
"AcDbDimAssoc|Product Desc:     AcDim ARX App For Dimension|Company:          Autodesk, Inc.|WEB Address:      www.autodesk.com"
 90
        0
280
     0
281
     0
  0
ENDSEC
  0
SECTION
  2
TABLES
  0
TABLE
  2
VPORT
  5
8
330
0
100
AcDbSymbolTable
 70
     1
  0
VPORT
  5
29
330
8
100
AcDbSymbolTableRecord
100
AcDbViewportTableRecord
  2
*Active
 70
     0
 10
0.0
 20
0.0
 11
1.0
 21
1.0
 12
-40.12670787698553
 22
25.64853239678285
 13
0.0
 23
0.0
 14
10.0
 24
10.0
 15
10.0
 25
10.0
 16
0.0
 26
0.0
 36
1.0
 17
0.0
 27
0.0
 37
0.0
 40
274.7409686161748
 41
1.531481481481481
 42
50.0
 43
0.0
 44
0.0
 50
0.0
 51
0.0
 71
    16
 72
  2000
 73
     1
 74
     3
 75
     0
 76
     0
 77
     0
 78
     0
281
     0
 65
     1
110
0.0
120
0.0
130
0.0
111
1.0
121
0.0
131
0.0
112
0.0
122
1.0
132
0.0
 79
     0
146
0.0
  0
ENDTAB
  0
TABLE
  2
LTYPE
  5
5
330
0
100
AcDbSymbolTable
 70
     6
  0
LTYPE
  5
14
330
5
100
AcDbSymbolTableRecord
100
AcDbLinetypeTableRecord
  2
ByBlock
 70
     0
  3

 72
    65
 73
     0
 40
0.0
  0
LTYPE
  5
15
330
5
100
AcDbSymbolTableRecord
100
AcDbLinetypeTableRecord
  2
ByLayer
 70
     0
  3

 72
    65
 73
     0
 40
0.0
  0
LTYPE
  5
16
330
5
100
AcDbSymbolTableRecord
100
AcDbLinetypeTableRecord
  2
Continuous
 70
     0
  3
Solid line
 72
    65
 73
     0
 40
0.0
  0
LTYPE
  5
6A
330
5
100
AcDbSymbolTableRecord
100
AcDbLinetypeTableRecord
  2
HIDDEN
 70
     0
  3
Hidden __ __ __ __ __ __ __ __ __ __ __ __ __ __
 72
    65
 73
     2
 40
1.905
 49
1.27
 74
     0
 49
-0.635
 74
     0
  0
LTYPE
  5
6B
330
5
100
AcDbSymbolTableRecord
100
AcDbLinetypeTableRecord
  2
PHANTOM
 70
     0
  3
Phantom ______  __  __  ______  __  __  ______
 72
    65
 73
     6
 40
12.7
 49
6.35
 74
     0
 49
-1.27
 74
     0
 49
1.27
 74
     0
 49
-1.27
 74
     0
 49
1.27
 74
     0
 49
-1.27
 74
     0
  0
LTYPE
  5
6C
330
5
100
AcDbSymbolTableRecord
100
AcDbLinetypeTableRecord
  2
CENTER
 70
     0
  3
Center ____ _ ____ _ ____ _ ____ _ ____ _ ____
 72
    65
 73
     4
 40
10.16
 49
6.35
 74
     0
 49
-1.27
 74
     0
 49
1.27
 74
     0
 49
-1.27
 74
     0
  0
LTYPE
  5
6D
330
5
100
AcDbSymbolTableRecord
100
AcDbLinetypeTableRecord
  2
CENTERX2
 70
     0
  3
Center (2x) ________  __  ________  __  _____
 72
    65
 73
     4
 40
20.32
 49
12.7
 74
     0
 49
-2.54
 74
     0
 49
2.54
 74
     0
 49
-2.54
 74
     0
  0
LTYPE
  5
6E
330
5
100
AcDbSymbolTableRecord
100
AcDbLinetypeTableRecord
  2
DOT2
 70
     0
  3
Dot (.5x) ........................................
 72
    65
 73
     2
 40
0.635
 49
0.0
 74
     0
 49
-0.635
 74
     0
  0
ENDTAB
  0
TABLE
  2
LAYER
  5
2
102
{ACAD_XDICTIONARY
360
1B8
102
}
330
0
100
AcDbSymbolTable
 70
    18
  0
LAYER
  5
10
330
2
100
AcDbSymbolTableRecord
100
AcDbLayerTableRecord
  2
0
 70
     0
 62
     7
  6
Continuous
370
    -3
390
F
  0
LAYER
  5
6F
330
2
100
AcDbSymbolTableRecord
100
AcDbLayerTableRecord
  2
FORMAT
 70
     0
 62
     2
  6
Continuous
370
    -3
390
F
  0
LAYER
  5
70
330
2
100
AcDbSymbolTableRecord
100
AcDbLayerTableRecord
  2
외형선
 70
     0
 62
     4
  6
Continuous
370
    30
390
F
  0
LAYER
  5
71
330
2
100
AcDbSymbolTableRecord
100
AcDbLayerTableRecord
  2
숨은선
 70
     0
 62
     2
  6
HIDDEN
370
    15
390
F
  0
LAYER
  5
72
330
2
100
AcDbSymbolTableRecord
100
AcDbLayerTableRecord
  2
중심선
 70
     0
 62
     1
  6
CENTERX2
370
    -3
390
F
  0
LAYER
  5
73
330
2
100
AcDbSymbolTableRecord
100
AcDbLayerTableRecord
  2
파단선
 70
     0
 62
     4
  6
Continuous
370
    -3
390
F
  0
LAYER
  5
74
330
2
100
AcDbSymbolTableRecord
100
AcDbLayerTableRecord
  2
해칭선
 70
     0
 62
   100
  6
Continuous
370
    -3
390
F
  0
LAYER
  5
75
330
2
100
AcDbSymbolTableRecord
100
AcDbLayerTableRecord
  2
가는실선
 70
     0
 62
     4
  6
Continuous
370
    -3
390
F
  0
LAYER
  5
76
330
2
100
AcDbSymbolTableRecord
100
AcDbLayerTableRecord
  2
치수_보조선
 70
     0
 62
     4
  6
Continuous
370
    -3
390
F
  0
LAYER
  5
77
330
2
100
AcDbSymbolTableRecord
100
AcDbLayerTableRecord
  2
치수문자_일반주서
 70
     0
 62
     7
  6
Continuous
370
    15
390
F
  0
LAYER
  5
78
330
2
100
AcDbSymbolTableRecord
100
AcDbLayerTableRecord
  2
개별주서
 70
     0
 62
   100
  6
Continuous
370
    30
390
F
  0
LAYER
  5
79
330
2
100
AcDbSymbolTableRecord
100
AcDbLayerTableRecord
  2
중간선
 70
     0
 62
     2
  6
Continuous
370
    15
390
F
  0
LAYER
  5
7A
330
2
100
AcDbSymbolTableRecord
100
AcDbLayerTableRecord
  2
윤곽선
 70
     0
 62
     3
  6
Continuous
370
    40
390
F
  0
LAYER
  5
7B
330
2
100
AcDbSymbolTableRecord
100
AcDbLayerTableRecord
  2
중심마크
 70
     0
 62
   100
  6
Continuous
370
    30
390
F
  0
LAYER
  5
7C
330
2
100
AcDbSymbolTableRecord
100
AcDbLayerTableRecord
  2
가상선
 70
     0
 62
     4
  6
PHANTOM
370
    -3
390
F
  0
LAYER
  5
7D
330
2
100
AcDbSymbolTableRecord
100
AcDbLayerTableRecord
  2
특수지정선
 70
     0
 62
     5
  6
CENTERX2
370
    60
390
F
  0
LAYER
  5
7E
330
2
100
AcDbSymbolTableRecord
100
AcDbLayerTableRecord
  2
참조1
 70
     0
 62
    -4
  6
Continuous
370
    -3
390
F
  0
LAYER
  5
12C
330
2
100
AcDbSymbolTableRecord
100
AcDbLayerTableRecord
  2
Defpoints
 70
     0
 62
     7
  6
Continuous
290
     0
370
    -3
390
F
  0
ENDTAB
  0
TABLE
  2
STYLE
  5
3
330
0
100
AcDbSymbolTable
 70
     2
  0
STYLE
  5
11
330
3
100
AcDbSymbolTableRecord
100
AcDbTextStyleTableRecord
  2
Standard
 70
     0
 40
0.0
 41
1.0
 50
0.0
 71
     0
 42
3.5
  3
txt
  4

  0
STYLE
  5
94
330
3
100
AcDbSymbolTableRecord
100
AcDbTextStyleTableRecord
  2
SLDTEXTSTYLE0
 70
     0
 40
0.0
 41
0.75
 50
0.0
 71
     0
 42
3.5
  3
TXT
  4

  0
ENDTAB
  0
TABLE
  2
VIEW
  5
6
330
0
100
AcDbSymbolTable
 70
     0
  0
ENDTAB
  0
TABLE
  2
UCS
  5
7
330
0
100
AcDbSymbolTable
 70
     0
  0
ENDTAB
  0
TABLE
  2
APPID
  5
9
330
0
100
AcDbSymbolTable
 70
     4
  0
APPID
  5
12
330
9
100
AcDbSymbolTableRecord
100
AcDbRegAppTableRecord
  2
ACAD
 70
     0
  0
APPID
  5
138
330
9
100
AcDbSymbolTableRecord
100
AcDbRegAppTableRecord
  2
PE_URL
 70
     0
  0
APPID
  5
139
330
9
100
AcDbSymbolTableRecord
100
AcDbRegAppTableRecord
  2
ENABLE_CUSTOM_SPLIT
 70
     0
  0
APPID
  5
13A
330
9
100
AcDbSymbolTableRecord
100
AcDbRegAppTableRecord
  2
ACAD_DSTYLE_DIMRADIAL_EXTENSION
 70
     0
  0
ENDTAB
  0
TABLE
  2
DIMSTYLE
  5
A
330
0
100
AcDbSymbolTable
 70
     3
100
AcDbDimStyleTable
  0
DIMSTYLE
105
27
330
A
100
AcDbSymbolTableRecord
100
AcDbDimStyleTableRecord
  2
ISO-25
 70
     0
 41
2.5
 42
0.625
 43
3.75
 44
1.25
 73
     0
 74
     0
 77
     1
 78
     8
140
2.5
141
2.5
143
0.03937007874016
147
0.625
171
     3
172
     1
178
     0
271
     2
272
     2
274
     3
278
    44
283
     0
284
     8
340
11
  0
DIMSTYLE
105
CC
102
{ACAD_REACTORS
330
16C
330
17B
330
216
330
219
102
}
330
A
100
AcDbSymbolTableRecord
100
AcDbDimStyleTableRecord
  2
SLDDIMSTYLE0
 70
     0
 41
3.302
 44
0.0
 45
0.000000001
 73
     0
 74
     0
 77
     1
 78
    12
 79
     3
140
3.5
147
0.875
172
     1
173
     1
178
     0
271
     2
272
     2
276
     2
284
    12
289
     0
340
94
  0
DIMSTYLE
105
E7
102
{ACAD_REACTORS
330
188
330
195
330
1AB
330
21A
330
21B
330
261
102
}
330
A
100
AcDbSymbolTableRecord
100
AcDbDimStyleTableRecord
  2
SLDDIMSTYLE1
 70
     0
 41
3.302
 44
0.0
 45
0.000000001
 73
     0
 74
     0
 77
     1
 78
    12
 79
     3
140
3.5
147
0.875
173
     1
178
     0
271
     2
272
     2
276
     2
284
    12
340
94
  0
ENDTAB
  0
TABLE
  2
BLOCK_RECORD
  5
1
330
0
100
AcDbSymbolTable
 70
    18
  0
BLOCK_RECORD
  5
1F
102
{ACAD_XDICTIONARY
360
25E
102
}
330
1
100
AcDbSymbolTableRecord
100
AcDbBlockTableRecord
  2
*Model_Space
340
22
  0
BLOCK_RECORD
  5
1B
330
1
100
AcDbSymbolTableRecord
100
AcDbBlockTableRecord
  2
*Paper_Space
340
1E
  0
BLOCK_RECORD
  5
23
330
1
100
AcDbSymbolTableRecord
100
AcDbBlockTableRecord
  2
*Paper_Space0
340
26
  0
BLOCK_RECORD
  5
7F
330
1
100
AcDbSymbolTableRecord
100
AcDbBlockTableRecord
  2
블럭10
340
0
102
{BLKREFS
331
C4
102
}
  0
BLOCK_RECORD
  5
CD
330
1
100
AcDbSymbolTableRecord
100
AcDbBlockTableRecord
  2
_D
340
0
  0
BLOCK_RECORD
  5
DA
330
1
100
AcDbSymbolTableRecord
100
AcDbBlockTableRecord
  2
_D_1
340
0
  0
BLOCK_RECORD
  5
E8
330
1
100
AcDbSymbolTableRecord
100
AcDbBlockTableRecord
  2
_D_2
340
0
  0
BLOCK_RECORD
  5
F2
330
1
100
AcDbSymbolTableRecord
100
AcDbBlockTableRecord
  2
_D_3
340
0
  0
BLOCK_RECORD
  5
102
330
1
100
AcDbSymbolTableRecord
100
AcDbBlockTableRecord
  2
SW_DOWELSYMBOL_0
340
0
102
{BLKREFS
331
0
331
1A2
331
21C
102
}
  0
BLOCK_RECORD
  5
1AE
330
1
100
AcDbSymbolTableRecord
100
AcDbBlockTableRecord
  2
*D8
340
0
  0
BLOCK_RECORD
  5
1BC
330
1
100
AcDbSymbolTableRecord
100
AcDbBlockTableRecord
  2
*D9
340
0
  0
BLOCK_RECORD
  5
1C8
330
1
100
AcDbSymbolTableRecord
100
AcDbBlockTableRecord
  2
*D10
340
0
  0
BLOCK_RECORD
  5
1D4
330
1
100
AcDbSymbolTableRecord
100
AcDbBlockTableRecord
  2
*D11
340
0
  0
BLOCK_RECORD
  5
1E0
330
1
100
AcDbSymbolTableRecord
100
AcDbBlockTableRecord
  2
*D12
340
0
  0
BLOCK_RECORD
  5
222
330
1
100
AcDbSymbolTableRecord
100
AcDbBlockTableRecord
  2
*D13
340
0
  0
BLOCK_RECORD
  5
22E
330
1
100
AcDbSymbolTableRecord
100
AcDbBlockTableRecord
  2
*D14
340
0
  0
BLOCK_RECORD
  5
23A
330
1
100
AcDbSymbolTableRecord
100
AcDbBlockTableRecord
  2
*D15
340
0
  0
BLOCK_RECORD
  5
246
330
1
100
AcDbSymbolTableRecord
100
AcDbBlockTableRecord
  2
*D16
340
0
  0
BLOCK_RECORD
  5
252
330
1
100
AcDbSymbolTableRecord
100
AcDbBlockTableRecord
  2
*D17
340
0
  0
BLOCK_RECORD
  5
264
330
1
100
AcDbSymbolTableRecord
100
AcDbBlockTableRecord
  2
*D18
340
0
  0
ENDTAB
  0
ENDSEC
  0
SECTION
  2
BLOCKS
  0
BLOCK
  5
20
330
1F
100
AcDbEntity
  8
0
100
AcDbBlockBegin
  2
*Model_Space
 70
     0
 10
0.0
 20
0.0
 30
0.0
  3
*Model_Space
  1

  0
ENDBLK
  5
21
330
1F
100
AcDbEntity
  8
0
100
AcDbBlockEnd
  0
BLOCK
  5
1C
330
1B
100
AcDbEntity
 67
     1
  8
0
100
AcDbBlockBegin
  2
*Paper_Space
 70
     0
 10
0.0
 20
0.0
 30
0.0
  3
*Paper_Space
  1

  0
ENDBLK
  5
1D
330
1B
100
AcDbEntity
 67
     1
  8
0
100
AcDbBlockEnd
  0
BLOCK
  5
24
330
23
100
AcDbEntity
  8
0
100
AcDbBlockBegin
  2
*Paper_Space0
 70
     0
 10
0.0
 20
0.0
 30
0.0
  3
*Paper_Space0
  1

  0
ENDBLK
  5
25
330
23
100
AcDbEntity
  8
0
100
AcDbBlockEnd
  0
BLOCK
  5
80
330
7F
100
AcDbEntity
  8
0
100
AcDbBlockBegin
  2
블럭10
 70
     2
 10
0.0
 20
0.0
 30
0.0
  3
블럭10
  1

  0
ELLIPSE
  5
82
330
7F
100
AcDbEntity
  8
중심선
100
AcDbEllipse
 10
20.54032771741204
 20
12.0471743016438
 30
0.0
 11
6.600054785286829
 21
-1.261213355974178E-13
 31
0.0
210
0.0
220
0.0
230
1.0
 40
0.636358354079598
 41
0.9219305317359503
 42
6.513795318482858
  0
ELLIPSE
  5
83
330
7F
100
AcDbEntity
  8
중심선
100
AcDbEllipse
 10
20.54032771746488
 20
12.04717430159265
 30
0.0
 11
3.960054785062283
 21
1.540847449632565E-10
 31
0.0
210
0.0
220
0.0
230
1.0
 40
0.3939339440162632
 41
1.131841032648279
 42
5.62031148352944
  0
LINE
  5
84
330
7F
100
AcDbEntity
  8
중심선
100
AcDbLine
 10
2.268634060543552
 20
16.24717430164393
 30
0.0
 11
5.714909304380834
 21
16.24717430164393
 31
0.0
  0
LINE
  5
85
330
7F
100
AcDbEntity
  8
중심선
100
AcDbLine
 10
5.245725140726316
 20
7.84717430164391
 30
0.0
 11
8.692000384563599
 21
7.84717430164391
 31
0.0
  0
LINE
  5
86
330
7F
100
AcDbEntity
  8
중심선
100
AcDbLine
 10
15.74043728645272
 20
16.24717430164393
 30
0.0
 11
8.692000384563599
 21
7.84717430164391
 31
0.0
  0
LINE
  5
87
330
7F
100
AcDbEntity
  8
중심선
100
AcDbLine
 10
0.1404042013395286
 20
13.71084872107135
 30
0.0
 11
3.58671253028996
 21
13.71088815037384
 31
0.0
  0
LINE
  5
88
330
7F
100
AcDbEntity
  8
중심선
100
AcDbLine
 10
2.750260043222114
 20
10.84717430164391
 30
0.0
 11
6.196535287059397
 21
10.84717430164391
 31
0.0
  0
LINE
  5
89
330
7F
100
AcDbEntity
  8
중심선
100
AcDbLine
 10
12.29416204261559
 20
16.24717430164393
 30
0.0
 11
5.245725140726316
 21
7.84717430164391
 31
0.0
  0
LINE
  5
8A
330
7F
100
AcDbEntity
  8
중심선
100
AcDbLine
 10
10.72767329541681
 20
16.24717430164393
 30
0.0
 11
6.196535287059397
 21
10.84717430164391
 31
0.0
  0
LINE
  5
8B
330
7F
100
AcDbEntity
  8
중심선
100
AcDbLine
 10
7.28139805157953
 20
16.24717430164393
 30
0.0
 11
2.750260043222114
 21
10.84717430164391
 31
0.0
  0
LINE
  5
8C
330
7F
100
AcDbEntity
  8
중심선
100
AcDbLine
 10
5.714909304380834
 20
16.24717430164393
 30
0.0
 11
3.58671253028996
 21
13.71088815037384
 31
0.0
  0
LINE
  5
8D
330
7F
100
AcDbEntity
  8
중심선
100
AcDbLine
 10
2.268634060543552
 20
16.24717430164393
 30
0.0
 11
0.1404042013395286
 21
13.71084872107135
 31
0.0
  0
LINE
  5
8E
330
7F
100
AcDbEntity
  8
중심선
100
AcDbLine
 10
7.28139805157953
 20
16.24717430164393
 30
0.0
 11
10.72767329541681
 21
16.24717430164393
 31
0.0
  0
LINE
  5
8F
330
7F
100
AcDbEntity
  8
중심선
100
AcDbLine
 10
12.29416204261559
 20
16.24717430164393
 30
0.0
 11
15.74043728645272
 21
16.24717430164393
 31
0.0
  0
LINE
  5
90
330
7F
100
AcDbEntity
  8
중심선
100
AcDbLine
 10
19.22036997980202
 20
11.08717430171403
 30
0.0
 11
23.66174974927406
 21
11.08717430171406
 31
0.0
  0
LINE
  5
91
330
7F
100
AcDbEntity
  8
중심선
100
AcDbLine
 10
19.22039502424796
 20
13.00717430171391
 30
0.0
 11
19.22036997980202
 21
11.08717430171403
 31
0.0
  0
LINE
  5
92
330
7F
100
AcDbEntity
  8
중심선
100
AcDbLine
 10
19.22039502424796
 20
13.00717430171391
 30
0.0
 11
26.96566020931264
 21
13.00717430171391
 31
0.0
  0
LINE
  5
93
330
7F
100
AcDbEntity
  8
중심선
100
AcDbLine
 10
22.22332737316547
 20
13.45928029700563
 30
0.0
 11
24.52862924686651
 21
15.39360700705356
 31
0.0
  0
ATTDEF
  5
95
330
7F
100
AcDbEntity
  8
FORMAT
 62
     2
100
AcDbText
 10
-16.11926103943555
 20
2.075366912832191
 30
0.0
 40
4.233333333333333
  1
SEME0120010E [ 4 FLUTE ]
 41
0.75
  7
SLDTEXTSTYLE0
 11
-16.11926103943555
 21
-0.0412997538344756
 31
0.0
100
AcDbAttributeDefinition
  3

  2
AUTOATTR0
 70
     0
 74
     1
  0
ENDBLK
  5
81
330
7F
100
AcDbEntity
  8
0
100
AcDbBlockEnd
  0
BLOCK
  5
CE
330
CD
100
AcDbEntity
  8
0
100
AcDbBlockBegin
  2
_D
 70
     0
 10
0.0
 20
0.0
 30
0.0
  3
_D
  1

  0
SOLID
  5
D0
330
CD
100
AcDbEntity
  8
치수문자_일반주서
100
AcDbTrace
 10
71.60820615450577
 20
9.999999999999993
 30
0.0
 11
72.11620615450576
 21
13.30199999999999
 31
0.0
 12
71.10020615450577
 22
13.30199999999999
 32
0.0
 13
71.10020615450577
 23
13.30199999999999
 33
0.0
  0
SOLID
  5
D1
330
CD
100
AcDbEntity
  8
치수문자_일반주서
100
AcDbTrace
 10
71.60820615450577
 20
-9.999999999999991
 30
0.0
 11
71.10020615450577
 21
-13.30199999999999
 31
0.0
 12
72.11620615450576
 22
-13.30199999999999
 32
0.0
 13
72.11620615450576
 23
-13.30199999999999
 33
0.0
  0
LINE
  5
D2
330
CD
100
AcDbEntity
  8
치수문자_일반주서
100
AcDbLine
 10
82.5040390002079
 20
9.999999999999993
 30
0.0
 11
70.60820615450577
 21
9.999999999999993
 31
0.0
  0
LINE
  5
D3
330
CD
100
AcDbEntity
  8
치수문자_일반주서
100
AcDbLine
 10
82.50403900020775
 20
-9.999999999999993
 30
0.0
 11
70.60820615450577
 21
-9.999999999999991
 31
0.0
  0
LINE
  5
D4
330
CD
100
AcDbEntity
  8
치수문자_일반주서
100
AcDbLine
 10
71.60820615450577
 20
9.999999999999993
 30
0.0
 11
71.60820615450577
 21
16.34999999999999
 31
0.0
  0
LINE
  5
D5
330
CD
100
AcDbEntity
  8
치수문자_일반주서
100
AcDbLine
 10
71.60820615450577
 20
9.999999999999993
 30
0.0
 11
71.60820615450577
 21
-9.999999999999991
 31
0.0
  0
LINE
  5
D6
330
CD
100
AcDbEntity
  8
치수문자_일반주서
100
AcDbLine
 10
71.60820615450577
 20
-9.999999999999991
 30
0.0
 11
71.60820615450577
 21
-16.34999999999999
 31
0.0
  0
MTEXT
  5
D7
330
CD
100
AcDbEntity
  8
치수문자_일반주서
100
AcDbMText
 10
67.0964690653039
 20
-5.225330125540515
 30
0.0
 40
3.5
 41
0.0
 71
     1
 72
     1
  1
%%c
  7
SLDTEXTSTYLE0
 11
-7.044195017643634E-15
 21
1.0
 31
0.0
 73
     1
 44
1.0
  0
MTEXT
  5
D8
330
CD
100
AcDbEntity
  8
치수문자_일반주서
100
AcDbMText
 10
67.04299688864401
 20
0.0531072728335651
 30
0.0
 40
3.5
 41
0.0
 71
     1
 72
     1
  1
20
  7
SLDTEXTSTYLE0
 11
-7.044195017643634E-15
 21
1.0
 31
0.0
 73
     1
 44
1.0
  0
ENDBLK
  5
CF
330
CD
100
AcDbEntity
  8
0
100
AcDbBlockEnd
  0
BLOCK
  5
DB
330
DA
100
AcDbEntity
  8
0
100
AcDbBlockBegin
  2
_D_1
 70
     0
 10
0.0
 20
0.0
 30
0.0
  3
_D_1
  1

  0
SOLID
  5
DD
330
DA
100
AcDbEntity
  8
치수문자_일반주서
100
AcDbTrace
 10
-52.17512886940357
 20
10.00000000000001
 30
0.0
 11
-51.66712886940357
 21
13.30200000000001
 31
0.0
 12
-52.68312886940357
 22
13.30200000000001
 32
0.0
 13
-52.68312886940357
 23
13.30200000000001
 33
0.0
  0
SOLID
  5
DE
330
DA
100
AcDbEntity
  8
치수문자_일반주서
100
AcDbTrace
 10
-52.17512886940357
 20
-10.00000000000001
 30
0.0
 11
-52.68312886940357
 21
-13.30200000000001
 31
0.0
 12
-51.66712886940357
 22
-13.30200000000001
 32
0.0
 13
-51.66712886940357
 23
-13.30200000000001
 33
0.0
  0
LINE
  5
DF
330
DA
100
AcDbEntity
  8
치수문자_일반주서
100
AcDbLine
 10
-39.77512886940357
 20
10.00000000000001
 30
0.0
 11
-53.17512886940357
 21
10.00000000000001
 31
0.0
  0
LINE
  5
E0
330
DA
100
AcDbEntity
  8
치수문자_일반주서
100
AcDbLine
 10
-39.77512886940357
 20
-10.00000000000001
 30
0.0
 11
-53.17512886940357
 21
-10.00000000000001
 31
0.0
  0
LINE
  5
E1
330
DA
100
AcDbEntity
  8
치수문자_일반주서
100
AcDbLine
 10
-52.17512886940357
 20
10.00000000000001
 30
0.0
 11
-52.17512886940357
 21
16.35000000000001
 31
0.0
  0
LINE
  5
E2
330
DA
100
AcDbEntity
  8
치수문자_일반주서
100
AcDbLine
 10
-52.17512886940357
 20
10.00000000000001
 30
0.0
 11
-52.17512886940357
 21
-10.00000000000001
 31
0.0
  0
LINE
  5
E3
330
DA
100
AcDbEntity
  8
치수문자_일반주서
100
AcDbLine
 10
-52.17512886940357
 20
-10.00000000000001
 30
0.0
 11
-52.17512886940357
 21
-16.35000000000001
 31
0.0
  0
MTEXT
  5
E4
330
DA
100
AcDbEntity
  8
치수문자_일반주서
100
AcDbMText
 10
-56.68686595860542
 20
-5.22533012554053
 30
0.0
 40
3.5
 41
0.0
 71
     1
 72
     1
  1
%%c
  7
SLDTEXTSTYLE0
 11
-7.044195017643634E-15
 21
1.0
 31
0.0
 73
     1
 44
1.0
  0
MTEXT
  5
E5
330
DA
100
AcDbEntity
  8
치수문자_일반주서
100
AcDbMText
 10
-56.7403381352653
 20
0.0531072728335513
 30
0.0
 40
3.5
 41
0.0
 71
     1
 72
     1
  1
20
  7
SLDTEXTSTYLE0
 11
-7.044195017643634E-15
 21
1.0
 31
0.0
 73
     1
 44
1.0
  0
ENDBLK
  5
DC
330
DA
100
AcDbEntity
  8
0
100
AcDbBlockEnd
  0
BLOCK
  5
E9
330
E8
100
AcDbEntity
  8
0
100
AcDbBlockBegin
  2
_D_2
 70
     0
 10
0.0
 20
0.0
 30
0.0
  3
_D_2
  1

  0
SOLID
  5
EB
330
E8
100
AcDbEntity
  8
치수문자_일반주서
100
AcDbTrace
 10
109.2248711305964
 20
26.39819575764274
 30
0.0
 11
105.9228711305964
 21
26.90619575764274
 31
0.0
 12
105.9228711305964
 22
25.89019575764274
 32
0.0
 13
105.9228711305964
 23
25.89019575764274
 33
0.0
  0
SOLID
  5
EC
330
E8
100
AcDbEntity
  8
치수문자_일반주서
100
AcDbTrace
 10
71.22487113059645
 20
26.39819575764274
 30
0.0
 11
74.52687113059645
 21
25.89019575764274
 31
0.0
 12
74.52687113059645
 22
26.90619575764274
 32
0.0
 13
74.52687113059645
 23
26.90619575764274
 33
0.0
  0
LINE
  5
ED
330
E8
100
AcDbEntity
  8
치수문자_일반주서
100
AcDbLine
 10
109.2248711305964
 20
9.94502530339988
 30
0.0
 11
109.2248711305964
 21
27.39819575764274
 31
0.0
  0
LINE
  5
EE
330
E8
100
AcDbEntity
  8
치수문자_일반주서
100
AcDbLine
 10
71.22487113059645
 20
9.727966670947964
 30
0.0
 11
71.22487113059645
 21
27.39819575764274
 31
0.0
  0
LINE
  5
EF
330
E8
100
AcDbEntity
  8
치수문자_일반주서
100
AcDbLine
 10
109.2248711305964
 20
26.39819575764274
 30
0.0
 11
71.22487113059645
 21
26.39819575764274
 31
0.0
  0
MTEXT
  5
F0
330
E8
100
AcDbEntity
  8
치수문자_일반주서
100
AcDbMText
 10
87.63875993707362
 20
30.90993267222163
 30
0.0
 40
3.5
 41
0.0
 71
     1
 72
     1
  1
38
  7
SLDTEXTSTYLE0
 73
     1
 44
1.0
  0
ENDBLK
  5
EA
330
E8
100
AcDbEntity
  8
0
100
AcDbBlockEnd
  0
BLOCK
  5
F3
330
F2
100
AcDbEntity
  8
0
100
AcDbBlockBegin
  2
_D_3
 70
     0
 10
0.0
 20
0.0
 30
0.0
  3
_D_3
  1

  0
SOLID
  5
F5
330
F2
100
AcDbEntity
  8
치수문자_일반주서
100
AcDbTrace
 10
109.2248711305964
 20
33.81455844800966
 30
0.0
 11
105.9228711305964
 21
34.32255844800967
 31
0.0
 12
105.9228711305964
 22
33.30655844800966
 32
0.0
 13
105.9228711305964
 23
33.30655844800966
 33
0.0
  0
SOLID
  5
F6
330
F2
100
AcDbEntity
  8
치수문자_일반주서
100
AcDbTrace
 10
-40.77512886940357
 20
33.81455844800966
 30
0.0
 11
-37.47312886940357
 21
33.30655844800966
 31
0.0
 12
-37.47312886940357
 22
34.32255844800967
 32
0.0
 13
-37.47312886940357
 23
34.32255844800967
 33
0.0
  0
LINE
  5
F7
330
F2
100
AcDbEntity
  8
치수문자_일반주서
100
AcDbLine
 10
109.2248711305964
 20
9.94502530339988
 30
0.0
 11
109.2248711305964
 21
34.81455844800966
 31
0.0
  0
LINE
  5
F8
330
F2
100
AcDbEntity
  8
치수문자_일반주서
100
AcDbLine
 10
-40.77512886940357
 20
9.000000000000007
 30
0.0
 11
-40.77512886940357
 21
34.81455844800966
 31
0.0
  0
LINE
  5
F9
330
F2
100
AcDbEntity
  8
치수문자_일반주서
100
AcDbLine
 10
109.2248711305964
 20
33.81455844800966
 30
0.0
 11
-40.77512886940357
 21
33.81455844800966
 31
0.0
  0
MTEXT
  5
FA
330
F2
100
AcDbEntity
  8
치수문자_일반주서
100
AcDbMText
 10
30.34570445672751
 20
38.32629536258856
 30
0.0
 40
3.5
 41
0.0
 71
     1
 72
     1
  1
150
  7
SLDTEXTSTYLE0
 73
     1
 44
1.0
  0
ENDBLK
  5
F4
330
F2
100
AcDbEntity
  8
0
100
AcDbBlockEnd
  0
BLOCK
  5
103
330
102
100
AcDbEntity
  8
0
100
AcDbBlockBegin
  2
SW_DOWELSYMBOL_0
 70
     0
 10
0.0
 20
0.0
 30
0.0
  3
SW_DOWELSYMBOL_0
  1

  0
CIRCLE
  5
105
330
102
100
AcDbEntity
  8
해칭선
 62
     0
100
AcDbCircle
 10
0.0
 20
0.0
 30
0.0
 40
3.000000000000008
  0
HATCH
  5
106
330
102
100
AcDbEntity
  8
0
  6
Continuous
 62
     0
370
     0
100
AcDbHatch
 10
0.0
 20
0.0
 30
0.0
210
0.0
220
0.0
230
1.0
  2
SOLID
 70
     1
 71
     0
 91
        1
 92
        0
 93
        3
 72
     2
 10
0.0
 20
0.0
 40
3.000000000000008
 50
0.0
 51
90.0
 73
     1
 72
     1
 10
0.0
 20
3.000000000000008
 11
0.0
 21
0.0
 72
     1
 10
0.0
 20
0.0
 11
3.000000000000003
 21
0.0
 97
        0
 75
     0
 76
     1
 98
        1
 10
0.0
 20
0.0
  0
HATCH
  5
107
330
102
100
AcDbEntity
  8
0
  6
Continuous
 62
     0
370
     0
100
AcDbHatch
 10
0.0
 20
0.0
 30
0.0
210
0.0
220
0.0
230
1.0
  2
SOLID
 70
     1
 71
     0
 91
        1
 92
        0
 93
        3
 72
     2
 10
0.0
 20
0.0
 40
3.000000000000008
 50
180.0
 51
270.0000000000008
 73
     1
 72
     1
 10
0.0
 20
-3.000000000000008
 11
0.0
 21
0.0
 72
     1
 10
0.0
 20
0.0
 11
-3.000000000000003
 21
0.0
 97
        0
 75
     0
 76
     1
 98
        1
 10
0.0
 20
0.0
  0
ENDBLK
  5
104
330
102
100
AcDbEntity
  8
0
100
AcDbBlockEnd
  0
BLOCK
  5
1AF
330
1AE
100
AcDbEntity
  8
0
100
AcDbBlockBegin
  2
*D8
 70
     1
 10
0.0
 20
0.0
 30
0.0
  3
*D8
  1

  0
LINE
  5
1B0
330
1AE
100
AcDbEntity
  8
치수문자_일반주서
 62
     0
370
    -2
100
AcDbLine
 10
167.01919962336
 20
20.05930435828547
 30
0.0
 11
177.3756919234546
 21
0.0000000000000213
 31
0.0
  0
MTEXT
  5
1B1
330
1AE
100
AcDbEntity
  8
치수문자_일반주서
 62
     0
100
AcDbMText
 10
177.6007429742805
 20
5.286068112219361
 30
0.0
 40
3.5
 41
0.0
 71
     5
 72
     1
  1
\A1;R0.5
  7
SLDTEXTSTYLE0
 11
0.4587584490689118
 21
-0.8885610195185735
 31
0.0
 73
     1
 44
1.0
  0
SOLID
  5
1B2
330
1AE
100
AcDbEntity
  8
치수문자_일반주서
 62
     0
100
AcDbTrace
 10
167.5082043711017
 20
20.31177442475639
 30
0.0
 11
166.5301948756183
 21
19.80683429181454
 31
0.0
 12
165.5043792245345
 22
22.9933328447358
 32
0.0
 13
165.5043792245345
 23
22.9933328447358
 33
0.0
  0
LINE
  5
1B3
330
1AE
100
AcDbEntity
  8
치수문자_일반주서
 62
     0
100
AcDbLine
 10
165.185
 20
23.43761335449508
 30
0.0
 11
165.365
 21
23.43761335449508
 31
0.0
  0
LINE
  5
1B4
330
1AE
100
AcDbEntity
  8
치수문자_일반주서
 62
     0
100
AcDbLine
 10
165.275
 20
23.34761335449508
 30
0.0
 11
165.275
 21
23.52761335449508
 31
0.0
  0
POINT
  5
1B5
330
1AE
100
AcDbEntity
  8
Defpoints
 62
     0
100
AcDbPoint
 10
165.5043792245345
 20
22.9933328447358
 30
0.0
  0
POINT
  5
1B6
330
1AE
100
AcDbEntity
  8
Defpoints
 62
     0
100
AcDbPoint
 10
165.275
 20
23.43761335449508
 30
0.0
  0
ENDBLK
  5
1B7
330
1AE
100
AcDbEntity
  8
0
100
AcDbBlockEnd
  0
BLOCK
  5
1BD
330
1BC
100
AcDbEntity
  8
0
100
AcDbBlockBegin
  2
*D9
 70
     1
 10
0.0
 20
0.0
 30
0.0
  3
*D9
  1

  0
LINE
  5
1BF
330
1BC
100
AcDbEntity
  8
치수문자_일반주서
 62
     0
370
    -2
100
AcDbLine
 10
146.213865785599
 20
42.93761335449508
 30
0.0
 11
186.0541678696114
 21
42.93761335449526
 31
0.0
  0
LINE
  5
1C0
330
1BC
100
AcDbEntity
  8
치수문자_일반주서
 62
     0
370
    -2
100
AcDbLine
 10
146.213865785599
 20
22.93761335449509
 30
0.0
 11
186.0541678696115
 21
22.93761335449526
 31
0.0
  0
LINE
  5
1C1
330
1BC
100
AcDbEntity
  8
치수문자_일반주서
 62
     0
370
    -2
100
AcDbLine
 10
186.0541678696114
 20
39.63561335449526
 30
0.0
 11
186.0541678696115
 21
26.23961335449526
 31
0.0
  0
SOLID
  5
1C2
330
1BC
100
AcDbEntity
  8
치수문자_일반주서
 62
     0
100
AcDbTrace
 10
186.6045012029448
 20
39.63561335449526
 30
0.0
 11
185.5038345362781
 21
39.63561335449526
 31
0.0
 12
186.0541678696114
 22
42.93761335449526
 32
0.0
 13
186.0541678696114
 23
42.93761335449526
 33
0.0
  0
SOLID
  5
1C3
330
1BC
100
AcDbEntity
  8
치수문자_일반주서
 62
     0
100
AcDbTrace
 10
185.5038345362782
 20
26.23961335449526
 30
0.0
 11
186.6045012029448
 21
26.23961335449526
 31
0.0
 12
186.0541678696115
 22
22.93761335449526
 32
0.0
 13
186.0541678696115
 23
22.93761335449526
 33
0.0
  0
MTEXT
  5
1C4
330
1BC
100
AcDbEntity
  8
치수문자_일반주서
 62
     0
100
AcDbMText
 10
181.6791678696115
 20
32.93761335449523
 30
0.0
 40
3.5
 41
0.0
 71
     2
 72
     1
  1
\A1;%%c20
  7
SLDTEXTSTYLE0
 11
-2.842170943040401E-15
 21
1.0
 31
0.0
 73
     1
 44
1.0
  0
POINT
  5
1C5
330
1BC
100
AcDbEntity
  8
Defpoints
 62
     0
100
AcDbPoint
 10
140.0541678696115
 20
42.93761335449508
 30
0.0
  0
POINT
  5
1C6
330
1BC
100
AcDbEntity
  8
Defpoints
 62
     0
100
AcDbPoint
 10
140.0541678696114
 20
22.93761335449509
 30
0.0
  0
POINT
  5
1C7
330
1BC
100
AcDbEntity
  8
Defpoints
 62
     0
100
AcDbPoint
 10
186.0541678696115
 20
22.93761335449526
 30
0.0
  0
ENDBLK
  5
1BE
330
1BC
100
AcDbEntity
  8
0
100
AcDbBlockEnd
  0
BLOCK
  5
1C9
330
1C8
100
AcDbEntity
  8
0
100
AcDbBlockBegin
  2
*D10
 70
     1
 10
0.0
 20
0.0
 30
0.0
  3
*D10
  1

  0
LINE
  5
1CB
330
1C8
100
AcDbEntity
  8
치수문자_일반주서
 62
     0
370
    -2
100
AcDbLine
 10
17.71250000000001
 20
42.9376133544951
 30
0.0
 11
4.374999999999965
 21
42.93761335449505
 31
0.0
  0
LINE
  5
1CC
330
1C8
100
AcDbEntity
  8
치수문자_일반주서
 62
     0
370
    -2
100
AcDbLine
 10
17.71250000000001
 20
22.93761335449508
 30
0.0
 11
4.375000000000036
 21
22.93761335449503
 31
0.0
  0
LINE
  5
1CD
330
1C8
100
AcDbEntity
  8
치수문자_일반주서
 62
     0
370
    -2
100
AcDbLine
 10
4.374999999999977
 20
39.63561335449505
 30
0.0
 11
4.375000000000024
 21
26.23961335449503
 31
0.0
  0
SOLID
  5
1CE
330
1C8
100
AcDbEntity
  8
치수문자_일반주서
 62
     0
100
AcDbTrace
 10
4.92533333333331
 20
39.63561335449505
 30
0.0
 11
3.824666666666644
 21
39.63561335449505
 31
0.0
 12
4.374999999999965
 22
42.93761335449505
 32
0.0
 13
4.374999999999965
 23
42.93761335449505
 33
0.0
  0
SOLID
  5
1CF
330
1C8
100
AcDbEntity
  8
치수문자_일반주서
 62
     0
100
AcDbTrace
 10
3.824666666666691
 20
26.23961335449502
 30
0.0
 11
4.925333333333358
 21
26.23961335449503
 31
0.0
 12
4.375000000000036
 22
22.93761335449503
 32
0.0
 13
4.375000000000036
 23
22.93761335449503
 33
0.0
  0
MTEXT
  5
1D0
330
1C8
100
AcDbEntity
  8
치수문자_일반주서
 62
     0
100
AcDbMText
 10
0.0
 20
32.93761335449508
 30
0.0
 40
3.5
 41
0.0
 71
     2
 72
     1
  1
\A1;%%c20
  7
SLDTEXTSTYLE0
 11
-3.508304757815491E-15
 21
1.0
 31
0.0
 73
     1
 44
1.0
  0
POINT
  5
1D1
330
1C8
100
AcDbEntity
  8
Defpoints
 62
     0
100
AcDbPoint
 10
17.77500000000001
 20
42.9376133544951
 30
0.0
  0
POINT
  5
1D2
330
1C8
100
AcDbEntity
  8
Defpoints
 62
     0
100
AcDbPoint
 10
17.77500000000001
 20
22.93761335449508
 30
0.0
  0
POINT
  5
1D3
330
1C8
100
AcDbEntity
  8
Defpoints
 62
     0
100
AcDbPoint
 10
4.375000000000043
 20
22.93761335449503
 30
0.0
  0
ENDBLK
  5
1CA
330
1C8
100
AcDbEntity
  8
0
100
AcDbBlockEnd
  0
BLOCK
  5
1D5
330
1D4
100
AcDbEntity
  8
0
100
AcDbBlockBegin
  2
*D11
 70
     1
 10
0.0
 20
0.0
 30
0.0
  3
*D11
  1

  0
LINE
  5
1D7
330
1D4
100
AcDbEntity
  8
치수문자_일반주서
 62
     0
370
    -2
100
AcDbLine
 10
165.775
 20
42.45275021419732
 30
0.0
 11
165.775
 21
59.84342066844017
 31
0.0
  0
LINE
  5
1D8
330
1D4
100
AcDbEntity
  8
치수문자_일반주서
 62
     0
370
    -2
100
AcDbLine
 10
127.775
 20
41.72808002544306
 30
0.0
 11
127.775
 21
59.84342066844017
 31
0.0
  0
LINE
  5
1D9
330
1D4
100
AcDbEntity
  8
치수문자_일반주서
 62
     0
370
    -2
100
AcDbLine
 10
162.473
 20
59.84342066844017
 30
0.0
 11
131.077
 21
59.84342066844017
 31
0.0
  0
SOLID
  5
1DA
330
1D4
100
AcDbEntity
  8
치수문자_일반주서
 62
     0
100
AcDbTrace
 10
162.473
 20
59.29308733510684
 30
0.0
 11
162.473
 21
60.39375400177351
 31
0.0
 12
165.775
 22
59.84342066844017
 32
0.0
 13
165.775
 23
59.84342066844017
 33
0.0
  0
SOLID
  5
1DB
330
1D4
100
AcDbEntity
  8
치수문자_일반주서
 62
     0
100
AcDbTrace
 10
131.077
 20
60.39375400177351
 30
0.0
 11
131.077
 21
59.29308733510684
 31
0.0
 12
127.775
 22
59.84342066844017
 32
0.0
 13
127.775
 23
59.84342066844017
 33
0.0
  0
MTEXT
  5
1DC
330
1D4
100
AcDbEntity
  8
치수문자_일반주서
 62
     0
100
AcDbMText
 10
146.775
 20
64.21842066844017
 30
0.0
 40
3.5
 41
0.0
 71
     2
 72
     1
  1
\A1;38
  7
SLDTEXTSTYLE0
 73
     1
 44
1.0
  0
POINT
  5
1DD
330
1D4
100
AcDbEntity
  8
Defpoints
 62
     0
100
AcDbPoint
 10
165.775
 20
42.39025021419732
 30
0.0
  0
POINT
  5
1DE
330
1D4
100
AcDbEntity
  8
Defpoints
 62
     0
100
AcDbPoint
 10
127.775
 20
41.66558002544306
 30
0.0
  0
POINT
  5
1DF
330
1D4
100
AcDbEntity
  8
Defpoints
 62
     0
100
AcDbPoint
 10
127.775
 20
59.84342066844017
 30
0.0
  0
ENDBLK
  5
1D6
330
1D4
100
AcDbEntity
  8
0
100
AcDbBlockEnd
  0
BLOCK
  5
1E1
330
1E0
100
AcDbEntity
  8
0
100
AcDbBlockBegin
  2
*D12
 70
     1
 10
0.0
 20
0.0
 30
0.0
  3
*D12
  1

  0
LINE
  5
1E3
330
1E0
100
AcDbEntity
  8
치수문자_일반주서
 62
     0
370
    -2
100
AcDbLine
 10
165.775
 20
42.45275021419732
 30
0.0
 11
165.775
 21
67.25978335880711
 31
0.0
  0
LINE
  5
1E4
330
1E0
100
AcDbEntity
  8
치수문자_일반주서
 62
     0
370
    -2
100
AcDbLine
 10
15.77500000000001
 20
41.0001133544951
 30
0.0
 11
15.77500000000001
 21
67.25978335880711
 31
0.0
  0
LINE
  5
1E5
330
1E0
100
AcDbEntity
  8
치수문자_일반주서
 62
     0
370
    -2
100
AcDbLine
 10
162.473
 20
67.25978335880711
 30
0.0
 11
19.07700000000001
 21
67.25978335880711
 31
0.0
  0
SOLID
  5
1E6
330
1E0
100
AcDbEntity
  8
치수문자_일반주서
 62
     0
100
AcDbTrace
 10
162.473
 20
66.70945002547379
 30
0.0
 11
162.473
 21
67.81011669214044
 31
0.0
 12
165.775
 22
67.25978335880711
 32
0.0
 13
165.775
 23
67.25978335880711
 33
0.0
  0
SOLID
  5
1E7
330
1E0
100
AcDbEntity
  8
치수문자_일반주서
 62
     0
100
AcDbTrace
 10
19.07700000000001
 20
67.81011669214044
 30
0.0
 11
19.07700000000001
 21
66.70945002547379
 31
0.0
 12
15.77500000000001
 22
67.25978335880711
 32
0.0
 13
15.77500000000001
 23
67.25978335880711
 33
0.0
  0
MTEXT
  5
1E8
330
1E0
100
AcDbEntity
  8
치수문자_일반주서
 62
     0
100
AcDbMText
 10
90.775
 20
71.63478335880711
 30
0.0
 40
3.5
 41
0.0
 71
     2
 72
     1
  1
\A1;150
  7
SLDTEXTSTYLE0
 73
     1
 44
1.0
  0
POINT
  5
1E9
330
1E0
100
AcDbEntity
  8
Defpoints
 62
     0
100
AcDbPoint
 10
165.775
 20
42.39025021419732
 30
0.0
  0
POINT
  5
1EA
330
1E0
100
AcDbEntity
  8
Defpoints
 62
     0
100
AcDbPoint
 10
15.77500000000001
 20
40.9376133544951
 30
0.0
  0
POINT
  5
1EB
330
1E0
100
AcDbEntity
  8
Defpoints
 62
     0
100
AcDbPoint
 10
15.77500000000001
 20
67.25978335880711
 30
0.0
  0
ENDBLK
  5
1E2
330
1E0
100
AcDbEntity
  8
0
100
AcDbBlockEnd
  0
BLOCK
  5
223
330
222
100
AcDbEntity
  8
0
100
AcDbBlockBegin
  2
*D13
 70
     1
 10
0.0
 20
0.0
 30
0.0
  3
*D13
  1

  0
LINE
  5
225
330
222
100
AcDbEntity
  8
치수문자_일반주서
 62
     0
370
    -2
100
AcDbLine
 10
28.43886578559901
 20
10.0
 30
0.0
 11
68.27916786961144
 21
10.00000000000017
 31
0.0
  0
LINE
  5
226
330
222
100
AcDbEntity
  8
치수문자_일반주서
 62
     0
370
    -2
100
AcDbLine
 10
28.43886578559901
 20
-10.0
 30
0.0
 11
68.27916786961151
 21
-9.999999999999828
 31
0.0
  0
LINE
  5
227
330
222
100
AcDbEntity
  8
치수문자_일반주서
 62
     0
370
    -2
100
AcDbLine
 10
68.27916786961146
 20
6.698000000000173
 30
0.0
 11
68.2791678696115
 21
-6.697999999999828
 31
0.0
  0
SOLID
  5
228
330
222
100
AcDbEntity
  8
치수문자_일반주서
 62
     0
100
AcDbTrace
 10
68.82950120294478
 20
6.698000000000174
 30
0.0
 11
67.72883453627813
 21
6.698000000000171
 31
0.0
 12
68.27916786961144
 22
10.00000000000017
 32
0.0
 13
68.27916786961144
 23
10.00000000000017
 33
0.0
  0
SOLID
  5
229
330
222
100
AcDbEntity
  8
치수문자_일반주서
 62
     0
100
AcDbTrace
 10
67.72883453627817
 20
-6.69799999999983
 30
0.0
 11
68.82950120294483
 21
-6.697999999999826
 31
0.0
 12
68.27916786961151
 22
-9.999999999999828
 32
0.0
 13
68.27916786961151
 23
-9.999999999999828
 33
0.0
  0
MTEXT
  5
22A
330
222
100
AcDbEntity
  8
치수문자_일반주서
 62
     0
100
AcDbMText
 10
63.90416786961148
 20
0.0000000000001551
 30
0.0
 40
3.5
 41
0.0
 71
     2
 72
     1
  1
\A1;%%c20
  7
SLDTEXTSTYLE0
 11
-3.552713678800501E-15
 21
1.0
 31
0.0
 73
     1
 44
1.0
  0
POINT
  5
22B
330
222
100
AcDbEntity
  8
Defpoints
 62
     0
100
AcDbPoint
 10
22.27916786961154
 20
10.0
 30
0.0
  0
POINT
  5
22C
330
222
100
AcDbEntity
  8
Defpoints
 62
     0
100
AcDbPoint
 10
22.27916786961137
 20
-10.0
 30
0.0
  0
POINT
  5
22D
330
222
100
AcDbEntity
  8
Defpoints
 62
     0
100
AcDbPoint
 10
68.27916786961151
 20
-9.999999999999828
 30
0.0
  0
ENDBLK
  5
224
330
222
100
AcDbEntity
  8
0
100
AcDbBlockEnd
  0
BLOCK
  5
22F
330
22E
100
AcDbEntity
  8
0
100
AcDbBlockBegin
  2
*D14
 70
     1
 10
0.0
 20
0.0
 30
0.0
  3
*D14
  1

  0
LINE
  5
231
330
22E
100
AcDbEntity
  8
치수문자_일반주서
 62
     0
370
    -2
100
AcDbLine
 10
-100.0625
 20
10.00000000000001
 30
0.0
 11
-113.4
 21
9.999999999999964
 31
0.0
  0
LINE
  5
232
330
22E
100
AcDbEntity
  8
치수문자_일반주서
 62
     0
370
    -2
100
AcDbLine
 10
-100.0625
 20
-10.0
 30
0.0
 11
-113.4
 21
-10.00000000000005
 31
0.0
  0
LINE
  5
233
330
22E
100
AcDbEntity
  8
치수문자_일반주서
 62
     0
370
    -2
100
AcDbLine
 10
-113.4
 20
6.697999999999965
 30
0.0
 11
-113.4
 21
-6.69800000000005
 31
0.0
  0
SOLID
  5
234
330
22E
100
AcDbEntity
  8
치수문자_일반주서
 62
     0
100
AcDbTrace
 10
-112.8496666666667
 20
6.697999999999967
 30
0.0
 11
-113.9503333333333
 21
6.697999999999963
 31
0.0
 12
-113.4
 22
9.999999999999964
 32
0.0
 13
-113.4
 23
9.999999999999964
 33
0.0
  0
SOLID
  5
235
330
22E
100
AcDbEntity
  8
치수문자_일반주서
 62
     0
100
AcDbTrace
 10
-113.9503333333333
 20
-6.698000000000052
 30
0.0
 11
-112.8496666666666
 21
-6.698000000000048
 31
0.0
 12
-113.4
 22
-10.00000000000005
 32
0.0
 13
-113.4
 23
-10.00000000000005
 33
0.0
  0
MTEXT
  5
236
330
22E
100
AcDbEntity
  8
치수문자_일반주서
 62
     0
100
AcDbMText
 10
-117.775
 20
-0.0000000000000154
 30
0.0
 40
3.5
 41
0.0
 71
     2
 72
     1
  1
\A1;%%c20
  7
SLDTEXTSTYLE0
 11
-3.552713678800499E-15
 21
1.0
 31
0.0
 73
     1
 44
1.0
  0
POINT
  5
237
330
22E
100
AcDbEntity
  8
Defpoints
 62
     0
100
AcDbPoint
 10
-100.0
 20
10.00000000000001
 30
0.0
  0
POINT
  5
238
330
22E
100
AcDbEntity
  8
Defpoints
 62
     0
100
AcDbPoint
 10
-100.0
 20
-10.0
 30
0.0
  0
POINT
  5
239
330
22E
100
AcDbEntity
  8
Defpoints
 62
     0
100
AcDbPoint
 10
-113.4
 20
-10.00000000000005
 30
0.0
  0
ENDBLK
  5
230
330
22E
100
AcDbEntity
  8
0
100
AcDbBlockEnd
  0
BLOCK
  5
23B
330
23A
100
AcDbEntity
  8
0
100
AcDbBlockBegin
  2
*D15
 70
     1
 10
0.0
 20
0.0
 30
0.0
  3
*D15
  1

  0
LINE
  5
23D
330
23A
100
AcDbEntity
  8
치수문자_일반주서
 62
     0
370
    -2
100
AcDbLine
 10
48.00000000000003
 20
9.515136859702231
 30
0.0
 11
48.00000000000003
 21
26.90580731394509
 31
0.0
  0
LINE
  5
23E
330
23A
100
AcDbEntity
  8
치수문자_일반주서
 62
     0
370
    -2
100
AcDbLine
 10
10.0
 20
8.790466670947971
 30
0.0
 11
10.0
 21
26.90580731394509
 31
0.0
  0
LINE
  5
23F
330
23A
100
AcDbEntity
  8
치수문자_일반주서
 62
     0
370
    -2
100
AcDbLine
 10
44.69800000000003
 20
26.90580731394509
 30
0.0
 11
13.302
 21
26.90580731394509
 31
0.0
  0
SOLID
  5
240
330
23A
100
AcDbEntity
  8
치수문자_일반주서
 62
     0
100
AcDbTrace
 10
44.69800000000003
 20
26.35547398061176
 30
0.0
 11
44.69800000000003
 21
27.45614064727842
 31
0.0
 12
48.00000000000003
 22
26.90580731394509
 32
0.0
 13
48.00000000000003
 23
26.90580731394509
 33
0.0
  0
SOLID
  5
241
330
23A
100
AcDbEntity
  8
치수문자_일반주서
 62
     0
100
AcDbTrace
 10
13.302
 20
27.45614064727842
 30
0.0
 11
13.302
 21
26.35547398061176
 31
0.0
 12
10.0
 22
26.90580731394509
 32
0.0
 13
10.0
 23
26.90580731394509
 33
0.0
  0
MTEXT
  5
242
330
23A
100
AcDbEntity
  8
치수문자_일반주서
 62
     0
100
AcDbMText
 10
29.00000000000003
 20
31.28080731394509
 30
0.0
 40
3.5
 41
0.0
 71
     2
 72
     1
  1
\A1;38
  7
SLDTEXTSTYLE0
 73
     1
 44
1.0
  0
POINT
  5
243
330
23A
100
AcDbEntity
  8
Defpoints
 62
     0
100
AcDbPoint
 10
48.00000000000003
 20
9.452636859702231
 30
0.0
  0
POINT
  5
244
330
23A
100
AcDbEntity
  8
Defpoints
 62
     0
100
AcDbPoint
 10
10.0
 20
8.727966670947971
 30
0.0
  0
POINT
  5
245
330
23A
100
AcDbEntity
  8
Defpoints
 62
     0
100
AcDbPoint
 10
10.0
 20
26.90580731394509
 30
0.0
  0
ENDBLK
  5
23C
330
23A
100
AcDbEntity
  8
0
100
AcDbBlockEnd
  0
BLOCK
  5
247
330
246
100
AcDbEntity
  8
0
100
AcDbBlockBegin
  2
*D16
 70
     1
 10
0.0
 20
0.0
 30
0.0
  3
*D16
  1

  0
LINE
  5
249
330
246
100
AcDbEntity
  8
치수문자_일반주서
 62
     0
370
    -2
100
AcDbLine
 10
48.00000000000003
 20
9.515136859702231
 30
0.0
 11
48.00000000000003
 21
34.32217000431203
 31
0.0
  0
LINE
  5
24A
330
246
100
AcDbEntity
  8
치수문자_일반주서
 62
     0
370
    -2
100
AcDbLine
 10
-102.0
 20
8.062500000000014
 30
0.0
 11
-102.0
 21
34.32217000431203
 31
0.0
  0
LINE
  5
24B
330
246
100
AcDbEntity
  8
치수문자_일반주서
 62
     0
370
    -2
100
AcDbLine
 10
44.69800000000003
 20
34.32217000431203
 30
0.0
 11
-98.69800000000001
 21
34.32217000431203
 31
0.0
  0
SOLID
  5
24C
330
246
100
AcDbEntity
  8
치수문자_일반주서
 62
     0
100
AcDbTrace
 10
44.69800000000003
 20
33.77183667097869
 30
0.0
 11
44.69800000000003
 21
34.87250333764536
 31
0.0
 12
48.00000000000003
 22
34.32217000431203
 32
0.0
 13
48.00000000000003
 23
34.32217000431203
 33
0.0
  0
SOLID
  5
24D
330
246
100
AcDbEntity
  8
치수문자_일반주서
 62
     0
100
AcDbTrace
 10
-98.69800000000001
 20
34.87250333764536
 30
0.0
 11
-98.69800000000001
 21
33.77183667097869
 31
0.0
 12
-102.0
 22
34.32217000431203
 32
0.0
 13
-102.0
 23
34.32217000431203
 33
0.0
  0
MTEXT
  5
24E
330
246
100
AcDbEntity
  8
치수문자_일반주서
 62
     0
100
AcDbMText
 10
-27.0
 20
38.69717000431203
 30
0.0
 40
3.5
 41
0.0
 71
     2
 72
     1
  1
\A1;150
  7
SLDTEXTSTYLE0
 73
     1
 44
1.0
  0
POINT
  5
24F
330
246
100
AcDbEntity
  8
Defpoints
 62
     0
100
AcDbPoint
 10
48.00000000000003
 20
9.452636859702231
 30
0.0
  0
POINT
  5
250
330
246
100
AcDbEntity
  8
Defpoints
 62
     0
100
AcDbPoint
 10
-102.0
 20
8.000000000000014
 30
0.0
  0
POINT
  5
251
330
246
100
AcDbEntity
  8
Defpoints
 62
     0
100
AcDbPoint
 10
-102.0
 20
34.32217000431203
 30
0.0
  0
ENDBLK
  5
248
330
246
100
AcDbEntity
  8
0
100
AcDbBlockEnd
  0
BLOCK
  5
253
330
252
100
AcDbEntity
  8
0
100
AcDbBlockBegin
  2
*D17
 70
     1
 10
0.0
 20
0.0
 30
0.0
  3
*D17
  1

  0
LINE
  5
255
330
252
100
AcDbEntity
  8
치수문자_일반주서
 62
     0
370
    -2
100
AcDbLine
 10
49.24419962336
 20
-12.87830899620964
 30
0.0
 11
59.60069192345437
 21
-32.93761335449515
 31
0.0
  0
MTEXT
  5
256
330
252
100
AcDbEntity
  8
치수문자_일반주서
 62
     0
100
AcDbMText
 10
59.82574297428036
 20
-27.65154524227581
 30
0.0
 40
3.5
 41
0.0
 71
     5
 72
     1
  1
\A1;R0.5
  7
SLDTEXTSTYLE0
 11
0.4587584490689032
 21
-0.8885610195185779
 31
0.0
 73
     1
 44
1.0
  0
SOLID
  5
257
330
252
100
AcDbEntity
  8
치수문자_일반주서
 62
     0
100
AcDbTrace
 10
49.73320437110173
 20
-12.62583892973872
 30
0.0
 11
48.75519487561828
 21
-13.13077906268056
 31
0.0
 12
47.72937922453448
 22
-9.944280509759295
 32
0.0
 13
47.72937922453448
 23
-9.944280509759295
 33
0.0
  0
LINE
  5
258
330
252
100
AcDbEntity
  8
치수문자_일반주서
 62
     0
100
AcDbLine
 10
47.41000000000003
 20
-9.5
 30
0.0
 11
47.59000000000003
 21
-9.5
 31
0.0
  0
LINE
  5
259
330
252
100
AcDbEntity
  8
치수문자_일반주서
 62
     0
100
AcDbLine
 10
47.50000000000003
 20
-9.59
 30
0.0
 11
47.50000000000003
 21
-9.41
 31
0.0
  0
POINT
  5
25A
330
252
100
AcDbEntity
  8
Defpoints
 62
     0
100
AcDbPoint
 10
47.72937922453448
 20
-9.944280509759295
 30
0.0
  0
POINT
  5
25B
330
252
100
AcDbEntity
  8
Defpoints
 62
     0
100
AcDbPoint
 10
47.50000000000003
 20
-9.5
 30
0.0
  0
ENDBLK
  5
254
330
252
100
AcDbEntity
  8
0
100
AcDbBlockEnd
  0
BLOCK
  5
265
330
264
100
AcDbEntity
  8
0
100
AcDbBlockBegin
  2
*D18
 70
     1
 10
0.0
 20
0.0
 30
0.0
  3
*D18
  1

  0
LINE
  5
267
330
264
100
AcDbEntity
  8
치수문자_일반주서
 62
     0
370
    -2
100
AcDbLine
 10
49.57525408973606
 20
-12.44605141768052
 30
0.0
 11
58.78539790782475
 21
-24.77051652109071
 31
0.0
  0
MTEXT
  5
268
330
264
100
AcDbEntity
  8
치수문자_일반주서
 62
     0
100
AcDbMText
 10
59.31674216302101
 20
-21.09642843253459
 30
0.0
 40
3.5
 41
0.0
 71
     5
 72
     1
  1
\A1;R1
  7
SLDTEXTSTYLE0
 11
0.5986178730209261
 21
-0.8010347321433089
 31
0.0
 73
     1
 44
1.0
  0
SOLID
  5
269
330
264
100
AcDbEntity
  8
치수문자_일반주서
 62
     0
100
AcDbTrace
 10
50.01609020399226
 20
-12.116612048228
 30
0.0
 11
49.13441797547986
 21
-12.77549078713303
 31
0.0
 12
47.59861787302096
 22
-9.801034732143311
 32
0.0
 13
47.59861787302096
 23
-9.801034732143311
 33
0.0
  0
LINE
  5
26A
330
264
100
AcDbEntity
  8
치수문자_일반주서
 62
     0
100
AcDbLine
 10
46.91000000000003
 20
-9.0
 30
0.0
 11
47.09000000000003
 21
-9.0
 31
0.0
  0
LINE
  5
26B
330
264
100
AcDbEntity
  8
치수문자_일반주서
 62
     0
100
AcDbLine
 10
47.00000000000003
 20
-9.09
 30
0.0
 11
47.00000000000003
 21
-8.91
 31
0.0
  0
POINT
  5
26C
330
264
100
AcDbEntity
  8
Defpoints
 62
     0
100
AcDbPoint
 10
47.59861787302096
 20
-9.801034732143311
 30
0.0
  0
POINT
  5
26D
330
264
100
AcDbEntity
  8
Defpoints
 62
     0
100
AcDbPoint
 10
47.00000000000003
 20
-9.0
 30
0.0
  0
ENDBLK
  5
266
330
264
100
AcDbEntity
  8
0
100
AcDbBlockEnd
  0
ENDSEC
  0
SECTION
  2
ENTITIES
  0
LINE
  5
C1
330
1F
100
AcDbEntity
  8
참조1
100
AcDbLine
 10
-15.77564223695981
 20
-2.499999999999974
 30
0.0
 11
-15.7756422369598
 21
-40.0
 31
0.0
  0
LINE
  5
C2
330
1F
100
AcDbEntity
  8
참조1
100
AcDbLine
 10
-15.7756422369598
 20
-40.0
 30
0.0
 11
-30.93398568371225
 21
-40.0
 31
0.0
  0
INSERT
  5
C4
330
1F
100
AcDbEntity
  8
0
  6
Continuous
 62
     7
100
AcDbBlockReference
 66
     1
  2
블럭10
 10
-29.71591516908501
 20
-52.04717430164393
 30
0.0
  0
ATTRIB
  5
C5
330
C4
100
AcDbEntity
  8
FORMAT
 62
     2
100
AcDbText
 10
-45.83517620852056
 20
-49.97180738881174
 30
0.0
 40
4.233333333333333
  1
SEME0120010E [ 4 FLUTE ]
 41
0.75
  7
SLDTEXTSTYLE0
 11
-45.83517620852056
 21
-52.08847405547841
 31
0.0
100
AcDbAttribute
  2
AUTOATTR0
 70
     0
 74
     1
  0
SEQEND
  5
C6
330
C4
100
AcDbEntity
  8
0
  6
Continuous
 62
     7
  0
HATCH
  5
C7
330
1F
100
AcDbEntity
  8
중심선
100
AcDbHatch
 10
0.0
 20
0.0
 30
0.0
210
0.0
220
0.0
230
1.0
  2
SOLID
 70
     1
 71
     0
 91
        1
 92
        0
 93
        4
 72
     1
 10
-24.00100586470416
 20
-35.8
 11
-27.44728110854144
 21
-35.8
 72
     1
 10
-27.44728110854144
 20
-35.8
 11
-29.57551096774547
 21
-38.33632558057259
 72
     1
 10
-29.57551096774547
 20
-38.33632558057259
 11
-26.12920263879504
 21
-38.3362861512701
 72
     1
 10
-26.12920263879504
 20
-38.3362861512701
 11
-24.00100586470416
 21
-35.8
 97
        0
 75
     0
 76
     1
 98
        1
 10
0.0
 20
0.0
  0
HATCH
  5
C8
330
1F
100
AcDbEntity
  8
중심선
100
AcDbHatch
 10
0.0
 20
0.0
 30
0.0
210
0.0
220
0.0
230
1.0
  2
SOLID
 70
     1
 71
     0
 91
        1
 92
        0
 93
        4
 72
     1
 10
-18.98824187366821
 20
-35.8
 11
-22.43451711750549
 21
-35.8
 72
     1
 10
-22.43451711750549
 20
-35.8
 11
-26.96565512586288
 21
-41.20000000000002
 72
     1
 10
-26.96565512586288
 20
-41.20000000000002
 11
-23.5193798820256
 21
-41.20000000000002
 72
     1
 10
-23.5193798820256
 20
-41.20000000000002
 11
-18.98824187366821
 21
-35.8
 97
        0
 75
     0
 76
     1
 98
        1
 10
0.0
 20
0.0
  0
HATCH
  5
C9
330
1F
100
AcDbEntity
  8
중심선
100
AcDbHatch
 10
0.0
 20
0.0
 30
0.0
210
0.0
220
0.0
230
1.0
  2
SOLID
 70
     1
 71
     0
 91
        1
 92
        0
 93
        4
 72
     1
 10
-13.97547788263232
 20
-35.80000000000003
 11
-17.42175312646943
 21
-35.8
 72
     1
 10
-17.42175312646943
 20
-35.8
 11
-24.47019002835868
 21
-44.20000000000002
 72
     1
 10
-24.47019002835868
 20
-44.20000000000002
 11
-21.0239147845214
 21
-44.20000000000002
 72
     1
 10
-21.0239147845214
 20
-44.20000000000002
 11
-13.97547788263232
 21
-35.80000000000003
 97
        0
 75
     0
 76
     1
 98
        1
 10
0.0
 20
0.0
  0
HATCH
  5
CA
330
1F
100
AcDbEntity
  8
중심선
100
AcDbHatch
 10
0.0
 20
0.0
 30
0.0
210
0.0
220
0.0
230
1.0
  2
SOLID
 70
     1
 71
     0
 91
        1
 92
        0
 93
        6
 72
     3
 10
-9.175587451620116
 20
-40.00000000005127
 11
3.960054785062284
 21
1.540850780301639E-10
 40
0.3939339440162633
 50
17.09539180608433
 51
320.0019657685079
 73
     0
 72
     1
 10
-7.49258779591952
 20
-38.5878940046383
 11
-5.187285922218482
 21
-36.65356729459038
 72
     3
 10
-9.175587451672962
 20
-40.00000000000015
 11
6.600054785286829
 21
-1.249000902703301E-13
 40
0.6363583540795982
 50
39.99873849337408
 51
368.4976242363725
 73
     1
 72
     1
 10
-2.750254959772352
 20
-39.03999999993002
 11
-10.49552014483704
 21
-39.03999999992999
 72
     1
 10
-10.49552014483704
 20
-39.03999999992999
 11
-10.49554518928297
 21
-40.95999999992991
 72
     1
 10
-10.49554518928297
 20
-40.95999999992991
 11
-6.054165419810936
 21
-40.95999999992988
 97
        0
 75
     0
 76
     1
 98
        1
 10
0.0
 20
0.0
  0
LINE
  5
FB
330
1F
100
AcDbEntity
  8
참조1
100
AcDbLine
 10
67.03835494594202
 20
7.440000000000002
 30
0.0
 11
67.03835494594202
 21
-7.440000000000002
 31
0.0
  0
LINE
  5
FC
330
1F
100
AcDbEntity
  8
참조1
100
AcDbLine
 10
79.73835494594202
 20
5.440000000000002
 30
0.0
 11
67.03835494594202
 21
5.440000000000002
 31
0.0
  0
SOLID
  5
FD
330
1F
100
AcDbEntity
  8
참조1
100
AcDbTrace
 10
67.03835494594202
 20
5.440000000000002
 30
0.0
 11
73.38835494594201
 21
4.424000000000002
 31
0.0
 12
73.38835494594201
 22
6.456000000000002
 32
0.0
 13
73.38835494594201
 23
6.456000000000002
 33
0.0
  0
LINE
  5
FE
330
1F
100
AcDbEntity
  8
참조1
100
AcDbLine
 10
79.73835494594202
 20
-5.440000000000002
 30
0.0
 11
67.03835494594202
 21
-5.440000000000002
 31
0.0
  0
SOLID
  5
FF
330
1F
100
AcDbEntity
  8
참조1
100
AcDbTrace
 10
67.03835494594202
 20
-5.440000000000002
 30
0.0
 11
73.38835494594201
 21
-6.456000000000002
 31
0.0
 12
73.38835494594201
 22
-4.424000000000002
 32
0.0
 13
73.38835494594201
 23
-4.424000000000002
 33
0.0
  0
MTEXT
  5
100
330
1F
100
AcDbEntity
  8
참조1
100
AcDbMText
 10
76.4358450384123
 20
10.98821664464994
 30
0.0
 40
3.5
 41
0.0
 71
     1
 72
     1
  1
A
  7
SLDTEXTSTYLE0
 73
     1
 44
1.0
  0
MTEXT
  5
101
330
1F
100
AcDbEntity
  8
참조1
100
AcDbMText
 10
76.4358450384123
 20
0.1082166446499328
 30
0.0
 40
3.5
 41
0.0
 71
     1
 72
     1
  1
A
  7
SLDTEXTSTYLE0
 73
     1
 44
1.0
  0
LINE
  5
1ED
102
{ACAD_REACTORS
330
218
102
}
330
1F
100
AcDbEntity
  8
외형선
  6
Continuous
 62
     1
370
    15
100
AcDbLine
 10
28.37636578559901
 20
10.0
 30
0.0
 11
22.27890492516363
 21
10.0
 31
0.0
1001
PE_URL
1000

  0
LINE
  5
1EE
102
{ACAD_REACTORS
330
218
102
}
330
1F
100
AcDbEntity
  8
외형선
  6
Continuous
 62
     1
370
    15
100
AcDbLine
 10
22.27890492516346
 20
-10.0
 30
0.0
 11
28.37636578559901
 21
-10.0
 31
0.0
1001
PE_URL
1000

  0
LINE
  5
1EF
330
1F
100
AcDbEntity
  8
외형선
  6
Continuous
370
    15
100
AcDbLine
 10
-100.0
 20
-10.0
 30
0.0
 11
9.000175004160127
 21
-10.0
 31
0.0
  0
LINE
  5
1F0
330
1F
100
AcDbEntity
  8
외형선
  6
Continuous
370
    15
100
AcDbLine
 10
9.000175004160127
 20
10.0
 30
0.0
 11
-100.0
 21
10.0
 31
0.0
  0
LINE
  5
1F1
330
1F
100
AcDbEntity
  8
외형선
  6
Continuous
370
    15
100
AcDbLine
 10
-100.0
 20
10.00000000000001
 30
0.0
 11
-102.0
 21
8.000000000000014
 31
0.0
  0
LINE
  5
1F2
330
1F
100
AcDbEntity
  8
외형선
  6
Continuous
370
    15
100
AcDbLine
 10
-102.0
 20
-8.0
 30
0.0
 11
-100.0
 21
-10.0
 31
0.0
  0
LINE
  5
1F3
330
1F
100
AcDbEntity
  8
외형선
  6
Continuous
 62
     1
370
    15
100
AcDbLine
 10
48.00000000000003
 20
-8.65994730650253
 30
0.0
 11
48.00000000000003
 21
0.947447306502653
 31
0.0
  0
SPLINE
  5
1F4
330
1F
100
AcDbEntity
  8
외형선
  6
Continuous
 62
     1
370
    15
100
AcDbSpline
210
0.0
220
0.0
230
1.0
 70
     8
 71
     3
 72
    10
 73
     6
 74
     0
 42
0.000000001
 43
0.00000001
 40
0.0
 40
0.0
 40
0.0
 40
0.0
 40
0.5
 40
0.5
 40
1.0
 40
1.0
 40
1.0
 40
1.0
 10
47.50000000000003
 20
-8.930455879337217
 30
0.0
 10
47.63083086792599
 20
-8.964464348339902
 30
0.0
 10
47.75068246535128
 20
-8.95808308133185
 30
0.0
 10
47.93614214201679
 20
-8.867060821672027
 30
0.0
 10
48.00000000000003
 20
-8.780172606778478
 30
0.0
 10
48.00000000000003
 20
-8.659947306502517
 30
0.0
  0
SPLINE
  5
1F5
330
1F
100
AcDbEntity
  8
외형선
  6
Continuous
 62
     1
370
    15
100
AcDbSpline
210
0.0
220
0.0
230
1.0
 70
     8
 71
     3
 72
    50
 73
    46
 74
     0
 42
0.000000001
 43
0.00000001
 40
0.0
 40
0.0
 40
0.0
 40
0.0
 40
0.0625000000000018
 40
0.0625000000000018
 40
0.0937500000000018
 40
0.0937500000000018
 40
0.1250000000000019
 40
0.1250000000000019
 40
0.187500000000002
 40
0.187500000000002
 40
0.2187500000000029
 40
0.2187500000000029
 40
0.2500000000000038
 40
0.2500000000000038
 40
0.3125000000000038
 40
0.3125000000000038
 40
0.3437500000000039
 40
0.3437500000000039
 40
0.3750000000000039
 40
0.3750000000000039
 40
0.437500000000004
 40
0.437500000000004
 40
0.500000000000004
 40
0.500000000000004
 40
0.5625000000000041
 40
0.5625000000000041
 40
0.5937500000000041
 40
0.5937500000000041
 40
0.6250000000000041
 40
0.6250000000000041
 40
0.6562500000000041
 40
0.6562500000000041
 40
0.6875000000000041
 40
0.6875000000000041
 40
0.7500000000000033
 40
0.7500000000000033
 40
0.8125000000000026
 40
0.8125000000000026
 40
0.8750000000000018
 40
0.8750000000000018
 40
0.9062500000000013
 40
0.9062500000000013
 40
0.9375000000000009
 40
0.9375000000000009
 40
1.0
 40
1.0
 40
1.0
 40
1.0
 10
47.50000000000003
 20
-8.930455879337217
 30
0.0
 10
46.71949373289371
 20
-8.727569331138909
 30
0.0
 10
45.93394983469184
 20
-8.496890947657391
 30
0.0
 10
44.76418744901119
 20
-8.113949796869747
 30
0.0
 10
44.3754635845477
 20
-7.980162706236158
 30
0.0
 10
43.59379879651274
 20
-7.700136248943934
 30
0.0
 10
43.20206627130958
 20
-7.554025619393414
 30
0.0
 10
42.028201551737
 20
-7.098885739530175
 30
0.0
 10
41.25131093250363
 20
-6.773618074892596
 30
0.0
 10
40.07765478267797
 20
-6.255088483738348
 30
0.0
 10
39.68589665979349
 20
-6.077251741803963
 30
0.0
 10
38.90399101875644
 20
-5.71281846271809
 30
0.0
 10
38.51495183007185
 20
-5.526404651026752
 30
0.0
 10
37.34581260253807
 20
-4.95465564983418
 30
0.0
 10
36.5603061365737
 20
-4.556172660007419
 30
0.0
 10
35.38903334219404
 20
-3.940605121028227
 30
0.0
 10
35.00068048545327
 20
-3.732623221096702
 30
0.0
 10
34.21981722059641
 20
-3.310550117959039
 30
0.0
 10
33.82822483614248
 20
-3.096615875279042
 30
0.0
 10
32.65399387984141
 20
-2.448303895680482
 30
0.0
 10
31.87667342567485
 20
-2.008319641678298
 30
0.0
 10
30.31284178078246
 20
-1.117077272060158
 30
0.0
 10
29.52827798373258
 20
-0.6661703769995881
 30
0.0
 10
27.97198768561103
 20
0.2344961583254417
 30
0.0
 10
27.18672480124016
 20
0.6868563044223492
 30
0.0
 10
26.01424477295004
 20
1.359153538055068
 30
0.0
 10
25.62553280384449
 20
1.581983306820661
 30
0.0
 10
24.84567319144085
 20
2.025358822766989
 30
0.0
 10
24.45432301785027
 20
2.245939629045495
 30
0.0
 10
23.67146204798601
 20
2.683362059047923
 30
0.0
 10
23.27995330277125
 20
2.900202534391155
 30
0.0
 10
22.49946301943848
 20
3.328667175618392
 30
0.0
 10
22.11105536438859
 20
3.540193781172363
 30
0.0
 10
20.93926860800357
 20
4.167380685688073
 30
0.0
 10
20.15383387840419
 20
4.574762396994473
 30
0.0
 10
18.59594733308936
 20
5.356978262242762
 30
0.0
 10
17.81314602062767
 20
5.733564111692971
 30
0.0
 10
16.24863529767049
 20
6.449269197013152
 30
0.0
 10
15.4716500061422
 20
6.78774430626936
 30
0.0
 10
14.29760384359233
 20
7.264105417850502
 30
0.0
 10
13.90591455326316
 20
7.417504933220897
 30
0.0
 10
13.12454268005646
 20
7.71249493814225
 30
0.0
 10
12.736052891784
 20
7.853952185069986
 30
0.0
 10
11.56565673228698
 20
8.260657038319366
 30
0.0
 10
10.78010299183285
 20
8.507930964782943
 30
0.0
 10
10.0
 20
8.727966670947971
 30
0.0
1001
PE_URL
1000

  0
SPLINE
  5
1F6
102
{ACAD_REACTORS
330
218
102
}
330
1F
100
AcDbEntity
  8
외형선
  6
Continuous
 62
     1
370
    15
100
AcDbSpline
210
0.0
220
0.0
230
1.0
 70
     8
 71
     3
 72
    19
 73
    15
 74
     0
 42
0.000000001
 43
0.00000001
 40
0.0
 40
0.0
 40
0.0
 40
0.0
 40
0.0838826031158261
 40
0.1677713204904025
 40
0.2516651610650144
 40
0.3355537939400367
 40
0.4194363245937619
 40
0.5033136917426471
 40
0.5871868374132362
 40
0.6794457829029134
 40
0.7717038212508476
 40
0.8639608397749722
 40
0.9562167259533629
 40
1.0
 40
1.0
 40
1.0
 40
1.0
 10
47.50000000000003
 20
1.144504290020691
 30
0.0
 10
46.49996743462449
 20
1.714733213204084
 30
0.0
 10
44.49982941083439
 20
2.855232623936487
 30
0.0
 10
41.49947343653324
 20
4.471328906748717
 30
0.0
 10
38.49898913519652
 20
5.95603672108669
 30
0.0
 10
35.49863625769731
 20
7.261900060979784
 30
0.0
 10
32.49852868129582
 20
8.350622841477232
 30
0.0
 10
29.49861402479073
 20
9.189324134321943
 30
0.0
 10
26.39898158724284
 20
9.772161773671058
 30
0.0
 10
23.19901039915359
 20
10.0457305594937
 30
0.0
 10
19.89921229248031
 20
9.96865772412741
 30
0.0
 10
16.59942458222972
 20
9.514665448678265
 30
0.0
 10
13.87758756248451
 20
8.906060258514785
 30
0.0
 10
12.25567973964687
 20
8.34652809185868
 30
0.0
 10
11.73367979074814
 20
8.16644648778167
 30
0.0
1001
PE_URL
1000

  0
SPLINE
  5
1F7
330
1F
100
AcDbEntity
  8
외형선
  6
Continuous
 62
     1
370
    15
100
AcDbSpline
210
0.0
220
0.0
230
1.0
 70
     8
 71
     3
 72
    14
 73
    10
 74
     0
 42
0.000000001
 43
0.00000001
 40
0.0
 40
0.0
 40
0.0
 40
0.0
 40
0.25
 40
0.25
 40
0.5
 40
0.5
 40
0.75
 40
0.75
 40
1.0
 40
1.0
 40
1.0
 40
1.0
 10
47.99999999999997
 20
0.947447306502653
 30
0.0
 10
47.99999999999991
 20
0.9383314902534323
 30
0.0
 10
47.98620482258471
 20
0.935394663248303
 30
0.0
 10
47.93236309349973
 20
0.9443240922697669
 30
0.0
 10
47.89198819995099
 20
0.9564090820290687
 30
0.0
 10
47.79485088678499
 20
0.9938730760450767
 30
0.0
 10
47.73813439129302
 20
1.019199966321878
 30
0.0
 10
47.62014285379578
 20
1.077645126498652
 30
0.0
 10
47.55966899877674
 20
1.110260443883533
 30
0.0
 10
47.49999999999997
 20
1.144504290020706
 30
0.0
  0
SPLINE
  5
1F8
102
{ACAD_REACTORS
330
218
102
}
330
1F
100
AcDbEntity
  8
외형선
  6
Continuous
 62
     1
370
    15
100
AcDbSpline
210
0.0
220
0.0
230
1.0
 70
     8
 71
     3
 72
    17
 73
    13
 74
     0
 42
0.000000001
 43
0.00000001
 40
0.0
 40
0.0
 40
0.0
 40
0.0
 40
0.1038140338452359
 40
0.20763615446911
 40
0.3114590353913158
 40
0.4152737447117014
 40
0.5190814230373153
 40
0.6228832340280895
 40
0.7266803451073957
 40
0.8408583562647577
 40
0.9550353720682383
 40
1.0
 40
1.0
 40
1.0
 40
1.0
 10
10.0
 20
-4.880839865312353
 30
0.0
 10
11.00006919653018
 20
-5.370618246906517
 30
0.0
 10
13.00028549175764
 20
-6.350213162252189
 30
0.0
 10
16.00072508531068
 20
-7.590358074778976
 30
0.0
 10
19.00117572142878
 20
-8.613879038133518
 30
0.0
 10
22.00142653305559
 20
-9.376756177654727
 30
0.0
 10
25.00142967100791
 20
-9.86008829264361
 30
0.0
 10
28.00125920168696
 20
-10.04702031235692
 30
0.0
 10
31.10084074563068
 20
-9.934063006310794
 30
0.0
 10
34.30082320165135
 20
-9.466359579601914
 30
0.0
 10
36.93389513181026
 20
-8.863433662893925
 30
0.0
 10
38.46702546403165
 20
-8.326851396731726
 30
0.0
 10
38.90020331328097
 20
-8.175242921498779
 30
0.0
1001
PE_URL
1000

  0
SPLINE
  5
1F9
330
1F
100
AcDbEntity
  8
외형선
  6
Continuous
370
    15
100
AcDbSpline
210
0.0
220
0.0
230
1.0
 70
    24
 71
     3
 72
    26
 73
    22
 74
     0
 42
0.000000001
 43
0.00000001
 40
0.0
 40
0.0
 40
0.0
 40
0.0
 40
0.125
 40
0.125
 40
0.25
 40
0.25
 40
0.375
 40
0.375
 40
0.5
 40
0.5
 40
0.625
 40
0.625
 40
0.6875
 40
0.6875
 40
0.75
 40
0.75
 40
0.8125
 40
0.8125
 40
0.875
 40
0.875
 40
1.0
 40
1.0
 40
1.0
 40
1.0
 10
10.0
 20
6.509820777620838
 30
0.0
 10
9.999999999999972
 20
6.319868191071627
 30
0.0
 10
10.00000000000003
 20
6.096165218553395
 30
0.0
 10
10.00000000000003
 20
5.63258899770706
 30
0.0
 10
9.999999999999972
 20
5.345741293536783
 30
0.0
 10
10.0
 20
4.623948573932672
 30
0.0
 10
9.999999999999972
 20
4.187935992291017
 30
0.0
 10
10.0
 20
3.145611037229656
 30
0.0
 10
9.999999999999972
 20
2.537698331186832
 30
0.0
 10
9.999999999999972
 20
1.187836877573687
 30
0.0
 10
9.999999999999972
 20
0.4456926094316458
 30
0.0
 10
9.999999999999972
 20
-0.6696104583637066
 30
0.0
 10
9.999999999999972
 20
-1.040939553696106
 30
0.0
 10
9.999999999999972
 20
-1.760493185352857
 30
0.0
 10
9.999999999999943
 20
-2.108571892646182
 30
0.0
 10
9.999999999999972
 20
-2.759951507545239
 30
0.0
 10
9.999999999999972
 20
-3.063126166830784
 30
0.0
 10
9.999999999999972
 20
-3.608104149320297
 30
0.0
 10
9.999999999999972
 20
-3.849849822531098
 30
0.0
 10
9.999999999999943
 20
-4.470144258772478
 30
0.0
 10
9.999999999999972
 20
-4.74040430818448
 30
0.0
 10
10.0
 20
-4.880839865312353
 30
0.0
  0
SPLINE
  5
1FA
330
1F
100
AcDbEntity
  8
외형선
  6
Continuous
 62
     1
370
    15
100
AcDbSpline
210
0.0
220
0.0
230
1.0
 70
     8
 71
     3
 72
    50
 73
    46
 74
     0
 42
0.000000001
 43
0.00000001
 40
0.0063618807318076
 40
0.0063618807318076
 40
0.0063618807318076
 40
0.0063618807318076
 40
0.0625
 40
0.0625
 40
0.0937499999999991
 40
0.0937499999999991
 40
0.1249999999999983
 40
0.1249999999999983
 40
0.1874999999999983
 40
0.1874999999999983
 40
0.2187499999999974
 40
0.2187499999999974
 40
0.2499999999999966
 40
0.2499999999999966
 40
0.3124999999999966
 40
0.3124999999999966
 40
0.3437499999999973
 40
0.3437499999999973
 40
0.3749999999999982
 40
0.3749999999999982
 40
0.4374999999999981
 40
0.4374999999999981
 40
0.499999999999998
 40
0.499999999999998
 40
0.562499999999998
 40
0.562499999999998
 40
0.593749999999998
 40
0.593749999999998
 40
0.624999999999998
 40
0.624999999999998
 40
0.6562499999999979
 40
0.6562499999999979
 40
0.6874999999999979
 40
0.6874999999999979
 40
0.7499999999999987
 40
0.7499999999999987
 40
0.8124999999999994
 40
0.8124999999999994
 40
0.8750000000000001
 40
0.8750000000000001
 40
0.9062500000000001
 40
0.9062500000000001
 40
0.9375000000000001
 40
0.9375000000000001
 40
1.0
 40
1.0
 40
1.0
 40
1.0
 10
47.00000000000003
 20
-10.0
 30
0.0
 10
46.55963164489584
 20
-9.86565624481341
 30
0.0
 10
45.85456968768107
 20
-9.78918162238724
 30
0.0
 10
44.76418744901113
 20
-9.633218995939217
 30
0.0
 10
44.37546358454759
 20
-9.570132136477099
 30
0.0
 10
43.5937987965128
 20
-9.429227346425904
 30
0.0
 10
43.20206627130958
 20
-9.351462980029112
 30
0.0
 10
42.02820155173688
 20
-9.097009697243152
 30
0.0
 10
41.25131093250369
 20
-8.899523059980169
 30
0.0
 10
40.07765478267797
 20
-8.562815684361524
 30
0.0
 10
39.68589665979349
 20
-8.443896162059673
 30
0.0
 10
38.9039910187565
 20
-8.193514889315821
 30
0.0
 10
38.51495183007185
 20
-8.06218596854049
 30
0.0
 10
37.34581260253807
 20
-7.649873741625754
 30
0.0
 10
36.56030613657359
 20
-7.350032801546291
 30
0.0
 10
35.38903334219398
 20
-6.868909005606909
 30
0.0
 10
35.00068048545327
 20
-6.703467843424974
 30
0.0
 10
34.21981722059635
 20
-6.36203557308302
 30
0.0
 10
33.82822483614248
 20
-6.186162654037474
 30
0.0
 10
32.65399387984152
 20
-5.644848005156433
 30
0.0
 10
31.87667342567485
 20
-5.266491499879649
 30
0.0
 10
30.31284178078246
 20
-4.47852261811866
 30
0.0
 10
29.52827798373269
 20
-4.069162840846957
 30
0.0
 10
27.97198768561103
 20
-3.23043300263997
 30
0.0
 10
27.18672480124022
 20
-2.798636302840805
 30
0.0
 10
26.01424477295009
 20
-2.141084280128666
 30
0.0
 10
25.62553280384449
 20
-1.920497339443443
 30
0.0
 10
24.8456731914408
 20
-1.476277758615524
 30
0.0
 10
24.45432301785021
 20
-1.25260288491387
 30
0.0
 10
23.67146204798607
 20
-0.8036489910033424
 30
0.0
 10
23.27995330277125
 20
-0.5783711461026684
 30
0.0
 10
22.49946301943842
 20
-0.1277624738617789
 30
0.0
 10
22.11105536438848
 20
0.0974572994598759
 30
0.0
 10
20.93926860800363
 20
0.7736415791350453
 30
0.0
 10
20.1538338784043
 20
1.224249713014899
 30
0.0
 10
18.59594733308947
 20
2.112800710856078
 30
0.0
 10
17.81314602062767
 20
2.552711604676716
 30
0.0
 10
16.24863529767052
 20
3.414072136509972
 30
0.0
 10
15.4716500061422
 20
3.834688650459498
 30
0.0
 10
14.29760384359238
 20
4.447689630600266
 30
0.0
 10
13.90591455326316
 20
4.64883743806427
 30
0.0
 10
13.12454268005644
 20
5.043392401063144
 30
0.0
 10
12.73605289178406
 20
5.236609481303532
 30
0.0
 10
11.56565673228695
 20
5.804671427624442
 30
0.0
 10
10.78010299183276
 20
6.167610029250497
 30
0.0
 10
9.999999999999972
 20
6.509820777620831
 30
0.0
1001
PE_URL
1000

  0
LINE
  5
1FB
330
1F
100
AcDbEntity
  8
외형선
  6
Continuous
370
    15
100
AcDbLine
 10
10.0
 20
6.509820777620831
 30
0.0
 11
10.0
 21
8.727966670947964
 31
0.0
  0
SPLINE
  5
1FC
330
1F
100
AcDbEntity
  8
외형선
  6
Continuous
 62
     1
370
    15
100
AcDbSpline
210
0.0
220
0.0
230
1.0
 70
     8
 71
     3
 72
    10
 73
     6
 74
     0
 42
0.000000001
 43
0.00000001
 40
0.0
 40
0.0
 40
0.0
 40
0.0
 40
0.5
 40
0.5
 40
1.0
 40
1.0
 40
1.0
 40
1.0
 10
47.50000000000003
 20
4.49966196366023
 30
0.0
 10
47.63083086792599
 20
4.432165530727005
 30
0.0
 10
47.75068246535133
 20
4.333830673950096
 30
0.0
 10
47.93614214201685
 20
4.116719500813645
 30
0.0
 10
48.00000000000003
 20
3.998353732723345
 30
0.0
 10
48.00000000000003
 20
3.905804993672731
 30
0.0
  0
LINE
  5
1FD
330
1F
100
AcDbEntity
  8
외형선
  6
Continuous
 62
     1
370
    15
100
AcDbLine
 10
48.00000000000003
 20
0.947447306502653
 30
0.0
 11
48.00000000000003
 21
3.905804993672746
 31
0.0
  0
SPLINE
  5
1FE
330
1F
100
AcDbEntity
  8
외형선
  6
Continuous
 62
     1
370
    15
100
AcDbSpline
210
0.0
220
0.0
230
1.0
 70
     8
 71
     3
 72
    13
 73
     9
 74
     0
 42
0.000000001
 43
0.00000001
 40
0.0
 40
0.0
 40
0.0
 40
0.0
 40
0.1372501127171508
 40
0.3098035203752915
 40
0.4823554237884176
 40
0.6549056119627292
 40
0.8274538741738929
 40
0.9999999999999999
 40
0.9999999999999999
 40
0.9999999999999999
 40
0.9999999999999999
 10
28.37636578559901
 20
9.983619065167915
 30
0.0
 10
29.25119789115243
 20
9.967917136742457
 30
0.0
 10
31.22588527517169
 20
9.932474450346191
 30
0.0
 10
34.30082227509516
 20
9.472294448361055
 30
0.0
 10
37.60065506952625
 20
8.669544895011782
 30
0.0
 10
40.90048334612001
 20
7.541100138090421
 30
0.0
 10
44.20025873818716
 20
6.153831629490654
 30
0.0
 10
46.40009078558208
 20
5.051049576596263
 30
0.0
 10
47.50000000000003
 20
4.499661963660238
 30
0.0
  0
SPLINE
  5
1FF
330
1F
100
AcDbEntity
  8
외형선
  6
Continuous
 62
     1
370
    15
100
AcDbSpline
210
0.0
220
0.0
230
1.0
 70
     8
 71
     3
 72
    10
 73
     6
 74
     0
 42
0.000000001
 43
0.00000001
 40
0.1297270489800711
 40
0.1297270489800711
 40
0.1297270489800711
 40
0.1297270489800711
 40
0.3488624058955369
 40
0.697750240603946
 40
1.0
 40
1.0
 40
1.0
 40
1.0
 10
47.00000000000003
 20
10.0
 30
0.0
 10
45.75622756060996
 20
9.758786117386508
 30
0.0
 10
44.12795377458218
 20
9.567453140718577
 30
0.0
 10
41.63322539581398
 20
9.040209379582357
 30
0.0
 10
39.76664575541812
 20
8.449460848641955
 30
0.0
 10
38.90020331328097
 20
8.175242921498793
 30
0.0
  0
LINE
  5
200
330
1F
100
AcDbEntity
  8
외형선
  6
Continuous
 62
     1
370
    15
100
AcDbLine
 10
48.00000000000003
 20
3.900651703548903
 30
0.0
 11
48.00000000000003
 21
9.0
 31
0.0
  0
SPLINE
  5
201
330
1F
100
AcDbEntity
  8
외형선
  6
Continuous
 62
     1
370
    15
100
AcDbSpline
210
0.0
220
0.0
230
1.0
 70
     8
 71
     3
 72
    11
 73
     7
 74
     0
 42
0.000000001
 43
0.00000001
 40
0.0
 40
0.0
 40
0.0
 40
0.0
 40
0.193803930536292
 40
0.4625393611827398
 40
0.731271493419775
 40
0.9999999999999999
 40
0.9999999999999999
 40
0.9999999999999999
 40
0.9999999999999999
 10
22.27890492516352
 20
-9.963550711333497
 30
0.0
 10
21.48566823335679
 20
-9.96003737387069
 30
0.0
 10
19.59250130077854
 20
-9.951652317586394
 30
0.0
 10
16.59942607180469
 20
-9.51357229991845
 30
0.0
 10
13.29969300697113
 20
-8.753330715033357
 30
0.0
 10
11.09989272244465
 20
-7.978395828978933
 30
0.0
 10
9.999999999999972
 20
-7.590930999769114
 30
0.0
1001
PE_URL
1000

  0
LINE
  5
202
330
1F
100
AcDbEntity
  8
외형선
  6
Continuous
370
    15
100
AcDbLine
 10
10.0
 20
-7.590930999769114
 30
0.0
 11
10.0
 21
-4.880839865312367
 31
0.0
  0
LINE
  5
203
330
1F
100
AcDbEntity
  8
외형선
  6
Continuous
 62
     1
370
    15
100
AcDbLine
 10
10.0
 20
-8.727966670947936
 30
0.0
 11
11.73367979074803
 21
-8.166446487781656
 31
0.0
1001
PE_URL
1000

  0
SPLINE
  5
204
330
1F
100
AcDbEntity
  8
외형선
  6
Continuous
370
    15
100
AcDbSpline
210
0.0
220
0.0
230
1.0
 70
    24
 71
     3
 72
     9
 73
     5
 74
     0
 42
0.000000001
 43
0.00000001
 40
0.0
 40
0.0
 40
0.0
 40
0.0
 40
0.353552522029537
 40
1.0
 40
1.0
 40
1.0
 40
1.0
 10
10.00000000000003
 20
-7.695127079717835
 30
0.0
 10
10.00000000000003
 20
-7.812987874974354
 30
0.0
 10
9.999999999999915
 20
-8.14634936418095
 30
0.0
 10
9.999999999999972
 20
-8.49960527701694
 30
0.0
 10
10.0
 20
-8.727966670947922
 30
0.0
  0
LINE
  5
205
330
1F
100
AcDbEntity
  8
외형선
  6
Continuous
 62
     1
370
    15
100
AcDbLine
 10
48.00000000000003
 20
-9.0
 30
0.0
 11
48.00000000000003
 21
-8.65994730650253
 31
0.0
  0
LINE
  5
206
330
1F
100
AcDbEntity
  8
외형선
  6
Continuous
370
    15
100
AcDbLine
 10
9.000175004160127
 20
8.995405766961703
 30
0.0
 11
9.000175004160127
 21
10.0
 31
0.0
  0
SPLINE
  5
207
330
1F
100
AcDbEntity
  8
외형선
  6
Continuous
370
    15
100
AcDbSpline
210
0.0
220
0.0
230
1.0
 70
     8
 71
     3
 72
     8
 73
     4
 74
     0
 42
0.000000001
 43
0.00000001
 40
0.0
 40
0.0
 40
0.0
 40
0.0
 40
1.0
 40
1.0
 40
1.0
 40
1.0
 10
10.0
 20
8.727966670947971
 30
0.0
 10
9.666382663500855
 20
8.82206671542162
 30
0.0
 10
9.334123385417001
 20
8.91118148185923
 30
0.0
 10
9.000175004160127
 20
8.99542834797326
 30
0.0
  0
SPLINE
  5
208
330
1F
100
AcDbEntity
  8
외형선
  6
Continuous
370
    15
100
AcDbSpline
210
0.0
220
0.0
230
1.0
 70
     8
 71
     3
 72
     8
 73
     4
 74
     0
 42
0.000000001
 43
0.00000001
 40
0.0
 40
0.0
 40
0.0
 40
0.0
 40
1.0
 40
1.0
 40
1.0
 40
1.0
 10
9.999999999999972
 20
6.509820777620831
 30
0.0
 10
9.666382663500798
 20
6.656169964315353
 30
0.0
 10
9.334123385417001
 20
6.798697618161462
 30
0.0
 10
9.000175004160127
 20
6.937595588633904
 30
0.0
  0
LINE
  5
209
330
1F
100
AcDbEntity
  8
외형선
  6
Continuous
370
    15
100
AcDbLine
 10
9.000175004160127
 20
-4.368372132466845
 30
0.0
 11
9.000175004160127
 21
6.937645108260831
 31
0.0
  0
SPLINE
  5
20A
330
1F
100
AcDbEntity
  8
외형선
  6
Continuous
370
    15
100
AcDbSpline
210
0.0
220
0.0
230
1.0
 70
     8
 71
     3
 72
     8
 73
     4
 74
     0
 42
0.000000001
 43
0.00000001
 40
0.0
 40
0.0
 40
0.0
 40
0.0
 40
1.0
 40
1.0
 40
1.0
 40
1.0
 10
10.0
 20
-4.880839865312353
 30
0.0
 10
9.666382663500855
 20
-4.712569224487268
 30
0.0
 10
9.334123385417001
 20
-4.541810100872908
 30
0.0
 10
9.000175004160127
 20
-4.368325633063534
 30
0.0
  0
SPLINE
  5
20B
330
1F
100
AcDbEntity
  8
외형선
  6
Continuous
370
    15
100
AcDbSpline
210
0.0
220
0.0
230
1.0
 70
     8
 71
     3
 72
     8
 73
     4
 74
     0
 42
0.000000001
 43
0.00000001
 40
0.0
 40
0.0
 40
0.0
 40
0.0
 40
1.0
 40
1.0
 40
1.0
 40
1.0
 10
9.999999999999972
 20
-7.590930999769114
 30
0.0
 10
9.666382663500798
 20
-7.465425053744724
 30
0.0
 10
9.334123385417001
 20
-7.335864304349315
 30
0.0
 10
9.000175004160127
 20
-7.202066887260003
 30
0.0
  0
LINE
  5
20C
330
1F
100
AcDbEntity
  8
외형선
  6
Continuous
370
    15
100
AcDbLine
 10
9.000175004160127
 20
-10.0
 30
0.0
 11
9.000175004160127
 21
-7.202019185743964
 31
0.0
  0
SPLINE
  5
20D
330
1F
100
AcDbEntity
  8
외형선
  6
Continuous
370
    15
100
AcDbSpline
210
0.0
220
0.0
230
1.0
 70
     8
 71
     3
 72
     8
 73
     4
 74
     0
 42
0.000000001
 43
0.00000001
 40
0.0
 40
0.0
 40
0.0
 40
0.0
 40
1.0
 40
1.0
 40
1.0
 40
1.0
 10
10.0
 20
-8.727966670947936
 30
0.0
 10
9.666382663500855
 20
-8.822066715421585
 30
0.0
 10
9.334123385417001
 20
-8.911181481859188
 30
0.0
 10
9.000175004160127
 20
-8.995428347973217
 30
0.0
  0
LINE
  5
20E
330
1F
100
AcDbEntity
  8
외형선
  6
Continuous
370
    15
100
AcDbLine
 10
-100.0
 20
0.0
 30
0.0
 11
-100.0
 21
10.0
 31
0.0
  0
LINE
  5
20F
330
1F
100
AcDbEntity
  8
외형선
  6
Continuous
370
    15
100
AcDbLine
 10
-100.0
 20
-10.0
 30
0.0
 11
-100.0
 21
0.0
 31
0.0
  0
LINE
  5
210
330
1F
100
AcDbEntity
  8
외형선
  6
Continuous
370
    15
100
AcDbLine
 10
-102.0
 20
0.0
 30
0.0
 11
-102.0
 21
8.000000000000014
 31
0.0
  0
LINE
  5
211
330
1F
100
AcDbEntity
  8
외형선
  6
Continuous
370
    15
100
AcDbLine
 10
-102.0
 20
-8.0
 30
0.0
 11
-102.0
 21
0.0
 31
0.0
  0
SPLINE
  5
212
330
1F
100
AcDbEntity
  8
외형선
  6
Continuous
370
    15
100
AcDbSpline
210
0.0
220
0.0
230
1.0
 70
    24
 71
     3
 72
    26
 73
    22
 74
     0
 42
0.000000001
 43
0.00000001
 40
0.0
 40
0.0
 40
0.0
 40
0.0
 40
0.1250000000000001
 40
0.1250000000000001
 40
0.1875
 40
0.1875
 40
0.25
 40
0.25
 40
0.3124999999999999
 40
0.3124999999999999
 40
0.3749999999999999
 40
0.3749999999999999
 40
0.4999999999999999
 40
0.4999999999999999
 40
0.6249999999999999
 40
0.6249999999999999
 40
0.75
 40
0.75
 40
0.875
 40
0.875
 40
1.0
 40
1.0
 40
1.0
 40
1.0
 10
10.00000000000006
 20
-4.880839865312353
 30
0.0
 10
10.00000000000006
 20
-4.740404308184495
 30
0.0
 10
9.999999999999972
 20
-4.470144258772478
 30
0.0
 10
9.999999999999915
 20
-3.849849822531098
 30
0.0
 10
10.00000000000003
 20
-3.608104149320297
 30
0.0
 10
9.999999999999972
 20
-3.063126166830784
 30
0.0
 10
9.999999999999972
 20
-2.759951507545239
 30
0.0
 10
10.0
 20
-2.108571892646182
 30
0.0
 10
10.0
 20
-1.760493185352857
 30
0.0
 10
9.999999999999972
 20
-1.04093955369612
 30
0.0
 10
9.999999999999972
 20
-0.6696104583637066
 30
0.0
 10
9.999999999999943
 20
0.4456926094316458
 30
0.0
 10
9.999999999999972
 20
1.187836877573687
 30
0.0
 10
10.00000000000003
 20
2.537698331186832
 30
0.0
 10
9.999999999999972
 20
3.145611037229656
 30
0.0
 10
10.00000000000003
 20
4.187935992291031
 30
0.0
 10
10.00000000000003
 20
4.623948573932672
 30
0.0
 10
10.00000000000003
 20
5.345741293536783
 30
0.0
 10
10.00000000000003
 20
5.63258899770706
 30
0.0
 10
10.00000000000003
 20
6.096165218553395
 30
0.0
 10
10.00000000000003
 20
6.31986819107162
 30
0.0
 10
10.0
 20
6.509820777620838
 30
0.0
  0
SPLINE
  5
213
330
1F
100
AcDbEntity
  8
외형선
  6
Continuous
370
    15
100
AcDbSpline
210
0.0
220
0.0
230
1.0
 70
    24
 71
     3
 72
    10
 73
     6
 74
     0
 42
0.000000001
 43
0.00000001
 40
0.0
 40
0.0
 40
0.0
 40
0.0
 40
0.3779979211307363
 40
0.7577850192705706
 40
1.0
 40
1.0
 40
1.0
 40
1.0
 10
10.0
 20
-8.727966670947922
 30
0.0
 10
10.00000000000003
 20
-8.59463546652151
 30
0.0
 10
10.00000000000003
 20
-8.327341961273106
 30
0.0
 10
10.0
 20
-7.977969370596952
 30
0.0
 10
9.999999999999972
 20
-7.774392374533676
 30
0.0
 10
9.999999999999972
 20
-7.695117079717846
 30
0.0
  0
LINE
  5
214
330
1F
100
AcDbEntity
  8
중심선
100
AcDbLine
 10
-105.0
 20
0.0
 30
0.0
 11
51.00000000000003
 21
0.0
 31
0.0
  0
CIRCLE
  5
215
330
1F
100
AcDbEntity
  8
해칭선
100
AcDbCircle
 10
0.0
 20
0.0
 30
0.0
 40
3.000000000000004
  0
DIMENSION
  5
216
102
{ACAD_XDICTIONARY
360
217
102
}
330
1F
100
AcDbEntity
  8
치수문자_일반주서
100
AcDbDimension
  2
*D13
 10
68.27916786961151
 20
-9.999999999999828
 30
0.0
 11
68.27916786961148
 21
0.0000000000001705
 31
0.0
 70
   160
  1
%%c<>
 71
     2
 42
20.0
 52
-270.0
  3
SLDDIMSTYLE0
100
AcDbAlignedDimension
 13
22.27916786961154
 23
10.0
 33
0.0
 14
22.27916786961137
 24
-10.0
 34
0.0
 50
90.0000000000002
100
AcDbRotatedDimension
1001
ENABLE_CUSTOM_SPLIT
1070
     1
  0
DIMENSION
  5
219
330
1F
100
AcDbEntity
  8
치수문자_일반주서
100
AcDbDimension
  2
*D14
 10
-113.4
 20
-10.00000000000005
 30
0.0
 11
-113.4
 21
0.0
 31
0.0
 70
   160
  1
%%c<>
 71
     2
 42
20.00000000000001
 52
-270.0
  3
SLDDIMSTYLE0
100
AcDbAlignedDimension
 13
-100.0
 23
10.00000000000001
 33
0.0
 14
-100.0
 24
-10.0
 34
0.0
 50
90.0000000000002
100
AcDbRotatedDimension
  0
DIMENSION
  5
21A
330
1F
100
AcDbEntity
  8
치수문자_일반주서
100
AcDbDimension
  2
*D15
 10
10.0
 20
26.90580731394509
 30
0.0
 11
29.00000000000003
 21
26.90580731394509
 31
0.0
 70
   160
  1
<>
 71
     2
 42
38.00000000000003
  3
SLDDIMSTYLE1
100
AcDbAlignedDimension
 13
48.00000000000003
 23
9.452636859702231
 33
0.0
 14
10.0
 24
8.727966670947971
 34
0.0
100
AcDbRotatedDimension
  0
DIMENSION
  5
21B
330
1F
100
AcDbEntity
  8
치수문자_일반주서
100
AcDbDimension
  2
*D16
 10
-102.0
 20
34.32217000431203
 30
0.0
 11
-27.0
 21
34.32217000431203
 31
0.0
 70
   160
  1
<>
 71
     2
 42
150.0
  3
SLDDIMSTYLE1
100
AcDbAlignedDimension
 13
48.00000000000003
 23
9.452636859702231
 33
0.0
 14
-102.0
 24
8.000000000000014
 34
0.0
 50
0.0000000000000027
100
AcDbRotatedDimension
  0
INSERT
  5
21C
330
1F
100
AcDbEntity
  8
해칭선
100
AcDbBlockReference
  2
SW_DOWELSYMBOL_0
 10
0.0
 20
0.0
 30
0.0
  0
ARC
  5
25C
330
1F
100
AcDbEntity
  8
외형선
  6
Continuous
 62
     1
370
    15
100
AcDbCircle
 10
47.00000000000003
 20
9.0
 30
0.0
 40
1.0
100
AcDbArc
 50
0.0
 51
90.0
1001
PE_URL
1000

  0
ARC
  5
260
102
{ACAD_REACTORS
102
}
330
1F
100
AcDbEntity
  8
외형선
  6
Continuous
 62
     1
370
    15
100
AcDbCircle
 10
47.00000000000003
 20
-9.0
 30
0.0
 40
1.0
100
AcDbArc
 50
270.0
 51
0.0
1001
PE_URL
1000

  0
DIMENSION
  5
261
102
{ACAD_REACTORS
102
}
102
{ACAD_XDICTIONARY
360
262
102
}
330
1F
100
AcDbEntity
  8
치수문자_일반주서
100
AcDbDimension
  2
*D18
 10
47.00000000000003
 20
-9.0
 30
0.0
 11
57.21402599114482
 21
-22.66780034921452
 31
0.0
 70
   164
 71
     5
 42
1.000000000000002
  3
SLDDIMSTYLE1
100
AcDbRadialDimension
 15
47.59861787302096
 25
-9.801034732143311
 35
0.0
 40
0.0
1001
ACAD
1000
DSTYLE
1002
{
1070
    78
1070
     8
1002
}
1001
ACAD_DSTYLE_DIMRADIAL_EXTENSION
1070
   387
1070
     1
1070
   388
1040
4.71238898038469
1070
   390
1040
0.0
1001
PE_URL
1000

  0
ENDSEC
  0
SECTION
  2
OBJECTS
  0
DICTIONARY
  5
C
330
0
100
AcDbDictionary
281
     1
  3
ACAD_GROUP
350
D
  3
ACAD_LAYOUT
350
1A
  3
ACAD_MLINESTYLE
350
17
  3
ACAD_PLOTSETTINGS
350
19
  3
ACAD_PLOTSTYLENAME
350
E
  3
ACAD_SCALELIST
350
47
  3
APPDATA
350
12A
  3
DWGPROPS
350
271
  0
DICTIONARY
  5
1B8
330
2
100
AcDbDictionary
280
     1
281
     1
  3
ACAD_LAYERSTATES
360
1B9
  0
DICTIONARY
  5
25E
330
1F
100
AcDbDictionary
280
     1
281
     1
  3
ACAD_SORTENTS
360
25F
  3
DIM_BOUNDING_BOXES_V1
360
26E
  0
DICTIONARY
  5
217
330
216
100
AcDbDictionary
280
     1
281
     1
  3
ACAD_CUSTOM_BREAKDATA
360
218
  0
DICTIONARY
  5
262
330
261
100
AcDbDictionary
280
     1
281
     1
  0
DICTIONARY
  5
D
102
{ACAD_REACTORS
330
C
102
}
330
C
100
AcDbDictionary
281
     1
  0
DICTIONARY
  5
1A
102
{ACAD_REACTORS
330
C
102
}
330
C
100
AcDbDictionary
281
     1
  3
Layout1
350
1E
  3
Layout2
350
26
  3
Model
350
22
  0
DICTIONARY
  5
17
102
{ACAD_REACTORS
330
C
102
}
330
C
100
AcDbDictionary
281
     1
  3
Standard
350
18
  0
DICTIONARY
  5
19
102
{ACAD_REACTORS
330
C
102
}
330
C
100
AcDbDictionary
281
     1
  0
ACDBDICTIONARYWDFLT
  5
E
102
{ACAD_REACTORS
330
C
102
}
330
C
100
AcDbDictionary
281
     1
  3
Normal
350
F
100
AcDbDictionaryWithDefault
340
F
  0
DICTIONARY
  5
47
102
{ACAD_REACTORS
330
C
102
}
330
C
100
AcDbDictionary
281
     1
  3
A0
350
48
  3
A1
350
49
  3
A2
350
4A
  3
A3
350
4B
  3
A4
350
4C
  3
A5
350
4D
  3
A6
350
4E
  3
A7
350
4F
  3
A8
350
50
  3
A9
350
51
  3
B0
350
52
  3
B1
350
53
  3
B2
350
54
  3
B3
350
55
  3
B4
350
56
  3
B5
350
57
  3
B6
350
58
  3
B7
350
59
  3
B8
350
5A
  3
B9
350
5B
  3
C0
350
5C
  3
C1
350
5D
  3
C2
350
5E
  3
C3
350
5F
  3
C4
350
60
  3
C5
350
61
  3
C6
350
62
  3
C7
350
63
  3
C8
350
64
  3
C9
350
65
  3
D0
350
66
  3
D1
350
67
  3
D2
350
68
  0
DICTIONARY
  5
12A
102
{ACAD_REACTORS
330
C
102
}
330
C
100
AcDbDictionary
281
     1
  0
XRECORD
  5
271
102
{ACAD_REACTORS
330
C
102
}
330
C
100
AcDbXrecord
280
     1
  1
DWGPROPS COOKIE
  2

  3

  4

  6

  7

  8
12016016
  9

300
=
301
=
302
=
303
=
304
=
305
=
306
=
307
=
308
=
309
=
 40
0.0
 41
2458269.4505236
 42
2459702.289182859
  1

 90
        0
  0
DICTIONARY
  5
1B9
102
{ACAD_REACTORS
330
1B8
102
}
330
1B8
100
AcDbDictionary
281
     1
  0
SORTENTSTABLE
  5
25F
102
{ACAD_REACTORS
330
25E
102
}
330
25E
100
AcDbSortentsTable
330
1F
  0
DICTIONARY
  5
26E
102
{ACAD_REACTORS
330
25E
102
}
330
25E
100
AcDbDictionary
281
     1
  0
BREAKDATA
  5
218
102
{ACAD_REACTORS
330
217
102
}
330
217
100
AcDbBreakData
 70
     0
330
216
 90
        4
100
AcDbBreakPointRef
 71
     0
 72
     0
 91
       -1
 10
0.0
 20
0.0
 30
0.0
 11
0.0
 21
0.0
 31
0.0
331
1F6
 73
     2
 92
        0
100
AcDbBreakPointRef
 71
     0
 72
     0
 91
       -1
 10
0.0
 20
0.0
 30
0.0
 11
0.0
 21
0.0
 31
0.0
331
1ED
 73
     2
 92
        0
100
AcDbBreakPointRef
 71
     0
 72
     0
 91
       -1
 10
0.0
 20
0.0
 30
0.0
 11
0.0
 21
0.0
 31
0.0
331
1F8
 73
     2
 92
        0
100
AcDbBreakPointRef
 71
     0
 72
     0
 91
       -1
 10
0.0
 20
0.0
 30
0.0
 11
0.0
 21
0.0
 31
0.0
331
1EE
 73
     2
 92
        0
  0
LAYOUT
  5
1E
102
{ACAD_REACTORS
330
1A
102
}
330
1A
100
AcDbPlotSettings
  1

  2
none_device
  4

  6

 40
0.0
 41
0.0
 42
0.0
 43
0.0
 44
0.0
 45
0.0
 46
0.0
 47
0.0
 48
0.0
 49
0.0
140
0.0
141
0.0
142
1.0
143
1.0
 70
   688
 72
     1
 73
     0
 74
     5
  7

 75
    16
147
1.0
148
0.0
149
0.0
100
AcDbLayout
  1
Layout1
 70
     1
 71
     1
 10
0.0
 20
0.0
 11
420.0
 21
297.0
 12
0.0
 22
0.0
 32
0.0
 14
1.000000000000000E+20
 24
1.000000000000000E+20
 34
1.000000000000000E+20
 15
-1.000000000000000E+20
 25
-1.000000000000000E+20
 35
-1.000000000000000E+20
146
0.0
 13
0.0
 23
0.0
 33
0.0
 16
1.0
 26
0.0
 36
0.0
 17
0.0
 27
1.0
 37
0.0
 76
     0
330
1B
  0
LAYOUT
  5
26
102
{ACAD_REACTORS
330
1A
102
}
330
1A
100
AcDbPlotSettings
  1

  2
none_device
  4

  6

 40
0.0
 41
0.0
 42
0.0
 43
0.0
 44
0.0
 45
0.0
 46
0.0
 47
0.0
 48
0.0
 49
0.0
140
0.0
141
0.0
142
1.0
143
1.0
 70
   688
 72
     1
 73
     0
 74
     5
  7

 75
    16
147
1.0
148
0.0
149
0.0
100
AcDbLayout
  1
Layout2
 70
     1
 71
     2
 10
0.0
 20
0.0
 11
0.0
 21
0.0
 12
0.0
 22
0.0
 32
0.0
 14
0.0
 24
0.0
 34
0.0
 15
0.0
 25
0.0
 35
0.0
146
0.0
 13
0.0
 23
0.0
 33
0.0
 16
1.0
 26
0.0
 36
0.0
 17
0.0
 27
1.0
 37
0.0
 76
     0
330
23
  0
LAYOUT
  5
22
102
{ACAD_REACTORS
330
1A
102
}
330
1A
100
AcDbPlotSettings
  1

  2
none_device
  4
ANSI_A_(11.00_x_8.50_Inches)
  6

 40
6.35
 41
19.05
 42
6.35000508
 43
19.05000254
 44
279.4
 45
215.9
 46
87.93427312127547
 47
99.04115116400077
 48
0.0
 49
0.0
140
0.0
141
0.0
142
0.0644511378840416
143
1.0
 70
  1696
 72
     0
 73
     0
 74
     0
  7

 75
     0
147
0.0235690232323232
148
0.0
149
0.0
100
AcDbLayout
  1
Model
 70
     1
 71
     0
 10
0.0
 20
0.0
 11
420.0
 21
297.0
 12
0.0
 22
0.0
 32
0.0
 14
-117.775
 24
-49.97180738881174
 34
0.0
 15
79.73835494594202
 25
38.69717000431202
 35
0.0
146
0.0
 13
0.0
 23
0.0
 33
0.0
 16
1.0
 26
0.0
 36
0.0
 17
0.0
 27
1.0
 37
0.0
 76
     0
330
1F
331
29
  0
MLINESTYLE
  5
18
102
{ACAD_REACTORS
330
17
102
}
330
17
100
AcDbMlineStyle
  2
Standard
 70
     0
  3

 62
   256
 51
90.0
 52
90.0
 71
     2
 49
0.5
 62
   256
  6
BYLAYER
 49
-0.5
 62
   256
  6
BYLAYER
  0
ACDBPLACEHOLDER
  5
F
102
{ACAD_REACTORS
330
E
102
}
330
E
  0
SCALE
  5
48
102
{ACAD_REACTORS
330
47
102
}
330
47
100
AcDbScale
 70
     0
300
1:1
140
1.0
141
1.0
290
     1
  0
SCALE
  5
49
102
{ACAD_REACTORS
330
47
102
}
330
47
100
AcDbScale
 70
     0
300
1:2
140
1.0
141
2.0
290
     0
  0
SCALE
  5
4A
102
{ACAD_REACTORS
330
47
102
}
330
47
100
AcDbScale
 70
     0
300
1:4
140
1.0
141
4.0
290
     0
  0
SCALE
  5
4B
102
{ACAD_REACTORS
330
47
102
}
330
47
100
AcDbScale
 70
     0
300
1:5
140
1.0
141
5.0
290
     0
  0
SCALE
  5
4C
102
{ACAD_REACTORS
330
47
102
}
330
47
100
AcDbScale
 70
     0
300
1:8
140
1.0
141
8.0
290
     0
  0
SCALE
  5
4D
102
{ACAD_REACTORS
330
47
102
}
330
47
100
AcDbScale
 70
     0
300
1:10
140
1.0
141
10.0
290
     0
  0
SCALE
  5
4E
102
{ACAD_REACTORS
330
47
102
}
330
47
100
AcDbScale
 70
     0
300
1:16
140
1.0
141
16.0
290
     0
  0
SCALE
  5
4F
102
{ACAD_REACTORS
330
47
102
}
330
47
100
AcDbScale
 70
     0
300
1:20
140
1.0
141
20.0
290
     0
  0
SCALE
  5
50
102
{ACAD_REACTORS
330
47
102
}
330
47
100
AcDbScale
 70
     0
300
1:30
140
1.0
141
30.0
290
     0
  0
SCALE
  5
51
102
{ACAD_REACTORS
330
47
102
}
330
47
100
AcDbScale
 70
     0
300
1:40
140
1.0
141
40.0
290
     0
  0
SCALE
  5
52
102
{ACAD_REACTORS
330
47
102
}
330
47
100
AcDbScale
 70
     0
300
1:50
140
1.0
141
50.0
290
     0
  0
SCALE
  5
53
102
{ACAD_REACTORS
330
47
102
}
330
47
100
AcDbScale
 70
     0
300
1:100
140
1.0
141
100.0
290
     0
  0
SCALE
  5
54
102
{ACAD_REACTORS
330
47
102
}
330
47
100
AcDbScale
 70
     0
300
2:1
140
2.0
141
1.0
290
     0
  0
SCALE
  5
55
102
{ACAD_REACTORS
330
47
102
}
330
47
100
AcDbScale
 70
     0
300
4:1
140
4.0
141
1.0
290
     0
  0
SCALE
  5
56
102
{ACAD_REACTORS
330
47
102
}
330
47
100
AcDbScale
 70
     0
300
8:1
140
8.0
141
1.0
290
     0
  0
SCALE
  5
57
102
{ACAD_REACTORS
330
47
102
}
330
47
100
AcDbScale
 70
     0
300
10:1
140
10.0
141
1.0
290
     0
  0
SCALE
  5
58
102
{ACAD_REACTORS
330
47
102
}
330
47
100
AcDbScale
 70
     0
300
100:1
140
100.0
141
1.0
290
     0
  0
SCALE
  5
59
102
{ACAD_REACTORS
330
47
102
}
330
47
100
AcDbScale
 70
     0
300
1/128" = 1'-0"
140
0.0078125
141
12.0
290
     0
  0
SCALE
  5
5A
102
{ACAD_REACTORS
330
47
102
}
330
47
100
AcDbScale
 70
     0
300
1/64" = 1'-0"
140
0.015625
141
12.0
290
     0
  0
SCALE
  5
5B
102
{ACAD_REACTORS
330
47
102
}
330
47
100
AcDbScale
 70
     0
300
1/32" = 1'-0"
140
0.03125
141
12.0
290
     0
  0
SCALE
  5
5C
102
{ACAD_REACTORS
330
47
102
}
330
47
100
AcDbScale
 70
     0
300
1/16" = 1'-0"
140
0.0625
141
12.0
290
     0
  0
SCALE
  5
5D
102
{ACAD_REACTORS
330
47
102
}
330
47
100
AcDbScale
 70
     0
300
3/32" = 1'-0"
140
0.09375
141
12.0
290
     0
  0
SCALE
  5
5E
102
{ACAD_REACTORS
330
47
102
}
330
47
100
AcDbScale
 70
     0
300
1/8" = 1'-0"
140
0.125
141
12.0
290
     0
  0
SCALE
  5
5F
102
{ACAD_REACTORS
330
47
102
}
330
47
100
AcDbScale
 70
     0
300
3/16" = 1'-0"
140
0.1875
141
12.0
290
     0
  0
SCALE
  5
60
102
{ACAD_REACTORS
330
47
102
}
330
47
100
AcDbScale
 70
     0
300
1/4" = 1'-0"
140
0.25
141
12.0
290
     0
  0
SCALE
  5
61
102
{ACAD_REACTORS
330
47
102
}
330
47
100
AcDbScale
 70
     0
300
3/8" = 1'-0"
140
0.375
141
12.0
290
     0
  0
SCALE
  5
62
102
{ACAD_REACTORS
330
47
102
}
330
47
100
AcDbScale
 70
     0
300
1/2" = 1'-0"
140
0.5
141
12.0
290
     0
  0
SCALE
  5
63
102
{ACAD_REACTORS
330
47
102
}
330
47
100
AcDbScale
 70
     0
300
3/4" = 1'-0"
140
0.75
141
12.0
290
     0
  0
SCALE
  5
64
102
{ACAD_REACTORS
330
47
102
}
330
47
100
AcDbScale
 70
     0
300
1" = 1'-0"
140
1.0
141
12.0
290
     0
  0
SCALE
  5
65
102
{ACAD_REACTORS
330
47
102
}
330
47
100
AcDbScale
 70
     0
300
1-1/2" = 1'-0"
140
1.5
141
12.0
290
     0
  0
SCALE
  5
66
102
{ACAD_REACTORS
330
47
102
}
330
47
100
AcDbScale
 70
     0
300
3" = 1'-0"
140
3.0
141
12.0
290
     0
  0
SCALE
  5
67
102
{ACAD_REACTORS
330
47
102
}
330
47
100
AcDbScale
 70
     0
300
6" = 1'-0"
140
6.0
141
12.0
290
     0
  0
SCALE
  5
68
102
{ACAD_REACTORS
330
47
102
}
330
47
100
AcDbScale
 70
     0
300
1'-0" = 1'-0"
140
12.0
141
12.0
290
     0
  0
ENDSEC
  0
EOF
