  0
SECTION
  2
HEADER
  9
$ACADVER
  1
AC1015
  9
$ACADMAINTVER
 70
     6
  9
$DWGCODEPAGE
  3
ANSI_949
  9
$INSBASE
 10
0.0
 20
0.0
 30
0.0
  9
$EXTMIN
 10
-126.4429491924311
 20
-49.97180738881174
 30
0.0
  9
$EXTMAX
 10
79.73835494594202
 20
36.70593400204871
 30
0.0
  9
$LIMMIN
 10
0.0
 20
0.0
  9
$LIMMAX
 10
420.0
 20
297.0
  9
$ORTHOMODE
 70
     0
  9
$REGENMODE
 70
     1
  9
$FILLMODE
 70
     1
  9
$QTEXTMODE
 70
     0
  9
$MIRRTEXT
 70
     1
  9
$LTSCALE
 40
1.0
  9
$ATTMODE
 70
     1
  9
$TEXTSIZE
 40
3.5
  9
$TRACEWID
 40
1.0
  9
$TEXTSTYLE
  7
Standard
  9
$CLAYER
  8
0
  9
$CELTYPE
  6
ByLayer
  9
$CECOLOR
 62
   256
  9
$CELTSCALE
 40
1.0
  9
$DISPSILH
 70
     0
  9
$DIMSCALE
 40
1.0
  9
$DIMASZ
 40
3.302
  9
$DIMEXO
 40
1.0
  9
$DIMDLI
 40
3.75
  9
$DIMRND
 40
0.0
  9
$DIMDLE
 40
0.0
  9
$DIMEXE
 40
1.0
  9
$DIMTP
 40
0.0
  9
$DIMTM
 40
0.0
  9
$DIMTXT
 40
3.5
  9
$DIMCEN
 40
2.5
  9
$DIMTSZ
 40
0.0
  9
$DIMTOL
 70
     0
  9
$DIMLIM
 70
     0
  9
$DIMTIH
 70
     1
  9
$DIMTOH
 70
     1
  9
$DIMSE1
 70
     0
  9
$DIMSE2
 70
     0
  9
$DIMTAD
 70
     1
  9
$DIMZIN
 70
     0
  9
$DIMBLK
  1

  9
$DIMASO
 70
     1
  9
$DIMSHO
 70
     1
  9
$DIMPOST
  1

  9
$DIMAPOST
  1

  9
$DIMALT
 70
     0
  9
$DIMALTD
 70
     3
  9
$DIMALTF
 40
0.0393700787401575
  9
$DIMLFAC
 40
1.0
  9
$DIMTOFL
 70
     1
  9
$DIMTVP
 40
0.0
  9
$DIMTIX
 70
     0
  9
$DIMSOXD
 70
     0
  9
$DIMSAH
 70
     0
  9
$DIMBLK1
  1

  9
$DIMBLK2
  1

  9
$DIMSTYLE
  2
ISO-25
  9
$DIMCLRD
 70
     0
  9
$DIMCLRE
 70
     0
  9
$DIMCLRT
 70
     0
  9
$DIMTFAC
 40
1.0
  9
$DIMGAP
 40
1.524
  9
$DIMJUST
 70
     0
  9
$DIMSD1
 70
     0
  9
$DIMSD2
 70
     0
  9
$DIMTOLJ
 70
     0
  9
$DIMTZIN
 70
     0
  9
$DIMALTZ
 70
     0
  9
$DIMALTTZ
 70
     0
  9
$DIMUPT
 70
     0
  9
$DIMDEC
 70
     2
  9
$DIMTDEC
 70
     2
  9
$DIMALTU
 70
     2
  9
$DIMALTTD
 70
     3
  9
$DIMTXSTY
  7
Standard
  9
$DIMAUNIT
 70
     0
  9
$DIMADEC
 70
     2
  9
$DIMALTRND
 40
0.0
  9
$DIMAZIN
 70
     0
  9
$DIMDSEP
 70
    44
  9
$DIMATFIT
 70
     3
  9
$DIMFRAC
 70
     0
  9
$DIMLDRBLK
  1

  9
$DIMLUNIT
 70
     2
  9
$DIMLWD
 70
    -2
  9
$DIMLWE
 70
    -2
  9
$DIMTMOVE
 70
     0
  9
$LUNITS
 70
     2
  9
$LUPREC
 70
     2
  9
$SKETCHINC
 40
1.0
  9
$FILLETRAD
 40
10.0
  9
$AUNITS
 70
     0
  9
$AUPREC
 70
     2
  9
$MENU
  1
.
  9
$ELEVATION
 40
0.0
  9
$PELEVATION
 40
0.0
  9
$THICKNESS
 40
0.0
  9
$LIMCHECK
 70
     0
  9
$CHAMFERA
 40
0.0
  9
$CHAMFERB
 40
0.0
  9
$CHAMFERC
 40
0.0
  9
$CHAMFERD
 40
0.0
  9
$SKPOLY
 70
     0
  9
$TDCREATE
 40
2458269.82476706
  9
$TDUCREATE
 40
2458269.44976706
  9
$TDUPDATE
 40
2459702.659210556
  9
$TDUUPDATE
 40
2459702.284210556
  9
$TDINDWG
 40
0.0001296991
  9
$TDUSRTIMER
 40
0.0001296875
  9
$USRTIMER
 70
     1
  9
$ANGBASE
 50
0.0
  9
$ANGDIR
 70
     0
  9
$PDMODE
 70
     0
  9
$PDSIZE
 40
-1.0
  9
$PLINEWID
 40
0.0
  9
$SPLFRAME
 70
     0
  9
$SPLINETYPE
 70
     6
  9
$SPLINESEGS
 70
     8
  9
$HANDSEED
  5
37D
  9
$SURFTAB1
 70
     6
  9
$SURFTAB2
 70
     6
  9
$SURFTYPE
 70
     6
  9
$SURFU
 70
     6
  9
$SURFV
 70
     6
  9
$UCSBASE
  2

  9
$UCSNAME
  2

  9
$UCSORG
 10
0.0
 20
0.0
 30
0.0
  9
$UCSXDIR
 10
1.0
 20
0.0
 30
0.0
  9
$UCSYDIR
 10
0.0
 20
1.0
 30
0.0
  9
$UCSORTHOREF
  2

  9
$UCSORTHOVIEW
 70
     0
  9
$UCSORGTOP
 10
0.0
 20
0.0
 30
0.0
  9
$UCSORGBOTTOM
 10
0.0
 20
0.0
 30
0.0
  9
$UCSORGLEFT
 10
0.0
 20
0.0
 30
0.0
  9
$UCSORGRIGHT
 10
0.0
 20
0.0
 30
0.0
  9
$UCSORGFRONT
 10
0.0
 20
0.0
 30
0.0
  9
$UCSORGBACK
 10
0.0
 20
0.0
 30
0.0
  9
$PUCSBASE
  2

  9
$PUCSNAME
  2

  9
$PUCSORG
 10
0.0
 20
0.0
 30
0.0
  9
$PUCSXDIR
 10
1.0
 20
0.0
 30
0.0
  9
$PUCSYDIR
 10
0.0
 20
1.0
 30
0.0
  9
$PUCSORTHOREF
  2

  9
$PUCSORTHOVIEW
 70
     0
  9
$PUCSORGTOP
 10
0.0
 20
0.0
 30
0.0
  9
$PUCSORGBOTTOM
 10
0.0
 20
0.0
 30
0.0
  9
$PUCSORGLEFT
 10
0.0
 20
0.0
 30
0.0
  9
$PUCSORGRIGHT
 10
0.0
 20
0.0
 30
0.0
  9
$PUCSORGFRONT
 10
0.0
 20
0.0
 30
0.0
  9
$PUCSORGBACK
 10
0.0
 20
0.0
 30
0.0
  9
$USERI1
 70
     0
  9
$USERI2
 70
     0
  9
$USERI3
 70
     0
  9
$USERI4
 70
     0
  9
$USERI5
 70
     0
  9
$USERR1
 40
0.0
  9
$USERR2
 40
0.0
  9
$USERR3
 40
0.0
  9
$USERR4
 40
0.0
  9
$USERR5
 40
0.0
  9
$WORLDVIEW
 70
     1
  9
$SHADEDGE
 70
     3
  9
$SHADEDIF
 70
    70
  9
$TILEMODE
 70
     1
  9
$MAXACTVP
 70
    64
  9
$PINSBASE
 10
0.0
 20
0.0
 30
0.0
  9
$PLIMCHECK
 70
     0
  9
$PEXTMIN
 10
1.000000000000000E+20
 20
1.000000000000000E+20
 30
1.000000000000000E+20
  9
$PEXTMAX
 10
-1.000000000000000E+20
 20
-1.000000000000000E+20
 30
-1.000000000000000E+20
  9
$PLIMMIN
 10
0.0
 20
0.0
  9
$PLIMMAX
 10
0.0
 20
0.0
  9
$UNITMODE
 70
     0
  9
$VISRETAIN
 70
     1
  9
$PLINEGEN
 70
     0
  9
$PSLTSCALE
 70
     1
  9
$TREEDEPTH
 70
  3020
  9
$CMLSTYLE
  2
Standard
  9
$CMLJUST
 70
     0
  9
$CMLSCALE
 40
20.0
  9
$PROXYGRAPHICS
 70
     1
  9
$MEASUREMENT
 70
     1
  9
$CELWEIGHT
370
    -1
  9
$ENDCAPS
280
     0
  9
$JOINSTYLE
280
     0
  9
$LWDISPLAY
290
     1
  9
$INSUNITS
 70
     4
  9
$HYPERLINKBASE
  1

  9
$STYLESHEET
  1

  9
$XEDIT
290
     1
  9
$CEPSNTYPE
380
     0
  9
$PSTYLEMODE
290
     1
  9
$FINGERPRINTGUID
  2
{30085E96-16A2-4D1E-B050-8D427C860E13}
  9
$VERSIONGUID
  2
{FAEB1C32-E019-11D5-929B-00C0DF256EC4}
  9
$EXTNAMES
290
     1
  9
$PSVPSCALE
 40
0.0
  9
$OLESTARTUP
290
     0
  0
ENDSEC
  0
SECTION
  2
CLASSES
  0
CLASS
  1
ACDBDICTIONARYWDFLT
  2
AcDbDictionaryWithDefault
  3
ObjectDBX Classes
 90
        0
280
     0
281
     0
  0
CLASS
  1
VISUALSTYLE
  2
AcDbVisualStyle
  3
ObjectDBX Classes
 90
     4095
280
     0
281
     0
  0
CLASS
  1
MATERIAL
  2
AcDbMaterial
  3
ObjectDBX Classes
 90
     1153
280
     0
281
     0
  0
CLASS
  1
SCALE
  2
AcDbScale
  3
ObjectDBX Classes
 90
     1153
280
     0
281
     0
  0
CLASS
  1
SUN
  2
AcDbSun
  3
SCENEOE
 90
     1153
280
     0
281
     0
  0
CLASS
  1
ACDBPLACEHOLDER
  2
AcDbPlaceHolder
  3
ObjectDBX Classes
 90
        0
280
     0
281
     0
  0
CLASS
  1
LAYOUT
  2
AcDbLayout
  3
ObjectDBX Classes
 90
        0
280
     0
281
     0
  0
CLASS
  1
TABLESTYLE
  2
AcDbTableStyle
  3
ObjectDBX Classes
 90
     4095
280
     0
281
     0
  0
CLASS
  1
MLEADERSTYLE
  2
AcDbMLeaderStyle
  3
ACDB_MLEADERSTYLE_CLASS
 90
     4095
280
     0
281
     0
  0
CLASS
  1
SORTENTSTABLE
  2
AcDbSortentsTable
  3
ObjectDBX Classes
 90
        0
280
     0
281
     0
  0
CLASS
  1
BREAKDATA
  2
AcDbBreakData
  3
ObjectDBX Classes
 90
     1024
280
     0
281
     0
  0
CLASS
  1
DIMASSOC
  2
AcDbDimAssoc
  3
"AcDbDimAssoc|Product Desc:     AcDim ARX App For Dimension|Company:          Autodesk, Inc.|WEB Address:      www.autodesk.com"
 90
        0
280
     0
281
     0
  0
ENDSEC
  0
SECTION
  2
TABLES
  0
TABLE
  2
VPORT
  5
8
330
0
100
AcDbSymbolTable
 70
     1
  0
VPORT
  5
29
330
8
100
AcDbSymbolTableRecord
100
AcDbViewportTableRecord
  2
*Active
 70
     0
 10
0.0
 20
0.0
 11
1.0
 21
1.0
 12
16.05272619477708
 22
-28.8887331858713
 13
0.0
 23
0.0
 14
10.0
 24
10.0
 15
10.0
 25
10.0
 16
0.0
 26
0.0
 36
1.0
 17
0.0
 27
0.0
 37
0.0
 40
275.3913804964652
 41
1.531481481481481
 42
50.0
 43
0.0
 44
0.0
 50
0.0
 51
0.0
 71
    16
 72
  2000
 73
     1
 74
     3
 75
     0
 76
     0
 77
     0
 78
     0
281
     0
 65
     1
110
0.0
120
0.0
130
0.0
111
1.0
121
0.0
131
0.0
112
0.0
122
1.0
132
0.0
 79
     0
146
0.0
  0
ENDTAB
  0
TABLE
  2
LTYPE
  5
5
330
0
100
AcDbSymbolTable
 70
     6
  0
LTYPE
  5
14
330
5
100
AcDbSymbolTableRecord
100
AcDbLinetypeTableRecord
  2
ByBlock
 70
     0
  3

 72
    65
 73
     0
 40
0.0
  0
LTYPE
  5
15
330
5
100
AcDbSymbolTableRecord
100
AcDbLinetypeTableRecord
  2
ByLayer
 70
     0
  3

 72
    65
 73
     0
 40
0.0
  0
LTYPE
  5
16
330
5
100
AcDbSymbolTableRecord
100
AcDbLinetypeTableRecord
  2
Continuous
 70
     0
  3
Solid line
 72
    65
 73
     0
 40
0.0
  0
LTYPE
  5
6A
330
5
100
AcDbSymbolTableRecord
100
AcDbLinetypeTableRecord
  2
HIDDEN
 70
     0
  3
Hidden __ __ __ __ __ __ __ __ __ __ __ __ __ __
 72
    65
 73
     2
 40
1.905
 49
1.27
 74
     0
 49
-0.635
 74
     0
  0
LTYPE
  5
6B
330
5
100
AcDbSymbolTableRecord
100
AcDbLinetypeTableRecord
  2
PHANTOM
 70
     0
  3
Phantom ______  __  __  ______  __  __  ______
 72
    65
 73
     6
 40
12.7
 49
6.35
 74
     0
 49
-1.27
 74
     0
 49
1.27
 74
     0
 49
-1.27
 74
     0
 49
1.27
 74
     0
 49
-1.27
 74
     0
  0
LTYPE
  5
6C
330
5
100
AcDbSymbolTableRecord
100
AcDbLinetypeTableRecord
  2
CENTER
 70
     0
  3
Center ____ _ ____ _ ____ _ ____ _ ____ _ ____
 72
    65
 73
     4
 40
10.16
 49
6.35
 74
     0
 49
-1.27
 74
     0
 49
1.27
 74
     0
 49
-1.27
 74
     0
  0
LTYPE
  5
6D
330
5
100
AcDbSymbolTableRecord
100
AcDbLinetypeTableRecord
  2
CENTERX2
 70
     0
  3
Center (2x) ________  __  ________  __  _____
 72
    65
 73
     4
 40
20.32
 49
12.7
 74
     0
 49
-2.54
 74
     0
 49
2.54
 74
     0
 49
-2.54
 74
     0
  0
LTYPE
  5
6E
330
5
100
AcDbSymbolTableRecord
100
AcDbLinetypeTableRecord
  2
DOT2
 70
     0
  3
Dot (.5x) ........................................
 72
    65
 73
     2
 40
0.635
 49
0.0
 74
     0
 49
-0.635
 74
     0
  0
ENDTAB
  0
TABLE
  2
LAYER
  5
2
102
{ACAD_XDICTIONARY
360
1A9
102
}
330
0
100
AcDbSymbolTable
 70
    18
  0
LAYER
  5
10
330
2
100
AcDbSymbolTableRecord
100
AcDbLayerTableRecord
  2
0
 70
     0
 62
     7
  6
Continuous
370
    -3
390
F
  0
LAYER
  5
6F
330
2
100
AcDbSymbolTableRecord
100
AcDbLayerTableRecord
  2
FORMAT
 70
     0
 62
     2
  6
Continuous
370
    -3
390
F
  0
LAYER
  5
70
330
2
100
AcDbSymbolTableRecord
100
AcDbLayerTableRecord
  2
외형선
 70
     0
 62
     4
  6
Continuous
370
    30
390
F
  0
LAYER
  5
71
330
2
100
AcDbSymbolTableRecord
100
AcDbLayerTableRecord
  2
숨은선
 70
     0
 62
     2
  6
HIDDEN
370
    15
390
F
  0
LAYER
  5
72
330
2
100
AcDbSymbolTableRecord
100
AcDbLayerTableRecord
  2
중심선
 70
     0
 62
     1
  6
CENTERX2
370
    -3
390
F
  0
LAYER
  5
73
330
2
100
AcDbSymbolTableRecord
100
AcDbLayerTableRecord
  2
파단선
 70
     0
 62
     4
  6
Continuous
370
    -3
390
F
  0
LAYER
  5
74
330
2
100
AcDbSymbolTableRecord
100
AcDbLayerTableRecord
  2
해칭선
 70
     0
 62
   100
  6
Continuous
370
    -3
390
F
  0
LAYER
  5
75
330
2
100
AcDbSymbolTableRecord
100
AcDbLayerTableRecord
  2
가는실선
 70
     0
 62
     4
  6
Continuous
370
    -3
390
F
  0
LAYER
  5
76
330
2
100
AcDbSymbolTableRecord
100
AcDbLayerTableRecord
  2
치수_보조선
 70
     0
 62
     4
  6
Continuous
370
    -3
390
F
  0
LAYER
  5
77
330
2
100
AcDbSymbolTableRecord
100
AcDbLayerTableRecord
  2
치수문자_일반주서
 70
     0
 62
     7
  6
Continuous
370
    15
390
F
  0
LAYER
  5
78
330
2
100
AcDbSymbolTableRecord
100
AcDbLayerTableRecord
  2
개별주서
 70
     0
 62
   100
  6
Continuous
370
    30
390
F
  0
LAYER
  5
79
330
2
100
AcDbSymbolTableRecord
100
AcDbLayerTableRecord
  2
중간선
 70
     0
 62
     2
  6
Continuous
370
    15
390
F
  0
LAYER
  5
7A
330
2
100
AcDbSymbolTableRecord
100
AcDbLayerTableRecord
  2
윤곽선
 70
     0
 62
     3
  6
Continuous
370
    40
390
F
  0
LAYER
  5
7B
330
2
100
AcDbSymbolTableRecord
100
AcDbLayerTableRecord
  2
중심마크
 70
     0
 62
   100
  6
Continuous
370
    30
390
F
  0
LAYER
  5
7C
330
2
100
AcDbSymbolTableRecord
100
AcDbLayerTableRecord
  2
가상선
 70
     0
 62
     4
  6
PHANTOM
370
    -3
390
F
  0
LAYER
  5
7D
330
2
100
AcDbSymbolTableRecord
100
AcDbLayerTableRecord
  2
특수지정선
 70
     0
 62
     5
  6
CENTERX2
370
    60
390
F
  0
LAYER
  5
7E
330
2
100
AcDbSymbolTableRecord
100
AcDbLayerTableRecord
  2
참조1
 70
     0
 62
    -4
  6
Continuous
370
    -3
390
F
  0
LAYER
  5
12A
330
2
100
AcDbSymbolTableRecord
100
AcDbLayerTableRecord
  2
Defpoints
 70
     0
 62
     7
  6
Continuous
290
     0
370
    -3
390
F
  0
ENDTAB
  0
TABLE
  2
STYLE
  5
3
330
0
100
AcDbSymbolTable
 70
     2
  0
STYLE
  5
11
330
3
100
AcDbSymbolTableRecord
100
AcDbTextStyleTableRecord
  2
Standard
 70
     0
 40
0.0
 41
1.0
 50
0.0
 71
     0
 42
3.5
  3
txt
  4

  0
STYLE
  5
94
330
3
100
AcDbSymbolTableRecord
100
AcDbTextStyleTableRecord
  2
SLDTEXTSTYLE0
 70
     0
 40
0.0
 41
0.75
 50
0.0
 71
     0
 42
3.5
  3
TXT
  4

  0
ENDTAB
  0
TABLE
  2
VIEW
  5
6
330
0
100
AcDbSymbolTable
 70
     0
  0
ENDTAB
  0
TABLE
  2
UCS
  5
7
330
0
100
AcDbSymbolTable
 70
     0
  0
ENDTAB
  0
TABLE
  2
APPID
  5
9
330
0
100
AcDbSymbolTable
 70
     4
  0
APPID
  5
12
330
9
100
AcDbSymbolTableRecord
100
AcDbRegAppTableRecord
  2
ACAD
 70
     0
  0
APPID
  5
137
330
9
100
AcDbSymbolTableRecord
100
AcDbRegAppTableRecord
  2
PE_URL
 70
     0
  0
APPID
  5
138
330
9
100
AcDbSymbolTableRecord
100
AcDbRegAppTableRecord
  2
ENABLE_CUSTOM_SPLIT
 70
     0
  0
APPID
  5
240
330
9
100
AcDbSymbolTableRecord
100
AcDbRegAppTableRecord
  2
ACAD_DSTYLE_DIMRADIAL_EXTENSION
 70
     0
  0
ENDTAB
  0
TABLE
  2
DIMSTYLE
  5
A
330
0
100
AcDbSymbolTable
 70
     3
100
AcDbDimStyleTable
  0
DIMSTYLE
105
27
330
A
100
AcDbSymbolTableRecord
100
AcDbDimStyleTableRecord
  2
ISO-25
 70
     0
 41
2.5
 42
0.625
 43
3.75
 44
1.25
 73
     0
 74
     0
 77
     1
 78
     8
140
2.5
141
2.5
143
0.03937007874016
147
0.625
171
     3
172
     1
178
     0
271
     2
272
     2
274
     3
278
    44
283
     0
284
     8
340
11
  0
DIMSTYLE
105
CB
102
{ACAD_REACTORS
330
16A
330
179
330
207
330
20A
330
290
330
29F
102
}
330
A
100
AcDbSymbolTableRecord
100
AcDbDimStyleTableRecord
  2
SLDDIMSTYLE0
 70
     0
 41
3.302
 44
0.0
 45
0.000000001
 73
     0
 74
     0
 77
     1
 78
    12
 79
     3
140
3.5
147
0.875
172
     1
173
     1
178
     0
271
     2
272
     2
276
     2
284
    12
289
     0
340
94
  0
DIMSTYLE
105
E6
102
{ACAD_REACTORS
330
186
330
193
330
20B
330
20C
330
2AC
330
2B9
330
2CF
330
243
102
}
330
A
100
AcDbSymbolTableRecord
100
AcDbDimStyleTableRecord
  2
SLDDIMSTYLE1
 70
     0
 41
3.302
 44
0.0
 45
0.000000001
 73
     0
 74
     0
 77
     1
 78
    12
 79
     3
140
3.5
147
0.875
173
     1
178
     0
271
     2
272
     2
276
     2
284
    12
340
94
  0
ENDTAB
  0
TABLE
  2
BLOCK_RECORD
  5
1
330
0
100
AcDbSymbolTable
 70
    26
  0
BLOCK_RECORD
  5
1F
102
{ACAD_XDICTIONARY
360
37A
102
}
330
1
100
AcDbSymbolTableRecord
100
AcDbBlockTableRecord
  2
*Model_Space
340
22
  0
BLOCK_RECORD
  5
1B
330
1
100
AcDbSymbolTableRecord
100
AcDbBlockTableRecord
  2
*Paper_Space
340
1E
  0
BLOCK_RECORD
  5
23
330
1
100
AcDbSymbolTableRecord
100
AcDbBlockTableRecord
  2
*Paper_Space0
340
26
  0
BLOCK_RECORD
  5
7F
330
1
100
AcDbSymbolTableRecord
100
AcDbBlockTableRecord
  2
블럭10
340
0
102
{BLKREFS
331
C3
102
}
  0
BLOCK_RECORD
  5
CC
330
1
100
AcDbSymbolTableRecord
100
AcDbBlockTableRecord
  2
_D
340
0
  0
BLOCK_RECORD
  5
D9
330
1
100
AcDbSymbolTableRecord
100
AcDbBlockTableRecord
  2
_D_1
340
0
  0
BLOCK_RECORD
  5
E7
330
1
100
AcDbSymbolTableRecord
100
AcDbBlockTableRecord
  2
_D_2
340
0
  0
BLOCK_RECORD
  5
F1
330
1
100
AcDbSymbolTableRecord
100
AcDbBlockTableRecord
  2
_D_3
340
0
  0
BLOCK_RECORD
  5
101
330
1
100
AcDbSymbolTableRecord
100
AcDbBlockTableRecord
  2
SW_DOWELSYMBOL_0
340
0
102
{BLKREFS
331
0
331
1A0
331
20D
331
2C6
331
0
102
}
  0
BLOCK_RECORD
  5
1AD
330
1
100
AcDbSymbolTableRecord
100
AcDbBlockTableRecord
  2
*D8
340
0
  0
BLOCK_RECORD
  5
1B9
330
1
100
AcDbSymbolTableRecord
100
AcDbBlockTableRecord
  2
*D9
340
0
  0
BLOCK_RECORD
  5
1C5
330
1
100
AcDbSymbolTableRecord
100
AcDbBlockTableRecord
  2
*D10
340
0
  0
BLOCK_RECORD
  5
1D1
330
1
100
AcDbSymbolTableRecord
100
AcDbBlockTableRecord
  2
*D11
340
0
  0
BLOCK_RECORD
  5
210
330
1
100
AcDbSymbolTableRecord
100
AcDbBlockTableRecord
  2
*D12
340
0
  0
BLOCK_RECORD
  5
21C
330
1
100
AcDbSymbolTableRecord
100
AcDbBlockTableRecord
  2
*D13
340
0
  0
BLOCK_RECORD
  5
228
330
1
100
AcDbSymbolTableRecord
100
AcDbBlockTableRecord
  2
*D14
340
0
  0
BLOCK_RECORD
  5
234
330
1
100
AcDbSymbolTableRecord
100
AcDbBlockTableRecord
  2
*D15
340
0
  0
BLOCK_RECORD
  5
246
330
1
100
AcDbSymbolTableRecord
100
AcDbBlockTableRecord
  2
*D16
340
0
  0
BLOCK_RECORD
  5
2D0
330
1
100
AcDbSymbolTableRecord
100
AcDbBlockTableRecord
  2
*D18
340
0
  0
BLOCK_RECORD
  5
2DC
330
1
100
AcDbSymbolTableRecord
100
AcDbBlockTableRecord
  2
*D19
340
0
  0
BLOCK_RECORD
  5
2E8
330
1
100
AcDbSymbolTableRecord
100
AcDbBlockTableRecord
  2
*D20
340
0
  0
BLOCK_RECORD
  5
2F4
330
1
100
AcDbSymbolTableRecord
100
AcDbBlockTableRecord
  2
*D21
340
0
  0
BLOCK_RECORD
  5
300
330
1
100
AcDbSymbolTableRecord
100
AcDbBlockTableRecord
  2
*D22
340
0
  0
BLOCK_RECORD
  5
340
330
1
100
AcDbSymbolTableRecord
100
AcDbBlockTableRecord
  2
*D23
340
0
  0
BLOCK_RECORD
  5
34C
330
1
100
AcDbSymbolTableRecord
100
AcDbBlockTableRecord
  2
*D24
340
0
  0
BLOCK_RECORD
  5
358
330
1
100
AcDbSymbolTableRecord
100
AcDbBlockTableRecord
  2
*D25
340
0
  0
BLOCK_RECORD
  5
364
330
1
100
AcDbSymbolTableRecord
100
AcDbBlockTableRecord
  2
*D26
340
0
  0
BLOCK_RECORD
  5
370
330
1
100
AcDbSymbolTableRecord
100
AcDbBlockTableRecord
  2
*D27
340
0
  0
ENDTAB
  0
ENDSEC
  0
SECTION
  2
BLOCKS
  0
BLOCK
  5
20
330
1F
100
AcDbEntity
  8
0
100
AcDbBlockBegin
  2
*Model_Space
 70
     0
 10
0.0
 20
0.0
 30
0.0
  3
*Model_Space
  1

  0
ENDBLK
  5
21
330
1F
100
AcDbEntity
  8
0
100
AcDbBlockEnd
  0
BLOCK
  5
1C
330
1B
100
AcDbEntity
 67
     1
  8
0
100
AcDbBlockBegin
  2
*Paper_Space
 70
     0
 10
0.0
 20
0.0
 30
0.0
  3
*Paper_Space
  1

  0
ENDBLK
  5
1D
330
1B
100
AcDbEntity
 67
     1
  8
0
100
AcDbBlockEnd
  0
BLOCK
  5
24
330
23
100
AcDbEntity
  8
0
100
AcDbBlockBegin
  2
*Paper_Space0
 70
     0
 10
0.0
 20
0.0
 30
0.0
  3
*Paper_Space0
  1

  0
ENDBLK
  5
25
330
23
100
AcDbEntity
  8
0
100
AcDbBlockEnd
  0
BLOCK
  5
80
330
7F
100
AcDbEntity
  8
0
100
AcDbBlockBegin
  2
블럭10
 70
     2
 10
0.0
 20
0.0
 30
0.0
  3
블럭10
  1

  0
ELLIPSE
  5
82
330
7F
100
AcDbEntity
  8
중심선
100
AcDbEllipse
 10
20.54032771741204
 20
12.0471743016438
 30
0.0
 11
6.600054785286829
 21
-1.261213355974178E-13
 31
0.0
210
0.0
220
0.0
230
1.0
 40
0.636358354079598
 41
0.9219305317359503
 42
6.513795318482858
  0
ELLIPSE
  5
83
330
7F
100
AcDbEntity
  8
중심선
100
AcDbEllipse
 10
20.54032771746488
 20
12.04717430159265
 30
0.0
 11
3.960054785062283
 21
1.540847449632565E-10
 31
0.0
210
0.0
220
0.0
230
1.0
 40
0.3939339440162632
 41
1.131841032648279
 42
5.62031148352944
  0
LINE
  5
84
330
7F
100
AcDbEntity
  8
중심선
100
AcDbLine
 10
2.268634060543552
 20
16.24717430164393
 30
0.0
 11
5.714909304380834
 21
16.24717430164393
 31
0.0
  0
LINE
  5
85
330
7F
100
AcDbEntity
  8
중심선
100
AcDbLine
 10
5.245725140726316
 20
7.84717430164391
 30
0.0
 11
8.692000384563599
 21
7.84717430164391
 31
0.0
  0
LINE
  5
86
330
7F
100
AcDbEntity
  8
중심선
100
AcDbLine
 10
15.74043728645272
 20
16.24717430164393
 30
0.0
 11
8.692000384563599
 21
7.84717430164391
 31
0.0
  0
LINE
  5
87
330
7F
100
AcDbEntity
  8
중심선
100
AcDbLine
 10
0.1404042013395286
 20
13.71084872107135
 30
0.0
 11
3.58671253028996
 21
13.71088815037384
 31
0.0
  0
LINE
  5
88
330
7F
100
AcDbEntity
  8
중심선
100
AcDbLine
 10
2.750260043222114
 20
10.84717430164391
 30
0.0
 11
6.196535287059397
 21
10.84717430164391
 31
0.0
  0
LINE
  5
89
330
7F
100
AcDbEntity
  8
중심선
100
AcDbLine
 10
12.29416204261559
 20
16.24717430164393
 30
0.0
 11
5.245725140726316
 21
7.84717430164391
 31
0.0
  0
LINE
  5
8A
330
7F
100
AcDbEntity
  8
중심선
100
AcDbLine
 10
10.72767329541681
 20
16.24717430164393
 30
0.0
 11
6.196535287059397
 21
10.84717430164391
 31
0.0
  0
LINE
  5
8B
330
7F
100
AcDbEntity
  8
중심선
100
AcDbLine
 10
7.28139805157953
 20
16.24717430164393
 30
0.0
 11
2.750260043222114
 21
10.84717430164391
 31
0.0
  0
LINE
  5
8C
330
7F
100
AcDbEntity
  8
중심선
100
AcDbLine
 10
5.714909304380834
 20
16.24717430164393
 30
0.0
 11
3.58671253028996
 21
13.71088815037384
 31
0.0
  0
LINE
  5
8D
330
7F
100
AcDbEntity
  8
중심선
100
AcDbLine
 10
2.268634060543552
 20
16.24717430164393
 30
0.0
 11
0.1404042013395286
 21
13.71084872107135
 31
0.0
  0
LINE
  5
8E
330
7F
100
AcDbEntity
  8
중심선
100
AcDbLine
 10
7.28139805157953
 20
16.24717430164393
 30
0.0
 11
10.72767329541681
 21
16.24717430164393
 31
0.0
  0
LINE
  5
8F
330
7F
100
AcDbEntity
  8
중심선
100
AcDbLine
 10
12.29416204261559
 20
16.24717430164393
 30
0.0
 11
15.74043728645272
 21
16.24717430164393
 31
0.0
  0
LINE
  5
90
330
7F
100
AcDbEntity
  8
중심선
100
AcDbLine
 10
19.22036997980202
 20
11.08717430171403
 30
0.0
 11
23.66174974927406
 21
11.08717430171406
 31
0.0
  0
LINE
  5
91
330
7F
100
AcDbEntity
  8
중심선
100
AcDbLine
 10
19.22039502424796
 20
13.00717430171391
 30
0.0
 11
19.22036997980202
 21
11.08717430171403
 31
0.0
  0
LINE
  5
92
330
7F
100
AcDbEntity
  8
중심선
100
AcDbLine
 10
19.22039502424796
 20
13.00717430171391
 30
0.0
 11
26.96566020931264
 21
13.00717430171391
 31
0.0
  0
LINE
  5
93
330
7F
100
AcDbEntity
  8
중심선
100
AcDbLine
 10
22.22332737316547
 20
13.45928029700563
 30
0.0
 11
24.52862924686651
 21
15.39360700705356
 31
0.0
  0
ATTDEF
  5
95
330
7F
100
AcDbEntity
  8
FORMAT
 62
     2
100
AcDbText
 10
-16.11926103943555
 20
2.075366912832191
 30
0.0
 40
4.233333333333333
  1
SEME0116010E [ 4 FLUTE ]
 41
0.75
  7
SLDTEXTSTYLE0
 11
-16.11926103943555
 21
-0.0412997538344756
 31
0.0
100
AcDbAttributeDefinition
  3

  2
AUTOATTR0
 70
     0
 74
     1
  0
ENDBLK
  5
81
330
7F
100
AcDbEntity
  8
0
100
AcDbBlockEnd
  0
BLOCK
  5
CD
330
CC
100
AcDbEntity
  8
0
100
AcDbBlockBegin
  2
_D
 70
     0
 10
0.0
 20
0.0
 30
0.0
  3
_D
  1

  0
SOLID
  5
CF
330
CC
100
AcDbEntity
  8
치수문자_일반주서
100
AcDbTrace
 10
76.7518673179318
 20
7.999999999999993
 30
0.0
 11
77.25986731793179
 21
11.30199999999999
 31
0.0
 12
76.2438673179318
 22
11.30199999999999
 32
0.0
 13
76.2438673179318
 23
11.30199999999999
 33
0.0
  0
SOLID
  5
D0
330
CC
100
AcDbEntity
  8
치수문자_일반주서
100
AcDbTrace
 10
76.7518673179318
 20
-7.999999999999991
 30
0.0
 11
76.2438673179318
 21
-11.30199999999999
 31
0.0
 12
77.25986731793179
 22
-11.30199999999999
 32
0.0
 13
77.25986731793179
 23
-11.30199999999999
 33
0.0
  0
LINE
  5
D1
330
CC
100
AcDbEntity
  8
치수문자_일반주서
100
AcDbLine
 10
87.64770016363393
 20
7.999999999999993
 30
0.0
 11
75.7518673179318
 21
7.999999999999993
 31
0.0
  0
LINE
  5
D2
330
CC
100
AcDbEntity
  8
치수문자_일반주서
100
AcDbLine
 10
87.64770016363386
 20
-7.999999999999993
 30
0.0
 11
75.7518673179318
 21
-7.999999999999991
 31
0.0
  0
LINE
  5
D3
330
CC
100
AcDbEntity
  8
치수문자_일반주서
100
AcDbLine
 10
76.7518673179318
 20
7.999999999999993
 30
0.0
 11
76.7518673179318
 21
14.34999999999999
 31
0.0
  0
LINE
  5
D4
330
CC
100
AcDbEntity
  8
치수문자_일반주서
100
AcDbLine
 10
76.7518673179318
 20
7.999999999999993
 30
0.0
 11
76.7518673179318
 21
-7.999999999999991
 31
0.0
  0
LINE
  5
D5
330
CC
100
AcDbEntity
  8
치수문자_일반주서
100
AcDbLine
 10
76.7518673179318
 20
-7.999999999999991
 30
0.0
 11
76.7518673179318
 21
-14.34999999999999
 31
0.0
  0
MTEXT
  5
D6
330
CC
100
AcDbEntity
  8
치수문자_일반주서
100
AcDbMText
 10
72.24013022872995
 20
-5.225330125540515
 30
0.0
 40
3.5
 41
0.0
 71
     1
 72
     1
  1
%%c
  7
SLDTEXTSTYLE0
 11
-7.044195017643634E-15
 21
1.0
 31
0.0
 73
     1
 44
1.0
  0
MTEXT
  5
D7
330
CC
100
AcDbEntity
  8
치수문자_일반주서
100
AcDbMText
 10
72.18665805207006
 20
0.0531072728335651
 30
0.0
 40
3.5
 41
0.0
 71
     1
 72
     1
  1
16
  7
SLDTEXTSTYLE0
 11
-7.044195017643634E-15
 21
1.0
 31
0.0
 73
     1
 44
1.0
  0
ENDBLK
  5
CE
330
CC
100
AcDbEntity
  8
0
100
AcDbBlockEnd
  0
BLOCK
  5
DA
330
D9
100
AcDbEntity
  8
0
100
AcDbBlockBegin
  2
_D_1
 70
     0
 10
0.0
 20
0.0
 30
0.0
  3
_D_1
  1

  0
SOLID
  5
DC
330
D9
100
AcDbEntity
  8
치수문자_일반주서
100
AcDbTrace
 10
-52.57512886940358
 20
8.000000000000007
 30
0.0
 11
-52.06712886940358
 21
11.30200000000001
 31
0.0
 12
-53.08312886940358
 22
11.30200000000001
 32
0.0
 13
-53.08312886940358
 23
11.30200000000001
 33
0.0
  0
SOLID
  5
DD
330
D9
100
AcDbEntity
  8
치수문자_일반주서
100
AcDbTrace
 10
-52.57512886940358
 20
-8.000000000000007
 30
0.0
 11
-53.08312886940358
 21
-11.30200000000001
 31
0.0
 12
-52.06712886940358
 22
-11.30200000000001
 32
0.0
 13
-52.06712886940358
 23
-11.30200000000001
 33
0.0
  0
LINE
  5
DE
330
D9
100
AcDbEntity
  8
치수문자_일반주서
100
AcDbLine
 10
-40.17512886940358
 20
8.000000000000007
 30
0.0
 11
-53.57512886940358
 21
8.000000000000007
 31
0.0
  0
LINE
  5
DF
330
D9
100
AcDbEntity
  8
치수문자_일반주서
100
AcDbLine
 10
-40.17512886940358
 20
-8.000000000000007
 30
0.0
 11
-53.57512886940358
 21
-8.000000000000007
 31
0.0
  0
LINE
  5
E0
330
D9
100
AcDbEntity
  8
치수문자_일반주서
100
AcDbLine
 10
-52.57512886940358
 20
8.000000000000007
 30
0.0
 11
-52.57512886940358
 21
14.35000000000001
 31
0.0
  0
LINE
  5
E1
330
D9
100
AcDbEntity
  8
치수문자_일반주서
100
AcDbLine
 10
-52.57512886940358
 20
8.000000000000007
 30
0.0
 11
-52.57512886940358
 21
-8.000000000000007
 31
0.0
  0
LINE
  5
E2
330
D9
100
AcDbEntity
  8
치수문자_일반주서
100
AcDbLine
 10
-52.57512886940358
 20
-8.000000000000007
 30
0.0
 11
-52.57512886940358
 21
-14.35000000000001
 31
0.0
  0
MTEXT
  5
E3
330
D9
100
AcDbEntity
  8
치수문자_일반주서
100
AcDbMText
 10
-57.08686595860541
 20
-5.22533012554053
 30
0.0
 40
3.5
 41
0.0
 71
     1
 72
     1
  1
%%c
  7
SLDTEXTSTYLE0
 11
-7.044195017643634E-15
 21
1.0
 31
0.0
 73
     1
 44
1.0
  0
MTEXT
  5
E4
330
D9
100
AcDbEntity
  8
치수문자_일반주서
100
AcDbMText
 10
-57.1403381352653
 20
0.0531072728335513
 30
0.0
 40
3.5
 41
0.0
 71
     1
 72
     1
  1
16
  7
SLDTEXTSTYLE0
 11
-7.044195017643634E-15
 21
1.0
 31
0.0
 73
     1
 44
1.0
  0
ENDBLK
  5
DB
330
D9
100
AcDbEntity
  8
0
100
AcDbBlockEnd
  0
BLOCK
  5
E8
330
E7
100
AcDbEntity
  8
0
100
AcDbBlockBegin
  2
_D_2
 70
     0
 10
0.0
 20
0.0
 30
0.0
  3
_D_2
  1

  0
SOLID
  5
EA
330
E7
100
AcDbEntity
  8
치수문자_일반주서
100
AcDbTrace
 10
109.2248711305963
 20
24.40731397776235
 30
0.0
 11
105.9228711305963
 21
24.91531397776234
 31
0.0
 12
105.9228711305963
 22
23.89931397776234
 32
0.0
 13
105.9228711305963
 23
23.89931397776234
 33
0.0
  0
SOLID
  5
EB
330
E7
100
AcDbEntity
  8
치수문자_일반주서
100
AcDbTrace
 10
77.22487113059634
 20
24.40731397776226
 30
0.0
 11
80.52687113059633
 21
23.89931397776227
 31
0.0
 12
80.52687113059633
 22
24.91531397776227
 32
0.0
 13
80.52687113059633
 23
24.91531397776227
 33
0.0
  0
LINE
  5
EC
330
E7
100
AcDbEntity
  8
치수문자_일반주서
100
AcDbLine
 10
109.2248711305964
 20
7.954143523519481
 30
0.0
 11
109.2248711305963
 21
25.40731397776235
 31
0.0
  0
LINE
  5
ED
330
E7
100
AcDbEntity
  8
치수문자_일반주서
100
AcDbLine
 10
77.2248711305964
 20
8.385697431902775
 30
0.0
 11
77.22487113059634
 21
25.40731397776226
 31
0.0
  0
LINE
  5
EE
330
E7
100
AcDbEntity
  8
치수문자_일반주서
100
AcDbLine
 10
109.2248711305963
 20
24.40731397776235
 30
0.0
 11
77.22487113059634
 21
24.40731397776226
 31
0.0
  0
MTEXT
  5
EF
330
E7
100
AcDbEntity
  8
치수문자_일반주서
100
AcDbMText
 10
90.63875993707354
 20
28.9190508923412
 30
0.0
 40
3.5
 41
0.0
 71
     1
 72
     1
  1
32
  7
SLDTEXTSTYLE0
 73
     1
 44
1.0
  0
ENDBLK
  5
E9
330
E7
100
AcDbEntity
  8
0
100
AcDbBlockEnd
  0
BLOCK
  5
F2
330
F1
100
AcDbEntity
  8
0
100
AcDbBlockBegin
  2
_D_3
 70
     0
 10
0.0
 20
0.0
 30
0.0
  3
_D_3
  1

  0
SOLID
  5
F4
330
F1
100
AcDbEntity
  8
치수문자_일반주서
100
AcDbTrace
 10
109.2248711305964
 20
31.82367666812929
 30
0.0
 11
105.9228711305964
 21
32.33167666812929
 31
0.0
 12
105.9228711305964
 22
31.31567666812929
 32
0.0
 13
105.9228711305964
 23
31.31567666812929
 33
0.0
  0
SOLID
  5
F5
330
F1
100
AcDbEntity
  8
치수문자_일반주서
100
AcDbTrace
 10
-40.77512886940357
 20
31.82367666812928
 30
0.0
 11
-37.47312886940357
 21
31.31567666812929
 31
0.0
 12
-37.47312886940357
 22
32.33167666812928
 32
0.0
 13
-37.47312886940357
 23
32.33167666812928
 33
0.0
  0
LINE
  5
F6
330
F1
100
AcDbEntity
  8
치수문자_일반주서
100
AcDbLine
 10
109.2248711305964
 20
7.954143523519481
 30
0.0
 11
109.2248711305964
 21
32.82367666812929
 31
0.0
  0
LINE
  5
F7
330
F1
100
AcDbEntity
  8
치수문자_일반주서
100
AcDbLine
 10
-40.77512886940357
 20
7.400000000000005
 30
0.0
 11
-40.77512886940357
 21
32.82367666812928
 31
0.0
  0
LINE
  5
F8
330
F1
100
AcDbEntity
  8
치수문자_일반주서
100
AcDbLine
 10
109.2248711305964
 20
31.82367666812929
 30
0.0
 11
-40.77512886940357
 21
31.82367666812928
 31
0.0
  0
MTEXT
  5
F9
330
F1
100
AcDbEntity
  8
치수문자_일반주서
100
AcDbMText
 10
30.34570445672751
 20
36.33541358270818
 30
0.0
 40
3.5
 41
0.0
 71
     1
 72
     1
  1
150
  7
SLDTEXTSTYLE0
 73
     1
 44
1.0
  0
ENDBLK
  5
F3
330
F1
100
AcDbEntity
  8
0
100
AcDbBlockEnd
  0
BLOCK
  5
102
330
101
100
AcDbEntity
  8
0
100
AcDbBlockBegin
  2
SW_DOWELSYMBOL_0
 70
     0
 10
0.0
 20
0.0
 30
0.0
  3
SW_DOWELSYMBOL_0
  1

  0
CIRCLE
  5
104
330
101
100
AcDbEntity
  8
해칭선
 62
     0
100
AcDbCircle
 10
0.0
 20
0.0
 30
0.0
 40
3.000000000000008
  0
HATCH
  5
105
330
101
100
AcDbEntity
  8
0
  6
Continuous
 62
     0
370
     0
100
AcDbHatch
 10
0.0
 20
0.0
 30
0.0
210
0.0
220
0.0
230
1.0
  2
SOLID
 70
     1
 71
     0
 91
        1
 92
        0
 93
        3
 72
     2
 10
0.0
 20
0.0
 40
3.000000000000008
 50
0.0
 51
90.0
 73
     1
 72
     1
 10
0.0
 20
3.000000000000008
 11
0.0
 21
0.0
 72
     1
 10
0.0
 20
0.0
 11
3.000000000000003
 21
0.0
 97
        0
 75
     0
 76
     1
 98
        1
 10
0.0
 20
0.0
  0
HATCH
  5
106
330
101
100
AcDbEntity
  8
0
  6
Continuous
 62
     0
370
     0
100
AcDbHatch
 10
0.0
 20
0.0
 30
0.0
210
0.0
220
0.0
230
1.0
  2
SOLID
 70
     1
 71
     0
 91
        1
 92
        0
 93
        3
 72
     2
 10
0.0
 20
0.0
 40
3.000000000000008
 50
180.0
 51
270.0000000000008
 73
     1
 72
     1
 10
0.0
 20
-3.000000000000008
 11
0.0
 21
0.0
 72
     1
 10
0.0
 20
0.0
 11
-3.000000000000003
 21
0.0
 97
        0
 75
     0
 76
     1
 98
        1
 10
0.0
 20
0.0
  0
ENDBLK
  5
103
330
101
100
AcDbEntity
  8
0
100
AcDbBlockEnd
  0
BLOCK
  5
1AE
330
1AD
100
AcDbEntity
  8
0
100
AcDbBlockBegin
  2
*D8
 70
     1
 10
0.0
 20
0.0
 30
0.0
  3
*D8
  1

  0
LINE
  5
1B0
330
1AD
100
AcDbEntity
  8
치수문자_일반주서
 62
     0
370
    -2
100
AcDbLine
 10
150.5393393776391
 20
16.00308664635124
 30
0.0
 11
191.5978290330374
 21
16.00308664635141
 31
0.0
  0
LINE
  5
1B1
330
1AD
100
AcDbEntity
  8
치수문자_일반주서
 62
     0
370
    -2
100
AcDbLine
 10
150.5393393776391
 20
0.0030866463512409
 30
0.0
 11
191.5978290330375
 21
0.0030866463514112
 31
0.0
  0
LINE
  5
1B2
330
1AD
100
AcDbEntity
  8
치수문자_일반주서
 62
     0
370
    -2
100
AcDbLine
 10
191.5978290330374
 20
12.70108664635141
 30
0.0
 11
191.5978290330375
 21
3.305086646351411
 31
0.0
  0
SOLID
  5
1B3
330
1AD
100
AcDbEntity
  8
치수문자_일반주서
 62
     0
100
AcDbTrace
 10
192.1481623663708
 20
12.70108664635141
 30
0.0
 11
191.0474956997041
 21
12.7010866463514
 31
0.0
 12
191.5978290330374
 22
16.00308664635141
 32
0.0
 13
191.5978290330374
 23
16.00308664635141
 33
0.0
  0
SOLID
  5
1B4
330
1AD
100
AcDbEntity
  8
치수문자_일반주서
 62
     0
100
AcDbTrace
 10
191.0474956997042
 20
3.305086646351409
 30
0.0
 11
192.1481623663708
 21
3.305086646351413
 31
0.0
 12
191.5978290330375
 22
0.0030866463514112
 32
0.0
 13
191.5978290330375
 23
0.0030866463514112
 33
0.0
  0
MTEXT
  5
1B5
330
1AD
100
AcDbEntity
  8
치수문자_일반주서
 62
     0
100
AcDbMText
 10
187.2228290330375
 20
8.003086646351397
 30
0.0
 40
3.5
 41
0.0
 71
     2
 72
     1
  1
\A1;%%c16
  7
SLDTEXTSTYLE0
 11
-3.552713678800503E-15
 21
1.0
 31
0.0
 73
     1
 44
1.0
  0
POINT
  5
1B6
330
1AD
100
AcDbEntity
  8
Defpoints
 62
     0
100
AcDbPoint
 10
145.5978290330376
 20
16.00308664635124
 30
0.0
  0
POINT
  5
1B7
330
1AD
100
AcDbEntity
  8
Defpoints
 62
     0
100
AcDbPoint
 10
145.5978290330374
 20
0.0030866463512407
 30
0.0
  0
POINT
  5
1B8
330
1AD
100
AcDbEntity
  8
Defpoints
 62
     0
100
AcDbPoint
 10
191.5978290330375
 20
0.0030866463514125
 30
0.0
  0
ENDBLK
  5
1AF
330
1AD
100
AcDbEntity
  8
0
100
AcDbBlockEnd
  0
BLOCK
  5
1BA
330
1B9
100
AcDbEntity
  8
0
100
AcDbBlockBegin
  2
*D9
 70
     1
 10
0.0
 20
0.0
 30
0.0
  3
*D9
  1

  0
LINE
  5
1BC
330
1B9
100
AcDbEntity
  8
치수문자_일반주서
 62
     0
370
    -2
100
AcDbLine
 10
17.71250000000005
 20
16.00308664635125
 30
0.0
 11
4.375000000000001
 21
16.0030866463512
 31
0.0
  0
LINE
  5
1BD
330
1B9
100
AcDbEntity
  8
치수문자_일반주서
 62
     0
370
    -2
100
AcDbLine
 10
17.71250000000005
 20
0.0030866463512316
 30
0.0
 11
4.375000000000057
 21
0.0030866463511821
 31
0.0
  0
LINE
  5
1BE
330
1B9
100
AcDbEntity
  8
치수문자_일반주서
 62
     0
370
    -2
100
AcDbLine
 10
4.375000000000012
 20
12.7010866463512
 30
0.0
 11
4.375000000000045
 21
3.305086646351182
 31
0.0
  0
SOLID
  5
1BF
330
1B9
100
AcDbEntity
  8
치수문자_일반주서
 62
     0
100
AcDbTrace
 10
4.925333333333346
 20
12.7010866463512
 30
0.0
 11
3.824666666666679
 21
12.70108664635119
 31
0.0
 12
4.375000000000001
 22
16.0030866463512
 32
0.0
 13
4.375000000000001
 23
16.0030866463512
 33
0.0
  0
SOLID
  5
1C0
330
1B9
100
AcDbEntity
  8
치수문자_일반주서
 62
     0
100
AcDbTrace
 10
3.824666666666712
 20
3.30508664635118
 30
0.0
 11
4.925333333333379
 21
3.305086646351183
 31
0.0
 12
4.375000000000057
 22
0.0030866463511821
 32
0.0
 13
4.375000000000057
 23
0.0030866463511821
 33
0.0
  0
MTEXT
  5
1C1
330
1B9
100
AcDbEntity
  8
치수문자_일반주서
 62
     0
100
AcDbMText
 10
0.0000000000000284
 20
8.00308664635123
 30
0.0
 40
3.5
 41
0.0
 71
     2
 72
     1
  1
\A1;%%c16
  7
SLDTEXTSTYLE0
 11
-3.497202527569240E-15
 21
1.0
 31
0.0
 73
     1
 44
1.0
  0
POINT
  5
1C2
330
1B9
100
AcDbEntity
  8
Defpoints
 62
     0
100
AcDbPoint
 10
17.77500000000005
 20
16.00308664635125
 30
0.0
  0
POINT
  5
1C3
330
1B9
100
AcDbEntity
  8
Defpoints
 62
     0
100
AcDbPoint
 10
17.77500000000005
 20
0.0030866463512318
 30
0.0
  0
POINT
  5
1C4
330
1B9
100
AcDbEntity
  8
Defpoints
 62
     0
100
AcDbPoint
 10
4.375000000000057
 20
0.0030866463511817
 30
0.0
  0
ENDBLK
  5
1BB
330
1B9
100
AcDbEntity
  8
0
100
AcDbBlockEnd
  0
BLOCK
  5
1C6
330
1C5
100
AcDbEntity
  8
0
100
AcDbBlockBegin
  2
*D10
 70
     1
 10
0.0
 20
0.0
 30
0.0
  3
*D10
  1

  0
LINE
  5
1C8
330
1C5
100
AcDbEntity
  8
치수문자_일반주서
 62
     0
370
    -2
100
AcDbLine
 10
166.1750000000001
 20
15.52591257506626
 30
0.0
 11
166.1750000000001
 21
32.91658302930912
 31
0.0
  0
LINE
  5
1C9
330
1C5
100
AcDbEntity
  8
치수문자_일반주서
 62
     0
370
    -2
100
AcDbLine
 10
134.1750000000001
 20
15.45128407825402
 30
0.0
 11
134.1750000000001
 21
32.91658302930912
 31
0.0
  0
LINE
  5
1CA
330
1C5
100
AcDbEntity
  8
치수문자_일반주서
 62
     0
370
    -2
100
AcDbLine
 10
162.8730000000001
 20
32.91658302930912
 30
0.0
 11
137.4770000000001
 21
32.91658302930912
 31
0.0
  0
SOLID
  5
1CB
330
1C5
100
AcDbEntity
  8
치수문자_일반주서
 62
     0
100
AcDbTrace
 10
162.8730000000001
 20
32.36624969597578
 30
0.0
 11
162.8730000000001
 21
33.46691636264245
 31
0.0
 12
166.1750000000001
 22
32.91658302930912
 32
0.0
 13
166.1750000000001
 23
32.91658302930912
 33
0.0
  0
SOLID
  5
1CC
330
1C5
100
AcDbEntity
  8
치수문자_일반주서
 62
     0
100
AcDbTrace
 10
137.4770000000001
 20
33.46691636264245
 30
0.0
 11
137.4770000000001
 21
32.36624969597578
 31
0.0
 12
134.1750000000001
 22
32.91658302930912
 32
0.0
 13
134.1750000000001
 23
32.91658302930912
 33
0.0
  0
MTEXT
  5
1CD
330
1C5
100
AcDbEntity
  8
치수문자_일반주서
 62
     0
100
AcDbMText
 10
150.1750000000001
 20
37.29158302930912
 30
0.0
 40
3.5
 41
0.0
 71
     2
 72
     1
  1
\A1;32
  7
SLDTEXTSTYLE0
 73
     1
 44
1.0
  0
POINT
  5
1CE
330
1C5
100
AcDbEntity
  8
Defpoints
 62
     0
100
AcDbPoint
 10
166.1750000000001
 20
15.46341257506626
 30
0.0
  0
POINT
  5
1CF
330
1C5
100
AcDbEntity
  8
Defpoints
 62
     0
100
AcDbPoint
 10
134.1750000000001
 20
15.38878407825402
 30
0.0
  0
POINT
  5
1D0
330
1C5
100
AcDbEntity
  8
Defpoints
 62
     0
100
AcDbPoint
 10
134.1750000000001
 20
32.91658302930912
 30
0.0
  0
ENDBLK
  5
1C7
330
1C5
100
AcDbEntity
  8
0
100
AcDbBlockEnd
  0
BLOCK
  5
1D2
330
1D1
100
AcDbEntity
  8
0
100
AcDbBlockBegin
  2
*D11
 70
     1
 10
0.0
 20
0.0
 30
0.0
  3
*D11
  1

  0
LINE
  5
1D4
330
1D1
100
AcDbEntity
  8
치수문자_일반주서
 62
     0
370
    -2
100
AcDbLine
 10
166.1750000000001
 20
15.52591257506626
 30
0.0
 11
166.1750000000001
 21
40.33294571967605
 31
0.0
  0
LINE
  5
1D5
330
1D1
100
AcDbEntity
  8
치수문자_일반주서
 62
     0
370
    -2
100
AcDbLine
 10
16.17500000000005
 20
14.46558664635124
 30
0.0
 11
16.17500000000005
 21
40.33294571967605
 31
0.0
  0
LINE
  5
1D6
330
1D1
100
AcDbEntity
  8
치수문자_일반주서
 62
     0
370
    -2
100
AcDbLine
 10
162.8730000000001
 20
40.33294571967605
 30
0.0
 11
19.47700000000005
 21
40.33294571967605
 31
0.0
  0
SOLID
  5
1D7
330
1D1
100
AcDbEntity
  8
치수문자_일반주서
 62
     0
100
AcDbTrace
 10
162.8730000000001
 20
39.78261238634271
 30
0.0
 11
162.8730000000001
 21
40.88327905300938
 31
0.0
 12
166.1750000000001
 22
40.33294571967605
 32
0.0
 13
166.1750000000001
 23
40.33294571967605
 33
0.0
  0
SOLID
  5
1D8
330
1D1
100
AcDbEntity
  8
치수문자_일반주서
 62
     0
100
AcDbTrace
 10
19.47700000000005
 20
40.88327905300938
 30
0.0
 11
19.47700000000005
 21
39.78261238634271
 31
0.0
 12
16.17500000000005
 22
40.33294571967605
 32
0.0
 13
16.17500000000005
 23
40.33294571967605
 33
0.0
  0
MTEXT
  5
1D9
330
1D1
100
AcDbEntity
  8
치수문자_일반주서
 62
     0
100
AcDbMText
 10
91.17500000000005
 20
44.70794571967605
 30
0.0
 40
3.5
 41
0.0
 71
     2
 72
     1
  1
\A1;150
  7
SLDTEXTSTYLE0
 73
     1
 44
1.0
  0
POINT
  5
1DA
330
1D1
100
AcDbEntity
  8
Defpoints
 62
     0
100
AcDbPoint
 10
166.1750000000001
 20
15.46341257506626
 30
0.0
  0
POINT
  5
1DB
330
1D1
100
AcDbEntity
  8
Defpoints
 62
     0
100
AcDbPoint
 10
16.17500000000005
 20
14.40308664635124
 30
0.0
  0
POINT
  5
1DC
330
1D1
100
AcDbEntity
  8
Defpoints
 62
     0
100
AcDbPoint
 10
16.17500000000005
 20
40.33294571967605
 30
0.0
  0
ENDBLK
  5
1D3
330
1D1
100
AcDbEntity
  8
0
100
AcDbBlockEnd
  0
BLOCK
  5
211
330
210
100
AcDbEntity
  8
0
100
AcDbBlockBegin
  2
*D12
 70
     1
 10
0.0
 20
0.0
 30
0.0
  3
*D12
  1

  0
LINE
  5
213
330
210
100
AcDbEntity
  8
치수문자_일반주서
 62
     0
370
    -2
100
AcDbLine
 10
24.09639018520795
 20
8.00107492872389
 30
0.0
 11
65.1548798406063
 21
8.001074928724062
 31
0.0
  0
LINE
  5
214
330
210
100
AcDbEntity
  8
치수문자_일반주서
 62
     0
370
    -2
100
AcDbLine
 10
24.09639018520798
 20
-7.998925071276105
 30
0.0
 11
65.15487984060636
 21
-7.998925071275933
 31
0.0
  0
LINE
  5
215
330
210
100
AcDbEntity
  8
치수문자_일반주서
 62
     0
370
    -2
100
AcDbLine
 10
65.15487984060631
 20
4.699074928724063
 30
0.0
 11
65.15487984060634
 21
-4.696925071275933
 31
0.0
  0
SOLID
  5
216
330
210
100
AcDbEntity
  8
치수문자_일반주서
 62
     0
100
AcDbTrace
 10
65.70521317393964
 20
4.699074928724064
 30
0.0
 11
64.60454650727299
 21
4.699074928724061
 31
0.0
 12
65.1548798406063
 22
8.001074928724062
 32
0.0
 13
65.1548798406063
 23
8.001074928724062
 33
0.0
  0
SOLID
  5
217
330
210
100
AcDbEntity
  8
치수문자_일반주서
 62
     0
100
AcDbTrace
 10
64.60454650727301
 20
-4.696925071275935
 30
0.0
 11
65.70521317393967
 21
-4.696925071275931
 31
0.0
 12
65.15487984060636
 22
-7.998925071275933
 32
0.0
 13
65.15487984060636
 23
-7.998925071275933
 33
0.0
  0
MTEXT
  5
218
330
210
100
AcDbEntity
  8
치수문자_일반주서
 62
     0
100
AcDbMText
 10
60.77987984060633
 20
0.0010749287240502
 30
0.0
 40
3.5
 41
0.0
 71
     2
 72
     1
  1
\A1;%%c16
  7
SLDTEXTSTYLE0
 11
-3.552713678800503E-15
 21
1.0
 31
0.0
 73
     1
 44
1.0
  0
POINT
  5
219
330
210
100
AcDbEntity
  8
Defpoints
 62
     0
100
AcDbPoint
 10
19.15487984060641
 20
8.00107492872389
 30
0.0
  0
POINT
  5
21A
330
210
100
AcDbEntity
  8
Defpoints
 62
     0
100
AcDbPoint
 10
19.1548798406063
 20
-7.998925071276105
 30
0.0
  0
POINT
  5
21B
330
210
100
AcDbEntity
  8
Defpoints
 62
     0
100
AcDbPoint
 10
65.15487984060636
 20
-7.998925071275933
 30
0.0
  0
ENDBLK
  5
212
330
210
100
AcDbEntity
  8
0
100
AcDbBlockEnd
  0
BLOCK
  5
21D
330
21C
100
AcDbEntity
  8
0
100
AcDbBlockBegin
  2
*D13
 70
     1
 10
0.0
 20
0.0
 30
0.0
  3
*D13
  1

  0
LINE
  5
21F
330
21C
100
AcDbEntity
  8
치수문자_일반주서
 62
     0
370
    -2
100
AcDbLine
 10
-108.7304491924311
 20
8.0010749287239
 30
0.0
 11
-122.0679491924311
 21
8.00107492872385
 31
0.0
  0
LINE
  5
220
330
21C
100
AcDbEntity
  8
치수문자_일반주서
 62
     0
370
    -2
100
AcDbLine
 10
-108.7304491924311
 20
-7.998925071276114
 30
0.0
 11
-122.0679491924311
 21
-7.998925071276163
 31
0.0
  0
LINE
  5
221
330
21C
100
AcDbEntity
  8
치수문자_일반주서
 62
     0
370
    -2
100
AcDbLine
 10
-122.0679491924311
 20
4.699074928723851
 30
0.0
 11
-122.0679491924311
 21
-4.696925071276164
 31
0.0
  0
SOLID
  5
222
330
21C
100
AcDbEntity
  8
치수문자_일반주서
 62
     0
100
AcDbTrace
 10
-121.5176158590978
 20
4.699074928723853
 30
0.0
 11
-122.6182825257645
 21
4.699074928723849
 31
0.0
 12
-122.0679491924311
 22
8.00107492872385
 32
0.0
 13
-122.0679491924311
 23
8.00107492872385
 33
0.0
  0
SOLID
  5
223
330
21C
100
AcDbEntity
  8
치수문자_일반주서
 62
     0
100
AcDbTrace
 10
-122.6182825257644
 20
-4.696925071276166
 30
0.0
 11
-121.5176158590978
 21
-4.696925071276162
 31
0.0
 12
-122.0679491924311
 22
-7.998925071276163
 32
0.0
 13
-122.0679491924311
 23
-7.998925071276163
 33
0.0
  0
MTEXT
  5
224
330
21C
100
AcDbEntity
  8
치수문자_일반주서
 62
     0
100
AcDbMText
 10
-126.4429491924311
 20
0.0010749287238833
 30
0.0
 40
3.5
 41
0.0
 71
     2
 72
     1
  1
\A1;%%c16
  7
SLDTEXTSTYLE0
 11
-3.552713678800498E-15
 21
1.0
 31
0.0
 73
     1
 44
1.0
  0
POINT
  5
225
330
21C
100
AcDbEntity
  8
Defpoints
 62
     0
100
AcDbPoint
 10
-108.6679491924311
 20
8.0010749287239
 30
0.0
  0
POINT
  5
226
330
21C
100
AcDbEntity
  8
Defpoints
 62
     0
100
AcDbPoint
 10
-108.6679491924311
 20
-7.998925071276114
 30
0.0
  0
POINT
  5
227
330
21C
100
AcDbEntity
  8
Defpoints
 62
     0
100
AcDbPoint
 10
-122.0679491924311
 20
-7.998925071276163
 30
0.0
  0
ENDBLK
  5
21E
330
21C
100
AcDbEntity
  8
0
100
AcDbBlockEnd
  0
BLOCK
  5
229
330
228
100
AcDbEntity
  8
0
100
AcDbBlockBegin
  2
*D14
 70
     1
 10
0.0
 20
0.0
 30
0.0
  3
*D14
  1

  0
LINE
  5
22B
330
228
100
AcDbEntity
  8
치수문자_일반주서
 62
     0
370
    -2
100
AcDbLine
 10
39.73205080756892
 20
7.523900857438912
 30
0.0
 11
39.73205080756892
 21
24.91457131168177
 31
0.0
  0
LINE
  5
22C
330
228
100
AcDbEntity
  8
치수문자_일반주서
 62
     0
370
    -2
100
AcDbLine
 10
7.732050807568925
 20
7.449272360626672
 30
0.0
 11
7.732050807568925
 21
24.91457131168177
 31
0.0
  0
LINE
  5
22D
330
228
100
AcDbEntity
  8
치수문자_일반주서
 62
     0
370
    -2
100
AcDbLine
 10
36.43005080756893
 20
24.91457131168177
 30
0.0
 11
11.03405080756892
 21
24.91457131168177
 31
0.0
  0
SOLID
  5
22E
330
228
100
AcDbEntity
  8
치수문자_일반주서
 62
     0
100
AcDbTrace
 10
36.43005080756893
 20
24.36423797834843
 30
0.0
 11
36.43005080756893
 21
25.4649046450151
 31
0.0
 12
39.73205080756892
 22
24.91457131168177
 32
0.0
 13
39.73205080756892
 23
24.91457131168177
 33
0.0
  0
SOLID
  5
22F
330
228
100
AcDbEntity
  8
치수문자_일반주서
 62
     0
100
AcDbTrace
 10
11.03405080756892
 20
25.4649046450151
 30
0.0
 11
11.03405080756892
 21
24.36423797834843
 31
0.0
 12
7.732050807568925
 22
24.91457131168177
 32
0.0
 13
7.732050807568925
 23
24.91457131168177
 33
0.0
  0
MTEXT
  5
230
330
228
100
AcDbEntity
  8
치수문자_일반주서
 62
     0
100
AcDbMText
 10
23.73205080756892
 20
29.28957131168177
 30
0.0
 40
3.5
 41
0.0
 71
     2
 72
     1
  1
\A1;32
  7
SLDTEXTSTYLE0
 73
     1
 44
1.0
  0
POINT
  5
231
330
228
100
AcDbEntity
  8
Defpoints
 62
     0
100
AcDbPoint
 10
39.73205080756892
 20
7.461400857438912
 30
0.0
  0
POINT
  5
232
330
228
100
AcDbEntity
  8
Defpoints
 62
     0
100
AcDbPoint
 10
7.732050807568925
 20
7.386772360626672
 30
0.0
  0
POINT
  5
233
330
228
100
AcDbEntity
  8
Defpoints
 62
     0
100
AcDbPoint
 10
7.732050807568925
 20
24.91457131168177
 30
0.0
  0
ENDBLK
  5
22A
330
228
100
AcDbEntity
  8
0
100
AcDbBlockEnd
  0
BLOCK
  5
235
330
234
100
AcDbEntity
  8
0
100
AcDbBlockBegin
  2
*D15
 70
     1
 10
0.0
 20
0.0
 30
0.0
  3
*D15
  1

  0
LINE
  5
237
330
234
100
AcDbEntity
  8
치수문자_일반주서
 62
     0
370
    -2
100
AcDbLine
 10
39.73205080756892
 20
7.523900857438912
 30
0.0
 11
39.73205080756891
 21
32.3309340020487
 31
0.0
  0
LINE
  5
238
330
234
100
AcDbEntity
  8
치수문자_일반주서
 62
     0
370
    -2
100
AcDbLine
 10
-110.2679491924311
 20
6.463574928723899
 30
0.0
 11
-110.2679491924311
 21
32.3309340020487
 31
0.0
  0
LINE
  5
239
330
234
100
AcDbEntity
  8
치수문자_일반주서
 62
     0
370
    -2
100
AcDbLine
 10
36.43005080756891
 20
32.3309340020487
 30
0.0
 11
-106.9659491924311
 21
32.3309340020487
 31
0.0
  0
SOLID
  5
23A
330
234
100
AcDbEntity
  8
치수문자_일반주서
 62
     0
100
AcDbTrace
 10
36.43005080756891
 20
31.78060066871537
 30
0.0
 11
36.43005080756891
 21
32.88126733538203
 31
0.0
 12
39.73205080756891
 22
32.3309340020487
 32
0.0
 13
39.73205080756891
 23
32.3309340020487
 33
0.0
  0
SOLID
  5
23B
330
234
100
AcDbEntity
  8
치수문자_일반주서
 62
     0
100
AcDbTrace
 10
-106.9659491924311
 20
32.88126733538203
 30
0.0
 11
-106.9659491924311
 21
31.78060066871537
 31
0.0
 12
-110.2679491924311
 22
32.3309340020487
 32
0.0
 13
-110.2679491924311
 23
32.3309340020487
 33
0.0
  0
MTEXT
  5
23C
330
234
100
AcDbEntity
  8
치수문자_일반주서
 62
     0
100
AcDbMText
 10
-35.26794919243109
 20
36.7059340020487
 30
0.0
 40
3.5
 41
0.0
 71
     2
 72
     1
  1
\A1;150
  7
SLDTEXTSTYLE0
 73
     1
 44
1.0
  0
POINT
  5
23D
330
234
100
AcDbEntity
  8
Defpoints
 62
     0
100
AcDbPoint
 10
39.73205080756892
 20
7.461400857438912
 30
0.0
  0
POINT
  5
23E
330
234
100
AcDbEntity
  8
Defpoints
 62
     0
100
AcDbPoint
 10
-110.2679491924311
 20
6.401074928723899
 30
0.0
  0
POINT
  5
23F
330
234
100
AcDbEntity
  8
Defpoints
 62
     0
100
AcDbPoint
 10
-110.2679491924311
 20
32.3309340020487
 30
0.0
  0
ENDBLK
  5
236
330
234
100
AcDbEntity
  8
0
100
AcDbBlockEnd
  0
BLOCK
  5
247
330
246
100
AcDbEntity
  8
0
100
AcDbBlockBegin
  2
*D16
 70
     1
 10
0.0
 20
0.0
 30
0.0
  3
*D16
  1

  0
LINE
  5
249
330
246
100
AcDbEntity
  8
치수문자_일반주서
 62
     0
370
    -2
100
AcDbLine
 10
40.62079995778694
 20
-10.86413278206614
 30
0.0
 11
46.24546021141836
 21
-22.3746503012407
 31
0.0
  0
MTEXT
  5
24A
330
246
100
AcDbEntity
  8
치수문자_일반주서
 62
     0
100
AcDbMText
 10
47.45145828708121
 20
-18.86369336024903
 30
0.0
 40
3.5
 41
0.0
 71
     5
 72
     1
  1
\A1;R1
  7
SLDTEXTSTYLE0
 11
0.4390397838721545
 21
-0.8984676222199061
 31
0.0
 73
     1
 44
1.0
  0
SOLID
  5
24B
330
246
100
AcDbEntity
  8
치수문자_일반주서
 62
     0
100
AcDbTrace
 10
41.11525663921529
 20
-10.62251455434184
 30
0.0
 11
40.12634327635858
 21
-11.10575100979045
 31
0.0
 12
39.17109059144108
 22
-7.897392693496015
 32
0.0
 13
39.17109059144108
 23
-7.897392693496015
 33
0.0
  0
LINE
  5
24C
330
246
100
AcDbEntity
  8
치수문자_일반주서
 62
     0
100
AcDbLine
 10
38.64205080756892
 20
-6.99892507127611
 30
0.0
 11
38.82205080756893
 21
-6.99892507127611
 31
0.0
  0
LINE
  5
24D
330
246
100
AcDbEntity
  8
치수문자_일반주서
 62
     0
100
AcDbLine
 10
38.73205080756892
 20
-7.08892507127611
 30
0.0
 11
38.73205080756892
 21
-6.90892507127611
 31
0.0
  0
POINT
  5
24E
330
246
100
AcDbEntity
  8
Defpoints
 62
     0
100
AcDbPoint
 10
39.17109059144108
 20
-7.897392693496015
 30
0.0
  0
POINT
  5
24F
330
246
100
AcDbEntity
  8
Defpoints
 62
     0
100
AcDbPoint
 10
38.73205080756892
 20
-6.99892507127611
 30
0.0
  0
ENDBLK
  5
248
330
246
100
AcDbEntity
  8
0
100
AcDbBlockEnd
  0
BLOCK
  5
2D1
330
2D0
100
AcDbEntity
  8
0
100
AcDbBlockBegin
  2
*D18
 70
     1
 10
0.0
 20
0.0
 30
0.0
  3
*D18
  1

  0
LINE
  5
2D2
330
2D0
100
AcDbEntity
  8
치수문자_일반주서
 62
     0
370
    -2
100
AcDbLine
 10
167.8268514496763
 20
14.49397511511442
 30
0.0
 11
177.7772225923439
 21
0.0000000000005627
 31
0.0
  0
MTEXT
  5
2D3
330
2D0
100
AcDbEntity
  8
치수문자_일반주서
 62
     0
100
AcDbMText
 10
177.3413593534182
 20
5.272872774822009
 30
0.0
 40
3.5
 41
0.0
 71
     5
 72
     1
  1
\A1;R0.5
  7
SLDTEXTSTYLE0
 11
0.5659788136970669
 21
-0.8244197853315148
 31
0.0
 73
     1
 44
1.0
  0
SOLID
  5
2D4
330
2D0
100
AcDbEntity
  8
치수문자_일반주서
 62
     0
100
AcDbTrace
 10
168.2805571382037
 20
14.80545212225237
 30
0.0
 11
167.3731457611488
 21
14.18249810797646
 31
0.0
 12
165.9579894068486
 22
17.21620924627908
 32
0.0
 13
165.9579894068486
 23
17.21620924627908
 33
0.0
  0
LINE
  5
2D5
330
2D0
100
AcDbEntity
  8
치수문자_일반주서
 62
     0
100
AcDbLine
 10
165.585
 20
17.62841913894485
 30
0.0
 11
165.765
 21
17.62841913894485
 31
0.0
  0
LINE
  5
2D6
330
2D0
100
AcDbEntity
  8
치수문자_일반주서
 62
     0
100
AcDbLine
 10
165.675
 20
17.53841913894485
 30
0.0
 11
165.675
 21
17.71841913894485
 31
0.0
  0
POINT
  5
2D7
330
2D0
100
AcDbEntity
  8
Defpoints
 62
     0
100
AcDbPoint
 10
165.9579894068486
 20
17.21620924627908
 30
0.0
  0
POINT
  5
2D8
330
2D0
100
AcDbEntity
  8
Defpoints
 62
     0
100
AcDbPoint
 10
165.675
 20
17.62841913894485
 30
0.0
  0
ENDBLK
  5
2D9
330
2D0
100
AcDbEntity
  8
0
100
AcDbBlockEnd
  0
BLOCK
  5
2DD
330
2DC
100
AcDbEntity
  8
0
100
AcDbBlockBegin
  2
*D19
 70
     1
 10
0.0
 20
0.0
 30
0.0
  3
*D19
  1

  0
LINE
  5
2DF
330
2DC
100
AcDbEntity
  8
치수문자_일반주서
 62
     0
370
    -2
100
AcDbLine
 10
150.5393393776391
 20
33.12841913894485
 30
0.0
 11
191.5978290330374
 21
33.12841913894502
 31
0.0
  0
LINE
  5
2E0
330
2DC
100
AcDbEntity
  8
치수문자_일반주서
 62
     0
370
    -2
100
AcDbLine
 10
150.5393393776391
 20
17.12841913894486
 30
0.0
 11
191.5978290330375
 21
17.12841913894503
 31
0.0
  0
LINE
  5
2E1
330
2DC
100
AcDbEntity
  8
치수문자_일반주서
 62
     0
370
    -2
100
AcDbLine
 10
191.5978290330374
 20
29.82641913894502
 30
0.0
 11
191.5978290330375
 21
20.43041913894503
 31
0.0
  0
SOLID
  5
2E2
330
2DC
100
AcDbEntity
  8
치수문자_일반주서
 62
     0
100
AcDbTrace
 10
192.1481623663707
 20
29.82641913894502
 30
0.0
 11
191.0474956997041
 21
29.82641913894502
 31
0.0
 12
191.5978290330374
 22
33.12841913894502
 32
0.0
 13
191.5978290330374
 23
33.12841913894502
 33
0.0
  0
SOLID
  5
2E3
330
2DC
100
AcDbEntity
  8
치수문자_일반주서
 62
     0
100
AcDbTrace
 10
191.0474956997041
 20
20.43041913894502
 30
0.0
 11
192.1481623663708
 21
20.43041913894503
 31
0.0
 12
191.5978290330375
 22
17.12841913894503
 32
0.0
 13
191.5978290330375
 23
17.12841913894503
 33
0.0
  0
MTEXT
  5
2E4
330
2DC
100
AcDbEntity
  8
치수문자_일반주서
 62
     0
100
AcDbMText
 10
187.2228290330374
 20
25.12841913894501
 30
0.0
 40
3.5
 41
0.0
 71
     2
 72
     1
  1
\A1;%%c16
  7
SLDTEXTSTYLE0
 11
-3.552713678800503E-15
 21
1.0
 31
0.0
 73
     1
 44
1.0
  0
POINT
  5
2E5
330
2DC
100
AcDbEntity
  8
Defpoints
 62
     0
100
AcDbPoint
 10
145.5978290330375
 20
33.12841913894485
 30
0.0
  0
POINT
  5
2E6
330
2DC
100
AcDbEntity
  8
Defpoints
 62
     0
100
AcDbPoint
 10
145.5978290330374
 20
17.12841913894486
 30
0.0
  0
POINT
  5
2E7
330
2DC
100
AcDbEntity
  8
Defpoints
 62
     0
100
AcDbPoint
 10
191.5978290330375
 20
17.12841913894503
 30
0.0
  0
ENDBLK
  5
2DE
330
2DC
100
AcDbEntity
  8
0
100
AcDbBlockEnd
  0
BLOCK
  5
2E9
330
2E8
100
AcDbEntity
  8
0
100
AcDbBlockBegin
  2
*D20
 70
     1
 10
0.0
 20
0.0
 30
0.0
  3
*D20
  1

  0
LINE
  5
2EB
330
2E8
100
AcDbEntity
  8
치수문자_일반주서
 62
     0
370
    -2
100
AcDbLine
 10
17.71250000000002
 20
33.12841913894486
 30
0.0
 11
4.374999999999987
 21
33.12841913894481
 31
0.0
  0
LINE
  5
2EC
330
2E8
100
AcDbEntity
  8
치수문자_일반주서
 62
     0
370
    -2
100
AcDbLine
 10
17.71250000000002
 20
17.12841913894485
 30
0.0
 11
4.375000000000043
 21
17.1284191389448
 31
0.0
  0
LINE
  5
2ED
330
2E8
100
AcDbEntity
  8
치수문자_일반주서
 62
     0
370
    -2
100
AcDbLine
 10
4.374999999999998
 20
29.82641913894481
 30
0.0
 11
4.375000000000031
 21
20.4304191389448
 31
0.0
  0
SOLID
  5
2EE
330
2E8
100
AcDbEntity
  8
치수문자_일반주서
 62
     0
100
AcDbTrace
 10
4.925333333333332
 20
29.82641913894482
 30
0.0
 11
3.824666666666665
 21
29.82641913894481
 31
0.0
 12
4.374999999999987
 22
33.12841913894481
 32
0.0
 13
4.374999999999987
 23
33.12841913894481
 33
0.0
  0
SOLID
  5
2EF
330
2E8
100
AcDbEntity
  8
치수문자_일반주서
 62
     0
100
AcDbTrace
 10
3.824666666666698
 20
20.4304191389448
 30
0.0
 11
4.925333333333365
 21
20.4304191389448
 31
0.0
 12
4.375000000000043
 22
17.1284191389448
 32
0.0
 13
4.375000000000043
 23
17.1284191389448
 33
0.0
  0
MTEXT
  5
2F0
330
2E8
100
AcDbEntity
  8
치수문자_일반주서
 62
     0
100
AcDbMText
 10
0.0000000000000142
 20
25.12841913894484
 30
0.0
 40
3.5
 41
0.0
 71
     2
 72
     1
  1
\A1;%%c16
  7
SLDTEXTSTYLE0
 11
-3.497202527569240E-15
 21
1.0
 31
0.0
 73
     1
 44
1.0
  0
POINT
  5
2F1
330
2E8
100
AcDbEntity
  8
Defpoints
 62
     0
100
AcDbPoint
 10
17.77500000000002
 20
33.12841913894486
 30
0.0
  0
POINT
  5
2F2
330
2E8
100
AcDbEntity
  8
Defpoints
 62
     0
100
AcDbPoint
 10
17.77500000000002
 20
17.12841913894485
 30
0.0
  0
POINT
  5
2F3
330
2E8
100
AcDbEntity
  8
Defpoints
 62
     0
100
AcDbPoint
 10
4.375000000000014
 20
17.1284191389448
 30
0.0
  0
ENDBLK
  5
2EA
330
2E8
100
AcDbEntity
  8
0
100
AcDbBlockEnd
  0
BLOCK
  5
2F5
330
2F4
100
AcDbEntity
  8
0
100
AcDbBlockBegin
  2
*D21
 70
     1
 10
0.0
 20
0.0
 30
0.0
  3
*D21
  1

  0
LINE
  5
2F7
330
2F4
100
AcDbEntity
  8
치수문자_일반주서
 62
     0
370
    -2
100
AcDbLine
 10
166.175
 20
32.65124506765987
 30
0.0
 11
166.175
 21
50.04191552190273
 31
0.0
  0
LINE
  5
2F8
330
2F4
100
AcDbEntity
  8
치수문자_일반주서
 62
     0
370
    -2
100
AcDbLine
 10
134.175
 20
32.57661657084763
 30
0.0
 11
134.175
 21
50.04191552190273
 31
0.0
  0
LINE
  5
2F9
330
2F4
100
AcDbEntity
  8
치수문자_일반주서
 62
     0
370
    -2
100
AcDbLine
 10
162.873
 20
50.04191552190273
 30
0.0
 11
137.477
 21
50.04191552190273
 31
0.0
  0
SOLID
  5
2FA
330
2F4
100
AcDbEntity
  8
치수문자_일반주서
 62
     0
100
AcDbTrace
 10
162.873
 20
49.4915821885694
 30
0.0
 11
162.873
 21
50.59224885523606
 31
0.0
 12
166.175
 22
50.04191552190273
 32
0.0
 13
166.175
 23
50.04191552190273
 33
0.0
  0
SOLID
  5
2FB
330
2F4
100
AcDbEntity
  8
치수문자_일반주서
 62
     0
100
AcDbTrace
 10
137.477
 20
50.59224885523606
 30
0.0
 11
137.477
 21
49.4915821885694
 31
0.0
 12
134.175
 22
50.04191552190273
 32
0.0
 13
134.175
 23
50.04191552190273
 33
0.0
  0
MTEXT
  5
2FC
330
2F4
100
AcDbEntity
  8
치수문자_일반주서
 62
     0
100
AcDbMText
 10
150.175
 20
54.41691552190273
 30
0.0
 40
3.5
 41
0.0
 71
     2
 72
     1
  1
\A1;32
  7
SLDTEXTSTYLE0
 73
     1
 44
1.0
  0
POINT
  5
2FD
330
2F4
100
AcDbEntity
  8
Defpoints
 62
     0
100
AcDbPoint
 10
166.175
 20
32.58874506765987
 30
0.0
  0
POINT
  5
2FE
330
2F4
100
AcDbEntity
  8
Defpoints
 62
     0
100
AcDbPoint
 10
134.175
 20
32.51411657084763
 30
0.0
  0
POINT
  5
2FF
330
2F4
100
AcDbEntity
  8
Defpoints
 62
     0
100
AcDbPoint
 10
134.175
 20
50.04191552190273
 30
0.0
  0
ENDBLK
  5
2F6
330
2F4
100
AcDbEntity
  8
0
100
AcDbBlockEnd
  0
BLOCK
  5
301
330
300
100
AcDbEntity
  8
0
100
AcDbBlockBegin
  2
*D22
 70
     1
 10
0.0
 20
0.0
 30
0.0
  3
*D22
  1

  0
LINE
  5
303
330
300
100
AcDbEntity
  8
치수문자_일반주서
 62
     0
370
    -2
100
AcDbLine
 10
166.175
 20
32.65124506765987
 30
0.0
 11
166.175
 21
57.45827821226966
 31
0.0
  0
LINE
  5
304
330
300
100
AcDbEntity
  8
치수문자_일반주서
 62
     0
370
    -2
100
AcDbLine
 10
16.17500000000001
 20
31.59091913894486
 30
0.0
 11
16.17500000000001
 21
57.45827821226966
 31
0.0
  0
LINE
  5
305
330
300
100
AcDbEntity
  8
치수문자_일반주서
 62
     0
370
    -2
100
AcDbLine
 10
162.873
 20
57.45827821226966
 30
0.0
 11
19.47700000000001
 21
57.45827821226966
 31
0.0
  0
SOLID
  5
306
330
300
100
AcDbEntity
  8
치수문자_일반주서
 62
     0
100
AcDbTrace
 10
162.873
 20
56.90794487893633
 30
0.0
 11
162.873
 21
58.008611545603
 31
0.0
 12
166.175
 22
57.45827821226966
 32
0.0
 13
166.175
 23
57.45827821226966
 33
0.0
  0
SOLID
  5
307
330
300
100
AcDbEntity
  8
치수문자_일반주서
 62
     0
100
AcDbTrace
 10
19.47700000000001
 20
58.008611545603
 30
0.0
 11
19.47700000000001
 21
56.90794487893633
 31
0.0
 12
16.17500000000001
 22
57.45827821226966
 32
0.0
 13
16.17500000000001
 23
57.45827821226966
 33
0.0
  0
MTEXT
  5
308
330
300
100
AcDbEntity
  8
치수문자_일반주서
 62
     0
100
AcDbMText
 10
91.17500000000003
 20
61.83327821226966
 30
0.0
 40
3.5
 41
0.0
 71
     2
 72
     1
  1
\A1;150
  7
SLDTEXTSTYLE0
 73
     1
 44
1.0
  0
POINT
  5
309
330
300
100
AcDbEntity
  8
Defpoints
 62
     0
100
AcDbPoint
 10
166.175
 20
32.58874506765987
 30
0.0
  0
POINT
  5
30A
330
300
100
AcDbEntity
  8
Defpoints
 62
     0
100
AcDbPoint
 10
16.17500000000001
 20
31.52841913894486
 30
0.0
  0
POINT
  5
30B
330
300
100
AcDbEntity
  8
Defpoints
 62
     0
100
AcDbPoint
 10
16.17500000000001
 20
57.45827821226966
 30
0.0
  0
ENDBLK
  5
302
330
300
100
AcDbEntity
  8
0
100
AcDbBlockEnd
  0
BLOCK
  5
341
330
340
100
AcDbEntity
  8
0
100
AcDbBlockBegin
  2
*D23
 70
     1
 10
0.0
 20
0.0
 30
0.0
  3
*D23
  1

  0
LINE
  5
343
330
340
100
AcDbEntity
  8
치수문자_일반주서
 62
     0
370
    -2
100
AcDbLine
 10
241.3047271330312
 20
-61.54825494330422
 30
0.0
 11
282.3632167884296
 21
-61.54825494330404
 31
0.0
  0
LINE
  5
344
330
340
100
AcDbEntity
  8
치수문자_일반주서
 62
     0
370
    -2
100
AcDbLine
 10
241.3047271330312
 20
-77.54825494330422
 30
0.0
 11
282.3632167884296
 21
-77.54825494330404
 31
0.0
  0
LINE
  5
345
330
340
100
AcDbEntity
  8
치수문자_일반주서
 62
     0
370
    -2
100
AcDbLine
 10
282.3632167884296
 20
-64.85025494330404
 30
0.0
 11
282.3632167884296
 21
-74.24625494330405
 31
0.0
  0
SOLID
  5
346
330
340
100
AcDbEntity
  8
치수문자_일반주서
 62
     0
100
AcDbTrace
 10
282.9135501217629
 20
-64.85025494330404
 30
0.0
 11
281.8128834550962
 21
-64.85025494330404
 31
0.0
 12
282.3632167884296
 22
-61.54825494330404
 32
0.0
 13
282.3632167884296
 23
-61.54825494330404
 33
0.0
  0
SOLID
  5
347
330
340
100
AcDbEntity
  8
치수문자_일반주서
 62
     0
100
AcDbTrace
 10
281.8128834550962
 20
-74.24625494330405
 30
0.0
 11
282.9135501217629
 21
-74.24625494330405
 31
0.0
 12
282.3632167884296
 22
-77.54825494330404
 32
0.0
 13
282.3632167884296
 23
-77.54825494330404
 33
0.0
  0
MTEXT
  5
348
330
340
100
AcDbEntity
  8
치수문자_일반주서
 62
     0
100
AcDbMText
 10
277.9882167884296
 20
-69.54825494330406
 30
0.0
 40
3.5
 41
0.0
 71
     2
 72
     1
  1
\A1;%%c16
  7
SLDTEXTSTYLE0
 11
-3.552713678800501E-15
 21
1.0
 31
0.0
 73
     1
 44
1.0
  0
POINT
  5
349
330
340
100
AcDbEntity
  8
Defpoints
 62
     0
100
AcDbPoint
 10
236.3632167884296
 20
-61.54825494330422
 30
0.0
  0
POINT
  5
34A
330
340
100
AcDbEntity
  8
Defpoints
 62
     0
100
AcDbPoint
 10
236.3632167884295
 20
-77.54825494330422
 30
0.0
  0
POINT
  5
34B
330
340
100
AcDbEntity
  8
Defpoints
 62
     0
100
AcDbPoint
 10
282.3632167884296
 20
-77.54825494330404
 30
0.0
  0
ENDBLK
  5
342
330
340
100
AcDbEntity
  8
0
100
AcDbBlockEnd
  0
BLOCK
  5
34D
330
34C
100
AcDbEntity
  8
0
100
AcDbBlockBegin
  2
*D24
 70
     1
 10
0.0
 20
0.0
 30
0.0
  3
*D24
  1

  0
LINE
  5
34F
330
34C
100
AcDbEntity
  8
치수문자_일반주서
 62
     0
370
    -2
100
AcDbLine
 10
108.4778877553921
 20
-61.5482549433042
 30
0.0
 11
95.1403877553921
 21
-61.54825494330425
 31
0.0
  0
LINE
  5
350
330
34C
100
AcDbEntity
  8
치수문자_일반주서
 62
     0
370
    -2
100
AcDbLine
 10
108.4778877553921
 20
-77.54825494330422
 30
0.0
 11
95.14038775539215
 21
-77.54825494330427
 31
0.0
  0
LINE
  5
351
330
34C
100
AcDbEntity
  8
치수문자_일반주서
 62
     0
370
    -2
100
AcDbLine
 10
95.14038775539211
 20
-64.85025494330425
 30
0.0
 11
95.14038775539214
 21
-74.24625494330428
 31
0.0
  0
SOLID
  5
352
330
34C
100
AcDbEntity
  8
치수문자_일반주서
 62
     0
100
AcDbTrace
 10
95.69072108872544
 20
-64.85025494330425
 30
0.0
 11
94.59005442205878
 21
-64.85025494330425
 31
0.0
 12
95.1403877553921
 22
-61.54825494330425
 32
0.0
 13
95.1403877553921
 23
-61.54825494330425
 33
0.0
  0
SOLID
  5
353
330
34C
100
AcDbEntity
  8
치수문자_일반주서
 62
     0
100
AcDbTrace
 10
94.59005442205881
 20
-74.24625494330428
 30
0.0
 11
95.69072108872547
 21
-74.24625494330428
 31
0.0
 12
95.14038775539215
 22
-77.54825494330427
 32
0.0
 13
95.14038775539215
 23
-77.54825494330427
 33
0.0
  0
MTEXT
  5
354
330
34C
100
AcDbEntity
  8
치수문자_일반주서
 62
     0
100
AcDbMText
 10
90.76538775539213
 20
-69.54825494330422
 30
0.0
 40
3.5
 41
0.0
 71
     2
 72
     1
  1
\A1;%%c16
  7
SLDTEXTSTYLE0
 11
-3.552713678800496E-15
 21
1.0
 31
0.0
 73
     1
 44
1.0
  0
POINT
  5
355
330
34C
100
AcDbEntity
  8
Defpoints
 62
     0
100
AcDbPoint
 10
108.5403877553921
 20
-61.5482549433042
 30
0.0
  0
POINT
  5
356
330
34C
100
AcDbEntity
  8
Defpoints
 62
     0
100
AcDbPoint
 10
108.5403877553921
 20
-77.54825494330422
 30
0.0
  0
POINT
  5
357
330
34C
100
AcDbEntity
  8
Defpoints
 62
     0
100
AcDbPoint
 10
95.14038775539215
 20
-77.54825494330427
 30
0.0
  0
ENDBLK
  5
34E
330
34C
100
AcDbEntity
  8
0
100
AcDbBlockEnd
  0
BLOCK
  5
359
330
358
100
AcDbEntity
  8
0
100
AcDbBlockBegin
  2
*D25
 70
     1
 10
0.0
 20
0.0
 30
0.0
  3
*D25
  1

  0
LINE
  5
35B
330
358
100
AcDbEntity
  8
치수문자_일반주서
 62
     0
370
    -2
100
AcDbLine
 10
256.9403877553921
 20
-62.02542901458919
 30
0.0
 11
256.9403877553921
 21
-44.63475856034633
 31
0.0
  0
LINE
  5
35C
330
358
100
AcDbEntity
  8
치수문자_일반주서
 62
     0
370
    -2
100
AcDbLine
 10
224.9403877553921
 20
-62.10005751140143
 30
0.0
 11
224.9403877553921
 21
-44.63475856034633
 31
0.0
  0
LINE
  5
35D
330
358
100
AcDbEntity
  8
치수문자_일반주서
 62
     0
370
    -2
100
AcDbLine
 10
253.6383877553921
 20
-44.63475856034633
 30
0.0
 11
228.2423877553921
 21
-44.63475856034633
 31
0.0
  0
SOLID
  5
35E
330
358
100
AcDbEntity
  8
치수문자_일반주서
 62
     0
100
AcDbTrace
 10
253.6383877553921
 20
-45.18509189367967
 30
0.0
 11
253.6383877553921
 21
-44.084425227013
 31
0.0
 12
256.9403877553921
 22
-44.63475856034633
 32
0.0
 13
256.9403877553921
 23
-44.63475856034633
 33
0.0
  0
SOLID
  5
35F
330
358
100
AcDbEntity
  8
치수문자_일반주서
 62
     0
100
AcDbTrace
 10
228.2423877553921
 20
-44.084425227013
 30
0.0
 11
228.2423877553921
 21
-45.18509189367967
 31
0.0
 12
224.9403877553921
 22
-44.63475856034633
 32
0.0
 13
224.9403877553921
 23
-44.63475856034633
 33
0.0
  0
MTEXT
  5
360
330
358
100
AcDbEntity
  8
치수문자_일반주서
 62
     0
100
AcDbMText
 10
240.9403877553922
 20
-40.25975856034633
 30
0.0
 40
3.5
 41
0.0
 71
     2
 72
     1
  1
\A1;32
  7
SLDTEXTSTYLE0
 73
     1
 44
1.0
  0
POINT
  5
361
330
358
100
AcDbEntity
  8
Defpoints
 62
     0
100
AcDbPoint
 10
256.9403877553921
 20
-62.08792901458919
 30
0.0
  0
POINT
  5
362
330
358
100
AcDbEntity
  8
Defpoints
 62
     0
100
AcDbPoint
 10
224.9403877553921
 20
-62.16255751140143
 30
0.0
  0
POINT
  5
363
330
358
100
AcDbEntity
  8
Defpoints
 62
     0
100
AcDbPoint
 10
224.9403877553921
 20
-44.63475856034633
 30
0.0
  0
ENDBLK
  5
35A
330
358
100
AcDbEntity
  8
0
100
AcDbBlockEnd
  0
BLOCK
  5
365
330
364
100
AcDbEntity
  8
0
100
AcDbBlockBegin
  2
*D26
 70
     1
 10
0.0
 20
0.0
 30
0.0
  3
*D26
  1

  0
LINE
  5
367
330
364
100
AcDbEntity
  8
치수문자_일반주서
 62
     0
370
    -2
100
AcDbLine
 10
256.9403877553921
 20
-62.02542901458919
 30
0.0
 11
256.9403877553921
 21
-37.2183958699794
 31
0.0
  0
LINE
  5
368
330
364
100
AcDbEntity
  8
치수문자_일반주서
 62
     0
370
    -2
100
AcDbLine
 10
106.9403877553921
 20
-63.08575494330421
 30
0.0
 11
106.9403877553921
 21
-37.2183958699794
 31
0.0
  0
LINE
  5
369
330
364
100
AcDbEntity
  8
치수문자_일반주서
 62
     0
370
    -2
100
AcDbLine
 10
253.6383877553921
 20
-37.2183958699794
 30
0.0
 11
110.2423877553921
 21
-37.2183958699794
 31
0.0
  0
SOLID
  5
36A
330
364
100
AcDbEntity
  8
치수문자_일반주서
 62
     0
100
AcDbTrace
 10
253.6383877553921
 20
-37.76872920331274
 30
0.0
 11
253.6383877553921
 21
-36.66806253664607
 31
0.0
 12
256.9403877553921
 22
-37.2183958699794
 32
0.0
 13
256.9403877553921
 23
-37.2183958699794
 33
0.0
  0
SOLID
  5
36B
330
364
100
AcDbEntity
  8
치수문자_일반주서
 62
     0
100
AcDbTrace
 10
110.2423877553921
 20
-36.66806253664607
 30
0.0
 11
110.2423877553921
 21
-37.76872920331274
 31
0.0
 12
106.9403877553921
 22
-37.2183958699794
 32
0.0
 13
106.9403877553921
 23
-37.2183958699794
 33
0.0
  0
MTEXT
  5
36C
330
364
100
AcDbEntity
  8
치수문자_일반주서
 62
     0
100
AcDbMText
 10
181.9403877553921
 20
-32.8433958699794
 30
0.0
 40
3.5
 41
0.0
 71
     2
 72
     1
  1
\A1;150
  7
SLDTEXTSTYLE0
 73
     1
 44
1.0
  0
POINT
  5
36D
330
364
100
AcDbEntity
  8
Defpoints
 62
     0
100
AcDbPoint
 10
256.9403877553921
 20
-62.08792901458919
 30
0.0
  0
POINT
  5
36E
330
364
100
AcDbEntity
  8
Defpoints
 62
     0
100
AcDbPoint
 10
106.9403877553921
 20
-63.14825494330421
 30
0.0
  0
POINT
  5
36F
330
364
100
AcDbEntity
  8
Defpoints
 62
     0
100
AcDbPoint
 10
106.9403877553921
 20
-37.2183958699794
 30
0.0
  0
ENDBLK
  5
366
330
364
100
AcDbEntity
  8
0
100
AcDbBlockEnd
  0
BLOCK
  5
371
330
370
100
AcDbEntity
  8
0
100
AcDbBlockBegin
  2
*D27
 70
     1
 10
0.0
 20
0.0
 30
0.0
  3
*D27
  1

  0
LINE
  5
373
330
370
100
AcDbEntity
  8
치수문자_일반주서
 62
     0
370
    -2
100
AcDbLine
 10
258.5922392050686
 20
-80.18269896713456
 30
0.0
 11
268.5426103477368
 21
-94.67667408224796
 31
0.0
  0
MTEXT
  5
374
330
370
100
AcDbEntity
  8
치수문자_일반주서
 62
     0
100
AcDbMText
 10
268.1067471088109
 20
-89.40380130742653
 30
0.0
 40
3.5
 41
0.0
 71
     5
 72
     1
  1
\A1;R0.5
  7
SLDTEXTSTYLE0
 11
0.5659788136971055
 21
-0.8244197853314882
 31
0.0
 73
     1
 44
1.0
  0
SOLID
  5
375
330
370
100
AcDbEntity
  8
치수문자_일반주서
 62
     0
100
AcDbTrace
 10
259.045944893596
 20
-79.87122195999659
 30
0.0
 11
258.1385335165411
 21
-80.49417597427252
 31
0.0
 12
256.7233771622407
 22
-77.46046483596999
 32
0.0
 13
256.7233771622407
 23
-77.46046483596999
 33
0.0
  0
LINE
  5
376
330
370
100
AcDbEntity
  8
치수문자_일반주서
 62
     0
100
AcDbLine
 10
256.3503877553921
 20
-77.04825494330422
 30
0.0
 11
256.5303877553921
 21
-77.04825494330422
 31
0.0
  0
LINE
  5
377
330
370
100
AcDbEntity
  8
치수문자_일반주서
 62
     0
100
AcDbLine
 10
256.4403877553921
 20
-77.13825494330422
 30
0.0
 11
256.4403877553921
 21
-76.95825494330421
 31
0.0
  0
POINT
  5
378
330
370
100
AcDbEntity
  8
Defpoints
 62
     0
100
AcDbPoint
 10
256.7233771622407
 20
-77.46046483596999
 30
0.0
  0
POINT
  5
379
330
370
100
AcDbEntity
  8
Defpoints
 62
     0
100
AcDbPoint
 10
256.4403877553921
 20
-77.04825494330422
 30
0.0
  0
ENDBLK
  5
372
330
370
100
AcDbEntity
  8
0
100
AcDbBlockEnd
  0
ENDSEC
  0
SECTION
  2
ENTITIES
  0
LINE
  5
C0
330
1F
100
AcDbEntity
  8
참조1
100
AcDbLine
 10
-15.77564223695981
 20
-2.499999999999974
 30
0.0
 11
-15.7756422369598
 21
-40.0
 31
0.0
  0
LINE
  5
C1
330
1F
100
AcDbEntity
  8
참조1
100
AcDbLine
 10
-15.7756422369598
 20
-40.0
 30
0.0
 11
-30.93398568371225
 21
-40.0
 31
0.0
  0
INSERT
  5
C3
330
1F
100
AcDbEntity
  8
0
  6
Continuous
 62
     7
100
AcDbBlockReference
 66
     1
  2
블럭10
 10
-29.71591516908501
 20
-52.04717430164393
 30
0.0
  0
ATTRIB
  5
C4
330
C3
100
AcDbEntity
  8
FORMAT
 62
     2
100
AcDbText
 10
-45.83517620852056
 20
-49.97180738881174
 30
0.0
 40
4.233333333333333
  1
SEME0116010E [ 4 FLUTE ]
 41
0.75
  7
SLDTEXTSTYLE0
 11
-45.83517620852056
 21
-52.08847405547841
 31
0.0
100
AcDbAttribute
  2
AUTOATTR0
 70
     0
 74
     1
  0
SEQEND
  5
C5
330
C3
100
AcDbEntity
  8
0
  6
Continuous
 62
     7
  0
HATCH
  5
C6
330
1F
100
AcDbEntity
  8
중심선
100
AcDbHatch
 10
0.0
 20
0.0
 30
0.0
210
0.0
220
0.0
230
1.0
  2
SOLID
 70
     1
 71
     0
 91
        1
 92
        0
 93
        4
 72
     1
 10
-24.00100586470416
 20
-35.8
 11
-27.44728110854144
 21
-35.8
 72
     1
 10
-27.44728110854144
 20
-35.8
 11
-29.57551096774547
 21
-38.33632558057259
 72
     1
 10
-29.57551096774547
 20
-38.33632558057259
 11
-26.12920263879504
 21
-38.3362861512701
 72
     1
 10
-26.12920263879504
 20
-38.3362861512701
 11
-24.00100586470416
 21
-35.8
 97
        0
 75
     0
 76
     1
 98
        1
 10
0.0
 20
0.0
  0
HATCH
  5
C7
330
1F
100
AcDbEntity
  8
중심선
100
AcDbHatch
 10
0.0
 20
0.0
 30
0.0
210
0.0
220
0.0
230
1.0
  2
SOLID
 70
     1
 71
     0
 91
        1
 92
        0
 93
        4
 72
     1
 10
-18.98824187366821
 20
-35.8
 11
-22.43451711750549
 21
-35.8
 72
     1
 10
-22.43451711750549
 20
-35.8
 11
-26.96565512586288
 21
-41.20000000000002
 72
     1
 10
-26.96565512586288
 20
-41.20000000000002
 11
-23.5193798820256
 21
-41.20000000000002
 72
     1
 10
-23.5193798820256
 20
-41.20000000000002
 11
-18.98824187366821
 21
-35.8
 97
        0
 75
     0
 76
     1
 98
        1
 10
0.0
 20
0.0
  0
HATCH
  5
C8
330
1F
100
AcDbEntity
  8
중심선
100
AcDbHatch
 10
0.0
 20
0.0
 30
0.0
210
0.0
220
0.0
230
1.0
  2
SOLID
 70
     1
 71
     0
 91
        1
 92
        0
 93
        4
 72
     1
 10
-13.97547788263232
 20
-35.80000000000003
 11
-17.42175312646943
 21
-35.8
 72
     1
 10
-17.42175312646943
 20
-35.8
 11
-24.47019002835868
 21
-44.20000000000002
 72
     1
 10
-24.47019002835868
 20
-44.20000000000002
 11
-21.0239147845214
 21
-44.20000000000002
 72
     1
 10
-21.0239147845214
 20
-44.20000000000002
 11
-13.97547788263232
 21
-35.80000000000003
 97
        0
 75
     0
 76
     1
 98
        1
 10
0.0
 20
0.0
  0
HATCH
  5
C9
330
1F
100
AcDbEntity
  8
중심선
100
AcDbHatch
 10
0.0
 20
0.0
 30
0.0
210
0.0
220
0.0
230
1.0
  2
SOLID
 70
     1
 71
     0
 91
        1
 92
        0
 93
        6
 72
     3
 10
-9.175587451620116
 20
-40.00000000005127
 11
3.960054785062284
 21
1.540850780301639E-10
 40
0.3939339440162633
 50
17.09539180608433
 51
320.0019657685079
 73
     0
 72
     1
 10
-7.49258779591952
 20
-38.5878940046383
 11
-5.187285922218482
 21
-36.65356729459038
 72
     3
 10
-9.175587451672962
 20
-40.00000000000015
 11
6.600054785286829
 21
-1.249000902703301E-13
 40
0.6363583540795982
 50
39.99873849337408
 51
368.4976242363725
 73
     1
 72
     1
 10
-2.750254959772352
 20
-39.03999999993002
 11
-10.49552014483704
 21
-39.03999999992999
 72
     1
 10
-10.49552014483704
 20
-39.03999999992999
 11
-10.49554518928297
 21
-40.95999999992991
 72
     1
 10
-10.49554518928297
 20
-40.95999999992991
 11
-6.054165419810936
 21
-40.95999999992988
 97
        0
 75
     0
 76
     1
 98
        1
 10
0.0
 20
0.0
  0
LINE
  5
FA
330
1F
100
AcDbEntity
  8
참조1
100
AcDbLine
 10
67.03835494594202
 20
7.440000000000002
 30
0.0
 11
67.03835494594202
 21
-7.440000000000002
 31
0.0
  0
LINE
  5
FB
330
1F
100
AcDbEntity
  8
참조1
100
AcDbLine
 10
79.73835494594202
 20
5.440000000000002
 30
0.0
 11
67.03835494594202
 21
5.440000000000002
 31
0.0
  0
SOLID
  5
FC
330
1F
100
AcDbEntity
  8
참조1
100
AcDbTrace
 10
67.03835494594202
 20
5.440000000000002
 30
0.0
 11
73.38835494594201
 21
4.424000000000002
 31
0.0
 12
73.38835494594201
 22
6.456000000000002
 32
0.0
 13
73.38835494594201
 23
6.456000000000002
 33
0.0
  0
LINE
  5
FD
330
1F
100
AcDbEntity
  8
참조1
100
AcDbLine
 10
79.73835494594202
 20
-5.440000000000002
 30
0.0
 11
67.03835494594202
 21
-5.440000000000002
 31
0.0
  0
SOLID
  5
FE
330
1F
100
AcDbEntity
  8
참조1
100
AcDbTrace
 10
67.03835494594202
 20
-5.440000000000002
 30
0.0
 11
73.38835494594201
 21
-6.456000000000002
 31
0.0
 12
73.38835494594201
 22
-4.424000000000002
 32
0.0
 13
73.38835494594201
 23
-4.424000000000002
 33
0.0
  0
MTEXT
  5
FF
330
1F
100
AcDbEntity
  8
참조1
100
AcDbMText
 10
76.4358450384123
 20
10.98821664464994
 30
0.0
 40
3.5
 41
0.0
 71
     1
 72
     1
  1
A
  7
SLDTEXTSTYLE0
 73
     1
 44
1.0
  0
MTEXT
  5
100
330
1F
100
AcDbEntity
  8
참조1
100
AcDbMText
 10
76.4358450384123
 20
0.1082166446499328
 30
0.0
 40
3.5
 41
0.0
 71
     1
 72
     1
  1
A
  7
SLDTEXTSTYLE0
 73
     1
 44
1.0
  0
LINE
  5
1DE
102
{ACAD_REACTORS
330
209
102
}
330
1F
100
AcDbEntity
  8
외형선
  6
Continuous
 62
     1
370
    15
100
AcDbLine
 10
24.03389018520795
 20
8.00107492872389
 30
0.0
 11
19.15371043692724
 21
8.00107492872389
 31
0.0
1001
PE_URL
1000

  0
LINE
  5
1DF
102
{ACAD_REACTORS
330
209
102
}
330
1F
100
AcDbEntity
  8
외형선
  6
Continuous
 62
     1
370
    15
100
AcDbLine
 10
19.15371043692718
 20
-7.998925071276105
 30
0.0
 11
24.03389018520798
 21
-7.998925071276105
 31
0.0
1001
PE_URL
1000

  0
LINE
  5
1E0
330
1F
100
AcDbEntity
  8
외형선
  6
Continuous
370
    15
100
AcDbLine
 10
-108.6679491924311
 20
-7.998925071276103
 30
0.0
 11
6.73219861439631
 21
-7.998925071276103
 31
0.0
  0
LINE
  5
1E1
330
1F
100
AcDbEntity
  8
외형선
  6
Continuous
370
    15
100
AcDbLine
 10
6.73219861439631
 20
8.00107492872389
 30
0.0
 11
-108.6679491924311
 21
8.00107492872389
 31
0.0
  0
LINE
  5
1E2
330
1F
100
AcDbEntity
  8
외형선
  6
Continuous
370
    15
100
AcDbLine
 10
-108.6679491924311
 20
8.00107492872389
 30
0.0
 11
-110.2679491924311
 21
6.401074928723899
 31
0.0
  0
LINE
  5
1E3
330
1F
100
AcDbEntity
  8
외형선
  6
Continuous
370
    15
100
AcDbLine
 10
-110.2679491924311
 20
-6.398925071276112
 30
0.0
 11
-108.6679491924311
 21
-7.998925071276105
 31
0.0
  0
SPLINE
  5
1E4
102
{ACAD_REACTORS
330
209
102
}
330
1F
100
AcDbEntity
  8
외형선
  6
Continuous
 62
     1
370
    15
100
AcDbSpline
210
0.0
220
0.0
230
1.0
 70
     8
 71
     3
 72
    16
 73
    12
 74
     0
 42
0.000000001
 43
0.00000001
 40
0.0
 40
0.0
 40
0.0
 40
0.0
 40
0.1188236901007898
 40
0.2376536070005137
 40
0.3564869785836806
 40
0.4753210285557142
 40
0.5941529798011185
 40
0.7129800577437783
 40
0.8250142954018239
 40
0.9370480824625514
 40
0.9999999999999999
 40
0.9999999999999999
 40
0.9999999999999999
 40
0.9999999999999999
 10
7.732050807568925
 20
-3.073249947470094
 30
0.0
 10
8.712042568930684
 20
-3.582207762695896
 30
0.0
 10
10.67207744683131
 20
-4.600150064411277
 30
0.0
 10
13.61222704148182
 20
-5.883751972728707
 30
0.0
 10
16.5524744189004
 20
-6.913287926548033
 30
0.0
 10
19.49274862986849
 20
-7.630337082770977
 30
0.0
 10
22.43293850704401
 20
-8.004886353145185
 30
0.0
 10
25.3171029523298
 20
-8.023425030131312
 30
0.0
 10
28.14487896349434
 20
-7.692876853195918
 30
0.0
 10
30.51193399154366
 20
-7.193372967281112
 30
0.0
 10
31.95502974351751
 20
-6.70375202343592
 30
0.0
 10
32.47419012284971
 20
-6.527608621594444
 30
0.0
1001
PE_URL
1000

  0
SPLINE
  5
1E5
330
1F
100
AcDbEntity
  8
외형선
  6
Continuous
370
    15
100
AcDbSpline
210
0.0
220
0.0
230
1.0
 70
    24
 71
     3
 72
    22
 73
    18
 74
     0
 42
0.000000001
 43
0.00000001
 40
0.0
 40
0.0
 40
0.0
 40
0.0
 40
0.125
 40
0.125
 40
0.25
 40
0.25
 40
0.375
 40
0.375
 40
0.5
 40
0.5
 40
0.625
 40
0.625
 40
0.75
 40
0.75
 40
0.875
 40
0.875
 40
1.0
 40
1.0
 40
1.0
 40
1.0
 10
7.732050807568925
 20
5.87382592054715
 30
0.0
 10
7.732050807568982
 20
5.68194911084715
 30
0.0
 10
7.732050807568925
 20
5.469416008188368
 30
0.0
 10
7.732050807568925
 20
5.041619985271593
 30
0.0
 10
7.732050807568925
 20
4.783017999589543
 30
0.0
 10
7.732050807568925
 20
4.150156936882519
 30
0.0
 10
7.732050807568925
 20
3.775025252583553
 30
0.0
 10
7.732050807568925
 20
2.898906050101774
 30
0.0
 10
7.732050807568953
 20
2.39673931891013
 30
0.0
 10
7.732050807568925
 20
1.305819645388629
 30
0.0
 10
7.732050807568953
 20
0.7171849713684377
 30
0.0
 10
7.732050807568953
 20
-0.4343537197836325
 30
0.0
 10
7.732050807568925
 20
-0.9943372233136856
 30
0.0
 10
7.732050807568925
 20
-1.946044609964323
 30
0.0
 10
7.732050807568868
 20
-2.334969189021708
 30
0.0
 10
7.732050807568896
 20
-2.873419683504869
 30
0.0
 10
7.732050807568896
 20
-3.023833003513454
 30
0.0
 10
7.732050807568925
 20
-3.073249947470098
 30
0.0
  0
SPLINE
  5
1E6
330
1F
100
AcDbEntity
  8
외형선
  6
Continuous
 62
     1
370
    15
100
AcDbSpline
210
0.0
220
0.0
230
1.0
 70
     8
 71
     3
 72
    48
 73
    44
 74
     0
 42
0.000000001
 43
0.00000001
 40
0.0074053399660725
 40
0.0074053399660725
 40
0.0074053399660725
 40
0.0074053399660725
 40
0.0625000000000002
 40
0.0625000000000002
 40
0.0937500000000004
 40
0.0937500000000004
 40
0.1250000000000005
 40
0.1250000000000005
 40
0.1875000000000007
 40
0.1875000000000007
 40
0.250000000000001
 40
0.250000000000001
 40
0.3125000000000012
 40
0.3125000000000012
 40
0.3437500000000014
 40
0.3437500000000014
 40
0.3750000000000015
 40
0.3750000000000015
 40
0.4062500000000016
 40
0.4062500000000016
 40
0.4375000000000018
 40
0.4375000000000018
 40
0.5
 40
0.5
 40
0.5624999999999982
 40
0.5624999999999982
 40
0.6249999999999964
 40
0.6249999999999964
 40
0.6562499999999957
 40
0.6562499999999957
 40
0.6874999999999948
 40
0.6874999999999948
 40
0.749999999999995
 40
0.749999999999995
 40
0.7812499999999951
 40
0.7812499999999951
 40
0.8124999999999962
 40
0.8124999999999962
 40
0.8749999999999974
 40
0.8749999999999974
 40
0.9374999999999988
 40
0.9374999999999988
 40
1.0
 40
1.0
 40
1.0
 40
1.0
 10
38.73205080756892
 20
-7.99892507127611
 30
0.0
 10
38.4197895461082
 20
-7.875793877197396
 30
0.0
 10
37.83837521772567
 20
-7.808739265910116
 30
0.0
 10
36.93400506279423
 20
-7.672244716935714
 30
0.0
 10
36.60749079235111
 20
-7.616408843672236
 30
0.0
 10
35.95071960590596
 20
-7.491802482909916
 30
0.0
 10
35.62154070630947
 20
-7.423083497068264
 30
0.0
 10
34.63536094554183
 20
-7.198439783381446
 30
0.0
 10
33.98327591098678
 20
-7.024377853806612
 30
0.0
 10
32.66851400352735
 20
-6.629287935701258
 30
0.0
 10
32.01163439044009
 20
-6.408745822943077
 30
0.0
 10
30.70282110878082
 20
-5.926740741841055
 30
0.0
 10
30.04262208158187
 20
-5.664212342920345
 30
0.0
 10
29.05855251468552
 20
-5.243991105117916
 30
0.0
 10
28.73256160817863
 20
-5.099688218679491
 30
0.0
 10
28.0769288499358
 20
-4.802224502213267
 30
0.0
 10
27.74795682571923
 20
-4.64915045121869
 30
0.0
 10
27.09018752306199
 20
-4.335449986497375
 30
0.0
 10
26.76139233938929
 20
-4.174824578665858
 30
0.0
 10
26.1064624996005
 20
-3.847268650877803
 30
0.0
 10
25.78016957600394
 20
-3.680321516582881
 30
0.0
 10
24.79529294349373
 20
-3.169595842284679
 30
0.0
 10
24.13526248276003
 20
-2.816648431646657
 30
0.0
 10
22.82818282013952
 20
-2.096551419798244
 30
0.0
 10
22.16941541233464
 20
-1.727268149114916
 30
0.0
 10
20.85531894301855
 20
-0.9801777542754397
 30
0.0
 10
20.20303489355001
 20
-0.6029810235872448
 30
0.0
 10
19.21654573877314
 20
-0.0345002997988555
 30
0.0
 10
18.88744035939476
 20
0.1552357151362909
 30
0.0
 10
18.23116766728646
 20
0.5337570901654871
 30
0.0
 10
17.90509983485779
 20
0.7223318308043218
 30
0.0
 10
16.92205316090175
 20
1.286693769922936
 30
0.0
 10
16.26178582322908
 20
1.660794036589646
 30
0.0
 10
15.27895312480933
 20
2.210279488782339
 30
0.0
 10
14.95282400099657
 20
2.39146680512429
 30
0.0
 10
14.29644211822082
 20
2.75027831260836
 30
0.0
 10
13.96731776809023
 20
2.927689616680897
 30
0.0
 10
12.98087929046832
 20
3.451912796225578
 30
0.0
 10
12.32866101427987
 20
3.790007044823255
 30
0.0
 10
11.01441338920262
 20
4.44015681744898
 30
0.0
 10
10.35605423195463
 20
4.751525595088109
 30
0.0
 10
9.048606909880021
 20
5.33890372099458
 30
0.0
 10
8.388534064735524
 20
5.616527081981667
 30
0.0
 10
7.732050807568896
 20
5.873825920547141
 30
0.0
1001
PE_URL
1000

  0
LINE
  5
1E7
330
1F
100
AcDbEntity
  8
외형선
  6
Continuous
 62
     1
370
    15
100
AcDbLine
 10
39.73205080756892
 20
-6.844963620833964
 30
0.0
 11
39.73205080756892
 21
0.7714884782818441
 31
0.0
1001
PE_URL
1000

  0
SPLINE
  5
1E8
330
1F
100
AcDbEntity
  8
외형선
  6
Continuous
 62
     1
370
    15
100
AcDbSpline
210
0.0
220
0.0
230
1.0
 70
     8
 71
     3
 72
    10
 73
     6
 74
     0
 42
0.000000001
 43
0.00000001
 40
0.0
 40
0.0
 40
0.0
 40
0.0
 40
0.5
 40
0.5
 40
1.0
 40
1.0
 40
1.0
 40
1.0
 10
39.23205080756892
 20
-7.117080628960982
 30
0.0
 10
39.36258596223374
 20
-7.151488711687461
 30
0.0
 10
39.48217195503503
 20
-7.145782497012
 30
0.0
 10
39.66780573252115
 20
-7.054771544932352
 30
0.0
 10
39.73205080756881
 20
-6.96688630856036
 30
0.0
 10
39.73205080756887
 20
-6.844963620833957
 30
0.0
1001
PE_URL
1000

  0
SPLINE
  5
1E9
330
1F
100
AcDbEntity
  8
외형선
  6
Continuous
 62
     1
370
    15
100
AcDbSpline
210
0.0
220
0.0
230
1.0
 70
     8
 71
     3
 72
    48
 73
    44
 74
     0
 42
0.000000001
 43
0.00000001
 40
0.0
 40
0.0
 40
0.0
 40
0.0
 40
0.0624999999999979
 40
0.0624999999999979
 40
0.0937499999999979
 40
0.0937499999999979
 40
0.1249999999999979
 40
0.1249999999999979
 40
0.1874999999999979
 40
0.1874999999999979
 40
0.2499999999999979
 40
0.2499999999999979
 40
0.3124999999999979
 40
0.3124999999999979
 40
0.3437499999999979
 40
0.3437499999999979
 40
0.3749999999999979
 40
0.3749999999999979
 40
0.4062499999999979
 40
0.4062499999999979
 40
0.437499999999998
 40
0.437499999999998
 40
0.499999999999998
 40
0.499999999999998
 40
0.562499999999998
 40
0.562499999999998
 40
0.6249999999999981
 40
0.6249999999999981
 40
0.6562499999999991
 40
0.6562499999999991
 40
0.6875
 40
0.6875
 40
0.75
 40
0.75
 40
0.78125
 40
0.78125
 40
0.8124999999999999
 40
0.8124999999999999
 40
0.875
 40
0.875
 40
0.9375
 40
0.9375
 40
1.0
 40
1.0
 40
1.0
 40
1.0
 10
39.23205080756892
 20
-7.117080628960993
 30
0.0
 10
38.57616543821575
 20
-6.944194190010991
 30
0.0
 10
37.9159384214004
 20
-6.746871017303773
 30
0.0
 10
36.9340050627942
 20
-6.418756666310886
 30
0.0
 10
36.60749079235109
 20
-6.303998914239058
 30
0.0
 10
35.95071960590607
 20
-6.063631685357585
 30
0.0
 10
35.62154070630947
 20
-5.938140270600197
 30
0.0
 10
34.63536094554189
 20
-5.547151641445785
 30
0.0
 10
33.98327591098675
 20
-5.267673484839923
 30
0.0
 10
32.66851400352738
 20
-4.673696343208091
 30
0.0
 10
32.01163439043995
 20
-4.360003786776554
 30
0.0
 10
30.7028211087808
 20
-3.706282812225812
 30
0.0
 10
30.04262208158192
 20
-3.364848677036962
 30
0.0
 10
29.05855251468563
 20
-2.838508631069979
 30
0.0
 10
28.73256160817863
 20
-2.660894440341876
 30
0.0
 10
28.0769288499358
 20
-2.300835289635478
 30
0.0
 10
27.74795682571929
 20
-2.118505573771385
 30
0.0
 10
27.09018752306196
 20
-1.750612924507761
 30
0.0
 10
26.76139233938929
 20
-1.565051165715124
 30
0.0
 10
26.10646249960044
 20
-1.192111671098978
 30
0.0
 10
25.78016957600389
 20
-1.004707007350047
 30
0.0
 10
24.79529294349379
 20
-0.4392852066119515
 30
0.0
 10
24.13526248276003
 20
-0.0589221249349059
 30
0.0
 10
22.82818282013952
 20
0.6971686618224968
 30
0.0
 10
22.1694154123347
 20
1.075146543227699
 30
0.0
 10
20.85531894301857
 20
1.820685779263702
 30
0.0
 10
20.20303489355013
 20
2.187692338733436
 30
0.0
 10
19.21654573877308
 20
2.726828360911396
 30
0.0
 10
18.88744035939473
 20
2.904443163643526
 30
0.0
 10
18.23116766728654
 20
3.254144319315435
 30
0.0
 10
17.90509983485788
 20
3.426043840464448
 30
0.0
 10
16.92205316090181
 20
3.933532938840601
 30
0.0
 10
16.26178582322908
 20
4.260554656394916
 30
0.0
 10
15.27895312480933
 20
4.726744180706559
 30
0.0
 10
14.95282400099657
 20
4.878074608437403
 30
0.0
 10
14.29644211822085
 20
5.172917037612654
 30
0.0
 10
13.96731776809023
 20
5.316246158276622
 30
0.0
 10
12.98087929046832
 20
5.732305251097698
 30
0.0
 10
12.3286610142799
 20
5.990576844552445
 30
0.0
 10
11.01441338920256
 20
6.466441003239428
 30
0.0
 10
10.35605423195463
 20
6.683471786108163
 30
0.0
 10
9.048606909880021
 20
7.070308212674231
 30
0.0
 10
8.388534064735552
 20
7.241160374833234
 30
0.0
 10
7.732050807568868
 20
7.386772360626674
 30
0.0
  0
SPLINE
  5
1EA
330
1F
100
AcDbEntity
  8
외형선
  6
Continuous
 62
     1
370
    15
100
AcDbSpline
210
0.0
220
0.0
230
1.0
 70
     8
 71
     3
 72
    17
 73
    13
 74
     0
 42
0.000000001
 43
0.00000001
 40
0.0
 40
0.0
 40
0.0
 40
0.0
 40
0.1031137432626153
 40
0.2062345163516996
 40
0.3093599176499136
 40
0.4124875399440455
 40
0.5156149733337356
 40
0.6187398081472192
 40
0.7159674478966126
 40
0.8131947850064529
 40
0.910421789023763
 40
1.0
 40
1.0
 40
1.0
 40
1.0
 10
39.23205080756892
 20
0.9741064670280792
 30
0.0
 10
38.25211698648278
 20
1.53143562252399
 30
0.0
 10
36.2921825368754
 20
2.646131929685142
 30
0.0
 10
33.3521485867669
 20
4.18781610829849
 30
0.0
 10
30.41196194191329
 20
5.544917750836296
 30
0.0
 10
27.47169181107088
 20
6.652527551356046
 30
0.0
 10
24.53145266358976
 20
7.462194370320802
 30
0.0
 10
21.64721059909738
 20
7.927651117351608
 30
0.0
 10
18.819384661871
 20
8.053273909743988
 30
0.0
 10
16.04751929220814
 20
7.849179536416754
 30
0.0
 10
13.34837101043493
 20
7.367876467723855
 30
0.0
 10
11.57316764301461
 20
6.818455784699038
 30
0.0
 10
10.72190906451078
 20
6.554993536814759
 30
0.0
  0
SPLINE
  5
1EB
330
1F
100
AcDbEntity
  8
외형선
  6
Continuous
 62
     1
370
    15
100
AcDbSpline
210
0.0
220
0.0
230
1.0
 70
     8
 71
     3
 72
    14
 73
    10
 74
     0
 42
0.000000001
 43
0.00000001
 40
0.0
 40
0.0
 40
0.0
 40
0.0
 40
0.25
 40
0.25
 40
0.5
 40
0.5
 40
0.75
 40
0.75
 40
1.0
 40
1.0
 40
1.0
 40
1.0
 10
39.73205080756887
 20
0.7714884782818441
 30
0.0
 10
39.73205080756892
 20
0.7638383193983085
 30
0.0
 10
39.71816768603301
 20
0.7620468996660072
 30
0.0
 10
39.66423776593533
 20
0.7725862895408948
 30
0.0
 10
39.62385594717577
 20
0.7851500694562326
 30
0.0
 10
39.52681426459009
 20
0.8231805060749391
 30
0.0
 10
39.4701861629114
 20
0.8486110245545966
 30
0.0
 10
39.35209732396677
 20
0.9072951817420662
 30
0.0
 10
39.29170818887317
 20
0.9399080995418778
 30
0.0
 10
39.23205080756892
 20
0.9741064670281023
 30
0.0
1001
PE_URL
1000

  0
LINE
  5
1EC
330
1F
100
AcDbEntity
  8
외형선
  6
Continuous
370
    15
100
AcDbLine
 10
7.732050807568925
 20
5.873825920547146
 30
0.0
 11
7.732050807568925
 21
7.386772360626674
 31
0.0
  0
SPLINE
  5
1ED
330
1F
100
AcDbEntity
  8
외형선
  6
Continuous
 62
     1
370
    15
100
AcDbSpline
210
0.0
220
0.0
230
1.0
 70
     8
 71
     3
 72
    10
 73
     6
 74
     0
 42
0.000000001
 43
0.00000001
 40
0.0
 40
0.0
 40
0.0
 40
0.0
 40
0.5
 40
0.5
 40
1.0
 40
1.0
 40
1.0
 40
1.0
 10
39.23205080756892
 20
3.652357094840257
 30
0.0
 10
39.36258596223374
 20
3.585278716849738
 30
0.0
 10
39.48217195503506
 20
3.487090489156996
 30
0.0
 10
39.6678057325212
 20
3.271117893542733
 30
0.0
 10
39.73205080756887
 20
3.153813876173436
 30
0.0
 10
39.73205080756887
 20
3.064040187744522
 30
0.0
1001
PE_URL
1000

  0
LINE
  5
1EE
330
1F
100
AcDbEntity
  8
외형선
  6
Continuous
 62
     1
370
    15
100
AcDbLine
 10
39.73205080756892
 20
0.7714884782818441
 30
0.0
 11
39.73205080756892
 21
3.064040187744526
 31
0.0
1001
PE_URL
1000

  0
SPLINE
  5
1EF
330
1F
100
AcDbEntity
  8
외형선
  6
Continuous
 62
     1
370
    15
100
AcDbSpline
210
0.0
220
0.0
230
1.0
 70
     8
 71
     3
 72
    13
 73
     9
 74
     0
 42
0.000000001
 43
0.00000001
 40
0.0
 40
0.0
 40
0.0
 40
0.0
 40
0.0881091466473834
 40
0.2704888983047073
 40
0.4528679164378097
 40
0.6352461440513247
 40
0.8176235242015226
 40
1.0
 40
1.0
 40
1.0
 40
1.0
 10
24.03389018520795
 20
7.956459640622795
 30
0.0
 10
24.48028924864539
 20
7.966435296401949
 30
0.0
 10
25.85070305320377
 20
7.997059859733257
 30
0.0
 10
28.14487433534575
 20
7.690884825952244
 30
0.0
 10
30.9167087133487
 20
7.084906142344794
 30
0.0
 10
33.68849912011504
 20
6.174901622453303
 30
0.0
 10
36.46028214909339
 20
5.034124455578119
 30
0.0
 10
38.30812944856254
 20
4.112945453778435
 30
0.0
 10
39.23205080756898
 20
3.652357094840223
 30
0.0
1001
PE_URL
1000

  0
SPLINE
  5
1F0
330
1F
100
AcDbEntity
  8
외형선
  6
Continuous
 62
     1
370
    15
100
AcDbSpline
210
0.0
220
0.0
230
1.0
 70
     8
 71
     3
 72
    12
 73
     8
 74
     0
 42
0.000000001
 43
0.00000001
 40
0.0
 40
0.0
 40
0.0
 40
0.0
 40
0.0292726519737014
 40
0.2719558120404816
 40
0.5146381406955357
 40
0.7573195619814235
 40
1.0
 40
1.0
 40
1.0
 40
1.0
 10
19.15371043692718
 20
-7.981985751100188
 30
0.0
 10
19.04226282600737
 20
-7.987471296307179
 30
0.0
 10
18.00686550174387
 20
-8.038434424027628
 30
0.0
 10
16.0475232243372
 20
-7.831667239241712
 30
0.0
 10
13.27568745092071
 20
-7.341163226320939
 30
0.0
 10
10.50386410444011
 20
-6.541780065688505
 30
0.0
 10
8.65598732535608
 20
-5.8014655611838
 30
0.0
 10
7.732050807568896
 20
-5.431309058812221
 30
0.0
1001
PE_URL
1000

  0
LINE
  5
1F1
330
1F
100
AcDbEntity
  8
외형선
  6
Continuous
370
    15
100
AcDbLine
 10
7.732050807568925
 20
-5.431309058812216
 30
0.0
 11
7.732050807568925
 21
-3.073249947470094
 31
0.0
  0
SPLINE
  5
1F2
330
1F
100
AcDbEntity
  8
외형선
  6
Continuous
 62
     1
370
    15
100
AcDbSpline
210
0.0
220
0.0
230
1.0
 70
     8
 71
     3
 72
    10
 73
     6
 74
     0
 42
0.000000001
 43
0.00000001
 40
0.0688257011998131
 40
0.0688257011998131
 40
0.0688257011998131
 40
0.0688257011998131
 40
0.4350247517883447
 40
0.8700791615875291
 40
0.9818839313269224
 40
0.9818839313269224
 40
0.9818839313269224
 40
0.9818839313269224
 10
38.73205080756892
 20
8.00107492872389
 30
0.0
 10
37.67362249133685
 20
7.835624190671695
 30
0.0
 10
35.86872140386851
 20
7.620226922784948
 30
0.0
 10
33.81193726040734
 20
7.138581512190525
 30
0.0
 10
32.58005378648285
 20
6.700805773471909
 30
0.0
 10
32.32819647402903
 20
6.610432785862134
 30
0.0
1001
PE_URL
1000

  0
LINE
  5
1F3
330
1F
100
AcDbEntity
  8
외형선
  6
Continuous
 62
     1
370
    15
100
AcDbLine
 10
39.73205080756892
 20
3.064040187744526
 30
0.0
 11
39.73205080756892
 21
7.00107492872389
 31
0.0
1001
PE_URL
1000

  0
SPLINE
  5
1F4
330
1F
100
AcDbEntity
  8
외형선
  6
Continuous
 62
     1
370
    15
100
AcDbSpline
210
0.0
220
0.0
230
1.0
 70
     8
 71
     3
 72
     9
 73
     5
 74
     0
 42
0.000000001
 43
0.00000001
 40
0.0
 40
0.0
 40
0.0
 40
0.0
 40
0.9833185152120365
 40
0.9999999999999999
 40
0.9999999999999999
 40
0.9999999999999999
 40
0.9999999999999999
 10
7.732050807568925
 20
-7.384622503178862
 30
0.0
 10
8.712039916984082
 20
-7.161927826753969
 30
0.0
 10
9.708654029557579
 20
-6.935455251510259
 30
0.0
 10
10.70528380015324
 20
-6.559121485362173
 30
0.0
 10
10.7219090645107
 20
-6.552843679366976
 30
0.0
1001
PE_URL
1000

  0
SPLINE
  5
1F5
330
1F
100
AcDbEntity
  8
외형선
  6
Continuous
370
    15
100
AcDbSpline
210
0.0
220
0.0
230
1.0
 70
    24
 71
     3
 72
    11
 73
     7
 74
     0
 42
0.000000001
 43
0.00000001
 40
0.0
 40
0.0
 40
0.0
 40
0.0
 40
0.070025415668461
 40
0.4791354025626686
 40
0.9001096067918912
 40
1.0
 40
1.0
 40
1.0
 40
1.0
 10
7.732050807568925
 20
-5.534863300485091
 30
0.0
 10
7.732050807568925
 20
-5.573319124126536
 30
0.0
 10
7.732050807568896
 20
-5.83644568132627
 30
0.0
 10
7.732050807569038
 20
-6.394693483819788
 30
0.0
 10
7.732050807568982
 20
-6.983337120220412
 30
0.0
 10
7.732050807568925
 20
-7.320048628950794
 30
0.0
 10
7.732050807568925
 20
-7.384622503178864
 30
0.0
  0
LINE
  5
1F6
330
1F
100
AcDbEntity
  8
외형선
  6
Continuous
 62
     1
370
    15
100
AcDbLine
 10
39.73205080756892
 20
-6.99892507127611
 30
0.0
 11
39.73205080756892
 21
-6.844963620833964
 31
0.0
1001
PE_URL
1000

  0
LINE
  5
1F7
330
1F
100
AcDbEntity
  8
외형선
  6
Continuous
370
    15
100
AcDbLine
 10
6.732198614396282
 20
7.589483808035185
 30
0.0
 11
6.73219861439631
 21
8.00107492872389
 31
0.0
  0
SPLINE
  5
1F8
330
1F
100
AcDbEntity
  8
외형선
  6
Continuous
370
    15
100
AcDbSpline
210
0.0
220
0.0
230
1.0
 70
     8
 71
     3
 72
     8
 73
     4
 74
     0
 42
0.000000001
 43
0.00000001
 40
0.0
 40
0.0
 40
0.0
 40
0.0
 40
1.0
 40
1.0
 40
1.0
 40
1.0
 10
7.732050807568925
 20
7.386772360626672
 30
0.0
 10
7.397840847704487
 20
7.460902165761143
 30
0.0
 10
7.065741893338213
 20
7.528447032569526
 30
0.0
 10
6.732198614396282
 20
7.589483354038025
 30
0.0
  0
SPLINE
  5
1F9
330
1F
100
AcDbEntity
  8
외형선
  6
Continuous
370
    15
100
AcDbSpline
210
0.0
220
0.0
230
1.0
 70
     8
 71
     3
 72
     8
 73
     4
 74
     0
 42
0.000000001
 43
0.00000001
 40
0.0
 40
0.0
 40
0.0
 40
0.0
 40
1.0
 40
1.0
 40
1.0
 40
1.0
 10
7.732050807568868
 20
5.873825920547153
 30
0.0
 10
7.397840847704458
 20
6.004814538415745
 30
0.0
 10
7.065741893338242
 20
6.130415390337182
 30
0.0
 10
6.732198614396253
 20
6.250756856757308
 30
0.0
  0
LINE
  5
1FA
330
1F
100
AcDbEntity
  8
외형선
  6
Continuous
370
    15
100
AcDbLine
 10
6.732198614396282
 20
-2.531917507188602
 30
0.0
 11
6.73219861439631
 21
6.250757962353893
 31
0.0
  0
SPLINE
  5
1FB
330
1F
100
AcDbEntity
  8
외형선
  6
Continuous
370
    15
100
AcDbSpline
210
0.0
220
0.0
230
1.0
 70
     8
 71
     3
 72
     8
 73
     4
 74
     0
 42
0.000000001
 43
0.00000001
 40
0.0
 40
0.0
 40
0.0
 40
0.0
 40
1.0
 40
1.0
 40
1.0
 40
1.0
 10
7.732050807568925
 20
-3.073249947470094
 30
0.0
 10
7.397840847704487
 20
-2.895161966057106
 30
0.0
 10
7.065741893338213
 20
-2.714773060142722
 30
0.0
 10
6.732198614396282
 20
-2.531918867285464
 30
0.0
  0
SPLINE
  5
1FC
330
1F
100
AcDbEntity
  8
외형선
  6
Continuous
370
    15
100
AcDbSpline
210
0.0
220
0.0
230
1.0
 70
     8
 71
     3
 72
     8
 73
     4
 74
     0
 42
0.000000001
 43
0.00000001
 40
0.0
 40
0.0
 40
0.0
 40
0.0
 40
1.0
 40
1.0
 40
1.0
 40
1.0
 10
7.732050807568868
 20
-5.431309058812213
 30
0.0
 10
7.397840847704458
 20
-5.289702070559853
 30
0.0
 10
7.065741893338242
 20
-5.143664772564582
 30
0.0
 10
6.732198614396253
 20
-4.993069222020287
 30
0.0
  0
LINE
  5
1FD
330
1F
100
AcDbEntity
  8
외형선
  6
Continuous
370
    15
100
AcDbLine
 10
6.73219861439631
 20
-7.998925071276103
 30
0.0
 11
6.73219861439631
 21
-4.993067838474204
 31
0.0
  0
SPLINE
  5
1FE
330
1F
100
AcDbEntity
  8
외형선
  6
Continuous
370
    15
100
AcDbSpline
210
0.0
220
0.0
230
1.0
 70
     8
 71
     3
 72
     8
 73
     4
 74
     0
 42
0.000000001
 43
0.00000001
 40
0.0
 40
0.0
 40
0.0
 40
0.0
 40
1.0
 40
1.0
 40
1.0
 40
1.0
 10
7.732050807568925
 20
-7.384622503178862
 30
0.0
 10
7.397840847704487
 20
-7.458752308313333
 30
0.0
 10
7.065741893338213
 20
-7.526297175121721
 30
0.0
 10
6.732198614396282
 20
-7.587333496590221
 30
0.0
  0
LINE
  5
1FF
330
1F
100
AcDbEntity
  8
외형선
  6
Continuous
370
    15
100
AcDbLine
 10
-108.6679491924311
 20
0.0010749287238934
 30
0.0
 11
-108.6679491924311
 21
8.00107492872389
 31
0.0
  0
LINE
  5
200
330
1F
100
AcDbEntity
  8
외형선
  6
Continuous
370
    15
100
AcDbLine
 10
-108.6679491924311
 20
-7.998925071276103
 30
0.0
 11
-108.6679491924311
 21
0.0010749287238934
 31
0.0
  0
LINE
  5
201
330
1F
100
AcDbEntity
  8
외형선
  6
Continuous
370
    15
100
AcDbLine
 10
-110.2679491924311
 20
0.0010749287238934
 30
0.0
 11
-110.2679491924311
 21
6.401074928723899
 31
0.0
  0
LINE
  5
202
330
1F
100
AcDbEntity
  8
외형선
  6
Continuous
370
    15
100
AcDbLine
 10
-110.2679491924311
 20
-6.398925071276112
 30
0.0
 11
-110.2679491924311
 21
0.0010749287238934
 31
0.0
  0
SPLINE
  5
203
330
1F
100
AcDbEntity
  8
외형선
  6
Continuous
370
    15
100
AcDbSpline
210
0.0
220
0.0
230
1.0
 70
    24
 71
     3
 72
    22
 73
    18
 74
     0
 42
0.000000001
 43
0.00000001
 40
0.0
 40
0.0
 40
0.0
 40
0.0
 40
0.1249999999999999
 40
0.1249999999999999
 40
0.2499999999999998
 40
0.2499999999999998
 40
0.3749999999999998
 40
0.3749999999999998
 40
0.4999999999999997
 40
0.4999999999999997
 40
0.6249999999999997
 40
0.6249999999999997
 40
0.7499999999999997
 40
0.7499999999999997
 40
0.8749999999999999
 40
0.8749999999999999
 40
1.0
 40
1.0
 40
1.0
 40
1.0
 10
7.732050807568925
 20
-3.07324994747008
 30
0.0
 10
7.732050807568925
 20
-3.023833003513422
 30
0.0
 10
7.732050807568868
 20
-2.873419683504819
 30
0.0
 10
7.732050807568868
 20
-2.334969189021633
 30
0.0
 10
7.732050807568896
 20
-1.946044609964233
 30
0.0
 10
7.732050807568868
 20
-0.9943372233135843
 30
0.0
 10
7.732050807568925
 20
-0.4343537197835285
 30
0.0
 10
7.732050807568925
 20
0.7171849713685337
 30
0.0
 10
7.732050807568868
 20
1.305819645388715
 30
0.0
 10
7.732050807568839
 20
2.396739318910196
 30
0.0
 10
7.732050807568925
 20
2.898906050101827
 30
0.0
 10
7.732050807568896
 20
3.775025252583591
 30
0.0
 10
7.732050807568925
 20
4.150156936882551
 30
0.0
 10
7.732050807568925
 20
4.783017999589562
 30
0.0
 10
7.732050807568953
 20
5.041619985271605
 30
0.0
 10
7.732050807568925
 20
5.469416008188375
 30
0.0
 10
7.732050807568925
 20
5.681949110847155
 30
0.0
 10
7.732050807568925
 20
5.873825920547153
 30
0.0
  0
SPLINE
  5
204
330
1F
100
AcDbEntity
  8
외형선
  6
Continuous
370
    15
100
AcDbSpline
210
0.0
220
0.0
230
1.0
 70
    24
 71
     3
 72
    11
 73
     7
 74
     0
 42
0.000000001
 43
0.00000001
 40
0.0
 40
0.0
 40
0.0
 40
0.0
 40
0.2725199798276881
 40
0.5484436843694652
 40
0.9578459384201753
 40
1.0
 40
1.0
 40
1.0
 40
1.0
 10
7.732050807568925
 20
-7.384622503178866
 30
0.0
 10
7.732050807568925
 20
-7.208666485072587
 30
0.0
 10
7.73205080756901
 20
-6.854556790369822
 30
0.0
 10
7.732050807568754
 20
-6.255943989118776
 30
0.0
 10
7.732050807568811
 20
-5.804496224618951
 30
0.0
 10
7.732050807568868
 20
-5.557875997501766
 30
0.0
 10
7.732050807568868
 20
-5.534853300485091
 30
0.0
  0
LINE
  5
205
330
1F
100
AcDbEntity
  8
중심선
100
AcDbLine
 10
-113.2679491924311
 20
0.0010749287238934
 30
0.0
 11
42.73205080756892
 21
0.0010749287238898
 31
0.0
  0
CIRCLE
  5
206
330
1F
100
AcDbEntity
  8
해칭선
100
AcDbCircle
 10
0.0
 20
0.0
 30
0.0
 40
3.000000000000004
  0
DIMENSION
  5
207
102
{ACAD_XDICTIONARY
360
208
102
}
330
1F
100
AcDbEntity
  8
치수문자_일반주서
100
AcDbDimension
  2
*D12
 10
65.15487984060636
 20
-7.998925071275933
 30
0.0
 11
65.15487984060633
 21
0.0010749287240657
 31
0.0
 70
   160
  1
%%c<>
 71
     2
 42
15.99999999999999
 52
-270.0
  3
SLDDIMSTYLE0
100
AcDbAlignedDimension
 13
19.15487984060641
 23
8.00107492872389
 33
0.0
 14
19.1548798406063
 24
-7.998925071276105
 34
0.0
 50
90.0000000000002
100
AcDbRotatedDimension
1001
ENABLE_CUSTOM_SPLIT
1070
     1
  0
DIMENSION
  5
20A
330
1F
100
AcDbEntity
  8
치수문자_일반주서
100
AcDbDimension
  2
*D13
 10
-122.0679491924311
 20
-7.998925071276163
 30
0.0
 11
-122.0679491924311
 21
0.0010749287238987
 31
0.0
 70
   160
  1
%%c<>
 71
     2
 42
16.00000000000001
 52
-270.0
  3
SLDDIMSTYLE0
100
AcDbAlignedDimension
 13
-108.6679491924311
 23
8.0010749287239
 33
0.0
 14
-108.6679491924311
 24
-7.998925071276114
 34
0.0
 50
90.0000000000002
100
AcDbRotatedDimension
  0
DIMENSION
  5
20B
330
1F
100
AcDbEntity
  8
치수문자_일반주서
100
AcDbDimension
  2
*D14
 10
7.732050807568925
 20
24.91457131168177
 30
0.0
 11
23.73205080756892
 21
24.91457131168177
 31
0.0
 70
   160
  1
<>
 71
     2
 42
32.0
  3
SLDDIMSTYLE1
100
AcDbAlignedDimension
 13
39.73205080756892
 23
7.461400857438912
 33
0.0
 14
7.732050807568925
 24
7.386772360626672
 34
0.0
100
AcDbRotatedDimension
  0
DIMENSION
  5
20C
330
1F
100
AcDbEntity
  8
치수문자_일반주서
100
AcDbDimension
  2
*D15
 10
-110.2679491924311
 20
32.3309340020487
 30
0.0
 11
-35.26794919243109
 21
32.3309340020487
 31
0.0
 70
   160
  1
<>
 71
     2
 42
150.0
  3
SLDDIMSTYLE1
100
AcDbAlignedDimension
 13
39.73205080756892
 23
7.461400857438912
 33
0.0
 14
-110.2679491924311
 24
6.401074928723899
 34
0.0
 50
0.0000000000000054
100
AcDbRotatedDimension
  0
INSERT
  5
20D
330
1F
100
AcDbEntity
  8
해칭선
100
AcDbBlockReference
  2
SW_DOWELSYMBOL_0
 10
0.0
 20
0.0
 30
0.0
  0
ARC
  5
241
330
1F
100
AcDbEntity
  8
외형선
  6
Continuous
 62
     1
370
    15
100
AcDbCircle
 10
38.73205080756892
 20
7.00107492872389
 30
0.0
 40
0.9999999999999997
100
AcDbArc
 50
0.0
 51
90.0
1001
PE_URL
1000

  0
ARC
  5
242
102
{ACAD_REACTORS
102
}
330
1F
100
AcDbEntity
  8
외형선
  6
Continuous
 62
     1
370
    15
100
AcDbCircle
 10
38.73205080756892
 20
-6.99892507127611
 30
0.0
 40
0.9999999999999997
100
AcDbArc
 50
270.0
 51
0.0
1001
PE_URL
1000

  0
DIMENSION
  5
243
102
{ACAD_REACTORS
102
}
102
{ACAD_XDICTIONARY
360
244
102
}
330
1F
100
AcDbEntity
  8
치수문자_일반주서
100
AcDbDimension
  2
*D16
 10
38.73205080756892
 20
-6.99892507127611
 30
0.0
 11
45.09298077875395
 21
-20.01617279291344
 31
0.0
 70
   164
 71
     5
 42
0.9999999999999989
  3
SLDDIMSTYLE1
100
AcDbRadialDimension
 15
39.17109059144108
 25
-7.897392693496015
 35
0.0
 40
0.0
1001
ACAD
1000
DSTYLE
1002
{
1070
    78
1070
     8
1002
}
1001
ACAD_DSTYLE_DIMRADIAL_EXTENSION
1070
   387
1070
     1
1070
   388
1040
4.71238898038469
1070
   390
1040
0.0
1001
PE_URL
1000

  0
ENDSEC
  0
SECTION
  2
OBJECTS
  0
DICTIONARY
  5
C
330
0
100
AcDbDictionary
281
     1
  3
ACAD_GROUP
350
D
  3
ACAD_LAYOUT
350
1A
  3
ACAD_MLINESTYLE
350
17
  3
ACAD_PLOTSETTINGS
350
19
  3
ACAD_PLOTSTYLENAME
350
E
  3
ACAD_SCALELIST
350
47
  3
APPDATA
350
129
  3
DWGPROPS
350
37C
  0
DICTIONARY
  5
1A9
330
2
100
AcDbDictionary
280
     1
281
     1
  3
ACAD_LAYERSTATES
360
1AA
  0
DICTIONARY
  5
37A
330
1F
100
AcDbDictionary
280
     1
281
     1
  3
DIM_BOUNDING_BOXES_V1
360
37B
  0
DICTIONARY
  5
208
330
207
100
AcDbDictionary
280
     1
281
     1
  3
ACAD_CUSTOM_BREAKDATA
360
209
  0
DICTIONARY
  5
244
330
243
100
AcDbDictionary
280
     1
281
     1
  0
DICTIONARY
  5
D
102
{ACAD_REACTORS
330
C
102
}
330
C
100
AcDbDictionary
281
     1
  0
DICTIONARY
  5
1A
102
{ACAD_REACTORS
330
C
102
}
330
C
100
AcDbDictionary
281
     1
  3
Layout1
350
1E
  3
Layout2
350
26
  3
Model
350
22
  0
DICTIONARY
  5
17
102
{ACAD_REACTORS
330
C
102
}
330
C
100
AcDbDictionary
281
     1
  3
Standard
350
18
  0
DICTIONARY
  5
19
102
{ACAD_REACTORS
330
C
102
}
330
C
100
AcDbDictionary
281
     1
  0
ACDBDICTIONARYWDFLT
  5
E
102
{ACAD_REACTORS
330
C
102
}
330
C
100
AcDbDictionary
281
     1
  3
Normal
350
F
100
AcDbDictionaryWithDefault
340
F
  0
DICTIONARY
  5
47
102
{ACAD_REACTORS
330
C
102
}
330
C
100
AcDbDictionary
281
     1
  3
A0
350
48
  3
A1
350
49
  3
A2
350
4A
  3
A3
350
4B
  3
A4
350
4C
  3
A5
350
4D
  3
A6
350
4E
  3
A7
350
4F
  3
A8
350
50
  3
A9
350
51
  3
B0
350
52
  3
B1
350
53
  3
B2
350
54
  3
B3
350
55
  3
B4
350
56
  3
B5
350
57
  3
B6
350
58
  3
B7
350
59
  3
B8
350
5A
  3
B9
350
5B
  3
C0
350
5C
  3
C1
350
5D
  3
C2
350
5E
  3
C3
350
5F
  3
C4
350
60
  3
C5
350
61
  3
C6
350
62
  3
C7
350
63
  3
C8
350
64
  3
C9
350
65
  3
D0
350
66
  3
D1
350
67
  3
D2
350
68
  0
DICTIONARY
  5
129
102
{ACAD_REACTORS
330
C
102
}
330
C
100
AcDbDictionary
281
     1
  0
XRECORD
  5
37C
102
{ACAD_REACTORS
330
C
102
}
330
C
100
AcDbXrecord
280
     1
  1
DWGPROPS COOKIE
  2

  3

  4

  6

  7

  8
12016016
  9

300
=
301
=
302
=
303
=
304
=
305
=
306
=
307
=
308
=
309
=
 40
0.0
 41
2458269.44976706
 42
2459702.284210556
  1

 90
        0
  0
DICTIONARY
  5
1AA
102
{ACAD_REACTORS
330
1A9
102
}
330
1A9
100
AcDbDictionary
281
     1
  0
DICTIONARY
  5
37B
102
{ACAD_REACTORS
330
37A
102
}
330
37A
100
AcDbDictionary
281
     1
  0
BREAKDATA
  5
209
102
{ACAD_REACTORS
330
208
102
}
330
208
100
AcDbBreakData
 70
     0
330
207
 90
        3
100
AcDbBreakPointRef
 71
     0
 72
     0
 91
       -1
 10
0.0
 20
0.0
 30
0.0
 11
0.0
 21
0.0
 31
0.0
331
1DE
 73
     2
 92
        0
100
AcDbBreakPointRef
 71
     0
 72
     0
 91
       -1
 10
0.0
 20
0.0
 30
0.0
 11
0.0
 21
0.0
 31
0.0
331
1E4
 73
     2
 92
        0
100
AcDbBreakPointRef
 71
     0
 72
     0
 91
       -1
 10
0.0
 20
0.0
 30
0.0
 11
0.0
 21
0.0
 31
0.0
331
1DF
 73
     2
 92
        0
  0
LAYOUT
  5
1E
102
{ACAD_REACTORS
330
1A
102
}
330
1A
100
AcDbPlotSettings
  1

  2
none_device
  4

  6

 40
0.0
 41
0.0
 42
0.0
 43
0.0
 44
0.0
 45
0.0
 46
0.0
 47
0.0
 48
0.0
 49
0.0
140
0.0
141
0.0
142
1.0
143
1.0
 70
   688
 72
     1
 73
     0
 74
     5
  7

 75
    16
147
1.0
148
0.0
149
0.0
100
AcDbLayout
  1
Layout1
 70
     1
 71
     1
 10
0.0
 20
0.0
 11
420.0
 21
297.0
 12
0.0
 22
0.0
 32
0.0
 14
1.000000000000000E+20
 24
1.000000000000000E+20
 34
1.000000000000000E+20
 15
-1.000000000000000E+20
 25
-1.000000000000000E+20
 35
-1.000000000000000E+20
146
0.0
 13
0.0
 23
0.0
 33
0.0
 16
1.0
 26
0.0
 36
0.0
 17
0.0
 27
1.0
 37
0.0
 76
     0
330
1B
  0
LAYOUT
  5
26
102
{ACAD_REACTORS
330
1A
102
}
330
1A
100
AcDbPlotSettings
  1

  2
none_device
  4

  6

 40
0.0
 41
0.0
 42
0.0
 43
0.0
 44
0.0
 45
0.0
 46
0.0
 47
0.0
 48
0.0
 49
0.0
140
0.0
141
0.0
142
1.0
143
1.0
 70
   688
 72
     1
 73
     0
 74
     5
  7

 75
    16
147
1.0
148
0.0
149
0.0
100
AcDbLayout
  1
Layout2
 70
     1
 71
     2
 10
0.0
 20
0.0
 11
0.0
 21
0.0
 12
0.0
 22
0.0
 32
0.0
 14
0.0
 24
0.0
 34
0.0
 15
0.0
 25
0.0
 35
0.0
146
0.0
 13
0.0
 23
0.0
 33
0.0
 16
1.0
 26
0.0
 36
0.0
 17
0.0
 27
1.0
 37
0.0
 76
     0
330
23
  0
LAYOUT
  5
22
102
{ACAD_REACTORS
330
1A
102
}
330
1A
100
AcDbPlotSettings
  1

  2
none_device
  4
ANSI_A_(11.00_x_8.50_Inches)
  6

 40
6.35
 41
19.05
 42
6.35000508
 43
19.05000254
 44
279.4
 45
215.9
 46
88.36817268101404
 47
100.642946851587
 48
0.0
 49
0.0
140
0.0
141
0.0
142
0.0642989197557414
143
1.0
 70
  1696
 72
     0
 73
     0
 74
     0
  7

 75
     0
147
0.0235690232323232
148
0.0
149
0.0
100
AcDbLayout
  1
Model
 70
     1
 71
     0
 10
0.0
 20
0.0
 11
420.0
 21
297.0
 12
0.0
 22
0.0
 32
0.0
 14
-126.4429491924311
 24
-49.97180738881174
 34
0.0
 15
79.73835494594202
 25
36.70593400204871
 35
0.0
146
0.0
 13
0.0
 23
0.0
 33
0.0
 16
1.0
 26
0.0
 36
0.0
 17
0.0
 27
1.0
 37
0.0
 76
     0
330
1F
331
29
  0
MLINESTYLE
  5
18
102
{ACAD_REACTORS
330
17
102
}
330
17
100
AcDbMlineStyle
  2
Standard
 70
     0
  3

 62
   256
 51
90.0
 52
90.0
 71
     2
 49
0.5
 62
   256
  6
BYLAYER
 49
-0.5
 62
   256
  6
BYLAYER
  0
ACDBPLACEHOLDER
  5
F
102
{ACAD_REACTORS
330
E
102
}
330
E
  0
SCALE
  5
48
102
{ACAD_REACTORS
330
47
102
}
330
47
100
AcDbScale
 70
     0
300
1:1
140
1.0
141
1.0
290
     1
  0
SCALE
  5
49
102
{ACAD_REACTORS
330
47
102
}
330
47
100
AcDbScale
 70
     0
300
1:2
140
1.0
141
2.0
290
     0
  0
SCALE
  5
4A
102
{ACAD_REACTORS
330
47
102
}
330
47
100
AcDbScale
 70
     0
300
1:4
140
1.0
141
4.0
290
     0
  0
SCALE
  5
4B
102
{ACAD_REACTORS
330
47
102
}
330
47
100
AcDbScale
 70
     0
300
1:5
140
1.0
141
5.0
290
     0
  0
SCALE
  5
4C
102
{ACAD_REACTORS
330
47
102
}
330
47
100
AcDbScale
 70
     0
300
1:8
140
1.0
141
8.0
290
     0
  0
SCALE
  5
4D
102
{ACAD_REACTORS
330
47
102
}
330
47
100
AcDbScale
 70
     0
300
1:10
140
1.0
141
10.0
290
     0
  0
SCALE
  5
4E
102
{ACAD_REACTORS
330
47
102
}
330
47
100
AcDbScale
 70
     0
300
1:16
140
1.0
141
16.0
290
     0
  0
SCALE
  5
4F
102
{ACAD_REACTORS
330
47
102
}
330
47
100
AcDbScale
 70
     0
300
1:20
140
1.0
141
20.0
290
     0
  0
SCALE
  5
50
102
{ACAD_REACTORS
330
47
102
}
330
47
100
AcDbScale
 70
     0
300
1:30
140
1.0
141
30.0
290
     0
  0
SCALE
  5
51
102
{ACAD_REACTORS
330
47
102
}
330
47
100
AcDbScale
 70
     0
300
1:40
140
1.0
141
40.0
290
     0
  0
SCALE
  5
52
102
{ACAD_REACTORS
330
47
102
}
330
47
100
AcDbScale
 70
     0
300
1:50
140
1.0
141
50.0
290
     0
  0
SCALE
  5
53
102
{ACAD_REACTORS
330
47
102
}
330
47
100
AcDbScale
 70
     0
300
1:100
140
1.0
141
100.0
290
     0
  0
SCALE
  5
54
102
{ACAD_REACTORS
330
47
102
}
330
47
100
AcDbScale
 70
     0
300
2:1
140
2.0
141
1.0
290
     0
  0
SCALE
  5
55
102
{ACAD_REACTORS
330
47
102
}
330
47
100
AcDbScale
 70
     0
300
4:1
140
4.0
141
1.0
290
     0
  0
SCALE
  5
56
102
{ACAD_REACTORS
330
47
102
}
330
47
100
AcDbScale
 70
     0
300
8:1
140
8.0
141
1.0
290
     0
  0
SCALE
  5
57
102
{ACAD_REACTORS
330
47
102
}
330
47
100
AcDbScale
 70
     0
300
10:1
140
10.0
141
1.0
290
     0
  0
SCALE
  5
58
102
{ACAD_REACTORS
330
47
102
}
330
47
100
AcDbScale
 70
     0
300
100:1
140
100.0
141
1.0
290
     0
  0
SCALE
  5
59
102
{ACAD_REACTORS
330
47
102
}
330
47
100
AcDbScale
 70
     0
300
1/128" = 1'-0"
140
0.0078125
141
12.0
290
     0
  0
SCALE
  5
5A
102
{ACAD_REACTORS
330
47
102
}
330
47
100
AcDbScale
 70
     0
300
1/64" = 1'-0"
140
0.015625
141
12.0
290
     0
  0
SCALE
  5
5B
102
{ACAD_REACTORS
330
47
102
}
330
47
100
AcDbScale
 70
     0
300
1/32" = 1'-0"
140
0.03125
141
12.0
290
     0
  0
SCALE
  5
5C
102
{ACAD_REACTORS
330
47
102
}
330
47
100
AcDbScale
 70
     0
300
1/16" = 1'-0"
140
0.0625
141
12.0
290
     0
  0
SCALE
  5
5D
102
{ACAD_REACTORS
330
47
102
}
330
47
100
AcDbScale
 70
     0
300
3/32" = 1'-0"
140
0.09375
141
12.0
290
     0
  0
SCALE
  5
5E
102
{ACAD_REACTORS
330
47
102
}
330
47
100
AcDbScale
 70
     0
300
1/8" = 1'-0"
140
0.125
141
12.0
290
     0
  0
SCALE
  5
5F
102
{ACAD_REACTORS
330
47
102
}
330
47
100
AcDbScale
 70
     0
300
3/16" = 1'-0"
140
0.1875
141
12.0
290
     0
  0
SCALE
  5
60
102
{ACAD_REACTORS
330
47
102
}
330
47
100
AcDbScale
 70
     0
300
1/4" = 1'-0"
140
0.25
141
12.0
290
     0
  0
SCALE
  5
61
102
{ACAD_REACTORS
330
47
102
}
330
47
100
AcDbScale
 70
     0
300
3/8" = 1'-0"
140
0.375
141
12.0
290
     0
  0
SCALE
  5
62
102
{ACAD_REACTORS
330
47
102
}
330
47
100
AcDbScale
 70
     0
300
1/2" = 1'-0"
140
0.5
141
12.0
290
     0
  0
SCALE
  5
63
102
{ACAD_REACTORS
330
47
102
}
330
47
100
AcDbScale
 70
     0
300
3/4" = 1'-0"
140
0.75
141
12.0
290
     0
  0
SCALE
  5
64
102
{ACAD_REACTORS
330
47
102
}
330
47
100
AcDbScale
 70
     0
300
1" = 1'-0"
140
1.0
141
12.0
290
     0
  0
SCALE
  5
65
102
{ACAD_REACTORS
330
47
102
}
330
47
100
AcDbScale
 70
     0
300
1-1/2" = 1'-0"
140
1.5
141
12.0
290
     0
  0
SCALE
  5
66
102
{ACAD_REACTORS
330
47
102
}
330
47
100
AcDbScale
 70
     0
300
3" = 1'-0"
140
3.0
141
12.0
290
     0
  0
SCALE
  5
67
102
{ACAD_REACTORS
330
47
102
}
330
47
100
AcDbScale
 70
     0
300
6" = 1'-0"
140
6.0
141
12.0
290
     0
  0
SCALE
  5
68
102
{ACAD_REACTORS
330
47
102
}
330
47
100
AcDbScale
 70
     0
300
1'-0" = 1'-0"
140
12.0
141
12.0
290
     0
  0
ENDSEC
  0
EOF
