  0
SECTION
  2
HEADER
  9
$ACADVER
  1
AC1015
  9
$ACADMAINTVER
 70
     6
  9
$DWGCODEPAGE
  3
ANSI_949
  9
$INSBASE
 10
0.0
 20
0.0
 30
0.0
  9
$EXTMIN
 10
-129.175
 20
-49.97180738881174
 30
0.0
  9
$EXTMAX
 10
79.73835494594202
 20
35.70879139070593
 30
0.0
  9
$LIMMIN
 10
0.0
 20
0.0
  9
$LIMMAX
 10
420.0
 20
297.0
  9
$ORTHOMODE
 70
     0
  9
$REGENMODE
 70
     1
  9
$FILLMODE
 70
     1
  9
$QTEXTMODE
 70
     0
  9
$MIRRTEXT
 70
     1
  9
$LTSCALE
 40
1.0
  9
$ATTMODE
 70
     1
  9
$TEXTSIZE
 40
3.5
  9
$TRACEWID
 40
1.0
  9
$TEXTSTYLE
  7
Standard
  9
$CLAYER
  8
0
  9
$CELTYPE
  6
ByLayer
  9
$CECOLOR
 62
   256
  9
$CELTSCALE
 40
1.0
  9
$DISPSILH
 70
     0
  9
$DIMSCALE
 40
1.0
  9
$DIMASZ
 40
3.302
  9
$DIMEXO
 40
1.0
  9
$DIMDLI
 40
3.75
  9
$DIMRND
 40
0.0
  9
$DIMDLE
 40
0.0
  9
$DIMEXE
 40
1.0
  9
$DIMTP
 40
0.0
  9
$DIMTM
 40
0.0
  9
$DIMTXT
 40
3.5
  9
$DIMCEN
 40
2.5
  9
$DIMTSZ
 40
0.0
  9
$DIMTOL
 70
     0
  9
$DIMLIM
 70
     0
  9
$DIMTIH
 70
     1
  9
$DIMTOH
 70
     1
  9
$DIMSE1
 70
     0
  9
$DIMSE2
 70
     0
  9
$DIMTAD
 70
     1
  9
$DIMZIN
 70
     0
  9
$DIMBLK
  1

  9
$DIMASO
 70
     1
  9
$DIMSHO
 70
     1
  9
$DIMPOST
  1

  9
$DIMAPOST
  1

  9
$DIMALT
 70
     0
  9
$DIMALTD
 70
     3
  9
$DIMALTF
 40
0.0393700787401575
  9
$DIMLFAC
 40
1.0
  9
$DIMTOFL
 70
     1
  9
$DIMTVP
 40
0.0
  9
$DIMTIX
 70
     0
  9
$DIMSOXD
 70
     0
  9
$DIMSAH
 70
     0
  9
$DIMBLK1
  1

  9
$DIMBLK2
  1

  9
$DIMSTYLE
  2
ISO-25
  9
$DIMCLRD
 70
     0
  9
$DIMCLRE
 70
     0
  9
$DIMCLRT
 70
     0
  9
$DIMTFAC
 40
1.0
  9
$DIMGAP
 40
1.524
  9
$DIMJUST
 70
     0
  9
$DIMSD1
 70
     0
  9
$DIMSD2
 70
     0
  9
$DIMTOLJ
 70
     0
  9
$DIMTZIN
 70
     0
  9
$DIMALTZ
 70
     0
  9
$DIMALTTZ
 70
     0
  9
$DIMUPT
 70
     0
  9
$DIMDEC
 70
     2
  9
$DIMTDEC
 70
     2
  9
$DIMALTU
 70
     2
  9
$DIMALTTD
 70
     3
  9
$DIMTXSTY
  7
Standard
  9
$DIMAUNIT
 70
     0
  9
$DIMADEC
 70
     2
  9
$DIMALTRND
 40
0.0
  9
$DIMAZIN
 70
     0
  9
$DIMDSEP
 70
    44
  9
$DIMATFIT
 70
     3
  9
$DIMFRAC
 70
     0
  9
$DIMLDRBLK
  1

  9
$DIMLUNIT
 70
     2
  9
$DIMLWD
 70
    -2
  9
$DIMLWE
 70
    -2
  9
$DIMTMOVE
 70
     0
  9
$LUNITS
 70
     2
  9
$LUPREC
 70
     2
  9
$SKETCHINC
 40
1.0
  9
$FILLETRAD
 40
10.0
  9
$AUNITS
 70
     0
  9
$AUPREC
 70
     2
  9
$MENU
  1
.
  9
$ELEVATION
 40
0.0
  9
$PELEVATION
 40
0.0
  9
$THICKNESS
 40
0.0
  9
$LIMCHECK
 70
     0
  9
$CHAMFERA
 40
0.0
  9
$CHAMFERB
 40
0.0
  9
$CHAMFERC
 40
0.0
  9
$CHAMFERD
 40
0.0
  9
$SKPOLY
 70
     0
  9
$TDCREATE
 40
2458269.824199942
  9
$TDUCREATE
 40
2458269.449199942
  9
$TDUPDATE
 40
2459702.654196864
  9
$TDUUPDATE
 40
2459702.279196864
  9
$TDINDWG
 40
0.0006575694
  9
$TDUSRTIMER
 40
0.0006575579
  9
$USRTIMER
 70
     1
  9
$ANGBASE
 50
0.0
  9
$ANGDIR
 70
     0
  9
$PDMODE
 70
     0
  9
$PDSIZE
 40
-1.0
  9
$PLINEWID
 40
0.0
  9
$SPLFRAME
 70
     0
  9
$SPLINETYPE
 70
     6
  9
$SPLINESEGS
 70
     8
  9
$HANDSEED
  5
289
  9
$SURFTAB1
 70
     6
  9
$SURFTAB2
 70
     6
  9
$SURFTYPE
 70
     6
  9
$SURFU
 70
     6
  9
$SURFV
 70
     6
  9
$UCSBASE
  2

  9
$UCSNAME
  2

  9
$UCSORG
 10
0.0
 20
0.0
 30
0.0
  9
$UCSXDIR
 10
1.0
 20
0.0
 30
0.0
  9
$UCSYDIR
 10
0.0
 20
1.0
 30
0.0
  9
$UCSORTHOREF
  2

  9
$UCSORTHOVIEW
 70
     0
  9
$UCSORGTOP
 10
0.0
 20
0.0
 30
0.0
  9
$UCSORGBOTTOM
 10
0.0
 20
0.0
 30
0.0
  9
$UCSORGLEFT
 10
0.0
 20
0.0
 30
0.0
  9
$UCSORGRIGHT
 10
0.0
 20
0.0
 30
0.0
  9
$UCSORGFRONT
 10
0.0
 20
0.0
 30
0.0
  9
$UCSORGBACK
 10
0.0
 20
0.0
 30
0.0
  9
$PUCSBASE
  2

  9
$PUCSNAME
  2

  9
$PUCSORG
 10
0.0
 20
0.0
 30
0.0
  9
$PUCSXDIR
 10
1.0
 20
0.0
 30
0.0
  9
$PUCSYDIR
 10
0.0
 20
1.0
 30
0.0
  9
$PUCSORTHOREF
  2

  9
$PUCSORTHOVIEW
 70
     0
  9
$PUCSORGTOP
 10
0.0
 20
0.0
 30
0.0
  9
$PUCSORGBOTTOM
 10
0.0
 20
0.0
 30
0.0
  9
$PUCSORGLEFT
 10
0.0
 20
0.0
 30
0.0
  9
$PUCSORGRIGHT
 10
0.0
 20
0.0
 30
0.0
  9
$PUCSORGFRONT
 10
0.0
 20
0.0
 30
0.0
  9
$PUCSORGBACK
 10
0.0
 20
0.0
 30
0.0
  9
$USERI1
 70
     0
  9
$USERI2
 70
     0
  9
$USERI3
 70
     0
  9
$USERI4
 70
     0
  9
$USERI5
 70
     0
  9
$USERR1
 40
0.0
  9
$USERR2
 40
0.0
  9
$USERR3
 40
0.0
  9
$USERR4
 40
0.0
  9
$USERR5
 40
0.0
  9
$WORLDVIEW
 70
     1
  9
$SHADEDGE
 70
     3
  9
$SHADEDIF
 70
    70
  9
$TILEMODE
 70
     1
  9
$MAXACTVP
 70
    64
  9
$PINSBASE
 10
0.0
 20
0.0
 30
0.0
  9
$PLIMCHECK
 70
     0
  9
$PEXTMIN
 10
1.000000000000000E+20
 20
1.000000000000000E+20
 30
1.000000000000000E+20
  9
$PEXTMAX
 10
-1.000000000000000E+20
 20
-1.000000000000000E+20
 30
-1.000000000000000E+20
  9
$PLIMMIN
 10
0.0
 20
0.0
  9
$PLIMMAX
 10
0.0
 20
0.0
  9
$UNITMODE
 70
     0
  9
$VISRETAIN
 70
     1
  9
$PLINEGEN
 70
     0
  9
$PSLTSCALE
 70
     1
  9
$TREEDEPTH
 70
  3020
  9
$CMLSTYLE
  2
Standard
  9
$CMLJUST
 70
     0
  9
$CMLSCALE
 40
20.0
  9
$PROXYGRAPHICS
 70
     1
  9
$MEASUREMENT
 70
     1
  9
$CELWEIGHT
370
    -1
  9
$ENDCAPS
280
     0
  9
$JOINSTYLE
280
     0
  9
$LWDISPLAY
290
     1
  9
$INSUNITS
 70
     4
  9
$HYPERLINKBASE
  1

  9
$STYLESHEET
  1

  9
$XEDIT
290
     1
  9
$CEPSNTYPE
380
     0
  9
$PSTYLEMODE
290
     1
  9
$FINGERPRINTGUID
  2
{E4520416-6806-4DA0-81A7-3F1C4B61220D}
  9
$VERSIONGUID
  2
{FAEB1C32-E019-11D5-929B-00C0DF256EC4}
  9
$EXTNAMES
290
     1
  9
$PSVPSCALE
 40
0.0
  9
$OLESTARTUP
290
     0
  0
ENDSEC
  0
SECTION
  2
CLASSES
  0
CLASS
  1
ACDBDICTIONARYWDFLT
  2
AcDbDictionaryWithDefault
  3
ObjectDBX Classes
 90
        0
280
     0
281
     0
  0
CLASS
  1
VISUALSTYLE
  2
AcDbVisualStyle
  3
ObjectDBX Classes
 90
     4095
280
     0
281
     0
  0
CLASS
  1
MATERIAL
  2
AcDbMaterial
  3
ObjectDBX Classes
 90
     1153
280
     0
281
     0
  0
CLASS
  1
SCALE
  2
AcDbScale
  3
ObjectDBX Classes
 90
     1153
280
     0
281
     0
  0
CLASS
  1
SUN
  2
AcDbSun
  3
SCENEOE
 90
     1153
280
     0
281
     0
  0
CLASS
  1
ACDBPLACEHOLDER
  2
AcDbPlaceHolder
  3
ObjectDBX Classes
 90
        0
280
     0
281
     0
  0
CLASS
  1
LAYOUT
  2
AcDbLayout
  3
ObjectDBX Classes
 90
        0
280
     0
281
     0
  0
CLASS
  1
TABLESTYLE
  2
AcDbTableStyle
  3
ObjectDBX Classes
 90
     4095
280
     0
281
     0
  0
CLASS
  1
MLEADERSTYLE
  2
AcDbMLeaderStyle
  3
ACDB_MLEADERSTYLE_CLASS
 90
     4095
280
     0
281
     0
  0
CLASS
  1
BREAKDATA
  2
AcDbBreakData
  3
ObjectDBX Classes
 90
     1024
280
     0
281
     0
  0
CLASS
  1
DIMASSOC
  2
AcDbDimAssoc
  3
"AcDbDimAssoc|Product Desc:     AcDim ARX App For Dimension|Company:          Autodesk, Inc.|WEB Address:      www.autodesk.com"
 90
        0
280
     0
281
     0
  0
CLASS
  1
SORTENTSTABLE
  2
AcDbSortentsTable
  3
ObjectDBX Classes
 90
        0
280
     0
281
     0
  0
ENDSEC
  0
SECTION
  2
TABLES
  0
TABLE
  2
VPORT
  5
8
330
0
100
AcDbSymbolTable
 70
     1
  0
VPORT
  5
29
330
8
100
AcDbSymbolTableRecord
100
AcDbViewportTableRecord
  2
*Active
 70
     0
 10
0.0
 20
0.0
 11
1.0
 21
1.0
 12
-1.427234838227108
 22
2.5231976522727
 13
0.0
 23
0.0
 14
10.0
 24
10.0
 15
10.0
 25
10.0
 16
0.0
 26
0.0
 36
1.0
 17
0.0
 27
0.0
 37
0.0
 40
173.9260518504003
 41
1.531481481481481
 42
50.0
 43
0.0
 44
0.0
 50
0.0
 51
0.0
 71
    16
 72
  2000
 73
     1
 74
     3
 75
     0
 76
     0
 77
     0
 78
     0
281
     0
 65
     1
110
0.0
120
0.0
130
0.0
111
1.0
121
0.0
131
0.0
112
0.0
122
1.0
132
0.0
 79
     0
146
0.0
  0
ENDTAB
  0
TABLE
  2
LTYPE
  5
5
330
0
100
AcDbSymbolTable
 70
     6
  0
LTYPE
  5
14
330
5
100
AcDbSymbolTableRecord
100
AcDbLinetypeTableRecord
  2
ByBlock
 70
     0
  3

 72
    65
 73
     0
 40
0.0
  0
LTYPE
  5
15
330
5
100
AcDbSymbolTableRecord
100
AcDbLinetypeTableRecord
  2
ByLayer
 70
     0
  3

 72
    65
 73
     0
 40
0.0
  0
LTYPE
  5
16
330
5
100
AcDbSymbolTableRecord
100
AcDbLinetypeTableRecord
  2
Continuous
 70
     0
  3
Solid line
 72
    65
 73
     0
 40
0.0
  0
LTYPE
  5
6A
330
5
100
AcDbSymbolTableRecord
100
AcDbLinetypeTableRecord
  2
HIDDEN
 70
     0
  3
Hidden __ __ __ __ __ __ __ __ __ __ __ __ __ __
 72
    65
 73
     2
 40
1.905
 49
1.27
 74
     0
 49
-0.635
 74
     0
  0
LTYPE
  5
6B
330
5
100
AcDbSymbolTableRecord
100
AcDbLinetypeTableRecord
  2
PHANTOM
 70
     0
  3
Phantom ______  __  __  ______  __  __  ______
 72
    65
 73
     6
 40
12.7
 49
6.35
 74
     0
 49
-1.27
 74
     0
 49
1.27
 74
     0
 49
-1.27
 74
     0
 49
1.27
 74
     0
 49
-1.27
 74
     0
  0
LTYPE
  5
6C
330
5
100
AcDbSymbolTableRecord
100
AcDbLinetypeTableRecord
  2
CENTER
 70
     0
  3
Center ____ _ ____ _ ____ _ ____ _ ____ _ ____
 72
    65
 73
     4
 40
10.16
 49
6.35
 74
     0
 49
-1.27
 74
     0
 49
1.27
 74
     0
 49
-1.27
 74
     0
  0
LTYPE
  5
6D
330
5
100
AcDbSymbolTableRecord
100
AcDbLinetypeTableRecord
  2
CENTERX2
 70
     0
  3
Center (2x) ________  __  ________  __  _____
 72
    65
 73
     4
 40
20.32
 49
12.7
 74
     0
 49
-2.54
 74
     0
 49
2.54
 74
     0
 49
-2.54
 74
     0
  0
LTYPE
  5
6E
330
5
100
AcDbSymbolTableRecord
100
AcDbLinetypeTableRecord
  2
DOT2
 70
     0
  3
Dot (.5x) ........................................
 72
    65
 73
     2
 40
0.635
 49
0.0
 74
     0
 49
-0.635
 74
     0
  0
ENDTAB
  0
TABLE
  2
LAYER
  5
2
102
{ACAD_XDICTIONARY
360
1C6
102
}
330
0
100
AcDbSymbolTable
 70
    18
  0
LAYER
  5
10
330
2
100
AcDbSymbolTableRecord
100
AcDbLayerTableRecord
  2
0
 70
     0
 62
     7
  6
Continuous
370
    -3
390
F
  0
LAYER
  5
6F
330
2
100
AcDbSymbolTableRecord
100
AcDbLayerTableRecord
  2
FORMAT
 70
     0
 62
     2
  6
Continuous
370
    -3
390
F
  0
LAYER
  5
70
330
2
100
AcDbSymbolTableRecord
100
AcDbLayerTableRecord
  2
외형선
 70
     0
 62
     4
  6
Continuous
370
    30
390
F
  0
LAYER
  5
71
330
2
100
AcDbSymbolTableRecord
100
AcDbLayerTableRecord
  2
숨은선
 70
     0
 62
     2
  6
HIDDEN
370
    15
390
F
  0
LAYER
  5
72
330
2
100
AcDbSymbolTableRecord
100
AcDbLayerTableRecord
  2
중심선
 70
     0
 62
     1
  6
CENTERX2
370
    -3
390
F
  0
LAYER
  5
73
330
2
100
AcDbSymbolTableRecord
100
AcDbLayerTableRecord
  2
파단선
 70
     0
 62
     4
  6
Continuous
370
    -3
390
F
  0
LAYER
  5
74
330
2
100
AcDbSymbolTableRecord
100
AcDbLayerTableRecord
  2
해칭선
 70
     0
 62
   100
  6
Continuous
370
    -3
390
F
  0
LAYER
  5
75
330
2
100
AcDbSymbolTableRecord
100
AcDbLayerTableRecord
  2
가는실선
 70
     0
 62
     4
  6
Continuous
370
    -3
390
F
  0
LAYER
  5
76
330
2
100
AcDbSymbolTableRecord
100
AcDbLayerTableRecord
  2
치수_보조선
 70
     0
 62
     4
  6
Continuous
370
    -3
390
F
  0
LAYER
  5
77
330
2
100
AcDbSymbolTableRecord
100
AcDbLayerTableRecord
  2
치수문자_일반주서
 70
     0
 62
     7
  6
Continuous
370
    15
390
F
  0
LAYER
  5
78
330
2
100
AcDbSymbolTableRecord
100
AcDbLayerTableRecord
  2
개별주서
 70
     0
 62
   100
  6
Continuous
370
    30
390
F
  0
LAYER
  5
79
330
2
100
AcDbSymbolTableRecord
100
AcDbLayerTableRecord
  2
중간선
 70
     0
 62
     2
  6
Continuous
370
    15
390
F
  0
LAYER
  5
7A
330
2
100
AcDbSymbolTableRecord
100
AcDbLayerTableRecord
  2
윤곽선
 70
     0
 62
     3
  6
Continuous
370
    40
390
F
  0
LAYER
  5
7B
330
2
100
AcDbSymbolTableRecord
100
AcDbLayerTableRecord
  2
중심마크
 70
     0
 62
   100
  6
Continuous
370
    30
390
F
  0
LAYER
  5
7C
330
2
100
AcDbSymbolTableRecord
100
AcDbLayerTableRecord
  2
가상선
 70
     0
 62
     4
  6
PHANTOM
370
    -3
390
F
  0
LAYER
  5
7D
330
2
100
AcDbSymbolTableRecord
100
AcDbLayerTableRecord
  2
특수지정선
 70
     0
 62
     5
  6
CENTERX2
370
    60
390
F
  0
LAYER
  5
7E
330
2
100
AcDbSymbolTableRecord
100
AcDbLayerTableRecord
  2
참조1
 70
     0
 62
    -4
  6
Continuous
370
    -3
390
F
  0
LAYER
  5
133
330
2
100
AcDbSymbolTableRecord
100
AcDbLayerTableRecord
  2
Defpoints
 70
     0
 62
     7
  6
Continuous
290
     0
370
    -3
390
F
  0
ENDTAB
  0
TABLE
  2
STYLE
  5
3
330
0
100
AcDbSymbolTable
 70
     2
  0
STYLE
  5
11
330
3
100
AcDbSymbolTableRecord
100
AcDbTextStyleTableRecord
  2
Standard
 70
     0
 40
0.0
 41
1.0
 50
0.0
 71
     0
 42
3.5
  3
txt
  4

  0
STYLE
  5
94
330
3
100
AcDbSymbolTableRecord
100
AcDbTextStyleTableRecord
  2
SLDTEXTSTYLE0
 70
     0
 40
0.0
 41
0.75
 50
0.0
 71
     0
 42
3.5
  3
TXT
  4

  0
ENDTAB
  0
TABLE
  2
VIEW
  5
6
330
0
100
AcDbSymbolTable
 70
     0
  0
ENDTAB
  0
TABLE
  2
UCS
  5
7
330
0
100
AcDbSymbolTable
 70
     0
  0
ENDTAB
  0
TABLE
  2
APPID
  5
9
330
0
100
AcDbSymbolTable
 70
     4
  0
APPID
  5
12
330
9
100
AcDbSymbolTableRecord
100
AcDbRegAppTableRecord
  2
ACAD
 70
     0
  0
APPID
  5
13F
330
9
100
AcDbSymbolTableRecord
100
AcDbRegAppTableRecord
  2
PE_URL
 70
     0
  0
APPID
  5
140
330
9
100
AcDbSymbolTableRecord
100
AcDbRegAppTableRecord
  2
ACAD_DSTYLE_DIMRADIAL_EXTENSION
 70
     0
  0
APPID
  5
141
330
9
100
AcDbSymbolTableRecord
100
AcDbRegAppTableRecord
  2
ENABLE_CUSTOM_SPLIT
 70
     0
  0
ENDTAB
  0
TABLE
  2
DIMSTYLE
  5
A
330
0
100
AcDbSymbolTable
 70
     3
100
AcDbDimStyleTable
  0
DIMSTYLE
105
27
330
A
100
AcDbSymbolTableRecord
100
AcDbDimStyleTableRecord
  2
ISO-25
 70
     0
 41
2.5
 42
0.625
 43
3.75
 44
1.25
 73
     0
 74
     0
 77
     1
 78
     8
140
2.5
141
2.5
143
0.03937007874016
147
0.625
171
     3
172
     1
178
     0
271
     2
272
     2
274
     3
278
    44
283
     0
284
     8
340
11
  0
DIMSTYLE
105
D3
102
{ACAD_REACTORS
330
178
330
187
330
22A
330
22D
102
}
330
A
100
AcDbSymbolTableRecord
100
AcDbDimStyleTableRecord
  2
SLDDIMSTYLE0
 70
     0
 41
3.302
 44
0.0
 45
0.000000001
 73
     0
 74
     0
 77
     1
 78
    12
 79
     3
140
3.5
147
0.875
172
     1
173
     1
178
     0
271
     2
272
     2
276
     2
284
    12
289
     0
340
94
  0
DIMSTYLE
105
EE
102
{ACAD_REACTORS
330
194
330
1A1
330
1B9
330
22E
330
22F
330
279
102
}
330
A
100
AcDbSymbolTableRecord
100
AcDbDimStyleTableRecord
  2
SLDDIMSTYLE1
 70
     0
 41
3.302
 44
0.0
 45
0.000000001
 73
     0
 74
     0
 77
     1
 78
    12
 79
     3
140
3.5
147
0.875
173
     1
178
     0
271
     2
272
     2
276
     2
284
    12
340
94
  0
ENDTAB
  0
TABLE
  2
BLOCK_RECORD
  5
1
330
0
100
AcDbSymbolTable
 70
    18
  0
BLOCK_RECORD
  5
1F
102
{ACAD_XDICTIONARY
360
274
102
}
330
1
100
AcDbSymbolTableRecord
100
AcDbBlockTableRecord
  2
*Model_Space
340
22
  0
BLOCK_RECORD
  5
1B
330
1
100
AcDbSymbolTableRecord
100
AcDbBlockTableRecord
  2
*Paper_Space
340
1E
  0
BLOCK_RECORD
  5
23
330
1
100
AcDbSymbolTableRecord
100
AcDbBlockTableRecord
  2
*Paper_Space0
340
26
  0
BLOCK_RECORD
  5
7F
330
1
100
AcDbSymbolTableRecord
100
AcDbBlockTableRecord
  2
블럭10
340
0
102
{BLKREFS
331
CB
102
}
  0
BLOCK_RECORD
  5
D4
330
1
100
AcDbSymbolTableRecord
100
AcDbBlockTableRecord
  2
_D
340
0
  0
BLOCK_RECORD
  5
E1
330
1
100
AcDbSymbolTableRecord
100
AcDbBlockTableRecord
  2
_D_1
340
0
  0
BLOCK_RECORD
  5
EF
330
1
100
AcDbSymbolTableRecord
100
AcDbBlockTableRecord
  2
_D_2
340
0
  0
BLOCK_RECORD
  5
F9
330
1
100
AcDbSymbolTableRecord
100
AcDbBlockTableRecord
  2
_D_3
340
0
  0
BLOCK_RECORD
  5
109
330
1
100
AcDbSymbolTableRecord
100
AcDbBlockTableRecord
  2
SW_DOWELSYMBOL_0
340
0
102
{BLKREFS
331
0
331
1AE
331
230
102
}
  0
BLOCK_RECORD
  5
1BC
330
1
100
AcDbSymbolTableRecord
100
AcDbBlockTableRecord
  2
*D8
340
0
  0
BLOCK_RECORD
  5
1CA
330
1
100
AcDbSymbolTableRecord
100
AcDbBlockTableRecord
  2
*D9
340
0
  0
BLOCK_RECORD
  5
1D6
330
1
100
AcDbSymbolTableRecord
100
AcDbBlockTableRecord
  2
*D10
340
0
  0
BLOCK_RECORD
  5
1E2
330
1
100
AcDbSymbolTableRecord
100
AcDbBlockTableRecord
  2
*D11
340
0
  0
BLOCK_RECORD
  5
1EE
330
1
100
AcDbSymbolTableRecord
100
AcDbBlockTableRecord
  2
*D12
340
0
  0
BLOCK_RECORD
  5
238
330
1
100
AcDbSymbolTableRecord
100
AcDbBlockTableRecord
  2
*D13
340
0
  0
BLOCK_RECORD
  5
244
330
1
100
AcDbSymbolTableRecord
100
AcDbBlockTableRecord
  2
*D14
340
0
  0
BLOCK_RECORD
  5
250
330
1
100
AcDbSymbolTableRecord
100
AcDbBlockTableRecord
  2
*D15
340
0
  0
BLOCK_RECORD
  5
25C
330
1
100
AcDbSymbolTableRecord
100
AcDbBlockTableRecord
  2
*D16
340
0
  0
BLOCK_RECORD
  5
268
330
1
100
AcDbSymbolTableRecord
100
AcDbBlockTableRecord
  2
*D17
340
0
  0
BLOCK_RECORD
  5
27C
330
1
100
AcDbSymbolTableRecord
100
AcDbBlockTableRecord
  2
*D18
340
0
  0
ENDTAB
  0
ENDSEC
  0
SECTION
  2
BLOCKS
  0
BLOCK
  5
20
330
1F
100
AcDbEntity
  8
0
100
AcDbBlockBegin
  2
*Model_Space
 70
     0
 10
0.0
 20
0.0
 30
0.0
  3
*Model_Space
  1

  0
ENDBLK
  5
21
330
1F
100
AcDbEntity
  8
0
100
AcDbBlockEnd
  0
BLOCK
  5
1C
330
1B
100
AcDbEntity
 67
     1
  8
0
100
AcDbBlockBegin
  2
*Paper_Space
 70
     0
 10
0.0
 20
0.0
 30
0.0
  3
*Paper_Space
  1

  0
ENDBLK
  5
1D
330
1B
100
AcDbEntity
 67
     1
  8
0
100
AcDbBlockEnd
  0
BLOCK
  5
24
330
23
100
AcDbEntity
  8
0
100
AcDbBlockBegin
  2
*Paper_Space0
 70
     0
 10
0.0
 20
0.0
 30
0.0
  3
*Paper_Space0
  1

  0
ENDBLK
  5
25
330
23
100
AcDbEntity
  8
0
100
AcDbBlockEnd
  0
BLOCK
  5
80
330
7F
100
AcDbEntity
  8
0
100
AcDbBlockBegin
  2
블럭10
 70
     2
 10
0.0
 20
0.0
 30
0.0
  3
블럭10
  1

  0
ELLIPSE
  5
82
330
7F
100
AcDbEntity
  8
중심선
100
AcDbEllipse
 10
20.54032771741204
 20
12.0471743016438
 30
0.0
 11
6.600054785286829
 21
-1.261213355974178E-13
 31
0.0
210
0.0
220
0.0
230
1.0
 40
0.636358354079598
 41
0.9219305317359503
 42
6.513795318482858
  0
ELLIPSE
  5
83
330
7F
100
AcDbEntity
  8
중심선
100
AcDbEllipse
 10
20.54032771746488
 20
12.04717430159265
 30
0.0
 11
3.960054785062283
 21
1.540847449632565E-10
 31
0.0
210
0.0
220
0.0
230
1.0
 40
0.3939339440162632
 41
1.131841032648279
 42
5.62031148352944
  0
LINE
  5
84
330
7F
100
AcDbEntity
  8
중심선
100
AcDbLine
 10
2.268634060543552
 20
16.24717430164393
 30
0.0
 11
5.714909304380834
 21
16.24717430164393
 31
0.0
  0
LINE
  5
85
330
7F
100
AcDbEntity
  8
중심선
100
AcDbLine
 10
5.245725140726316
 20
7.84717430164391
 30
0.0
 11
8.692000384563599
 21
7.84717430164391
 31
0.0
  0
LINE
  5
86
330
7F
100
AcDbEntity
  8
중심선
100
AcDbLine
 10
15.74043728645272
 20
16.24717430164393
 30
0.0
 11
8.692000384563599
 21
7.84717430164391
 31
0.0
  0
LINE
  5
87
330
7F
100
AcDbEntity
  8
중심선
100
AcDbLine
 10
0.1404042013395286
 20
13.71084872107135
 30
0.0
 11
3.58671253028996
 21
13.71088815037384
 31
0.0
  0
LINE
  5
88
330
7F
100
AcDbEntity
  8
중심선
100
AcDbLine
 10
2.750260043222114
 20
10.84717430164391
 30
0.0
 11
6.196535287059397
 21
10.84717430164391
 31
0.0
  0
LINE
  5
89
330
7F
100
AcDbEntity
  8
중심선
100
AcDbLine
 10
12.29416204261559
 20
16.24717430164393
 30
0.0
 11
5.245725140726316
 21
7.84717430164391
 31
0.0
  0
LINE
  5
8A
330
7F
100
AcDbEntity
  8
중심선
100
AcDbLine
 10
10.72767329541681
 20
16.24717430164393
 30
0.0
 11
6.196535287059397
 21
10.84717430164391
 31
0.0
  0
LINE
  5
8B
330
7F
100
AcDbEntity
  8
중심선
100
AcDbLine
 10
7.28139805157953
 20
16.24717430164393
 30
0.0
 11
2.750260043222114
 21
10.84717430164391
 31
0.0
  0
LINE
  5
8C
330
7F
100
AcDbEntity
  8
중심선
100
AcDbLine
 10
5.714909304380834
 20
16.24717430164393
 30
0.0
 11
3.58671253028996
 21
13.71088815037384
 31
0.0
  0
LINE
  5
8D
330
7F
100
AcDbEntity
  8
중심선
100
AcDbLine
 10
2.268634060543552
 20
16.24717430164393
 30
0.0
 11
0.1404042013395286
 21
13.71084872107135
 31
0.0
  0
LINE
  5
8E
330
7F
100
AcDbEntity
  8
중심선
100
AcDbLine
 10
7.28139805157953
 20
16.24717430164393
 30
0.0
 11
10.72767329541681
 21
16.24717430164393
 31
0.0
  0
LINE
  5
8F
330
7F
100
AcDbEntity
  8
중심선
100
AcDbLine
 10
12.29416204261559
 20
16.24717430164393
 30
0.0
 11
15.74043728645272
 21
16.24717430164393
 31
0.0
  0
LINE
  5
90
330
7F
100
AcDbEntity
  8
중심선
100
AcDbLine
 10
19.22036997980202
 20
11.08717430171403
 30
0.0
 11
23.66174974927406
 21
11.08717430171406
 31
0.0
  0
LINE
  5
91
330
7F
100
AcDbEntity
  8
중심선
100
AcDbLine
 10
19.22039502424796
 20
13.00717430171391
 30
0.0
 11
19.22036997980202
 21
11.08717430171403
 31
0.0
  0
LINE
  5
92
330
7F
100
AcDbEntity
  8
중심선
100
AcDbLine
 10
19.22039502424796
 20
13.00717430171391
 30
0.0
 11
26.96566020931264
 21
13.00717430171391
 31
0.0
  0
LINE
  5
93
330
7F
100
AcDbEntity
  8
중심선
100
AcDbLine
 10
22.22332737316547
 20
13.45928029700563
 30
0.0
 11
24.52862924686651
 21
15.39360700705356
 31
0.0
  0
ATTDEF
  5
95
330
7F
100
AcDbEntity
  8
FORMAT
 62
     2
100
AcDbText
 10
-16.11926103943555
 20
2.075366912832191
 30
0.0
 40
4.233333333333333
  1
SEME0114010E [ 4 FLUTE ]
 41
0.75
  7
SLDTEXTSTYLE0
 11
-16.11926103943555
 21
-0.0412997538344756
 31
0.0
100
AcDbAttributeDefinition
  3

  2
AUTOATTR0
 70
     0
 74
     1
  0
ENDBLK
  5
81
330
7F
100
AcDbEntity
  8
0
100
AcDbBlockEnd
  0
BLOCK
  5
D5
330
D4
100
AcDbEntity
  8
0
100
AcDbBlockBegin
  2
_D
 70
     0
 10
0.0
 20
0.0
 30
0.0
  3
_D
  1

  0
SOLID
  5
D7
330
D4
100
AcDbEntity
  8
치수문자_일반주서
100
AcDbTrace
 10
79.32487721999401
 20
7.000000000000012
 30
0.0
 11
79.832877219994
 21
10.30200000000001
 31
0.0
 12
78.81687721999401
 22
10.30200000000001
 32
0.0
 13
78.81687721999401
 23
10.30200000000001
 33
0.0
  0
SOLID
  5
D8
330
D4
100
AcDbEntity
  8
치수문자_일반주서
100
AcDbTrace
 10
79.32487721999401
 20
-7.00000000000001
 30
0.0
 11
78.81687721999401
 21
-10.30200000000001
 31
0.0
 12
79.832877219994
 22
-10.30200000000001
 32
0.0
 13
79.832877219994
 23
-10.30200000000001
 33
0.0
  0
LINE
  5
D9
330
D4
100
AcDbEntity
  8
치수문자_일반주서
100
AcDbLine
 10
90.22071006569615
 20
7.000000000000011
 30
0.0
 11
78.32487721999401
 21
7.000000000000012
 31
0.0
  0
LINE
  5
DA
330
D4
100
AcDbEntity
  8
치수문자_일반주서
100
AcDbLine
 10
90.2207100656961
 20
-7.000000000000011
 30
0.0
 11
78.32487721999401
 21
-7.00000000000001
 31
0.0
  0
LINE
  5
DB
330
D4
100
AcDbEntity
  8
치수문자_일반주서
100
AcDbLine
 10
79.32487721999401
 20
7.000000000000012
 30
0.0
 11
79.32487721999401
 21
13.35000000000001
 31
0.0
  0
LINE
  5
DC
330
D4
100
AcDbEntity
  8
치수문자_일반주서
100
AcDbLine
 10
79.32487721999401
 20
7.000000000000012
 30
0.0
 11
79.32487721999401
 21
-7.00000000000001
 31
0.0
  0
LINE
  5
DD
330
D4
100
AcDbEntity
  8
치수문자_일반주서
100
AcDbLine
 10
79.32487721999401
 20
-7.00000000000001
 30
0.0
 11
79.32487721999401
 21
-13.35000000000001
 31
0.0
  0
MTEXT
  5
DE
330
D4
100
AcDbEntity
  8
치수문자_일반주서
100
AcDbMText
 10
74.81314013079216
 20
-5.225330125540515
 30
0.0
 40
3.5
 41
0.0
 71
     1
 72
     1
  1
%%c
  7
SLDTEXTSTYLE0
 11
-7.044195017643634E-15
 21
1.0
 31
0.0
 73
     1
 44
1.0
  0
MTEXT
  5
DF
330
D4
100
AcDbEntity
  8
치수문자_일반주서
100
AcDbMText
 10
74.75966795413227
 20
0.0531072728335651
 30
0.0
 40
3.5
 41
0.0
 71
     1
 72
     1
  1
14
  7
SLDTEXTSTYLE0
 11
-7.044195017643634E-15
 21
1.0
 31
0.0
 73
     1
 44
1.0
  0
ENDBLK
  5
D6
330
D4
100
AcDbEntity
  8
0
100
AcDbBlockEnd
  0
BLOCK
  5
E2
330
E1
100
AcDbEntity
  8
0
100
AcDbBlockBegin
  2
_D_1
 70
     0
 10
0.0
 20
0.0
 30
0.0
  3
_D_1
  1

  0
SOLID
  5
E4
330
E1
100
AcDbEntity
  8
치수문자_일반주서
100
AcDbTrace
 10
-52.57512886940358
 20
8.000000000000007
 30
0.0
 11
-52.06712886940358
 21
11.30200000000001
 31
0.0
 12
-53.08312886940358
 22
11.30200000000001
 32
0.0
 13
-53.08312886940358
 23
11.30200000000001
 33
0.0
  0
SOLID
  5
E5
330
E1
100
AcDbEntity
  8
치수문자_일반주서
100
AcDbTrace
 10
-52.57512886940358
 20
-8.000000000000007
 30
0.0
 11
-53.08312886940358
 21
-11.30200000000001
 31
0.0
 12
-52.06712886940358
 22
-11.30200000000001
 32
0.0
 13
-52.06712886940358
 23
-11.30200000000001
 33
0.0
  0
LINE
  5
E6
330
E1
100
AcDbEntity
  8
치수문자_일반주서
100
AcDbLine
 10
-40.17512886940358
 20
8.000000000000007
 30
0.0
 11
-53.57512886940358
 21
8.000000000000007
 31
0.0
  0
LINE
  5
E7
330
E1
100
AcDbEntity
  8
치수문자_일반주서
100
AcDbLine
 10
-40.17512886940358
 20
-8.000000000000007
 30
0.0
 11
-53.57512886940358
 21
-8.000000000000007
 31
0.0
  0
LINE
  5
E8
330
E1
100
AcDbEntity
  8
치수문자_일반주서
100
AcDbLine
 10
-52.57512886940358
 20
8.000000000000007
 30
0.0
 11
-52.57512886940358
 21
14.35000000000001
 31
0.0
  0
LINE
  5
E9
330
E1
100
AcDbEntity
  8
치수문자_일반주서
100
AcDbLine
 10
-52.57512886940358
 20
8.000000000000007
 30
0.0
 11
-52.57512886940358
 21
-8.000000000000007
 31
0.0
  0
LINE
  5
EA
330
E1
100
AcDbEntity
  8
치수문자_일반주서
100
AcDbLine
 10
-52.57512886940358
 20
-8.000000000000007
 30
0.0
 11
-52.57512886940358
 21
-14.35000000000001
 31
0.0
  0
MTEXT
  5
EB
330
E1
100
AcDbEntity
  8
치수문자_일반주서
100
AcDbMText
 10
-57.08686595860541
 20
-5.22533012554053
 30
0.0
 40
3.5
 41
0.0
 71
     1
 72
     1
  1
%%c
  7
SLDTEXTSTYLE0
 11
-7.044195017643634E-15
 21
1.0
 31
0.0
 73
     1
 44
1.0
  0
MTEXT
  5
EC
330
E1
100
AcDbEntity
  8
치수문자_일반주서
100
AcDbMText
 10
-57.1403381352653
 20
0.0531072728335513
 30
0.0
 40
3.5
 41
0.0
 71
     1
 72
     1
  1
16
  7
SLDTEXTSTYLE0
 11
-7.044195017643634E-15
 21
1.0
 31
0.0
 73
     1
 44
1.0
  0
ENDBLK
  5
E3
330
E1
100
AcDbEntity
  8
0
100
AcDbBlockEnd
  0
BLOCK
  5
F0
330
EF
100
AcDbEntity
  8
0
100
AcDbBlockBegin
  2
_D_2
 70
     0
 10
0.0
 20
0.0
 30
0.0
  3
_D_2
  1

  0
SOLID
  5
F2
330
EF
100
AcDbEntity
  8
치수문자_일반주서
100
AcDbTrace
 10
109.2248711305964
 20
23.41234547543341
 30
0.0
 11
105.9228711305964
 21
23.9203454754334
 31
0.0
 12
105.9228711305964
 22
22.9043454754334
 32
0.0
 13
105.9228711305964
 23
22.9043454754334
 33
0.0
  0
SOLID
  5
F3
330
EF
100
AcDbEntity
  8
치수문자_일반주서
100
AcDbTrace
 10
74.22487113059634
 20
23.41234547543331
 30
0.0
 11
77.52687113059633
 21
22.90434547543332
 31
0.0
 12
77.52687113059633
 22
23.92034547543332
 32
0.0
 13
77.52687113059633
 23
23.92034547543332
 33
0.0
  0
LINE
  5
F4
330
EF
100
AcDbEntity
  8
치수문자_일반주서
100
AcDbLine
 10
109.2248711305965
 20
6.959175021190539
 30
0.0
 11
109.2248711305964
 21
24.41234547543341
 31
0.0
  0
LINE
  5
F5
330
EF
100
AcDbEntity
  8
치수문자_일반주서
100
AcDbLine
 10
74.2248711305964
 20
7.900122867766479
 30
0.0
 11
74.22487113059634
 21
24.41234547543331
 31
0.0
  0
LINE
  5
F6
330
EF
100
AcDbEntity
  8
치수문자_일반주서
100
AcDbLine
 10
109.2248711305964
 20
23.41234547543341
 30
0.0
 11
74.22487113059634
 21
23.41234547543331
 31
0.0
  0
MTEXT
  5
F7
330
EF
100
AcDbEntity
  8
치수문자_일반주서
100
AcDbMText
 10
89.13875993707357
 20
27.92408239001226
 30
0.0
 40
3.5
 41
0.0
 71
     1
 72
     1
  1
35
  7
SLDTEXTSTYLE0
 73
     1
 44
1.0
  0
ENDBLK
  5
F1
330
EF
100
AcDbEntity
  8
0
100
AcDbBlockEnd
  0
BLOCK
  5
FA
330
F9
100
AcDbEntity
  8
0
100
AcDbBlockBegin
  2
_D_3
 70
     0
 10
0.0
 20
0.0
 30
0.0
  3
_D_3
  1

  0
SOLID
  5
FC
330
F9
100
AcDbEntity
  8
치수문자_일반주서
100
AcDbTrace
 10
109.2248711305965
 20
30.82870816580033
 30
0.0
 11
105.9228711305965
 21
31.33670816580033
 31
0.0
 12
105.9228711305965
 22
30.32070816580033
 32
0.0
 13
105.9228711305965
 23
30.32070816580033
 33
0.0
  0
SOLID
  5
FD
330
F9
100
AcDbEntity
  8
치수문자_일반주서
100
AcDbTrace
 10
-40.77512886940357
 20
30.82870816580033
 30
0.0
 11
-37.47312886940357
 21
30.32070816580033
 31
0.0
 12
-37.47312886940357
 22
31.33670816580033
 32
0.0
 13
-37.47312886940357
 23
31.33670816580033
 33
0.0
  0
LINE
  5
FE
330
F9
100
AcDbEntity
  8
치수문자_일반주서
100
AcDbLine
 10
109.2248711305965
 20
6.959175021190539
 30
0.0
 11
109.2248711305965
 21
31.82870816580033
 31
0.0
  0
LINE
  5
FF
330
F9
100
AcDbEntity
  8
치수문자_일반주서
100
AcDbLine
 10
-40.77512886940357
 20
7.400000000000005
 30
0.0
 11
-40.77512886940357
 21
31.82870816580033
 31
0.0
  0
LINE
  5
100
330
F9
100
AcDbEntity
  8
치수문자_일반주서
100
AcDbLine
 10
109.2248711305965
 20
30.82870816580033
 30
0.0
 11
-40.77512886940357
 21
30.82870816580033
 31
0.0
  0
MTEXT
  5
101
330
F9
100
AcDbEntity
  8
치수문자_일반주서
100
AcDbMText
 10
30.34570445672754
 20
35.34044508037922
 30
0.0
 40
3.5
 41
0.0
 71
     1
 72
     1
  1
150
  7
SLDTEXTSTYLE0
 73
     1
 44
1.0
  0
ENDBLK
  5
FB
330
F9
100
AcDbEntity
  8
0
100
AcDbBlockEnd
  0
BLOCK
  5
10A
330
109
100
AcDbEntity
  8
0
100
AcDbBlockBegin
  2
SW_DOWELSYMBOL_0
 70
     0
 10
0.0
 20
0.0
 30
0.0
  3
SW_DOWELSYMBOL_0
  1

  0
CIRCLE
  5
10C
330
109
100
AcDbEntity
  8
해칭선
 62
     0
100
AcDbCircle
 10
0.0
 20
0.0
 30
0.0
 40
3.000000000000008
  0
HATCH
  5
10D
330
109
100
AcDbEntity
  8
0
  6
Continuous
 62
     0
370
     0
100
AcDbHatch
 10
0.0
 20
0.0
 30
0.0
210
0.0
220
0.0
230
1.0
  2
SOLID
 70
     1
 71
     0
 91
        1
 92
        0
 93
        3
 72
     2
 10
0.0
 20
0.0
 40
3.000000000000008
 50
0.0
 51
90.0
 73
     1
 72
     1
 10
0.0
 20
3.000000000000008
 11
0.0
 21
0.0
 72
     1
 10
0.0
 20
0.0
 11
3.000000000000003
 21
0.0
 97
        0
 75
     0
 76
     1
 98
        1
 10
0.0
 20
0.0
  0
HATCH
  5
10E
330
109
100
AcDbEntity
  8
0
  6
Continuous
 62
     0
370
     0
100
AcDbHatch
 10
0.0
 20
0.0
 30
0.0
210
0.0
220
0.0
230
1.0
  2
SOLID
 70
     1
 71
     0
 91
        1
 92
        0
 93
        3
 72
     2
 10
0.0
 20
0.0
 40
3.000000000000008
 50
180.0
 51
270.0000000000008
 73
     1
 72
     1
 10
0.0
 20
-3.000000000000008
 11
0.0
 21
0.0
 72
     1
 10
0.0
 20
0.0
 11
-3.000000000000003
 21
0.0
 97
        0
 75
     0
 76
     1
 98
        1
 10
0.0
 20
0.0
  0
ENDBLK
  5
10B
330
109
100
AcDbEntity
  8
0
100
AcDbBlockEnd
  0
BLOCK
  5
1BD
330
1BC
100
AcDbEntity
  8
0
100
AcDbBlockBegin
  2
*D8
 70
     1
 10
0.0
 20
0.0
 30
0.0
  3
*D8
  1

  0
LINE
  5
1BE
330
1BC
100
AcDbEntity
  8
치수문자_일반주서
 62
     0
370
    -2
100
AcDbLine
 10
167.9456532008044
 20
20.57848413511645
 30
0.0
 11
183.2684545702557
 21
0.0000000000008304
 31
0.0
  0
MTEXT
  5
1BF
330
1BC
100
AcDbEntity
  8
치수문자_일반주서
 62
     0
100
AcDbMText
 10
182.6303893583602
 20
5.252241126212465
 30
0.0
 40
3.5
 41
0.0
 71
     5
 72
     1
  1
\A1;R0.5
  7
SLDTEXTSTYLE0
 11
0.5972259865345514
 21
-0.8020730147610203
 31
0.0
 73
     1
 44
1.0
  0
SOLID
  5
1C0
330
1BC
100
AcDbEntity
  8
치수문자_일반주서
 62
     0
100
AcDbTrace
 10
168.3870607165946
 20
20.9071575030393
 30
0.0
 11
167.5042456850143
 21
20.2498107671936
 31
0.0
 12
165.9736129932674
 22
23.22692922985734
 32
0.0
 13
165.9736129932674
 23
23.22692922985734
 33
0.0
  0
LINE
  5
1C1
330
1BC
100
AcDbEntity
  8
치수문자_일반주서
 62
     0
100
AcDbLine
 10
165.5850000000001
 20
23.62796573723786
 30
0.0
 11
165.7650000000001
 21
23.62796573723786
 31
0.0
  0
LINE
  5
1C2
330
1BC
100
AcDbEntity
  8
치수문자_일반주서
 62
     0
100
AcDbLine
 10
165.6750000000001
 20
23.53796573723786
 30
0.0
 11
165.6750000000001
 21
23.71796573723786
 31
0.0
  0
POINT
  5
1C3
330
1BC
100
AcDbEntity
  8
Defpoints
 62
     0
100
AcDbPoint
 10
165.9736129932674
 20
23.22692922985734
 30
0.0
  0
POINT
  5
1C4
330
1BC
100
AcDbEntity
  8
Defpoints
 62
     0
100
AcDbPoint
 10
165.6750000000001
 20
23.62796573723786
 30
0.0
  0
ENDBLK
  5
1C5
330
1BC
100
AcDbEntity
  8
0
100
AcDbBlockEnd
  0
BLOCK
  5
1CB
330
1CA
100
AcDbEntity
  8
0
100
AcDbBlockBegin
  2
*D9
 70
     1
 10
0.0
 20
0.0
 30
0.0
  3
*D9
  1

  0
LINE
  5
1CD
330
1CA
100
AcDbEntity
  8
치수문자_일반주서
 62
     0
370
    -2
100
AcDbLine
 10
152.5025507045026
 20
37.12796573723787
 30
0.0
 11
188.1708389350997
 21
37.12796573723802
 31
0.0
  0
LINE
  5
1CE
330
1CA
100
AcDbEntity
  8
치수문자_일반주서
 62
     0
370
    -2
100
AcDbLine
 10
152.5025507045026
 20
23.12796573723787
 30
0.0
 11
188.1708389350997
 21
23.12796573723802
 31
0.0
  0
LINE
  5
1CF
330
1CA
100
AcDbEntity
  8
치수문자_일반주서
 62
     0
370
    -2
100
AcDbLine
 10
188.1708389350997
 20
33.82596573723802
 30
0.0
 11
188.1708389350997
 21
26.42996573723802
 31
0.0
  0
SOLID
  5
1D0
330
1CA
100
AcDbEntity
  8
치수문자_일반주서
 62
     0
100
AcDbTrace
 10
188.721172268433
 20
33.82596573723802
 30
0.0
 11
187.6205056017664
 21
33.82596573723802
 31
0.0
 12
188.1708389350997
 22
37.12796573723802
 32
0.0
 13
188.1708389350997
 23
37.12796573723802
 33
0.0
  0
SOLID
  5
1D1
330
1CA
100
AcDbEntity
  8
치수문자_일반주서
 62
     0
100
AcDbTrace
 10
187.6205056017664
 20
26.42996573723801
 30
0.0
 11
188.7211722684331
 21
26.42996573723802
 31
0.0
 12
188.1708389350997
 22
23.12796573723802
 32
0.0
 13
188.1708389350997
 23
23.12796573723802
 33
0.0
  0
MTEXT
  5
1D2
330
1CA
100
AcDbEntity
  8
치수문자_일반주서
 62
     0
100
AcDbMText
 10
183.7958389350997
 20
28.60533320174559
 30
0.0
 40
3.5
 41
0.0
 71
     2
 72
     1
  1
\A1;%%c14
  7
SLDTEXTSTYLE0
 11
-4.060244204343429E-15
 21
1.0
 31
0.0
 73
     1
 44
1.0
  0
POINT
  5
1D3
330
1CA
100
AcDbEntity
  8
Defpoints
 62
     0
100
AcDbPoint
 10
148.1708389350998
 20
37.12796573723787
 30
0.0
  0
POINT
  5
1D4
330
1CA
100
AcDbEntity
  8
Defpoints
 62
     0
100
AcDbPoint
 10
148.1708389350997
 20
23.12796573723787
 30
0.0
  0
POINT
  5
1D5
330
1CA
100
AcDbEntity
  8
Defpoints
 62
     0
100
AcDbPoint
 10
188.1708389350997
 20
23.12796573723802
 30
0.0
  0
ENDBLK
  5
1CC
330
1CA
100
AcDbEntity
  8
0
100
AcDbBlockEnd
  0
BLOCK
  5
1D7
330
1D6
100
AcDbEntity
  8
0
100
AcDbBlockBegin
  2
*D10
 70
     1
 10
0.0
 20
0.0
 30
0.0
  3
*D10
  1

  0
LINE
  5
1D9
330
1D6
100
AcDbEntity
  8
치수문자_일반주서
 62
     0
370
    -2
100
AcDbLine
 10
17.71250000000005
 20
38.12796573723788
 30
0.0
 11
4.375000000000001
 21
38.12796573723783
 31
0.0
  0
LINE
  5
1DA
330
1D6
100
AcDbEntity
  8
치수문자_일반주서
 62
     0
370
    -2
100
AcDbLine
 10
17.71250000000005
 20
22.12796573723787
 30
0.0
 11
4.375000000000057
 21
22.12796573723782
 31
0.0
  0
LINE
  5
1DB
330
1D6
100
AcDbEntity
  8
치수문자_일반주서
 62
     0
370
    -2
100
AcDbLine
 10
4.375000000000012
 20
34.82596573723783
 30
0.0
 11
4.375000000000045
 21
25.42996573723781
 31
0.0
  0
SOLID
  5
1DC
330
1D6
100
AcDbEntity
  8
치수문자_일반주서
 62
     0
100
AcDbTrace
 10
4.925333333333346
 20
34.82596573723783
 30
0.0
 11
3.824666666666679
 21
34.82596573723783
 31
0.0
 12
4.375000000000001
 22
38.12796573723783
 32
0.0
 13
4.375000000000001
 23
38.12796573723783
 33
0.0
  0
SOLID
  5
1DD
330
1D6
100
AcDbEntity
  8
치수문자_일반주서
 62
     0
100
AcDbTrace
 10
3.824666666666712
 20
25.42996573723781
 30
0.0
 11
4.925333333333379
 21
25.42996573723782
 31
0.0
 12
4.375000000000057
 22
22.12796573723782
 32
0.0
 13
4.375000000000057
 23
22.12796573723782
 33
0.0
  0
MTEXT
  5
1DE
330
1D6
100
AcDbEntity
  8
치수문자_일반주서
 62
     0
100
AcDbMText
 10
0.0000000000000284
 20
30.12796573723786
 30
0.0
 40
3.5
 41
0.0
 71
     2
 72
     1
  1
\A1;%%c16
  7
SLDTEXTSTYLE0
 11
-3.497202527569240E-15
 21
1.0
 31
0.0
 73
     1
 44
1.0
  0
POINT
  5
1DF
330
1D6
100
AcDbEntity
  8
Defpoints
 62
     0
100
AcDbPoint
 10
17.77500000000005
 20
38.12796573723788
 30
0.0
  0
POINT
  5
1E0
330
1D6
100
AcDbEntity
  8
Defpoints
 62
     0
100
AcDbPoint
 10
17.77500000000005
 20
22.12796573723787
 30
0.0
  0
POINT
  5
1E1
330
1D6
100
AcDbEntity
  8
Defpoints
 62
     0
100
AcDbPoint
 10
4.375000000000057
 20
22.12796573723782
 30
0.0
  0
ENDBLK
  5
1D8
330
1D6
100
AcDbEntity
  8
0
100
AcDbBlockEnd
  0
BLOCK
  5
1E3
330
1E2
100
AcDbEntity
  8
0
100
AcDbBlockBegin
  2
*D11
 70
     1
 10
0.0
 20
0.0
 30
0.0
  3
*D11
  1

  0
LINE
  5
1E5
330
1E2
100
AcDbEntity
  8
치수문자_일반주서
 62
     0
370
    -2
100
AcDbLine
 10
166.1750000000001
 20
36.65472398333401
 30
0.0
 11
166.1750000000001
 21
54.04539443757682
 31
0.0
  0
LINE
  5
1E6
330
1E2
100
AcDbEntity
  8
치수문자_일반주서
 62
     0
370
    -2
100
AcDbLine
 10
131.175
 20
37.09058860500435
 30
0.0
 11
131.175
 21
54.04539443757682
 31
0.0
  0
LINE
  5
1E7
330
1E2
100
AcDbEntity
  8
치수문자_일반주서
 62
     0
370
    -2
100
AcDbLine
 10
162.8730000000001
 20
54.04539443757682
 30
0.0
 11
134.477
 21
54.04539443757682
 31
0.0
  0
SOLID
  5
1E8
330
1E2
100
AcDbEntity
  8
치수문자_일반주서
 62
     0
100
AcDbTrace
 10
162.8730000000001
 20
53.49506110424348
 30
0.0
 11
162.8730000000001
 21
54.59572777091015
 31
0.0
 12
166.1750000000001
 22
54.04539443757682
 32
0.0
 13
166.1750000000001
 23
54.04539443757682
 33
0.0
  0
SOLID
  5
1E9
330
1E2
100
AcDbEntity
  8
치수문자_일반주서
 62
     0
100
AcDbTrace
 10
134.477
 20
54.59572777091015
 30
0.0
 11
134.477
 21
53.49506110424348
 31
0.0
 12
131.175
 22
54.04539443757682
 32
0.0
 13
131.175
 23
54.04539443757682
 33
0.0
  0
MTEXT
  5
1EA
330
1E2
100
AcDbEntity
  8
치수문자_일반주서
 62
     0
100
AcDbMText
 10
148.675
 20
58.42039443757682
 30
0.0
 40
3.5
 41
0.0
 71
     2
 72
     1
  1
\A1;35
  7
SLDTEXTSTYLE0
 73
     1
 44
1.0
  0
POINT
  5
1EB
330
1E2
100
AcDbEntity
  8
Defpoints
 62
     0
100
AcDbPoint
 10
166.1750000000001
 20
36.59222398333401
 30
0.0
  0
POINT
  5
1EC
330
1E2
100
AcDbEntity
  8
Defpoints
 62
     0
100
AcDbPoint
 10
131.175
 20
37.02808860500435
 30
0.0
  0
POINT
  5
1ED
330
1E2
100
AcDbEntity
  8
Defpoints
 62
     0
100
AcDbPoint
 10
131.175
 20
54.04539443757682
 30
0.0
  0
ENDBLK
  5
1E4
330
1E2
100
AcDbEntity
  8
0
100
AcDbBlockEnd
  0
BLOCK
  5
1EF
330
1EE
100
AcDbEntity
  8
0
100
AcDbBlockBegin
  2
*D12
 70
     1
 10
0.0
 20
0.0
 30
0.0
  3
*D12
  1

  0
LINE
  5
1F1
330
1EE
100
AcDbEntity
  8
치수문자_일반주서
 62
     0
370
    -2
100
AcDbLine
 10
166.1750000000001
 20
36.65472398333401
 30
0.0
 11
166.1750000000001
 21
61.4617571279438
 31
0.0
  0
LINE
  5
1F2
330
1EE
100
AcDbEntity
  8
치수문자_일반주서
 62
     0
370
    -2
100
AcDbLine
 10
16.17500000000005
 20
36.59046573723788
 30
0.0
 11
16.17500000000005
 21
61.4617571279438
 31
0.0
  0
LINE
  5
1F3
330
1EE
100
AcDbEntity
  8
치수문자_일반주서
 62
     0
370
    -2
100
AcDbLine
 10
162.8730000000001
 20
61.4617571279438
 30
0.0
 11
19.47700000000005
 21
61.4617571279438
 31
0.0
  0
SOLID
  5
1F4
330
1EE
100
AcDbEntity
  8
치수문자_일반주서
 62
     0
100
AcDbTrace
 10
162.8730000000001
 20
60.91142379461046
 30
0.0
 11
162.8730000000001
 21
62.01209046127713
 31
0.0
 12
166.1750000000001
 22
61.4617571279438
 32
0.0
 13
166.1750000000001
 23
61.4617571279438
 33
0.0
  0
SOLID
  5
1F5
330
1EE
100
AcDbEntity
  8
치수문자_일반주서
 62
     0
100
AcDbTrace
 10
19.47700000000005
 20
62.01209046127713
 30
0.0
 11
19.47700000000005
 21
60.91142379461046
 31
0.0
 12
16.17500000000005
 22
61.4617571279438
 32
0.0
 13
16.17500000000005
 23
61.4617571279438
 33
0.0
  0
MTEXT
  5
1F6
330
1EE
100
AcDbEntity
  8
치수문자_일반주서
 62
     0
100
AcDbMText
 10
91.17500000000007
 20
65.8367571279438
 30
0.0
 40
3.5
 41
0.0
 71
     2
 72
     1
  1
\A1;150
  7
SLDTEXTSTYLE0
 73
     1
 44
1.0
  0
POINT
  5
1F7
330
1EE
100
AcDbEntity
  8
Defpoints
 62
     0
100
AcDbPoint
 10
166.1750000000001
 20
36.59222398333401
 30
0.0
  0
POINT
  5
1F8
330
1EE
100
AcDbEntity
  8
Defpoints
 62
     0
100
AcDbPoint
 10
16.17500000000005
 20
36.52796573723788
 30
0.0
  0
POINT
  5
1F9
330
1EE
100
AcDbEntity
  8
Defpoints
 62
     0
100
AcDbPoint
 10
16.17500000000005
 20
61.4617571279438
 30
0.0
  0
ENDBLK
  5
1F0
330
1EE
100
AcDbEntity
  8
0
100
AcDbBlockEnd
  0
BLOCK
  5
239
330
238
100
AcDbEntity
  8
0
100
AcDbBlockBegin
  2
*D13
 70
     1
 10
0.0
 20
0.0
 30
0.0
  3
*D13
  1

  0
LINE
  5
23B
330
238
100
AcDbEntity
  8
치수문자_일반주서
 62
     0
370
    -2
100
AcDbLine
 10
23.32755070450253
 20
7.0
 30
0.0
 11
58.99583893509961
 21
7.000000000000149
 31
0.0
  0
LINE
  5
23C
330
238
100
AcDbEntity
  8
치수문자_일반주서
 62
     0
370
    -2
100
AcDbLine
 10
23.32755070450253
 20
-7.0
 30
0.0
 11
58.99583893509966
 21
-6.999999999999851
 31
0.0
  0
LINE
  5
23D
330
238
100
AcDbEntity
  8
치수문자_일반주서
 62
     0
370
    -2
100
AcDbLine
 10
58.99583893509963
 20
3.69800000000015
 30
0.0
 11
58.99583893509965
 21
-3.697999999999851
 31
0.0
  0
SOLID
  5
23E
330
238
100
AcDbEntity
  8
치수문자_일반주서
 62
     0
100
AcDbTrace
 10
59.54617226843296
 20
3.698000000000151
 30
0.0
 11
58.44550560176629
 21
3.698000000000148
 31
0.0
 12
58.99583893509961
 22
7.000000000000149
 32
0.0
 13
58.99583893509961
 23
7.000000000000149
 33
0.0
  0
SOLID
  5
23F
330
238
100
AcDbEntity
  8
치수문자_일반주서
 62
     0
100
AcDbTrace
 10
58.44550560176631
 20
-3.697999999999853
 30
0.0
 11
59.54617226843298
 21
-3.697999999999849
 31
0.0
 12
58.99583893509966
 22
-6.999999999999851
 32
0.0
 13
58.99583893509966
 23
-6.999999999999851
 33
0.0
  0
MTEXT
  5
240
330
238
100
AcDbEntity
  8
치수문자_일반주서
 62
     0
100
AcDbMText
 10
54.62083893509964
 20
-1.522632535492279
 30
0.0
 40
3.5
 41
0.0
 71
     2
 72
     1
  1
\A1;%%c14
  7
SLDTEXTSTYLE0
 11
-3.552713678800501E-15
 21
1.0
 31
0.0
 73
     1
 44
1.0
  0
POINT
  5
241
330
238
100
AcDbEntity
  8
Defpoints
 62
     0
100
AcDbPoint
 10
18.99583893509973
 20
7.0
 30
0.0
  0
POINT
  5
242
330
238
100
AcDbEntity
  8
Defpoints
 62
     0
100
AcDbPoint
 10
18.99583893509967
 20
-7.0
 30
0.0
  0
POINT
  5
243
330
238
100
AcDbEntity
  8
Defpoints
 62
     0
100
AcDbPoint
 10
58.99583893509966
 20
-6.999999999999851
 30
0.0
  0
ENDBLK
  5
23A
330
238
100
AcDbEntity
  8
0
100
AcDbBlockEnd
  0
BLOCK
  5
245
330
244
100
AcDbEntity
  8
0
100
AcDbBlockBegin
  2
*D14
 70
     1
 10
0.0
 20
0.0
 30
0.0
  3
*D14
  1

  0
LINE
  5
247
330
244
100
AcDbEntity
  8
치수문자_일반주서
 62
     0
370
    -2
100
AcDbLine
 10
-111.4625
 20
8.000000000000007
 30
0.0
 11
-124.8
 21
7.999999999999957
 31
0.0
  0
LINE
  5
248
330
244
100
AcDbEntity
  8
치수문자_일반주서
 62
     0
370
    -2
100
AcDbLine
 10
-111.4625
 20
-8.000000000000007
 30
0.0
 11
-124.8
 21
-8.000000000000057
 31
0.0
  0
LINE
  5
249
330
244
100
AcDbEntity
  8
치수문자_일반주서
 62
     0
370
    -2
100
AcDbLine
 10
-124.8
 20
4.697999999999958
 30
0.0
 11
-124.8
 21
-4.698000000000057
 31
0.0
  0
SOLID
  5
24A
330
244
100
AcDbEntity
  8
치수문자_일반주서
 62
     0
100
AcDbTrace
 10
-124.2496666666667
 20
4.69799999999996
 30
0.0
 11
-125.3503333333334
 21
4.697999999999956
 31
0.0
 12
-124.8
 22
7.999999999999957
 32
0.0
 13
-124.8
 23
7.999999999999957
 33
0.0
  0
SOLID
  5
24B
330
244
100
AcDbEntity
  8
치수문자_일반주서
 62
     0
100
AcDbTrace
 10
-125.3503333333333
 20
-4.698000000000059
 30
0.0
 11
-124.2496666666667
 21
-4.698000000000055
 31
0.0
 12
-124.8
 22
-8.000000000000057
 32
0.0
 13
-124.8
 23
-8.000000000000057
 33
0.0
  0
MTEXT
  5
24C
330
244
100
AcDbEntity
  8
치수문자_일반주서
 62
     0
100
AcDbMText
 10
-129.175
 20
-0.0000000000000083
 30
0.0
 40
3.5
 41
0.0
 71
     2
 72
     1
  1
\A1;%%c16
  7
SLDTEXTSTYLE0
 11
-3.552713678800498E-15
 21
1.0
 31
0.0
 73
     1
 44
1.0
  0
POINT
  5
24D
330
244
100
AcDbEntity
  8
Defpoints
 62
     0
100
AcDbPoint
 10
-111.4
 20
8.000000000000007
 30
0.0
  0
POINT
  5
24E
330
244
100
AcDbEntity
  8
Defpoints
 62
     0
100
AcDbPoint
 10
-111.4
 20
-8.000000000000007
 30
0.0
  0
POINT
  5
24F
330
244
100
AcDbEntity
  8
Defpoints
 62
     0
100
AcDbPoint
 10
-124.8
 20
-8.000000000000057
 30
0.0
  0
ENDBLK
  5
246
330
244
100
AcDbEntity
  8
0
100
AcDbBlockEnd
  0
BLOCK
  5
251
330
250
100
AcDbEntity
  8
0
100
AcDbBlockBegin
  2
*D15
 70
     1
 10
0.0
 20
0.0
 30
0.0
  3
*D15
  1

  0
LINE
  5
253
330
250
100
AcDbEntity
  8
치수문자_일반주서
 62
     0
370
    -2
100
AcDbLine
 10
37.0
 20
6.526758246096136
 30
0.0
 11
37.0
 21
23.91742870033895
 31
0.0
  0
LINE
  5
254
330
250
100
AcDbEntity
  8
치수문자_일반주서
 62
     0
370
    -2
100
AcDbLine
 10
1.999999999999972
 20
6.962622867766477
 30
0.0
 11
1.999999999999972
 21
23.91742870033895
 31
0.0
  0
LINE
  5
255
330
250
100
AcDbEntity
  8
치수문자_일반주서
 62
     0
370
    -2
100
AcDbLine
 10
33.698
 20
23.91742870033895
 30
0.0
 11
5.301999999999971
 21
23.91742870033895
 31
0.0
  0
SOLID
  5
256
330
250
100
AcDbEntity
  8
치수문자_일반주서
 62
     0
100
AcDbTrace
 10
33.698
 20
23.36709536700561
 30
0.0
 11
33.698
 21
24.46776203367228
 31
0.0
 12
37.0
 22
23.91742870033895
 32
0.0
 13
37.0
 23
23.91742870033895
 33
0.0
  0
SOLID
  5
257
330
250
100
AcDbEntity
  8
치수문자_일반주서
 62
     0
100
AcDbTrace
 10
5.301999999999971
 20
24.46776203367228
 30
0.0
 11
5.301999999999971
 21
23.36709536700561
 31
0.0
 12
1.999999999999972
 22
23.91742870033895
 32
0.0
 13
1.999999999999972
 23
23.91742870033895
 33
0.0
  0
MTEXT
  5
258
330
250
100
AcDbEntity
  8
치수문자_일반주서
 62
     0
100
AcDbMText
 10
19.49999999999997
 20
28.29242870033895
 30
0.0
 40
3.5
 41
0.0
 71
     2
 72
     1
  1
\A1;35
  7
SLDTEXTSTYLE0
 73
     1
 44
1.0
  0
POINT
  5
259
330
250
100
AcDbEntity
  8
Defpoints
 62
     0
100
AcDbPoint
 10
37.0
 20
6.464258246096136
 30
0.0
  0
POINT
  5
25A
330
250
100
AcDbEntity
  8
Defpoints
 62
     0
100
AcDbPoint
 10
1.999999999999972
 20
6.900122867766477
 30
0.0
  0
POINT
  5
25B
330
250
100
AcDbEntity
  8
Defpoints
 62
     0
100
AcDbPoint
 10
1.999999999999972
 20
23.91742870033895
 30
0.0
  0
ENDBLK
  5
252
330
250
100
AcDbEntity
  8
0
100
AcDbBlockEnd
  0
BLOCK
  5
25D
330
25C
100
AcDbEntity
  8
0
100
AcDbBlockBegin
  2
*D16
 70
     1
 10
0.0
 20
0.0
 30
0.0
  3
*D16
  1

  0
LINE
  5
25F
330
25C
100
AcDbEntity
  8
치수문자_일반주서
 62
     0
370
    -2
100
AcDbLine
 10
37.0
 20
6.526758246096136
 30
0.0
 11
37.00000000000001
 21
31.33379139070593
 31
0.0
  0
LINE
  5
260
330
25C
100
AcDbEntity
  8
치수문자_일반주서
 62
     0
370
    -2
100
AcDbLine
 10
-113.0
 20
6.462500000000006
 30
0.0
 11
-113.0
 21
31.33379139070593
 31
0.0
  0
LINE
  5
261
330
25C
100
AcDbEntity
  8
치수문자_일반주서
 62
     0
370
    -2
100
AcDbLine
 10
33.69800000000001
 20
31.33379139070593
 30
0.0
 11
-109.698
 21
31.33379139070593
 31
0.0
  0
SOLID
  5
262
330
25C
100
AcDbEntity
  8
치수문자_일반주서
 62
     0
100
AcDbTrace
 10
33.69800000000001
 20
30.78345805737259
 30
0.0
 11
33.69800000000001
 21
31.88412472403926
 31
0.0
 12
37.00000000000001
 22
31.33379139070593
 32
0.0
 13
37.00000000000001
 23
31.33379139070593
 33
0.0
  0
SOLID
  5
263
330
25C
100
AcDbEntity
  8
치수문자_일반주서
 62
     0
100
AcDbTrace
 10
-109.698
 20
31.88412472403926
 30
0.0
 11
-109.698
 21
30.78345805737259
 31
0.0
 12
-113.0
 22
31.33379139070593
 32
0.0
 13
-113.0
 23
31.33379139070593
 33
0.0
  0
MTEXT
  5
264
330
25C
100
AcDbEntity
  8
치수문자_일반주서
 62
     0
100
AcDbMText
 10
-37.99999999999997
 20
35.70879139070593
 30
0.0
 40
3.5
 41
0.0
 71
     2
 72
     1
  1
\A1;150
  7
SLDTEXTSTYLE0
 73
     1
 44
1.0
  0
POINT
  5
265
330
25C
100
AcDbEntity
  8
Defpoints
 62
     0
100
AcDbPoint
 10
37.0
 20
6.464258246096136
 30
0.0
  0
POINT
  5
266
330
25C
100
AcDbEntity
  8
Defpoints
 62
     0
100
AcDbPoint
 10
-113.0
 20
6.400000000000006
 30
0.0
  0
POINT
  5
267
330
25C
100
AcDbEntity
  8
Defpoints
 62
     0
100
AcDbPoint
 10
-113.0
 20
31.33379139070593
 30
0.0
  0
ENDBLK
  5
25E
330
25C
100
AcDbEntity
  8
0
100
AcDbBlockEnd
  0
BLOCK
  5
269
330
268
100
AcDbEntity
  8
0
100
AcDbBlockBegin
  2
*D17
 70
     1
 10
0.0
 20
0.0
 30
0.0
  3
*D17
  1

  0
LINE
  5
26B
330
268
100
AcDbEntity
  8
치수문자_일반주서
 62
     0
370
    -2
100
AcDbLine
 10
39.27724954454073
 20
-18.8370812372878
 30
0.0
 11
54.60005091399206
 21
-39.41556537240336
 31
0.0
  0
MTEXT
  5
26C
330
268
100
AcDbEntity
  8
치수문자_일반주서
 62
     0
100
AcDbMText
 10
53.96198570209661
 20
-34.16332424619173
 30
0.0
 40
3.5
 41
0.0
 71
     5
 72
     1
  1
\A1;R0.5
  7
SLDTEXTSTYLE0
 11
0.5972259865345548
 21
-0.8020730147610178
 31
0.0
 73
     1
 44
1.0
  0
SOLID
  5
26D
330
268
100
AcDbEntity
  8
치수문자_일반주서
 62
     0
100
AcDbTrace
 10
39.71865706033088
 20
-18.50840786936495
 30
0.0
 11
38.83584202875058
 21
-19.16575460521065
 31
0.0
 12
37.30520933700363
 22
-16.18863614254692
 32
0.0
 13
37.30520933700363
 23
-16.18863614254692
 33
0.0
  0
LINE
  5
26E
330
268
100
AcDbEntity
  8
치수문자_일반주서
 62
     0
100
AcDbLine
 10
36.91659634373634
 20
-15.7875996351664
 30
0.0
 11
37.09659634373635
 21
-15.7875996351664
 31
0.0
  0
LINE
  5
26F
330
268
100
AcDbEntity
  8
치수문자_일반주서
 62
     0
100
AcDbLine
 10
37.00659634373635
 20
-15.8775996351664
 30
0.0
 11
37.00659634373635
 21
-15.69759963516641
 31
0.0
  0
POINT
  5
270
330
268
100
AcDbEntity
  8
Defpoints
 62
     0
100
AcDbPoint
 10
37.30520933700363
 20
-16.18863614254692
 30
0.0
  0
POINT
  5
271
330
268
100
AcDbEntity
  8
Defpoints
 62
     0
100
AcDbPoint
 10
37.00659634373635
 20
-15.7875996351664
 30
0.0
  0
ENDBLK
  5
26A
330
268
100
AcDbEntity
  8
0
100
AcDbBlockEnd
  0
BLOCK
  5
27D
330
27C
100
AcDbEntity
  8
0
100
AcDbBlockBegin
  2
*D18
 70
     1
 10
0.0
 20
0.0
 30
0.0
  3
*D18
  1

  0
LINE
  5
27F
330
27C
100
AcDbEntity
  8
치수문자_일반주서
 62
     0
370
    -2
100
AcDbLine
 10
38.61891725227971
 20
-9.412986437961877
 30
0.0
 11
48.10610528987734
 21
-21.7767387018141
 31
0.0
  0
MTEXT
  5
280
330
27C
100
AcDbEntity
  8
치수문자_일반주서
 62
     0
100
AcDbMText
 10
48.59063146663599
 20
-18.09618380016739
 30
0.0
 40
3.5
 41
0.0
 71
     5
 72
     1
  1
\A1;R1
  7
SLDTEXTSTYLE0
 11
0.6087673761691559
 21
-0.7933487768391162
 31
0.0
 73
     1
 44
1.0
  0
SOLID
  5
281
330
27C
100
AcDbEntity
  8
치수문자_일반주서
 62
     0
100
AcDbTrace
 10
39.0555235291335
 20
-9.077961458610117
 30
0.0
 11
38.18231097542591
 21
-9.748011417313636
 31
0.0
 12
36.60876737616915
 22
-6.793348776839115
 32
0.0
 13
36.60876737616915
 23
-6.793348776839115
 33
0.0
  0
LINE
  5
282
330
27C
100
AcDbEntity
  8
치수문자_일반주서
 62
     0
100
AcDbLine
 10
35.91
 20
-6.0
 30
0.0
 11
36.09
 21
-6.0
 31
0.0
  0
LINE
  5
283
330
27C
100
AcDbEntity
  8
치수문자_일반주서
 62
     0
100
AcDbLine
 10
36.0
 20
-6.09
 30
0.0
 11
36.0
 21
-5.91
 31
0.0
  0
POINT
  5
284
330
27C
100
AcDbEntity
  8
Defpoints
 62
     0
100
AcDbPoint
 10
36.60876737616915
 20
-6.793348776839115
 30
0.0
  0
POINT
  5
285
330
27C
100
AcDbEntity
  8
Defpoints
 62
     0
100
AcDbPoint
 10
36.0
 20
-6.0
 30
0.0
  0
ENDBLK
  5
27E
330
27C
100
AcDbEntity
  8
0
100
AcDbBlockEnd
  0
ENDSEC
  0
SECTION
  2
ENTITIES
  0
LINE
  5
C8
330
1F
100
AcDbEntity
  8
참조1
100
AcDbLine
 10
-15.77564223695981
 20
-2.499999999999974
 30
0.0
 11
-15.7756422369598
 21
-40.0
 31
0.0
  0
LINE
  5
C9
330
1F
100
AcDbEntity
  8
참조1
100
AcDbLine
 10
-15.7756422369598
 20
-40.0
 30
0.0
 11
-30.93398568371225
 21
-40.0
 31
0.0
  0
INSERT
  5
CB
330
1F
100
AcDbEntity
  8
0
  6
Continuous
 62
     7
100
AcDbBlockReference
 66
     1
  2
블럭10
 10
-29.71591516908501
 20
-52.04717430164393
 30
0.0
  0
ATTRIB
  5
CC
330
CB
100
AcDbEntity
  8
FORMAT
 62
     2
100
AcDbText
 10
-45.83517620852056
 20
-49.97180738881174
 30
0.0
 40
4.233333333333333
  1
SEME0114010E [ 4 FLUTE ]
 41
0.75
  7
SLDTEXTSTYLE0
 11
-45.83517620852056
 21
-52.08847405547841
 31
0.0
100
AcDbAttribute
  2
AUTOATTR0
 70
     0
 74
     1
  0
SEQEND
  5
CD
330
CB
100
AcDbEntity
  8
0
  6
Continuous
 62
     7
  0
HATCH
  5
CE
330
1F
100
AcDbEntity
  8
중심선
100
AcDbHatch
 10
0.0
 20
0.0
 30
0.0
210
0.0
220
0.0
230
1.0
  2
SOLID
 70
     1
 71
     0
 91
        1
 92
        0
 93
        4
 72
     1
 10
-24.00100586470416
 20
-35.8
 11
-27.44728110854144
 21
-35.8
 72
     1
 10
-27.44728110854144
 20
-35.8
 11
-29.57551096774547
 21
-38.33632558057259
 72
     1
 10
-29.57551096774547
 20
-38.33632558057259
 11
-26.12920263879504
 21
-38.3362861512701
 72
     1
 10
-26.12920263879504
 20
-38.3362861512701
 11
-24.00100586470416
 21
-35.8
 97
        0
 75
     0
 76
     1
 98
        1
 10
0.0
 20
0.0
  0
HATCH
  5
CF
330
1F
100
AcDbEntity
  8
중심선
100
AcDbHatch
 10
0.0
 20
0.0
 30
0.0
210
0.0
220
0.0
230
1.0
  2
SOLID
 70
     1
 71
     0
 91
        1
 92
        0
 93
        4
 72
     1
 10
-18.98824187366821
 20
-35.8
 11
-22.43451711750549
 21
-35.8
 72
     1
 10
-22.43451711750549
 20
-35.8
 11
-26.96565512586288
 21
-41.20000000000002
 72
     1
 10
-26.96565512586288
 20
-41.20000000000002
 11
-23.5193798820256
 21
-41.20000000000002
 72
     1
 10
-23.5193798820256
 20
-41.20000000000002
 11
-18.98824187366821
 21
-35.8
 97
        0
 75
     0
 76
     1
 98
        1
 10
0.0
 20
0.0
  0
HATCH
  5
D0
330
1F
100
AcDbEntity
  8
중심선
100
AcDbHatch
 10
0.0
 20
0.0
 30
0.0
210
0.0
220
0.0
230
1.0
  2
SOLID
 70
     1
 71
     0
 91
        1
 92
        0
 93
        4
 72
     1
 10
-13.97547788263232
 20
-35.80000000000003
 11
-17.42175312646943
 21
-35.8
 72
     1
 10
-17.42175312646943
 20
-35.8
 11
-24.47019002835868
 21
-44.20000000000002
 72
     1
 10
-24.47019002835868
 20
-44.20000000000002
 11
-21.0239147845214
 21
-44.20000000000002
 72
     1
 10
-21.0239147845214
 20
-44.20000000000002
 11
-13.97547788263232
 21
-35.80000000000003
 97
        0
 75
     0
 76
     1
 98
        1
 10
0.0
 20
0.0
  0
HATCH
  5
D1
330
1F
100
AcDbEntity
  8
중심선
100
AcDbHatch
 10
0.0
 20
0.0
 30
0.0
210
0.0
220
0.0
230
1.0
  2
SOLID
 70
     1
 71
     0
 91
        1
 92
        0
 93
        6
 72
     3
 10
-9.175587451620116
 20
-40.00000000005127
 11
3.960054785062284
 21
1.540850780301639E-10
 40
0.3939339440162633
 50
17.09539180608433
 51
320.0019657685079
 73
     0
 72
     1
 10
-7.49258779591952
 20
-38.5878940046383
 11
-5.187285922218482
 21
-36.65356729459038
 72
     3
 10
-9.175587451672962
 20
-40.00000000000015
 11
6.600054785286829
 21
-1.249000902703301E-13
 40
0.6363583540795982
 50
39.99873849337408
 51
368.4976242363725
 73
     1
 72
     1
 10
-2.750254959772352
 20
-39.03999999993002
 11
-10.49552014483704
 21
-39.03999999992999
 72
     1
 10
-10.49552014483704
 20
-39.03999999992999
 11
-10.49554518928297
 21
-40.95999999992991
 72
     1
 10
-10.49554518928297
 20
-40.95999999992991
 11
-6.054165419810936
 21
-40.95999999992988
 97
        0
 75
     0
 76
     1
 98
        1
 10
0.0
 20
0.0
  0
LINE
  5
102
330
1F
100
AcDbEntity
  8
참조1
100
AcDbLine
 10
67.03835494594202
 20
7.440000000000002
 30
0.0
 11
67.03835494594202
 21
-7.440000000000002
 31
0.0
  0
LINE
  5
103
330
1F
100
AcDbEntity
  8
참조1
100
AcDbLine
 10
79.73835494594202
 20
5.440000000000002
 30
0.0
 11
67.03835494594202
 21
5.440000000000002
 31
0.0
  0
SOLID
  5
104
330
1F
100
AcDbEntity
  8
참조1
100
AcDbTrace
 10
67.03835494594202
 20
5.440000000000002
 30
0.0
 11
73.38835494594201
 21
4.424000000000002
 31
0.0
 12
73.38835494594201
 22
6.456000000000002
 32
0.0
 13
73.38835494594201
 23
6.456000000000002
 33
0.0
  0
LINE
  5
105
330
1F
100
AcDbEntity
  8
참조1
100
AcDbLine
 10
79.73835494594202
 20
-5.440000000000002
 30
0.0
 11
67.03835494594202
 21
-5.440000000000002
 31
0.0
  0
SOLID
  5
106
330
1F
100
AcDbEntity
  8
참조1
100
AcDbTrace
 10
67.03835494594202
 20
-5.440000000000002
 30
0.0
 11
73.38835494594201
 21
-6.456000000000002
 31
0.0
 12
73.38835494594201
 22
-4.424000000000002
 32
0.0
 13
73.38835494594201
 23
-4.424000000000002
 33
0.0
  0
MTEXT
  5
107
330
1F
100
AcDbEntity
  8
참조1
100
AcDbMText
 10
76.4358450384123
 20
10.98821664464994
 30
0.0
 40
3.5
 41
0.0
 71
     1
 72
     1
  1
A
  7
SLDTEXTSTYLE0
 73
     1
 44
1.0
  0
MTEXT
  5
108
330
1F
100
AcDbEntity
  8
참조1
100
AcDbMText
 10
76.4358450384123
 20
0.1082166446499328
 30
0.0
 40
3.5
 41
0.0
 71
     1
 72
     1
  1
A
  7
SLDTEXTSTYLE0
 73
     1
 44
1.0
  0
LINE
  5
1FB
102
{ACAD_REACTORS
330
22C
102
}
330
1F
100
AcDbEntity
  8
외형선
  6
Continuous
 62
     1
370
    15
100
AcDbLine
 10
18.99521628709581
 20
-7.0
 30
0.0
 11
23.26505070450253
 21
-7.0
 31
0.0
1001
PE_URL
1000

  0
LINE
  5
1FC
330
1F
100
AcDbEntity
  8
외형선
  6
Continuous
 62
     1
370
    15
100
AcDbLine
 10
4.218753293318429
 20
7.0
 30
0.0
 11
2.000000000000028
 21
7.0
 31
0.0
1001
PE_URL
1000

  0
LINE
  5
1FD
102
{ACAD_REACTORS
330
22C
102
}
330
1F
100
AcDbEntity
  8
외형선
  6
Continuous
 62
     1
370
    15
100
AcDbLine
 10
23.26505070450253
 20
7.0
 30
0.0
 11
18.99521628709593
 21
7.0
 31
0.0
1001
PE_URL
1000

  0
LINE
  5
1FE
330
1F
100
AcDbEntity
  8
외형선
  6
Continuous
 62
     1
370
    15
100
AcDbLine
 10
2.000000000000028
 20
-7.0
 30
0.0
 11
4.218753293318372
 21
-7.0
 31
0.0
1001
PE_URL
1000

  0
LINE
  5
1FF
330
1F
100
AcDbEntity
  8
외형선
  6
Continuous
370
    15
100
AcDbLine
 10
-111.4
 20
-8.000000000000007
 30
0.0
 11
-0.0000000000000284
 21
-8.000000000000007
 31
0.0
  0
LINE
  5
200
330
1F
100
AcDbEntity
  8
외형선
  6
Continuous
370
    15
100
AcDbLine
 10
0.0
 20
8.000000000000007
 30
0.0
 11
-111.4
 21
8.000000000000007
 31
0.0
  0
LINE
  5
201
330
1F
100
AcDbEntity
  8
외형선
  6
Continuous
370
    15
100
AcDbLine
 10
-111.4
 20
8.0
 30
0.0
 11
-113.0
 21
6.400000000000006
 31
0.0
  0
LINE
  5
202
330
1F
100
AcDbEntity
  8
외형선
  6
Continuous
370
    15
100
AcDbLine
 10
-113.0
 20
-6.400000000000006
 30
0.0
 11
-111.4
 21
-8.0
 31
0.0
  0
LINE
  5
203
330
1F
100
AcDbEntity
  8
외형선
  6
Continuous
370
    15
100
AcDbLine
 10
1.000000000000028
 20
-7.0
 30
0.0
 11
2.000000000000028
 21
-7.0
 31
0.0
  0
LINE
  5
204
330
1F
100
AcDbEntity
  8
외형선
  6
Continuous
370
    15
100
AcDbLine
 10
2.000000000000028
 20
7.0
 30
0.0
 11
1.000000000000028
 21
7.0
 31
0.0
  0
LINE
  5
205
330
1F
100
AcDbEntity
  8
외형선
  6
Continuous
 62
     1
370
    15
100
AcDbLine
 10
37.0
 20
-5.938566572627423
 30
0.0
 11
37.0
 21
0.6847887115431206
 31
0.0
1001
PE_URL
1000

  0
SPLINE
  5
206
330
1F
100
AcDbEntity
  8
외형선
  6
Continuous
 62
     1
370
    15
100
AcDbSpline
210
0.0
220
0.0
230
1.0
 70
     8
 71
     3
 72
    10
 73
     6
 74
     0
 42
0.000000001
 43
0.00000001
 40
0.0
 40
0.0
 40
0.0
 40
0.0
 40
0.5
 40
0.5
 40
1.0
 40
1.0
 40
1.0
 40
1.0
 10
36.50000000000011
 20
-6.211790385463303
 30
0.0
 10
36.63033006858507
 20
-6.246485411627937
 30
0.0
 10
36.74972953613474
 20
-6.241261111044125
 30
0.0
 10
36.93548721242564
 20
-6.150263386092881
 30
0.0
 10
37.0
 20
-6.061665513632569
 30
0.0
 10
37.0
 20
-5.938566572627423
 30
0.0
1001
PE_URL
1000

  0
SPLINE
  5
207
330
1F
100
AcDbEntity
  8
외형선
  6
Continuous
 62
     1
370
    15
100
AcDbSpline
210
0.0
220
0.0
230
1.0
 70
     8
 71
     3
 72
    20
 73
    16
 74
     0
 42
0.000000001
 43
0.00000001
 40
0.0
 40
0.0
 40
0.0
 40
0.0
 40
0.0167650273033472
 40
0.1022657536438688
 40
0.1877700398846671
 40
0.2732750521259097
 40
0.358777955304821
 40
0.4442759177365069
 40
0.5297661156431105
 40
0.608138477648073
 40
0.6865108201740475
 40
0.7648831434465913
 40
0.8432554476913091
 40
0.9216277331338725
 40
1.0
 40
1.0
 40
1.0
 40
1.0
 10
4.218753293318429
 20
6.971476270186777
 30
0.0
 10
4.399158688093422
 20
6.980376156116108
 30
0.0
 10
5.49962177260025
 20
7.034664975659283
 30
0.0
 10
7.520224716876186
 20
6.780595616317996
 30
0.0
 10
10.2805497532481
 20
6.201655732961797
 30
0.0
 10
13.0409053643489
 20
5.27112774394012
 30
0.0
 10
15.80118481460849
 20
4.077113283806767
 30
0.0
 10
18.56124848707159
 20
2.670529207769007
 30
0.0
 10
21.24462253211922
 20
1.169541400743654
 30
0.0
 10
23.85094352876501
 20
-0.341174413685259
 30
0.0
 10
26.38077282020254
 20
-1.792341486303521
 30
0.0
 10
28.91057643908073
 20
-3.167143427870982
 30
0.0
 10
31.44038599574571
 20
-4.399374516829099
 30
0.0
 10
33.97019305217259
 20
-5.460110795226484
 30
0.0
 10
35.656731084017
 20
-5.961230541847613
 30
0.0
 10
36.50000000000011
 20
-6.211790385463303
 30
0.0
1001
PE_URL
1000

  0
SPLINE
  5
208
102
{ACAD_REACTORS
330
22C
102
}
330
1F
100
AcDbEntity
  8
외형선
  6
Continuous
 62
     1
370
    15
100
AcDbSpline
210
0.0
220
0.0
230
1.0
 70
     8
 71
     3
 72
    17
 73
    13
 74
     0
 42
0.000000001
 43
0.00000001
 40
0.0
 40
0.0
 40
0.0
 40
0.0
 40
0.1107545435298079
 40
0.2215181998996601
 40
0.3322873077231207
 40
0.4430581968871424
 40
0.5538271944253988
 40
0.6645906304014645
 40
0.7753448437815406
 40
0.8768752255006002
 40
0.9784055835355826
 40
1.0
 40
1.0
 40
1.0
 40
1.0
 10
36.5
 20
0.8873017720431093
 30
0.0
 10
35.58003742620394
 20
1.409700775665073
 30
0.0
 10
33.74003658445503
 20
2.454541765692447
 30
0.0
 10
30.9798898977707
 20
3.882835189558755
 30
0.0
 10
28.219584321811
 20
5.114152940704031
 30
0.0
 10
25.45922622417777
 20
6.080610712389252
 30
0.0
 10
22.69891773778761
 20
6.734018446256393
 30
0.0
 10
19.93880246306409
 20
7.038251518879605
 30
0.0
 10
17.25537354946178
 20
6.987078632781802
 30
0.0
 10
14.64903936239855
 20
6.59007482910642
 30
0.0
 10
12.78312985814208
 20
6.15165980636872
 30
0.0
 10
11.76050775731915
 20
5.777207852873602
 30
0.0
 10
11.58115370269709
 20
5.711534056007253
 30
0.0
  0
SPLINE
  5
209
330
1F
100
AcDbEntity
  8
외형선
  6
Continuous
 62
     1
370
    15
100
AcDbSpline
210
0.0
220
0.0
230
1.0
 70
     8
 71
     3
 72
    14
 73
    10
 74
     0
 42
0.000000001
 43
0.00000001
 40
0.0
 40
0.0
 40
0.0
 40
0.0
 40
0.25
 40
0.25
 40
0.5
 40
0.5
 40
0.75
 40
0.75
 40
1.0
 40
1.0
 40
1.0
 40
1.0
 10
37.0
 20
0.6807094297703458
 30
0.0
 10
37.00000000000011
 20
0.6741039729346312
 30
0.0
 10
36.98605796878439
 20
0.6731228824040443
 30
0.0
 10
36.93206943577712
 20
0.6848046947163766
 30
0.0
 10
36.89168409388867
 20
0.6977098416427836
 30
0.0
 10
36.79470605849019
 20
0.7361505055651847
 30
0.0
 10
36.73814651518603
 20
0.7616559639022853
 30
0.0
 10
36.61998104128554
 20
0.8205199042546241
 30
0.0
 10
36.55965087569189
 20
0.853133861250349
 30
0.0
 10
36.5
 20
0.8873017720431164
 30
0.0
1001
PE_URL
1000

  0
SPLINE
  5
20A
102
{ACAD_REACTORS
330
22C
102
}
330
1F
100
AcDbEntity
  8
외형선
  6
Continuous
 62
     1
370
    15
100
AcDbSpline
210
0.0
220
0.0
230
1.0
 70
     8
 71
     3
 72
    18
 73
    14
 74
     0
 42
0.000000001
 43
0.00000001
 40
0.0
 40
0.0
 40
0.0
 40
0.0
 40
0.0963848551608234
 40
0.1927769121567755
 40
0.2891729825234339
 40
0.3855698713705795
 40
0.4819643824969125
 40
0.5783533235093006
 40
0.6747335109288691
 40
0.7630891718527608
 40
0.8514448108163781
 40
0.9398004280740039
 40
1.0
 40
1.0
 40
1.0
 40
1.0
 10
2.000000000000028
 20
1.273154675872583
 30
0.0
 10
2.919986872074759
 20
0.7445077423564115
 30
0.0
 10
4.760029357249635
 20
-0.3128256249485659
 30
0.0
 10
7.520222789252585
 20
-1.900232383425958
 30
0.0
 10
10.28055026978126
 20
-3.384911092854125
 30
0.0
 10
13.04090522589721
 20
-4.696227363547138
 30
0.0
 10
15.80118485189101
 20
-5.764835555636495
 30
0.0
 10
18.5612484763848
 20
-6.536302527946688
 30
0.0
 10
21.24462253714015
 20
-6.957702497740627
 30
0.0
 10
23.85094351934117
 20
-7.044305975916402
 30
0.0
 10
26.38077285330155
 20
-6.813350402421023
 30
0.0
 10
28.64185464772311
 20
-6.374483103623859
 30
0.0
 10
30.05967184943245
 20
-5.907643203754724
 30
0.0
 10
30.63421918824486
 20
-5.718463934524621
 30
0.0
1001
PE_URL
1000

  0
SPLINE
  5
20B
330
1F
100
AcDbEntity
  8
외형선
  6
Continuous
370
    15
100
AcDbSpline
210
0.0
220
0.0
230
1.0
 70
    24
 71
     3
 72
    17
 73
    13
 74
     0
 42
0.000000001
 43
0.00000001
 40
0.0
 40
0.0
 40
0.0
 40
0.0
 40
0.1049839141655002
 40
0.2127147548276078
 40
0.3229718531320185
 40
0.4364264147566032
 40
0.5466835130610164
 40
0.6601380746856041
 40
0.7703951729900184
 40
0.8838497346146073
 40
0.9941068329190209
 40
1.0
 40
1.0
 40
1.0
 40
1.0
 10
1.999999999999972
 20
6.900122867766477
 30
0.0
 10
2.0
 20
6.698283452607669
 30
0.0
 10
2.000000000000085
 20
6.289323450960445
 30
0.0
 10
2.000000000000057
 20
5.621113602939538
 30
0.0
 10
1.999999999999972
 20
4.921451701645438
 30
0.0
 10
2.000000000000028
 20
4.216987090370161
 30
0.0
 10
2.000000000000028
 20
3.528003209334194
 30
0.0
 10
2.000000000000114
 20
2.887173616612976
 30
0.0
 10
2.000000000000028
 20
2.297070790731361
 30
0.0
 10
2.000000000000028
 20
1.800345635012469
 30
0.0
 10
2.000000000000057
 20
1.490068160465157
 30
0.0
 10
2.000000000000085
 20
1.382172284299287
 30
0.0
 10
2.000000000000085
 20
1.37669792379323
 30
0.0
  0
SPLINE
  5
20C
330
1F
100
AcDbEntity
  8
외형선
  6
Continuous
 62
     1
370
    15
100
AcDbSpline
210
0.0
220
0.0
230
1.0
 70
     8
 71
     3
 72
     8
 73
     4
 74
     0
 42
0.000000001
 43
0.00000001
 40
0.0
 40
0.0
 40
0.0
 40
0.0
 40
0.0009894386005285
 40
0.0009894386005285
 40
0.0009894386005285
 40
0.0009894386005285
 10
36.53412664283735
 20
-7.00252548118749
 30
0.0
 10
36.52275209912194
 20
-7.001692900702463
 30
0.0
 10
36.51137653719805
 20
-7.000851071014457
 30
0.0
 10
36.49999999999923
 20
-6.999999999999946
 30
0.0
1001
PE_URL
1000

  0
SPLINE
  5
20D
330
1F
100
AcDbEntity
  8
외형선
  6
Continuous
 62
     1
370
    15
100
AcDbSpline
210
0.0
220
0.0
230
1.0
 70
     8
 71
     3
 72
    14
 73
    10
 74
     0
 42
0.000000001
 43
0.00000001
 40
0.0
 40
0.0
 40
0.0
 40
0.0
 40
0.1068676255956308
 40
0.2557231067086789
 40
0.4045785530980817
 40
0.5534339651928046
 40
0.702289343421908
 40
0.8511446882145535
 40
1.0
 40
1.0
 40
1.0
 40
1.0
 10
18.99521628709581
 20
-6.959255279337015
 30
0.0
 10
18.38974105127633
 20
-6.960438800505315
 30
0.0
 10
16.94090182165971
 20
-6.963270843496119
 30
0.0
 10
14.64904182004838
 20
-6.595099787211019
 30
0.0
 10
12.11921109153863
 20
-5.949494279935095
 30
0.0
 10
9.589412699817103
 20
-5.033492889804606
 30
0.0
 10
7.05960652632163
 20
-3.901528607834479
 30
0.0
 10
4.52980328656102
 20
-2.60309120515052
 30
0.0
 10
2.843267699859297
 20
-1.653205901573926
 30
0.0
 10
2.00000000000162
 20
-1.178263302442559
 30
0.0
1001
PE_URL
1000

  0
LINE
  5
20E
330
1F
100
AcDbEntity
  8
외형선
  6
Continuous
370
    15
100
AcDbLine
 10
1.999999999999972
 20
-1.178263302447363
 30
0.0
 11
2.000000000000057
 21
1.273154675872576
 31
0.0
  0
SPLINE
  5
20F
330
1F
100
AcDbEntity
  8
외형선
  6
Continuous
 62
     1
370
    15
100
AcDbSpline
210
0.0
220
0.0
230
1.0
 70
     8
 71
     3
 72
    10
 73
     6
 74
     0
 42
0.000000001
 43
0.00000001
 40
0.0
 40
0.0
 40
0.0
 40
0.0
 40
0.5
 40
0.5
 40
1.0
 40
1.0
 40
1.0
 40
1.0
 10
36.50000000000011
 20
3.227020329509159
 30
0.0
 10
36.63033006858507
 20
3.160234809758272
 30
0.0
 10
36.74972953613474
 20
3.062141430718334
 30
0.0
 10
36.93548721242564
 20
2.84695479053066
 30
0.0
 10
37.0
 20
2.730402129802513
 30
0.0
 10
37.0
 20
2.642617464271375
 30
0.0
1001
PE_URL
1000

  0
LINE
  5
210
330
1F
100
AcDbEntity
  8
외형선
  6
Continuous
 62
     1
370
    15
100
AcDbLine
 10
37.0
 20
0.6807094297703458
 30
0.0
 11
37.0
 21
2.642617464271375
 31
0.0
1001
PE_URL
1000

  0
SPLINE
  5
211
330
1F
100
AcDbEntity
  8
외형선
  6
Continuous
 62
     1
370
    15
100
AcDbSpline
210
0.0
220
0.0
230
1.0
 70
     8
 71
     3
 72
    13
 73
     9
 74
     0
 42
0.000000001
 43
0.00000001
 40
0.0
 40
0.0
 40
0.0
 40
0.0
 40
0.044269790775606
 40
0.2354159254361228
 40
0.4265620131385008
 40
0.6177080544329876
 40
0.8088540498699812
 40
1.0
 40
1.0
 40
1.0
 40
1.0
 10
23.26505070450253
 20
6.972927998633971
 30
0.0
 10
23.460353544773
 20
6.981178382465046
 30
0.0
 10
24.4989263068544
 20
7.025051906842862
 30
0.0
 10
26.38076865910386
 20
6.803488717944319
 30
0.0
 10
28.91057755366035
 20
6.304736127214497
 30
0.0
 10
31.44038569852466
 20
5.504749874779542
 30
0.0
 10
33.9701931264778
 20
4.482702263601247
 30
0.0
 10
35.65673110878549
 20
3.645580941136302
 30
0.0
 10
36.50000000000011
 20
3.227020329509152
 30
0.0
  0
SPLINE
  5
212
330
1F
100
AcDbEntity
  8
외형선
  6
Continuous
 62
     1
370
    15
100
AcDbSpline
210
0.0
220
0.0
230
1.0
 70
     8
 71
     3
 72
    11
 73
     7
 74
     0
 42
0.000000001
 43
0.00000001
 40
0.0
 40
0.0
 40
0.0
 40
0.0
 40
0.2880665436042069
 40
0.576154611417273
 40
0.864254674038292
 40
1.0
 40
1.0
 40
1.0
 40
1.0
 10
2.000000000000028
 20
-6.883246121656832
 30
0.0
 10
2.919986876220037
 20
-6.946230343234198
 30
0.0
 10
4.76002936968581
 20
-7.072203492543011
 30
0.0
 10
7.520222739502486
 20
-6.785916079735088
 30
0.0
 10
9.793959793893265
 20
-6.332805870962503
 30
0.0
 10
11.14761680974689
 20
-5.86224196241092
 30
0.0
 10
11.58115370269704
 20
-5.711534056007253
 30
0.0
1001
PE_URL
1000

  0
SPLINE
  5
213
330
1F
100
AcDbEntity
  8
외형선
  6
Continuous
370
    15
100
AcDbSpline
210
0.0
220
0.0
230
1.0
 70
    24
 71
     3
 72
    17
 73
    13
 74
     0
 42
0.000000001
 43
0.00000001
 40
0.0
 40
0.0
 40
0.0
 40
0.0
 40
0.0003817592176715
 40
0.1085443070333397
 40
0.2198435760631142
 40
0.3280061238787819
 40
0.4393053929085559
 40
0.5474679407242228
 40
0.6587672097539948
 40
0.766929757569663
 40
0.8782290265994381
 40
1.0
 40
1.0
 40
1.0
 40
1.0
 10
2.000000000000085
 20
-1.27315467587254
 30
0.0
 10
2.000000000000085
 20
-1.273501131573639
 30
0.0
 10
1.999999999999517
 20
-1.372007709155213
 30
0.0
 10
2.000000000000313
 20
-1.668110013874823
 30
0.0
 10
1.999999999999943
 20
-2.151894332813512
 30
0.0
 10
2.000000000000171
 20
-2.732422550377173
 30
0.0
 10
2.0
 20
-3.365875731312897
 30
0.0
 10
2.000000000000057
 20
-4.050178935768287
 30
0.0
 10
1.999999999999972
 20
-4.752803861365123
 30
0.0
 10
2.000000000000142
 20
-5.465433549375192
 30
0.0
 10
1.999999999999972
 20
-6.18906517513296
 30
0.0
 10
2.000000000000028
 20
-6.645023824462868
 30
0.0
 10
2.000000000000028
 20
-6.883246121656832
 30
0.0
  0
LINE
  5
215
330
1F
100
AcDbEntity
  8
외형선
  6
Continuous
 62
     1
370
    15
100
AcDbLine
 10
37.0
 20
2.630244723237098
 30
0.0
 11
37.0
 21
6.0
 31
0.0
1001
PE_URL
1000

  0
LINE
  5
216
330
1F
100
AcDbEntity
  8
외형선
  6
Continuous
 62
     1
370
    15
100
AcDbLine
 10
37.0
 20
-6.0
 30
0.0
 11
37.0
 21
-5.938566572627423
 31
0.0
1001
PE_URL
1000

  0
LINE
  5
217
330
1F
100
AcDbEntity
  8
외형선
  6
Continuous
370
    15
100
AcDbLine
 10
0.0
 20
0.0
 30
0.0
 11
0.0
 21
8.000000000000014
 31
0.0
  0
LINE
  5
218
330
1F
100
AcDbEntity
  8
외형선
  6
Continuous
370
    15
100
AcDbLine
 10
0.0
 20
-8.0
 30
0.0
 11
0.0
 21
0.0
 31
0.0
  0
LINE
  5
219
330
1F
100
AcDbEntity
  8
외형선
  6
Continuous
370
    15
100
AcDbLine
 10
-111.4
 20
0.0
 30
0.0
 11
-111.4
 21
8.000000000000007
 31
0.0
  0
LINE
  5
21A
330
1F
100
AcDbEntity
  8
외형선
  6
Continuous
370
    15
100
AcDbLine
 10
-111.4
 20
-8.000000000000007
 30
0.0
 11
-111.4
 21
0.0
 31
0.0
  0
LINE
  5
21B
330
1F
100
AcDbEntity
  8
외형선
  6
Continuous
370
    15
100
AcDbLine
 10
1.000000000000028
 20
6.973817197311817
 30
0.0
 11
1.000000000000028
 21
7.0
 31
0.0
  0
SPLINE
  5
21C
330
1F
100
AcDbEntity
  8
외형선
  6
Continuous
370
    15
100
AcDbSpline
210
0.0
220
0.0
230
1.0
 70
    24
 71
     3
 72
    14
 73
    10
 74
     0
 42
0.000000001
 43
0.00000001
 40
0.0
 40
0.0
 40
0.0
 40
0.0
 40
0.25
 40
0.25
 40
0.5
 40
0.5
 40
0.75
 40
0.75
 40
1.0
 40
1.0
 40
1.0
 40
1.0
 10
1.000000000000028
 20
1.8367904708685
 30
0.0
 10
1.000000000000028
 20
2.522828013422021
 30
0.0
 10
1.000000000000028
 20
3.180129063958347
 30
0.0
 10
1.000000000000028
 20
4.377073962241631
 30
0.0
 10
1.000000000000028
 20
4.916546631035523
 30
0.0
 10
1.000000000000028
 20
5.828096866745355
 30
0.0
 10
1.000000000000028
 20
6.200044069920047
 30
0.0
 10
1.000000000000028
 20
6.742226179445701
 30
0.0
 10
1.000000000000028
 20
6.912383546583278
 30
0.0
 10
1.000000000000028
 20
6.973817197311817
 30
0.0
  0
LINE
  5
21D
330
1F
100
AcDbEntity
  8
외형선
  6
Continuous
370
    15
100
AcDbLine
 10
1.000000000000028
 20
-0.6048749444950587
 30
0.0
 11
1.000000000000028
 21
1.8367904708685
 31
0.0
  0
SPLINE
  5
21E
330
1F
100
AcDbEntity
  8
외형선
  6
Continuous
370
    15
100
AcDbSpline
210
0.0
220
0.0
230
1.0
 70
    24
 71
     3
 72
    14
 73
    10
 74
     0
 42
0.000000001
 43
0.00000001
 40
0.0
 40
0.0
 40
0.0
 40
0.0
 40
0.25
 40
0.25
 40
0.5
 40
0.5
 40
0.75
 40
0.75
 40
1.0
 40
1.0
 40
1.0
 40
1.0
 10
1.000000000000028
 20
-6.754716927164793
 30
0.0
 10
1.000000000000028
 20
-6.568164739351751
 30
0.0
 10
1.000000000000028
 20
-6.276322837867568
 30
0.0
 10
1.000000000000028
 20
-5.508781422205537
 30
0.0
 10
1.000000000000028
 20
-5.033191676602812
 30
0.0
 10
1.000000000000028
 20
-3.941920362006769
 30
0.0
 10
1.000000000000028
 20
-3.32639485924625
 30
0.0
 10
1.000000000000028
 20
-2.011923302158323
 30
0.0
 10
1.000000000000028
 20
-1.313165234650782
 30
0.0
 10
1.000000000000028
 20
-0.6048749444950587
 30
0.0
  0
LINE
  5
21F
330
1F
100
AcDbEntity
  8
외형선
  6
Continuous
370
    15
100
AcDbLine
 10
1.000000000000028
 20
-7.0
 30
0.0
 11
1.000000000000028
 21
-6.754716927164793
 31
0.0
  0
LINE
  5
220
330
1F
100
AcDbEntity
  8
외형선
  6
Continuous
370
    15
100
AcDbLine
 10
-113.0
 20
0.0
 30
0.0
 11
-113.0
 21
6.400000000000006
 31
0.0
  0
LINE
  5
221
330
1F
100
AcDbEntity
  8
외형선
  6
Continuous
370
    15
100
AcDbLine
 10
-113.0
 20
-6.400000000000006
 30
0.0
 11
-113.0
 21
0.0
 31
0.0
  0
SPLINE
  5
222
330
1F
100
AcDbEntity
  8
외형선
  6
Continuous
370
    15
100
AcDbSpline
210
0.0
220
0.0
230
1.0
 70
     8
 71
     3
 72
     8
 73
     4
 74
     0
 42
0.000000001
 43
0.00000001
 40
0.0
 40
0.0
 40
0.0
 40
0.0
 40
1.0
 40
1.0
 40
1.0
 40
1.0
 10
2.000000000000028
 20
-1.178263302441636
 30
0.0
 10
1.66580506575869
 20
-0.988082544338738
 30
0.0
 10
1.334106491236724
 20
-0.7970360153791347
 30
0.0
 10
1.000176878982103
 20
-0.6048749444950587
 30
0.0
  0
SPLINE
  5
223
330
1F
100
AcDbEntity
  8
외형선
  6
Continuous
370
    15
100
AcDbSpline
210
0.0
220
0.0
230
1.0
 70
     8
 71
     3
 72
     8
 73
     4
 74
     0
 42
0.000000001
 43
0.00000001
 40
0.0
 40
0.0
 40
0.0
 40
0.0
 40
1.0
 40
1.0
 40
1.0
 40
1.0
 10
2.000000000000028
 20
1.273154675872576
 30
0.0
 10
1.66580506575869
 20
1.462870278147264
 30
0.0
 10
1.334106491236753
 20
1.650666630578698
 30
0.0
 10
1.000176878982103
 20
1.8367904708685
 30
0.0
  0
SPLINE
  5
224
330
1F
100
AcDbEntity
  8
외형선
  6
Continuous
370
    15
100
AcDbSpline
210
0.0
220
0.0
230
1.0
 70
     8
 71
     3
 72
     8
 73
     4
 74
     0
 42
0.000000001
 43
0.00000001
 40
0.0
 40
0.0
 40
0.0
 40
0.0
 40
1.0
 40
1.0
 40
1.0
 40
1.0
 10
2.000000000000028
 20
-6.883246121656832
 30
0.0
 10
1.66580506575869
 20
-6.848155511521298
 30
0.0
 10
1.334106491236753
 20
-6.805329040141864
 30
0.0
 10
1.000176878982103
 20
-6.754716927164793
 30
0.0
  0
SPLINE
  5
225
330
1F
100
AcDbEntity
  8
외형선
  6
Continuous
370
    15
100
AcDbSpline
210
0.0
220
0.0
230
1.0
 70
    24
 71
     3
 72
    17
 73
    13
 74
     0
 42
0.000000001
 43
0.00000001
 40
0.0
 40
0.0
 40
0.0
 40
0.0
 40
0.1023487504679215
 40
0.204697500935843
 40
0.3140621575095199
 40
0.4234268140831966
 40
0.5327914706568729
 40
0.6421561272305494
 40
0.7515207838042259
 40
0.8608854403779025
 40
0.9702500969515788
 40
1.0
 40
1.0
 40
1.0
 40
1.0
 10
2.000000000000057
 20
-6.883246121656832
 30
0.0
 10
2.000000000000028
 20
-6.683237908939333
 30
0.0
 10
2.000000000000028
 20
-6.283221483504335
 30
0.0
 10
2.000000000000028
 20
-5.6217567584047
 30
0.0
 10
1.999999999999972
 20
-4.929344768675428
 30
0.0
 10
1.999999999999943
 20
-4.220432558976974
 30
0.0
 10
1.999999999999972
 20
-3.531779255056392
 30
0.0
 10
2.000000000000028
 20
-2.882104584130232
 30
0.0
 10
2.000000000000028
 20
-2.28919655014262
 30
0.0
 10
2.000000000000028
 20
-1.777385636515632
 30
0.0
 10
2.000000000000057
 20
-1.435783383432764
 30
0.0
 10
2.0
 20
-1.301805987144903
 30
0.0
 10
2.000000000000028
 20
-1.273154675872583
 30
0.0
  0
SPLINE
  5
226
330
1F
100
AcDbEntity
  8
외형선
  6
Continuous
370
    15
100
AcDbSpline
210
0.0
220
0.0
230
1.0
 70
     8
 71
     3
 72
     8
 73
     4
 74
     0
 42
0.000000001
 43
0.00000001
 40
0.0
 40
0.0
 40
0.0
 40
0.0
 40
1.0
 40
1.0
 40
1.0
 40
1.0
 10
2.000000000000028
 20
6.900122867755272
 30
0.0
 10
1.66580506575869
 20
6.932598087747422
 30
0.0
 10
1.334106491236724
 20
6.957150081757092
 30
0.0
 10
1.000176878982103
 20
6.973817197311817
 30
0.0
  0
SPLINE
  5
227
330
1F
100
AcDbEntity
  8
외형선
  6
Continuous
370
    15
100
AcDbSpline
210
0.0
220
0.0
230
1.0
 70
    24
 71
     3
 72
    16
 73
    12
 74
     0
 42
0.000000001
 43
0.00000001
 40
0.0
 40
0.0
 40
0.0
 40
0.0
 40
0.090870828034343
 40
0.2025608752543676
 40
0.314250922474392
 40
0.4259409696944162
 40
0.537631016914436
 40
0.6493210641344558
 40
0.7610111113544883
 40
0.872701158574521
 40
0.9999999999999999
 40
0.9999999999999999
 40
0.9999999999999999
 40
0.9999999999999999
 10
2.000000000000028
 20
1.37669792379323
 30
0.0
 10
1.999999999999972
 20
1.478182037308351
 30
0.0
 10
2.0
 20
1.704401070442579
 30
0.0
 10
2.000000000000028
 20
2.169247732720081
 30
0.0
 10
2.0
 20
2.735202655000613
 30
0.0
 10
2.000000000000028
 20
3.366698794627062
 30
0.0
 10
2.000000000000085
 20
4.044161351492193
 30
0.0
 10
1.999999999999972
 20
4.74824228861808
 30
0.0
 10
2.000000000000057
 20
5.458038730431404
 30
0.0
 10
2.000000000000057
 20
6.191210292336685
 30
0.0
 10
2.000000000000028
 20
6.653748932419738
 30
0.0
 10
2.000000000000028
 20
6.900122867755385
 30
0.0
  0
LINE
  5
228
330
1F
100
AcDbEntity
  8
중심선
100
AcDbLine
 10
-116.0
 20
0.0
 30
0.0
 11
40.0
 21
0.0
 31
0.0
  0
CIRCLE
  5
229
330
1F
100
AcDbEntity
  8
해칭선
100
AcDbCircle
 10
0.0
 20
0.0
 30
0.0
 40
3.000000000000004
  0
DIMENSION
  5
22A
102
{ACAD_XDICTIONARY
360
22B
102
}
330
1F
100
AcDbEntity
  8
치수문자_일반주서
100
AcDbDimension
  2
*D13
 10
58.99583893509966
 20
-6.999999999999851
 30
0.0
 11
58.99583893509964
 21
-1.522632535492264
 31
0.0
 70
   160
  1
%%c<>
 71
     2
 42
14.0
 52
-270.0
  3
SLDDIMSTYLE0
100
AcDbAlignedDimension
 13
18.99583893509973
 23
7.0
 33
0.0
 14
18.99583893509967
 24
-7.0
 34
0.0
 50
90.0000000000002
100
AcDbRotatedDimension
1001
ENABLE_CUSTOM_SPLIT
1070
     1
  0
DIMENSION
  5
22D
330
1F
100
AcDbEntity
  8
치수문자_일반주서
100
AcDbDimension
  2
*D14
 10
-124.8
 20
-8.000000000000057
 30
0.0
 11
-124.8
 21
0.0000000000000071
 31
0.0
 70
   160
  1
%%c<>
 71
     2
 42
16.00000000000001
 52
-270.0
  3
SLDDIMSTYLE0
100
AcDbAlignedDimension
 13
-111.4
 23
8.000000000000007
 33
0.0
 14
-111.4
 24
-8.000000000000007
 34
0.0
 50
90.0000000000002
100
AcDbRotatedDimension
  0
DIMENSION
  5
22E
330
1F
100
AcDbEntity
  8
치수문자_일반주서
100
AcDbDimension
  2
*D15
 10
1.999999999999972
 20
23.91742870033895
 30
0.0
 11
19.49999999999997
 21
23.91742870033895
 31
0.0
 70
   160
  1
<>
 71
     2
 42
35.00000000000003
  3
SLDDIMSTYLE1
100
AcDbAlignedDimension
 13
37.0
 23
6.464258246096136
 33
0.0
 14
1.999999999999972
 24
6.900122867766477
 34
0.0
 50
0.0000000000001628
100
AcDbRotatedDimension
  0
DIMENSION
  5
22F
330
1F
100
AcDbEntity
  8
치수문자_일반주서
100
AcDbDimension
  2
*D16
 10
-113.0
 20
31.33379139070593
 30
0.0
 11
-37.99999999999997
 21
31.33379139070593
 31
0.0
 70
   160
  1
<>
 71
     2
 42
150.0
  3
SLDDIMSTYLE1
100
AcDbAlignedDimension
 13
37.0
 23
6.464258246096136
 33
0.0
 14
-113.0
 24
6.400000000000006
 34
0.0
 50
0.0000000000000014
100
AcDbRotatedDimension
  0
INSERT
  5
230
330
1F
100
AcDbEntity
  8
해칭선
100
AcDbBlockReference
  2
SW_DOWELSYMBOL_0
 10
0.0
 20
0.0
 30
0.0
  0
LINE
  5
231
330
1F
100
AcDbEntity
  8
외형선
  6
Continuous
370
    15
100
AcDbLine
 10
1.000000000000028
 20
7.0
 30
0.0
 11
0.0
 21
8.000000000000014
 31
0.0
1001
PE_URL
1000

  0
LINE
  5
232
330
1F
100
AcDbEntity
  8
외형선
  6
Continuous
370
    15
100
AcDbLine
 10
1.000000000000028
 20
-7.000000000000007
 30
0.0
 11
0.0
 21
-8.000000000000014
 31
0.0
1001
PE_URL
1000

  0
ARC
  5
272
330
1F
100
AcDbEntity
  8
외형선
  6
Continuous
 62
     1
370
    15
100
AcDbCircle
 10
36.0
 20
6.0
 30
0.0
 40
0.9999999999999997
100
AcDbArc
 50
0.0
 51
90.0
1001
PE_URL
1000

  0
SPLINE
  5
273
330
1F
100
AcDbEntity
  8
외형선
  6
Continuous
 62
     1
370
    15
100
AcDbSpline
210
0.0
220
0.0
230
1.0
 70
     8
 71
     3
 72
    10
 73
     6
 74
     0
 42
0.000000001
 43
0.00000001
 40
0.1934635339288086
 40
0.1934635339288086
 40
0.1934635339288086
 40
0.1934635339288086
 40
0.470512591436057
 40
0.9410638964620753
 40
1.0
 40
1.0
 40
1.0
 40
1.0
 10
36.0
 20
7.0
 30
0.0
 10
34.82350197476833
 20
6.738330333457529
 30
0.0
 10
33.36176110212946
 20
6.530299090222067
 30
0.0
 10
31.78476026735495
 20
6.149136675976521
 30
0.0
 10
30.74945660953836
 20
5.76159982688641
 30
0.0
 10
30.63421918824486
 20
5.718463934524628
 30
0.0
  0
ARC
  5
277
102
{ACAD_REACTORS
102
}
330
1F
100
AcDbEntity
  8
외형선
  6
Continuous
 62
     1
370
    15
100
AcDbCircle
 10
36.0
 20
-6.0
 30
0.0
 40
0.9999999999999997
100
AcDbArc
 50
270.0
 51
0.0
1001
PE_URL
1000

  0
SPLINE
  5
278
330
1F
100
AcDbEntity
  8
외형선
  6
Continuous
 62
     1
370
    15
100
AcDbSpline
210
0.0
220
0.0
230
1.0
 70
     8
 71
     3
 72
    56
 73
    52
 74
     0
 42
0.000000001
 43
0.00000001
 40
0.0092609088415626
 40
0.0092609088415626
 40
0.0092609088415626
 40
0.0092609088415626
 40
0.062499999999998
 40
0.062499999999998
 40
0.124999999999996
 40
0.124999999999996
 40
0.1562499999999959
 40
0.1562499999999959
 40
0.1874999999999958
 40
0.1874999999999958
 40
0.2187499999999957
 40
0.2187499999999957
 40
0.2499999999999956
 40
0.2499999999999956
 40
0.3124999999999936
 40
0.3124999999999936
 40
0.3437499999999934
 40
0.3437499999999934
 40
0.3749999999999933
 40
0.3749999999999933
 40
0.4062499999999932
 40
0.4062499999999932
 40
0.4374999999999931
 40
0.4374999999999931
 40
0.4999999999999929
 40
0.4999999999999929
 40
0.5624999999999927
 40
0.5624999999999927
 40
0.5937499999999926
 40
0.5937499999999926
 40
0.6249999999999925
 40
0.6249999999999925
 40
0.6562499999999923
 40
0.6562499999999923
 40
0.6874999999999922
 40
0.6874999999999922
 40
0.7499999999999938
 40
0.7499999999999938
 40
0.7812499999999946
 40
0.7812499999999946
 40
0.8124999999999953
 40
0.8124999999999953
 40
0.8437499999999961
 40
0.8437499999999961
 40
0.8749999999999969
 40
0.8749999999999969
 40
0.9374999999999984
 40
0.9374999999999984
 40
0.9687499999999992
 40
0.9687499999999992
 40
1.0
 40
1.0
 40
1.0
 40
1.0
 10
36.0
 20
-7.0
 30
0.0
 10
35.60164769622151
 20
-6.92264475981735
 30
0.0
 10
34.98700567072963
 20
-6.842001517447012
 30
0.0
 10
33.66146580393007
 20
-6.611603390422459
 30
0.0
 10
32.93655663900302
 20
-6.451289159697914
 30
0.0
 10
31.86111392424237
 20
-6.162547514925144
 30
0.0
 10
31.50362551961092
 20
-6.058244593415097
 30
0.0
 10
30.78372536660254
 20
-5.833617488831806
 30
0.0
 10
30.4228692909025
 20
-5.713429057948247
 30
0.0
 10
29.70362140512975
 20
-5.458740403285525
 30
0.0
 10
29.34683381898913
 20
-5.324462485998865
 30
0.0
 10
28.62875952950662
 20
-5.041855010269821
 30
0.0
 10
28.26805854493455
 20
-4.893571946788214
 30
0.0
 10
27.18736932193019
 20
-4.430355376679088
 30
0.0
 10
26.4733609382115
 20
-4.097793510406852
 30
0.0
 10
25.39247511547796
 20
-3.568185893665884
 30
0.0
 10
25.03189347158894
 20
-3.386729381670484
 30
0.0
 10
24.31442292175018
 20
-3.016162866593078
 30
0.0
 10
23.9573137238782
 20
-2.827031042363245
 30
0.0
 10
23.23767329386584
 20
-2.44101873234726
 30
0.0
 10
22.8768049000123
 20
-2.244423025144926
 30
0.0
 10
22.15724850303866
 20
-1.84638311829795
 30
0.0
 10
21.80022959315784
 20
-1.645258500729263
 30
0.0
 10
20.72380878358857
 20
-1.035424835353624
 30
0.0
 10
19.9989832838782
 20
-0.6201886104421561
 30
0.0
 10
18.5690057217212
 20
0.208078531606894
 30
0.0
 10
17.84471244579709
 20
0.62477035722236
 30
0.0
 10
16.76779943306661
 20
1.239323062004146
 30
0.0
 10
16.41095532072919
 20
1.442333890806594
 30
0.0
 10
15.69161227346942
 20
1.844932056959593
 30
0.0
 10
15.33075057459288
 20
2.044203352971664
 30
0.0
 10
14.61092331149391
 20
2.436325248284696
 30
0.0
 10
14.25355894093715
 20
2.628894831869253
 30
0.0
 10
13.53644279062846
 20
3.006893710641521
 30
0.0
 10
13.17593936528519
 20
3.192441793019377
 30
0.0
 10
12.09498664558012
 20
3.735375850493661
 30
0.0
 10
11.38091079306528
 20
4.078132376160113
 30
0.0
 10
10.30036836022461
 20
4.558418651050104
 30
0.0
 10
9.939615881105482
 20
4.712704246389094
 30
0.0
 10
9.221239777419243
 20
5.007861954991625
 30
0.0
 10
8.864546583261841
 20
5.148636543651911
 30
0.0
 10
8.145538526567435
 20
5.416840243572928
 30
0.0
 10
7.784702534620493
 20
5.544052801156347
 30
0.0
 10
7.06464209779989
 20
5.783170523534984
 30
0.0
 10
6.706818189741085
 20
5.894942151567513
 30
0.0
 10
5.631946377902267
 20
6.206515275041141
 30
0.0
 10
4.907018908046808
 20
6.382909626304567
 30
0.0
 10
3.832692610629095
 20
6.594319365824603
 30
0.0
 10
3.474512905213231
 20
6.656144352299059
 30
0.0
 10
2.754322437035285
 20
6.762130581318026
 30
0.0
 10
2.393513022731696
 20
6.806210444403803
 30
0.0
 10
2.03412664283897
 20
6.841133630105887
 30
0.0
  0
DIMENSION
  5
279
102
{ACAD_REACTORS
102
}
102
{ACAD_XDICTIONARY
360
27A
102
}
330
1F
100
AcDbEntity
  8
치수문자_일반주서
100
AcDbDimension
  2
*D18
 10
36.0
 20
-6.0
 30
0.0
 11
46.50809092743331
 21
-19.69419816261142
 31
0.0
 70
   164
 71
     5
 42
0.9999999999999983
  3
SLDDIMSTYLE1
100
AcDbRadialDimension
 15
36.60876737616915
 25
-6.793348776839115
 35
0.0
 40
0.0
1001
ACAD
1000
DSTYLE
1002
{
1070
    78
1070
     8
1002
}
1001
ACAD_DSTYLE_DIMRADIAL_EXTENSION
1070
   387
1070
     1
1070
   388
1040
4.71238898038469
1070
   390
1040
0.0
1001
PE_URL
1000

  0
ENDSEC
  0
SECTION
  2
OBJECTS
  0
DICTIONARY
  5
C
330
0
100
AcDbDictionary
281
     1
  3
ACAD_GROUP
350
D
  3
ACAD_LAYOUT
350
1A
  3
ACAD_MLINESTYLE
350
17
  3
ACAD_PLOTSETTINGS
350
19
  3
ACAD_PLOTSTYLENAME
350
E
  3
ACAD_SCALELIST
350
47
  3
APPDATA
350
131
  3
DWGPROPS
350
288
  0
DICTIONARY
  5
1C6
330
2
100
AcDbDictionary
280
     1
281
     1
  3
ACAD_LAYERSTATES
360
1C7
  0
DICTIONARY
  5
274
330
1F
100
AcDbDictionary
280
     1
281
     1
  3
ACAD_SORTENTS
360
275
  3
DIM_BOUNDING_BOXES_V1
360
286
  0
DICTIONARY
  5
22B
330
22A
100
AcDbDictionary
280
     1
281
     1
  3
ACAD_CUSTOM_BREAKDATA
360
22C
  0
DICTIONARY
  5
27A
330
279
100
AcDbDictionary
280
     1
281
     1
  0
DICTIONARY
  5
D
102
{ACAD_REACTORS
330
C
102
}
330
C
100
AcDbDictionary
281
     1
  0
DICTIONARY
  5
1A
102
{ACAD_REACTORS
330
C
102
}
330
C
100
AcDbDictionary
281
     1
  3
Layout1
350
1E
  3
Layout2
350
26
  3
Model
350
22
  0
DICTIONARY
  5
17
102
{ACAD_REACTORS
330
C
102
}
330
C
100
AcDbDictionary
281
     1
  3
Standard
350
18
  0
DICTIONARY
  5
19
102
{ACAD_REACTORS
330
C
102
}
330
C
100
AcDbDictionary
281
     1
  0
ACDBDICTIONARYWDFLT
  5
E
102
{ACAD_REACTORS
330
C
102
}
330
C
100
AcDbDictionary
281
     1
  3
Normal
350
F
100
AcDbDictionaryWithDefault
340
F
  0
DICTIONARY
  5
47
102
{ACAD_REACTORS
330
C
102
}
330
C
100
AcDbDictionary
281
     1
  3
A0
350
48
  3
A1
350
49
  3
A2
350
4A
  3
A3
350
4B
  3
A4
350
4C
  3
A5
350
4D
  3
A6
350
4E
  3
A7
350
4F
  3
A8
350
50
  3
A9
350
51
  3
B0
350
52
  3
B1
350
53
  3
B2
350
54
  3
B3
350
55
  3
B4
350
56
  3
B5
350
57
  3
B6
350
58
  3
B7
350
59
  3
B8
350
5A
  3
B9
350
5B
  3
C0
350
5C
  3
C1
350
5D
  3
C2
350
5E
  3
C3
350
5F
  3
C4
350
60
  3
C5
350
61
  3
C6
350
62
  3
C7
350
63
  3
C8
350
64
  3
C9
350
65
  3
D0
350
66
  3
D1
350
67
  3
D2
350
68
  0
DICTIONARY
  5
131
102
{ACAD_REACTORS
330
C
102
}
330
C
100
AcDbDictionary
281
     1
  0
XRECORD
  5
288
102
{ACAD_REACTORS
330
C
102
}
330
C
100
AcDbXrecord
280
     1
  1
DWGPROPS COOKIE
  2

  3

  4

  6

  7

  8
12016016
  9

300
=
301
=
302
=
303
=
304
=
305
=
306
=
307
=
308
=
309
=
 40
0.0
 41
2458269.449199942
 42
2459702.279196864
  1

 90
        0
  0
DICTIONARY
  5
1C7
102
{ACAD_REACTORS
330
1C6
102
}
330
1C6
100
AcDbDictionary
281
     1
  0
SORTENTSTABLE
  5
275
102
{ACAD_REACTORS
330
274
102
}
330
274
100
AcDbSortentsTable
330
1F
331
20D
  5
20E
331
20E
  5
20F
331
20F
  5
210
331
210
  5
211
331
211
  5
212
331
212
  5
213
331
213
  5
214
331
0
  5
215
331
215
  5
217
331
216
  5
218
331
217
  5
219
331
218
  5
21A
331
219
  5
21B
331
21A
  5
21C
331
21B
  5
21D
331
21C
  5
21E
331
21D
  5
21F
331
21E
  5
220
331
21F
  5
221
331
220
  5
222
331
221
  5
223
331
222
  5
224
331
223
  5
225
331
224
  5
226
331
225
  5
227
331
226
  5
228
331
227
  5
229
331
228
  5
22A
331
229
  5
22D
331
22A
  5
22E
331
22D
  5
22F
331
22E
  5
230
331
22F
  5
231
331
230
  5
232
331
231
  5
233
331
232
  5
234
331
0
  5
235
331
0
  5
272
331
0
  5
273
331
272
  5
276
331
273
  5
216
331
0
  5
277
331
277
  5
278
331
278
  5
20D
  0
DICTIONARY
  5
286
102
{ACAD_REACTORS
330
274
102
}
330
274
100
AcDbDictionary
281
     1
  0
BREAKDATA
  5
22C
102
{ACAD_REACTORS
330
22B
102
}
330
22B
100
AcDbBreakData
 70
     0
330
22A
 90
        4
100
AcDbBreakPointRef
 71
     0
 72
     0
 91
       -1
 10
0.0
 20
0.0
 30
0.0
 11
0.0
 21
0.0
 31
0.0
331
208
 73
     2
 92
        0
100
AcDbBreakPointRef
 71
     0
 72
     0
 91
       -1
 10
0.0
 20
0.0
 30
0.0
 11
0.0
 21
0.0
 31
0.0
331
1FD
 73
     2
 92
        0
100
AcDbBreakPointRef
 71
     0
 72
     0
 91
       -1
 10
0.0
 20
0.0
 30
0.0
 11
0.0
 21
0.0
 31
0.0
331
20A
 73
     2
 92
        0
100
AcDbBreakPointRef
 71
     0
 72
     0
 91
       -1
 10
0.0
 20
0.0
 30
0.0
 11
0.0
 21
0.0
 31
0.0
331
1FB
 73
     2
 92
        0
  0
LAYOUT
  5
1E
102
{ACAD_REACTORS
330
1A
102
}
330
1A
100
AcDbPlotSettings
  1

  2
none_device
  4

  6

 40
0.0
 41
0.0
 42
0.0
 43
0.0
 44
0.0
 45
0.0
 46
0.0
 47
0.0
 48
0.0
 49
0.0
140
0.0
141
0.0
142
1.0
143
1.0
 70
   688
 72
     1
 73
     0
 74
     5
  7

 75
    16
147
1.0
148
0.0
149
0.0
100
AcDbLayout
  1
Layout1
 70
     1
 71
     1
 10
0.0
 20
0.0
 11
420.0
 21
297.0
 12
0.0
 22
0.0
 32
0.0
 14
1.000000000000000E+20
 24
1.000000000000000E+20
 34
1.000000000000000E+20
 15
-1.000000000000000E+20
 25
-1.000000000000000E+20
 35
-1.000000000000000E+20
146
0.0
 13
0.0
 23
0.0
 33
0.0
 16
1.0
 26
0.0
 36
0.0
 17
0.0
 27
1.0
 37
0.0
 76
     0
330
1B
  0
LAYOUT
  5
26
102
{ACAD_REACTORS
330
1A
102
}
330
1A
100
AcDbPlotSettings
  1

  2
none_device
  4

  6

 40
0.0
 41
0.0
 42
0.0
 43
0.0
 44
0.0
 45
0.0
 46
0.0
 47
0.0
 48
0.0
 49
0.0
140
0.0
141
0.0
142
1.0
143
1.0
 70
   688
 72
     1
 73
     0
 74
     5
  7

 75
    16
147
1.0
148
0.0
149
0.0
100
AcDbLayout
  1
Layout2
 70
     1
 71
     2
 10
0.0
 20
0.0
 11
0.0
 21
0.0
 12
0.0
 22
0.0
 32
0.0
 14
0.0
 24
0.0
 34
0.0
 15
0.0
 25
0.0
 35
0.0
146
0.0
 13
0.0
 23
0.0
 33
0.0
 16
1.0
 26
0.0
 36
0.0
 17
0.0
 27
1.0
 37
0.0
 76
     0
330
23
  0
LAYOUT
  5
22
102
{ACAD_REACTORS
330
1A
102
}
330
1A
100
AcDbPlotSettings
  1

  2
none_device
  4
ANSI_A_(11.00_x_8.50_Inches)
  6

 40
6.35
 41
19.05
 42
6.35000508
 43
19.05000254
 44
279.4
 45
215.9
 46
88.36817268101404
 47
101.4554344301994
 48
0.0
 49
0.0
140
0.0
141
0.0
142
0.0642989197557414
143
1.0
 70
  1696
 72
     0
 73
     0
 74
     0
  7

 75
     0
147
0.0235690232323232
148
0.0
149
0.0
100
AcDbLayout
  1
Model
 70
     1
 71
     0
 10
0.0
 20
0.0
 11
420.0
 21
297.0
 12
0.0
 22
0.0
 32
0.0
 14
-129.175
 24
-49.97180738881174
 34
0.0
 15
79.73835494594202
 25
35.70879139070593
 35
0.0
146
0.0
 13
0.0
 23
0.0
 33
0.0
 16
1.0
 26
0.0
 36
0.0
 17
0.0
 27
1.0
 37
0.0
 76
     0
330
1F
331
29
  0
MLINESTYLE
  5
18
102
{ACAD_REACTORS
330
17
102
}
330
17
100
AcDbMlineStyle
  2
Standard
 70
     0
  3

 62
   256
 51
90.0
 52
90.0
 71
     2
 49
0.5
 62
   256
  6
BYLAYER
 49
-0.5
 62
   256
  6
BYLAYER
  0
ACDBPLACEHOLDER
  5
F
102
{ACAD_REACTORS
330
E
102
}
330
E
  0
SCALE
  5
48
102
{ACAD_REACTORS
330
47
102
}
330
47
100
AcDbScale
 70
     0
300
1:1
140
1.0
141
1.0
290
     1
  0
SCALE
  5
49
102
{ACAD_REACTORS
330
47
102
}
330
47
100
AcDbScale
 70
     0
300
1:2
140
1.0
141
2.0
290
     0
  0
SCALE
  5
4A
102
{ACAD_REACTORS
330
47
102
}
330
47
100
AcDbScale
 70
     0
300
1:4
140
1.0
141
4.0
290
     0
  0
SCALE
  5
4B
102
{ACAD_REACTORS
330
47
102
}
330
47
100
AcDbScale
 70
     0
300
1:5
140
1.0
141
5.0
290
     0
  0
SCALE
  5
4C
102
{ACAD_REACTORS
330
47
102
}
330
47
100
AcDbScale
 70
     0
300
1:8
140
1.0
141
8.0
290
     0
  0
SCALE
  5
4D
102
{ACAD_REACTORS
330
47
102
}
330
47
100
AcDbScale
 70
     0
300
1:10
140
1.0
141
10.0
290
     0
  0
SCALE
  5
4E
102
{ACAD_REACTORS
330
47
102
}
330
47
100
AcDbScale
 70
     0
300
1:16
140
1.0
141
16.0
290
     0
  0
SCALE
  5
4F
102
{ACAD_REACTORS
330
47
102
}
330
47
100
AcDbScale
 70
     0
300
1:20
140
1.0
141
20.0
290
     0
  0
SCALE
  5
50
102
{ACAD_REACTORS
330
47
102
}
330
47
100
AcDbScale
 70
     0
300
1:30
140
1.0
141
30.0
290
     0
  0
SCALE
  5
51
102
{ACAD_REACTORS
330
47
102
}
330
47
100
AcDbScale
 70
     0
300
1:40
140
1.0
141
40.0
290
     0
  0
SCALE
  5
52
102
{ACAD_REACTORS
330
47
102
}
330
47
100
AcDbScale
 70
     0
300
1:50
140
1.0
141
50.0
290
     0
  0
SCALE
  5
53
102
{ACAD_REACTORS
330
47
102
}
330
47
100
AcDbScale
 70
     0
300
1:100
140
1.0
141
100.0
290
     0
  0
SCALE
  5
54
102
{ACAD_REACTORS
330
47
102
}
330
47
100
AcDbScale
 70
     0
300
2:1
140
2.0
141
1.0
290
     0
  0
SCALE
  5
55
102
{ACAD_REACTORS
330
47
102
}
330
47
100
AcDbScale
 70
     0
300
4:1
140
4.0
141
1.0
290
     0
  0
SCALE
  5
56
102
{ACAD_REACTORS
330
47
102
}
330
47
100
AcDbScale
 70
     0
300
8:1
140
8.0
141
1.0
290
     0
  0
SCALE
  5
57
102
{ACAD_REACTORS
330
47
102
}
330
47
100
AcDbScale
 70
     0
300
10:1
140
10.0
141
1.0
290
     0
  0
SCALE
  5
58
102
{ACAD_REACTORS
330
47
102
}
330
47
100
AcDbScale
 70
     0
300
100:1
140
100.0
141
1.0
290
     0
  0
SCALE
  5
59
102
{ACAD_REACTORS
330
47
102
}
330
47
100
AcDbScale
 70
     0
300
1/128" = 1'-0"
140
0.0078125
141
12.0
290
     0
  0
SCALE
  5
5A
102
{ACAD_REACTORS
330
47
102
}
330
47
100
AcDbScale
 70
     0
300
1/64" = 1'-0"
140
0.015625
141
12.0
290
     0
  0
SCALE
  5
5B
102
{ACAD_REACTORS
330
47
102
}
330
47
100
AcDbScale
 70
     0
300
1/32" = 1'-0"
140
0.03125
141
12.0
290
     0
  0
SCALE
  5
5C
102
{ACAD_REACTORS
330
47
102
}
330
47
100
AcDbScale
 70
     0
300
1/16" = 1'-0"
140
0.0625
141
12.0
290
     0
  0
SCALE
  5
5D
102
{ACAD_REACTORS
330
47
102
}
330
47
100
AcDbScale
 70
     0
300
3/32" = 1'-0"
140
0.09375
141
12.0
290
     0
  0
SCALE
  5
5E
102
{ACAD_REACTORS
330
47
102
}
330
47
100
AcDbScale
 70
     0
300
1/8" = 1'-0"
140
0.125
141
12.0
290
     0
  0
SCALE
  5
5F
102
{ACAD_REACTORS
330
47
102
}
330
47
100
AcDbScale
 70
     0
300
3/16" = 1'-0"
140
0.1875
141
12.0
290
     0
  0
SCALE
  5
60
102
{ACAD_REACTORS
330
47
102
}
330
47
100
AcDbScale
 70
     0
300
1/4" = 1'-0"
140
0.25
141
12.0
290
     0
  0
SCALE
  5
61
102
{ACAD_REACTORS
330
47
102
}
330
47
100
AcDbScale
 70
     0
300
3/8" = 1'-0"
140
0.375
141
12.0
290
     0
  0
SCALE
  5
62
102
{ACAD_REACTORS
330
47
102
}
330
47
100
AcDbScale
 70
     0
300
1/2" = 1'-0"
140
0.5
141
12.0
290
     0
  0
SCALE
  5
63
102
{ACAD_REACTORS
330
47
102
}
330
47
100
AcDbScale
 70
     0
300
3/4" = 1'-0"
140
0.75
141
12.0
290
     0
  0
SCALE
  5
64
102
{ACAD_REACTORS
330
47
102
}
330
47
100
AcDbScale
 70
     0
300
1" = 1'-0"
140
1.0
141
12.0
290
     0
  0
SCALE
  5
65
102
{ACAD_REACTORS
330
47
102
}
330
47
100
AcDbScale
 70
     0
300
1-1/2" = 1'-0"
140
1.5
141
12.0
290
     0
  0
SCALE
  5
66
102
{ACAD_REACTORS
330
47
102
}
330
47
100
AcDbScale
 70
     0
300
3" = 1'-0"
140
3.0
141
12.0
290
     0
  0
SCALE
  5
67
102
{ACAD_REACTORS
330
47
102
}
330
47
100
AcDbScale
 70
     0
300
6" = 1'-0"
140
6.0
141
12.0
290
     0
  0
SCALE
  5
68
102
{ACAD_REACTORS
330
47
102
}
330
47
100
AcDbScale
 70
     0
300
1'-0" = 1'-0"
140
12.0
141
12.0
290
     0
  0
ENDSEC
  0
EOF
