  0
SECTION
  2
HEADER
  9
$ACADVER
  1
AC1015
  9
$ACADMAINTVER
 70
     6
  9
$DWGCODEPAGE
  3
ANSI_949
  9
$INSBASE
 10
0.0
 20
0.0
 30
0.0
  9
$EXTMIN
 10
-126.5125000000001
 20
-49.97180738881174
 30
0.0
  9
$EXTMAX
 10
79.73835494594202
 20
35.07953278207227
 30
0.0
  9
$LIMMIN
 10
0.0
 20
0.0
  9
$LIMMAX
 10
420.0
 20
297.0
  9
$ORTHOMODE
 70
     1
  9
$REGENMODE
 70
     1
  9
$FILLMODE
 70
     1
  9
$QTEXTMODE
 70
     0
  9
$MIRRTEXT
 70
     1
  9
$LTSCALE
 40
1.0
  9
$ATTMODE
 70
     1
  9
$TEXTSIZE
 40
3.5
  9
$TRACEWID
 40
1.0
  9
$TEXTSTYLE
  7
Standard
  9
$CLAYER
  8
0
  9
$CELTYPE
  6
ByLayer
  9
$CECOLOR
 62
   256
  9
$CELTSCALE
 40
1.0
  9
$DISPSILH
 70
     0
  9
$DIMSCALE
 40
1.0
  9
$DIMASZ
 40
3.302
  9
$DIMEXO
 40
1.0
  9
$DIMDLI
 40
3.75
  9
$DIMRND
 40
0.0
  9
$DIMDLE
 40
0.0
  9
$DIMEXE
 40
1.0
  9
$DIMTP
 40
0.0
  9
$DIMTM
 40
0.0
  9
$DIMTXT
 40
3.5
  9
$DIMCEN
 40
2.5
  9
$DIMTSZ
 40
0.0
  9
$DIMTOL
 70
     0
  9
$DIMLIM
 70
     0
  9
$DIMTIH
 70
     1
  9
$DIMTOH
 70
     1
  9
$DIMSE1
 70
     0
  9
$DIMSE2
 70
     0
  9
$DIMTAD
 70
     1
  9
$DIMZIN
 70
     0
  9
$DIMBLK
  1

  9
$DIMASO
 70
     1
  9
$DIMSHO
 70
     1
  9
$DIMPOST
  1

  9
$DIMAPOST
  1

  9
$DIMALT
 70
     0
  9
$DIMALTD
 70
     3
  9
$DIMALTF
 40
0.0393700787401575
  9
$DIMLFAC
 40
1.0
  9
$DIMTOFL
 70
     1
  9
$DIMTVP
 40
0.0
  9
$DIMTIX
 70
     0
  9
$DIMSOXD
 70
     0
  9
$DIMSAH
 70
     0
  9
$DIMBLK1
  1

  9
$DIMBLK2
  1

  9
$DIMSTYLE
  2
ISO-25
  9
$DIMCLRD
 70
     0
  9
$DIMCLRE
 70
     0
  9
$DIMCLRT
 70
     0
  9
$DIMTFAC
 40
1.0
  9
$DIMGAP
 40
1.524
  9
$DIMJUST
 70
     0
  9
$DIMSD1
 70
     0
  9
$DIMSD2
 70
     0
  9
$DIMTOLJ
 70
     0
  9
$DIMTZIN
 70
     0
  9
$DIMALTZ
 70
     0
  9
$DIMALTTZ
 70
     0
  9
$DIMUPT
 70
     0
  9
$DIMDEC
 70
     2
  9
$DIMTDEC
 70
     2
  9
$DIMALTU
 70
     2
  9
$DIMALTTD
 70
     3
  9
$DIMTXSTY
  7
Standard
  9
$DIMAUNIT
 70
     0
  9
$DIMADEC
 70
     2
  9
$DIMALTRND
 40
0.0
  9
$DIMAZIN
 70
     0
  9
$DIMDSEP
 70
    44
  9
$DIMATFIT
 70
     3
  9
$DIMFRAC
 70
     0
  9
$DIMLDRBLK
  1

  9
$DIMLUNIT
 70
     2
  9
$DIMLWD
 70
    -2
  9
$DIMLWE
 70
    -2
  9
$DIMTMOVE
 70
     0
  9
$LUNITS
 70
     2
  9
$LUPREC
 70
     2
  9
$SKETCHINC
 40
1.0
  9
$FILLETRAD
 40
10.0
  9
$AUNITS
 70
     0
  9
$AUPREC
 70
     2
  9
$MENU
  1
.
  9
$ELEVATION
 40
0.0
  9
$PELEVATION
 40
0.0
  9
$THICKNESS
 40
0.0
  9
$LIMCHECK
 70
     0
  9
$CHAMFERA
 40
0.0
  9
$CHAMFERB
 40
0.0
  9
$CHAMFERC
 40
0.0
  9
$CHAMFERD
 40
0.0
  9
$SKPOLY
 70
     0
  9
$TDCREATE
 40
2458269.821742211
  9
$TDUCREATE
 40
2458269.446742211
  9
$TDUPDATE
 40
2459702.637664803
  9
$TDUUPDATE
 40
2459702.262664803
  9
$TDINDWG
 40
0.0010851505
  9
$TDUSRTIMER
 40
0.0010851389
  9
$USRTIMER
 70
     1
  9
$ANGBASE
 50
0.0
  9
$ANGDIR
 70
     0
  9
$PDMODE
 70
     0
  9
$PDSIZE
 40
-1.0
  9
$PLINEWID
 40
0.0
  9
$SPLFRAME
 70
     0
  9
$SPLINETYPE
 70
     6
  9
$SPLINESEGS
 70
     8
  9
$HANDSEED
  5
22E
  9
$SURFTAB1
 70
     6
  9
$SURFTAB2
 70
     6
  9
$SURFTYPE
 70
     6
  9
$SURFU
 70
     6
  9
$SURFV
 70
     6
  9
$UCSBASE
  2

  9
$UCSNAME
  2

  9
$UCSORG
 10
0.0
 20
0.0
 30
0.0
  9
$UCSXDIR
 10
1.0
 20
0.0
 30
0.0
  9
$UCSYDIR
 10
0.0
 20
1.0
 30
0.0
  9
$UCSORTHOREF
  2

  9
$UCSORTHOVIEW
 70
     0
  9
$UCSORGTOP
 10
0.0
 20
0.0
 30
0.0
  9
$UCSORGBOTTOM
 10
0.0
 20
0.0
 30
0.0
  9
$UCSORGLEFT
 10
0.0
 20
0.0
 30
0.0
  9
$UCSORGRIGHT
 10
0.0
 20
0.0
 30
0.0
  9
$UCSORGFRONT
 10
0.0
 20
0.0
 30
0.0
  9
$UCSORGBACK
 10
0.0
 20
0.0
 30
0.0
  9
$PUCSBASE
  2

  9
$PUCSNAME
  2

  9
$PUCSORG
 10
0.0
 20
0.0
 30
0.0
  9
$PUCSXDIR
 10
1.0
 20
0.0
 30
0.0
  9
$PUCSYDIR
 10
0.0
 20
1.0
 30
0.0
  9
$PUCSORTHOREF
  2

  9
$PUCSORTHOVIEW
 70
     0
  9
$PUCSORGTOP
 10
0.0
 20
0.0
 30
0.0
  9
$PUCSORGBOTTOM
 10
0.0
 20
0.0
 30
0.0
  9
$PUCSORGLEFT
 10
0.0
 20
0.0
 30
0.0
  9
$PUCSORGRIGHT
 10
0.0
 20
0.0
 30
0.0
  9
$PUCSORGFRONT
 10
0.0
 20
0.0
 30
0.0
  9
$PUCSORGBACK
 10
0.0
 20
0.0
 30
0.0
  9
$USERI1
 70
     0
  9
$USERI2
 70
     0
  9
$USERI3
 70
     0
  9
$USERI4
 70
     0
  9
$USERI5
 70
     0
  9
$USERR1
 40
0.0
  9
$USERR2
 40
0.0
  9
$USERR3
 40
0.0
  9
$USERR4
 40
0.0
  9
$USERR5
 40
0.0
  9
$WORLDVIEW
 70
     1
  9
$SHADEDGE
 70
     3
  9
$SHADEDIF
 70
    70
  9
$TILEMODE
 70
     1
  9
$MAXACTVP
 70
    64
  9
$PINSBASE
 10
0.0
 20
0.0
 30
0.0
  9
$PLIMCHECK
 70
     0
  9
$PEXTMIN
 10
1.000000000000000E+20
 20
1.000000000000000E+20
 30
1.000000000000000E+20
  9
$PEXTMAX
 10
-1.000000000000000E+20
 20
-1.000000000000000E+20
 30
-1.000000000000000E+20
  9
$PLIMMIN
 10
0.0
 20
0.0
  9
$PLIMMAX
 10
0.0
 20
0.0
  9
$UNITMODE
 70
     0
  9
$VISRETAIN
 70
     1
  9
$PLINEGEN
 70
     0
  9
$PSLTSCALE
 70
     1
  9
$TREEDEPTH
 70
  3020
  9
$CMLSTYLE
  2
Standard
  9
$CMLJUST
 70
     0
  9
$CMLSCALE
 40
20.0
  9
$PROXYGRAPHICS
 70
     1
  9
$MEASUREMENT
 70
     1
  9
$CELWEIGHT
370
    -1
  9
$ENDCAPS
280
     0
  9
$JOINSTYLE
280
     0
  9
$LWDISPLAY
290
     1
  9
$INSUNITS
 70
     4
  9
$HYPERLINKBASE
  1

  9
$STYLESHEET
  1

  9
$XEDIT
290
     1
  9
$CEPSNTYPE
380
     0
  9
$PSTYLEMODE
290
     1
  9
$FINGERPRINTGUID
  2
{63FF4546-3BB2-49BF-AD61-46CBD66B990F}
  9
$VERSIONGUID
  2
{FAEB1C32-E019-11D5-929B-00C0DF256EC4}
  9
$EXTNAMES
290
     1
  9
$PSVPSCALE
 40
0.0
  9
$OLESTARTUP
290
     0
  0
ENDSEC
  0
SECTION
  2
CLASSES
  0
CLASS
  1
ACDBDICTIONARYWDFLT
  2
AcDbDictionaryWithDefault
  3
ObjectDBX Classes
 90
        0
280
     0
281
     0
  0
CLASS
  1
VISUALSTYLE
  2
AcDbVisualStyle
  3
ObjectDBX Classes
 90
     4095
280
     0
281
     0
  0
CLASS
  1
MATERIAL
  2
AcDbMaterial
  3
ObjectDBX Classes
 90
     1153
280
     0
281
     0
  0
CLASS
  1
SCALE
  2
AcDbScale
  3
ObjectDBX Classes
 90
     1153
280
     0
281
     0
  0
CLASS
  1
SUN
  2
AcDbSun
  3
SCENEOE
 90
     1153
280
     0
281
     0
  0
CLASS
  1
ACDBPLACEHOLDER
  2
AcDbPlaceHolder
  3
ObjectDBX Classes
 90
        0
280
     0
281
     0
  0
CLASS
  1
LAYOUT
  2
AcDbLayout
  3
ObjectDBX Classes
 90
        0
280
     0
281
     0
  0
CLASS
  1
TABLESTYLE
  2
AcDbTableStyle
  3
ObjectDBX Classes
 90
     4095
280
     0
281
     0
  0
CLASS
  1
MLEADERSTYLE
  2
AcDbMLeaderStyle
  3
ACDB_MLEADERSTYLE_CLASS
 90
     4095
280
     0
281
     0
  0
CLASS
  1
BREAKDATA
  2
AcDbBreakData
  3
ObjectDBX Classes
 90
     1024
280
     0
281
     0
  0
CLASS
  1
DIMASSOC
  2
AcDbDimAssoc
  3
"AcDbDimAssoc|Product Desc:     AcDim ARX App For Dimension|Company:          Autodesk, Inc.|WEB Address:      www.autodesk.com"
 90
        0
280
     0
281
     0
  0
ENDSEC
  0
SECTION
  2
TABLES
  0
TABLE
  2
VPORT
  5
8
330
0
100
AcDbSymbolTable
 70
     1
  0
VPORT
  5
29
330
8
100
AcDbSymbolTableRecord
100
AcDbViewportTableRecord
  2
*Active
 70
     0
 10
0.0
 20
0.0
 11
1.0
 21
1.0
 12
-95.58190518327528
 22
25.22170650195132
 13
0.0
 23
0.0
 14
10.0
 24
10.0
 15
10.0
 25
10.0
 16
0.0
 26
0.0
 36
1.0
 17
0.0
 27
0.0
 37
0.0
 40
220.8334339014043
 41
1.531481481481481
 42
50.0
 43
0.0
 44
0.0
 50
0.0
 51
0.0
 71
    16
 72
  2000
 73
     1
 74
     3
 75
     0
 76
     0
 77
     0
 78
     0
281
     0
 65
     1
110
0.0
120
0.0
130
0.0
111
1.0
121
0.0
131
0.0
112
0.0
122
1.0
132
0.0
 79
     0
146
0.0
  0
ENDTAB
  0
TABLE
  2
LTYPE
  5
5
330
0
100
AcDbSymbolTable
 70
     6
  0
LTYPE
  5
14
330
5
100
AcDbSymbolTableRecord
100
AcDbLinetypeTableRecord
  2
ByBlock
 70
     0
  3

 72
    65
 73
     0
 40
0.0
  0
LTYPE
  5
15
330
5
100
AcDbSymbolTableRecord
100
AcDbLinetypeTableRecord
  2
ByLayer
 70
     0
  3

 72
    65
 73
     0
 40
0.0
  0
LTYPE
  5
16
330
5
100
AcDbSymbolTableRecord
100
AcDbLinetypeTableRecord
  2
Continuous
 70
     0
  3
Solid line
 72
    65
 73
     0
 40
0.0
  0
LTYPE
  5
6A
330
5
100
AcDbSymbolTableRecord
100
AcDbLinetypeTableRecord
  2
HIDDEN
 70
     0
  3
Hidden __ __ __ __ __ __ __ __ __ __ __ __ __ __
 72
    65
 73
     2
 40
1.905
 49
1.27
 74
     0
 49
-0.635
 74
     0
  0
LTYPE
  5
6B
330
5
100
AcDbSymbolTableRecord
100
AcDbLinetypeTableRecord
  2
PHANTOM
 70
     0
  3
Phantom ______  __  __  ______  __  __  ______
 72
    65
 73
     6
 40
12.7
 49
6.35
 74
     0
 49
-1.27
 74
     0
 49
1.27
 74
     0
 49
-1.27
 74
     0
 49
1.27
 74
     0
 49
-1.27
 74
     0
  0
LTYPE
  5
6C
330
5
100
AcDbSymbolTableRecord
100
AcDbLinetypeTableRecord
  2
CENTER
 70
     0
  3
Center ____ _ ____ _ ____ _ ____ _ ____ _ ____
 72
    65
 73
     4
 40
10.16
 49
6.35
 74
     0
 49
-1.27
 74
     0
 49
1.27
 74
     0
 49
-1.27
 74
     0
  0
LTYPE
  5
6D
330
5
100
AcDbSymbolTableRecord
100
AcDbLinetypeTableRecord
  2
CENTERX2
 70
     0
  3
Center (2x) ________  __  ________  __  _____
 72
    65
 73
     4
 40
20.32
 49
12.7
 74
     0
 49
-2.54
 74
     0
 49
2.54
 74
     0
 49
-2.54
 74
     0
  0
LTYPE
  5
6E
330
5
100
AcDbSymbolTableRecord
100
AcDbLinetypeTableRecord
  2
DOT2
 70
     0
  3
Dot (.5x) ........................................
 72
    65
 73
     2
 40
0.635
 49
0.0
 74
     0
 49
-0.635
 74
     0
  0
ENDTAB
  0
TABLE
  2
LAYER
  5
2
102
{ACAD_XDICTIONARY
360
1B4
102
}
330
0
100
AcDbSymbolTable
 70
    18
  0
LAYER
  5
10
330
2
100
AcDbSymbolTableRecord
100
AcDbLayerTableRecord
  2
0
 70
     0
 62
     7
  6
Continuous
370
    -3
390
F
  0
LAYER
  5
6F
330
2
100
AcDbSymbolTableRecord
100
AcDbLayerTableRecord
  2
FORMAT
 70
     0
 62
     2
  6
Continuous
370
    -3
390
F
  0
LAYER
  5
70
330
2
100
AcDbSymbolTableRecord
100
AcDbLayerTableRecord
  2
외형선
 70
     0
 62
     4
  6
Continuous
370
    30
390
F
  0
LAYER
  5
71
330
2
100
AcDbSymbolTableRecord
100
AcDbLayerTableRecord
  2
숨은선
 70
     0
 62
     2
  6
HIDDEN
370
    15
390
F
  0
LAYER
  5
72
330
2
100
AcDbSymbolTableRecord
100
AcDbLayerTableRecord
  2
중심선
 70
     0
 62
     1
  6
CENTERX2
370
    -3
390
F
  0
LAYER
  5
73
330
2
100
AcDbSymbolTableRecord
100
AcDbLayerTableRecord
  2
파단선
 70
     0
 62
     4
  6
Continuous
370
    -3
390
F
  0
LAYER
  5
74
330
2
100
AcDbSymbolTableRecord
100
AcDbLayerTableRecord
  2
해칭선
 70
     0
 62
   100
  6
Continuous
370
    -3
390
F
  0
LAYER
  5
75
330
2
100
AcDbSymbolTableRecord
100
AcDbLayerTableRecord
  2
가는실선
 70
     0
 62
     4
  6
Continuous
370
    -3
390
F
  0
LAYER
  5
76
330
2
100
AcDbSymbolTableRecord
100
AcDbLayerTableRecord
  2
치수_보조선
 70
     0
 62
     4
  6
Continuous
370
    -3
390
F
  0
LAYER
  5
77
330
2
100
AcDbSymbolTableRecord
100
AcDbLayerTableRecord
  2
치수문자_일반주서
 70
     0
 62
     7
  6
Continuous
370
    15
390
F
  0
LAYER
  5
78
330
2
100
AcDbSymbolTableRecord
100
AcDbLayerTableRecord
  2
개별주서
 70
     0
 62
   100
  6
Continuous
370
    30
390
F
  0
LAYER
  5
79
330
2
100
AcDbSymbolTableRecord
100
AcDbLayerTableRecord
  2
중간선
 70
     0
 62
     2
  6
Continuous
370
    15
390
F
  0
LAYER
  5
7A
330
2
100
AcDbSymbolTableRecord
100
AcDbLayerTableRecord
  2
윤곽선
 70
     0
 62
     3
  6
Continuous
370
    40
390
F
  0
LAYER
  5
7B
330
2
100
AcDbSymbolTableRecord
100
AcDbLayerTableRecord
  2
중심마크
 70
     0
 62
   100
  6
Continuous
370
    30
390
F
  0
LAYER
  5
7C
330
2
100
AcDbSymbolTableRecord
100
AcDbLayerTableRecord
  2
가상선
 70
     0
 62
     4
  6
PHANTOM
370
    -3
390
F
  0
LAYER
  5
7D
330
2
100
AcDbSymbolTableRecord
100
AcDbLayerTableRecord
  2
특수지정선
 70
     0
 62
     5
  6
CENTERX2
370
    60
390
F
  0
LAYER
  5
7E
330
2
100
AcDbSymbolTableRecord
100
AcDbLayerTableRecord
  2
참조1
 70
     0
 62
    -4
  6
Continuous
370
    -3
390
F
  0
LAYER
  5
12A
330
2
100
AcDbSymbolTableRecord
100
AcDbLayerTableRecord
  2
Defpoints
 70
     0
 62
     7
  6
Continuous
290
     0
370
    -3
390
F
  0
ENDTAB
  0
TABLE
  2
STYLE
  5
3
330
0
100
AcDbSymbolTable
 70
     2
  0
STYLE
  5
11
330
3
100
AcDbSymbolTableRecord
100
AcDbTextStyleTableRecord
  2
Standard
 70
     0
 40
0.0
 41
1.0
 50
0.0
 71
     0
 42
3.5
  3
txt
  4

  0
STYLE
  5
94
330
3
100
AcDbSymbolTableRecord
100
AcDbTextStyleTableRecord
  2
SLDTEXTSTYLE0
 70
     0
 40
0.0
 41
0.75
 50
0.0
 71
     0
 42
3.5
  3
TXT
  4

  0
ENDTAB
  0
TABLE
  2
VIEW
  5
6
330
0
100
AcDbSymbolTable
 70
     0
  0
ENDTAB
  0
TABLE
  2
UCS
  5
7
330
0
100
AcDbSymbolTable
 70
     0
  0
ENDTAB
  0
TABLE
  2
APPID
  5
9
330
0
100
AcDbSymbolTable
 70
     4
  0
APPID
  5
12
330
9
100
AcDbSymbolTableRecord
100
AcDbRegAppTableRecord
  2
ACAD
 70
     0
  0
APPID
  5
136
330
9
100
AcDbSymbolTableRecord
100
AcDbRegAppTableRecord
  2
PE_URL
 70
     0
  0
APPID
  5
137
330
9
100
AcDbSymbolTableRecord
100
AcDbRegAppTableRecord
  2
ACAD_DSTYLE_DIMRADIAL_EXTENSION
 70
     0
  0
APPID
  5
138
330
9
100
AcDbSymbolTableRecord
100
AcDbRegAppTableRecord
  2
ENABLE_CUSTOM_SPLIT
 70
     0
  0
ENDTAB
  0
TABLE
  2
DIMSTYLE
  5
A
330
0
100
AcDbSymbolTable
 70
     3
100
AcDbDimStyleTable
  0
DIMSTYLE
105
27
330
A
100
AcDbSymbolTableRecord
100
AcDbDimStyleTableRecord
  2
ISO-25
 70
     0
 41
2.5
 42
0.625
 43
3.75
 44
1.25
 73
     0
 74
     0
 77
     1
 78
     8
140
2.5
141
2.5
143
0.03937007874016
147
0.625
171
     3
172
     1
178
     0
271
     2
272
     2
274
     3
278
    44
283
     0
284
     8
340
11
  0
DIMSTYLE
105
CA
102
{ACAD_REACTORS
330
167
330
174
330
1E0
330
1E1
102
}
330
A
100
AcDbSymbolTableRecord
100
AcDbDimStyleTableRecord
  2
SLDDIMSTYLE0
 70
     0
 41
3.302
 44
0.0
 45
0.000000001
 73
     0
 74
     0
 77
     1
 78
    12
 79
     3
140
3.5
147
0.875
172
     1
173
     1
178
     0
271
     2
272
     2
276
     2
284
    12
289
     0
340
94
  0
DIMSTYLE
105
E5
102
{ACAD_REACTORS
330
181
330
18E
330
1A6
330
1E2
330
1E3
330
1E9
102
}
330
A
100
AcDbSymbolTableRecord
100
AcDbDimStyleTableRecord
  2
SLDDIMSTYLE1
 70
     0
 41
3.302
 44
0.0
 45
0.000000001
 73
     0
 74
     0
 77
     1
 78
    12
 79
     3
140
3.5
147
0.875
173
     1
178
     0
271
     2
272
     2
276
     2
284
    12
340
94
  0
ENDTAB
  0
TABLE
  2
BLOCK_RECORD
  5
1
330
0
100
AcDbSymbolTable
 70
    17
  0
BLOCK_RECORD
  5
1F
102
{ACAD_XDICTIONARY
360
22A
102
}
330
1
100
AcDbSymbolTableRecord
100
AcDbBlockTableRecord
  2
*Model_Space
340
22
  0
BLOCK_RECORD
  5
1B
330
1
100
AcDbSymbolTableRecord
100
AcDbBlockTableRecord
  2
*Paper_Space
340
1E
  0
BLOCK_RECORD
  5
23
330
1
100
AcDbSymbolTableRecord
100
AcDbBlockTableRecord
  2
*Paper_Space0
340
26
  0
BLOCK_RECORD
  5
7F
330
1
100
AcDbSymbolTableRecord
100
AcDbBlockTableRecord
  2
블럭10
340
0
102
{BLKREFS
331
C2
102
}
  0
BLOCK_RECORD
  5
CB
330
1
100
AcDbSymbolTableRecord
100
AcDbBlockTableRecord
  2
_D
340
0
  0
BLOCK_RECORD
  5
D8
330
1
100
AcDbSymbolTableRecord
100
AcDbBlockTableRecord
  2
_D_1
340
0
  0
BLOCK_RECORD
  5
E6
330
1
100
AcDbSymbolTableRecord
100
AcDbBlockTableRecord
  2
_D_2
340
0
  0
BLOCK_RECORD
  5
F0
330
1
100
AcDbSymbolTableRecord
100
AcDbBlockTableRecord
  2
_D_3
340
0
  0
BLOCK_RECORD
  5
100
330
1
100
AcDbSymbolTableRecord
100
AcDbBlockTableRecord
  2
SW_DOWELSYMBOL_0
340
0
102
{BLKREFS
331
0
331
19D
331
1E6
102
}
  0
BLOCK_RECORD
  5
168
330
1
100
AcDbSymbolTableRecord
100
AcDbBlockTableRecord
  2
*D8
340
0
  0
BLOCK_RECORD
  5
175
330
1
100
AcDbSymbolTableRecord
100
AcDbBlockTableRecord
  2
*D9
340
0
  0
BLOCK_RECORD
  5
182
330
1
100
AcDbSymbolTableRecord
100
AcDbBlockTableRecord
  2
*D10
340
0
  0
BLOCK_RECORD
  5
191
330
1
100
AcDbSymbolTableRecord
100
AcDbBlockTableRecord
  2
*D11
340
0
  0
BLOCK_RECORD
  5
1A9
330
1
100
AcDbSymbolTableRecord
100
AcDbBlockTableRecord
  2
*D12
340
0
  0
BLOCK_RECORD
  5
1ED
330
1
100
AcDbSymbolTableRecord
100
AcDbBlockTableRecord
  2
*D13
340
0
  0
BLOCK_RECORD
  5
1F9
330
1
100
AcDbSymbolTableRecord
100
AcDbBlockTableRecord
  2
*D14
340
0
  0
BLOCK_RECORD
  5
205
330
1
100
AcDbSymbolTableRecord
100
AcDbBlockTableRecord
  2
*D15
340
0
  0
BLOCK_RECORD
  5
211
330
1
100
AcDbSymbolTableRecord
100
AcDbBlockTableRecord
  2
*D16
340
0
  0
BLOCK_RECORD
  5
21D
330
1
100
AcDbSymbolTableRecord
100
AcDbBlockTableRecord
  2
*D17
340
0
  0
ENDTAB
  0
ENDSEC
  0
SECTION
  2
BLOCKS
  0
BLOCK
  5
20
330
1F
100
AcDbEntity
  8
0
100
AcDbBlockBegin
  2
*Model_Space
 70
     0
 10
0.0
 20
0.0
 30
0.0
  3
*Model_Space
  1

  0
ENDBLK
  5
21
330
1F
100
AcDbEntity
  8
0
100
AcDbBlockEnd
  0
BLOCK
  5
1C
330
1B
100
AcDbEntity
 67
     1
  8
0
100
AcDbBlockBegin
  2
*Paper_Space
 70
     0
 10
0.0
 20
0.0
 30
0.0
  3
*Paper_Space
  1

  0
ENDBLK
  5
1D
330
1B
100
AcDbEntity
 67
     1
  8
0
100
AcDbBlockEnd
  0
BLOCK
  5
24
330
23
100
AcDbEntity
  8
0
100
AcDbBlockBegin
  2
*Paper_Space0
 70
     0
 10
0.0
 20
0.0
 30
0.0
  3
*Paper_Space0
  1

  0
ENDBLK
  5
25
330
23
100
AcDbEntity
  8
0
100
AcDbBlockEnd
  0
BLOCK
  5
80
330
7F
100
AcDbEntity
  8
0
100
AcDbBlockBegin
  2
블럭10
 70
     2
 10
0.0
 20
0.0
 30
0.0
  3
블럭10
  1

  0
ELLIPSE
  5
82
330
7F
100
AcDbEntity
  8
중심선
100
AcDbEllipse
 10
20.54032771741204
 20
12.0471743016438
 30
0.0
 11
6.600054785286829
 21
-1.261213355974178E-13
 31
0.0
210
0.0
220
0.0
230
1.0
 40
0.636358354079598
 41
0.9219305317359503
 42
6.513795318482858
  0
ELLIPSE
  5
83
330
7F
100
AcDbEntity
  8
중심선
100
AcDbEllipse
 10
20.54032771746488
 20
12.04717430159265
 30
0.0
 11
3.960054785062283
 21
1.540847449632565E-10
 31
0.0
210
0.0
220
0.0
230
1.0
 40
0.3939339440162632
 41
1.131841032648279
 42
5.62031148352944
  0
LINE
  5
84
330
7F
100
AcDbEntity
  8
중심선
100
AcDbLine
 10
2.268634060543552
 20
16.24717430164393
 30
0.0
 11
5.714909304380834
 21
16.24717430164393
 31
0.0
  0
LINE
  5
85
330
7F
100
AcDbEntity
  8
중심선
100
AcDbLine
 10
5.245725140726316
 20
7.84717430164391
 30
0.0
 11
8.692000384563599
 21
7.84717430164391
 31
0.0
  0
LINE
  5
86
330
7F
100
AcDbEntity
  8
중심선
100
AcDbLine
 10
15.74043728645272
 20
16.24717430164393
 30
0.0
 11
8.692000384563599
 21
7.84717430164391
 31
0.0
  0
LINE
  5
87
330
7F
100
AcDbEntity
  8
중심선
100
AcDbLine
 10
0.1404042013395286
 20
13.71084872107135
 30
0.0
 11
3.58671253028996
 21
13.71088815037384
 31
0.0
  0
LINE
  5
88
330
7F
100
AcDbEntity
  8
중심선
100
AcDbLine
 10
2.750260043222114
 20
10.84717430164391
 30
0.0
 11
6.196535287059397
 21
10.84717430164391
 31
0.0
  0
LINE
  5
89
330
7F
100
AcDbEntity
  8
중심선
100
AcDbLine
 10
12.29416204261559
 20
16.24717430164393
 30
0.0
 11
5.245725140726316
 21
7.84717430164391
 31
0.0
  0
LINE
  5
8A
330
7F
100
AcDbEntity
  8
중심선
100
AcDbLine
 10
10.72767329541681
 20
16.24717430164393
 30
0.0
 11
6.196535287059397
 21
10.84717430164391
 31
0.0
  0
LINE
  5
8B
330
7F
100
AcDbEntity
  8
중심선
100
AcDbLine
 10
7.28139805157953
 20
16.24717430164393
 30
0.0
 11
2.750260043222114
 21
10.84717430164391
 31
0.0
  0
LINE
  5
8C
330
7F
100
AcDbEntity
  8
중심선
100
AcDbLine
 10
5.714909304380834
 20
16.24717430164393
 30
0.0
 11
3.58671253028996
 21
13.71088815037384
 31
0.0
  0
LINE
  5
8D
330
7F
100
AcDbEntity
  8
중심선
100
AcDbLine
 10
2.268634060543552
 20
16.24717430164393
 30
0.0
 11
0.1404042013395286
 21
13.71084872107135
 31
0.0
  0
LINE
  5
8E
330
7F
100
AcDbEntity
  8
중심선
100
AcDbLine
 10
7.28139805157953
 20
16.24717430164393
 30
0.0
 11
10.72767329541681
 21
16.24717430164393
 31
0.0
  0
LINE
  5
8F
330
7F
100
AcDbEntity
  8
중심선
100
AcDbLine
 10
12.29416204261559
 20
16.24717430164393
 30
0.0
 11
15.74043728645272
 21
16.24717430164393
 31
0.0
  0
LINE
  5
90
330
7F
100
AcDbEntity
  8
중심선
100
AcDbLine
 10
19.22036997980202
 20
11.08717430171403
 30
0.0
 11
23.66174974927406
 21
11.08717430171406
 31
0.0
  0
LINE
  5
91
330
7F
100
AcDbEntity
  8
중심선
100
AcDbLine
 10
19.22039502424796
 20
13.00717430171391
 30
0.0
 11
19.22036997980202
 21
11.08717430171403
 31
0.0
  0
LINE
  5
92
330
7F
100
AcDbEntity
  8
중심선
100
AcDbLine
 10
19.22039502424796
 20
13.00717430171391
 30
0.0
 11
26.96566020931264
 21
13.00717430171391
 31
0.0
  0
LINE
  5
93
330
7F
100
AcDbEntity
  8
중심선
100
AcDbLine
 10
22.22332737316547
 20
13.45928029700563
 30
0.0
 11
24.52862924686651
 21
15.39360700705356
 31
0.0
  0
ATTDEF
  5
95
330
7F
100
AcDbEntity
  8
FORMAT
 62
     2
100
AcDbText
 10
-20.85824753159254
 20
2.075366912832191
 30
0.0
 40
4.233333333333333
  1
SEME0112005150E [ 4 FLUTE ]
 41
0.75
  7
SLDTEXTSTYLE0
 11
-20.85824753159254
 21
-0.0412997538344756
 31
0.0
100
AcDbAttributeDefinition
  3

  2
AUTOATTR0
 70
     0
 74
     1
  0
ENDBLK
  5
81
330
7F
100
AcDbEntity
  8
0
100
AcDbBlockEnd
  0
BLOCK
  5
CC
330
CB
100
AcDbEntity
  8
0
100
AcDbBlockBegin
  2
_D
 70
     0
 10
0.0
 20
0.0
 30
0.0
  3
_D
  1

  0
SOLID
  5
CE
330
CB
100
AcDbEntity
  8
치수문자_일반주서
100
AcDbTrace
 10
79.32487721999401
 20
6.000000000000003
 30
0.0
 11
79.832877219994
 21
9.302000000000003
 31
0.0
 12
78.81687721999401
 22
9.302000000000003
 32
0.0
 13
78.81687721999401
 23
9.302000000000003
 33
0.0
  0
SOLID
  5
CF
330
CB
100
AcDbEntity
  8
치수문자_일반주서
100
AcDbTrace
 10
79.32487721999401
 20
-6.000000000000001
 30
0.0
 11
78.81687721999401
 21
-9.302
 31
0.0
 12
79.832877219994
 22
-9.302
 32
0.0
 13
79.832877219994
 23
-9.302
 33
0.0
  0
LINE
  5
D0
330
CB
100
AcDbEntity
  8
치수문자_일반주서
100
AcDbLine
 10
92.79273307496757
 20
6.000000000000002
 30
0.0
 11
78.32487721999401
 21
6.000000000000003
 31
0.0
  0
LINE
  5
D1
330
CB
100
AcDbEntity
  8
치수문자_일반주서
100
AcDbLine
 10
92.79273307496751
 20
-6.000000000000002
 30
0.0
 11
78.32487721999401
 21
-6.000000000000001
 31
0.0
  0
LINE
  5
D2
330
CB
100
AcDbEntity
  8
치수문자_일반주서
100
AcDbLine
 10
79.32487721999401
 20
6.000000000000003
 30
0.0
 11
79.32487721999401
 21
12.35
 31
0.0
  0
LINE
  5
D3
330
CB
100
AcDbEntity
  8
치수문자_일반주서
100
AcDbLine
 10
79.32487721999401
 20
6.000000000000003
 30
0.0
 11
79.32487721999401
 21
-6.000000000000001
 31
0.0
  0
LINE
  5
D4
330
CB
100
AcDbEntity
  8
치수문자_일반주서
100
AcDbLine
 10
79.32487721999401
 20
-6.000000000000001
 30
0.0
 11
79.32487721999401
 21
-12.35
 31
0.0
  0
MTEXT
  5
D5
330
CB
100
AcDbEntity
  8
치수문자_일반주서
100
AcDbMText
 10
74.81314013079216
 20
-5.225330125540515
 30
0.0
 40
3.5
 41
0.0
 71
     1
 72
     1
  1
%%c
  7
SLDTEXTSTYLE0
 11
-7.044195017643634E-15
 21
1.0
 31
0.0
 73
     1
 44
1.0
  0
MTEXT
  5
D6
330
CB
100
AcDbEntity
  8
치수문자_일반주서
100
AcDbMText
 10
74.75966795413227
 20
0.0531072728335651
 30
0.0
 40
3.5
 41
0.0
 71
     1
 72
     1
  1
12
  7
SLDTEXTSTYLE0
 11
-7.044195017643634E-15
 21
1.0
 31
0.0
 73
     1
 44
1.0
  0
ENDBLK
  5
CD
330
CB
100
AcDbEntity
  8
0
100
AcDbBlockEnd
  0
BLOCK
  5
D9
330
D8
100
AcDbEntity
  8
0
100
AcDbBlockBegin
  2
_D_1
 70
     0
 10
0.0
 20
0.0
 30
0.0
  3
_D_1
  1

  0
SOLID
  5
DB
330
D8
100
AcDbEntity
  8
치수문자_일반주서
100
AcDbTrace
 10
-52.97512886940358
 20
6.000000000000004
 30
0.0
 11
-52.46712886940357
 21
9.302000000000003
 31
0.0
 12
-53.48312886940358
 22
9.302000000000003
 32
0.0
 13
-53.48312886940358
 23
9.302000000000003
 33
0.0
  0
SOLID
  5
DC
330
D8
100
AcDbEntity
  8
치수문자_일반주서
100
AcDbTrace
 10
-52.97512886940358
 20
-6.000000000000006
 30
0.0
 11
-53.48312886940358
 21
-9.302000000000007
 31
0.0
 12
-52.46712886940357
 22
-9.302000000000007
 32
0.0
 13
-52.46712886940357
 23
-9.302000000000007
 33
0.0
  0
LINE
  5
DD
330
D8
100
AcDbEntity
  8
치수문자_일반주서
100
AcDbLine
 10
-40.57512886940356
 20
6.000000000000005
 30
0.0
 11
-53.97512886940358
 21
6.000000000000004
 31
0.0
  0
LINE
  5
DE
330
D8
100
AcDbEntity
  8
치수문자_일반주서
100
AcDbLine
 10
-40.57512886940356
 20
-6.000000000000005
 30
0.0
 11
-53.97512886940358
 21
-6.000000000000006
 31
0.0
  0
LINE
  5
DF
330
D8
100
AcDbEntity
  8
치수문자_일반주서
100
AcDbLine
 10
-52.97512886940358
 20
6.000000000000004
 30
0.0
 11
-52.97512886940358
 21
12.35
 31
0.0
  0
LINE
  5
E0
330
D8
100
AcDbEntity
  8
치수문자_일반주서
100
AcDbLine
 10
-52.97512886940358
 20
6.000000000000004
 30
0.0
 11
-52.97512886940358
 21
-6.000000000000006
 31
0.0
  0
LINE
  5
E1
330
D8
100
AcDbEntity
  8
치수문자_일반주서
100
AcDbLine
 10
-52.97512886940358
 20
-6.000000000000006
 30
0.0
 11
-52.97512886940358
 21
-12.35000000000001
 31
0.0
  0
MTEXT
  5
E2
330
D8
100
AcDbEntity
  8
치수문자_일반주서
100
AcDbMText
 10
-57.48686595860541
 20
-5.225330125540515
 30
0.0
 40
3.5
 41
0.0
 71
     1
 72
     1
  1
%%c
  7
SLDTEXTSTYLE0
 11
-7.044195017643634E-15
 21
1.0
 31
0.0
 73
     1
 44
1.0
  0
MTEXT
  5
E3
330
D8
100
AcDbEntity
  8
치수문자_일반주서
100
AcDbMText
 10
-57.54033813526529
 20
0.0531072728335651
 30
0.0
 40
3.5
 41
0.0
 71
     1
 72
     1
  1
12
  7
SLDTEXTSTYLE0
 11
-7.044195017643634E-15
 21
1.0
 31
0.0
 73
     1
 44
1.0
  0
ENDBLK
  5
DA
330
D8
100
AcDbEntity
  8
0
100
AcDbBlockEnd
  0
BLOCK
  5
E7
330
E6
100
AcDbEntity
  8
0
100
AcDbBlockBegin
  2
_D_2
 70
     0
 10
0.0
 20
0.0
 30
0.0
  3
_D_2
  1

  0
SOLID
  5
E9
330
E6
100
AcDbEntity
  8
치수문자_일반주서
100
AcDbTrace
 10
109.2248711305963
 20
22.92146591181424
 30
0.0
 11
105.9228711305963
 21
23.42946591181423
 31
0.0
 12
105.9228711305963
 22
22.41346591181423
 32
0.0
 13
105.9228711305963
 23
22.41346591181423
 33
0.0
  0
SOLID
  5
EA
330
E6
100
AcDbEntity
  8
치수문자_일반주서
100
AcDbTrace
 10
79.22487113059626
 20
22.9214659118141
 30
0.0
 11
82.52687113059625
 21
22.41346591181411
 31
0.0
 12
82.52687113059625
 22
23.42946591181411
 32
0.0
 13
82.52687113059625
 23
23.42946591181411
 33
0.0
  0
LINE
  5
EB
330
E6
100
AcDbEntity
  8
치수문자_일반주서
100
AcDbLine
 10
109.2248711305964
 20
6.46829545757137
 30
0.0
 11
109.2248711305963
 21
23.92146591181424
 31
0.0
  0
LINE
  5
EC
330
E6
100
AcDbEntity
  8
치수문자_일반주서
100
AcDbLine
 10
79.22487113059634
 20
6.914391029494928
 30
0.0
 11
79.22487113059626
 21
23.9214659118141
 31
0.0
  0
LINE
  5
ED
330
E6
100
AcDbEntity
  8
치수문자_일반주서
100
AcDbLine
 10
109.2248711305963
 20
22.92146591181424
 30
0.0
 11
79.22487113059626
 21
22.9214659118141
 31
0.0
  0
MTEXT
  5
EE
330
E6
100
AcDbEntity
  8
치수문자_일반주서
100
AcDbMText
 10
91.63875993707352
 20
27.43320282639306
 30
0.0
 40
3.5
 41
0.0
 71
     1
 72
     1
  1
30
  7
SLDTEXTSTYLE0
 73
     1
 44
1.0
  0
ENDBLK
  5
E8
330
E6
100
AcDbEntity
  8
0
100
AcDbBlockEnd
  0
BLOCK
  5
F1
330
F0
100
AcDbEntity
  8
0
100
AcDbBlockBegin
  2
_D_3
 70
     0
 10
0.0
 20
0.0
 30
0.0
  3
_D_3
  1

  0
SOLID
  5
F3
330
F0
100
AcDbEntity
  8
치수문자_일반주서
100
AcDbTrace
 10
109.2248711305964
 20
30.33782860218117
 30
0.0
 11
105.9228711305964
 21
30.84582860218116
 31
0.0
 12
105.9228711305964
 22
29.82982860218117
 32
0.0
 13
105.9228711305964
 23
29.82982860218117
 33
0.0
  0
SOLID
  5
F4
330
F0
100
AcDbEntity
  8
치수문자_일반주서
100
AcDbTrace
 10
-40.77512886940357
 20
30.33782860218115
 30
0.0
 11
-37.47312886940357
 21
29.82982860218116
 31
0.0
 12
-37.47312886940357
 22
30.84582860218115
 32
0.0
 13
-37.47312886940357
 23
30.84582860218115
 33
0.0
  0
LINE
  5
F5
330
F0
100
AcDbEntity
  8
치수문자_일반주서
100
AcDbLine
 10
109.2248711305964
 20
6.46829545757137
 30
0.0
 11
109.2248711305964
 21
31.33782860218117
 31
0.0
  0
LINE
  5
F6
330
F0
100
AcDbEntity
  8
치수문자_일반주서
100
AcDbLine
 10
-40.77512886940357
 20
5.800000000000004
 30
0.0
 11
-40.77512886940357
 21
31.33782860218116
 31
0.0
  0
LINE
  5
F7
330
F0
100
AcDbEntity
  8
치수문자_일반주서
100
AcDbLine
 10
109.2248711305964
 20
30.33782860218117
 30
0.0
 11
-40.77512886940357
 21
30.33782860218115
 31
0.0
  0
MTEXT
  5
F8
330
F0
100
AcDbEntity
  8
치수문자_일반주서
100
AcDbMText
 10
30.34570445672752
 20
34.84956551676006
 30
0.0
 40
3.5
 41
0.0
 71
     1
 72
     1
  1
150
  7
SLDTEXTSTYLE0
 73
     1
 44
1.0
  0
ENDBLK
  5
F2
330
F0
100
AcDbEntity
  8
0
100
AcDbBlockEnd
  0
BLOCK
  5
101
330
100
100
AcDbEntity
  8
0
100
AcDbBlockBegin
  2
SW_DOWELSYMBOL_0
 70
     0
 10
0.0
 20
0.0
 30
0.0
  3
SW_DOWELSYMBOL_0
  1

  0
CIRCLE
  5
103
330
100
100
AcDbEntity
  8
해칭선
 62
     0
100
AcDbCircle
 10
0.0
 20
0.0
 30
0.0
 40
3.000000000000001
  0
HATCH
  5
104
330
100
100
AcDbEntity
  8
0
  6
Continuous
 62
     0
370
     0
100
AcDbHatch
 10
0.0
 20
0.0
 30
0.0
210
0.0
220
0.0
230
1.0
  2
SOLID
 70
     1
 71
     0
 91
        1
 92
        0
 93
        3
 72
     2
 10
0.0
 20
0.0
 40
3.000000000000001
 50
0.0
 51
90.0
 73
     1
 72
     1
 10
0.0
 20
3.000000000000001
 11
0.0
 21
0.0
 72
     1
 10
0.0
 20
0.0
 11
3.000000000000003
 21
0.0
 97
        0
 75
     0
 76
     1
 98
        1
 10
0.0
 20
0.0
  0
HATCH
  5
105
330
100
100
AcDbEntity
  8
0
  6
Continuous
 62
     0
370
     0
100
AcDbHatch
 10
0.0
 20
0.0
 30
0.0
210
0.0
220
0.0
230
1.0
  2
SOLID
 70
     1
 71
     0
 91
        1
 92
        0
 93
        3
 72
     2
 10
0.0
 20
0.0
 40
3.000000000000001
 50
180.0
 51
270.0000000000008
 73
     1
 72
     1
 10
0.0
 20
-3.000000000000001
 11
0.0
 21
0.0
 72
     1
 10
0.0
 20
0.0
 11
-3.000000000000003
 21
0.0
 97
        0
 75
     0
 76
     1
 98
        1
 10
0.0
 20
0.0
  0
ENDBLK
  5
102
330
100
100
AcDbEntity
  8
0
100
AcDbBlockEnd
  0
BLOCK
  5
169
330
168
100
AcDbEntity
  8
0
100
AcDbBlockBegin
  2
*D8
 70
     1
 10
0.0
 20
0.0
 30
0.0
  3
*D8
  1

  0
LINE
  5
16A
330
168
100
AcDbEntity
  8
치수문자_일반주서
 62
     0
370
    -2
100
AcDbLine
 10
134.801032320751
 20
29.12818185022466
 30
0.0
 11
156.6125060893976
 21
29.12818185022475
 31
0.0
  0
LINE
  5
16B
330
168
100
AcDbEntity
  8
치수문자_일반주서
 62
     0
370
    -2
100
AcDbLine
 10
134.801032320751
 20
17.12818185022466
 30
0.0
 11
156.6125060893976
 21
17.12818185022475
 31
0.0
  0
LINE
  5
16C
330
168
100
AcDbEntity
  8
치수문자_일반주서
 62
     0
370
    -2
100
AcDbLine
 10
156.6125060893976
 20
25.82618185022475
 30
0.0
 11
156.6125060893976
 21
20.43018185022474
 31
0.0
  0
SOLID
  5
16D
330
168
100
AcDbEntity
  8
치수문자_일반주서
 62
     0
100
AcDbTrace
 10
157.1628394227309
 20
25.82618185022475
 30
0.0
 11
156.0621727560642
 21
25.82618185022475
 31
0.0
 12
156.6125060893976
 22
29.12818185022475
 32
0.0
 13
156.6125060893976
 23
29.12818185022475
 33
0.0
  0
SOLID
  5
16E
330
168
100
AcDbEntity
  8
치수문자_일반주서
 62
     0
100
AcDbTrace
 10
156.0621727560643
 20
20.43018185022474
 30
0.0
 11
157.1628394227309
 21
20.43018185022474
 31
0.0
 12
156.6125060893976
 22
17.12818185022475
 32
0.0
 13
156.6125060893976
 23
17.12818185022475
 33
0.0
  0
MTEXT
  5
16F
330
168
100
AcDbEntity
  8
치수문자_일반주서
 62
     0
100
AcDbMText
 10
152.2375060893976
 20
23.12818185022465
 30
0.0
 40
3.5
 41
0.0
 71
     2
 72
     1
  1
\A1;%%c12
  7
SLDTEXTSTYLE0
 11
-2.368475785867000E-15
 21
1.0
 31
0.0
 73
     1
 44
1.0
  0
POINT
  5
170
330
168
100
AcDbEntity
  8
Defpoints
 62
     0
100
AcDbPoint
 10
134.738532320751
 20
29.12818185022466
 30
0.0
  0
POINT
  5
171
330
168
100
AcDbEntity
  8
Defpoints
 62
     0
100
AcDbPoint
 10
134.738532320751
 20
17.12818185022466
 30
0.0
  0
POINT
  5
172
330
168
100
AcDbEntity
  8
Defpoints
 62
     0
100
AcDbPoint
 10
156.6125060893976
 20
17.12818185022475
 30
0.0
  0
ENDBLK
  5
173
330
168
100
AcDbEntity
  8
0
100
AcDbBlockEnd
  0
BLOCK
  5
176
330
175
100
AcDbEntity
  8
0
100
AcDbBlockBegin
  2
*D9
 70
     1
 10
0.0
 20
0.0
 30
0.0
  3
*D9
  1

  0
LINE
  5
177
330
175
100
AcDbEntity
  8
치수문자_일반주서
 62
     0
370
    -2
100
AcDbLine
 10
17.71250000000003
 20
29.12818185022466
 30
0.0
 11
4.374999999999994
 21
29.12818185022461
 31
0.0
  0
LINE
  5
178
330
175
100
AcDbEntity
  8
치수문자_일반주서
 62
     0
370
    -2
100
AcDbLine
 10
17.71250000000003
 20
17.12818185022466
 30
0.0
 11
4.375000000000036
 21
17.12818185022461
 31
0.0
  0
LINE
  5
179
330
175
100
AcDbEntity
  8
치수문자_일반주서
 62
     0
370
    -2
100
AcDbLine
 10
4.375000000000005
 20
25.82618185022461
 30
0.0
 11
4.375000000000024
 21
20.43018185022461
 31
0.0
  0
SOLID
  5
17A
330
175
100
AcDbEntity
  8
치수문자_일반주서
 62
     0
100
AcDbTrace
 10
4.925333333333339
 20
25.82618185022462
 30
0.0
 11
3.824666666666672
 21
25.82618185022461
 31
0.0
 12
4.374999999999994
 22
29.12818185022461
 32
0.0
 13
4.374999999999994
 23
29.12818185022461
 33
0.0
  0
SOLID
  5
17B
330
175
100
AcDbEntity
  8
치수문자_일반주서
 62
     0
100
AcDbTrace
 10
3.824666666666691
 20
20.43018185022461
 30
0.0
 11
4.925333333333358
 21
20.43018185022462
 31
0.0
 12
4.375000000000036
 22
17.12818185022461
 32
0.0
 13
4.375000000000036
 23
17.12818185022461
 33
0.0
  0
MTEXT
  5
17C
330
175
100
AcDbEntity
  8
치수문자_일반주서
 62
     0
100
AcDbMText
 10
0.0000000000000142
 20
23.12818185022465
 30
0.0
 40
3.5
 41
0.0
 71
     2
 72
     1
  1
\A1;%%c12
  7
SLDTEXTSTYLE0
 11
-3.478698810492157E-15
 21
1.0
 31
0.0
 73
     1
 44
1.0
  0
POINT
  5
17D
330
175
100
AcDbEntity
  8
Defpoints
 62
     0
100
AcDbPoint
 10
17.77500000000003
 20
29.12818185022466
 30
0.0
  0
POINT
  5
17E
330
175
100
AcDbEntity
  8
Defpoints
 62
     0
100
AcDbPoint
 10
17.77500000000003
 20
17.12818185022466
 30
0.0
  0
POINT
  5
17F
330
175
100
AcDbEntity
  8
Defpoints
 62
     0
100
AcDbPoint
 10
4.375000000000043
 20
17.12818185022461
 30
0.0
  0
ENDBLK
  5
180
330
175
100
AcDbEntity
  8
0
100
AcDbBlockEnd
  0
BLOCK
  5
183
330
182
100
AcDbEntity
  8
0
100
AcDbBlockBegin
  2
*D10
 70
     1
 10
0.0
 20
0.0
 30
0.0
  3
*D10
  1

  0
LINE
  5
184
330
182
100
AcDbEntity
  8
치수문자_일반주서
 62
     0
370
    -2
100
AcDbLine
 10
146.5125
 20
29.06634921915987
 30
0.0
 11
146.5125
 21
46.45701967340277
 31
0.0
  0
LINE
  5
185
330
182
100
AcDbEntity
  8
치수문자_일반주서
 62
     0
370
    -2
100
AcDbLine
 10
116.5125
 20
29.10507287971959
 30
0.0
 11
116.5125
 21
46.45701967340277
 31
0.0
  0
LINE
  5
186
330
182
100
AcDbEntity
  8
치수문자_일반주서
 62
     0
370
    -2
100
AcDbLine
 10
143.2105000000001
 20
46.45701967340277
 30
0.0
 11
119.8145
 21
46.45701967340277
 31
0.0
  0
SOLID
  5
187
330
182
100
AcDbEntity
  8
치수문자_일반주서
 62
     0
100
AcDbTrace
 10
143.2105000000001
 20
45.90668634006943
 30
0.0
 11
143.2105000000001
 21
47.0073530067361
 31
0.0
 12
146.5125
 22
46.45701967340277
 32
0.0
 13
146.5125
 23
46.45701967340277
 33
0.0
  0
SOLID
  5
188
330
182
100
AcDbEntity
  8
치수문자_일반주서
 62
     0
100
AcDbTrace
 10
119.8145
 20
47.0073530067361
 30
0.0
 11
119.8145
 21
45.90668634006943
 31
0.0
 12
116.5125
 22
46.45701967340277
 32
0.0
 13
116.5125
 23
46.45701967340277
 33
0.0
  0
MTEXT
  5
189
330
182
100
AcDbEntity
  8
치수문자_일반주서
 62
     0
100
AcDbMText
 10
131.5125
 20
50.83201967340277
 30
0.0
 40
3.5
 41
0.0
 71
     2
 72
     1
  1
\A1;30
  7
SLDTEXTSTYLE0
 73
     1
 44
1.0
  0
POINT
  5
18A
330
182
100
AcDbEntity
  8
Defpoints
 62
     0
100
AcDbPoint
 10
146.5125
 20
29.00384921915987
 30
0.0
  0
POINT
  5
18B
330
182
100
AcDbEntity
  8
Defpoints
 62
     0
100
AcDbPoint
 10
116.5125
 20
29.04257287971959
 30
0.0
  0
POINT
  5
18C
330
182
100
AcDbEntity
  8
Defpoints
 62
     0
100
AcDbPoint
 10
116.5125
 20
46.45701967340277
 30
0.0
  0
ENDBLK
  5
18D
330
182
100
AcDbEntity
  8
0
100
AcDbBlockEnd
  0
BLOCK
  5
192
330
191
100
AcDbEntity
  8
0
100
AcDbBlockBegin
  2
*D11
 70
     1
 10
0.0
 20
0.0
 30
0.0
  3
*D11
  1

  0
LINE
  5
193
330
191
100
AcDbEntity
  8
치수문자_일반주서
 62
     0
370
    -2
100
AcDbLine
 10
146.5125
 20
29.06634921915987
 30
0.0
 11
146.5125
 21
53.87338236376966
 31
0.0
  0
LINE
  5
194
330
191
100
AcDbEntity
  8
치수문자_일반주서
 62
     0
370
    -2
100
AcDbLine
 10
16.51250000000005
 20
27.99068185022466
 30
0.0
 11
16.51250000000005
 21
53.87338236376966
 31
0.0
  0
LINE
  5
195
330
191
100
AcDbEntity
  8
치수문자_일반주서
 62
     0
370
    -2
100
AcDbLine
 10
143.2105000000001
 20
53.87338236376966
 30
0.0
 11
19.81450000000005
 21
53.87338236376966
 31
0.0
  0
SOLID
  5
196
330
191
100
AcDbEntity
  8
치수문자_일반주서
 62
     0
100
AcDbTrace
 10
143.2105000000001
 20
53.32304903043633
 30
0.0
 11
143.2105000000001
 21
54.423715697103
 31
0.0
 12
146.5125
 22
53.87338236376966
 32
0.0
 13
146.5125
 23
53.87338236376966
 33
0.0
  0
SOLID
  5
197
330
191
100
AcDbEntity
  8
치수문자_일반주서
 62
     0
100
AcDbTrace
 10
19.81450000000005
 20
54.423715697103
 30
0.0
 11
19.81450000000005
 21
53.32304903043633
 31
0.0
 12
16.51250000000005
 22
53.87338236376966
 32
0.0
 13
16.51250000000005
 23
53.87338236376966
 33
0.0
  0
MTEXT
  5
198
330
191
100
AcDbEntity
  8
치수문자_일반주서
 62
     0
100
AcDbMText
 10
81.51250000000005
 20
58.24838236376966
 30
0.0
 40
3.5
 41
0.0
 71
     2
 72
     1
  1
\A1;130
  7
SLDTEXTSTYLE0
 73
     1
 44
1.0
  0
POINT
  5
199
330
191
100
AcDbEntity
  8
Defpoints
 62
     0
100
AcDbPoint
 10
146.5125
 20
29.00384921915987
 30
0.0
  0
POINT
  5
19A
330
191
100
AcDbEntity
  8
Defpoints
 62
     0
100
AcDbPoint
 10
16.51250000000005
 20
27.92818185022466
 30
0.0
  0
POINT
  5
19B
330
191
100
AcDbEntity
  8
Defpoints
 62
     0
100
AcDbPoint
 10
16.51250000000005
 20
53.87338236376966
 30
0.0
  0
ENDBLK
  5
19C
330
191
100
AcDbEntity
  8
0
100
AcDbBlockEnd
  0
BLOCK
  5
1AA
330
1A9
100
AcDbEntity
  8
0
100
AcDbBlockBegin
  2
*D12
 70
     1
 10
0.0
 20
0.0
 30
0.0
  3
*D12
  1

  0
LINE
  5
1AB
330
1A9
100
AcDbEntity
  8
치수문자_일반주서
 62
     0
370
    -2
100
AcDbLine
 10
148.1623101559503
 20
14.49233741955316
 30
0.0
 11
158.0976799923108
 21
0.0000000000000062
 31
0.0
  0
MTEXT
  5
1AC
330
1A9
100
AcDbEntity
  8
치수문자_일반주서
 62
     0
100
AcDbMText
 10
157.6652500150926
 20
5.273155447860715
 30
0.0
 40
3.5
 41
0.0
 71
     5
 72
     1
  1
\A1;R0.5
  7
SLDTEXTSTYLE0
 11
0.5654419137165189
 21
-0.8247881195874496
 31
0.0
 73
     1
 44
1.0
  0
SOLID
  5
1AD
330
1A9
100
AcDbEntity
  8
치수문자_일반주서
 62
     0
100
AcDbTrace
 10
148.6162185510966
 20
14.80351895273516
 30
0.0
 11
147.708401760804
 21
14.18115588637117
 31
0.0
 12
146.2952209568583
 22
17.21578779043092
 32
0.0
 13
146.2952209568583
 23
17.21578779043092
 33
0.0
  0
LINE
  5
1AE
330
1A9
100
AcDbEntity
  8
치수문자_일반주서
 62
     0
100
AcDbLine
 10
145.9225
 20
17.62818185022466
 30
0.0
 11
146.1025
 21
17.62818185022466
 31
0.0
  0
LINE
  5
1AF
330
1A9
100
AcDbEntity
  8
치수문자_일반주서
 62
     0
100
AcDbLine
 10
146.0125
 20
17.53818185022466
 30
0.0
 11
146.0125
 21
17.71818185022466
 31
0.0
  0
POINT
  5
1B0
330
1A9
100
AcDbEntity
  8
Defpoints
 62
     0
100
AcDbPoint
 10
146.2952209568583
 20
17.21578779043092
 30
0.0
  0
POINT
  5
1B1
330
1A9
100
AcDbEntity
  8
Defpoints
 62
     0
100
AcDbPoint
 10
146.0125
 20
17.62818185022466
 30
0.0
  0
ENDBLK
  5
1B2
330
1A9
100
AcDbEntity
  8
0
100
AcDbBlockEnd
  0
BLOCK
  5
1EE
330
1ED
100
AcDbEntity
  8
0
100
AcDbBlockBegin
  2
*D13
 70
     1
 10
0.0
 20
0.0
 30
0.0
  3
*D13
  1

  0
LINE
  5
1F0
330
1ED
100
AcDbEntity
  8
치수문자_일반주서
 62
     0
370
    -2
100
AcDbLine
 10
28.28853232075096
 20
5.959332268527262
 30
0.0
 11
50.10000608939752
 21
5.959332268527344
 31
0.0
  0
LINE
  5
1F1
330
1ED
100
AcDbEntity
  8
치수문자_일반주서
 62
     0
370
    -2
100
AcDbLine
 10
28.28853232075096
 20
-6.040667731472738
 30
0.0
 11
50.10000608939756
 21
-6.040667731472656
 31
0.0
  0
LINE
  5
1F2
330
1ED
100
AcDbEntity
  8
치수문자_일반주서
 62
     0
370
    -2
100
AcDbLine
 10
50.10000608939753
 20
2.657332268527345
 30
0.0
 11
50.10000608939755
 21
-2.738667731472656
 31
0.0
  0
SOLID
  5
1F3
330
1ED
100
AcDbEntity
  8
치수문자_일반주서
 62
     0
100
AcDbTrace
 10
50.65033942273087
 20
2.657332268527346
 30
0.0
 11
49.5496727560642
 21
2.657332268527343
 31
0.0
 12
50.10000608939752
 22
5.959332268527344
 32
0.0
 13
50.10000608939752
 23
5.959332268527344
 33
0.0
  0
SOLID
  5
1F4
330
1ED
100
AcDbEntity
  8
치수문자_일반주서
 62
     0
100
AcDbTrace
 10
49.54967275606421
 20
-2.738667731472658
 30
0.0
 11
50.65033942273088
 21
-2.738667731472654
 31
0.0
 12
50.10000608939756
 22
-6.040667731472656
 32
0.0
 13
50.10000608939756
 23
-6.040667731472656
 33
0.0
  0
MTEXT
  5
1F5
330
1ED
100
AcDbEntity
  8
치수문자_일반주서
 62
     0
100
AcDbMText
 10
45.72500608939754
 20
-0.0406677314727529
 30
0.0
 40
3.5
 41
0.0
 71
     2
 72
     1
  1
\A1;%%c12
  7
SLDTEXTSTYLE0
 11
-3.552713678800501E-15
 21
1.0
 31
0.0
 73
     1
 44
1.0
  0
POINT
  5
1F6
330
1ED
100
AcDbEntity
  8
Defpoints
 62
     0
100
AcDbPoint
 10
28.22603232075096
 20
5.959332268527262
 30
0.0
  0
POINT
  5
1F7
330
1ED
100
AcDbEntity
  8
Defpoints
 62
     0
100
AcDbPoint
 10
28.22603232075096
 20
-6.040667731472738
 30
0.0
  0
POINT
  5
1F8
330
1ED
100
AcDbEntity
  8
Defpoints
 62
     0
100
AcDbPoint
 10
50.10000608939754
 20
-6.040667731472656
 30
0.0
  0
ENDBLK
  5
1EF
330
1ED
100
AcDbEntity
  8
0
100
AcDbBlockEnd
  0
BLOCK
  5
1FA
330
1F9
100
AcDbEntity
  8
0
100
AcDbBlockBegin
  2
*D14
 70
     1
 10
0.0
 20
0.0
 30
0.0
  3
*D14
  1

  0
LINE
  5
1FC
330
1F9
100
AcDbEntity
  8
치수문자_일반주서
 62
     0
370
    -2
100
AcDbLine
 10
-108.8
 20
5.959332268527262
 30
0.0
 11
-122.1375000000001
 21
5.959332268527213
 31
0.0
  0
LINE
  5
1FD
330
1F9
100
AcDbEntity
  8
치수문자_일반주서
 62
     0
370
    -2
100
AcDbLine
 10
-108.8
 20
-6.040667731472738
 30
0.0
 11
-122.1375
 21
-6.040667731472787
 31
0.0
  0
LINE
  5
1FE
330
1F9
100
AcDbEntity
  8
치수문자_일반주서
 62
     0
370
    -2
100
AcDbLine
 10
-122.1375
 20
2.657332268527213
 30
0.0
 11
-122.1375
 21
-2.738667731472788
 31
0.0
  0
SOLID
  5
1FF
330
1F9
100
AcDbEntity
  8
치수문자_일반주서
 62
     0
100
AcDbTrace
 10
-121.5871666666667
 20
2.657332268527215
 30
0.0
 11
-122.6878333333334
 21
2.657332268527211
 31
0.0
 12
-122.1375000000001
 22
5.959332268527213
 32
0.0
 13
-122.1375000000001
 23
5.959332268527213
 33
0.0
  0
SOLID
  5
200
330
1F9
100
AcDbEntity
  8
치수문자_일반주서
 62
     0
100
AcDbTrace
 10
-122.6878333333334
 20
-2.738667731472789
 30
0.0
 11
-121.5871666666667
 21
-2.738667731472786
 31
0.0
 12
-122.1375
 22
-6.040667731472787
 32
0.0
 13
-122.1375
 23
-6.040667731472787
 33
0.0
  0
MTEXT
  5
201
330
1F9
100
AcDbEntity
  8
치수문자_일반주서
 62
     0
100
AcDbMText
 10
-126.5125
 20
-0.0406677314727529
 30
0.0
 40
3.5
 41
0.0
 71
     2
 72
     1
  1
\A1;%%c12
  7
SLDTEXTSTYLE0
 11
-3.552713678800501E-15
 21
1.0
 31
0.0
 73
     1
 44
1.0
  0
POINT
  5
202
330
1F9
100
AcDbEntity
  8
Defpoints
 62
     0
100
AcDbPoint
 10
-108.7375
 20
5.959332268527262
 30
0.0
  0
POINT
  5
203
330
1F9
100
AcDbEntity
  8
Defpoints
 62
     0
100
AcDbPoint
 10
-108.7375
 20
-6.040667731472738
 30
0.0
  0
POINT
  5
204
330
1F9
100
AcDbEntity
  8
Defpoints
 62
     0
100
AcDbPoint
 10
-122.1375
 20
-6.040667731472787
 30
0.0
  0
ENDBLK
  5
1FB
330
1F9
100
AcDbEntity
  8
0
100
AcDbBlockEnd
  0
BLOCK
  5
206
330
205
100
AcDbEntity
  8
0
100
AcDbBlockBegin
  2
*D15
 70
     1
 10
0.0
 20
0.0
 30
0.0
  3
*D15
  1

  0
LINE
  5
208
330
205
100
AcDbEntity
  8
치수문자_일반주서
 62
     0
370
    -2
100
AcDbLine
 10
40.0
 20
5.897499637462474
 30
0.0
 11
40.0
 21
23.28817009170537
 31
0.0
  0
LINE
  5
209
330
205
100
AcDbEntity
  8
치수문자_일반주서
 62
     0
370
    -2
100
AcDbLine
 10
10.0
 20
5.936223298022185
 30
0.0
 11
10.0
 21
23.28817009170537
 31
0.0
  0
LINE
  5
20A
330
205
100
AcDbEntity
  8
치수문자_일반주서
 62
     0
370
    -2
100
AcDbLine
 10
36.698
 20
23.28817009170537
 30
0.0
 11
13.302
 21
23.28817009170537
 31
0.0
  0
SOLID
  5
20B
330
205
100
AcDbEntity
  8
치수문자_일반주서
 62
     0
100
AcDbTrace
 10
36.698
 20
22.73783675837203
 30
0.0
 11
36.698
 21
23.8385034250387
 31
0.0
 12
40.0
 22
23.28817009170537
 32
0.0
 13
40.0
 23
23.28817009170537
 33
0.0
  0
SOLID
  5
20C
330
205
100
AcDbEntity
  8
치수문자_일반주서
 62
     0
100
AcDbTrace
 10
13.302
 20
23.8385034250387
 30
0.0
 11
13.302
 21
22.73783675837203
 31
0.0
 12
10.0
 22
23.28817009170537
 32
0.0
 13
10.0
 23
23.28817009170537
 33
0.0
  0
MTEXT
  5
20D
330
205
100
AcDbEntity
  8
치수문자_일반주서
 62
     0
100
AcDbMText
 10
25.0
 20
27.66317009170537
 30
0.0
 40
3.5
 41
0.0
 71
     2
 72
     1
  1
\A1;30
  7
SLDTEXTSTYLE0
 73
     1
 44
1.0
  0
POINT
  5
20E
330
205
100
AcDbEntity
  8
Defpoints
 62
     0
100
AcDbPoint
 10
40.0
 20
5.834999637462474
 30
0.0
  0
POINT
  5
20F
330
205
100
AcDbEntity
  8
Defpoints
 62
     0
100
AcDbPoint
 10
10.0
 20
5.873723298022185
 30
0.0
  0
POINT
  5
210
330
205
100
AcDbEntity
  8
Defpoints
 62
     0
100
AcDbPoint
 10
10.0
 20
23.28817009170537
 30
0.0
  0
ENDBLK
  5
207
330
205
100
AcDbEntity
  8
0
100
AcDbBlockEnd
  0
BLOCK
  5
212
330
211
100
AcDbEntity
  8
0
100
AcDbBlockBegin
  2
*D16
 70
     1
 10
0.0
 20
0.0
 30
0.0
  3
*D16
  1

  0
LINE
  5
214
330
211
100
AcDbEntity
  8
치수문자_일반주서
 62
     0
370
    -2
100
AcDbLine
 10
40.0
 20
5.897499637462474
 30
0.0
 11
39.99999999999999
 21
30.70453278207226
 31
0.0
  0
LINE
  5
215
330
211
100
AcDbEntity
  8
치수문자_일반주서
 62
     0
370
    -2
100
AcDbLine
 10
-110.0
 20
4.82183226852726
 30
0.0
 11
-110.0
 21
30.70453278207226
 31
0.0
  0
LINE
  5
216
330
211
100
AcDbEntity
  8
치수문자_일반주서
 62
     0
370
    -2
100
AcDbLine
 10
36.69799999999999
 20
30.70453278207226
 30
0.0
 11
-106.698
 21
30.70453278207226
 31
0.0
  0
SOLID
  5
217
330
211
100
AcDbEntity
  8
치수문자_일반주서
 62
     0
100
AcDbTrace
 10
36.69799999999999
 20
30.15419944873893
 30
0.0
 11
36.69799999999999
 21
31.2548661154056
 31
0.0
 12
39.99999999999999
 22
30.70453278207226
 32
0.0
 13
39.99999999999999
 23
30.70453278207226
 33
0.0
  0
SOLID
  5
218
330
211
100
AcDbEntity
  8
치수문자_일반주서
 62
     0
100
AcDbTrace
 10
-106.698
 20
31.2548661154056
 30
0.0
 11
-106.698
 21
30.15419944873893
 31
0.0
 12
-110.0
 22
30.70453278207226
 32
0.0
 13
-110.0
 23
30.70453278207226
 33
0.0
  0
MTEXT
  5
219
330
211
100
AcDbEntity
  8
치수문자_일반주서
 62
     0
100
AcDbMText
 10
-35.00000000000002
 20
35.07953278207226
 30
0.0
 40
3.5
 41
0.0
 71
     2
 72
     1
  1
\A1;150
  7
SLDTEXTSTYLE0
 73
     1
 44
1.0
  0
POINT
  5
21A
330
211
100
AcDbEntity
  8
Defpoints
 62
     0
100
AcDbPoint
 10
40.0
 20
5.834999637462474
 30
0.0
  0
POINT
  5
21B
330
211
100
AcDbEntity
  8
Defpoints
 62
     0
100
AcDbPoint
 10
-110.0
 20
4.75933226852726
 30
0.0
  0
POINT
  5
21C
330
211
100
AcDbEntity
  8
Defpoints
 62
     0
100
AcDbPoint
 10
-110.0
 20
30.70453278207226
 30
0.0
  0
ENDBLK
  5
213
330
211
100
AcDbEntity
  8
0
100
AcDbBlockEnd
  0
BLOCK
  5
21E
330
21D
100
AcDbEntity
  8
0
100
AcDbBlockBegin
  2
*D17
 70
     1
 10
0.0
 20
0.0
 30
0.0
  3
*D17
  1

  0
LINE
  5
220
330
21D
100
AcDbEntity
  8
치수문자_일반주서
 62
     0
370
    -2
100
AcDbLine
 10
41.64981015595021
 20
-8.676512162144236
 30
0.0
 11
51.58517999231073
 21
-23.16884958169739
 31
0.0
  0
MTEXT
  5
221
330
21D
100
AcDbEntity
  8
치수문자_일반주서
 62
     0
100
AcDbMText
 10
51.15275001509252
 20
-17.89569413383668
 30
0.0
 40
3.5
 41
0.0
 71
     5
 72
     1
  1
\A1;R0.5
  7
SLDTEXTSTYLE0
 11
0.5654419137165189
 21
-0.8247881195874496
 31
0.0
 73
     1
 44
1.0
  0
SOLID
  5
222
330
21D
100
AcDbEntity
  8
치수문자_일반주서
 62
     0
100
AcDbTrace
 10
42.10371855109651
 20
-8.365330628962246
 30
0.0
 11
41.19590176080392
 21
-8.987693695326227
 31
0.0
 12
39.78272095685827
 22
-5.953061791266478
 32
0.0
 13
39.78272095685827
 23
-5.953061791266478
 33
0.0
  0
LINE
  5
223
330
21D
100
AcDbEntity
  8
치수문자_일반주서
 62
     0
100
AcDbLine
 10
39.41
 20
-5.540667731472738
 30
0.0
 11
39.59
 21
-5.540667731472738
 31
0.0
  0
LINE
  5
224
330
21D
100
AcDbEntity
  8
치수문자_일반주서
 62
     0
100
AcDbLine
 10
39.5
 20
-5.630667731472737
 30
0.0
 11
39.5
 21
-5.450667731472738
 31
0.0
  0
POINT
  5
225
330
21D
100
AcDbEntity
  8
Defpoints
 62
     0
100
AcDbPoint
 10
39.78272095685827
 20
-5.953061791266478
 30
0.0
  0
POINT
  5
226
330
21D
100
AcDbEntity
  8
Defpoints
 62
     0
100
AcDbPoint
 10
39.5
 20
-5.540667731472738
 30
0.0
  0
ENDBLK
  5
21F
330
21D
100
AcDbEntity
  8
0
100
AcDbBlockEnd
  0
ENDSEC
  0
SECTION
  2
ENTITIES
  0
LINE
  5
BF
330
1F
100
AcDbEntity
  8
참조1
100
AcDbLine
 10
-15.77564223695981
 20
-2.499999999999974
 30
0.0
 11
-15.7756422369598
 21
-40.0
 31
0.0
  0
LINE
  5
C0
330
1F
100
AcDbEntity
  8
참조1
100
AcDbLine
 10
-15.7756422369598
 20
-40.0
 30
0.0
 11
-30.93398568371225
 21
-40.0
 31
0.0
  0
INSERT
  5
C2
330
1F
100
AcDbEntity
  8
0
  6
Continuous
 62
     7
100
AcDbBlockReference
 66
     1
  2
블럭10
 10
-29.71591516908501
 20
-52.04717430164393
 30
0.0
  0
ATTRIB
  5
C3
330
C2
100
AcDbEntity
  8
FORMAT
 62
     2
100
AcDbText
 10
-50.57416270067755
 20
-49.97180738881174
 30
0.0
 40
4.233333333333333
  1
SEME0112005150E [ 4 FLUTE ]
 41
0.75
  7
SLDTEXTSTYLE0
 11
-50.57416270067755
 21
-52.08847405547841
 31
0.0
100
AcDbAttribute
  2
AUTOATTR0
 70
     0
 74
     1
  0
SEQEND
  5
C4
330
C2
100
AcDbEntity
  8
0
  6
Continuous
 62
     7
  0
HATCH
  5
C5
330
1F
100
AcDbEntity
  8
중심선
100
AcDbHatch
 10
0.0
 20
0.0
 30
0.0
210
0.0
220
0.0
230
1.0
  2
SOLID
 70
     1
 71
     0
 91
        1
 92
        0
 93
        4
 72
     1
 10
-24.00100586470416
 20
-35.8
 11
-27.44728110854144
 21
-35.8
 72
     1
 10
-27.44728110854144
 20
-35.8
 11
-29.57551096774547
 21
-38.33632558057259
 72
     1
 10
-29.57551096774547
 20
-38.33632558057259
 11
-26.12920263879504
 21
-38.3362861512701
 72
     1
 10
-26.12920263879504
 20
-38.3362861512701
 11
-24.00100586470416
 21
-35.8
 97
        0
 75
     0
 76
     1
 98
        1
 10
0.0
 20
0.0
  0
HATCH
  5
C6
330
1F
100
AcDbEntity
  8
중심선
100
AcDbHatch
 10
0.0
 20
0.0
 30
0.0
210
0.0
220
0.0
230
1.0
  2
SOLID
 70
     1
 71
     0
 91
        1
 92
        0
 93
        4
 72
     1
 10
-18.98824187366821
 20
-35.8
 11
-22.43451711750549
 21
-35.8
 72
     1
 10
-22.43451711750549
 20
-35.8
 11
-26.96565512586288
 21
-41.20000000000002
 72
     1
 10
-26.96565512586288
 20
-41.20000000000002
 11
-23.5193798820256
 21
-41.20000000000002
 72
     1
 10
-23.5193798820256
 20
-41.20000000000002
 11
-18.98824187366821
 21
-35.8
 97
        0
 75
     0
 76
     1
 98
        1
 10
0.0
 20
0.0
  0
HATCH
  5
C7
330
1F
100
AcDbEntity
  8
중심선
100
AcDbHatch
 10
0.0
 20
0.0
 30
0.0
210
0.0
220
0.0
230
1.0
  2
SOLID
 70
     1
 71
     0
 91
        1
 92
        0
 93
        4
 72
     1
 10
-13.97547788263232
 20
-35.80000000000003
 11
-17.42175312646943
 21
-35.8
 72
     1
 10
-17.42175312646943
 20
-35.8
 11
-24.47019002835868
 21
-44.20000000000002
 72
     1
 10
-24.47019002835868
 20
-44.20000000000002
 11
-21.0239147845214
 21
-44.20000000000002
 72
     1
 10
-21.0239147845214
 20
-44.20000000000002
 11
-13.97547788263232
 21
-35.80000000000003
 97
        0
 75
     0
 76
     1
 98
        1
 10
0.0
 20
0.0
  0
HATCH
  5
C8
330
1F
100
AcDbEntity
  8
중심선
100
AcDbHatch
 10
0.0
 20
0.0
 30
0.0
210
0.0
220
0.0
230
1.0
  2
SOLID
 70
     1
 71
     0
 91
        1
 92
        0
 93
        6
 72
     3
 10
-9.175587451620116
 20
-40.00000000005127
 11
3.960054785062284
 21
1.540850780301639E-10
 40
0.3939339440162633
 50
17.09539180608433
 51
320.0019657685079
 73
     0
 72
     1
 10
-7.49258779591952
 20
-38.5878940046383
 11
-5.187285922218482
 21
-36.65356729459038
 72
     3
 10
-9.175587451672962
 20
-40.00000000000015
 11
6.600054785286829
 21
-1.249000902703301E-13
 40
0.6363583540795982
 50
39.99873849337408
 51
368.4976242363725
 73
     1
 72
     1
 10
-2.750254959772352
 20
-39.03999999993002
 11
-10.49552014483704
 21
-39.03999999992999
 72
     1
 10
-10.49552014483704
 20
-39.03999999992999
 11
-10.49554518928297
 21
-40.95999999992991
 72
     1
 10
-10.49554518928297
 20
-40.95999999992991
 11
-6.054165419810936
 21
-40.95999999992988
 97
        0
 75
     0
 76
     1
 98
        1
 10
0.0
 20
0.0
  0
LINE
  5
F9
330
1F
100
AcDbEntity
  8
참조1
100
AcDbLine
 10
67.03835494594202
 20
7.440000000000002
 30
0.0
 11
67.03835494594202
 21
-7.440000000000002
 31
0.0
  0
LINE
  5
FA
330
1F
100
AcDbEntity
  8
참조1
100
AcDbLine
 10
79.73835494594202
 20
5.440000000000002
 30
0.0
 11
67.03835494594202
 21
5.440000000000002
 31
0.0
  0
SOLID
  5
FB
330
1F
100
AcDbEntity
  8
참조1
100
AcDbTrace
 10
67.03835494594202
 20
5.440000000000002
 30
0.0
 11
73.38835494594201
 21
4.424000000000002
 31
0.0
 12
73.38835494594201
 22
6.456000000000002
 32
0.0
 13
73.38835494594201
 23
6.456000000000002
 33
0.0
  0
LINE
  5
FC
330
1F
100
AcDbEntity
  8
참조1
100
AcDbLine
 10
79.73835494594202
 20
-5.440000000000002
 30
0.0
 11
67.03835494594202
 21
-5.440000000000002
 31
0.0
  0
SOLID
  5
FD
330
1F
100
AcDbEntity
  8
참조1
100
AcDbTrace
 10
67.03835494594202
 20
-5.440000000000002
 30
0.0
 11
73.38835494594201
 21
-6.456000000000002
 31
0.0
 12
73.38835494594201
 22
-4.424000000000002
 32
0.0
 13
73.38835494594201
 23
-4.424000000000002
 33
0.0
  0
MTEXT
  5
FE
330
1F
100
AcDbEntity
  8
참조1
100
AcDbMText
 10
76.4358450384123
 20
10.98821664464994
 30
0.0
 40
3.5
 41
0.0
 71
     1
 72
     1
  1
A
  7
SLDTEXTSTYLE0
 73
     1
 44
1.0
  0
MTEXT
  5
FF
330
1F
100
AcDbEntity
  8
참조1
100
AcDbMText
 10
76.4358450384123
 20
0.1082166446499328
 30
0.0
 40
3.5
 41
0.0
 71
     1
 72
     1
  1
A
  7
SLDTEXTSTYLE0
 73
     1
 44
1.0
  0
LINE
  5
1B9
330
1F
100
AcDbEntity
  8
외형선
  6
Continuous
 62
     1
370
    15
100
AcDbLine
 10
24.56711297388625
 20
-6.040667731472738
 30
0.0
 11
28.22682513638182
 21
-6.040667731472738
 31
0.0
  0
LINE
  5
1BA
330
1F
100
AcDbEntity
  8
외형선
  6
Continuous
 62
     1
370
    15
100
AcDbLine
 10
11.90121917617239
 20
5.959332268527262
 30
0.0
 11
10.0
 21
5.959332268527262
 31
0.0
1001
PE_URL
1000

  0
LINE
  5
1BB
330
1F
100
AcDbEntity
  8
외형선
  6
Continuous
 62
     1
370
    15
100
AcDbLine
 10
28.22682513638188
 20
5.959332268527262
 30
0.0
 11
24.56711297388631
 21
5.959332268527262
 31
0.0
  0
LINE
  5
1BC
330
1F
100
AcDbEntity
  8
외형선
  6
Continuous
 62
     1
370
    15
100
AcDbLine
 10
10.0
 20
-6.040667731472738
 30
0.0
 11
11.90121917617233
 21
-6.040667731472738
 31
0.0
1001
PE_URL
1000

  0
LINE
  5
1BD
330
1F
100
AcDbEntity
  8
외형선
  6
Continuous
370
    15
100
AcDbLine
 10
-108.8
 20
5.959332268527262
 30
0.0
 11
-110.0
 21
4.75933226852726
 31
0.0
  0
LINE
  5
1BE
330
1F
100
AcDbEntity
  8
외형선
  6
Continuous
370
    15
100
AcDbLine
 10
-110.0
 20
-4.840667731472735
 30
0.0
 11
-108.8
 21
-6.040667731472738
 31
0.0
  0
LINE
  5
1BF
330
1F
100
AcDbEntity
  8
외형선
  6
Continuous
370
    15
100
AcDbLine
 10
-108.8
 20
-6.040667731472738
 30
0.0
 11
10.0
 21
-6.040667731472738
 31
0.0
  0
LINE
  5
1C0
330
1F
100
AcDbEntity
  8
외형선
  6
Continuous
370
    15
100
AcDbLine
 10
10.0
 20
5.959332268527262
 30
0.0
 11
-108.8000000000001
 21
5.959332268527262
 31
0.0
  0
LINE
  5
1C1
330
1F
100
AcDbEntity
  8
외형선
  6
Continuous
 62
     1
370
    15
100
AcDbLine
 10
40.0
 20
-5.396788809509729
 30
0.0
 11
40.0
 21
0.4946200132309855
 31
0.0
  0
SPLINE
  5
1C2
330
1F
100
AcDbEntity
  8
외형선
  6
Continuous
 62
     1
370
    15
100
AcDbSpline
210
0.0
220
0.0
230
1.0
 70
     8
 71
     3
 72
    17
 73
    13
 74
     0
 42
0.000000001
 43
0.00000001
 40
0.0
 40
0.0
 40
0.0
 40
0.0
 40
0.0000509221841511
 40
0.0000509221841511
 40
0.0000509221841511
 40
0.000096583608664
 40
0.000096583608664
 40
0.000096583608664
 40
0.0001437105714534
 40
0.0001437105714534
 40
0.0001437105714534
 40
0.0001792411611043
 40
0.0001792411611043
 40
0.0001792411611043
 40
0.0001792411611043
 10
39.90000000000003
 20
-5.449947948516296
 30
0.0
 10
39.91469003914426
 20
-5.453627563449288
 30
0.0
 10
39.92915003958166
 20
-5.454710903294881
 30
0.0
 10
39.94202928405474
 20
-5.453310700133216
 30
0.0
 10
39.95362065681451
 20
-5.452050511554589
 30
0.0
 10
39.96429477763189
 20
-5.448751547861349
 30
0.0
 10
39.97315895971519
 20
-5.443547281094027
 30
0.0
 10
39.98227551033551
 20
-5.43819484575593
 30
0.0
 10
39.98976277850949
 20
-5.430616871552388
 30
0.0
 10
39.99444018695482
 20
-5.42124244218202
 30
0.0
 10
39.99798462314152
 20
-5.414138707907298
 30
0.0
 10
40.0
 20
-5.405790670695595
 30
0.0
 10
40.0
 20
-5.396788809509729
 30
0.0
  0
SPLINE
  5
1C3
330
1F
100
AcDbEntity
  8
외형선
  6
Continuous
 62
     1
370
    15
100
AcDbSpline
210
0.0
220
0.0
230
1.0
 70
     8
 71
     3
 72
    21
 73
    17
 74
     0
 42
0.000000001
 43
0.00000001
 40
0.0
 40
0.0
 40
0.0
 40
0.0
 40
0.0068465268737687
 40
0.0816005600418242
 40
0.1563568583493651
 40
0.231115661409568
 40
0.3058772080624622
 40
0.3806413579745858
 40
0.4554037899714106
 40
0.5301634056015505
 40
0.6084697496775422
 40
0.6867759979694906
 40
0.7650821488117207
 40
0.8433882005396598
 40
0.9216941514898581
 40
1.0
 40
1.0
 40
1.0
 40
1.0
 10
11.90121917617239
 20
5.949234603305953
 30
0.0
 10
11.96511556718883
 20
5.952538679930626
 30
0.0
 10
12.72666684533658
 20
5.991918427934976
 30
0.0
 10
14.18590454996661
 20
5.838642222243934
 30
0.0
 10
16.27895809065473
 20
5.476143116721488
 30
0.0
 10
18.37209721225491
 20
4.865175355265293
 30
0.0
 10
20.46532350030395
 20
4.062701330108041
 30
0.0
 10
22.55860465691859
 20
3.092543366293555
 30
0.0
 10
24.65185717853393
 20
1.996182737280122
 30
0.0
 10
26.77813212166598
 20
0.7987862419720386
 30
0.0
 10
28.93754489404785
 20
-0.4541672280531941
 30
0.0
 10
31.13003919569547
 20
-1.707605517152118
 30
0.0
 10
33.32253504784438
 20
-2.888371706120424
 30
0.0
 10
35.51502626828767
 20
-3.938234094889907
 30
0.0
 10
37.70751448979303
 20
-4.832477873897346
 30
0.0
 10
39.16917181528856
 20
-5.244124680062953
 30
0.0
 10
39.90000000000003
 20
-5.449947948516296
 30
0.0
1001
PE_URL
1000

  0
SPLINE
  5
1C4
330
1F
100
AcDbEntity
  8
외형선
  6
Continuous
 62
     1
370
    15
100
AcDbSpline
210
0.0
220
0.0
230
1.0
 70
     8
 71
     3
 72
    18
 73
    14
 74
     0
 42
0.000000001
 43
0.00000001
 40
0.0
 40
0.0
 40
0.0
 40
0.0
 40
0.0967063819429307
 40
0.1934141681712885
 40
0.2901183063411904
 40
0.3868189408385772
 40
0.483516380757371
 40
0.5802109361777589
 40
0.6769029180714742
 40
0.7735926382065037
 40
0.8748848139165165
 40
0.9761769162729551
 40
1.0
 40
1.0
 40
1.0
 40
1.0
 10
39.90000000000003
 20
0.5311010462658601
 30
0.0
 10
39.20224315811589
 20
0.9298272126815874
 30
0.0
 10
37.80671934213359
 20
1.72728533546541
 30
0.0
 10
35.71343975291751
 20
2.845775181139842
 30
0.0
 10
33.62022572058305
 20
3.849251815953806
 30
0.0
 10
31.52709966212836
 20
4.695043776688991
 30
0.0
 10
29.43405620785558
 20
5.349430305403246
 30
0.0
 10
27.341090863597
 20
5.786215217373069
 30
0.0
 10
25.24817987023846
 20
5.986301762902173
 30
0.0
 10
23.12215426872439
 20
5.946539377214862
 30
0.0
 10
20.96276425607425
 20
5.63321023226716
 30
0.0
 10
19.3291761865072
 20
5.257411028761695
 30
0.0
 10
18.42643249660961
 20
4.929483982655441
 30
0.0
 10
18.25454178388554
 20
4.867043652905721
 30
0.0
  0
SPLINE
  5
1C5
330
1F
100
AcDbEntity
  8
외형선
  6
Continuous
 62
     1
370
    15
100
AcDbSpline
210
0.0
220
0.0
230
1.0
 70
     8
 71
     3
 72
    23
 73
    19
 74
     0
 42
0.000000001
 43
0.00000001
 40
0.0
 40
0.0
 40
0.0
 40
0.0
 40
0.000029664921946
 40
0.000029664921946
 40
0.000029664921946
 40
0.0000594417486325
 40
0.0000594417486325
 40
0.0000594417486325
 40
0.000087991603368
 40
0.000087991603368
 40
0.000087991603368
 40
0.0001172376837522
 40
0.0001172376837522
 40
0.0001172376837522
 40
0.0001497372020149
 40
0.0001497372020149
 40
0.0001497372020149
 40
0.0001636981381209
 40
0.0001636981381209
 40
0.0001636981381209
 40
0.0001636981381209
 10
39.99999999999994
 20
0.4946200132309855
 30
0.0
 10
39.99999999999994
 20
0.4927535541716281
 30
0.0
 10
39.99860182120898
 20
0.4915697875708531
 30
0.0
 10
39.99577911981993
 20
0.4912520485043501
 30
0.0
 10
39.99294976111548
 20
0.4909335600531648
 30
0.0
 10
39.98859888487704
 20
0.4914860812072845
 30
0.0
 10
39.98309778842599
 20
0.4928944265614206
 30
0.0
 10
39.97781401531506
 20
0.4942471345859332
 30
0.0
 10
39.97133939871878
 20
0.4964200704092292
 30
0.0
 10
39.96425243839724
 20
0.499204429553231
 30
0.0
 10
39.95698395358079
 20
0.5020601069160904
 30
0.0
 10
39.94890565726621
 20
0.5056200299462716
 30
0.0
 10
39.94062646074309
 20
0.509581263494141
 30
0.0
 10
39.93142754110033
 20
0.5139825443419994
 30
0.0
 10
39.92177542757906
 20
0.5189738463098195
 30
0.0
 10
39.91228582669794
 20
0.5241860285110249
 30
0.0
 10
39.90817499925026
 20
0.5264439086814718
 30
0.0
 10
39.90406715697662
 20
0.5287572450236269
 30
0.0
 10
39.89999999999998
 20
0.5311010462658743
 30
0.0
  0
SPLINE
  5
1C6
330
1F
100
AcDbEntity
  8
외형선
  6
Continuous
 62
     1
370
    15
100
AcDbSpline
210
0.0
220
0.0
230
1.0
 70
     8
 71
     3
 72
    19
 73
    15
 74
     0
 42
0.000000001
 43
0.00000001
 40
0.0
 40
0.0
 40
0.0
 40
0.0
 40
0.0852351348629177
 40
0.1704725785111994
 40
0.2557126049592429
 40
0.3409554874232771
 40
0.4262014982379484
 40
0.5114504773896111
 40
0.5966974977077201
 40
0.6819413066954634
 40
0.7712292328127728
 40
0.8605170497134066
 40
0.9498047554980985
 40
0.9938629149746641
 40
0.9938629149746641
 40
0.9938629149746641
 40
0.9938629149746641
 10
10.0
 20
1.050607704989488
 30
0.0
 10
10.69763535001653
 20
0.6502771138339085
 30
0.0
 10
12.09292494707245
 20
-0.150394912331862
 30
0.0
 10
14.18590395581248
 20
-1.358780552577059
 30
0.0
 10
16.27895824986803
 20
-2.510735002956864
 30
0.0
 10
18.3720971695825
 20
-3.563701388376373
 30
0.0
 10
20.46532351177223
 20
-4.474051925189841
 30
0.0
 10
22.55860465372024
 20
-5.205186099832787
 30
0.0
 10
24.65185717985912
 20
-5.727723608406407
 30
0.0
 10
26.77813211950945
 20
-6.024307642420638
 30
0.0
 10
28.93754490167697
 20
-6.072921676457227
 30
0.0
 10
31.13003916748562
 20
-5.844453066387189
 30
0.0
 10
32.95232609773825
 20
-5.472528439765725
 30
0.0
 10
34.04377919331205
 20
-5.108265713462032
 30
0.0
 10
34.40440089542324
 20
-4.986022801536905
 30
0.0
  0
SPLINE
  5
1C7
330
1F
100
AcDbEntity
  8
외형선
  6
Continuous
370
    15
100
AcDbSpline
210
0.0
220
0.0
230
1.0
 70
    24
 71
     3
 72
    17
 73
    13
 74
     0
 42
0.000000001
 43
0.00000001
 40
0.0
 40
0.0
 40
0.0
 40
0.0
 40
0.1044304447535724
 40
0.21159333435849
 40
0.3212691633166808
 40
0.434125598744627
 40
0.5438014277028211
 40
0.6566578631307713
 40
0.7663336920889651
 40
0.8791901275169149
 40
0.9888659564751082
 40
0.9999999999999999
 40
0.9999999999999999
 40
0.9999999999999999
 40
0.9999999999999999
 10
10.0
 20
5.873723298022185
 30
0.0
 10
10.0
 20
5.700718099406004
 30
0.0
 10
9.999999999999943
 20
5.350180984267482
 30
0.0
 10
10.0
 20
4.777429461394007
 30
0.0
 10
9.999999999999943
 20
4.177720146149824
 30
0.0
 10
10.0
 20
3.573889950132525
 30
0.0
 10
10.0
 20
2.983344822701795
 30
0.0
 10
9.999999999999943
 20
2.434015159171523
 30
0.0
 10
10.0
 20
1.928386654841077
 30
0.0
 10
9.999999999999943
 20
1.50196532961607
 30
0.0
 10
9.999999999999943
 20
1.231562297531411
 30
0.0
 10
10.0
 20
1.135458979160134
 30
0.0
 10
10.0
 20
1.126601933724686
 30
0.0
  0
SPLINE
  5
1C8
330
1F
100
AcDbEntity
  8
외형선
  6
Continuous
 62
     1
370
    15
100
AcDbSpline
210
0.0
220
0.0
230
1.0
 70
     8
 71
     3
 72
    56
 73
    52
 74
     0
 42
0.000000001
 43
0.00000001
 40
0.0059767960102844
 40
0.0059767960102844
 40
0.0059767960102844
 40
0.0059767960102844
 40
0.0624999999999997
 40
0.0624999999999997
 40
0.093749999999999
 40
0.093749999999999
 40
0.1249999999999983
 40
0.1249999999999983
 40
0.1562499999999976
 40
0.1562499999999976
 40
0.1874999999999969
 40
0.1874999999999969
 40
0.2499999999999965
 40
0.2499999999999965
 40
0.2812499999999958
 40
0.2812499999999958
 40
0.3124999999999952
 40
0.3124999999999952
 40
0.3437499999999945
 40
0.3437499999999945
 40
0.3749999999999938
 40
0.3749999999999938
 40
0.4374999999999934
 40
0.4374999999999934
 40
0.4999999999999931
 40
0.4999999999999931
 40
0.5312499999999929
 40
0.5312499999999929
 40
0.5624999999999928
 40
0.5624999999999928
 40
0.5937499999999926
 40
0.5937499999999926
 40
0.6249999999999925
 40
0.6249999999999925
 40
0.6874999999999921
 40
0.6874999999999921
 40
0.7187499999999925
 40
0.7187499999999925
 40
0.7499999999999929
 40
0.7499999999999929
 40
0.7812499999999932
 40
0.7812499999999932
 40
0.8124999999999936
 40
0.8124999999999936
 40
0.8749999999999953
 40
0.8749999999999953
 40
0.9374999999999971
 40
0.9374999999999971
 40
0.9687499999999986
 40
0.9687499999999986
 40
1.0
 40
1.0
 40
1.0
 40
1.0
 10
39.5
 20
-6.040667731472738
 30
0.0
 10
38.9376991478465
 20
-6.004107481196471
 30
0.0
 10
38.37004779227368
 20
-5.94108547412776
 30
0.0
 10
37.49760722979738
 20
-5.803921902569243
 30
0.0
 10
37.18762801946605
 20
-5.747365200624458
 30
0.0
 10
36.56360165555571
 20
-5.618872014764221
 30
0.0
 10
36.25085567584284
 20
-5.547000735345335
 30
0.0
 10
35.62768666594093
 20
-5.388899878364143
 30
0.0
 10
35.31855055949359
 20
-5.302813136069247
 30
0.0
 10
34.69590017358644
 20
-5.116418746568115
 30
0.0
 10
34.3832189745429
 20
-5.016161992750511
 30
0.0
 10
33.44678627128781
 20
-4.695981756830491
 30
0.0
 10
32.82781417547466
 20
-4.457095682696917
 30
0.0
 10
31.89093576940655
 20
-4.064292751005283
 30
0.0
 10
31.57855816596901
 20
-3.92778031966057
 30
0.0
 10
30.95740710452395
 20
-3.645309164456208
 30
0.0
 10
30.6473552475091
 20
-3.499171983460812
 30
0.0
 10
30.02329613718223
 20
-3.197448070270525
 30
0.0
 10
29.71055529472841
 20
-3.042052833391253
 30
0.0
 10
29.08743937378347
 20
-2.724090760264588
 30
0.0
 10
28.77831502941643
 20
-2.56175463551287
 30
0.0
 10
27.84424807964467
 20
-2.064220602402372
 30
0.0
 10
27.21827302370059
 20
-1.719408826387976
 30
0.0
 10
25.97717686200707
 20
-1.017862184270101
 30
0.0
 10
25.34881238657795
 20
-0.658643164044804
 30
0.0
 10
24.41720884459693
 20
-0.1200996721426719
 30
0.0
 10
24.10708144089165
 20
0.0596339747448411
 30
0.0
 10
23.48299055633828
 20
0.4189822039429458
 30
0.0
 10
23.17025534093494
 20
0.5983582554228803
 30
0.0
 10
22.54719347623916
 20
0.9543437604467755
 30
0.0
 10
22.23807798914697
 20
1.130727681407066
 30
0.0
 10
21.61530674055234
 20
1.480625444267034
 30
0.0
 10
21.30260782564363
 20
1.653951314168125
 30
0.0
 10
20.36625118916288
 20
2.165894965173976
 30
0.0
 10
19.7472232590834
 20
2.495981071722568
 30
0.0
 10
18.8103359347362
 20
2.969141873046468
 30
0.0
 10
18.49799850391167
 20
3.122959903047672
 30
0.0
 10
17.87701246607605
 20
3.420978979197571
 30
0.0
 10
17.56680661606362
 20
3.565442377485482
 30
0.0
 10
16.94268492963931
 20
3.844724461293353
 30
0.0
 10
16.62995583104822
 20
3.979350246358621
 30
0.0
 10
16.00694898961336
 20
4.236959575554636
 30
0.0
 10
15.69783945494504
 20
4.359808474250272
 30
0.0
 10
14.76359410718976
 20
4.710860030841729
 30
0.0
 10
14.13798536928675
 20
4.920553886914362
 30
0.0
 10
12.89653967327285
 20
5.282995486367483
 30
0.0
 10
12.26817112213922
 20
5.436875205478628
 30
0.0
 10
11.33681798501112
 20
5.621119454052945
 30
0.0
 10
11.02653078948089
 20
5.674949373108987
 30
0.0
 10
10.40237927370089
 20
5.767149530726272
 30
0.0
 10
10.08965678165202
 20
5.80544167961591
 30
0.0
 10
9.778181355928325
 20
5.835709143111373
 30
0.0
1001
PE_URL
1000

  0
SPLINE
  5
1C9
330
1F
100
AcDbEntity
  8
외형선
  6
Continuous
 62
     1
370
    15
100
AcDbSpline
210
0.0
220
0.0
230
1.0
 70
     8
 71
     3
 72
    14
 73
    10
 74
     0
 42
0.000000001
 43
0.00000001
 40
0.0
 40
0.0
 40
0.0
 40
0.0
 40
0.0969195617180836
 40
0.247433251394316
 40
0.3979468320718322
 40
0.5484603005099278
 40
0.6989736534691747
 40
0.8494868877114538
 40
1.0
 40
1.0
 40
1.0
 40
1.0
 10
24.56711297388625
 20
-6.013989183190176
 30
0.0
 10
24.09652411075052
 20
-6.013791120086836
 30
0.0
 10
22.89512234611692
 20
-6.013285469867512
 30
0.0
 10
20.96276377871027
 20
-5.719322348611129
 30
0.0
 10
18.77021661945781
 20
-5.170872181109132
 30
0.0
 10
16.57765708368009
 20
-4.385231218635312
 30
0.0
 10
14.38510341345835
 20
-3.408715959414593
 30
0.0
 10
12.19255076805035
 20
-2.285346063015737
 30
0.0
 10
10.73085005862464
 20
-1.462187046506315
 30
0.0
 10
9.999999999998579
 20
-1.050607704993354
 30
0.0
  0
LINE
  5
1CA
330
1F
100
AcDbEntity
  8
외형선
  6
Continuous
370
    15
100
AcDbLine
 10
10.0
 20
-1.050607704989218
 30
0.0
 11
9.999999999999943
 21
1.050607704989488
 31
0.0
  0
SPLINE
  5
1CB
330
1F
100
AcDbEntity
  8
외형선
  6
Continuous
 62
     1
370
    15
100
AcDbSpline
210
0.0
220
0.0
230
1.0
 70
     8
 71
     3
 72
    17
 73
    13
 74
     0
 42
0.000000001
 43
0.00000001
 40
0.0
 40
0.0
 40
0.0
 40
0.0
 40
0.0000509221841511
 40
0.0000509221841511
 40
0.0000509221841511
 40
0.000096583608664
 40
0.000096583608664
 40
0.000096583608664
 40
0.0001437105714534
 40
0.0001437105714534
 40
0.0001437105714534
 40
0.0001792411611043
 40
0.0001792411611043
 40
0.0001792411611043
 40
0.0001792411611043
 10
39.90000000000003
 20
2.555423086180028
 30
0.0
 10
39.91469003914426
 20
2.547756147824828
 30
0.0
 10
39.92915003958166
 20
2.537836999348528
 30
0.0
 10
39.94202928405474
 20
2.526869627157936
 30
0.0
 10
39.95362065681451
 20
2.516998947280499
 30
0.0
 10
39.96429477763189
 20
2.505983639680494
 30
0.0
 10
39.97315895971519
 20
2.494682303371846
 30
0.0
 10
39.98227551033551
 20
2.483059211295554
 30
0.0
 10
39.98976277850949
 20
2.470735758497028
 30
0.0
 10
39.99444018695482
 20
2.459026862183066
 30
0.0
 10
39.99798462314152
 20
2.450154120730929
 30
0.0
 10
40.0
 20
2.441385350021207
 30
0.0
 10
40.0
 20
2.433593167747006
 30
0.0
  0
LINE
  5
1CC
330
1F
100
AcDbEntity
  8
외형선
  6
Continuous
 62
     1
370
    15
100
AcDbLine
 10
40.0
 20
0.4946200132309855
 30
0.0
 11
40.0
 21
2.433593167747006
 31
0.0
  0
SPLINE
  5
1CD
330
1F
100
AcDbEntity
  8
외형선
  6
Continuous
 62
     1
370
    15
100
AcDbSpline
210
0.0
220
0.0
230
1.0
 70
     8
 71
     3
 72
    13
 73
     9
 74
     0
 42
0.000000001
 43
0.00000001
 40
0.0
 40
0.0
 40
0.0
 40
0.0
 40
0.0608846411914078
 40
0.248708188416897
 40
0.4365315019017585
 40
0.6243545776533816
 40
0.8121774116818598
 40
1.0
 40
1.0
 40
1.0
 40
1.0
 10
28.22682513638188
 20
5.930114959545975
 30
0.0
 10
28.46373099709689
 20
5.938270260738292
 30
0.0
 10
29.43146976159977
 20
5.971583919911552
 30
0.0
 10
31.13003997569689
 20
5.75769624876034
 30
0.0
 10
33.32253483891583
 20
5.29512551333805
 30
0.0
 10
35.51502632400178
 20
4.574953891624602
 30
0.0
 10
37.70751447586451
 20
3.663367708850473
 30
0.0
 10
39.16917181064571
 20
2.924737799357132
 30
0.0
 10
39.90000000000003
 20
2.555423086180028
 30
0.0
  0
SPLINE
  5
1CE
330
1F
100
AcDbEntity
  8
외형선
  6
Continuous
 62
     1
370
    15
100
AcDbSpline
210
0.0
220
0.0
230
1.0
 70
     8
 71
     3
 72
    11
 73
     7
 74
     0
 42
0.000000001
 43
0.00000001
 40
0.0
 40
0.0
 40
0.0
 40
0.0
 40
0.2535484699442178
 40
0.5071038078190958
 40
0.7606668287337138
 40
1.0
 40
1.0
 40
1.0
 40
1.0
 10
9.999999999999943
 20
-5.940592978607157
 30
0.0
 10
10.69763533388584
 20
-5.990973490232292
 30
0.0
 10
12.09292489868
 20
-6.091735878152065
 30
0.0
 10
14.18590414939086
 20
-5.930313246124143
 30
0.0
 10
16.23978043230932
 20
-5.571076667449418
 30
0.0
 10
17.59600601942589
 20
-5.151911215495687
 30
0.0
 10
18.25454178388543
 20
-4.948379115851196
 30
0.0
  0
SPLINE
  5
1CF
330
1F
100
AcDbEntity
  8
외형선
  6
Continuous
370
    15
100
AcDbSpline
210
0.0
220
0.0
230
1.0
 70
    24
 71
     3
 72
    17
 73
    13
 74
     0
 42
0.000000001
 43
0.00000001
 40
0.0
 40
0.0
 40
0.0
 40
0.0
 40
0.0003817592176639
 40
0.1085443070333338
 40
0.2198435760631097
 40
0.3280061238787791
 40
0.4393053929085543
 40
0.5474679407242234
 40
0.6587672097539988
 40
0.7669297575696687
 40
0.8782290265994441
 40
1.0
 40
1.0
 40
1.0
 40
1.0
 10
10.0
 20
-1.131943167934963
 30
0.0
 10
9.999999999999943
 20
-1.132240129964458
 30
0.0
 10
9.999999999999432
 20
-1.216674339320093
 30
0.0
 10
10.00000000000023
 20
-1.470476314794041
 30
0.0
 10
9.999999999999886
 20
-1.885148588170068
 30
0.0
 10
10.0
 20
-2.382744203224647
 30
0.0
 10
10.0
 20
-2.925704072598123
 30
0.0
 10
10.0
 20
-3.512249676417028
 30
0.0
 10
9.999999999999886
 20
-4.114499612642902
 30
0.0
 10
10.0
 20
-4.725325059508663
 30
0.0
 10
10.0
 20
-5.345580738729595
 30
0.0
 10
10.0
 20
-5.73640243815521
 30
0.0
 10
10.0
 20
-5.940592978607157
 30
0.0
  0
SPLINE
  5
1D0
330
1F
100
AcDbEntity
  8
외형선
  6
Continuous
 62
     1
370
    15
100
AcDbSpline
210
0.0
220
0.0
230
1.0
 70
     8
 71
     3
 72
    10
 73
     6
 74
     0
 42
0.000000001
 43
0.00000001
 40
0.0
 40
0.0
 40
0.0
 40
0.0
 40
0.3916393347012734
 40
0.7832843564461475
 40
0.9632432131756273
 40
0.9632432131756273
 40
0.9632432131756273
 40
0.9632432131756273
 10
39.5
 20
5.959332268527262
 30
0.0
 10
38.8022433275076
 20
5.895769182258206
 30
0.0
 10
37.40671985031116
 20
5.768642086712603
 30
0.0
 10
35.69056124815017
 20
5.393841446011876
 30
0.0
 10
34.67217825713323
 20
5.055781858111843
 30
0.0
 10
34.35155951767382
 20
4.947405896049986
 30
0.0
  0
LINE
  5
1D1
330
1F
100
AcDbEntity
  8
외형선
  6
Continuous
 62
     1
370
    15
100
AcDbLine
 10
40.0
 20
2.421515199643466
 30
0.0
 11
40.0
 21
5.459332268527262
 31
0.0
  0
LINE
  5
1D2
330
1F
100
AcDbEntity
  8
외형선
  6
Continuous
 62
     1
370
    15
100
AcDbLine
 10
40.0
 20
-5.540667731472738
 30
0.0
 11
40.0
 21
-5.396788809509729
 31
0.0
  0
LINE
  5
1D3
330
1F
100
AcDbEntity
  8
외형선
  6
Continuous
370
    15
100
AcDbLine
 10
-108.8
 20
-0.0406677314727375
 30
0.0
 11
-108.8
 21
5.959332268527262
 31
0.0
  0
LINE
  5
1D4
330
1F
100
AcDbEntity
  8
외형선
  6
Continuous
370
    15
100
AcDbLine
 10
-108.8
 20
-6.040667731472738
 30
0.0
 11
-108.8
 21
-0.0406677314727375
 31
0.0
  0
LINE
  5
1D5
330
1F
100
AcDbEntity
  8
외형선
  6
Continuous
370
    15
100
AcDbLine
 10
-110.0
 20
-4.840667731472735
 30
0.0
 11
-110.0
 21
-0.0406677314727375
 31
0.0
  0
SPLINE
  5
1D6
330
1F
100
AcDbEntity
  8
외형선
  6
Continuous
370
    15
100
AcDbSpline
210
0.0
220
0.0
230
1.0
 70
     8
 71
     3
 72
     8
 73
     4
 74
     0
 42
0.000000001
 43
0.00000001
 40
0.0
 40
0.0
 40
0.0
 40
0.0
 40
1.0
 40
1.0
 40
1.0
 40
1.0
 10
10.0
 20
5.873723298031777
 30
0.0
 10
9.665921487744242
 20
5.906187204777652
 30
0.0
 10
9.33438402216126
 20
5.92942701947112
 30
0.0
 10
9.000152190734013
 20
5.943452029811013
 30
0.0
  0
LINE
  5
1D7
330
1F
100
AcDbEntity
  8
외형선
  6
Continuous
370
    15
100
AcDbLine
 10
9.000152190734013
 20
1.613165100962078
 30
0.0
 11
9.000152190734013
 21
5.94345278932542
 31
0.0
  0
SPLINE
  5
1D8
330
1F
100
AcDbEntity
  8
외형선
  6
Continuous
370
    15
100
AcDbSpline
210
0.0
220
0.0
230
1.0
 70
     8
 71
     3
 72
     8
 73
     4
 74
     0
 42
0.000000001
 43
0.00000001
 40
0.0
 40
0.0
 40
0.0
 40
0.0
 40
1.0
 40
1.0
 40
1.0
 40
1.0
 10
9.999999999999943
 20
1.050607704989488
 30
0.0
 10
9.665921487744185
 20
1.240257216893397
 30
0.0
 10
9.33438402216126
 20
1.427739597258139
 30
0.0
 10
9.000152190734013
 20
1.61316291748139
 30
0.0
  0
SPLINE
  5
1D9
330
1F
100
AcDbEntity
  8
외형선
  6
Continuous
370
    15
100
AcDbSpline
210
0.0
220
0.0
230
1.0
 70
     8
 71
     3
 72
     8
 73
     4
 74
     0
 42
0.000000001
 43
0.00000001
 40
0.0
 40
0.0
 40
0.0
 40
0.0
 40
1.0
 40
1.0
 40
1.0
 40
1.0
 10
10.0
 20
-1.050607704994135
 30
0.0
 10
9.665921487744242
 20
-0.8604931993062479
 30
0.0
 10
9.33438402216126
 20
-0.6692991568959457
 30
0.0
 10
9.000152190734013
 20
-0.4769138576599516
 30
0.0
  0
LINE
  5
1DA
330
1F
100
AcDbEntity
  8
외형선
  6
Continuous
370
    15
100
AcDbLine
 10
9.000152190734013
 20
-5.80823541311814
 30
0.0
 11
9.000152190734013
 21
-0.4769034390463673
 31
0.0
  0
SPLINE
  5
1DB
330
1F
100
AcDbEntity
  8
외형선
  6
Continuous
370
    15
100
AcDbSpline
210
0.0
220
0.0
230
1.0
 70
     8
 71
     3
 72
     8
 73
     4
 74
     0
 42
0.000000001
 43
0.00000001
 40
0.0
 40
0.0
 40
0.0
 40
0.0
 40
1.0
 40
1.0
 40
1.0
 40
1.0
 10
9.999999999999943
 20
-5.940592978607157
 30
0.0
 10
9.665921487744185
 20
-5.90551459282959
 30
0.0
 10
9.33438402216126
 20
-5.861405547351964
 30
0.0
 10
9.000152190734013
 20
-5.808236039224269
 30
0.0
  0
SPLINE
  5
1DC
330
1F
100
AcDbEntity
  8
외형선
  6
Continuous
370
    15
100
AcDbSpline
210
0.0
220
0.0
230
1.0
 70
    24
 71
     3
 72
    17
 73
    13
 74
     0
 42
0.000000001
 43
0.00000001
 40
0.0
 40
0.0
 40
0.0
 40
0.0
 40
0.1023487504679243
 40
0.2046975009358479
 40
0.3140621575095257
 40
0.4234268140832033
 40
0.5327914706568803
 40
0.6421561272305574
 40
0.7515207838042365
 40
0.8608854403779157
 40
0.9702500969515925
 40
0.9999999999999999
 40
0.9999999999999999
 40
0.9999999999999999
 40
0.9999999999999999
 10
9.999999999999943
 20
-5.940592978607157
 30
0.0
 10
9.999999999999943
 20
-5.769157367706441
 30
0.0
 10
9.999999999999943
 20
-5.42628614590501
 30
0.0
 10
9.999999999999943
 20
-4.859316381533887
 30
0.0
 10
10.0
 20
-4.265820390337367
 30
0.0
 10
10.00000000000006
 20
-3.658181353452974
 30
0.0
 10
10.0
 20
-3.067907092949625
 30
0.0
 10
9.999999999999943
 20
-2.511043089298639
 30
0.0
 10
9.999999999999943
 20
-2.002836203023534
 30
0.0
 10
10.0
 20
-1.564141134200412
 30
0.0
 10
9.999999999999943
 20
-1.271339202986539
 30
0.0
 10
10.0
 20
-1.156501434739809
 30
0.0
 10
9.999999999999943
 20
-1.131943167934978
 30
0.0
  0
SPLINE
  5
1DD
330
1F
100
AcDbEntity
  8
외형선
  6
Continuous
370
    15
100
AcDbSpline
210
0.0
220
0.0
230
1.0
 70
    24
 71
     3
 72
    16
 73
    12
 74
     0
 42
0.000000001
 43
0.00000001
 40
0.0
 40
0.0
 40
0.0
 40
0.0
 40
0.0947062597942761
 40
0.2059251093368047
 40
0.3171439588793309
 40
0.4283628084218571
 40
0.5395816579643794
 40
0.6508005075069019
 40
0.7620193570494346
 40
0.8732382065919673
 40
1.0
 40
1.0
 40
1.0
 40
1.0
 10
10.0
 20
1.126601933724686
 30
0.0
 10
9.999999999999943
 20
1.217540021675831
 30
0.0
 10
9.999999999999943
 20
1.415271784548693
 30
0.0
 10
9.999999999999943
 20
1.818574254623286
 30
0.0
 10
9.999999999999943
 20
2.30382202252521
 30
0.0
 10
10.0
 20
2.845065964167816
 30
0.0
 10
10.0
 20
3.425758461968186
 30
0.0
 10
10.0
 20
4.029253647020838
 30
0.0
 10
9.999999999999943
 20
4.63765133516587
 30
0.0
 10
10.0
 20
5.266083902592669
 30
0.0
 10
10.0
 20
5.662545623505636
 30
0.0
 10
10.0
 20
5.873723298031877
 30
0.0
  0
LINE
  5
1DE
330
1F
100
AcDbEntity
  8
중심선
100
AcDbLine
 10
-115.7903790795957
 20
-0.0406677314727384
 30
0.0
 11
43.0
 21
-0.0406677314727375
 31
0.0
  0
CIRCLE
  5
1DF
330
1F
100
AcDbEntity
  8
해칭선
100
AcDbCircle
 10
0.0
 20
0.0
 30
0.0
 40
2.999999999999997
  0
DIMENSION
  5
1E0
330
1F
100
AcDbEntity
  8
치수문자_일반주서
100
AcDbDimension
  2
*D13
 10
50.10000608939756
 20
-6.040667731472656
 30
0.0
 11
50.10000608939754
 21
-0.0406677314727375
 31
0.0
 70
   160
  1
%%c<>
 71
     2
 42
12.0
 52
-270.0
  3
SLDDIMSTYLE0
100
AcDbAlignedDimension
 13
28.22603232075096
 23
5.959332268527262
 33
0.0
 14
28.22603232075096
 24
-6.040667731472738
 34
0.0
 50
90.0000000000002
100
AcDbRotatedDimension
  0
DIMENSION
  5
1E1
330
1F
100
AcDbEntity
  8
치수문자_일반주서
100
AcDbDimension
  2
*D14
 10
-122.1375
 20
-6.040667731472787
 30
0.0
 11
-122.1375
 21
-0.0406677314727375
 31
0.0
 70
   160
  1
%%c<>
 71
     2
 42
12.0
 52
-270.0
  3
SLDDIMSTYLE0
100
AcDbAlignedDimension
 13
-108.7375
 23
5.959332268527262
 33
0.0
 14
-108.7375
 24
-6.040667731472738
 34
0.0
 50
90.0000000000002
100
AcDbRotatedDimension
  0
DIMENSION
  5
1E2
330
1F
100
AcDbEntity
  8
치수문자_일반주서
100
AcDbDimension
  2
*D15
 10
10.0
 20
23.28817009170537
 30
0.0
 11
25.0
 21
23.28817009170537
 31
0.0
 70
   160
  1
<>
 71
     2
 42
30.0
  3
SLDDIMSTYLE1
100
AcDbAlignedDimension
 13
40.0
 23
5.834999637462474
 33
0.0
 14
10.0
 24
5.873723298022185
 34
0.0
 50
-0.0000000000001357
100
AcDbRotatedDimension
  0
DIMENSION
  5
1E3
102
{ACAD_XDICTIONARY
360
1E4
102
}
330
1F
100
AcDbEntity
  8
치수문자_일반주서
100
AcDbDimension
  2
*D16
 10
-110.0
 20
30.70453278207226
 30
0.0
 11
-35.00000000000002
 21
30.70453278207226
 31
0.0
 70
   160
  1
<>
 71
     2
 42
150.0
  3
SLDDIMSTYLE1
100
AcDbAlignedDimension
 13
40.0
 23
5.834999637462474
 33
0.0
 14
-110.0
 24
4.75933226852726
 34
0.0
 50
0.0000000000000037
100
AcDbRotatedDimension
1001
ENABLE_CUSTOM_SPLIT
1070
     1
  0
INSERT
  5
1E6
330
1F
100
AcDbEntity
  8
해칭선
100
AcDbBlockReference
  2
SW_DOWELSYMBOL_0
 10
0.0
 20
0.0
 30
0.0
  0
ARC
  5
1E7
330
1F
100
AcDbEntity
  8
외형선
  6
Continuous
 62
     1
370
    15
100
AcDbCircle
 10
39.5
 20
5.459332268527262
 30
0.0
 40
0.4999999999999998
100
AcDbArc
 50
0.0
 51
90.0
1001
PE_URL
1000

  0
ARC
  5
1E8
102
{ACAD_REACTORS
102
}
330
1F
100
AcDbEntity
  8
외형선
  6
Continuous
 62
     1
370
    15
100
AcDbCircle
 10
39.5
 20
-5.540667731472738
 30
0.0
 40
0.4999999999999998
100
AcDbArc
 50
270.0
 51
0.0
1001
PE_URL
1000

  0
DIMENSION
  5
1E9
102
{ACAD_REACTORS
102
}
102
{ACAD_XDICTIONARY
360
1EA
102
}
330
1F
100
AcDbEntity
  8
치수문자_일반주서
100
AcDbDimension
  2
*D17
 10
39.5
 20
-5.540667731472738
 30
0.0
 11
48.98768120117547
 21
-19.37997915734254
 31
0.0
 70
   164
 71
     5
 42
0.5000000000000191
  3
SLDDIMSTYLE1
100
AcDbRadialDimension
 15
39.78272095685827
 25
-5.953061791266478
 35
0.0
 40
0.0
1001
ACAD
1000
DSTYLE
1002
{
1070
    78
1070
     8
1002
}
1001
ACAD_DSTYLE_DIMRADIAL_EXTENSION
1070
   387
1070
     1
1070
   388
1040
4.71238898038469
1070
   390
1040
0.0
1001
PE_URL
1000

  0
LINE
  5
227
330
1F
100
AcDbEntity
  8
외형선
  6
Continuous
370
    15
100
AcDbLine
 10
-110.0
 20
-0.0406677314727375
 30
0.0
 11
-110.0
 21
4.75933226852726
 31
0.0
  0
ENDSEC
  0
SECTION
  2
OBJECTS
  0
DICTIONARY
  5
C
330
0
100
AcDbDictionary
281
     1
  3
ACAD_GROUP
350
D
  3
ACAD_LAYOUT
350
1A
  3
ACAD_MLINESTYLE
350
17
  3
ACAD_PLOTSETTINGS
350
19
  3
ACAD_PLOTSTYLENAME
350
E
  3
ACAD_SCALELIST
350
47
  3
APPDATA
350
128
  3
DWGPROPS
350
22D
  0
DICTIONARY
  5
1B4
330
2
100
AcDbDictionary
280
     1
281
     1
  3
ACAD_LAYERSTATES
360
1B5
  0
DICTIONARY
  5
22A
330
1F
100
AcDbDictionary
280
     1
281
     1
  3
DIM_BOUNDING_BOXES_V1
360
22B
  0
DICTIONARY
  5
1E4
330
1E3
100
AcDbDictionary
280
     1
281
     1
  3
ACAD_CUSTOM_BREAKDATA
360
229
  0
DICTIONARY
  5
1EA
330
1E9
100
AcDbDictionary
280
     1
281
     1
  0
DICTIONARY
  5
D
102
{ACAD_REACTORS
330
C
102
}
330
C
100
AcDbDictionary
281
     1
  0
DICTIONARY
  5
1A
102
{ACAD_REACTORS
330
C
102
}
330
C
100
AcDbDictionary
281
     1
  3
Layout1
350
1E
  3
Layout2
350
26
  3
Model
350
22
  0
DICTIONARY
  5
17
102
{ACAD_REACTORS
330
C
102
}
330
C
100
AcDbDictionary
281
     1
  3
Standard
350
18
  0
DICTIONARY
  5
19
102
{ACAD_REACTORS
330
C
102
}
330
C
100
AcDbDictionary
281
     1
  0
ACDBDICTIONARYWDFLT
  5
E
102
{ACAD_REACTORS
330
C
102
}
330
C
100
AcDbDictionary
281
     1
  3
Normal
350
F
100
AcDbDictionaryWithDefault
340
F
  0
DICTIONARY
  5
47
102
{ACAD_REACTORS
330
C
102
}
330
C
100
AcDbDictionary
281
     1
  3
A0
350
48
  3
A1
350
49
  3
A2
350
4A
  3
A3
350
4B
  3
A4
350
4C
  3
A5
350
4D
  3
A6
350
4E
  3
A7
350
4F
  3
A8
350
50
  3
A9
350
51
  3
B0
350
52
  3
B1
350
53
  3
B2
350
54
  3
B3
350
55
  3
B4
350
56
  3
B5
350
57
  3
B6
350
58
  3
B7
350
59
  3
B8
350
5A
  3
B9
350
5B
  3
C0
350
5C
  3
C1
350
5D
  3
C2
350
5E
  3
C3
350
5F
  3
C4
350
60
  3
C5
350
61
  3
C6
350
62
  3
C7
350
63
  3
C8
350
64
  3
C9
350
65
  3
D0
350
66
  3
D1
350
67
  3
D2
350
68
  0
DICTIONARY
  5
128
102
{ACAD_REACTORS
330
C
102
}
330
C
100
AcDbDictionary
281
     1
  0
XRECORD
  5
22D
102
{ACAD_REACTORS
330
C
102
}
330
C
100
AcDbXrecord
280
     1
  1
DWGPROPS COOKIE
  2

  3

  4

  6

  7

  8
12016016
  9

300
=
301
=
302
=
303
=
304
=
305
=
306
=
307
=
308
=
309
=
 40
0.0
 41
2458269.446742211
 42
2459702.262664803
  1

 90
        0
  0
DICTIONARY
  5
1B5
102
{ACAD_REACTORS
330
1B4
102
}
330
1B4
100
AcDbDictionary
281
     1
  0
DICTIONARY
  5
22B
102
{ACAD_REACTORS
330
22A
102
}
330
22A
100
AcDbDictionary
281
     1
  0
BREAKDATA
  5
229
102
{ACAD_REACTORS
330
1E4
102
}
330
1E4
100
AcDbBreakData
 70
     0
330
1E3
 90
        0
  0
LAYOUT
  5
1E
102
{ACAD_REACTORS
330
1A
102
}
330
1A
100
AcDbPlotSettings
  1

  2
none_device
  4

  6

 40
0.0
 41
0.0
 42
0.0
 43
0.0
 44
0.0
 45
0.0
 46
0.0
 47
0.0
 48
0.0
 49
0.0
140
0.0
141
0.0
142
1.0
143
1.0
 70
   688
 72
     1
 73
     0
 74
     5
  7

 75
    16
147
1.0
148
0.0
149
0.0
100
AcDbLayout
  1
Layout1
 70
     1
 71
     1
 10
0.0
 20
0.0
 11
420.0
 21
297.0
 12
0.0
 22
0.0
 32
0.0
 14
1.000000000000000E+20
 24
1.000000000000000E+20
 34
1.000000000000000E+20
 15
-1.000000000000000E+20
 25
-1.000000000000000E+20
 35
-1.000000000000000E+20
146
0.0
 13
0.0
 23
0.0
 33
0.0
 16
1.0
 26
0.0
 36
0.0
 17
0.0
 27
1.0
 37
0.0
 76
     0
330
1B
  0
LAYOUT
  5
26
102
{ACAD_REACTORS
330
1A
102
}
330
1A
100
AcDbPlotSettings
  1

  2
none_device
  4

  6

 40
0.0
 41
0.0
 42
0.0
 43
0.0
 44
0.0
 45
0.0
 46
0.0
 47
0.0
 48
0.0
 49
0.0
140
0.0
141
0.0
142
1.0
143
1.0
 70
   688
 72
     1
 73
     0
 74
     5
  7

 75
    16
147
1.0
148
0.0
149
0.0
100
AcDbLayout
  1
Layout2
 70
     1
 71
     2
 10
0.0
 20
0.0
 11
0.0
 21
0.0
 12
0.0
 22
0.0
 32
0.0
 14
0.0
 24
0.0
 34
0.0
 15
0.0
 25
0.0
 35
0.0
146
0.0
 13
0.0
 23
0.0
 33
0.0
 16
1.0
 26
0.0
 36
0.0
 17
0.0
 27
1.0
 37
0.0
 76
     0
330
23
  0
LAYOUT
  5
22
102
{ACAD_REACTORS
330
1A
102
}
330
1A
100
AcDbPlotSettings
  1

  2
none_device
  4
ANSI_A_(11.00_x_8.50_Inches)
  6

 40
6.35
 41
19.05
 42
6.35000508
 43
19.05000254
 44
279.4
 45
215.9
 46
88.80002753648552
 47
101.8257573148411
 48
0.0
 49
0.0
140
0.0
141
0.0
142
0.0641474189387394
143
1.0
 70
  1696
 72
     0
 73
     0
 74
     0
  7

 75
     0
147
0.0235690232323232
148
0.0
149
0.0
100
AcDbLayout
  1
Model
 70
     1
 71
     0
 10
0.0
 20
0.0
 11
420.0
 21
297.0
 12
0.0
 22
0.0
 32
0.0
 14
-126.5125000000001
 24
-49.97180738881174
 34
0.0
 15
79.73835494594202
 25
35.07953278207227
 35
0.0
146
0.0
 13
0.0
 23
0.0
 33
0.0
 16
1.0
 26
0.0
 36
0.0
 17
0.0
 27
1.0
 37
0.0
 76
     0
330
1F
331
29
  0
MLINESTYLE
  5
18
102
{ACAD_REACTORS
330
17
102
}
330
17
100
AcDbMlineStyle
  2
Standard
 70
     0
  3

 62
   256
 51
90.0
 52
90.0
 71
     2
 49
0.5
 62
   256
  6
BYLAYER
 49
-0.5
 62
   256
  6
BYLAYER
  0
ACDBPLACEHOLDER
  5
F
102
{ACAD_REACTORS
330
E
102
}
330
E
  0
SCALE
  5
48
102
{ACAD_REACTORS
330
47
102
}
330
47
100
AcDbScale
 70
     0
300
1:1
140
1.0
141
1.0
290
     1
  0
SCALE
  5
49
102
{ACAD_REACTORS
330
47
102
}
330
47
100
AcDbScale
 70
     0
300
1:2
140
1.0
141
2.0
290
     0
  0
SCALE
  5
4A
102
{ACAD_REACTORS
330
47
102
}
330
47
100
AcDbScale
 70
     0
300
1:4
140
1.0
141
4.0
290
     0
  0
SCALE
  5
4B
102
{ACAD_REACTORS
330
47
102
}
330
47
100
AcDbScale
 70
     0
300
1:5
140
1.0
141
5.0
290
     0
  0
SCALE
  5
4C
102
{ACAD_REACTORS
330
47
102
}
330
47
100
AcDbScale
 70
     0
300
1:8
140
1.0
141
8.0
290
     0
  0
SCALE
  5
4D
102
{ACAD_REACTORS
330
47
102
}
330
47
100
AcDbScale
 70
     0
300
1:10
140
1.0
141
10.0
290
     0
  0
SCALE
  5
4E
102
{ACAD_REACTORS
330
47
102
}
330
47
100
AcDbScale
 70
     0
300
1:16
140
1.0
141
16.0
290
     0
  0
SCALE
  5
4F
102
{ACAD_REACTORS
330
47
102
}
330
47
100
AcDbScale
 70
     0
300
1:20
140
1.0
141
20.0
290
     0
  0
SCALE
  5
50
102
{ACAD_REACTORS
330
47
102
}
330
47
100
AcDbScale
 70
     0
300
1:30
140
1.0
141
30.0
290
     0
  0
SCALE
  5
51
102
{ACAD_REACTORS
330
47
102
}
330
47
100
AcDbScale
 70
     0
300
1:40
140
1.0
141
40.0
290
     0
  0
SCALE
  5
52
102
{ACAD_REACTORS
330
47
102
}
330
47
100
AcDbScale
 70
     0
300
1:50
140
1.0
141
50.0
290
     0
  0
SCALE
  5
53
102
{ACAD_REACTORS
330
47
102
}
330
47
100
AcDbScale
 70
     0
300
1:100
140
1.0
141
100.0
290
     0
  0
SCALE
  5
54
102
{ACAD_REACTORS
330
47
102
}
330
47
100
AcDbScale
 70
     0
300
2:1
140
2.0
141
1.0
290
     0
  0
SCALE
  5
55
102
{ACAD_REACTORS
330
47
102
}
330
47
100
AcDbScale
 70
     0
300
4:1
140
4.0
141
1.0
290
     0
  0
SCALE
  5
56
102
{ACAD_REACTORS
330
47
102
}
330
47
100
AcDbScale
 70
     0
300
8:1
140
8.0
141
1.0
290
     0
  0
SCALE
  5
57
102
{ACAD_REACTORS
330
47
102
}
330
47
100
AcDbScale
 70
     0
300
10:1
140
10.0
141
1.0
290
     0
  0
SCALE
  5
58
102
{ACAD_REACTORS
330
47
102
}
330
47
100
AcDbScale
 70
     0
300
100:1
140
100.0
141
1.0
290
     0
  0
SCALE
  5
59
102
{ACAD_REACTORS
330
47
102
}
330
47
100
AcDbScale
 70
     0
300
1/128" = 1'-0"
140
0.0078125
141
12.0
290
     0
  0
SCALE
  5
5A
102
{ACAD_REACTORS
330
47
102
}
330
47
100
AcDbScale
 70
     0
300
1/64" = 1'-0"
140
0.015625
141
12.0
290
     0
  0
SCALE
  5
5B
102
{ACAD_REACTORS
330
47
102
}
330
47
100
AcDbScale
 70
     0
300
1/32" = 1'-0"
140
0.03125
141
12.0
290
     0
  0
SCALE
  5
5C
102
{ACAD_REACTORS
330
47
102
}
330
47
100
AcDbScale
 70
     0
300
1/16" = 1'-0"
140
0.0625
141
12.0
290
     0
  0
SCALE
  5
5D
102
{ACAD_REACTORS
330
47
102
}
330
47
100
AcDbScale
 70
     0
300
3/32" = 1'-0"
140
0.09375
141
12.0
290
     0
  0
SCALE
  5
5E
102
{ACAD_REACTORS
330
47
102
}
330
47
100
AcDbScale
 70
     0
300
1/8" = 1'-0"
140
0.125
141
12.0
290
     0
  0
SCALE
  5
5F
102
{ACAD_REACTORS
330
47
102
}
330
47
100
AcDbScale
 70
     0
300
3/16" = 1'-0"
140
0.1875
141
12.0
290
     0
  0
SCALE
  5
60
102
{ACAD_REACTORS
330
47
102
}
330
47
100
AcDbScale
 70
     0
300
1/4" = 1'-0"
140
0.25
141
12.0
290
     0
  0
SCALE
  5
61
102
{ACAD_REACTORS
330
47
102
}
330
47
100
AcDbScale
 70
     0
300
3/8" = 1'-0"
140
0.375
141
12.0
290
     0
  0
SCALE
  5
62
102
{ACAD_REACTORS
330
47
102
}
330
47
100
AcDbScale
 70
     0
300
1/2" = 1'-0"
140
0.5
141
12.0
290
     0
  0
SCALE
  5
63
102
{ACAD_REACTORS
330
47
102
}
330
47
100
AcDbScale
 70
     0
300
3/4" = 1'-0"
140
0.75
141
12.0
290
     0
  0
SCALE
  5
64
102
{ACAD_REACTORS
330
47
102
}
330
47
100
AcDbScale
 70
     0
300
1" = 1'-0"
140
1.0
141
12.0
290
     0
  0
SCALE
  5
65
102
{ACAD_REACTORS
330
47
102
}
330
47
100
AcDbScale
 70
     0
300
1-1/2" = 1'-0"
140
1.5
141
12.0
290
     0
  0
SCALE
  5
66
102
{ACAD_REACTORS
330
47
102
}
330
47
100
AcDbScale
 70
     0
300
3" = 1'-0"
140
3.0
141
12.0
290
     0
  0
SCALE
  5
67
102
{ACAD_REACTORS
330
47
102
}
330
47
100
AcDbScale
 70
     0
300
6" = 1'-0"
140
6.0
141
12.0
290
     0
  0
SCALE
  5
68
102
{ACAD_REACTORS
330
47
102
}
330
47
100
AcDbScale
 70
     0
300
1'-0" = 1'-0"
140
12.0
141
12.0
290
     0
  0
ENDSEC
  0
EOF
