  0
SECTION
  2
HEADER
  9
$ACADVER
  1
AC1015
  9
$ACADMAINTVER
 70
     6
  9
$DWGCODEPAGE
  3
ANSI_949
  9
$INSBASE
 10
0.0
 20
0.0
 30
0.0
  9
$EXTMIN
 10
-87.90897459621553
 20
-49.97180738881174
 30
0.0
  9
$EXTMAX
 10
79.73835494594202
 20
34.12496595351914
 30
0.0
  9
$LIMMIN
 10
0.0
 20
0.0
  9
$LIMMAX
 10
420.0
 20
297.0
  9
$ORTHOMODE
 70
     1
  9
$REGENMODE
 70
     1
  9
$FILLMODE
 70
     1
  9
$QTEXTMODE
 70
     0
  9
$MIRRTEXT
 70
     1
  9
$LTSCALE
 40
1.0
  9
$ATTMODE
 70
     1
  9
$TEXTSIZE
 40
3.5
  9
$TRACEWID
 40
1.0
  9
$TEXTSTYLE
  7
Standard
  9
$CLAYER
  8
0
  9
$CELTYPE
  6
ByLayer
  9
$CECOLOR
 62
   256
  9
$CELTSCALE
 40
1.0
  9
$DISPSILH
 70
     0
  9
$DIMSCALE
 40
1.0
  9
$DIMASZ
 40
3.302
  9
$DIMEXO
 40
1.0
  9
$DIMDLI
 40
3.75
  9
$DIMRND
 40
0.0
  9
$DIMDLE
 40
0.0
  9
$DIMEXE
 40
1.0
  9
$DIMTP
 40
0.0
  9
$DIMTM
 40
0.0
  9
$DIMTXT
 40
3.5
  9
$DIMCEN
 40
2.5
  9
$DIMTSZ
 40
0.0
  9
$DIMTOL
 70
     0
  9
$DIMLIM
 70
     0
  9
$DIMTIH
 70
     1
  9
$DIMTOH
 70
     1
  9
$DIMSE1
 70
     0
  9
$DIMSE2
 70
     0
  9
$DIMTAD
 70
     1
  9
$DIMZIN
 70
     0
  9
$DIMBLK
  1

  9
$DIMASO
 70
     1
  9
$DIMSHO
 70
     1
  9
$DIMPOST
  1

  9
$DIMAPOST
  1

  9
$DIMALT
 70
     0
  9
$DIMALTD
 70
     3
  9
$DIMALTF
 40
0.0393700787401575
  9
$DIMLFAC
 40
1.0
  9
$DIMTOFL
 70
     1
  9
$DIMTVP
 40
0.0
  9
$DIMTIX
 70
     0
  9
$DIMSOXD
 70
     0
  9
$DIMSAH
 70
     0
  9
$DIMBLK1
  1

  9
$DIMBLK2
  1

  9
$DIMSTYLE
  2
ISO-25
  9
$DIMCLRD
 70
     0
  9
$DIMCLRE
 70
     0
  9
$DIMCLRT
 70
     0
  9
$DIMTFAC
 40
1.0
  9
$DIMGAP
 40
1.524
  9
$DIMJUST
 70
     0
  9
$DIMSD1
 70
     0
  9
$DIMSD2
 70
     0
  9
$DIMTOLJ
 70
     0
  9
$DIMTZIN
 70
     0
  9
$DIMALTZ
 70
     0
  9
$DIMALTTZ
 70
     0
  9
$DIMUPT
 70
     0
  9
$DIMDEC
 70
     2
  9
$DIMTDEC
 70
     2
  9
$DIMALTU
 70
     2
  9
$DIMALTTD
 70
     3
  9
$DIMTXSTY
  7
Standard
  9
$DIMAUNIT
 70
     0
  9
$DIMADEC
 70
     2
  9
$DIMALTRND
 40
0.0
  9
$DIMAZIN
 70
     0
  9
$DIMDSEP
 70
    44
  9
$DIMATFIT
 70
     3
  9
$DIMFRAC
 70
     0
  9
$DIMLDRBLK
  1

  9
$DIMLUNIT
 70
     2
  9
$DIMLWD
 70
    -2
  9
$DIMLWE
 70
    -2
  9
$DIMTMOVE
 70
     0
  9
$LUNITS
 70
     2
  9
$LUPREC
 70
     2
  9
$SKETCHINC
 40
1.0
  9
$FILLETRAD
 40
10.0
  9
$AUNITS
 70
     0
  9
$AUPREC
 70
     2
  9
$MENU
  1
.
  9
$ELEVATION
 40
0.0
  9
$PELEVATION
 40
0.0
  9
$THICKNESS
 40
0.0
  9
$LIMCHECK
 70
     0
  9
$CHAMFERA
 40
0.0
  9
$CHAMFERB
 40
0.0
  9
$CHAMFERC
 40
0.0
  9
$CHAMFERD
 40
0.0
  9
$SKPOLY
 70
     0
  9
$TDCREATE
 40
2458269.816638079
  9
$TDUCREATE
 40
2458269.441638079
  9
$TDUPDATE
 40
2459702.502996134
  9
$TDUUPDATE
 40
2459702.127996134
  9
$TDINDWG
 40
0.0006198264
  9
$TDUSRTIMER
 40
0.0006198148
  9
$USRTIMER
 70
     1
  9
$ANGBASE
 50
0.0
  9
$ANGDIR
 70
     0
  9
$PDMODE
 70
     0
  9
$PDSIZE
 40
-1.0
  9
$PLINEWID
 40
0.0
  9
$SPLFRAME
 70
     0
  9
$SPLINETYPE
 70
     6
  9
$SPLINESEGS
 70
     8
  9
$HANDSEED
  5
264
  9
$SURFTAB1
 70
     6
  9
$SURFTAB2
 70
     6
  9
$SURFTYPE
 70
     6
  9
$SURFU
 70
     6
  9
$SURFV
 70
     6
  9
$UCSBASE
  2

  9
$UCSNAME
  2

  9
$UCSORG
 10
0.0
 20
0.0
 30
0.0
  9
$UCSXDIR
 10
1.0
 20
0.0
 30
0.0
  9
$UCSYDIR
 10
0.0
 20
1.0
 30
0.0
  9
$UCSORTHOREF
  2

  9
$UCSORTHOVIEW
 70
     0
  9
$UCSORGTOP
 10
0.0
 20
0.0
 30
0.0
  9
$UCSORGBOTTOM
 10
0.0
 20
0.0
 30
0.0
  9
$UCSORGLEFT
 10
0.0
 20
0.0
 30
0.0
  9
$UCSORGRIGHT
 10
0.0
 20
0.0
 30
0.0
  9
$UCSORGFRONT
 10
0.0
 20
0.0
 30
0.0
  9
$UCSORGBACK
 10
0.0
 20
0.0
 30
0.0
  9
$PUCSBASE
  2

  9
$PUCSNAME
  2

  9
$PUCSORG
 10
0.0
 20
0.0
 30
0.0
  9
$PUCSXDIR
 10
1.0
 20
0.0
 30
0.0
  9
$PUCSYDIR
 10
0.0
 20
1.0
 30
0.0
  9
$PUCSORTHOREF
  2

  9
$PUCSORTHOVIEW
 70
     0
  9
$PUCSORGTOP
 10
0.0
 20
0.0
 30
0.0
  9
$PUCSORGBOTTOM
 10
0.0
 20
0.0
 30
0.0
  9
$PUCSORGLEFT
 10
0.0
 20
0.0
 30
0.0
  9
$PUCSORGRIGHT
 10
0.0
 20
0.0
 30
0.0
  9
$PUCSORGFRONT
 10
0.0
 20
0.0
 30
0.0
  9
$PUCSORGBACK
 10
0.0
 20
0.0
 30
0.0
  9
$USERI1
 70
     0
  9
$USERI2
 70
     0
  9
$USERI3
 70
     0
  9
$USERI4
 70
     0
  9
$USERI5
 70
     0
  9
$USERR1
 40
0.0
  9
$USERR2
 40
0.0
  9
$USERR3
 40
0.0
  9
$USERR4
 40
0.0
  9
$USERR5
 40
0.0
  9
$WORLDVIEW
 70
     1
  9
$SHADEDGE
 70
     3
  9
$SHADEDIF
 70
    70
  9
$TILEMODE
 70
     1
  9
$MAXACTVP
 70
    64
  9
$PINSBASE
 10
0.0
 20
0.0
 30
0.0
  9
$PLIMCHECK
 70
     0
  9
$PEXTMIN
 10
1.000000000000000E+20
 20
1.000000000000000E+20
 30
1.000000000000000E+20
  9
$PEXTMAX
 10
-1.000000000000000E+20
 20
-1.000000000000000E+20
 30
-1.000000000000000E+20
  9
$PLIMMIN
 10
0.0
 20
0.0
  9
$PLIMMAX
 10
0.0
 20
0.0
  9
$UNITMODE
 70
     0
  9
$VISRETAIN
 70
     1
  9
$PLINEGEN
 70
     0
  9
$PSLTSCALE
 70
     1
  9
$TREEDEPTH
 70
  3020
  9
$CMLSTYLE
  2
Standard
  9
$CMLJUST
 70
     0
  9
$CMLSCALE
 40
20.0
  9
$PROXYGRAPHICS
 70
     1
  9
$MEASUREMENT
 70
     1
  9
$CELWEIGHT
370
    -1
  9
$ENDCAPS
280
     0
  9
$JOINSTYLE
280
     0
  9
$LWDISPLAY
290
     1
  9
$INSUNITS
 70
     4
  9
$HYPERLINKBASE
  1

  9
$STYLESHEET
  1

  9
$XEDIT
290
     1
  9
$CEPSNTYPE
380
     0
  9
$PSTYLEMODE
290
     1
  9
$FINGERPRINTGUID
  2
{9900ABA9-29E3-4F8E-9F91-65B3430E21C1}
  9
$VERSIONGUID
  2
{FAEB1C32-E019-11D5-929B-00C0DF256EC4}
  9
$EXTNAMES
290
     1
  9
$PSVPSCALE
 40
0.0
  9
$OLESTARTUP
290
     0
  0
ENDSEC
  0
SECTION
  2
CLASSES
  0
CLASS
  1
ACDBDICTIONARYWDFLT
  2
AcDbDictionaryWithDefault
  3
ObjectDBX Classes
 90
        0
280
     0
281
     0
  0
CLASS
  1
VISUALSTYLE
  2
AcDbVisualStyle
  3
ObjectDBX Classes
 90
     4095
280
     0
281
     0
  0
CLASS
  1
MATERIAL
  2
AcDbMaterial
  3
ObjectDBX Classes
 90
     1153
280
     0
281
     0
  0
CLASS
  1
SCALE
  2
AcDbScale
  3
ObjectDBX Classes
 90
     1153
280
     0
281
     0
  0
CLASS
  1
SUN
  2
AcDbSun
  3
SCENEOE
 90
     1153
280
     0
281
     0
  0
CLASS
  1
ACDBPLACEHOLDER
  2
AcDbPlaceHolder
  3
ObjectDBX Classes
 90
        0
280
     0
281
     0
  0
CLASS
  1
LAYOUT
  2
AcDbLayout
  3
ObjectDBX Classes
 90
        0
280
     0
281
     0
  0
CLASS
  1
TABLESTYLE
  2
AcDbTableStyle
  3
ObjectDBX Classes
 90
     4095
280
     0
281
     0
  0
CLASS
  1
MLEADERSTYLE
  2
AcDbMLeaderStyle
  3
ACDB_MLEADERSTYLE_CLASS
 90
     4095
280
     0
281
     0
  0
CLASS
  1
SORTENTSTABLE
  2
AcDbSortentsTable
  3
ObjectDBX Classes
 90
        0
280
     0
281
     0
  0
CLASS
  1
DIMASSOC
  2
AcDbDimAssoc
  3
"AcDbDimAssoc|Product Desc:     AcDim ARX App For Dimension|Company:          Autodesk, Inc.|WEB Address:      www.autodesk.com"
 90
        0
280
     0
281
     0
  0
ENDSEC
  0
SECTION
  2
TABLES
  0
TABLE
  2
VPORT
  5
8
330
0
100
AcDbSymbolTable
 70
     1
  0
VPORT
  5
29
330
8
100
AcDbSymbolTableRecord
100
AcDbViewportTableRecord
  2
*Active
 70
     0
 10
0.0
 20
0.0
 11
1.0
 21
1.0
 12
-11.78656456244016
 22
1.60171818657013
 13
0.0
 23
0.0
 14
10.0
 24
10.0
 15
10.0
 25
10.0
 16
0.0
 26
0.0
 36
1.0
 17
0.0
 27
0.0
 37
0.0
 40
143.6778628897906
 41
1.531481481481481
 42
50.0
 43
0.0
 44
0.0
 50
0.0
 51
0.0
 71
    16
 72
  2000
 73
     1
 74
     3
 75
     0
 76
     0
 77
     0
 78
     0
281
     0
 65
     1
110
0.0
120
0.0
130
0.0
111
1.0
121
0.0
131
0.0
112
0.0
122
1.0
132
0.0
 79
     0
146
0.0
  0
ENDTAB
  0
TABLE
  2
LTYPE
  5
5
330
0
100
AcDbSymbolTable
 70
     6
  0
LTYPE
  5
14
330
5
100
AcDbSymbolTableRecord
100
AcDbLinetypeTableRecord
  2
ByBlock
 70
     0
  3

 72
    65
 73
     0
 40
0.0
  0
LTYPE
  5
15
330
5
100
AcDbSymbolTableRecord
100
AcDbLinetypeTableRecord
  2
ByLayer
 70
     0
  3

 72
    65
 73
     0
 40
0.0
  0
LTYPE
  5
16
330
5
100
AcDbSymbolTableRecord
100
AcDbLinetypeTableRecord
  2
Continuous
 70
     0
  3
Solid line
 72
    65
 73
     0
 40
0.0
  0
LTYPE
  5
6A
330
5
100
AcDbSymbolTableRecord
100
AcDbLinetypeTableRecord
  2
HIDDEN
 70
     0
  3
Hidden __ __ __ __ __ __ __ __ __ __ __ __ __ __
 72
    65
 73
     2
 40
1.905
 49
1.27
 74
     0
 49
-0.635
 74
     0
  0
LTYPE
  5
6B
330
5
100
AcDbSymbolTableRecord
100
AcDbLinetypeTableRecord
  2
PHANTOM
 70
     0
  3
Phantom ______  __  __  ______  __  __  ______
 72
    65
 73
     6
 40
12.7
 49
6.35
 74
     0
 49
-1.27
 74
     0
 49
1.27
 74
     0
 49
-1.27
 74
     0
 49
1.27
 74
     0
 49
-1.27
 74
     0
  0
LTYPE
  5
6C
330
5
100
AcDbSymbolTableRecord
100
AcDbLinetypeTableRecord
  2
CENTER
 70
     0
  3
Center ____ _ ____ _ ____ _ ____ _ ____ _ ____
 72
    65
 73
     4
 40
10.16
 49
6.35
 74
     0
 49
-1.27
 74
     0
 49
1.27
 74
     0
 49
-1.27
 74
     0
  0
LTYPE
  5
6D
330
5
100
AcDbSymbolTableRecord
100
AcDbLinetypeTableRecord
  2
CENTERX2
 70
     0
  3
Center (2x) ________  __  ________  __  _____
 72
    65
 73
     4
 40
20.32
 49
12.7
 74
     0
 49
-2.54
 74
     0
 49
2.54
 74
     0
 49
-2.54
 74
     0
  0
LTYPE
  5
6E
330
5
100
AcDbSymbolTableRecord
100
AcDbLinetypeTableRecord
  2
DOT2
 70
     0
  3
Dot (.5x) ........................................
 72
    65
 73
     2
 40
0.635
 49
0.0
 74
     0
 49
-0.635
 74
     0
  0
ENDTAB
  0
TABLE
  2
LAYER
  5
2
102
{ACAD_XDICTIONARY
360
1AF
102
}
330
0
100
AcDbSymbolTable
 70
    18
  0
LAYER
  5
10
330
2
100
AcDbSymbolTableRecord
100
AcDbLayerTableRecord
  2
0
 70
     0
 62
     7
  6
Continuous
370
    -3
390
F
  0
LAYER
  5
6F
330
2
100
AcDbSymbolTableRecord
100
AcDbLayerTableRecord
  2
FORMAT
 70
     0
 62
     2
  6
Continuous
370
    -3
390
F
  0
LAYER
  5
70
330
2
100
AcDbSymbolTableRecord
100
AcDbLayerTableRecord
  2
외형선
 70
     0
 62
     4
  6
Continuous
370
    30
390
F
  0
LAYER
  5
71
330
2
100
AcDbSymbolTableRecord
100
AcDbLayerTableRecord
  2
숨은선
 70
     0
 62
     2
  6
HIDDEN
370
    15
390
F
  0
LAYER
  5
72
330
2
100
AcDbSymbolTableRecord
100
AcDbLayerTableRecord
  2
중심선
 70
     0
 62
     1
  6
CENTERX2
370
    -3
390
F
  0
LAYER
  5
73
330
2
100
AcDbSymbolTableRecord
100
AcDbLayerTableRecord
  2
파단선
 70
     0
 62
     4
  6
Continuous
370
    -3
390
F
  0
LAYER
  5
74
330
2
100
AcDbSymbolTableRecord
100
AcDbLayerTableRecord
  2
해칭선
 70
     0
 62
   100
  6
Continuous
370
    -3
390
F
  0
LAYER
  5
75
330
2
100
AcDbSymbolTableRecord
100
AcDbLayerTableRecord
  2
가는실선
 70
     0
 62
     4
  6
Continuous
370
    -3
390
F
  0
LAYER
  5
76
330
2
100
AcDbSymbolTableRecord
100
AcDbLayerTableRecord
  2
치수_보조선
 70
     0
 62
     4
  6
Continuous
370
    -3
390
F
  0
LAYER
  5
77
330
2
100
AcDbSymbolTableRecord
100
AcDbLayerTableRecord
  2
치수문자_일반주서
 70
     0
 62
     7
  6
Continuous
370
    15
390
F
  0
LAYER
  5
78
330
2
100
AcDbSymbolTableRecord
100
AcDbLayerTableRecord
  2
개별주서
 70
     0
 62
   100
  6
Continuous
370
    30
390
F
  0
LAYER
  5
79
330
2
100
AcDbSymbolTableRecord
100
AcDbLayerTableRecord
  2
중간선
 70
     0
 62
     2
  6
Continuous
370
    15
390
F
  0
LAYER
  5
7A
330
2
100
AcDbSymbolTableRecord
100
AcDbLayerTableRecord
  2
윤곽선
 70
     0
 62
     3
  6
Continuous
370
    40
390
F
  0
LAYER
  5
7B
330
2
100
AcDbSymbolTableRecord
100
AcDbLayerTableRecord
  2
중심마크
 70
     0
 62
   100
  6
Continuous
370
    30
390
F
  0
LAYER
  5
7C
330
2
100
AcDbSymbolTableRecord
100
AcDbLayerTableRecord
  2
가상선
 70
     0
 62
     4
  6
PHANTOM
370
    -3
390
F
  0
LAYER
  5
7D
330
2
100
AcDbSymbolTableRecord
100
AcDbLayerTableRecord
  2
특수지정선
 70
     0
 62
     5
  6
CENTERX2
370
    60
390
F
  0
LAYER
  5
7E
330
2
100
AcDbSymbolTableRecord
100
AcDbLayerTableRecord
  2
참조1
 70
     0
 62
    -4
  6
Continuous
370
    -3
390
F
  0
LAYER
  5
129
330
2
100
AcDbSymbolTableRecord
100
AcDbLayerTableRecord
  2
Defpoints
 70
     0
 62
     7
  6
Continuous
290
     0
370
    -3
390
F
  0
ENDTAB
  0
TABLE
  2
STYLE
  5
3
330
0
100
AcDbSymbolTable
 70
     2
  0
STYLE
  5
11
330
3
100
AcDbSymbolTableRecord
100
AcDbTextStyleTableRecord
  2
Standard
 70
     0
 40
0.0
 41
1.0
 50
0.0
 71
     0
 42
3.5
  3
txt
  4

  0
STYLE
  5
94
330
3
100
AcDbSymbolTableRecord
100
AcDbTextStyleTableRecord
  2
SLDTEXTSTYLE0
 70
     0
 40
0.0
 41
0.75
 50
0.0
 71
     0
 42
3.5
  3
TXT
  4

  0
ENDTAB
  0
TABLE
  2
VIEW
  5
6
330
0
100
AcDbSymbolTable
 70
     0
  0
ENDTAB
  0
TABLE
  2
UCS
  5
7
330
0
100
AcDbSymbolTable
 70
     0
  0
ENDTAB
  0
TABLE
  2
APPID
  5
9
330
0
100
AcDbSymbolTable
 70
     3
  0
APPID
  5
12
330
9
100
AcDbSymbolTableRecord
100
AcDbRegAppTableRecord
  2
ACAD
 70
     0
  0
APPID
  5
136
330
9
100
AcDbSymbolTableRecord
100
AcDbRegAppTableRecord
  2
PE_URL
 70
     0
  0
APPID
  5
137
330
9
100
AcDbSymbolTableRecord
100
AcDbRegAppTableRecord
  2
ACAD_DSTYLE_DIMRADIAL_EXTENSION
 70
     0
  0
ENDTAB
  0
TABLE
  2
DIMSTYLE
  5
A
330
0
100
AcDbSymbolTable
 70
     3
100
AcDbDimStyleTable
  0
DIMSTYLE
105
27
330
A
100
AcDbSymbolTableRecord
100
AcDbDimStyleTableRecord
  2
ISO-25
 70
     0
 41
2.5
 42
0.625
 43
3.75
 44
1.25
 73
     0
 74
     0
 77
     1
 78
     8
140
2.5
141
2.5
143
0.03937007874016
147
0.625
171
     3
172
     1
178
     0
271
     2
272
     2
274
     3
278
    44
283
     0
284
     8
340
11
  0
DIMSTYLE
105
CA
102
{ACAD_REACTORS
330
167
330
174
330
20C
330
20D
102
}
330
A
100
AcDbSymbolTableRecord
100
AcDbDimStyleTableRecord
  2
SLDDIMSTYLE0
 70
     0
 41
3.302
 44
0.0
 45
0.000000001
 73
     0
 74
     0
 77
     1
 78
    12
 79
     3
140
3.5
147
0.875
172
     1
173
     1
178
     0
271
     2
272
     2
276
     2
284
    12
289
     0
340
94
  0
DIMSTYLE
105
E5
102
{ACAD_REACTORS
330
181
330
18E
330
1A4
330
20E
330
20F
330
254
102
}
330
A
100
AcDbSymbolTableRecord
100
AcDbDimStyleTableRecord
  2
SLDDIMSTYLE1
 70
     0
 41
3.302
 44
0.0
 45
0.000000001
 73
     0
 74
     0
 77
     1
 78
    12
 79
     3
140
3.5
147
0.875
173
     1
178
     0
271
     2
272
     2
276
     2
284
    12
340
94
  0
ENDTAB
  0
TABLE
  2
BLOCK_RECORD
  5
1
330
0
100
AcDbSymbolTable
 70
    18
  0
BLOCK_RECORD
  5
1F
102
{ACAD_XDICTIONARY
360
251
102
}
330
1
100
AcDbSymbolTableRecord
100
AcDbBlockTableRecord
  2
*Model_Space
340
22
  0
BLOCK_RECORD
  5
1B
330
1
100
AcDbSymbolTableRecord
100
AcDbBlockTableRecord
  2
*Paper_Space
340
1E
  0
BLOCK_RECORD
  5
23
330
1
100
AcDbSymbolTableRecord
100
AcDbBlockTableRecord
  2
*Paper_Space0
340
26
  0
BLOCK_RECORD
  5
7F
330
1
100
AcDbSymbolTableRecord
100
AcDbBlockTableRecord
  2
블럭10
340
0
102
{BLKREFS
331
C2
102
}
  0
BLOCK_RECORD
  5
CB
330
1
100
AcDbSymbolTableRecord
100
AcDbBlockTableRecord
  2
_D
340
0
  0
BLOCK_RECORD
  5
D8
330
1
100
AcDbSymbolTableRecord
100
AcDbBlockTableRecord
  2
_D_1
340
0
  0
BLOCK_RECORD
  5
E6
330
1
100
AcDbSymbolTableRecord
100
AcDbBlockTableRecord
  2
_D_2
340
0
  0
BLOCK_RECORD
  5
F0
330
1
100
AcDbSymbolTableRecord
100
AcDbBlockTableRecord
  2
_D_3
340
0
  0
BLOCK_RECORD
  5
100
330
1
100
AcDbSymbolTableRecord
100
AcDbBlockTableRecord
  2
SW_DOWELSYMBOL_0
340
0
102
{BLKREFS
331
0
331
19B
331
210
102
}
  0
BLOCK_RECORD
  5
1A5
330
1
100
AcDbSymbolTableRecord
100
AcDbBlockTableRecord
  2
*D8
340
0
  0
BLOCK_RECORD
  5
1B3
330
1
100
AcDbSymbolTableRecord
100
AcDbBlockTableRecord
  2
*D9
340
0
  0
BLOCK_RECORD
  5
1BF
330
1
100
AcDbSymbolTableRecord
100
AcDbBlockTableRecord
  2
*D10
340
0
  0
BLOCK_RECORD
  5
1CB
330
1
100
AcDbSymbolTableRecord
100
AcDbBlockTableRecord
  2
*D11
340
0
  0
BLOCK_RECORD
  5
1D7
330
1
100
AcDbSymbolTableRecord
100
AcDbBlockTableRecord
  2
*D12
340
0
  0
BLOCK_RECORD
  5
214
330
1
100
AcDbSymbolTableRecord
100
AcDbBlockTableRecord
  2
*D13
340
0
  0
BLOCK_RECORD
  5
220
330
1
100
AcDbSymbolTableRecord
100
AcDbBlockTableRecord
  2
*D14
340
0
  0
BLOCK_RECORD
  5
22C
330
1
100
AcDbSymbolTableRecord
100
AcDbBlockTableRecord
  2
*D15
340
0
  0
BLOCK_RECORD
  5
238
330
1
100
AcDbSymbolTableRecord
100
AcDbBlockTableRecord
  2
*D16
340
0
  0
BLOCK_RECORD
  5
244
330
1
100
AcDbSymbolTableRecord
100
AcDbBlockTableRecord
  2
*D17
340
0
  0
BLOCK_RECORD
  5
257
330
1
100
AcDbSymbolTableRecord
100
AcDbBlockTableRecord
  2
*D18
340
0
  0
ENDTAB
  0
ENDSEC
  0
SECTION
  2
BLOCKS
  0
BLOCK
  5
20
330
1F
100
AcDbEntity
  8
0
100
AcDbBlockBegin
  2
*Model_Space
 70
     0
 10
0.0
 20
0.0
 30
0.0
  3
*Model_Space
  1

  0
ENDBLK
  5
21
330
1F
100
AcDbEntity
  8
0
100
AcDbBlockEnd
  0
BLOCK
  5
1C
330
1B
100
AcDbEntity
 67
     1
  8
0
100
AcDbBlockBegin
  2
*Paper_Space
 70
     0
 10
0.0
 20
0.0
 30
0.0
  3
*Paper_Space
  1

  0
ENDBLK
  5
1D
330
1B
100
AcDbEntity
 67
     1
  8
0
100
AcDbBlockEnd
  0
BLOCK
  5
24
330
23
100
AcDbEntity
  8
0
100
AcDbBlockBegin
  2
*Paper_Space0
 70
     0
 10
0.0
 20
0.0
 30
0.0
  3
*Paper_Space0
  1

  0
ENDBLK
  5
25
330
23
100
AcDbEntity
  8
0
100
AcDbBlockEnd
  0
BLOCK
  5
80
330
7F
100
AcDbEntity
  8
0
100
AcDbBlockBegin
  2
블럭10
 70
     2
 10
0.0
 20
0.0
 30
0.0
  3
블럭10
  1

  0
ELLIPSE
  5
82
330
7F
100
AcDbEntity
  8
중심선
100
AcDbEllipse
 10
20.54032771741204
 20
12.0471743016438
 30
0.0
 11
6.600054785286829
 21
-1.261213355974178E-13
 31
0.0
210
0.0
220
0.0
230
1.0
 40
0.636358354079598
 41
0.9219305317359503
 42
6.513795318482858
  0
ELLIPSE
  5
83
330
7F
100
AcDbEntity
  8
중심선
100
AcDbEllipse
 10
20.54032771746488
 20
12.04717430159265
 30
0.0
 11
3.960054785062283
 21
1.540847449632565E-10
 31
0.0
210
0.0
220
0.0
230
1.0
 40
0.3939339440162632
 41
1.131841032648279
 42
5.62031148352944
  0
LINE
  5
84
330
7F
100
AcDbEntity
  8
중심선
100
AcDbLine
 10
2.268634060543552
 20
16.24717430164393
 30
0.0
 11
5.714909304380834
 21
16.24717430164393
 31
0.0
  0
LINE
  5
85
330
7F
100
AcDbEntity
  8
중심선
100
AcDbLine
 10
5.245725140726316
 20
7.84717430164391
 30
0.0
 11
8.692000384563599
 21
7.84717430164391
 31
0.0
  0
LINE
  5
86
330
7F
100
AcDbEntity
  8
중심선
100
AcDbLine
 10
15.74043728645272
 20
16.24717430164393
 30
0.0
 11
8.692000384563599
 21
7.84717430164391
 31
0.0
  0
LINE
  5
87
330
7F
100
AcDbEntity
  8
중심선
100
AcDbLine
 10
0.1404042013395286
 20
13.71084872107135
 30
0.0
 11
3.58671253028996
 21
13.71088815037384
 31
0.0
  0
LINE
  5
88
330
7F
100
AcDbEntity
  8
중심선
100
AcDbLine
 10
2.750260043222114
 20
10.84717430164391
 30
0.0
 11
6.196535287059397
 21
10.84717430164391
 31
0.0
  0
LINE
  5
89
330
7F
100
AcDbEntity
  8
중심선
100
AcDbLine
 10
12.29416204261559
 20
16.24717430164393
 30
0.0
 11
5.245725140726316
 21
7.84717430164391
 31
0.0
  0
LINE
  5
8A
330
7F
100
AcDbEntity
  8
중심선
100
AcDbLine
 10
10.72767329541681
 20
16.24717430164393
 30
0.0
 11
6.196535287059397
 21
10.84717430164391
 31
0.0
  0
LINE
  5
8B
330
7F
100
AcDbEntity
  8
중심선
100
AcDbLine
 10
7.28139805157953
 20
16.24717430164393
 30
0.0
 11
2.750260043222114
 21
10.84717430164391
 31
0.0
  0
LINE
  5
8C
330
7F
100
AcDbEntity
  8
중심선
100
AcDbLine
 10
5.714909304380834
 20
16.24717430164393
 30
0.0
 11
3.58671253028996
 21
13.71088815037384
 31
0.0
  0
LINE
  5
8D
330
7F
100
AcDbEntity
  8
중심선
100
AcDbLine
 10
2.268634060543552
 20
16.24717430164393
 30
0.0
 11
0.1404042013395286
 21
13.71084872107135
 31
0.0
  0
LINE
  5
8E
330
7F
100
AcDbEntity
  8
중심선
100
AcDbLine
 10
7.28139805157953
 20
16.24717430164393
 30
0.0
 11
10.72767329541681
 21
16.24717430164393
 31
0.0
  0
LINE
  5
8F
330
7F
100
AcDbEntity
  8
중심선
100
AcDbLine
 10
12.29416204261559
 20
16.24717430164393
 30
0.0
 11
15.74043728645272
 21
16.24717430164393
 31
0.0
  0
LINE
  5
90
330
7F
100
AcDbEntity
  8
중심선
100
AcDbLine
 10
19.22036997980202
 20
11.08717430171403
 30
0.0
 11
23.66174974927406
 21
11.08717430171406
 31
0.0
  0
LINE
  5
91
330
7F
100
AcDbEntity
  8
중심선
100
AcDbLine
 10
19.22039502424796
 20
13.00717430171391
 30
0.0
 11
19.22036997980202
 21
11.08717430171403
 31
0.0
  0
LINE
  5
92
330
7F
100
AcDbEntity
  8
중심선
100
AcDbLine
 10
19.22039502424796
 20
13.00717430171391
 30
0.0
 11
26.96566020931264
 21
13.00717430171391
 31
0.0
  0
LINE
  5
93
330
7F
100
AcDbEntity
  8
중심선
100
AcDbLine
 10
22.22332737316547
 20
13.45928029700563
 30
0.0
 11
24.52862924686651
 21
15.39360700705356
 31
0.0
  0
ATTDEF
  5
95
330
7F
100
AcDbEntity
  8
FORMAT
 62
     2
100
AcDbText
 10
-16.11926103943555
 20
2.075366912832191
 30
0.0
 40
4.233333333333333
  1
SEME0110002E [ 4 FLUTE ]
 41
0.75
  7
SLDTEXTSTYLE0
 11
-16.11926103943555
 21
-0.0412997538344756
 31
0.0
100
AcDbAttributeDefinition
  3

  2
AUTOATTR0
 70
     0
 74
     1
  0
ENDBLK
  5
81
330
7F
100
AcDbEntity
  8
0
100
AcDbBlockEnd
  0
BLOCK
  5
CC
330
CB
100
AcDbEntity
  8
0
100
AcDbBlockBegin
  2
_D
 70
     0
 10
0.0
 20
0.0
 30
0.0
  3
_D
  1

  0
SOLID
  5
CE
330
CB
100
AcDbEntity
  8
치수문자_일반주서
100
AcDbTrace
 10
79.32487721999401
 20
4.999999999999999
 30
0.0
 11
79.832877219994
 21
8.302
 31
0.0
 12
78.81687721999401
 22
8.302
 32
0.0
 13
78.81687721999401
 23
8.302
 33
0.0
  0
SOLID
  5
CF
330
CB
100
AcDbEntity
  8
치수문자_일반주서
100
AcDbTrace
 10
79.32487721999401
 20
-5.000000000000003
 30
0.0
 11
78.81687721999401
 21
-8.302000000000003
 31
0.0
 12
79.832877219994
 22
-8.302000000000003
 32
0.0
 13
79.832877219994
 23
-8.302000000000003
 33
0.0
  0
LINE
  5
D0
330
CB
100
AcDbEntity
  8
치수문자_일반주서
100
AcDbLine
 10
50.41328400762048
 20
5.000000000000001
 30
0.0
 11
80.32487721999401
 21
4.999999999999999
 31
0.0
  0
LINE
  5
D1
330
CB
100
AcDbEntity
  8
치수문자_일반주서
100
AcDbLine
 10
50.41328400762048
 20
-5.000000000000001
 30
0.0
 11
80.32487721999401
 21
-5.000000000000003
 31
0.0
  0
LINE
  5
D2
330
CB
100
AcDbEntity
  8
치수문자_일반주서
100
AcDbLine
 10
79.32487721999401
 20
4.999999999999999
 30
0.0
 11
79.32487721999401
 21
11.35
 31
0.0
  0
LINE
  5
D3
330
CB
100
AcDbEntity
  8
치수문자_일반주서
100
AcDbLine
 10
79.32487721999401
 20
4.999999999999999
 30
0.0
 11
79.32487721999401
 21
-5.000000000000003
 31
0.0
  0
LINE
  5
D4
330
CB
100
AcDbEntity
  8
치수문자_일반주서
100
AcDbLine
 10
79.32487721999401
 20
-5.000000000000003
 30
0.0
 11
79.32487721999401
 21
-11.35
 31
0.0
  0
MTEXT
  5
D5
330
CB
100
AcDbEntity
  8
치수문자_일반주서
100
AcDbMText
 10
74.81314013079216
 20
-5.225330125540515
 30
0.0
 40
3.5
 41
0.0
 71
     1
 72
     1
  1
%%c
  7
SLDTEXTSTYLE0
 11
-7.044195017643634E-15
 21
1.0
 31
0.0
 73
     1
 44
1.0
  0
MTEXT
  5
D6
330
CB
100
AcDbEntity
  8
치수문자_일반주서
100
AcDbMText
 10
74.75966795413227
 20
0.0531072728335651
 30
0.0
 40
3.5
 41
0.0
 71
     1
 72
     1
  1
10
  7
SLDTEXTSTYLE0
 11
-7.044195017643634E-15
 21
1.0
 31
0.0
 73
     1
 44
1.0
  0
ENDBLK
  5
CD
330
CB
100
AcDbEntity
  8
0
100
AcDbBlockEnd
  0
BLOCK
  5
D9
330
D8
100
AcDbEntity
  8
0
100
AcDbBlockBegin
  2
_D_1
 70
     0
 10
0.0
 20
0.0
 30
0.0
  3
_D_1
  1

  0
SOLID
  5
DB
330
D8
100
AcDbEntity
  8
치수문자_일반주서
100
AcDbTrace
 10
-53.17512886940359
 20
5.000000000000004
 30
0.0
 11
-52.66712886940359
 21
8.302000000000003
 31
0.0
 12
-53.6831288694036
 22
8.302000000000003
 32
0.0
 13
-53.6831288694036
 23
8.302000000000003
 33
0.0
  0
SOLID
  5
DC
330
D8
100
AcDbEntity
  8
치수문자_일반주서
100
AcDbTrace
 10
-53.17512886940359
 20
-5.000000000000005
 30
0.0
 11
-53.6831288694036
 21
-8.302000000000005
 31
0.0
 12
-52.66712886940359
 22
-8.302000000000005
 32
0.0
 13
-52.66712886940359
 23
-8.302000000000005
 33
0.0
  0
LINE
  5
DD
330
D8
100
AcDbEntity
  8
치수문자_일반주서
100
AcDbLine
 10
-40.77512886940357
 20
5.000000000000004
 30
0.0
 11
-54.17512886940359
 21
5.000000000000004
 31
0.0
  0
LINE
  5
DE
330
D8
100
AcDbEntity
  8
치수문자_일반주서
100
AcDbLine
 10
-40.77512886940357
 20
-5.000000000000004
 30
0.0
 11
-54.17512886940359
 21
-5.000000000000005
 31
0.0
  0
LINE
  5
DF
330
D8
100
AcDbEntity
  8
치수문자_일반주서
100
AcDbLine
 10
-53.17512886940359
 20
5.000000000000004
 30
0.0
 11
-53.17512886940359
 21
11.35
 31
0.0
  0
LINE
  5
E0
330
D8
100
AcDbEntity
  8
치수문자_일반주서
100
AcDbLine
 10
-53.17512886940359
 20
5.000000000000004
 30
0.0
 11
-53.17512886940359
 21
-5.000000000000005
 31
0.0
  0
LINE
  5
E1
330
D8
100
AcDbEntity
  8
치수문자_일반주서
100
AcDbLine
 10
-53.17512886940359
 20
-5.000000000000005
 30
0.0
 11
-53.17512886940359
 21
-11.35000000000001
 31
0.0
  0
MTEXT
  5
E2
330
D8
100
AcDbEntity
  8
치수문자_일반주서
100
AcDbMText
 10
-57.68686595860543
 20
-5.225330125540515
 30
0.0
 40
3.5
 41
0.0
 71
     1
 72
     1
  1
%%c
  7
SLDTEXTSTYLE0
 11
-7.044195017643634E-15
 21
1.0
 31
0.0
 73
     1
 44
1.0
  0
MTEXT
  5
E3
330
D8
100
AcDbEntity
  8
치수문자_일반주서
100
AcDbMText
 10
-57.74033813526532
 20
0.0531072728335651
 30
0.0
 40
3.5
 41
0.0
 71
     1
 72
     1
  1
10
  7
SLDTEXTSTYLE0
 11
-7.044195017643634E-15
 21
1.0
 31
0.0
 73
     1
 44
1.0
  0
ENDBLK
  5
DA
330
D8
100
AcDbEntity
  8
0
100
AcDbBlockEnd
  0
BLOCK
  5
E7
330
E6
100
AcDbEntity
  8
0
100
AcDbBlockBegin
  2
_D_2
 70
     0
 10
0.0
 20
0.0
 30
0.0
  3
_D_2
  1

  0
SOLID
  5
E9
330
E6
100
AcDbEntity
  8
치수문자_일반주서
100
AcDbTrace
 10
59.22487113059643
 20
22.23044878129077
 30
0.0
 11
55.92287113059643
 21
22.73844878129077
 31
0.0
 12
55.92287113059643
 22
21.72244878129077
 32
0.0
 13
55.92287113059643
 23
21.72244878129077
 33
0.0
  0
SOLID
  5
EA
330
E6
100
AcDbEntity
  8
치수문자_일반주서
100
AcDbTrace
 10
34.22487113059644
 20
22.23044878129077
 30
0.0
 11
37.52687113059644
 21
21.72244878129077
 31
0.0
 12
37.52687113059644
 22
22.73844878129077
 32
0.0
 13
37.52687113059644
 23
22.73844878129077
 33
0.0
  0
LINE
  5
EB
330
E6
100
AcDbEntity
  8
치수문자_일반주서
100
AcDbLine
 10
59.22487113059643
 20
5.777278327047894
 30
0.0
 11
59.22487113059643
 21
23.23044878129077
 31
0.0
  0
LINE
  5
EC
330
E6
100
AcDbEntity
  8
치수문자_일반주서
100
AcDbLine
 10
34.22487113059644
 20
5.928653348988244
 30
0.0
 11
34.22487113059644
 21
23.23044878129077
 31
0.0
  0
LINE
  5
ED
330
E6
100
AcDbEntity
  8
치수문자_일반주서
100
AcDbLine
 10
59.22487113059643
 20
22.23044878129077
 30
0.0
 11
34.22487113059644
 21
22.23044878129077
 31
0.0
  0
MTEXT
  5
EE
330
E6
100
AcDbEntity
  8
치수문자_일반주서
100
AcDbMText
 10
44.13875993707361
 20
26.74218569586966
 30
0.0
 40
3.5
 41
0.0
 71
     1
 72
     1
  1
25
  7
SLDTEXTSTYLE0
 73
     1
 44
1.0
  0
ENDBLK
  5
E8
330
E6
100
AcDbEntity
  8
0
100
AcDbBlockEnd
  0
BLOCK
  5
F1
330
F0
100
AcDbEntity
  8
0
100
AcDbBlockBegin
  2
_D_3
 70
     0
 10
0.0
 20
0.0
 30
0.0
  3
_D_3
  1

  0
SOLID
  5
F3
330
F0
100
AcDbEntity
  8
치수문자_일반주서
100
AcDbTrace
 10
59.22487113059643
 20
29.6468114716577
 30
0.0
 11
55.92287113059643
 21
30.1548114716577
 31
0.0
 12
55.92287113059643
 22
29.1388114716577
 32
0.0
 13
55.92287113059643
 23
29.1388114716577
 33
0.0
  0
SOLID
  5
F4
330
F0
100
AcDbEntity
  8
치수문자_일반주서
100
AcDbTrace
 10
-40.77512886940357
 20
29.64681147165769
 30
0.0
 11
-37.47312886940357
 21
29.13881147165769
 31
0.0
 12
-37.47312886940357
 22
30.15481147165769
 32
0.0
 13
-37.47312886940357
 23
30.15481147165769
 33
0.0
  0
LINE
  5
F5
330
F0
100
AcDbEntity
  8
치수문자_일반주서
100
AcDbLine
 10
59.22487113059643
 20
5.777278327047894
 30
0.0
 11
59.22487113059643
 21
30.6468114716577
 31
0.0
  0
LINE
  5
F6
330
F0
100
AcDbEntity
  8
치수문자_일반주서
100
AcDbLine
 10
-40.77512886940357
 20
5.000000000000003
 30
0.0
 11
-40.77512886940357
 21
30.64681147165769
 31
0.0
  0
LINE
  5
F7
330
F0
100
AcDbEntity
  8
치수문자_일반주서
100
AcDbLine
 10
59.22487113059643
 20
29.6468114716577
 30
0.0
 11
-40.77512886940357
 21
29.64681147165769
 31
0.0
  0
MTEXT
  5
F8
330
F0
100
AcDbEntity
  8
치수문자_일반주서
100
AcDbMText
 10
5.34570445672753
 20
34.15854838623659
 30
0.0
 40
3.5
 41
0.0
 71
     1
 72
     1
  1
100
  7
SLDTEXTSTYLE0
 73
     1
 44
1.0
  0
ENDBLK
  5
F2
330
F0
100
AcDbEntity
  8
0
100
AcDbBlockEnd
  0
BLOCK
  5
101
330
100
100
AcDbEntity
  8
0
100
AcDbBlockBegin
  2
SW_DOWELSYMBOL_0
 70
     0
 10
0.0
 20
0.0
 30
0.0
  3
SW_DOWELSYMBOL_0
  1

  0
CIRCLE
  5
103
330
100
100
AcDbEntity
  8
해칭선
 62
     0
100
AcDbCircle
 10
0.0
 20
0.0
 30
0.0
 40
3.000000000000001
  0
HATCH
  5
104
330
100
100
AcDbEntity
  8
0
  6
Continuous
 62
     0
370
     0
100
AcDbHatch
 10
0.0
 20
0.0
 30
0.0
210
0.0
220
0.0
230
1.0
  2
SOLID
 70
     1
 71
     0
 91
        1
 92
        0
 93
        3
 72
     2
 10
0.0
 20
0.0
 40
3.000000000000001
 50
0.0
 51
90.0
 73
     1
 72
     1
 10
0.0
 20
3.000000000000001
 11
0.0
 21
0.0
 72
     1
 10
0.0
 20
0.0
 11
3.000000000000003
 21
0.0
 97
        0
 75
     0
 76
     1
 98
        1
 10
0.0
 20
0.0
  0
HATCH
  5
105
330
100
100
AcDbEntity
  8
0
  6
Continuous
 62
     0
370
     0
100
AcDbHatch
 10
0.0
 20
0.0
 30
0.0
210
0.0
220
0.0
230
1.0
  2
SOLID
 70
     1
 71
     0
 91
        1
 92
        0
 93
        3
 72
     2
 10
0.0
 20
0.0
 40
3.000000000000001
 50
180.0
 51
270.0000000000008
 73
     1
 72
     1
 10
0.0
 20
-3.000000000000001
 11
0.0
 21
0.0
 72
     1
 10
0.0
 20
0.0
 11
-3.000000000000003
 21
0.0
 97
        0
 75
     0
 76
     1
 98
        1
 10
0.0
 20
0.0
  0
ENDBLK
  5
102
330
100
100
AcDbEntity
  8
0
100
AcDbBlockEnd
  0
BLOCK
  5
1A6
330
1A5
100
AcDbEntity
  8
0
100
AcDbBlockBegin
  2
*D8
 70
     1
 10
0.0
 20
0.0
 30
0.0
  3
*D8
  1

  0
LINE
  5
1A7
330
1A5
100
AcDbEntity
  8
치수문자_일반주서
 62
     0
370
    -2
100
AcDbLine
 10
118.0250544641994
 20
19.47850783830104
 30
0.0
 11
126.4464362044585
 21
-0.0000000000013105
 31
0.0
  0
MTEXT
  5
1A8
330
1A5
100
AcDbEntity
  8
치수문자_일반주서
 62
     0
100
AcDbMText
 10
127.2065179900175
 20
4.856677335560677
 30
0.0
 40
3.5
 41
0.0
 71
     5
 72
     1
  1
\A1;R0.1
  7
SLDTEXTSTYLE0
 11
0.3968414062902266
 21
-0.9178871925534179
 31
0.0
 73
     1
 44
1.0
  0
SOLID
  5
1A9
330
1A5
100
AcDbEntity
  8
치수문자_일반주서
 62
     0
100
AcDbTrace
 10
118.5301983825013
 20
19.69690289222943
 30
0.0
 11
117.5199105458975
 21
19.26011278437266
 31
0.0
 12
116.714684140629
 22
22.50937134811243
 32
0.0
 13
116.714684140629
 23
22.50937134811243
 33
0.0
  0
LINE
  5
1AA
330
1A5
100
AcDbEntity
  8
치수문자_일반주서
 62
     0
100
AcDbLine
 10
116.585
 20
22.60116006736776
 30
0.0
 11
116.765
 21
22.60116006736776
 31
0.0
  0
LINE
  5
1AB
330
1A5
100
AcDbEntity
  8
치수문자_일반주서
 62
     0
100
AcDbLine
 10
116.675
 20
22.51116006736776
 30
0.0
 11
116.675
 21
22.69116006736776
 31
0.0
  0
POINT
  5
1AC
330
1A5
100
AcDbEntity
  8
Defpoints
 62
     0
100
AcDbPoint
 10
116.714684140629
 20
22.50937134811243
 30
0.0
  0
POINT
  5
1AD
330
1A5
100
AcDbEntity
  8
Defpoints
 62
     0
100
AcDbPoint
 10
116.675
 20
22.60116006736776
 30
0.0
  0
ENDBLK
  5
1AE
330
1A5
100
AcDbEntity
  8
0
100
AcDbBlockEnd
  0
BLOCK
  5
1B4
330
1B3
100
AcDbEntity
  8
0
100
AcDbBlockBegin
  2
*D9
 70
     1
 10
0.0
 20
0.0
 30
0.0
  3
*D9
  1

  0
LINE
  5
1B6
330
1B3
100
AcDbEntity
  8
치수문자_일반주서
 62
     0
370
    -2
100
AcDbLine
 10
107.025912877024
 20
32.5011600673678
 30
0.0
 11
136.8750060893976
 21
32.50116006736791
 31
0.0
  0
LINE
  5
1B7
330
1B3
100
AcDbEntity
  8
치수문자_일반주서
 62
     0
370
    -2
100
AcDbLine
 10
107.025912877024
 20
22.50116006736781
 30
0.0
 11
136.8750060893976
 21
22.50116006736792
 31
0.0
  0
LINE
  5
1B8
330
1B3
100
AcDbEntity
  8
치수문자_일반주서
 62
     0
370
    -2
100
AcDbLine
 10
136.8750060893976
 20
29.19916006736791
 30
0.0
 11
136.8750060893976
 21
25.80316006736792
 31
0.0
  0
SOLID
  5
1B9
330
1B3
100
AcDbEntity
  8
치수문자_일반주서
 62
     0
100
AcDbTrace
 10
137.4253394227309
 20
29.19916006736791
 30
0.0
 11
136.3246727560642
 21
29.19916006736791
 31
0.0
 12
136.8750060893976
 22
32.50116006736791
 32
0.0
 13
136.8750060893976
 23
32.50116006736791
 33
0.0
  0
SOLID
  5
1BA
330
1B3
100
AcDbEntity
  8
치수문자_일반주서
 62
     0
100
AcDbTrace
 10
136.3246727560643
 20
25.80316006736792
 30
0.0
 11
137.4253394227309
 21
25.80316006736792
 31
0.0
 12
136.8750060893976
 22
22.50116006736792
 32
0.0
 13
136.8750060893976
 23
22.50116006736792
 33
0.0
  0
MTEXT
  5
1BB
330
1B3
100
AcDbEntity
  8
치수문자_일반주서
 62
     0
100
AcDbMText
 10
132.5000060893976
 20
27.50116006736779
 30
0.0
 40
3.5
 41
0.0
 71
     2
 72
     1
  1
\A1;%%c10
  7
SLDTEXTSTYLE0
 11
-2.842170943040402E-15
 21
1.0
 31
0.0
 73
     1
 44
1.0
  0
POINT
  5
1BC
330
1B3
100
AcDbEntity
  8
Defpoints
 62
     0
100
AcDbPoint
 10
106.963412877024
 20
32.5011600673678
 30
0.0
  0
POINT
  5
1BD
330
1B3
100
AcDbEntity
  8
Defpoints
 62
     0
100
AcDbPoint
 10
106.963412877024
 20
22.50116006736781
 30
0.0
  0
POINT
  5
1BE
330
1B3
100
AcDbEntity
  8
Defpoints
 62
     0
100
AcDbPoint
 10
136.8750060893976
 20
22.50116006736792
 30
0.0
  0
ENDBLK
  5
1B5
330
1B3
100
AcDbEntity
  8
0
100
AcDbBlockEnd
  0
BLOCK
  5
1C0
330
1BF
100
AcDbEntity
  8
0
100
AcDbBlockBegin
  2
*D10
 70
     1
 10
0.0
 20
0.0
 30
0.0
  3
*D10
  1

  0
LINE
  5
1C2
330
1BF
100
AcDbEntity
  8
치수문자_일반주서
 62
     0
370
    -2
100
AcDbLine
 10
17.71250000000001
 20
32.50116006736781
 30
0.0
 11
4.374999999999983
 21
32.50116006736776
 31
0.0
  0
LINE
  5
1C3
330
1BF
100
AcDbEntity
  8
치수문자_일반주서
 62
     0
370
    -2
100
AcDbLine
 10
17.71250000000001
 20
22.5011600673678
 30
0.0
 11
4.375000000000018
 21
22.50116006736775
 31
0.0
  0
LINE
  5
1C4
330
1BF
100
AcDbEntity
  8
치수문자_일반주서
 62
     0
370
    -2
100
AcDbLine
 10
4.374999999999995
 20
29.19916006736776
 30
0.0
 11
4.375000000000006
 21
25.80316006736775
 31
0.0
  0
SOLID
  5
1C5
330
1BF
100
AcDbEntity
  8
치수문자_일반주서
 62
     0
100
AcDbTrace
 10
4.925333333333328
 20
29.19916006736776
 30
0.0
 11
3.824666666666662
 21
29.19916006736775
 31
0.0
 12
4.374999999999983
 22
32.50116006736776
 32
0.0
 13
4.374999999999983
 23
32.50116006736776
 33
0.0
  0
SOLID
  5
1C6
330
1BF
100
AcDbEntity
  8
치수문자_일반주서
 62
     0
100
AcDbTrace
 10
3.824666666666673
 20
25.80316006736775
 30
0.0
 11
4.92533333333334
 21
25.80316006736775
 31
0.0
 12
4.375000000000018
 22
22.50116006736775
 32
0.0
 13
4.375000000000018
 23
22.50116006736775
 33
0.0
  0
MTEXT
  5
1C7
330
1BF
100
AcDbEntity
  8
치수문자_일반주서
 62
     0
100
AcDbMText
 10
0.0
 20
27.50116006736779
 30
0.0
 40
3.5
 41
0.0
 71
     2
 72
     1
  1
\A1;%%c10
  7
SLDTEXTSTYLE0
 11
-3.463895836830486E-15
 21
1.0
 31
0.0
 73
     1
 44
1.0
  0
POINT
  5
1C8
330
1BF
100
AcDbEntity
  8
Defpoints
 62
     0
100
AcDbPoint
 10
17.77500000000001
 20
32.50116006736781
 30
0.0
  0
POINT
  5
1C9
330
1BF
100
AcDbEntity
  8
Defpoints
 62
     0
100
AcDbPoint
 10
17.77500000000001
 20
22.5011600673678
 30
0.0
  0
POINT
  5
1CA
330
1BF
100
AcDbEntity
  8
Defpoints
 62
     0
100
AcDbPoint
 10
4.375000000000014
 20
22.50116006736775
 30
0.0
  0
ENDBLK
  5
1C1
330
1BF
100
AcDbEntity
  8
0
100
AcDbBlockEnd
  0
BLOCK
  5
1CC
330
1CB
100
AcDbEntity
  8
0
100
AcDbBlockBegin
  2
*D11
 70
     1
 10
0.0
 20
0.0
 30
0.0
  3
*D11
  1

  0
LINE
  5
1CE
330
1CB
100
AcDbEntity
  8
치수문자_일반주서
 62
     0
370
    -2
100
AcDbLine
 10
116.775
 20
32.44301794755327
 30
0.0
 11
116.775
 21
49.83368840179618
 31
0.0
  0
LINE
  5
1CF
330
1CB
100
AcDbEntity
  8
치수문자_일반주서
 62
     0
370
    -2
100
AcDbLine
 10
91.77500000000002
 20
32.49231341635605
 30
0.0
 11
91.77500000000002
 21
49.83368840179618
 31
0.0
  0
LINE
  5
1D0
330
1CB
100
AcDbEntity
  8
치수문자_일반주서
 62
     0
370
    -2
100
AcDbLine
 10
113.473
 20
49.83368840179618
 30
0.0
 11
95.07700000000003
 21
49.83368840179618
 31
0.0
  0
SOLID
  5
1D1
330
1CB
100
AcDbEntity
  8
치수문자_일반주서
 62
     0
100
AcDbTrace
 10
113.473
 20
49.28335506846285
 30
0.0
 11
113.473
 21
50.38402173512952
 31
0.0
 12
116.775
 22
49.83368840179618
 32
0.0
 13
116.775
 23
49.83368840179618
 33
0.0
  0
SOLID
  5
1D2
330
1CB
100
AcDbEntity
  8
치수문자_일반주서
 62
     0
100
AcDbTrace
 10
95.07700000000003
 20
50.38402173512952
 30
0.0
 11
95.07700000000003
 21
49.28335506846285
 31
0.0
 12
91.77500000000002
 22
49.83368840179618
 32
0.0
 13
91.77500000000002
 23
49.83368840179618
 33
0.0
  0
MTEXT
  5
1D3
330
1CB
100
AcDbEntity
  8
치수문자_일반주서
 62
     0
100
AcDbMText
 10
104.2750000000001
 20
54.20868840179618
 30
0.0
 40
3.5
 41
0.0
 71
     2
 72
     1
  1
\A1;25
  7
SLDTEXTSTYLE0
 73
     1
 44
1.0
  0
POINT
  5
1D4
330
1CB
100
AcDbEntity
  8
Defpoints
 62
     0
100
AcDbPoint
 10
116.775
 20
32.38051794755327
 30
0.0
  0
POINT
  5
1D5
330
1CB
100
AcDbEntity
  8
Defpoints
 62
     0
100
AcDbPoint
 10
91.77500000000002
 20
32.42981341635605
 30
0.0
  0
POINT
  5
1D6
330
1CB
100
AcDbEntity
  8
Defpoints
 62
     0
100
AcDbPoint
 10
91.77500000000002
 20
49.83368840179618
 30
0.0
  0
ENDBLK
  5
1CD
330
1CB
100
AcDbEntity
  8
0
100
AcDbBlockEnd
  0
BLOCK
  5
1D8
330
1D7
100
AcDbEntity
  8
0
100
AcDbBlockBegin
  2
*D12
 70
     1
 10
0.0
 20
0.0
 30
0.0
  3
*D12
  1

  0
LINE
  5
1DA
330
1D7
100
AcDbEntity
  8
치수문자_일반주서
 62
     0
370
    -2
100
AcDbLine
 10
116.775
 20
32.44301794755327
 30
0.0
 11
116.775
 21
57.25005109216305
 31
0.0
  0
LINE
  5
1DB
330
1D7
100
AcDbEntity
  8
치수문자_일반주서
 62
     0
370
    -2
100
AcDbLine
 10
16.77500000000001
 20
31.56366006736781
 30
0.0
 11
16.77500000000001
 21
57.25005109216305
 31
0.0
  0
LINE
  5
1DC
330
1D7
100
AcDbEntity
  8
치수문자_일반주서
 62
     0
370
    -2
100
AcDbLine
 10
113.473
 20
57.25005109216305
 30
0.0
 11
20.07700000000001
 21
57.25005109216305
 31
0.0
  0
SOLID
  5
1DD
330
1D7
100
AcDbEntity
  8
치수문자_일반주서
 62
     0
100
AcDbTrace
 10
113.473
 20
56.69971775882971
 30
0.0
 11
113.473
 21
57.80038442549638
 31
0.0
 12
116.775
 22
57.25005109216305
 32
0.0
 13
116.775
 23
57.25005109216305
 33
0.0
  0
SOLID
  5
1DE
330
1D7
100
AcDbEntity
  8
치수문자_일반주서
 62
     0
100
AcDbTrace
 10
20.07700000000001
 20
57.80038442549638
 30
0.0
 11
20.07700000000001
 21
56.69971775882971
 31
0.0
 12
16.77500000000001
 22
57.25005109216305
 32
0.0
 13
16.77500000000001
 23
57.25005109216305
 33
0.0
  0
MTEXT
  5
1DF
330
1D7
100
AcDbEntity
  8
치수문자_일반주서
 62
     0
100
AcDbMText
 10
66.775
 20
61.62505109216305
 30
0.0
 40
3.5
 41
0.0
 71
     2
 72
     1
  1
\A1;100
  7
SLDTEXTSTYLE0
 73
     1
 44
1.0
  0
POINT
  5
1E0
330
1D7
100
AcDbEntity
  8
Defpoints
 62
     0
100
AcDbPoint
 10
116.775
 20
32.38051794755327
 30
0.0
  0
POINT
  5
1E1
330
1D7
100
AcDbEntity
  8
Defpoints
 62
     0
100
AcDbPoint
 10
16.77500000000001
 20
31.50116006736781
 30
0.0
  0
POINT
  5
1E2
330
1D7
100
AcDbEntity
  8
Defpoints
 62
     0
100
AcDbPoint
 10
16.77500000000001
 20
57.25005109216305
 30
0.0
  0
ENDBLK
  5
1D9
330
1D7
100
AcDbEntity
  8
0
100
AcDbBlockEnd
  0
BLOCK
  5
215
330
214
100
AcDbEntity
  8
0
100
AcDbBlockBegin
  2
*D13
 70
     1
 10
0.0
 20
0.0
 30
0.0
  3
*D13
  1

  0
LINE
  5
217
330
214
100
AcDbEntity
  8
치수문자_일반주서
 62
     0
370
    -2
100
AcDbLine
 10
19.11693828080851
 20
5.001074928723888
 30
0.0
 11
48.96603149318205
 21
5.001074928724
 31
0.0
  0
LINE
  5
218
330
214
100
AcDbEntity
  8
치수문자_일반주서
 62
     0
370
    -2
100
AcDbLine
 10
19.11693828080851
 20
-4.998925071276105
 30
0.0
 11
48.96603149318209
 21
-4.998925071275993
 31
0.0
  0
LINE
  5
219
330
214
100
AcDbEntity
  8
치수문자_일반주서
 62
     0
370
    -2
100
AcDbLine
 10
48.96603149318207
 20
1.699074928724
 30
0.0
 11
48.96603149318207
 21
-1.696925071275993
 31
0.0
  0
SOLID
  5
21A
330
214
100
AcDbEntity
  8
치수문자_일반주서
 62
     0
100
AcDbTrace
 10
49.5163648265154
 20
1.699074928724002
 30
0.0
 11
48.41569815984873
 21
1.699074928723998
 31
0.0
 12
48.96603149318205
 22
5.001074928724
 32
0.0
 13
48.96603149318205
 23
5.001074928724
 33
0.0
  0
SOLID
  5
21B
330
214
100
AcDbEntity
  8
치수문자_일반주서
 62
     0
100
AcDbTrace
 10
48.41569815984874
 20
-1.696925071275995
 30
0.0
 11
49.51636482651541
 21
-1.696925071275991
 31
0.0
 12
48.96603149318209
 22
-4.998925071275993
 32
0.0
 13
48.96603149318209
 23
-4.998925071275993
 33
0.0
  0
MTEXT
  5
21C
330
214
100
AcDbEntity
  8
치수문자_일반주서
 62
     0
100
AcDbMText
 10
44.59103149318207
 20
0.0010749287238726
 30
0.0
 40
3.5
 41
0.0
 71
     2
 72
     1
  1
\A1;%%c10
  7
SLDTEXTSTYLE0
 11
-3.552713678800503E-15
 21
1.0
 31
0.0
 73
     1
 44
1.0
  0
POINT
  5
21D
330
214
100
AcDbEntity
  8
Defpoints
 62
     0
100
AcDbPoint
 10
19.05443828080851
 20
5.001074928723888
 30
0.0
  0
POINT
  5
21E
330
214
100
AcDbEntity
  8
Defpoints
 62
     0
100
AcDbPoint
 10
19.05443828080851
 20
-4.998925071276105
 30
0.0
  0
POINT
  5
21F
330
214
100
AcDbEntity
  8
Defpoints
 62
     0
100
AcDbPoint
 10
48.96603149318209
 20
-4.998925071275993
 30
0.0
  0
ENDBLK
  5
216
330
214
100
AcDbEntity
  8
0
100
AcDbBlockEnd
  0
BLOCK
  5
221
330
220
100
AcDbEntity
  8
0
100
AcDbBlockBegin
  2
*D14
 70
     1
 10
0.0
 20
0.0
 30
0.0
  3
*D14
  1

  0
LINE
  5
223
330
220
100
AcDbEntity
  8
치수문자_일반주서
 62
     0
370
    -2
100
AcDbLine
 10
-70.19647459621552
 20
5.001074928723895
 30
0.0
 11
-83.53397459621554
 21
5.001074928723845
 31
0.0
  0
LINE
  5
224
330
220
100
AcDbEntity
  8
치수문자_일반주서
 62
     0
370
    -2
100
AcDbLine
 10
-70.19647459621552
 20
-4.998925071276112
 30
0.0
 11
-83.53397459621551
 21
-4.998925071276162
 31
0.0
  0
LINE
  5
225
330
220
100
AcDbEntity
  8
치수문자_일반주서
 62
     0
370
    -2
100
AcDbLine
 10
-83.53397459621553
 20
1.699074928723846
 30
0.0
 11
-83.53397459621553
 21
-1.696925071276162
 31
0.0
  0
SOLID
  5
226
330
220
100
AcDbEntity
  8
치수문자_일반주서
 62
     0
100
AcDbTrace
 10
-82.9836412628822
 20
1.699074928723847
 30
0.0
 11
-84.08430792954886
 21
1.699074928723844
 31
0.0
 12
-83.53397459621554
 22
5.001074928723845
 32
0.0
 13
-83.53397459621554
 23
5.001074928723845
 33
0.0
  0
SOLID
  5
227
330
220
100
AcDbEntity
  8
치수문자_일반주서
 62
     0
100
AcDbTrace
 10
-84.08430792954886
 20
-1.696925071276164
 30
0.0
 11
-82.9836412628822
 21
-1.696925071276161
 31
0.0
 12
-83.53397459621551
 22
-4.998925071276162
 32
0.0
 13
-83.53397459621551
 23
-4.998925071276162
 33
0.0
  0
MTEXT
  5
228
330
220
100
AcDbEntity
  8
치수문자_일반주서
 62
     0
100
AcDbMText
 10
-87.90897459621553
 20
0.0010749287238827
 30
0.0
 40
3.5
 41
0.0
 71
     2
 72
     1
  1
\A1;%%c10
  7
SLDTEXTSTYLE0
 11
-2.842170943040399E-15
 21
1.0
 31
0.0
 73
     1
 44
1.0
  0
POINT
  5
229
330
220
100
AcDbEntity
  8
Defpoints
 62
     0
100
AcDbPoint
 10
-70.13397459621552
 20
5.001074928723895
 30
0.0
  0
POINT
  5
22A
330
220
100
AcDbEntity
  8
Defpoints
 62
     0
100
AcDbPoint
 10
-70.13397459621552
 20
-4.998925071276112
 30
0.0
  0
POINT
  5
22B
330
220
100
AcDbEntity
  8
Defpoints
 62
     0
100
AcDbPoint
 10
-83.5339745962155
 20
-4.998925071276162
 30
0.0
  0
ENDBLK
  5
222
330
220
100
AcDbEntity
  8
0
100
AcDbBlockEnd
  0
BLOCK
  5
22D
330
22C
100
AcDbEntity
  8
0
100
AcDbBlockBegin
  2
*D15
 70
     1
 10
0.0
 20
0.0
 30
0.0
  3
*D15
  1

  0
LINE
  5
22F
330
22C
100
AcDbEntity
  8
치수문자_일반주서
 62
     0
370
    -2
100
AcDbLine
 10
28.86602540378448
 20
4.942932808909362
 30
0.0
 11
28.86602540378448
 21
22.33360326315227
 31
0.0
  0
LINE
  5
230
330
22C
100
AcDbEntity
  8
치수문자_일반주서
 62
     0
370
    -2
100
AcDbLine
 10
3.866025403784491
 20
4.992228277712137
 30
0.0
 11
3.866025403784491
 21
22.33360326315227
 31
0.0
  0
LINE
  5
231
330
22C
100
AcDbEntity
  8
치수문자_일반주서
 62
     0
370
    -2
100
AcDbLine
 10
25.56402540378448
 20
22.33360326315227
 30
0.0
 11
7.16802540378449
 21
22.33360326315227
 31
0.0
  0
SOLID
  5
232
330
22C
100
AcDbEntity
  8
치수문자_일반주서
 62
     0
100
AcDbTrace
 10
25.56402540378448
 20
21.78326992981894
 30
0.0
 11
25.56402540378448
 21
22.8839365964856
 31
0.0
 12
28.86602540378448
 22
22.33360326315227
 32
0.0
 13
28.86602540378448
 23
22.33360326315227
 33
0.0
  0
SOLID
  5
233
330
22C
100
AcDbEntity
  8
치수문자_일반주서
 62
     0
100
AcDbTrace
 10
7.16802540378449
 20
22.8839365964856
 30
0.0
 11
7.16802540378449
 21
21.78326992981894
 31
0.0
 12
3.866025403784491
 22
22.33360326315227
 32
0.0
 13
3.866025403784491
 23
22.33360326315227
 33
0.0
  0
MTEXT
  5
234
330
22C
100
AcDbEntity
  8
치수문자_일반주서
 62
     0
100
AcDbMText
 10
16.36602540378453
 20
26.70860326315227
 30
0.0
 40
3.5
 41
0.0
 71
     2
 72
     1
  1
\A1;25
  7
SLDTEXTSTYLE0
 73
     1
 44
1.0
  0
POINT
  5
235
330
22C
100
AcDbEntity
  8
Defpoints
 62
     0
100
AcDbPoint
 10
28.86602540378448
 20
4.880432808909362
 30
0.0
  0
POINT
  5
236
330
22C
100
AcDbEntity
  8
Defpoints
 62
     0
100
AcDbPoint
 10
3.866025403784491
 20
4.929728277712137
 30
0.0
  0
POINT
  5
237
330
22C
100
AcDbEntity
  8
Defpoints
 62
     0
100
AcDbPoint
 10
3.866025403784491
 20
22.33360326315227
 30
0.0
  0
ENDBLK
  5
22E
330
22C
100
AcDbEntity
  8
0
100
AcDbBlockEnd
  0
BLOCK
  5
239
330
238
100
AcDbEntity
  8
0
100
AcDbBlockBegin
  2
*D16
 70
     1
 10
0.0
 20
0.0
 30
0.0
  3
*D16
  1

  0
LINE
  5
23B
330
238
100
AcDbEntity
  8
치수문자_일반주서
 62
     0
370
    -2
100
AcDbLine
 10
28.86602540378448
 20
4.942932808909362
 30
0.0
 11
28.86602540378448
 21
29.74996595351914
 31
0.0
  0
LINE
  5
23C
330
238
100
AcDbEntity
  8
치수문자_일반주서
 62
     0
370
    -2
100
AcDbLine
 10
-71.13397459621552
 20
4.063574928723895
 30
0.0
 11
-71.13397459621552
 21
29.74996595351914
 31
0.0
  0
LINE
  5
23D
330
238
100
AcDbEntity
  8
치수문자_일반주서
 62
     0
370
    -2
100
AcDbLine
 10
25.56402540378448
 20
29.74996595351914
 30
0.0
 11
-67.83197459621553
 21
29.74996595351914
 31
0.0
  0
SOLID
  5
23E
330
238
100
AcDbEntity
  8
치수문자_일반주서
 62
     0
100
AcDbTrace
 10
25.56402540378448
 20
29.1996326201858
 30
0.0
 11
25.56402540378448
 21
30.30029928685247
 31
0.0
 12
28.86602540378448
 22
29.74996595351914
 32
0.0
 13
28.86602540378448
 23
29.74996595351914
 33
0.0
  0
SOLID
  5
23F
330
238
100
AcDbEntity
  8
치수문자_일반주서
 62
     0
100
AcDbTrace
 10
-67.83197459621553
 20
30.30029928685247
 30
0.0
 11
-67.83197459621553
 21
29.1996326201858
 31
0.0
 12
-71.13397459621552
 22
29.74996595351914
 32
0.0
 13
-71.13397459621552
 23
29.74996595351914
 33
0.0
  0
MTEXT
  5
240
330
238
100
AcDbEntity
  8
치수문자_일반주서
 62
     0
100
AcDbMText
 10
-21.13397459621552
 20
34.12496595351914
 30
0.0
 40
3.5
 41
0.0
 71
     2
 72
     1
  1
\A1;100
  7
SLDTEXTSTYLE0
 73
     1
 44
1.0
  0
POINT
  5
241
330
238
100
AcDbEntity
  8
Defpoints
 62
     0
100
AcDbPoint
 10
28.86602540378448
 20
4.880432808909362
 30
0.0
  0
POINT
  5
242
330
238
100
AcDbEntity
  8
Defpoints
 62
     0
100
AcDbPoint
 10
-71.13397459621552
 20
4.001074928723895
 30
0.0
  0
POINT
  5
243
330
238
100
AcDbEntity
  8
Defpoints
 62
     0
100
AcDbPoint
 10
-71.13397459621552
 20
29.74996595351914
 30
0.0
  0
ENDBLK
  5
23A
330
238
100
AcDbEntity
  8
0
100
AcDbBlockEnd
  0
BLOCK
  5
245
330
244
100
AcDbEntity
  8
0
100
AcDbBlockBegin
  2
*D17
 70
     1
 10
0.0
 20
0.0
 30
0.0
  3
*D17
  1

  0
LINE
  5
247
330
244
100
AcDbEntity
  8
치수문자_일반주서
 62
     0
370
    -2
100
AcDbLine
 10
29.22329670497628
 20
-10.62850413632494
 30
0.0
 11
37.64467844523545
 21
-30.10701197462729
 31
0.0
  0
MTEXT
  5
248
330
244
100
AcDbEntity
  8
치수문자_일반주서
 62
     0
100
AcDbMText
 10
38.40476023079442
 20
-25.2503346390653
 30
0.0
 40
3.5
 41
0.0
 71
     5
 72
     1
  1
\A1;R0.1
  7
SLDTEXTSTYLE0
 11
0.3968414062902266
 21
-0.9178871925534179
 31
0.0
 73
     1
 44
1.0
  0
SOLID
  5
249
330
244
100
AcDbEntity
  8
치수문자_일반주서
 62
     0
100
AcDbTrace
 10
29.72844062327817
 20
-10.41010908239655
 30
0.0
 11
28.71815278667438
 21
-10.84689919025332
 31
0.0
 12
27.91292638140595
 22
-7.597640626513551
 32
0.0
 13
27.91292638140595
 23
-7.597640626513551
 33
0.0
  0
LINE
  5
24A
330
244
100
AcDbEntity
  8
치수문자_일반주서
 62
     0
100
AcDbLine
 10
27.78324224077693
 20
-7.505851907258213
 30
0.0
 11
27.96324224077693
 21
-7.505851907258213
 31
0.0
  0
LINE
  5
24B
330
244
100
AcDbEntity
  8
치수문자_일반주서
 62
     0
100
AcDbLine
 10
27.87324224077693
 20
-7.595851907258213
 30
0.0
 11
27.87324224077693
 21
-7.415851907258213
 31
0.0
  0
POINT
  5
24C
330
244
100
AcDbEntity
  8
Defpoints
 62
     0
100
AcDbPoint
 10
27.91292638140595
 20
-7.597640626513551
 30
0.0
  0
POINT
  5
24D
330
244
100
AcDbEntity
  8
Defpoints
 62
     0
100
AcDbPoint
 10
27.87324224077693
 20
-7.505851907258213
 30
0.0
  0
ENDBLK
  5
246
330
244
100
AcDbEntity
  8
0
100
AcDbBlockEnd
  0
BLOCK
  5
258
330
257
100
AcDbEntity
  8
0
100
AcDbBlockBegin
  2
*D18
 70
     1
 10
0.0
 20
0.0
 30
0.0
  3
*D18
  1

  0
LINE
  5
25A
330
257
100
AcDbEntity
  8
치수문자_일반주서
 62
     0
370
    -2
100
AcDbLine
 10
31.04296075383102
 20
-7.370730340284497
 30
0.0
 11
44.81875327402767
 21
-22.2759130948402
 31
0.0
  0
MTEXT
  5
25B
330
257
100
AcDbEntity
  8
치수문자_일반주서
 62
     0
100
AcDbMText
 10
43.62855968946759
 20
-17.12066302391522
 30
0.0
 40
3.5
 41
0.0
 71
     5
 72
     1
  1
\A1;R0.2
  7
SLDTEXTSTYLE0
 11
0.6787365362782821
 21
-0.7343818586545833
 31
0.0
 73
     1
 44
1.0
  0
SOLID
  5
25C
330
257
100
AcDbEntity
  8
치수문자_일반주서
 62
     0
100
AcDbTrace
 10
31.44711557004393
 20
-6.99719899981935
 30
0.0
 11
30.63880593761812
 21
-7.744261680749645
 31
0.0
 12
28.80177271104013
 22
-4.945801443007063
 32
0.0
 13
28.80177271104013
 23
-4.945801443007063
 33
0.0
  0
LINE
  5
25D
330
257
100
AcDbEntity
  8
치수문자_일반주서
 62
     0
100
AcDbLine
 10
28.57602540378448
 20
-4.798925071276147
 30
0.0
 11
28.75602540378448
 21
-4.798925071276147
 31
0.0
  0
LINE
  5
25E
330
257
100
AcDbEntity
  8
치수문자_일반주서
 62
     0
100
AcDbLine
 10
28.66602540378448
 20
-4.888925071276147
 30
0.0
 11
28.66602540378448
 21
-4.708925071276147
 31
0.0
  0
POINT
  5
25F
330
257
100
AcDbEntity
  8
Defpoints
 62
     0
100
AcDbPoint
 10
28.80177271104013
 20
-4.945801443007063
 30
0.0
  0
POINT
  5
260
330
257
100
AcDbEntity
  8
Defpoints
 62
     0
100
AcDbPoint
 10
28.66602540378448
 20
-4.798925071276147
 30
0.0
  0
ENDBLK
  5
259
330
257
100
AcDbEntity
  8
0
100
AcDbBlockEnd
  0
ENDSEC
  0
SECTION
  2
ENTITIES
  0
LINE
  5
BF
330
1F
100
AcDbEntity
  8
참조1
100
AcDbLine
 10
-15.77564223695981
 20
-2.499999999999974
 30
0.0
 11
-15.7756422369598
 21
-40.0
 31
0.0
  0
LINE
  5
C0
330
1F
100
AcDbEntity
  8
참조1
100
AcDbLine
 10
-15.7756422369598
 20
-40.0
 30
0.0
 11
-30.93398568371225
 21
-40.0
 31
0.0
  0
INSERT
  5
C2
330
1F
100
AcDbEntity
  8
0
  6
Continuous
 62
     7
100
AcDbBlockReference
 66
     1
  2
블럭10
 10
-29.71591516908501
 20
-52.04717430164393
 30
0.0
  0
ATTRIB
  5
C3
330
C2
100
AcDbEntity
  8
FORMAT
 62
     2
100
AcDbText
 10
-45.83517620852056
 20
-49.97180738881174
 30
0.0
 40
4.233333333333333
  1
SEME0110002E [ 4 FLUTE ]
 41
0.75
  7
SLDTEXTSTYLE0
 11
-45.83517620852056
 21
-52.08847405547841
 31
0.0
100
AcDbAttribute
  2
AUTOATTR0
 70
     0
 74
     1
  0
SEQEND
  5
C4
330
C2
100
AcDbEntity
  8
0
  6
Continuous
 62
     7
  0
HATCH
  5
C5
330
1F
100
AcDbEntity
  8
중심선
100
AcDbHatch
 10
0.0
 20
0.0
 30
0.0
210
0.0
220
0.0
230
1.0
  2
SOLID
 70
     1
 71
     0
 91
        1
 92
        0
 93
        4
 72
     1
 10
-24.00100586470416
 20
-35.8
 11
-27.44728110854144
 21
-35.8
 72
     1
 10
-27.44728110854144
 20
-35.8
 11
-29.57551096774547
 21
-38.33632558057259
 72
     1
 10
-29.57551096774547
 20
-38.33632558057259
 11
-26.12920263879504
 21
-38.3362861512701
 72
     1
 10
-26.12920263879504
 20
-38.3362861512701
 11
-24.00100586470416
 21
-35.8
 97
        0
 75
     0
 76
     1
 98
        1
 10
0.0
 20
0.0
  0
HATCH
  5
C6
330
1F
100
AcDbEntity
  8
중심선
100
AcDbHatch
 10
0.0
 20
0.0
 30
0.0
210
0.0
220
0.0
230
1.0
  2
SOLID
 70
     1
 71
     0
 91
        1
 92
        0
 93
        4
 72
     1
 10
-18.98824187366821
 20
-35.8
 11
-22.43451711750549
 21
-35.8
 72
     1
 10
-22.43451711750549
 20
-35.8
 11
-26.96565512586288
 21
-41.20000000000002
 72
     1
 10
-26.96565512586288
 20
-41.20000000000002
 11
-23.5193798820256
 21
-41.20000000000002
 72
     1
 10
-23.5193798820256
 20
-41.20000000000002
 11
-18.98824187366821
 21
-35.8
 97
        0
 75
     0
 76
     1
 98
        1
 10
0.0
 20
0.0
  0
HATCH
  5
C7
330
1F
100
AcDbEntity
  8
중심선
100
AcDbHatch
 10
0.0
 20
0.0
 30
0.0
210
0.0
220
0.0
230
1.0
  2
SOLID
 70
     1
 71
     0
 91
        1
 92
        0
 93
        4
 72
     1
 10
-13.97547788263232
 20
-35.80000000000003
 11
-17.42175312646943
 21
-35.8
 72
     1
 10
-17.42175312646943
 20
-35.8
 11
-24.47019002835868
 21
-44.20000000000002
 72
     1
 10
-24.47019002835868
 20
-44.20000000000002
 11
-21.0239147845214
 21
-44.20000000000002
 72
     1
 10
-21.0239147845214
 20
-44.20000000000002
 11
-13.97547788263232
 21
-35.80000000000003
 97
        0
 75
     0
 76
     1
 98
        1
 10
0.0
 20
0.0
  0
HATCH
  5
C8
330
1F
100
AcDbEntity
  8
중심선
100
AcDbHatch
 10
0.0
 20
0.0
 30
0.0
210
0.0
220
0.0
230
1.0
  2
SOLID
 70
     1
 71
     0
 91
        1
 92
        0
 93
        6
 72
     3
 10
-9.175587451620116
 20
-40.00000000005127
 11
3.960054785062284
 21
1.540850780301639E-10
 40
0.3939339440162633
 50
17.09539180608433
 51
320.0019657685079
 73
     0
 72
     1
 10
-7.49258779591952
 20
-38.5878940046383
 11
-5.187285922218482
 21
-36.65356729459038
 72
     3
 10
-9.175587451672962
 20
-40.00000000000015
 11
6.600054785286829
 21
-1.249000902703301E-13
 40
0.6363583540795982
 50
39.99873849337408
 51
368.4976242363725
 73
     1
 72
     1
 10
-2.750254959772352
 20
-39.03999999993002
 11
-10.49552014483704
 21
-39.03999999992999
 72
     1
 10
-10.49552014483704
 20
-39.03999999992999
 11
-10.49554518928297
 21
-40.95999999992991
 72
     1
 10
-10.49554518928297
 20
-40.95999999992991
 11
-6.054165419810936
 21
-40.95999999992988
 97
        0
 75
     0
 76
     1
 98
        1
 10
0.0
 20
0.0
  0
LINE
  5
F9
330
1F
100
AcDbEntity
  8
참조1
100
AcDbLine
 10
67.03835494594202
 20
7.440000000000002
 30
0.0
 11
67.03835494594202
 21
-7.440000000000002
 31
0.0
  0
LINE
  5
FA
330
1F
100
AcDbEntity
  8
참조1
100
AcDbLine
 10
79.73835494594202
 20
5.440000000000002
 30
0.0
 11
67.03835494594202
 21
5.440000000000002
 31
0.0
  0
SOLID
  5
FB
330
1F
100
AcDbEntity
  8
참조1
100
AcDbTrace
 10
67.03835494594202
 20
5.440000000000002
 30
0.0
 11
73.38835494594201
 21
4.424000000000002
 31
0.0
 12
73.38835494594201
 22
6.456000000000002
 32
0.0
 13
73.38835494594201
 23
6.456000000000002
 33
0.0
  0
LINE
  5
FC
330
1F
100
AcDbEntity
  8
참조1
100
AcDbLine
 10
79.73835494594202
 20
-5.440000000000002
 30
0.0
 11
67.03835494594202
 21
-5.440000000000002
 31
0.0
  0
SOLID
  5
FD
330
1F
100
AcDbEntity
  8
참조1
100
AcDbTrace
 10
67.03835494594202
 20
-5.440000000000002
 30
0.0
 11
73.38835494594201
 21
-6.456000000000002
 31
0.0
 12
73.38835494594201
 22
-4.424000000000002
 32
0.0
 13
73.38835494594201
 23
-4.424000000000002
 33
0.0
  0
MTEXT
  5
FE
330
1F
100
AcDbEntity
  8
참조1
100
AcDbMText
 10
76.4358450384123
 20
10.98821664464994
 30
0.0
 40
3.5
 41
0.0
 71
     1
 72
     1
  1
A
  7
SLDTEXTSTYLE0
 73
     1
 44
1.0
  0
MTEXT
  5
FF
330
1F
100
AcDbEntity
  8
참조1
100
AcDbMText
 10
76.4358450384123
 20
0.1082166446499328
 30
0.0
 40
3.5
 41
0.0
 71
     1
 72
     1
  1
A
  7
SLDTEXTSTYLE0
 73
     1
 44
1.0
  0
LINE
  5
1E4
330
1F
100
AcDbEntity
  8
외형선
  6
Continuous
 62
     1
370
    15
100
AcDbLine
 10
5.450715130791963
 20
5.001074928723888
 30
0.0
 11
3.866025403784477
 21
5.001074928723888
 31
0.0
1001
PE_URL
1000

  0
LINE
  5
1E5
330
1F
100
AcDbEntity
  8
외형선
  6
Continuous
 62
     1
370
    15
100
AcDbLine
 10
16.00659108531352
 20
-4.998925071276105
 30
0.0
 11
19.05389653470843
 21
-4.998925071276105
 31
0.0
1001
PE_URL
1000

  0
LINE
  5
1E6
330
1F
100
AcDbEntity
  8
외형선
  6
Continuous
 62
     1
370
    15
100
AcDbLine
 10
19.0538965347084
 20
5.001074928723888
 30
0.0
 11
16.00659108531353
 21
5.001074928723888
 31
0.0
1001
PE_URL
1000

  0
LINE
  5
1E7
330
1F
100
AcDbEntity
  8
외형선
  6
Continuous
 62
     1
370
    15
100
AcDbLine
 10
3.866025403784477
 20
-4.998925071276105
 30
0.0
 11
5.45071513079192
 21
-4.998925071276105
 31
0.0
1001
PE_URL
1000

  0
LINE
  5
1E8
330
1F
100
AcDbEntity
  8
외형선
  6
Continuous
370
    15
100
AcDbLine
 10
-70.13397459621552
 20
5.001074928723895
 30
0.0
 11
-71.13397459621552
 21
4.001074928723895
 31
0.0
  0
LINE
  5
1E9
330
1F
100
AcDbEntity
  8
외형선
  6
Continuous
370
    15
100
AcDbLine
 10
-71.13397459621552
 20
-3.998925071276108
 30
0.0
 11
-70.13397459621552
 21
-4.998925071276105
 31
0.0
  0
LINE
  5
1EA
330
1F
100
AcDbEntity
  8
외형선
  6
Continuous
370
    15
100
AcDbLine
 10
-70.13397459621552
 20
-4.998925071276105
 30
0.0
 11
3.866025403784477
 21
-4.998925071276105
 31
0.0
  0
LINE
  5
1EB
330
1F
100
AcDbEntity
  8
외형선
  6
Continuous
370
    15
100
AcDbLine
 10
3.866025403784477
 20
5.001074928723895
 30
0.0
 11
-70.13397459621552
 21
5.001074928723895
 31
0.0
  0
SPLINE
  5
1EC
330
1F
100
AcDbEntity
  8
외형선
  6
Continuous
 62
     1
370
    15
100
AcDbSpline
210
0.0
220
0.0
230
1.0
 70
     8
 71
     3
 72
    19
 73
    15
 74
     0
 42
0.000000001
 43
0.00000001
 40
0.0
 40
0.0
 40
0.0
 40
0.0
 40
0.0852055335698349
 40
0.1704260392466529
 40
0.2556225122429274
 40
0.3407981863150429
 40
0.4259595957817477
 40
0.5111133112343589
 40
0.5962659228599125
 40
0.6814240236585446
 40
0.7706478535939691
 40
0.8598771475839511
 40
0.949113220291406
 40
1.0
 40
1.0
 40
1.0
 40
1.0
 10
3.866025403784462
 20
0.9104369968126562
 30
0.0
 10
4.44720865861629
 20
0.5770022389978884
 30
0.0
 10
5.609677292373362
 20
-0.0899258669679419
 30
0.0
 10
7.353399650959915
 20
-1.096193753483981
 30
0.0
 10
9.096755989859105
 20
-2.055685480680587
 30
0.0
 10
10.83963761124974
 20
-2.932744832368261
 30
0.0
 10
12.58216630620603
 20
-3.69115481612253
 30
0.0
 10
14.32450431935563
 20
-4.300529303856763
 30
0.0
 10
16.06682560606166
 20
-4.736430198386323
 30
0.0
 10
17.83688856629304
 20
-4.984457097470063
 30
0.0
 10
19.63496363588463
 20
-5.026167159209336
 30
0.0
 10
21.46082461888977
 20
-4.837428514346669
 30
0.0
 10
23.02522623035404
 20
-4.519106738302931
 30
0.0
 10
23.98101970202529
 20
-4.195071505285092
 30
0.0
 10
24.3281240536798
 20
-4.07739541436851
 30
0.0
1001
PE_URL
1000

  0
SPLINE
  5
1ED
330
1F
100
AcDbEntity
  8
외형선
  6
Continuous
370
    15
100
AcDbSpline
210
0.0
220
0.0
230
1.0
 70
    24
 71
     3
 72
    17
 73
    13
 74
     0
 42
0.000000001
 43
0.00000001
 40
0.0
 40
0.0
 40
0.0
 40
0.0
 40
0.1046729426302764
 40
0.2120820928759803
 40
0.3220621357521649
 40
0.4352316073223365
 40
0.5452116501985251
 40
0.6583811217687012
 40
0.7683611646448905
 40
0.881530636215066
 40
0.9915106790912536
 40
1.0
 40
1.0
 40
1.0
 40
1.0
 10
3.866025403784491
 20
4.929728277712137
 30
0.0
 10
3.866025403784505
 20
4.78562428285101
 30
0.0
 10
3.866025403784491
 20
4.493649336375228
 30
0.0
 10
3.866025403784448
 20
4.0165184023545
 30
0.0
 10
3.866025403784477
 20
3.516842493708761
 30
0.0
 10
3.866025403784533
 20
3.013644388164753
 30
0.0
 10
3.86602540378442
 20
2.521497327459858
 30
0.0
 10
3.866025403784533
 20
2.063708733988847
 30
0.0
 10
3.866025403784462
 20
1.642235139606651
 30
0.0
 10
3.866025403784434
 20
1.28709862546912
 30
0.0
 10
3.866025403784406
 20
1.063606892277399
 30
0.0
 10
3.866025403784462
 20
0.9850237914765145
 30
0.0
 10
3.866025403784462
 20
0.9793926549582679
 30
0.0
  0
SPLINE
  5
1EE
330
1F
100
AcDbEntity
  8
외형선
  6
Continuous
 62
     1
370
    15
100
AcDbSpline
210
0.0
220
0.0
230
1.0
 70
     8
 71
     3
 72
    50
 73
    46
 74
     0
 42
0.000000001
 43
0.00000001
 40
0.0021578608524247
 40
0.0021578608524247
 40
0.0021578608524247
 40
0.0021578608524247
 40
0.0624999999999993
 40
0.0624999999999993
 40
0.0937499999999995
 40
0.0937499999999995
 40
0.1249999999999998
 40
0.1249999999999998
 40
0.1874999999999991
 40
0.1874999999999991
 40
0.2187499999999993
 40
0.2187499999999993
 40
0.2499999999999996
 40
0.2499999999999996
 40
0.3125000000000014
 40
0.3125000000000014
 40
0.3750000000000032
 40
0.3750000000000032
 40
0.4062500000000036
 40
0.4062500000000036
 40
0.4375000000000038
 40
0.4375000000000038
 40
0.5000000000000057
 40
0.5000000000000057
 40
0.531250000000006
 40
0.531250000000006
 40
0.5625000000000062
 40
0.5625000000000062
 40
0.6250000000000056
 40
0.6250000000000056
 40
0.6875000000000048
 40
0.6875000000000048
 40
0.7187500000000044
 40
0.7187500000000044
 40
0.750000000000004
 40
0.750000000000004
 40
0.8125000000000033
 40
0.8125000000000033
 40
0.8437500000000024
 40
0.8437500000000024
 40
0.8750000000000014
 40
0.8750000000000014
 40
0.9375000000000008
 40
0.9375000000000008
 40
1.0
 40
1.0
 40
1.0
 40
1.0
 10
28.7125121471079
 20
-4.993447519068636
 30
0.0
 10
28.21347466783466
 20
-4.942260449961558
 30
0.0
 10
27.70828285318667
 20
-4.8872195136584
 30
0.0
 10
26.94929550172188
 20
-4.767206543299885
 30
0.0
 10
26.69198086589341
 20
-4.719899963718781
 30
0.0
 10
26.17282918317756
 20
-4.612443139188144
 30
0.0
 10
25.9122803983724
 20
-4.552352509630637
 30
0.0
 10
25.13244438359155
 20
-4.354058513618284
 30
0.0
 10
24.61762567770555
 20
-4.198152281096501
 30
0.0
 10
23.8371588282163
 20
-3.930885919180923
 30
0.0
 10
23.57682337980202
 20
-3.836345372949154
 30
0.0
 10
23.05893703735239
 20
-3.637552661132137
 30
0.0
 10
22.80160955390252
 20
-3.533352256226554
 30
0.0
 10
22.02285467398539
 20
-3.206005594816002
 30
0.0
 10
21.50178104154423
 20
-2.968973170842442
 30
0.0
 10
20.46882477628756
 20
-2.467044276995619
 30
0.0
 10
19.94536896785868
 20
-2.20025305372971
 30
0.0
 10
19.1685788268377
 20
-1.785889740983666
 30
0.0
 10
18.91123804408126
 20
-1.645470212994468
 30
0.0
 10
18.39205002588362
 20
-1.359766295601265
 30
0.0
 10
18.13149787802014
 20
-1.214710685432344
 30
0.0
 10
17.35169639066676
 20
-0.7755593115937494
 30
0.0
 10
16.83685506809348
 20
-0.4779822345323304
 30
0.0
 10
16.05637839005095
 20
-0.0285881657225815
 30
0.0
 10
15.79605457891174
 20
0.1214832007278694
 30
0.0
 10
15.27822087113948
 20
0.4203586142527485
 30
0.0
 10
15.02086633740335
 20
0.5691348867845214
 30
0.0
 10
14.24205737121594
 20
1.013863082857508
 30
0.0
 10
13.72112282470232
 20
1.306787554318781
 30
0.0
 10
12.68803615321602
 20
1.873894966734294
 30
0.0
 10
12.16457394684149
 20
2.150104087571091
 30
0.0
 10
11.38786317121956
 20
2.543408837966933
 30
0.0
 10
11.13049443484269
 20
2.671020258409527
 30
0.0
 10
10.61127063713199
 20
2.919455290906185
 30
0.0
 10
10.3507154076275
 20
3.040053768520405
 30
0.0
 10
9.570949285305531
 20
3.388788499880306
 30
0.0
 10
9.056083809844836
 20
3.603562415223816
 30
0.0
 10
8.275598143274266
 20
3.896085819141792
 30
0.0
 10
8.015286250004152
 20
3.988482109582229
 30
0.0
 10
7.497505728039442
 20
4.161986340370291
 30
0.0
 10
7.240122337373421
 20
4.243109983438202
 30
0.0
 10
6.461260118965015
 20
4.469739028735884
 30
0.0
 10
5.940463143958084
 20
4.597600478837961
 30
0.0
 10
4.907247159310913
 20
4.802080758466339
 30
0.0
 10
4.383779126229641
 20
4.879347691101202
 30
0.0
 10
3.866025403783311
 20
4.929728277720272
 30
0.0
1001
PE_URL
1000

  0
LINE
  5
1EF
330
1F
100
AcDbEntity
  8
외형선
  6
Continuous
 62
     1
370
    15
100
AcDbLine
 10
28.86602540378448
 20
-4.449220828068889
 30
0.0
 11
28.86602540378448
 21
0.4503706855167344
 31
0.0
1001
PE_URL
1000

  0
SPLINE
  5
1F0
330
1F
100
AcDbEntity
  8
외형선
  6
Continuous
 62
     1
370
    15
100
AcDbSpline
210
0.0
220
0.0
230
1.0
 70
     8
 71
     3
 72
    17
 73
    13
 74
     0
 42
0.000000001
 43
0.00000001
 40
0.0000000000000004
 40
0.0000000000000004
 40
0.0000000000000004
 40
0.0000000000000004
 40
0.0000509241269374
 40
0.0000509241269374
 40
0.0000509241269374
 40
0.0000965377487639
 40
0.0000965377487639
 40
0.0000965377487639
 40
0.0001435661318019
 40
0.0001435661318019
 40
0.0001435661318019
 40
0.0001791246677151
 40
0.0001791246677151
 40
0.0001791246677151
 40
0.0001791246677151
 10
28.76602540378448
 20
-4.502463274645248
 30
0.0
 10
28.7807149943562
 20
-4.506158618639514
 30
0.0
 10
28.7951747205357
 20
-4.507259281736893
 30
0.0
 10
28.80805538866191
 20
-4.505869073533379
 30
0.0
 10
28.81963566704965
 20
-4.504619216161394
 30
0.0
 10
28.83030336002412
 20
-4.501329017850399
 30
0.0
 10
28.83916642313321
 20
-4.496123531583411
 30
0.0
 10
28.84827206073246
 20
-4.490775575589907
 30
0.0
 10
28.85575860633399
 20
-4.483194442849143
 30
0.0
 10
28.86044179134532
 20
-4.473804802456893
 30
0.0
 10
28.8640005569568
 20
-4.466669588013954
 30
0.0
 10
28.86602540378445
 20
-4.458273886670256
 30
0.0
 10
28.86602540378445
 20
-4.449220828068889
 30
0.0
1001
PE_URL
1000

  0
SPLINE
  5
1F1
330
1F
100
AcDbEntity
  8
외형선
  6
Continuous
 62
     1
370
    15
100
AcDbSpline
210
0.0
220
0.0
230
1.0
 70
     8
 71
     3
 72
    21
 73
    17
 74
     0
 42
0.000000001
 43
0.00000001
 40
0.0
 40
0.0
 40
0.0
 40
0.0
 40
0.006814229611464
 40
0.0816067193089885
 40
0.1563781170874072
 40
0.2311312610041681
 40
0.3058718858054341
 40
0.3806057580714344
 40
0.45533866158029
 40
0.5300763825789938
 40
0.6083823293487295
 40
0.6866930715634223
 40
0.7650097630171249
 40
0.8433335522926754
 40
0.9216655817672434
 40
1.0
 40
1.0
 40
1.0
 40
1.0
 10
5.450715130791977
 20
4.992707917145509
 30
0.0
 10
5.503675705298804
 20
4.995446050385034
 30
0.0
 10
6.137927702171794
 20
5.028237735351553
 30
0.0
 10
7.353405258879178
 20
4.900722066440125
 30
0.0
 10
9.0967544878973
 20
4.599096908658773
 30
0.0
 10
10.83963801322248
 20
4.090679370437094
 30
0.0
 10
12.58216619986473
 20
3.422905515676458
 30
0.0
 10
14.32450434281587
 20
2.615532844217988
 30
0.0
 10
16.06682561855605
 20
1.703049526101264
 30
0.0
 10
17.83688849148031
 20
0.7061968369265834
 30
0.0
 10
19.63496393795344
 20
-0.3370202934535058
 30
0.0
 10
21.46082349112888
 20
-1.38110955347393
 30
0.0
 10
23.28686456320401
 20
-2.365036929776082
 30
0.0
 10
25.11309747818763
 20
-3.240367495629648
 30
0.0
 10
26.93951803611493
 20
-3.986442570285014
 30
0.0
 10
28.15718342581189
 20
-4.330454624760492
 30
0.0
 10
28.76602540378448
 20
-4.50246327464534
 30
0.0
1001
PE_URL
1000

  0
SPLINE
  5
1F2
330
1F
100
AcDbEntity
  8
외형선
  6
Continuous
 62
     1
370
    15
100
AcDbSpline
210
0.0
220
0.0
230
1.0
 70
     8
 71
     3
 72
    18
 73
    14
 74
     0
 42
0.000000001
 43
0.00000001
 40
0.0
 40
0.0
 40
0.0
 40
0.0
 40
0.0967700030715863
 40
0.1935167430679598
 40
0.2902385270625205
 40
0.386942765382859
 40
0.4836369129549705
 40
0.5803284503991866
 40
0.6770248649874431
 40
0.773733631564634
 40
0.8750575014291794
 40
0.9763896598988228
 40
1.0
 40
1.0
 40
1.0
 40
1.0
 10
28.76602540378452
 20
0.4871805354855638
 30
0.0
 10
28.1846991164564
 20
0.8191651471071459
 30
0.0
 10
27.02218629003529
 20
1.483054562736953
 30
0.0
 10
25.27873887798856
 20
2.41384542051405
 30
0.0
 10
23.53578013760756
 20
3.248573230074363
 30
0.0
 10
21.79319968785133
 20
3.951797944046682
 30
0.0
 10
20.05083703388817
 20
4.495572775714319
 30
0.0
 10
18.30853277975804
 20
4.858186095538684
 30
0.0
 10
16.56611544444578
 20
5.023801440729059
 30
0.0
 10
14.79585868936624
 20
4.989825759835618
 30
0.0
 10
12.99756925027928
 20
4.728158074175973
 30
0.0
 10
11.63840452973083
 20
4.415198702397284
 30
0.0
 10
10.88785992004956
 20
4.142509012726617
 30
0.0
 10
10.74602976859286
 20
4.090978937781305
 30
0.0
  0
SPLINE
  5
1F3
330
1F
100
AcDbEntity
  8
외형선
  6
Continuous
 62
     1
370
    15
100
AcDbSpline
210
0.0
220
0.0
230
1.0
 70
     8
 71
     3
 72
    23
 73
    19
 74
     0
 42
0.000000001
 43
0.00000001
 40
0.0
 40
0.0
 40
0.0
 40
0.0
 40
0.0000297137793984
 40
0.0000297137793984
 40
0.0000297137793984
 40
0.0000595376446384
 40
0.0000595376446384
 40
0.0000595376446384
 40
0.0000881513784631
 40
0.0000881513784631
 40
0.0000881513784631
 40
0.0001174575803818
 40
0.0001174575803818
 40
0.0001174575803818
 40
0.0001499997242418
 40
0.0001499997242418
 40
0.0001499997242418
 40
0.0001636812627398
 40
0.0001636812627398
 40
0.0001636812627398
 40
0.0001636812627398
 10
28.86602540378448
 20
0.4503706855167344
 30
0.0
 10
28.86602540378448
 20
0.4485573827778069
 30
0.0
 10
28.86461877896613
 20
0.4474231702994551
 30
0.0
 10
28.86178326164816
 20
0.4471482810308807
 30
0.0
 10
28.85894117531268
 20
0.4468727549288118
 30
0.0
 10
28.85457320772247
 20
0.4474625502404734
 30
0.0
 10
28.84905396367583
 20
0.4489022015075079
 30
0.0
 10
28.843749410602
 20
0.4502858523280295
 30
0.0
 10
28.83725104765989
 20
0.4524863438263793
 30
0.0
 10
28.83014036721065
 20
0.4552958239073561
 30
0.0
 10
28.82284892793011
 20
0.4581767230796068
 30
0.0
 10
28.81474724377452
 20
0.4617598821973168
 30
0.0
 10
28.80644683374726
 20
0.4657423668822034
 30
0.0
 10
28.79723113066308
 20
0.4701640034366328
 30
0.0
 10
28.78756469845965
 20
0.4751730514825176
 30
0.0
 10
28.77806417394967
 20
0.4803992057070161
 30
0.0
 10
28.77403594211319
 20
0.4826151002934012
 30
0.0
 10
28.77001120891245
 20
0.4848834167616403
 30
0.0
 10
28.76602540378454
 20
0.4871805354855461
 30
0.0
1001
PE_URL
1000

  0
SPLINE
  5
1F4
330
1F
100
AcDbEntity
  8
외형선
  6
Continuous
 62
     1
370
    15
100
AcDbSpline
210
0.0
220
0.0
230
1.0
 70
     8
 71
     3
 72
    14
 73
    10
 74
     0
 42
0.000000001
 43
0.00000001
 40
0.0
 40
0.0
 40
0.0
 40
0.0
 40
0.0974540714463277
 40
0.2478558250685515
 40
0.398269882018149
 40
0.5486984436658997
 40
0.6991425248514842
 40
0.8495790559451218
 40
1.0
 40
1.0
 40
1.0
 40
1.0
 10
16.00659108531352
 20
-4.97687903924372
 30
0.0
 10
15.61224925472101
 20
-4.976543640014324
 30
0.0
 10
14.60931609523386
 20
-4.975690616107823
 30
0.0
 10
12.9975696708992
 20
-4.730053109009766
 30
0.0
 10
11.17146835995726
 20
-4.272712400558422
 30
0.0
 10
9.34514947023763
 20
-3.618053891536533
 30
0.0
 10
7.518687820638306
 20
-2.804598536738695
 30
0.0
 10
5.692284963075792
 20
-1.868940032078328
 30
0.0
 10
4.474757564038043
 20
-1.183352123201473
 30
0.0
 10
3.866025403783311
 20
-0.8405759284768521
 30
0.0
1001
PE_URL
1000

  0
LINE
  5
1F5
330
1F
100
AcDbEntity
  8
외형선
  6
Continuous
370
    15
100
AcDbLine
 10
3.866025403784491
 20
-0.8405759284733882
 30
0.0
 11
3.866025403784448
 21
0.9104369968126527
 31
0.0
  0
SPLINE
  5
1F6
330
1F
100
AcDbEntity
  8
외형선
  6
Continuous
 62
     1
370
    15
100
AcDbSpline
210
0.0
220
0.0
230
1.0
 70
     8
 71
     3
 72
    17
 73
    13
 74
     0
 42
0.000000001
 43
0.00000001
 40
0.0000000000000004
 40
0.0000000000000004
 40
0.0000000000000004
 40
0.0000000000000004
 40
0.0000509241269374
 40
0.0000509241269374
 40
0.0000509241269374
 40
0.0000965377487639
 40
0.0000965377487639
 40
0.0000965377487639
 40
0.0001435661318019
 40
0.0001435661318019
 40
0.0001435661318019
 40
0.0001791246677151
 40
0.0001791246677151
 40
0.0001791246677151
 40
0.0001791246677151
 10
28.76602540378448
 20
2.17320375795812
 30
0.0
 10
28.7807149943562
 20
2.165542093222228
 30
0.0
 10
28.7951747205357
 20
2.155620942007943
 30
0.0
 10
28.80805538866191
 20
2.144652967960759
 30
0.0
 10
28.81963566704965
 20
2.134792284371102
 30
0.0
 10
28.83030336002412
 20
2.123789760114526
 30
0.0
 10
28.83916642313321
 20
2.112509374620583
 30
0.0
 10
28.84827206073246
 20
2.100920254581226
 30
0.0
 10
28.85575860633399
 20
2.088640097668748
 30
0.0
 10
28.86044179134532
 20
2.07699005886462
 30
0.0
 10
28.8640005569568
 20
2.068137161238788
 30
0.0
 10
28.86602540378445
 20
2.059397781458408
 30
0.0
 10
28.86602540378445
 20
2.051652329621504
 30
0.0
1001
PE_URL
1000

  0
LINE
  5
1F7
330
1F
100
AcDbEntity
  8
외형선
  6
Continuous
 62
     1
370
    15
100
AcDbLine
 10
28.86602540378448
 20
0.4503706855167344
 30
0.0
 11
28.86602540378448
 21
2.051652329621504
 31
0.0
1001
PE_URL
1000

  0
SPLINE
  5
1F8
330
1F
100
AcDbEntity
  8
외형선
  6
Continuous
 62
     1
370
    15
100
AcDbSpline
210
0.0
220
0.0
230
1.0
 70
     8
 71
     3
 72
    13
 73
     9
 74
     0
 42
0.000000001
 43
0.00000001
 40
0.0
 40
0.0
 40
0.0
 40
0.0
 40
0.059827191569949
 40
0.2478310431729392
 40
0.4358491773611308
 40
0.6238843515850503
 40
0.8119393083970277
 40
1.0
 40
1.0
 40
1.0
 40
1.0
 10
19.05389653470843
 20
4.976996512102467
 30
0.0
 10
19.24757126019034
 20
4.983764378645539
 30
0.0
 10
20.04985878184851
 20
5.011799915354032
 30
0.0
 10
21.46082677719434
 20
4.834891543406506
 30
0.0
 10
23.28686368289399
 20
4.451256919777698
 30
0.0
 10
25.11309771297331
 20
3.852869108384404
 30
0.0
 10
26.93951797741384
 20
3.09499068793675
 30
0.0
 10
28.15718340624464
 20
2.480469191239358
 30
0.0
 10
28.76602540378445
 20
2.173203757958831
 30
0.0
1001
PE_URL
1000

  0
SPLINE
  5
1F9
330
1F
100
AcDbEntity
  8
외형선
  6
Continuous
 62
     1
370
    15
100
AcDbSpline
210
0.0
220
0.0
230
1.0
 70
     8
 71
     3
 72
    11
 73
     7
 74
     0
 42
0.000000001
 43
0.00000001
 40
0.0
 40
0.0
 40
0.0
 40
0.0
 40
0.2534226096139339
 40
0.5068897500260934
 40
0.7602854112236505
 40
1.0
 40
1.0
 40
1.0
 40
1.0
 10
3.866025403784462
 20
-4.915535756404765
 30
0.0
 10
4.447208729147292
 20
-4.957501372966959
 30
0.0
 10
5.609677503978745
 20
-5.041439980186375
 30
0.0
 10
7.353398804464362
 20
-4.907194319326202
 30
0.0
 10
9.065526199078462
 20
-4.607973939938386
 30
0.0
 10
10.19631965943449
 20
-4.258646736552379
 30
0.0
 10
10.74602976859279
 20
-4.088829080333511
 30
0.0
1001
PE_URL
1000

  0
SPLINE
  5
1FA
330
1F
100
AcDbEntity
  8
외형선
  6
Continuous
370
    15
100
AcDbSpline
210
0.0
220
0.0
230
1.0
 70
    24
 71
     3
 72
    17
 73
    13
 74
     0
 42
0.000000001
 43
0.00000001
 40
0.0
 40
0.0
 40
0.0
 40
0.0
 40
0.0002925371898917
 40
0.1084543068168033
 40
0.2197527750902939
 40
0.3279145447172037
 40
0.4392130129906924
 40
0.5473747826176053
 40
0.6586732508910977
 40
0.7668350205180083
 40
0.8781334887914978
 40
1.0
 40
1.0
 40
1.0
 40
1.0
 10
3.866025403784505
 20
-0.9082871393648446
 30
0.0
 10
3.866025403784505
 20
-0.9084767342604962
 30
0.0
 10
3.866025403780682
 20
-0.9787665425110781
 30
0.0
 10
3.866025403786296
 20
-1.190167872148582
 30
0.0
 10
3.866025403783922
 20
-1.535660003342954
 30
0.0
 10
3.866025403784576
 20
-1.9502794447599
 30
0.0
 10
3.866025403784519
 20
-2.402710227817185
 30
0.0
 10
3.866025403784349
 20
-2.891475639531372
 30
0.0
 10
3.866025403784548
 20
-3.393340936284858
 30
0.0
 10
3.866025403784491
 20
-3.902365677051513
 30
0.0
 10
3.866025403784391
 20
-4.41940944365744
 30
0.0
 10
3.866025403784434
 20
-4.745237671759753
 30
0.0
 10
3.866025403784448
 20
-4.915535756404765
 30
0.0
  0
SPLINE
  5
1FB
330
1F
100
AcDbEntity
  8
외형선
  6
Continuous
 62
     1
370
    15
100
AcDbSpline
210
0.0
220
0.0
230
1.0
 70
     8
 71
     3
 72
    10
 73
     6
 74
     0
 42
0.000000001
 43
0.00000001
 40
0.0261142506321003
 40
0.0261142506321003
 40
0.0261142506321003
 40
0.0261142506321003
 40
0.3929541653809929
 40
0.78581386634104
 40
1.0
 40
1.0
 40
1.0
 40
1.0
 10
28.71629714342267
 20
4.994653729716567
 30
0.0
 10
28.10743449807496
 20
4.916515013134666
 30
0.0
 10
26.98355772548418
 20
4.808171192982935
 30
0.0
 10
25.54289156287892
 20
4.492467521194961
 30
0.0
 10
24.64494849079405
 20
4.187239837435349
 30
0.0
 10
24.32812405367982
 20
4.079545271816297
 30
0.0
1001
PE_URL
1000

  0
LINE
  5
1FC
330
1F
100
AcDbEntity
  8
외형선
  6
Continuous
 62
     1
370
    15
100
AcDbLine
 10
28.86602540378448
 20
2.051652329621504
 30
0.0
 11
28.86602540378448
 21
4.801074928723923
 31
0.0
1001
PE_URL
1000

  0
LINE
  5
1FD
330
1F
100
AcDbEntity
  8
외형선
  6
Continuous
 62
     1
370
    15
100
AcDbLine
 10
28.86602540378448
 20
-4.798925071276147
 30
0.0
 11
28.86602540378448
 21
-4.449220828068889
 31
0.0
1001
PE_URL
1000

  0
LINE
  5
1FE
330
1F
100
AcDbEntity
  8
외형선
  6
Continuous
370
    15
100
AcDbLine
 10
-70.13397459621552
 20
0.0010749287238916
 30
0.0
 11
-70.13397459621552
 21
5.001074928723895
 31
0.0
  0
LINE
  5
1FF
330
1F
100
AcDbEntity
  8
외형선
  6
Continuous
370
    15
100
AcDbLine
 10
-70.13397459621552
 20
-4.998925071276105
 30
0.0
 11
-70.13397459621552
 21
0.0010749287238916
 31
0.0
  0
LINE
  5
200
330
1F
100
AcDbEntity
  8
외형선
  6
Continuous
370
    15
100
AcDbLine
 10
-71.13397459621552
 20
0.0010749287238916
 30
0.0
 11
-71.13397459621552
 21
4.001074928723895
 31
0.0
  0
LINE
  5
201
330
1F
100
AcDbEntity
  8
외형선
  6
Continuous
370
    15
100
AcDbLine
 10
-71.13397459621552
 20
-3.998925071276108
 30
0.0
 11
-71.13397459621552
 21
0.0010749287238916
 31
0.0
  0
SPLINE
  5
202
330
1F
100
AcDbEntity
  8
외형선
  6
Continuous
370
    15
100
AcDbSpline
210
0.0
220
0.0
230
1.0
 70
     8
 71
     3
 72
     8
 73
     4
 74
     0
 42
0.000000001
 43
0.00000001
 40
0.0
 40
0.0
 40
0.0
 40
0.0
 40
1.0
 40
1.0
 40
1.0
 40
1.0
 10
3.866025403784477
 20
4.929728277720159
 30
0.0
 10
3.532761873742444
 20
4.962156846389718
 30
0.0
 10
3.200870930239475
 20
4.983584652325938
 30
0.0
 10
2.866119219944849
 20
4.993909806889427
 30
0.0
  0
LINE
  5
203
330
1F
100
AcDbEntity
  8
외형선
  6
Continuous
370
    15
100
AcDbLine
 10
2.866119219944864
 20
1.471423297861151
 30
0.0
 11
2.866119219944864
 21
4.993911033079051
 31
0.0
  0
SPLINE
  5
204
330
1F
100
AcDbEntity
  8
외형선
  6
Continuous
370
    15
100
AcDbSpline
210
0.0
220
0.0
230
1.0
 70
     8
 71
     3
 72
     8
 73
     4
 74
     0
 42
0.000000001
 43
0.00000001
 40
0.0
 40
0.0
 40
0.0
 40
0.0
 40
1.0
 40
1.0
 40
1.0
 40
1.0
 10
3.866025403784491
 20
0.9104369968126207
 30
0.0
 10
3.53276187374243
 20
1.0998726111888
 30
0.0
 10
3.200870930239503
 20
1.287028154610816
 30
0.0
 10
2.866119219944864
 20
1.471431980524088
 30
0.0
  0
SPLINE
  5
205
330
1F
100
AcDbEntity
  8
외형선
  6
Continuous
370
    15
100
AcDbSpline
210
0.0
220
0.0
230
1.0
 70
     8
 71
     3
 72
     8
 73
     4
 74
     0
 42
0.000000001
 43
0.00000001
 40
0.0
 40
0.0
 40
0.0
 40
0.0
 40
1.0
 40
1.0
 40
1.0
 40
1.0
 10
3.866025403784477
 20
-0.8405759284775023
 30
0.0
 10
3.532761873742444
 20
-0.6506763136801936
 30
0.0
 10
3.200870930239475
 20
-0.4591648628973886
 30
0.0
 10
2.866119219944849
 20
-0.266506609080519
 30
0.0
  0
LINE
  5
206
330
1F
100
AcDbEntity
  8
외형선
  6
Continuous
370
    15
100
AcDbLine
 10
2.866119219944864
 20
-4.777844998767605
 30
0.0
 11
2.866119219944864
 21
-0.2664837284853441
 31
0.0
  0
SPLINE
  5
207
330
1F
100
AcDbEntity
  8
외형선
  6
Continuous
370
    15
100
AcDbSpline
210
0.0
220
0.0
230
1.0
 70
     8
 71
     3
 72
     8
 73
     4
 74
     0
 42
0.000000001
 43
0.00000001
 40
0.0
 40
0.0
 40
0.0
 40
0.0
 40
1.0
 40
1.0
 40
1.0
 40
1.0
 10
3.866025403784491
 20
-4.915535756404772
 30
0.0
 10
3.53276187374243
 20
-4.880498293995991
 30
0.0
 10
3.200870930239503
 20
-4.834578916663666
 30
0.0
 10
2.866119219944864
 20
-4.777842327331225
 30
0.0
  0
SPLINE
  5
208
330
1F
100
AcDbEntity
  8
외형선
  6
Continuous
370
    15
100
AcDbSpline
210
0.0
220
0.0
230
1.0
 70
    24
 71
     3
 72
    17
 73
    13
 74
     0
 42
0.000000001
 43
0.00000001
 40
0.0
 40
0.0
 40
0.0
 40
0.0
 40
0.1022992766203953
 40
0.2045985532407905
 40
0.3139599727545205
 40
0.4233213922682508
 40
0.5326828117820958
 40
0.6420442312959407
 40
0.7514056508097272
 40
0.8607670703235136
 40
0.9701284898373006
 40
1.0
 40
1.0
 40
1.0
 40
1.0
 10
3.866025403784505
 20
-4.915535756404768
 30
0.0
 10
3.866025403784505
 20
-4.772738822806645
 30
0.0
 10
3.866025403784519
 20
-4.487144955610393
 30
0.0
 10
3.866025403784519
 20
-4.014824919974878
 30
0.0
 10
3.866025403784491
 20
-3.520322044367273
 30
0.0
 10
3.866025403784448
 20
-3.013950711030628
 30
0.0
 10
3.866025403784491
 20
-2.522038377496486
 30
0.0
 10
3.866025403784448
 20
-2.057956334804349
 30
0.0
 10
3.866025403784548
 20
-1.634414409825158
 30
0.0
 10
3.866025403784519
 20
-1.268778906159113
 30
0.0
 10
3.866025403784548
 20
-1.024639813945974
 30
0.0
 10
3.866025403784533
 20
-0.928840296363628
 30
0.0
 10
3.866025403784519
 20
-0.908287139364834
 30
0.0
  0
SPLINE
  5
209
330
1F
100
AcDbEntity
  8
외형선
  6
Continuous
370
    15
100
AcDbSpline
210
0.0
220
0.0
230
1.0
 70
    24
 71
     3
 72
    16
 73
    12
 74
     0
 42
0.000000001
 43
0.00000001
 40
0.0
 40
0.0
 40
0.0
 40
0.0
 40
0.0926001170818372
 40
0.2040660984700111
 40
0.3155320798581855
 40
0.4269980612463599
 40
0.5384640426345285
 40
0.649930024022697
 40
0.7613960054108789
 40
0.8728619867990608
 40
1.0
 40
1.0
 40
1.0
 40
1.0
 10
3.866025403784491
 20
0.9793926549582679
 30
0.0
 10
3.866025403784505
 20
1.053354344831298
 30
0.0
 10
3.866025403784491
 20
1.216346293052055
 30
0.0
 10
3.866025403784576
 20
1.55016341173792
 30
0.0
 10
3.866025403784519
 20
1.954429844853173
 30
0.0
 10
3.866025403784505
 20
2.405451882186529
 30
0.0
 10
3.866025403784519
 20
2.889336637067505
 30
0.0
 10
3.866025403784519
 20
3.392240757418929
 30
0.0
 10
3.866025403784491
 20
3.899240449591446
 30
0.0
 10
3.866025403784491
 20
4.42309047434987
 30
0.0
 10
3.866025403784491
 20
4.753612539410057
 30
0.0
 10
3.866025403784477
 20
4.929728277720244
 30
0.0
  0
LINE
  5
20A
330
1F
100
AcDbEntity
  8
중심선
100
AcDbLine
 10
-74.13397459621552
 20
0.0010749287238916
 30
0.0
 11
31.86602540378449
 21
0.001074928723888
 31
0.0
  0
CIRCLE
  5
20B
330
1F
100
AcDbEntity
  8
해칭선
100
AcDbCircle
 10
0.0
 20
0.0
 30
0.0
 40
3.000000000000001
  0
DIMENSION
  5
20C
330
1F
100
AcDbEntity
  8
치수문자_일반주서
100
AcDbDimension
  2
*D13
 10
48.96603149318209
 20
-4.998925071275993
 30
0.0
 11
48.96603149318207
 21
0.001074928723888
 31
0.0
 70
   160
  1
%%c<>
 71
     2
 42
9.999999999999993
 52
-270.0
  3
SLDDIMSTYLE0
100
AcDbAlignedDimension
 13
19.05443828080851
 23
5.001074928723888
 33
0.0
 14
19.05443828080851
 24
-4.998925071276105
 34
0.0
 50
90.0000000000002
100
AcDbRotatedDimension
  0
DIMENSION
  5
20D
330
1F
100
AcDbEntity
  8
치수문자_일반주서
100
AcDbDimension
  2
*D14
 10
-83.53397459621551
 20
-4.998925071276162
 30
0.0
 11
-83.53397459621553
 21
0.0010749287238951
 31
0.0
 70
   160
  1
%%c<>
 71
     2
 42
10.00000000000001
 52
-270.0
  3
SLDDIMSTYLE0
100
AcDbAlignedDimension
 13
-70.13397459621552
 23
5.001074928723895
 33
0.0
 14
-70.13397459621552
 24
-4.998925071276112
 34
0.0
 50
90.0000000000002
100
AcDbRotatedDimension
  0
DIMENSION
  5
20E
330
1F
100
AcDbEntity
  8
치수문자_일반주서
100
AcDbDimension
  2
*D15
 10
3.866025403784491
 20
22.33360326315227
 30
0.0
 11
16.36602540378453
 21
22.33360326315227
 31
0.0
 70
   160
  1
<>
 71
     2
 42
24.99999999999999
  3
SLDDIMSTYLE1
100
AcDbAlignedDimension
 13
28.86602540378448
 23
4.880432808909362
 33
0.0
 14
3.866025403784491
 24
4.929728277712137
 34
0.0
 50
-0.0000000000002443
100
AcDbRotatedDimension
  0
DIMENSION
  5
20F
330
1F
100
AcDbEntity
  8
치수문자_일반주서
100
AcDbDimension
  2
*D16
 10
-71.13397459621552
 20
29.74996595351914
 30
0.0
 11
-21.13397459621552
 21
29.74996595351914
 31
0.0
 70
   160
  1
<>
 71
     2
 42
100.0
  3
SLDDIMSTYLE1
100
AcDbAlignedDimension
 13
28.86602540378448
 23
4.880432808909362
 33
0.0
 14
-71.13397459621552
 24
4.001074928723895
 34
0.0
 50
0.0000000000000041
100
AcDbRotatedDimension
  0
INSERT
  5
210
330
1F
100
AcDbEntity
  8
해칭선
100
AcDbBlockReference
  2
SW_DOWELSYMBOL_0
 10
0.0
 20
0.0
 30
0.0
  0
LINE
  5
24E
330
1F
100
AcDbEntity
  8
0
100
AcDbLine
 10
28.86602540378448
 20
5.001074928723924
 30
0.0
 11
28.63921916778856
 21
5.001074928723924
 31
0.0
  0
ARC
  5
250
330
1F
100
AcDbEntity
  8
외형선
  6
Continuous
 62
     1
370
    15
100
AcDbCircle
 10
28.66602540378448
 20
4.801074928723923
 30
0.0
 40
0.2000000000000001
100
AcDbArc
 50
0.0
 51
75.44207248711221
1001
PE_URL
1000

  0
ARC
  5
253
102
{ACAD_REACTORS
102
}
330
1F
100
AcDbEntity
  8
외형선
  6
Continuous
 62
     1
370
    15
100
AcDbCircle
 10
28.66602540378448
 20
-4.798925071276147
 30
0.0
 40
0.2000000000000001
100
AcDbArc
 50
283.4403972816599
 51
0.0
1001
PE_URL
1000

  0
DIMENSION
  5
254
102
{ACAD_REACTORS
102
}
102
{ACAD_XDICTIONARY
360
255
102
}
330
1F
100
AcDbEntity
  8
치수문자_일반주서
100
AcDbDimension
  2
*D18
 10
28.66602540378448
 20
-4.798925071276147
 30
0.0
 11
41.70080731049931
 21
-18.90234643164571
 31
0.0
 70
   164
 71
     5
 42
0.1999999999999992
  3
SLDDIMSTYLE1
100
AcDbRadialDimension
 15
28.80177271104013
 25
-4.945801443007063
 35
0.0
 40
0.0
1001
ACAD
1000
DSTYLE
1002
{
1070
    78
1070
     8
1002
}
1001
ACAD_DSTYLE_DIMRADIAL_EXTENSION
1070
   387
1070
     1
1070
   388
1040
4.946968165725751
1070
   390
1040
0.0
1001
PE_URL
1000

  0
ENDSEC
  0
SECTION
  2
OBJECTS
  0
DICTIONARY
  5
C
330
0
100
AcDbDictionary
281
     1
  3
ACAD_GROUP
350
D
  3
ACAD_LAYOUT
350
1A
  3
ACAD_MLINESTYLE
350
17
  3
ACAD_PLOTSETTINGS
350
19
  3
ACAD_PLOTSTYLENAME
350
E
  3
ACAD_SCALELIST
350
47
  3
APPDATA
350
128
  3
DWGPROPS
350
263
  0
DICTIONARY
  5
1AF
330
2
100
AcDbDictionary
280
     1
281
     1
  3
ACAD_LAYERSTATES
360
1B0
  0
DICTIONARY
  5
251
330
1F
100
AcDbDictionary
280
     1
281
     1
  3
ACAD_SORTENTS
360
252
  3
DIM_BOUNDING_BOXES_V1
360
261
  0
DICTIONARY
  5
255
330
254
100
AcDbDictionary
280
     1
281
     1
  0
DICTIONARY
  5
D
102
{ACAD_REACTORS
330
C
102
}
330
C
100
AcDbDictionary
281
     1
  0
DICTIONARY
  5
1A
102
{ACAD_REACTORS
330
C
102
}
330
C
100
AcDbDictionary
281
     1
  3
Layout1
350
1E
  3
Layout2
350
26
  3
Model
350
22
  0
DICTIONARY
  5
17
102
{ACAD_REACTORS
330
C
102
}
330
C
100
AcDbDictionary
281
     1
  3
Standard
350
18
  0
DICTIONARY
  5
19
102
{ACAD_REACTORS
330
C
102
}
330
C
100
AcDbDictionary
281
     1
  0
ACDBDICTIONARYWDFLT
  5
E
102
{ACAD_REACTORS
330
C
102
}
330
C
100
AcDbDictionary
281
     1
  3
Normal
350
F
100
AcDbDictionaryWithDefault
340
F
  0
DICTIONARY
  5
47
102
{ACAD_REACTORS
330
C
102
}
330
C
100
AcDbDictionary
281
     1
  3
A0
350
48
  3
A1
350
49
  3
A2
350
4A
  3
A3
350
4B
  3
A4
350
4C
  3
A5
350
4D
  3
A6
350
4E
  3
A7
350
4F
  3
A8
350
50
  3
A9
350
51
  3
B0
350
52
  3
B1
350
53
  3
B2
350
54
  3
B3
350
55
  3
B4
350
56
  3
B5
350
57
  3
B6
350
58
  3
B7
350
59
  3
B8
350
5A
  3
B9
350
5B
  3
C0
350
5C
  3
C1
350
5D
  3
C2
350
5E
  3
C3
350
5F
  3
C4
350
60
  3
C5
350
61
  3
C6
350
62
  3
C7
350
63
  3
C8
350
64
  3
C9
350
65
  3
D0
350
66
  3
D1
350
67
  3
D2
350
68
  0
DICTIONARY
  5
128
102
{ACAD_REACTORS
330
C
102
}
330
C
100
AcDbDictionary
281
     1
  0
XRECORD
  5
263
102
{ACAD_REACTORS
330
C
102
}
330
C
100
AcDbXrecord
280
     1
  1
DWGPROPS COOKIE
  2

  3

  4

  6

  7

  8
12016016
  9

300
=
301
=
302
=
303
=
304
=
305
=
306
=
307
=
308
=
309
=
 40
0.0
 41
2458269.441638079
 42
2459702.127996134
  1

 90
        0
  0
DICTIONARY
  5
1B0
102
{ACAD_REACTORS
330
1AF
102
}
330
1AF
100
AcDbDictionary
281
     1
  0
SORTENTSTABLE
  5
252
102
{ACAD_REACTORS
330
251
102
}
330
251
100
AcDbSortentsTable
330
1F
  0
DICTIONARY
  5
261
102
{ACAD_REACTORS
330
251
102
}
330
251
100
AcDbDictionary
281
     1
  0
LAYOUT
  5
1E
102
{ACAD_REACTORS
330
1A
102
}
330
1A
100
AcDbPlotSettings
  1

  2
none_device
  4

  6

 40
0.0
 41
0.0
 42
0.0
 43
0.0
 44
0.0
 45
0.0
 46
0.0
 47
0.0
 48
0.0
 49
0.0
140
0.0
141
0.0
142
1.0
143
1.0
 70
   688
 72
     1
 73
     0
 74
     5
  7

 75
    16
147
1.0
148
0.0
149
0.0
100
AcDbLayout
  1
Layout1
 70
     1
 71
     1
 10
0.0
 20
0.0
 11
420.0
 21
297.0
 12
0.0
 22
0.0
 32
0.0
 14
1.000000000000000E+20
 24
1.000000000000000E+20
 34
1.000000000000000E+20
 15
-1.000000000000000E+20
 25
-1.000000000000000E+20
 35
-1.000000000000000E+20
146
0.0
 13
0.0
 23
0.0
 33
0.0
 16
1.0
 26
0.0
 36
0.0
 17
0.0
 27
1.0
 37
0.0
 76
     0
330
1B
  0
LAYOUT
  5
26
102
{ACAD_REACTORS
330
1A
102
}
330
1A
100
AcDbPlotSettings
  1

  2
none_device
  4

  6

 40
0.0
 41
0.0
 42
0.0
 43
0.0
 44
0.0
 45
0.0
 46
0.0
 47
0.0
 48
0.0
 49
0.0
140
0.0
141
0.0
142
1.0
143
1.0
 70
   688
 72
     1
 73
     0
 74
     5
  7

 75
    16
147
1.0
148
0.0
149
0.0
100
AcDbLayout
  1
Layout2
 70
     1
 71
     2
 10
0.0
 20
0.0
 11
0.0
 21
0.0
 12
0.0
 22
0.0
 32
0.0
 14
0.0
 24
0.0
 34
0.0
 15
0.0
 25
0.0
 35
0.0
146
0.0
 13
0.0
 23
0.0
 33
0.0
 16
1.0
 26
0.0
 36
0.0
 17
0.0
 27
1.0
 37
0.0
 76
     0
330
23
  0
LAYOUT
  5
22
102
{ACAD_REACTORS
330
1A
102
}
330
1A
100
AcDbPlotSettings
  1

  2
none_device
  4
ANSI_A_(11.00_x_8.50_Inches)
  6

 40
6.35
 41
19.05
 42
6.35000508
 43
19.05000254
 44
279.4
 45
215.9
 46
110.7265618538769
 47
105.4857393699295
 48
0.0
 49
0.0
140
0.0
141
0.0
142
0.0788757687588336
143
1.0
 70
  1696
 72
     0
 73
     0
 74
     0
  7

 75
     0
147
0.0235690232323232
148
0.0
149
0.0
100
AcDbLayout
  1
Model
 70
     1
 71
     0
 10
0.0
 20
0.0
 11
420.0
 21
297.0
 12
0.0
 22
0.0
 32
0.0
 14
-87.90897459621553
 24
-49.97180738881174
 34
0.0
 15
79.73835494594202
 25
34.12496595351914
 35
0.0
146
0.0
 13
0.0
 23
0.0
 33
0.0
 16
1.0
 26
0.0
 36
0.0
 17
0.0
 27
1.0
 37
0.0
 76
     0
330
1F
331
29
  0
MLINESTYLE
  5
18
102
{ACAD_REACTORS
330
17
102
}
330
17
100
AcDbMlineStyle
  2
Standard
 70
     0
  3

 62
   256
 51
90.0
 52
90.0
 71
     2
 49
0.5
 62
   256
  6
BYLAYER
 49
-0.5
 62
   256
  6
BYLAYER
  0
ACDBPLACEHOLDER
  5
F
102
{ACAD_REACTORS
330
E
102
}
330
E
  0
SCALE
  5
48
102
{ACAD_REACTORS
330
47
102
}
330
47
100
AcDbScale
 70
     0
300
1:1
140
1.0
141
1.0
290
     1
  0
SCALE
  5
49
102
{ACAD_REACTORS
330
47
102
}
330
47
100
AcDbScale
 70
     0
300
1:2
140
1.0
141
2.0
290
     0
  0
SCALE
  5
4A
102
{ACAD_REACTORS
330
47
102
}
330
47
100
AcDbScale
 70
     0
300
1:4
140
1.0
141
4.0
290
     0
  0
SCALE
  5
4B
102
{ACAD_REACTORS
330
47
102
}
330
47
100
AcDbScale
 70
     0
300
1:5
140
1.0
141
5.0
290
     0
  0
SCALE
  5
4C
102
{ACAD_REACTORS
330
47
102
}
330
47
100
AcDbScale
 70
     0
300
1:8
140
1.0
141
8.0
290
     0
  0
SCALE
  5
4D
102
{ACAD_REACTORS
330
47
102
}
330
47
100
AcDbScale
 70
     0
300
1:10
140
1.0
141
10.0
290
     0
  0
SCALE
  5
4E
102
{ACAD_REACTORS
330
47
102
}
330
47
100
AcDbScale
 70
     0
300
1:16
140
1.0
141
16.0
290
     0
  0
SCALE
  5
4F
102
{ACAD_REACTORS
330
47
102
}
330
47
100
AcDbScale
 70
     0
300
1:20
140
1.0
141
20.0
290
     0
  0
SCALE
  5
50
102
{ACAD_REACTORS
330
47
102
}
330
47
100
AcDbScale
 70
     0
300
1:30
140
1.0
141
30.0
290
     0
  0
SCALE
  5
51
102
{ACAD_REACTORS
330
47
102
}
330
47
100
AcDbScale
 70
     0
300
1:40
140
1.0
141
40.0
290
     0
  0
SCALE
  5
52
102
{ACAD_REACTORS
330
47
102
}
330
47
100
AcDbScale
 70
     0
300
1:50
140
1.0
141
50.0
290
     0
  0
SCALE
  5
53
102
{ACAD_REACTORS
330
47
102
}
330
47
100
AcDbScale
 70
     0
300
1:100
140
1.0
141
100.0
290
     0
  0
SCALE
  5
54
102
{ACAD_REACTORS
330
47
102
}
330
47
100
AcDbScale
 70
     0
300
2:1
140
2.0
141
1.0
290
     0
  0
SCALE
  5
55
102
{ACAD_REACTORS
330
47
102
}
330
47
100
AcDbScale
 70
     0
300
4:1
140
4.0
141
1.0
290
     0
  0
SCALE
  5
56
102
{ACAD_REACTORS
330
47
102
}
330
47
100
AcDbScale
 70
     0
300
8:1
140
8.0
141
1.0
290
     0
  0
SCALE
  5
57
102
{ACAD_REACTORS
330
47
102
}
330
47
100
AcDbScale
 70
     0
300
10:1
140
10.0
141
1.0
290
     0
  0
SCALE
  5
58
102
{ACAD_REACTORS
330
47
102
}
330
47
100
AcDbScale
 70
     0
300
100:1
140
100.0
141
1.0
290
     0
  0
SCALE
  5
59
102
{ACAD_REACTORS
330
47
102
}
330
47
100
AcDbScale
 70
     0
300
1/128" = 1'-0"
140
0.0078125
141
12.0
290
     0
  0
SCALE
  5
5A
102
{ACAD_REACTORS
330
47
102
}
330
47
100
AcDbScale
 70
     0
300
1/64" = 1'-0"
140
0.015625
141
12.0
290
     0
  0
SCALE
  5
5B
102
{ACAD_REACTORS
330
47
102
}
330
47
100
AcDbScale
 70
     0
300
1/32" = 1'-0"
140
0.03125
141
12.0
290
     0
  0
SCALE
  5
5C
102
{ACAD_REACTORS
330
47
102
}
330
47
100
AcDbScale
 70
     0
300
1/16" = 1'-0"
140
0.0625
141
12.0
290
     0
  0
SCALE
  5
5D
102
{ACAD_REACTORS
330
47
102
}
330
47
100
AcDbScale
 70
     0
300
3/32" = 1'-0"
140
0.09375
141
12.0
290
     0
  0
SCALE
  5
5E
102
{ACAD_REACTORS
330
47
102
}
330
47
100
AcDbScale
 70
     0
300
1/8" = 1'-0"
140
0.125
141
12.0
290
     0
  0
SCALE
  5
5F
102
{ACAD_REACTORS
330
47
102
}
330
47
100
AcDbScale
 70
     0
300
3/16" = 1'-0"
140
0.1875
141
12.0
290
     0
  0
SCALE
  5
60
102
{ACAD_REACTORS
330
47
102
}
330
47
100
AcDbScale
 70
     0
300
1/4" = 1'-0"
140
0.25
141
12.0
290
     0
  0
SCALE
  5
61
102
{ACAD_REACTORS
330
47
102
}
330
47
100
AcDbScale
 70
     0
300
3/8" = 1'-0"
140
0.375
141
12.0
290
     0
  0
SCALE
  5
62
102
{ACAD_REACTORS
330
47
102
}
330
47
100
AcDbScale
 70
     0
300
1/2" = 1'-0"
140
0.5
141
12.0
290
     0
  0
SCALE
  5
63
102
{ACAD_REACTORS
330
47
102
}
330
47
100
AcDbScale
 70
     0
300
3/4" = 1'-0"
140
0.75
141
12.0
290
     0
  0
SCALE
  5
64
102
{ACAD_REACTORS
330
47
102
}
330
47
100
AcDbScale
 70
     0
300
1" = 1'-0"
140
1.0
141
12.0
290
     0
  0
SCALE
  5
65
102
{ACAD_REACTORS
330
47
102
}
330
47
100
AcDbScale
 70
     0
300
1-1/2" = 1'-0"
140
1.5
141
12.0
290
     0
  0
SCALE
  5
66
102
{ACAD_REACTORS
330
47
102
}
330
47
100
AcDbScale
 70
     0
300
3" = 1'-0"
140
3.0
141
12.0
290
     0
  0
SCALE
  5
67
102
{ACAD_REACTORS
330
47
102
}
330
47
100
AcDbScale
 70
     0
300
6" = 1'-0"
140
6.0
141
12.0
290
     0
  0
SCALE
  5
68
102
{ACAD_REACTORS
330
47
102
}
330
47
100
AcDbScale
 70
     0
300
1'-0" = 1'-0"
140
12.0
141
12.0
290
     0
  0
ENDSEC
  0
EOF
