  0
SECTION
  2
HEADER
  9
$ACADVER
  1
AC1015
  9
$ACADMAINTVER
 70
     6
  9
$DWGCODEPAGE
  3
ANSI_949
  9
$INSBASE
 10
0.0
 20
0.0
 30
0.0
  9
$EXTMIN
 10
-84.37500000000007
 20
-49.99899573428361
 30
0.0
  9
$EXTMAX
 10
50.51348381534558
 20
28.34781165452813
 30
0.0
  9
$LIMMIN
 10
0.0
 20
0.0
  9
$LIMMAX
 10
420.0
 20
297.0
  9
$ORTHOMODE
 70
     1
  9
$REGENMODE
 70
     1
  9
$FILLMODE
 70
     1
  9
$QTEXTMODE
 70
     0
  9
$MIRRTEXT
 70
     1
  9
$LTSCALE
 40
1.0
  9
$ATTMODE
 70
     1
  9
$TEXTSIZE
 40
3.5
  9
$TRACEWID
 40
1.0
  9
$TEXTSTYLE
  7
Standard
  9
$CLAYER
  8
0
  9
$CELTYPE
  6
ByLayer
  9
$CECOLOR
 62
   256
  9
$CELTSCALE
 40
1.0
  9
$DISPSILH
 70
     0
  9
$DIMSCALE
 40
1.0
  9
$DIMASZ
 40
3.302
  9
$DIMEXO
 40
1.0
  9
$DIMDLI
 40
3.75
  9
$DIMRND
 40
0.0
  9
$DIMDLE
 40
0.0
  9
$DIMEXE
 40
1.0
  9
$DIMTP
 40
0.0
  9
$DIMTM
 40
0.0
  9
$DIMTXT
 40
3.5
  9
$DIMCEN
 40
2.5
  9
$DIMTSZ
 40
0.0
  9
$DIMTOL
 70
     0
  9
$DIMLIM
 70
     0
  9
$DIMTIH
 70
     1
  9
$DIMTOH
 70
     1
  9
$DIMSE1
 70
     0
  9
$DIMSE2
 70
     0
  9
$DIMTAD
 70
     1
  9
$DIMZIN
 70
     0
  9
$DIMBLK
  1

  9
$DIMASO
 70
     1
  9
$DIMSHO
 70
     1
  9
$DIMPOST
  1

  9
$DIMAPOST
  1

  9
$DIMALT
 70
     0
  9
$DIMALTD
 70
     3
  9
$DIMALTF
 40
0.0393700787401575
  9
$DIMLFAC
 40
1.0
  9
$DIMTOFL
 70
     1
  9
$DIMTVP
 40
0.0
  9
$DIMTIX
 70
     0
  9
$DIMSOXD
 70
     0
  9
$DIMSAH
 70
     0
  9
$DIMBLK1
  1

  9
$DIMBLK2
  1

  9
$DIMSTYLE
  2
ISO-25
  9
$DIMCLRD
 70
     0
  9
$DIMCLRE
 70
     0
  9
$DIMCLRT
 70
     0
  9
$DIMTFAC
 40
1.0
  9
$DIMGAP
 40
1.524
  9
$DIMJUST
 70
     0
  9
$DIMSD1
 70
     0
  9
$DIMSD2
 70
     0
  9
$DIMTOLJ
 70
     0
  9
$DIMTZIN
 70
     0
  9
$DIMALTZ
 70
     0
  9
$DIMALTTZ
 70
     0
  9
$DIMUPT
 70
     0
  9
$DIMDEC
 70
     2
  9
$DIMTDEC
 70
     2
  9
$DIMALTU
 70
     2
  9
$DIMALTTD
 70
     3
  9
$DIMTXSTY
  7
Standard
  9
$DIMAUNIT
 70
     0
  9
$DIMADEC
 70
     2
  9
$DIMALTRND
 40
0.0
  9
$DIMAZIN
 70
     0
  9
$DIMDSEP
 70
    44
  9
$DIMATFIT
 70
     3
  9
$DIMFRAC
 70
     0
  9
$DIMLDRBLK
  1

  9
$DIMLUNIT
 70
     2
  9
$DIMLWD
 70
    -2
  9
$DIMLWE
 70
    -2
  9
$DIMTMOVE
 70
     0
  9
$LUNITS
 70
     2
  9
$LUPREC
 70
     2
  9
$SKETCHINC
 40
1.0
  9
$FILLETRAD
 40
10.0
  9
$AUNITS
 70
     0
  9
$AUPREC
 70
     2
  9
$MENU
  1
.
  9
$ELEVATION
 40
0.0
  9
$PELEVATION
 40
0.0
  9
$THICKNESS
 40
0.0
  9
$LIMCHECK
 70
     0
  9
$CHAMFERA
 40
0.0
  9
$CHAMFERB
 40
0.0
  9
$CHAMFERC
 40
0.0
  9
$CHAMFERD
 40
0.0
  9
$SKPOLY
 70
     0
  9
$TDCREATE
 40
2458269.81626
  9
$TDUCREATE
 40
2458269.44126
  9
$TDUPDATE
 40
2458270.846370544
  9
$TDUUPDATE
 40
2458270.471370544
  9
$TDINDWG
 40
0.0040781597
  9
$TDUSRTIMER
 40
0.0040781481
  9
$USRTIMER
 70
     1
  9
$ANGBASE
 50
0.0
  9
$ANGDIR
 70
     0
  9
$PDMODE
 70
     0
  9
$PDSIZE
 40
-1.0
  9
$PLINEWID
 40
0.0
  9
$SPLFRAME
 70
     0
  9
$SPLINETYPE
 70
     6
  9
$SPLINESEGS
 70
     8
  9
$HANDSEED
  5
1CE
  9
$SURFTAB1
 70
     6
  9
$SURFTAB2
 70
     6
  9
$SURFTYPE
 70
     6
  9
$SURFU
 70
     6
  9
$SURFV
 70
     6
  9
$UCSBASE
  2

  9
$UCSNAME
  2

  9
$UCSORG
 10
0.0
 20
0.0
 30
0.0
  9
$UCSXDIR
 10
1.0
 20
0.0
 30
0.0
  9
$UCSYDIR
 10
0.0
 20
1.0
 30
0.0
  9
$UCSORTHOREF
  2

  9
$UCSORTHOVIEW
 70
     0
  9
$UCSORGTOP
 10
0.0
 20
0.0
 30
0.0
  9
$UCSORGBOTTOM
 10
0.0
 20
0.0
 30
0.0
  9
$UCSORGLEFT
 10
0.0
 20
0.0
 30
0.0
  9
$UCSORGRIGHT
 10
0.0
 20
0.0
 30
0.0
  9
$UCSORGFRONT
 10
0.0
 20
0.0
 30
0.0
  9
$UCSORGBACK
 10
0.0
 20
0.0
 30
0.0
  9
$PUCSBASE
  2

  9
$PUCSNAME
  2

  9
$PUCSORG
 10
0.0
 20
0.0
 30
0.0
  9
$PUCSXDIR
 10
1.0
 20
0.0
 30
0.0
  9
$PUCSYDIR
 10
0.0
 20
1.0
 30
0.0
  9
$PUCSORTHOREF
  2

  9
$PUCSORTHOVIEW
 70
     0
  9
$PUCSORGTOP
 10
0.0
 20
0.0
 30
0.0
  9
$PUCSORGBOTTOM
 10
0.0
 20
0.0
 30
0.0
  9
$PUCSORGLEFT
 10
0.0
 20
0.0
 30
0.0
  9
$PUCSORGRIGHT
 10
0.0
 20
0.0
 30
0.0
  9
$PUCSORGFRONT
 10
0.0
 20
0.0
 30
0.0
  9
$PUCSORGBACK
 10
0.0
 20
0.0
 30
0.0
  9
$USERI1
 70
     0
  9
$USERI2
 70
     0
  9
$USERI3
 70
     0
  9
$USERI4
 70
     0
  9
$USERI5
 70
     0
  9
$USERR1
 40
0.0
  9
$USERR2
 40
0.0
  9
$USERR3
 40
0.0
  9
$USERR4
 40
0.0
  9
$USERR5
 40
0.0
  9
$WORLDVIEW
 70
     1
  9
$SHADEDGE
 70
     3
  9
$SHADEDIF
 70
    70
  9
$TILEMODE
 70
     1
  9
$MAXACTVP
 70
    64
  9
$PINSBASE
 10
0.0
 20
0.0
 30
0.0
  9
$PLIMCHECK
 70
     0
  9
$PEXTMIN
 10
1.000000000000000E+20
 20
1.000000000000000E+20
 30
1.000000000000000E+20
  9
$PEXTMAX
 10
-1.000000000000000E+20
 20
-1.000000000000000E+20
 30
-1.000000000000000E+20
  9
$PLIMMIN
 10
0.0
 20
0.0
  9
$PLIMMAX
 10
0.0
 20
0.0
  9
$UNITMODE
 70
     0
  9
$VISRETAIN
 70
     1
  9
$PLINEGEN
 70
     0
  9
$PSLTSCALE
 70
     1
  9
$TREEDEPTH
 70
  3020
  9
$CMLSTYLE
  2
Standard
  9
$CMLJUST
 70
     0
  9
$CMLSCALE
 40
20.0
  9
$PROXYGRAPHICS
 70
     1
  9
$MEASUREMENT
 70
     1
  9
$CELWEIGHT
370
    -1
  9
$ENDCAPS
280
     0
  9
$JOINSTYLE
280
     0
  9
$LWDISPLAY
290
     1
  9
$INSUNITS
 70
     4
  9
$HYPERLINKBASE
  1

  9
$STYLESHEET
  1

  9
$XEDIT
290
     1
  9
$CEPSNTYPE
380
     0
  9
$PSTYLEMODE
290
     1
  9
$FINGERPRINTGUID
  2
{5D29261E-62A2-4E30-ACB3-99ACF2CE3646}
  9
$VERSIONGUID
  2
{FAEB1C32-E019-11D5-929B-00C0DF256EC4}
  9
$EXTNAMES
290
     1
  9
$PSVPSCALE
 40
0.0
  9
$OLESTARTUP
290
     0
  0
ENDSEC
  0
SECTION
  2
CLASSES
  0
CLASS
  1
ACDBDICTIONARYWDFLT
  2
AcDbDictionaryWithDefault
  3
ObjectDBX Classes
 90
        0
280
     0
281
     0
  0
CLASS
  1
VISUALSTYLE
  2
AcDbVisualStyle
  3
ObjectDBX Classes
 90
     4095
280
     0
281
     0
  0
CLASS
  1
MATERIAL
  2
AcDbMaterial
  3
ObjectDBX Classes
 90
     1153
280
     0
281
     0
  0
CLASS
  1
SCALE
  2
AcDbScale
  3
ObjectDBX Classes
 90
     1153
280
     0
281
     0
  0
CLASS
  1
SUN
  2
AcDbSun
  3
SCENEOE
 90
     1153
280
     0
281
     0
  0
CLASS
  1
ACDBPLACEHOLDER
  2
AcDbPlaceHolder
  3
ObjectDBX Classes
 90
        0
280
     0
281
     0
  0
CLASS
  1
LAYOUT
  2
AcDbLayout
  3
ObjectDBX Classes
 90
        0
280
     0
281
     0
  0
CLASS
  1
TABLESTYLE
  2
AcDbTableStyle
  3
ObjectDBX Classes
 90
     4095
280
     0
281
     0
  0
CLASS
  1
MLEADERSTYLE
  2
AcDbMLeaderStyle
  3
ACDB_MLEADERSTYLE_CLASS
 90
     4095
280
     0
281
     0
  0
CLASS
  1
DICTIONARYVAR
  2
AcDbDictionaryVar
  3
ObjectDBX Classes
 90
        0
280
     0
281
     0
  0
CLASS
  1
DIMASSOC
  2
AcDbDimAssoc
  3
"AcDbDimAssoc|Product Desc:     AcDim ARX App For Dimension|Company:          Autodesk, Inc.|WEB Address:      www.autodesk.com"
 90
        0
280
     0
281
     0
  0
ENDSEC
  0
SECTION
  2
TABLES
  0
TABLE
  2
VPORT
  5
8
330
0
100
AcDbSymbolTable
 70
     1
  0
VPORT
  5
29
330
8
100
AcDbSymbolTableRecord
100
AcDbViewportTableRecord
  2
*Active
 70
     0
 10
0.0
 20
0.0
 11
1.0
 21
1.0
 12
-16.93075809232725
 22
-10.82559203987774
 13
0.0
 23
0.0
 14
10.0
 24
10.0
 15
10.0
 25
10.0
 16
0.0
 26
0.0
 36
1.0
 17
0.0
 27
0.0
 37
0.0
 40
79.91374353658797
 41
2.05607476635514
 42
50.0
 43
0.0
 44
0.0
 50
0.0
 51
0.0
 71
    16
 72
  2000
 73
     1
 74
     3
 75
     0
 76
     0
 77
     0
 78
     0
281
     0
 65
     1
110
0.0
120
0.0
130
0.0
111
1.0
121
0.0
131
0.0
112
0.0
122
1.0
132
0.0
 79
     0
146
0.0
  0
ENDTAB
  0
TABLE
  2
LTYPE
  5
5
330
0
100
AcDbSymbolTable
 70
     6
  0
LTYPE
  5
14
330
5
100
AcDbSymbolTableRecord
100
AcDbLinetypeTableRecord
  2
ByBlock
 70
     0
  3

 72
    65
 73
     0
 40
0.0
  0
LTYPE
  5
15
330
5
100
AcDbSymbolTableRecord
100
AcDbLinetypeTableRecord
  2
ByLayer
 70
     0
  3

 72
    65
 73
     0
 40
0.0
  0
LTYPE
  5
16
330
5
100
AcDbSymbolTableRecord
100
AcDbLinetypeTableRecord
  2
Continuous
 70
     0
  3
Solid line
 72
    65
 73
     0
 40
0.0
  0
LTYPE
  5
6A
330
5
100
AcDbSymbolTableRecord
100
AcDbLinetypeTableRecord
  2
HIDDEN
 70
     0
  3
Hidden __ __ __ __ __ __ __ __ __ __ __ __ __ __
 72
    65
 73
     2
 40
1.905
 49
1.27
 74
     0
 49
-0.635
 74
     0
  0
LTYPE
  5
6B
330
5
100
AcDbSymbolTableRecord
100
AcDbLinetypeTableRecord
  2
PHANTOM
 70
     0
  3
Phantom ______  __  __  ______  __  __  ______
 72
    65
 73
     6
 40
12.7
 49
6.35
 74
     0
 49
-1.27
 74
     0
 49
1.27
 74
     0
 49
-1.27
 74
     0
 49
1.27
 74
     0
 49
-1.27
 74
     0
  0
LTYPE
  5
6C
330
5
100
AcDbSymbolTableRecord
100
AcDbLinetypeTableRecord
  2
CENTER
 70
     0
  3
Center ____ _ ____ _ ____ _ ____ _ ____ _ ____
 72
    65
 73
     4
 40
10.16
 49
6.35
 74
     0
 49
-1.27
 74
     0
 49
1.27
 74
     0
 49
-1.27
 74
     0
  0
LTYPE
  5
6D
330
5
100
AcDbSymbolTableRecord
100
AcDbLinetypeTableRecord
  2
CENTERX2
 70
     0
  3
Center (2x) ________  __  ________  __  _____
 72
    65
 73
     4
 40
20.32
 49
12.7
 74
     0
 49
-2.54
 74
     0
 49
2.54
 74
     0
 49
-2.54
 74
     0
  0
LTYPE
  5
6E
330
5
100
AcDbSymbolTableRecord
100
AcDbLinetypeTableRecord
  2
DOT2
 70
     0
  3
Dot (.5x) ........................................
 72
    65
 73
     2
 40
0.635
 49
0.0
 74
     0
 49
-0.635
 74
     0
  0
ENDTAB
  0
TABLE
  2
LAYER
  5
2
102
{ACAD_XDICTIONARY
360
16D
102
}
330
0
100
AcDbSymbolTable
 70
    18
  0
LAYER
  5
10
330
2
100
AcDbSymbolTableRecord
100
AcDbLayerTableRecord
  2
0
 70
     0
 62
     7
  6
Continuous
370
    -3
390
F
  0
LAYER
  5
6F
330
2
100
AcDbSymbolTableRecord
100
AcDbLayerTableRecord
  2
FORMAT
 70
     0
 62
     2
  6
Continuous
370
    -3
390
F
  0
LAYER
  5
70
330
2
100
AcDbSymbolTableRecord
100
AcDbLayerTableRecord
  2
외형선
 70
     0
 62
     4
  6
Continuous
370
    30
390
F
  0
LAYER
  5
71
330
2
100
AcDbSymbolTableRecord
100
AcDbLayerTableRecord
  2
숨은선
 70
     0
 62
     2
  6
HIDDEN
370
    15
390
F
  0
LAYER
  5
72
330
2
100
AcDbSymbolTableRecord
100
AcDbLayerTableRecord
  2
중심선
 70
     0
 62
     1
  6
CENTERX2
370
    -3
390
F
  0
LAYER
  5
73
330
2
100
AcDbSymbolTableRecord
100
AcDbLayerTableRecord
  2
파단선
 70
     0
 62
     4
  6
Continuous
370
    -3
390
F
  0
LAYER
  5
74
330
2
100
AcDbSymbolTableRecord
100
AcDbLayerTableRecord
  2
해칭선
 70
     0
 62
   100
  6
Continuous
370
    -3
390
F
  0
LAYER
  5
75
330
2
100
AcDbSymbolTableRecord
100
AcDbLayerTableRecord
  2
가는실선
 70
     0
 62
     4
  6
Continuous
370
    -3
390
F
  0
LAYER
  5
76
330
2
100
AcDbSymbolTableRecord
100
AcDbLayerTableRecord
  2
치수_보조선
 70
     0
 62
     4
  6
Continuous
370
    -3
390
F
  0
LAYER
  5
77
330
2
100
AcDbSymbolTableRecord
100
AcDbLayerTableRecord
  2
치수문자_일반주서
 70
     0
 62
     7
  6
Continuous
370
    15
390
F
  0
LAYER
  5
78
330
2
100
AcDbSymbolTableRecord
100
AcDbLayerTableRecord
  2
개별주서
 70
     0
 62
   100
  6
Continuous
370
    30
390
F
  0
LAYER
  5
79
330
2
100
AcDbSymbolTableRecord
100
AcDbLayerTableRecord
  2
중간선
 70
     0
 62
     2
  6
Continuous
370
    15
390
F
  0
LAYER
  5
7A
330
2
100
AcDbSymbolTableRecord
100
AcDbLayerTableRecord
  2
윤곽선
 70
     0
 62
     3
  6
Continuous
370
    40
390
F
  0
LAYER
  5
7B
330
2
100
AcDbSymbolTableRecord
100
AcDbLayerTableRecord
  2
중심마크
 70
     0
 62
   100
  6
Continuous
370
    30
390
F
  0
LAYER
  5
7C
330
2
100
AcDbSymbolTableRecord
100
AcDbLayerTableRecord
  2
가상선
 70
     0
 62
     4
  6
PHANTOM
370
    -3
390
F
  0
LAYER
  5
7D
330
2
100
AcDbSymbolTableRecord
100
AcDbLayerTableRecord
  2
특수지정선
 70
     0
 62
     5
  6
CENTERX2
370
    60
390
F
  0
LAYER
  5
7E
330
2
100
AcDbSymbolTableRecord
100
AcDbLayerTableRecord
  2
참조1
 70
     0
 62
    -4
  6
Continuous
370
    -3
390
F
  0
LAYER
  5
129
330
2
100
AcDbSymbolTableRecord
100
AcDbLayerTableRecord
  2
Defpoints
 70
     0
 62
     7
  6
Continuous
290
     0
370
    -3
390
F
  0
ENDTAB
  0
TABLE
  2
STYLE
  5
3
330
0
100
AcDbSymbolTable
 70
     2
  0
STYLE
  5
11
330
3
100
AcDbSymbolTableRecord
100
AcDbTextStyleTableRecord
  2
Standard
 70
     0
 40
0.0
 41
1.0
 50
0.0
 71
     0
 42
3.5
  3
txt
  4

  0
STYLE
  5
94
330
3
100
AcDbSymbolTableRecord
100
AcDbTextStyleTableRecord
  2
SLDTEXTSTYLE0
 70
     0
 40
0.0
 41
0.75
 50
0.0
 71
     0
 42
3.5
  3
TXT
  4

  0
ENDTAB
  0
TABLE
  2
VIEW
  5
6
330
0
100
AcDbSymbolTable
 70
     0
  0
ENDTAB
  0
TABLE
  2
UCS
  5
7
330
0
100
AcDbSymbolTable
 70
     0
  0
ENDTAB
  0
TABLE
  2
APPID
  5
9
330
0
100
AcDbSymbolTable
 70
     3
  0
APPID
  5
12
330
9
100
AcDbSymbolTableRecord
100
AcDbRegAppTableRecord
  2
ACAD
 70
     0
  0
APPID
  5
131
330
9
100
AcDbSymbolTableRecord
100
AcDbRegAppTableRecord
  2
PE_URL
 70
     0
  0
APPID
  5
132
330
9
100
AcDbSymbolTableRecord
100
AcDbRegAppTableRecord
  2
ACAD_DSTYLE_DIMRADIAL_EXTENSION
 70
     0
  0
ENDTAB
  0
TABLE
  2
DIMSTYLE
  5
A
330
0
100
AcDbSymbolTable
 70
     3
100
AcDbDimStyleTable
  0
DIMSTYLE
105
27
330
A
100
AcDbSymbolTableRecord
100
AcDbDimStyleTableRecord
  2
ISO-25
 70
     0
 41
2.5
 42
0.625
 43
3.75
 44
1.25
 73
     0
 74
     0
 77
     1
 78
     8
140
2.5
141
2.5
143
0.03937007874016
147
0.625
171
     3
172
     1
178
     0
271
     2
272
     2
274
     3
278
    44
283
     0
284
     8
340
11
  0
DIMSTYLE
105
C9
102
{ACAD_REACTORS
330
C8
330
D6
330
E3
330
151
330
ED
102
}
330
A
100
AcDbSymbolTableRecord
100
AcDbDimStyleTableRecord
  2
SLDDIMSTYLE0
 70
     0
 41
3.302
 44
0.0
 45
0.000000001
 73
     0
 74
     0
 77
     1
 78
    12
 79
     3
140
3.5
147
0.875
172
     1
173
     1
178
     0
271
     2
272
     2
276
     2
284
    12
289
     0
340
94
  0
DIMSTYLE
105
EE
102
{ACAD_REACTORS
330
161
330
1BF
102
}
330
A
100
AcDbSymbolTableRecord
100
AcDbDimStyleTableRecord
  2
SLDDIMSTYLE1
 70
     0
 41
3.302
 44
0.0
 45
0.000000001
 73
     0
 74
     0
 77
     1
 78
    12
 79
     3
140
3.5
147
0.875
173
     1
178
     0
271
     2
272
     2
276
     2
284
    12
340
94
  0
ENDTAB
  0
TABLE
  2
BLOCK_RECORD
  5
1
330
0
100
AcDbSymbolTable
 70
    13
  0
BLOCK_RECORD
  5
1F
330
1
100
AcDbSymbolTableRecord
100
AcDbBlockTableRecord
  2
*Model_Space
340
22
  0
BLOCK_RECORD
  5
1B
330
1
100
AcDbSymbolTableRecord
100
AcDbBlockTableRecord
  2
*Paper_Space
340
1E
  0
BLOCK_RECORD
  5
23
330
1
100
AcDbSymbolTableRecord
100
AcDbBlockTableRecord
  2
*Paper_Space0
340
26
  0
BLOCK_RECORD
  5
7F
330
1
100
AcDbSymbolTableRecord
100
AcDbBlockTableRecord
  2
블럭10
340
0
102
{BLKREFS
331
C1
102
}
  0
BLOCK_RECORD
  5
CA
330
1
100
AcDbSymbolTableRecord
100
AcDbBlockTableRecord
  2
_D
340
0
  0
BLOCK_RECORD
  5
D7
330
1
100
AcDbSymbolTableRecord
100
AcDbBlockTableRecord
  2
_D_1
340
0
  0
BLOCK_RECORD
  5
E4
330
1
100
AcDbSymbolTableRecord
100
AcDbBlockTableRecord
  2
_D_2
340
0
  0
BLOCK_RECORD
  5
EF
330
1
100
AcDbSymbolTableRecord
100
AcDbBlockTableRecord
  2
_D_3
340
0
  0
BLOCK_RECORD
  5
FF
330
1
100
AcDbSymbolTableRecord
100
AcDbBlockTableRecord
  2
SW_DOWELSYMBOL_0
340
0
102
{BLKREFS
331
105
102
}
  0
BLOCK_RECORD
  5
162
330
1
100
AcDbSymbolTableRecord
100
AcDbBlockTableRecord
  2
*D8
340
0
  0
BLOCK_RECORD
  5
171
330
1
100
AcDbSymbolTableRecord
100
AcDbBlockTableRecord
  2
*D9
340
0
  0
BLOCK_RECORD
  5
184
330
1
100
AcDbSymbolTableRecord
100
AcDbBlockTableRecord
  2
*D10
340
0
  0
BLOCK_RECORD
  5
193
330
1
100
AcDbSymbolTableRecord
100
AcDbBlockTableRecord
  2
*D11
340
0
  0
BLOCK_RECORD
  5
1C2
330
1
100
AcDbSymbolTableRecord
100
AcDbBlockTableRecord
  2
*D12
340
0
  0
ENDTAB
  0
ENDSEC
  0
SECTION
  2
BLOCKS
  0
BLOCK
  5
20
330
1F
100
AcDbEntity
  8
0
100
AcDbBlockBegin
  2
*Model_Space
 70
     0
 10
0.0
 20
0.0
 30
0.0
  3
*Model_Space
  1

  0
ENDBLK
  5
21
330
1F
100
AcDbEntity
  8
0
100
AcDbBlockEnd
  0
BLOCK
  5
1C
330
1B
100
AcDbEntity
 67
     1
  8
0
100
AcDbBlockBegin
  2
*Paper_Space
 70
     0
 10
0.0
 20
0.0
 30
0.0
  3
*Paper_Space
  1

  0
ENDBLK
  5
1D
330
1B
100
AcDbEntity
 67
     1
  8
0
100
AcDbBlockEnd
  0
BLOCK
  5
24
330
23
100
AcDbEntity
  8
0
100
AcDbBlockBegin
  2
*Paper_Space0
 70
     0
 10
0.0
 20
0.0
 30
0.0
  3
*Paper_Space0
  1

  0
ENDBLK
  5
25
330
23
100
AcDbEntity
  8
0
100
AcDbBlockEnd
  0
BLOCK
  5
80
330
7F
100
AcDbEntity
  8
0
100
AcDbBlockBegin
  2
블럭10
 70
     2
 10
0.0
 20
0.0
 30
0.0
  3
블럭10
  1

  0
ELLIPSE
  5
82
330
7F
100
AcDbEntity
  8
중심선
100
AcDbEllipse
 10
20.54032771741204
 20
12.0471743016438
 30
0.0
 11
6.600054785286829
 21
-1.261213355974178E-13
 31
0.0
210
0.0
220
0.0
230
1.0
 40
0.636358354079598
 41
0.9219305317359503
 42
6.513795318482858
  0
ELLIPSE
  5
83
330
7F
100
AcDbEntity
  8
중심선
100
AcDbEllipse
 10
20.54032771746488
 20
12.04717430159265
 30
0.0
 11
3.960054785062283
 21
1.540847449632565E-10
 31
0.0
210
0.0
220
0.0
230
1.0
 40
0.3939339440162632
 41
1.131841032648279
 42
5.62031148352944
  0
LINE
  5
84
330
7F
100
AcDbEntity
  8
중심선
100
AcDbLine
 10
2.268634060543552
 20
16.24717430164393
 30
0.0
 11
5.714909304380834
 21
16.24717430164393
 31
0.0
  0
LINE
  5
85
330
7F
100
AcDbEntity
  8
중심선
100
AcDbLine
 10
5.245725140726316
 20
7.84717430164391
 30
0.0
 11
8.692000384563599
 21
7.84717430164391
 31
0.0
  0
LINE
  5
86
330
7F
100
AcDbEntity
  8
중심선
100
AcDbLine
 10
15.74043728645272
 20
16.24717430164393
 30
0.0
 11
8.692000384563599
 21
7.84717430164391
 31
0.0
  0
LINE
  5
87
330
7F
100
AcDbEntity
  8
중심선
100
AcDbLine
 10
0.1404042013395286
 20
13.71084872107135
 30
0.0
 11
3.58671253028996
 21
13.71088815037384
 31
0.0
  0
LINE
  5
88
330
7F
100
AcDbEntity
  8
중심선
100
AcDbLine
 10
2.750260043222114
 20
10.84717430164391
 30
0.0
 11
6.196535287059397
 21
10.84717430164391
 31
0.0
  0
LINE
  5
89
330
7F
100
AcDbEntity
  8
중심선
100
AcDbLine
 10
12.29416204261559
 20
16.24717430164393
 30
0.0
 11
5.245725140726316
 21
7.84717430164391
 31
0.0
  0
LINE
  5
8A
330
7F
100
AcDbEntity
  8
중심선
100
AcDbLine
 10
10.72767329541681
 20
16.24717430164393
 30
0.0
 11
6.196535287059397
 21
10.84717430164391
 31
0.0
  0
LINE
  5
8B
330
7F
100
AcDbEntity
  8
중심선
100
AcDbLine
 10
7.28139805157953
 20
16.24717430164393
 30
0.0
 11
2.750260043222114
 21
10.84717430164391
 31
0.0
  0
LINE
  5
8C
330
7F
100
AcDbEntity
  8
중심선
100
AcDbLine
 10
5.714909304380834
 20
16.24717430164393
 30
0.0
 11
3.58671253028996
 21
13.71088815037384
 31
0.0
  0
LINE
  5
8D
330
7F
100
AcDbEntity
  8
중심선
100
AcDbLine
 10
2.268634060543552
 20
16.24717430164393
 30
0.0
 11
0.1404042013395286
 21
13.71084872107135
 31
0.0
  0
LINE
  5
8E
330
7F
100
AcDbEntity
  8
중심선
100
AcDbLine
 10
7.28139805157953
 20
16.24717430164393
 30
0.0
 11
10.72767329541681
 21
16.24717430164393
 31
0.0
  0
LINE
  5
8F
330
7F
100
AcDbEntity
  8
중심선
100
AcDbLine
 10
12.29416204261559
 20
16.24717430164393
 30
0.0
 11
15.74043728645272
 21
16.24717430164393
 31
0.0
  0
LINE
  5
90
330
7F
100
AcDbEntity
  8
중심선
100
AcDbLine
 10
19.22036997980202
 20
11.08717430171403
 30
0.0
 11
23.66174974927406
 21
11.08717430171406
 31
0.0
  0
LINE
  5
91
330
7F
100
AcDbEntity
  8
중심선
100
AcDbLine
 10
19.22039502424796
 20
13.00717430171391
 30
0.0
 11
19.22036997980202
 21
11.08717430171403
 31
0.0
  0
LINE
  5
92
330
7F
100
AcDbEntity
  8
중심선
100
AcDbLine
 10
19.22039502424796
 20
13.00717430171391
 30
0.0
 11
26.96566020931264
 21
13.00717430171391
 31
0.0
  0
LINE
  5
93
330
7F
100
AcDbEntity
  8
중심선
100
AcDbLine
 10
22.22332737316547
 20
13.45928029700563
 30
0.0
 11
24.52862924686651
 21
15.39360700705356
 31
0.0
  0
ATTDEF
  5
95
330
7F
100
AcDbEntity
  8
FORMAT
 62
     2
100
AcDbText
 10
-16.11926103943555
 20
2.075366912832191
 30
0.0
 40
4.233333333333333
  1
SEME0108030E [ 4 FLUTE ]
 41
0.75
  7
SLDTEXTSTYLE0
 11
-16.11926103943555
 21
-0.0412997538344756
 31
0.0
100
AcDbAttributeDefinition
  3

  2
AUTOATTR0
 70
     0
 74
     1
  0
ENDBLK
  5
81
330
7F
100
AcDbEntity
  8
0
100
AcDbBlockEnd
  0
BLOCK
  5
CB
330
CA
100
AcDbEntity
  8
0
100
AcDbBlockBegin
  2
_D
 70
     0
 10
0.0
 20
0.0
 30
0.0
  3
_D
  1

  0
LINE
  5
CD
330
CA
100
AcDbEntity
  8
치수문자_일반주서
 62
     0
370
    -2
100
AcDbLine
 10
30.06249999999999
 20
3.972811654528127
 30
0.0
 11
39.99999999999997
 21
3.972811654528163
 31
0.0
  0
LINE
  5
CE
330
CA
100
AcDbEntity
  8
치수문자_일반주서
 62
     0
370
    -2
100
AcDbLine
 10
30.06249999999999
 20
-4.027188345471873
 30
0.0
 11
40.0
 21
-4.027188345471838
 31
0.0
  0
LINE
  5
CF
330
CA
100
AcDbEntity
  8
치수문자_일반주서
 62
     0
370
    -2
100
AcDbLine
 10
39.99999999999997
 20
3.972811654528163
 30
0.0
 11
39.99999999999992
 21
16.70181165452819
 31
0.0
  0
LINE
  5
D0
330
CA
100
AcDbEntity
  8
치수문자_일반주서
 62
     0
370
    -2
100
AcDbLine
 10
39.99999999999997
 20
3.972811654528163
 30
0.0
 11
40.0
 21
-4.027188345471838
 31
0.0
  0
LINE
  5
D1
330
CA
100
AcDbEntity
  8
치수문자_일반주서
 62
     0
370
    -2
100
AcDbLine
 10
39.99999999999996
 20
7.274811654528163
 30
0.0
 11
39.99999999999994
 21
10.57681165452816
 31
0.0
  0
LINE
  5
D2
330
CA
100
AcDbEntity
  8
치수문자_일반주서
 62
     0
370
    -2
100
AcDbLine
 10
40.00000000000001
 20
-7.329188345471838
 30
0.0
 11
40.00000000000003
 21
-10.63118834547184
 31
0.0
  0
SOLID
  5
D3
330
CA
100
AcDbEntity
  8
치수문자_일반주서
 62
     0
100
AcDbTrace
 10
39.44966666666662
 20
7.274811654528161
 30
0.0
 11
40.55033333333329
 21
7.274811654528165
 31
0.0
 12
39.99999999999997
 22
3.972811654528163
 32
0.0
 13
39.99999999999997
 23
3.972811654528163
 33
0.0
  0
SOLID
  5
D4
330
CA
100
AcDbEntity
  8
치수문자_일반주서
 62
     0
100
AcDbTrace
 10
40.55033333333335
 20
-7.329188345471836
 30
0.0
 11
39.44966666666668
 21
-7.32918834547184
 31
0.0
 12
40.0
 22
-4.027188345471838
 32
0.0
 13
40.0
 23
-4.027188345471838
 33
0.0
  0
MTEXT
  5
D5
330
CA
100
AcDbEntity
  8
치수문자_일반주서
 62
     0
100
AcDbMText
 10
35.62499999999994
 20
13.63931165452817
 30
0.0
 40
3.5
 41
0.0
 71
     2
 72
     1
  1
\A1;%%c8
  7
SLDTEXTSTYLE0
 11
-3.552713678800501E-15
 21
1.0
 31
0.0
 73
     1
 44
1.0
  0
POINT
  5
1B1
330
CA
100
AcDbEntity
  8
Defpoints
 62
     0
100
AcDbPoint
 10
29.99999999999999
 20
3.972811654528127
 30
0.0
  0
POINT
  5
1B2
330
CA
100
AcDbEntity
  8
Defpoints
 62
     0
100
AcDbPoint
 10
29.99999999999999
 20
-4.027188345471873
 30
0.0
  0
POINT
  5
1B3
330
CA
100
AcDbEntity
  8
Defpoints
 62
     0
100
AcDbPoint
 10
39.99999999999999
 20
-4.027188345471836
 30
0.0
  0
ENDBLK
  5
CC
330
CA
100
AcDbEntity
  8
0
100
AcDbBlockEnd
  0
BLOCK
  5
D8
330
D7
100
AcDbEntity
  8
0
100
AcDbBlockBegin
  2
_D_1
 70
     0
 10
0.0
 20
0.0
 30
0.0
  3
_D_1
  1

  0
LINE
  5
DA
330
D7
100
AcDbEntity
  8
치수문자_일반주서
 62
     0
370
    -2
100
AcDbLine
 10
-69.26250000000002
 20
3.97281165452813
 30
0.0
 11
-80.00000000000003
 21
3.972811654528089
 31
0.0
  0
LINE
  5
DB
330
D7
100
AcDbEntity
  8
치수문자_일반주서
 62
     0
370
    -2
100
AcDbLine
 10
-69.26250000000002
 20
-4.027188345471877
 30
0.0
 11
-80.0
 21
-4.027188345471918
 31
0.0
  0
LINE
  5
DC
330
D7
100
AcDbEntity
  8
치수문자_일반주서
 62
     0
370
    -2
100
AcDbLine
 10
-80.00000000000003
 20
3.972811654528089
 30
0.0
 11
-80.00000000000007
 21
16.70181165452809
 31
0.0
  0
LINE
  5
DD
330
D7
100
AcDbEntity
  8
치수문자_일반주서
 62
     0
370
    -2
100
AcDbLine
 10
-80.00000000000003
 20
3.972811654528089
 30
0.0
 11
-80.0
 21
-4.027188345471918
 31
0.0
  0
LINE
  5
DE
330
D7
100
AcDbEntity
  8
치수문자_일반주서
 62
     0
370
    -2
100
AcDbLine
 10
-80.00000000000004
 20
7.274811654528088
 30
0.0
 11
-80.00000000000006
 21
10.57681165452809
 31
0.0
  0
LINE
  5
DF
330
D7
100
AcDbEntity
  8
치수문자_일반주서
 62
     0
370
    -2
100
AcDbLine
 10
-79.99999999999999
 20
-7.329188345471918
 30
0.0
 11
-79.99999999999997
 21
-10.63118834547192
 31
0.0
  0
SOLID
  5
E0
330
D7
100
AcDbEntity
  8
치수문자_일반주서
 62
     0
100
AcDbTrace
 10
-80.55033333333337
 20
7.274811654528087
 30
0.0
 11
-79.44966666666672
 21
7.27481165452809
 31
0.0
 12
-80.00000000000003
 22
3.972811654528089
 32
0.0
 13
-80.00000000000003
 23
3.972811654528089
 33
0.0
  0
SOLID
  5
E1
330
D7
100
AcDbEntity
  8
치수문자_일반주서
 62
     0
100
AcDbTrace
 10
-79.44966666666666
 20
-7.329188345471916
 30
0.0
 11
-80.55033333333331
 21
-7.32918834547192
 31
0.0
 12
-80.0
 22
-4.027188345471918
 32
0.0
 13
-80.0
 23
-4.027188345471918
 33
0.0
  0
MTEXT
  5
E2
330
D7
100
AcDbEntity
  8
치수문자_일반주서
 62
     0
100
AcDbMText
 10
-84.37500000000006
 20
13.63931165452808
 30
0.0
 40
3.5
 41
0.0
 71
     2
 72
     1
  1
\A1;%%c8
  7
SLDTEXTSTYLE0
 11
-3.552713678800499E-15
 21
1.0
 31
0.0
 73
     1
 44
1.0
  0
POINT
  5
1AE
330
D7
100
AcDbEntity
  8
Defpoints
 62
     0
100
AcDbPoint
 10
-69.20000000000002
 20
3.97281165452813
 30
0.0
  0
POINT
  5
1AF
330
D7
100
AcDbEntity
  8
Defpoints
 62
     0
100
AcDbPoint
 10
-69.20000000000002
 20
-4.027188345471877
 30
0.0
  0
POINT
  5
1B0
330
D7
100
AcDbEntity
  8
Defpoints
 62
     0
100
AcDbPoint
 10
-80.0
 20
-4.027188345471917
 30
0.0
  0
ENDBLK
  5
D9
330
D7
100
AcDbEntity
  8
0
100
AcDbBlockEnd
  0
BLOCK
  5
E5
330
E4
100
AcDbEntity
  8
0
100
AcDbBlockBegin
  2
_D_2
 70
     0
 10
0.0
 20
0.0
 30
0.0
  3
_D_2
  1

  0
LINE
  5
E7
330
E4
100
AcDbEntity
  8
치수문자_일반주서
 62
     0
370
    -2
100
AcDbLine
 10
29.99999999999999
 20
4.035311654528127
 30
0.0
 11
29.99999999999999
 21
13.97281165452813
 31
0.0
  0
LINE
  5
E8
330
E4
100
AcDbEntity
  8
치수문자_일반주서
 62
     0
370
    -2
100
AcDbLine
 10
10.0
 20
3.97825209007995
 30
0.0
 11
10.0
 21
13.97281165452813
 31
0.0
  0
LINE
  5
E9
330
E4
100
AcDbEntity
  8
치수문자_일반주서
 62
     0
370
    -2
100
AcDbLine
 10
26.69799999999999
 20
13.97281165452813
 30
0.0
 11
13.302
 21
13.97281165452813
 31
0.0
  0
SOLID
  5
EA
330
E4
100
AcDbEntity
  8
치수문자_일반주서
 62
     0
100
AcDbTrace
 10
26.69799999999999
 20
13.42247832119479
 30
0.0
 11
26.69799999999999
 21
14.52314498786146
 31
0.0
 12
29.99999999999999
 22
13.97281165452813
 32
0.0
 13
29.99999999999999
 23
13.97281165452813
 33
0.0
  0
SOLID
  5
EB
330
E4
100
AcDbEntity
  8
치수문자_일반주서
 62
     0
100
AcDbTrace
 10
13.302
 20
14.52314498786146
 30
0.0
 11
13.302
 21
13.42247832119479
 31
0.0
 12
10.0
 22
13.97281165452813
 32
0.0
 13
10.0
 23
13.97281165452813
 33
0.0
  0
MTEXT
  5
EC
330
E4
100
AcDbEntity
  8
치수문자_일반주서
 62
     0
100
AcDbMText
 10
20.0
 20
18.34781165452813
 30
0.0
 40
3.5
 41
0.0
 71
     2
 72
     1
  1
\A1;20
  7
SLDTEXTSTYLE0
 73
     1
 44
1.0
  0
POINT
  5
1A8
330
E4
100
AcDbEntity
  8
Defpoints
 62
     0
100
AcDbPoint
 10
29.99999999999999
 20
3.972811654528127
 30
0.0
  0
POINT
  5
1A9
330
E4
100
AcDbEntity
  8
Defpoints
 62
     0
100
AcDbPoint
 10
10.0
 20
3.91575209007995
 30
0.0
  0
POINT
  5
1AA
330
E4
100
AcDbEntity
  8
Defpoints
 62
     0
100
AcDbPoint
 10
10.0
 20
13.97281165452813
 30
0.0
  0
ENDBLK
  5
E6
330
E4
100
AcDbEntity
  8
0
100
AcDbBlockEnd
  0
BLOCK
  5
F0
330
EF
100
AcDbEntity
  8
0
100
AcDbBlockBegin
  2
_D_3
 70
     0
 10
0.0
 20
0.0
 30
0.0
  3
_D_3
  1

  0
LINE
  5
F2
330
EF
100
AcDbEntity
  8
치수문자_일반주서
 62
     0
370
    -2
100
AcDbLine
 10
29.99999999999999
 20
4.035311654528127
 30
0.0
 11
29.99999999999999
 21
23.97281165452813
 31
0.0
  0
LINE
  5
F3
330
EF
100
AcDbEntity
  8
치수문자_일반주서
 62
     0
370
    -2
100
AcDbLine
 10
-70.00000000000003
 20
3.23531165452813
 30
0.0
 11
-70.00000000000003
 21
23.97281165452813
 31
0.0
  0
LINE
  5
F4
330
EF
100
AcDbEntity
  8
치수문자_일반주서
 62
     0
370
    -2
100
AcDbLine
 10
26.69799999999999
 20
23.97281165452813
 30
0.0
 11
-66.69800000000004
 21
23.97281165452813
 31
0.0
  0
SOLID
  5
F5
330
EF
100
AcDbEntity
  8
치수문자_일반주서
 62
     0
100
AcDbTrace
 10
26.69799999999999
 20
23.42247832119479
 30
0.0
 11
26.69799999999999
 21
24.52314498786146
 31
0.0
 12
29.99999999999999
 22
23.97281165452813
 32
0.0
 13
29.99999999999999
 23
23.97281165452813
 33
0.0
  0
SOLID
  5
F6
330
EF
100
AcDbEntity
  8
치수문자_일반주서
 62
     0
100
AcDbTrace
 10
-66.69800000000004
 20
24.52314498786146
 30
0.0
 11
-66.69800000000004
 21
23.42247832119479
 31
0.0
 12
-70.00000000000003
 22
23.97281165452813
 32
0.0
 13
-70.00000000000003
 23
23.97281165452813
 33
0.0
  0
MTEXT
  5
F7
330
EF
100
AcDbEntity
  8
치수문자_일반주서
 62
     0
100
AcDbMText
 10
-20.00000000000003
 20
28.34781165452813
 30
0.0
 40
3.5
 41
0.0
 71
     2
 72
     1
  1
\A1;100
  7
SLDTEXTSTYLE0
 73
     1
 44
1.0
  0
POINT
  5
1AB
330
EF
100
AcDbEntity
  8
Defpoints
 62
     0
100
AcDbPoint
 10
29.99999999999999
 20
3.972811654528127
 30
0.0
  0
POINT
  5
1AC
330
EF
100
AcDbEntity
  8
Defpoints
 62
     0
100
AcDbPoint
 10
-70.00000000000003
 20
3.17281165452813
 30
0.0
  0
POINT
  5
1AD
330
EF
100
AcDbEntity
  8
Defpoints
 62
     0
100
AcDbPoint
 10
-70.00000000000003
 20
23.97281165452813
 30
0.0
  0
ENDBLK
  5
F1
330
EF
100
AcDbEntity
  8
0
100
AcDbBlockEnd
  0
BLOCK
  5
100
330
FF
100
AcDbEntity
  8
0
100
AcDbBlockBegin
  2
SW_DOWELSYMBOL_0
 70
     0
 10
0.0
 20
0.0
 30
0.0
  3
SW_DOWELSYMBOL_0
  1

  0
CIRCLE
  5
102
330
FF
100
AcDbEntity
  8
해칭선
 62
     0
100
AcDbCircle
 10
0.0
 20
0.0
 30
0.0
 40
3.000000000000001
  0
HATCH
  5
103
330
FF
100
AcDbEntity
  8
0
  6
Continuous
 62
     0
370
     0
100
AcDbHatch
 10
0.0
 20
0.0
 30
0.0
210
0.0
220
0.0
230
1.0
  2
SOLID
 70
     1
 71
     0
 91
        1
 92
        0
 93
        3
 72
     2
 10
0.0
 20
0.0
 40
3.000000000000001
 50
0.0
 51
90.0
 73
     1
 72
     1
 10
0.0
 20
3.000000000000001
 11
0.0
 21
0.0
 72
     1
 10
0.0
 20
0.0
 11
3.000000000000003
 21
0.0
 97
        0
 75
     0
 76
     1
 98
        1
 10
0.0
 20
0.0
  0
HATCH
  5
104
330
FF
100
AcDbEntity
  8
0
  6
Continuous
 62
     0
370
     0
100
AcDbHatch
 10
0.0
 20
0.0
 30
0.0
210
0.0
220
0.0
230
1.0
  2
SOLID
 70
     1
 71
     0
 91
        1
 92
        0
 93
        3
 72
     2
 10
0.0
 20
0.0
 40
3.000000000000001
 50
180.0
 51
270.0000000000008
 73
     1
 72
     1
 10
0.0
 20
-3.000000000000001
 11
0.0
 21
0.0
 72
     1
 10
0.0
 20
0.0
 11
-3.000000000000003
 21
0.0
 97
        0
 75
     0
 76
     1
 98
        1
 10
0.0
 20
0.0
  0
ENDBLK
  5
101
330
FF
100
AcDbEntity
  8
0
100
AcDbBlockEnd
  0
BLOCK
  5
163
330
162
100
AcDbEntity
  8
0
100
AcDbBlockBegin
  2
*D8
 70
     1
 10
0.0
 20
0.0
 30
0.0
  3
*D8
  1

  0
LINE
  5
164
330
162
100
AcDbEntity
  8
치수문자_일반주서
 62
     0
370
    -2
100
AcDbLine
 10
12.62717396278132
 20
13.04557445451085
 30
0.0
 11
21.11951954006028
 21
0.0000000000000533
 31
0.0
  0
MTEXT
  5
165
330
162
100
AcDbEntity
  8
치수문자_일반주서
 62
     0
100
AcDbMText
 10
21.05195792753105
 20
4.915330557654589
 30
0.0
 40
3.5
 41
0.0
 71
     5
 72
     1
  1
\A1;R0.1
  7
SLDTEXTSTYLE0
 11
0.5455627707375155
 21
-0.8380699631804049
 31
0.0
 73
     1
 44
1.0
  0
SOLID
  5
166
330
162
100
AcDbEntity
  8
치수문자_일반주서
 62
     0
100
AcDbTrace
 10
13.08839179918493
 20
13.34581583267339
 30
0.0
 11
12.1659561263777
 21
12.7453330763483
 31
0.0
 12
10.82572569380604
 22
15.81288147293254
 32
0.0
 13
10.82572569380604
 23
15.81288147293254
 33
0.0
  0
LINE
  5
167
330
162
100
AcDbEntity
  8
치수문자_일반주서
 62
     0
100
AcDbLine
 10
10.72616941673229
 20
15.89668846925058
 30
0.0
 11
10.81616941673229
 21
15.89668846925058
 31
0.0
  0
LINE
  5
168
330
162
100
AcDbEntity
  8
치수문자_일반주서
 62
     0
100
AcDbLine
 10
10.77116941673229
 20
15.85168846925058
 30
0.0
 11
10.77116941673229
 21
15.94168846925058
 31
0.0
  0
POINT
  5
169
330
162
100
AcDbEntity
  8
Defpoints
 62
     0
100
AcDbPoint
 10
10.82572569380604
 20
15.81288147293254
 30
0.0
  0
POINT
  5
16A
330
162
100
AcDbEntity
  8
Defpoints
 62
     0
100
AcDbPoint
 10
10.77116941673229
 20
15.89668846925058
 30
0.0
  0
ENDBLK
  5
16B
330
162
100
AcDbEntity
  8
0
100
AcDbBlockEnd
  0
BLOCK
  5
172
330
171
100
AcDbEntity
  8
0
100
AcDbBlockBegin
  2
*D9
 70
     1
 10
0.0
 20
0.0
 30
0.0
  3
*D9
  1

  0
LINE
  5
174
330
171
100
AcDbEntity
  8
치수문자_일반주서
 62
     0
370
    -2
100
AcDbLine
 10
10.9336694167323
 20
21.79496381848847
 30
0.0
 11
20.87116941673229
 21
21.7949638184885
 31
0.0
  0
LINE
  5
175
330
171
100
AcDbEntity
  8
치수문자_일반주서
 62
     0
370
    -2
100
AcDbLine
 10
10.9336694167323
 20
15.79496381848847
 30
0.0
 11
20.87116941673231
 21
15.79496381848851
 31
0.0
  0
LINE
  5
176
330
171
100
AcDbEntity
  8
치수문자_일반주서
 62
     0
370
    -2
100
AcDbLine
 10
20.87116941673229
 20
21.7949638184885
 30
0.0
 11
20.87116941673224
 21
34.52396381848853
 31
0.0
  0
LINE
  5
177
330
171
100
AcDbEntity
  8
치수문자_일반주서
 62
     0
370
    -2
100
AcDbLine
 10
20.87116941673229
 20
21.7949638184885
 30
0.0
 11
20.87116941673231
 21
15.79496381848851
 31
0.0
  0
LINE
  5
178
330
171
100
AcDbEntity
  8
치수문자_일반주서
 62
     0
370
    -2
100
AcDbLine
 10
20.87116941673228
 20
25.0969638184885
 30
0.0
 11
20.87116941673226
 21
28.3989638184885
 31
0.0
  0
LINE
  5
179
330
171
100
AcDbEntity
  8
치수문자_일반주서
 62
     0
370
    -2
100
AcDbLine
 10
20.87116941673232
 20
12.49296381848851
 30
0.0
 11
20.87116941673233
 21
9.190963818488507
 31
0.0
  0
SOLID
  5
17A
330
171
100
AcDbEntity
  8
치수문자_일반주서
 62
     0
100
AcDbTrace
 10
20.32083608339894
 20
25.0969638184885
 30
0.0
 11
21.42150275006561
 21
25.09696381848851
 31
0.0
 12
20.87116941673229
 22
21.7949638184885
 32
0.0
 13
20.87116941673229
 23
21.7949638184885
 33
0.0
  0
SOLID
  5
17B
330
171
100
AcDbEntity
  8
치수문자_일반주서
 62
     0
100
AcDbTrace
 10
21.42150275006565
 20
12.49296381848851
 30
0.0
 11
20.32083608339898
 21
12.49296381848851
 31
0.0
 12
20.87116941673231
 22
15.79496381848851
 32
0.0
 13
20.87116941673231
 23
15.79496381848851
 33
0.0
  0
MTEXT
  5
17C
330
171
100
AcDbEntity
  8
치수문자_일반주서
 62
     0
100
AcDbMText
 10
16.49616941673225
 20
31.46146381848851
 30
0.0
 40
3.5
 41
0.0
 71
     2
 72
     1
  1
\A1;%%c6
  7
SLDTEXTSTYLE0
 11
-3.552713678800503E-15
 21
1.0
 31
0.0
 73
     1
 44
1.0
  0
POINT
  5
17D
330
171
100
AcDbEntity
  8
Defpoints
 62
     0
100
AcDbPoint
 10
10.8711694167323
 20
21.79496381848847
 30
0.0
  0
POINT
  5
17E
330
171
100
AcDbEntity
  8
Defpoints
 62
     0
100
AcDbPoint
 10
10.8711694167323
 20
15.79496381848847
 30
0.0
  0
POINT
  5
17F
330
171
100
AcDbEntity
  8
Defpoints
 62
     0
100
AcDbPoint
 10
20.87116941673231
 20
15.79496381848851
 30
0.0
  0
ENDBLK
  5
173
330
171
100
AcDbEntity
  8
0
100
AcDbBlockEnd
  0
BLOCK
  5
185
330
184
100
AcDbEntity
  8
0
100
AcDbBlockBegin
  2
*D10
 70
     1
 10
0.0
 20
0.0
 30
0.0
  3
*D10
  1

  0
LINE
  5
187
330
184
100
AcDbEntity
  8
치수문자_일반주서
 62
     0
370
    -2
100
AcDbLine
 10
82.82390405706734
 20
10.70082221486877
 30
0.0
 11
92.76140405706732
 21
10.70082221486881
 31
0.0
  0
LINE
  5
188
330
184
100
AcDbEntity
  8
치수문자_일반주서
 62
     0
370
    -2
100
AcDbLine
 10
82.82390405706734
 20
4.700822214868774
 30
0.0
 11
92.76140405706734
 21
4.700822214868811
 31
0.0
  0
LINE
  5
189
330
184
100
AcDbEntity
  8
치수문자_일반주서
 62
     0
370
    -2
100
AcDbLine
 10
92.76140405706732
 20
10.70082221486881
 30
0.0
 11
92.76140405706728
 21
23.42982221486884
 31
0.0
  0
LINE
  5
18A
330
184
100
AcDbEntity
  8
치수문자_일반주서
 62
     0
370
    -2
100
AcDbLine
 10
92.76140405706732
 20
10.70082221486881
 30
0.0
 11
92.76140405706734
 21
4.700822214868811
 31
0.0
  0
LINE
  5
18B
330
184
100
AcDbEntity
  8
치수문자_일반주서
 62
     0
370
    -2
100
AcDbLine
 10
92.76140405706731
 20
14.00282221486881
 30
0.0
 11
92.7614040570673
 21
17.30482221486881
 31
0.0
  0
LINE
  5
18C
330
184
100
AcDbEntity
  8
치수문자_일반주서
 62
     0
370
    -2
100
AcDbLine
 10
92.76140405706735
 20
1.398822214868812
 30
0.0
 11
92.76140405706737
 21
-1.903177785131188
 31
0.0
  0
SOLID
  5
18D
330
184
100
AcDbEntity
  8
치수문자_일반주서
 62
     0
100
AcDbTrace
 10
92.21107072373398
 20
14.00282221486881
 30
0.0
 11
93.31173739040064
 21
14.00282221486881
 31
0.0
 12
92.76140405706732
 22
10.70082221486881
 32
0.0
 13
92.76140405706732
 23
10.70082221486881
 33
0.0
  0
SOLID
  5
18E
330
184
100
AcDbEntity
  8
치수문자_일반주서
 62
     0
100
AcDbTrace
 10
93.31173739040068
 20
1.398822214868813
 30
0.0
 11
92.21107072373403
 21
1.39882221486881
 31
0.0
 12
92.76140405706734
 22
4.700822214868811
 32
0.0
 13
92.76140405706734
 23
4.700822214868811
 33
0.0
  0
MTEXT
  5
18F
330
184
100
AcDbEntity
  8
치수문자_일반주서
 62
     0
100
AcDbMText
 10
88.3864040570673
 20
20.36732221486882
 30
0.0
 40
3.5
 41
0.0
 71
     2
 72
     1
  1
\A1;%%c6
  7
SLDTEXTSTYLE0
 11
-2.368475785867001E-15
 21
1.0
 31
0.0
 73
     1
 44
1.0
  0
POINT
  5
190
330
184
100
AcDbEntity
  8
Defpoints
 62
     0
100
AcDbPoint
 10
82.76140405706734
 20
10.70082221486877
 30
0.0
  0
POINT
  5
191
330
184
100
AcDbEntity
  8
Defpoints
 62
     0
100
AcDbPoint
 10
82.76140405706734
 20
4.700822214868774
 30
0.0
  0
POINT
  5
192
330
184
100
AcDbEntity
  8
Defpoints
 62
     0
100
AcDbPoint
 10
92.76140405706735
 20
4.700822214868811
 30
0.0
  0
ENDBLK
  5
186
330
184
100
AcDbEntity
  8
0
100
AcDbBlockEnd
  0
BLOCK
  5
194
330
193
100
AcDbEntity
  8
0
100
AcDbBlockBegin
  2
*D11
 70
     1
 10
0.0
 20
0.0
 30
0.0
  3
*D11
  1

  0
LINE
  5
196
330
193
100
AcDbEntity
  8
치수문자_일반주서
 62
     0
370
    -2
100
AcDbLine
 10
84.51740860311618
 20
1.951432850891043
 30
0.0
 11
93.00975418039437
 21
-11.09414160362026
 31
0.0
  0
MTEXT
  5
197
330
193
100
AcDbEntity
  8
치수문자_일반주서
 62
     0
100
AcDbMText
 10
92.94219256786543
 20
-6.17881104596572
 30
0.0
 40
3.5
 41
0.0
 71
     5
 72
     1
  1
\A1;R0.1
  7
SLDTEXTSTYLE0
 11
0.5455627707374655
 21
-0.8380699631804374
 31
0.0
 73
     1
 44
1.0
  0
SOLID
  5
198
330
193
100
AcDbEntity
  8
치수문자_일반주서
 62
     0
100
AcDbTrace
 10
84.97862643951981
 20
2.251674229053561
 30
0.0
 11
84.05619076671255
 21
1.651191472728525
 31
0.0
 12
82.71596033414107
 22
4.718739869312847
 32
0.0
 13
82.71596033414107
 23
4.718739869312847
 33
0.0
  0
LINE
  5
199
330
193
100
AcDbEntity
  8
치수문자_일반주서
 62
     0
100
AcDbLine
 10
82.61640405706733
 20
4.802546865630886
 30
0.0
 11
82.70640405706733
 21
4.802546865630886
 31
0.0
  0
LINE
  5
19A
330
193
100
AcDbEntity
  8
치수문자_일반주서
 62
     0
100
AcDbLine
 10
82.66140405706733
 20
4.757546865630886
 30
0.0
 11
82.66140405706733
 21
4.847546865630886
 31
0.0
  0
POINT
  5
19B
330
193
100
AcDbEntity
  8
Defpoints
 62
     0
100
AcDbPoint
 10
82.71596033414107
 20
4.718739869312847
 30
0.0
  0
POINT
  5
19C
330
193
100
AcDbEntity
  8
Defpoints
 62
     0
100
AcDbPoint
 10
82.66140405706733
 20
4.802546865630886
 30
0.0
  0
ENDBLK
  5
195
330
193
100
AcDbEntity
  8
0
100
AcDbBlockEnd
  0
BLOCK
  5
1C3
330
1C2
100
AcDbEntity
  8
0
100
AcDbBlockBegin
  2
*D12
 70
     1
 10
0.0
 20
0.0
 30
0.0
  3
*D12
  1

  0
LINE
  5
1C5
330
1C2
100
AcDbEntity
  8
치수문자_일반주서
 62
     0
370
    -2
100
AcDbLine
 10
30.5079848391595
 20
-6.124545350501672
 30
0.0
 11
42.77496626880613
 21
-24.43202446386725
 31
0.0
  0
MTEXT
  5
1C6
330
1C2
100
AcDbEntity
  8
치수문자_일반주서
 62
     0
100
AcDbMText
 10
43.25095478289432
 20
-20.42665729162747
 30
0.0
 40
3.5
 41
0.0
 71
     5
 72
     1
  1
\A1;R3
  7
SLDTEXTSTYLE0
 11
0.5566462772388955
 21
-0.8307496145265906
 31
0.0
 73
     1
 44
1.0
  0
SOLID
  5
1C7
330
1C2
100
AcDbEntity
  8
치수문자_일반주서
 62
     0
100
AcDbTrace
 10
30.96517404368731
 20
-5.818204349261199
 30
0.0
 11
30.0507956346317
 21
-6.430886351742144
 31
0.0
 12
28.66993883171667
 22
-3.381410123334869
 32
0.0
 13
28.66993883171667
 23
-3.381410123334869
 33
0.0
  0
LINE
  5
1C8
330
1C2
100
AcDbEntity
  8
치수문자_일반주서
 62
     0
100
AcDbLine
 10
26.95499999999998
 20
-0.8891612797550998
 30
0.0
 11
27.04499999999999
 21
-0.8891612797550998
 31
0.0
  0
LINE
  5
1C9
330
1C2
100
AcDbEntity
  8
치수문자_일반주서
 62
     0
100
AcDbLine
 10
26.99999999999999
 20
-0.9341612797550999
 30
0.0
 11
26.99999999999999
 21
-0.8441612797550998
 31
0.0
  0
POINT
  5
1CA
330
1C2
100
AcDbEntity
  8
Defpoints
 62
     0
100
AcDbPoint
 10
28.66993883171667
 20
-3.381410123334869
 30
0.0
  0
POINT
  5
1CB
330
1C2
100
AcDbEntity
  8
Defpoints
 62
     0
100
AcDbPoint
 10
26.99999999999999
 20
-0.8891612797550998
 30
0.0
  0
ENDBLK
  5
1C4
330
1C2
100
AcDbEntity
  8
0
100
AcDbBlockEnd
  0
ENDSEC
  0
SECTION
  2
ENTITIES
  0
LINE
  5
96
330
1F
100
AcDbEntity
  8
0
  6
Continuous
 62
     1
370
    15
100
AcDbLine
 10
11.26823484505815
 20
3.972811654528129
 30
0.0
 11
9.999999999999986
 21
3.972811654528129
 31
0.0
1001
PE_URL
1000

  0
LINE
  5
97
330
1F
100
AcDbEntity
  8
0
  6
Continuous
 62
     1
370
    15
100
AcDbLine
 10
19.71103132488518
 20
-4.027188345471875
 30
0.0
 11
22.15121708343754
 21
-4.027188345471875
 31
0.0
1001
PE_URL
1000

  0
ARC
  5
98
330
1F
100
AcDbEntity
  8
0
  6
Continuous
 62
     1
370
    15
100
AcDbCircle
 10
26.99999999999999
 20
-1.027188345471876
 30
0.0
 40
3.0
100
AcDbArc
 50
338.8440086721051
 51
0.0
1001
PE_URL
1000

  0
ARC
  5
99
330
1F
100
AcDbEntity
  8
0
  6
Continuous
 62
     1
370
    15
100
AcDbCircle
 10
26.99999999999999
 20
0.9728116545281293
 30
0.0
 40
3.000000000000006
100
AcDbArc
 50
0.0
 51
8.189103628321563
1001
PE_URL
1000

  0
LINE
  5
9A
330
1F
100
AcDbEntity
  8
0
  6
Continuous
 62
     1
370
    15
100
AcDbLine
 10
29.81360050703586
 20
2.013797815246658
 30
0.0
 11
29.79708618762625
 21
2.057389387560821
 31
0.0
1001
PE_URL
1000

  0
LINE
  5
9B
330
1F
100
AcDbEntity
  8
0
  6
Continuous
 62
     1
370
    15
100
AcDbLine
 10
22.15121708343754
 20
3.972811654528129
 30
0.0
 11
19.71103132488522
 21
3.972811654528129
 31
0.0
1001
PE_URL
1000

  0
LINE
  5
9C
330
1F
100
AcDbEntity
  8
0
  6
Continuous
 62
     1
370
    15
100
AcDbLine
 10
9.999999999999986
 20
-4.027188345471875
 30
0.0
 11
11.26823484505812
 21
-4.027188345471875
 31
0.0
1001
PE_URL
1000

  0
LINE
  5
9D
330
1F
100
AcDbEntity
  8
외형선
  6
Continuous
370
    15
100
AcDbLine
 10
-69.20000000000002
 20
-4.027188345471873
 30
0.0
 11
9.999999999999986
 21
-4.027188345471873
 31
0.0
  0
LINE
  5
9E
330
1F
100
AcDbEntity
  8
외형선
  6
Continuous
370
    15
100
AcDbLine
 10
9.999999999999986
 20
3.972811654528127
 30
0.0
 11
-69.20000000000002
 21
3.972811654528127
 31
0.0
  0
LINE
  5
9F
330
1F
100
AcDbEntity
  8
외형선
  6
Continuous
370
    15
100
AcDbLine
 10
-69.20000000000002
 20
3.972811654528127
 30
0.0
 11
-70.00000000000003
 21
3.17281165452813
 31
0.0
  0
LINE
  5
A0
330
1F
100
AcDbEntity
  8
외형선
  6
Continuous
370
    15
100
AcDbLine
 10
-70.00000000000003
 20
-3.227188345471877
 30
0.0
 11
-69.20000000000002
 21
-4.027188345471873
 31
0.0
  0
SPLINE
  5
A1
330
1F
100
AcDbEntity
  8
0
  6
Continuous
 62
     1
370
    15
100
AcDbSpline
210
0.0
220
0.0
230
1.0
 70
     8
 71
     3
 72
    40
 73
    36
 74
     0
 42
0.000000001
 43
0.00000001
 40
0.0
 40
0.0
 40
0.0
 40
0.0
 40
0.0625
 40
0.0625
 40
0.125
 40
0.125
 40
0.1875
 40
0.1875
 40
0.25
 40
0.25
 40
0.3125
 40
0.3125
 40
0.34375
 40
0.34375
 40
0.375
 40
0.375
 40
0.4375
 40
0.4375
 40
0.5
 40
0.5
 40
0.5625
 40
0.5625
 40
0.625
 40
0.625
 40
0.6875
 40
0.6875
 40
0.75
 40
0.75
 40
0.8125
 40
0.8125
 40
0.875
 40
0.875
 40
0.9375
 40
0.9375
 40
1.0
 40
1.0
 40
1.0
 40
1.0
 10
27.0
 20
-2.604318216098775
 30
0.0
 10
27.18213151788724
 20
-2.684742162286493
 30
0.0
 10
27.35904144653794
 20
-2.753448288210165
 30
0.0
 10
27.70710720643435
 20
-2.863168642251059
 30
0.0
 10
27.88013114371793
 20
-2.904435877471134
 30
0.0
 10
28.21520850312501
 20
-2.948685568393969
 30
0.0
 10
28.37645203857124
 20
-2.95222227139861
 30
0.0
 10
28.69263731621334
 20
-2.911481344824042
 30
0.0
 10
28.84916117991808
 20
-2.866112097109963
 30
0.0
 10
29.14251596421617
 20
-2.716718961299768
 30
0.0
 10
29.28327509866452
 20
-2.610432116030149
 30
0.0
 10
29.46963699676945
 20
-2.404230600941256
 30
0.0
 10
29.52883259859253
 20
-2.326260686895529
 30
0.0
 10
29.63489411989892
 20
-2.158903642856536
 30
0.0
 10
29.68204962861729
 20
-2.0695855449529
 30
0.0
 10
29.8064818697457
 20
-1.784295946682377
 30
0.0
 10
29.86289907978708
 20
-1.575537199619242
 30
0.0
 10
29.92868473865887
 20
-1.171099965528899
 30
0.0
 10
29.94039370746027
 20
-0.9755128481120298
 30
0.0
 10
29.93825947494025
 20
-0.6128167599538571
 30
0.0
 10
29.9243047090176
 20
-0.4479243063601627
 30
0.0
 10
29.85925460830457
 20
-0.1428310816955409
 30
0.0
 10
29.80854033763152
 20
-0.0085395346699658
 30
0.0
 10
29.6643378157867
 20
0.2395018603684511
 30
0.0
 10
29.57127658694777
 20
0.3520830712720441
 30
0.0
 10
29.35047181414694
 20
0.5638648758618443
 30
0.0
 10
29.22054754773582
 20
0.6651846026183209
 30
0.0
 10
28.93550478714769
 20
0.8634250119408721
 30
0.0
 10
28.7807099485174
 20
0.9605229295651468
 30
0.0
 10
28.44942383845014
 20
1.159879169222823
 30
0.0
 10
28.27300088042656
 20
1.262293214708644
 30
0.0
 10
27.9171454115518
 20
1.464590168009516
 30
0.0
 10
27.73491750849189
 20
1.566194887196696
 30
0.0
 10
27.36547741556199
 20
1.767193301134328
 30
0.0
 10
27.18252725027938
 20
1.864243327334811
 30
0.0
 10
26.99999999999997
 20
1.955768939482256
 30
0.0
1001
PE_URL
1000

  0
SPLINE
  5
A2
330
1F
100
AcDbEntity
  8
0
  6
Continuous
 62
     1
370
    15
100
AcDbSpline
210
0.0
220
0.0
230
1.0
 70
     8
 71
     3
 72
    18
 73
    14
 74
     0
 42
0.000000001
 43
0.00000001
 40
0.0
 40
0.0
 40
0.0
 40
0.0
 40
0.0202768931211508
 40
0.121163222975322
 40
0.222040045606673
 40
0.3229084248871098
 40
0.4237694568981339
 40
0.5246242433033365
 40
0.6197043909024439
 40
0.7147726244138192
 40
0.8098383588278498
 40
0.9049110169987674
 40
1.0
 40
1.0
 40
1.0
 40
1.0
 10
11.26823484505815
 20
3.955999132320699
 30
0.0
 10
11.3745753950114
 20
3.961229035461978
 30
0.0
 10
12.01000626148201
 20
3.992479973002557
 30
0.0
 10
13.17448955658851
 20
3.844752562379596
 30
0.0
 10
14.76158571802354
 20
3.508827416449463
 30
0.0
 10
16.3485314570574
 20
2.970097034493638
 30
0.0
 10
17.93532066702268
 20
2.279718485746171
 30
0.0
 10
19.49179794566733
 20
1.483016576246926
 30
0.0
 10
21.01766339657966
 20
0.6294220627975313
 30
0.0
 10
22.51317761975158
 20
-0.2384634232440551
 30
0.0
 10
24.00863515522897
 20
-1.094198267396231
 30
0.0
 10
25.50422046946952
 20
-1.909011550204922
 30
0.0
 10
26.50137828877897
 20
-2.372536063385111
 30
0.0
 10
27.00000000000001
 20
-2.604318216098783
 30
0.0
1001
PE_URL
1000

  0
SPLINE
  5
A3
330
1F
100
AcDbEntity
  8
0
  6
Continuous
 62
     1
370
    15
100
AcDbSpline
210
0.0
220
0.0
230
1.0
 70
     8
 71
     3
 72
    15
 73
    11
 74
     0
 42
0.000000001
 43
0.00000001
 40
0.0
 40
0.0
 40
0.0
 40
0.0
 40
0.1377684897690946
 40
0.2755300259032254
 40
0.4132861253410345
 40
0.5510383091702913
 40
0.6887881014696877
 40
0.8265370281457766
 40
0.9564008594645116
 40
1.0
 40
1.0
 40
1.0
 40
1.0
 10
26.99999999999999
 20
1.955768939482253
 30
0.0
 10
26.47110722573602
 20
2.210912728443003
 30
0.0
 10
25.41334837218959
 20
2.721187428406888
 30
0.0
 10
23.82676515807296
 20
3.315291685950832
 30
0.0
 10
22.24025720807573
 20
3.742493380205206
 30
0.0
 10
20.65379795677728
 20
3.970042975987455
 30
0.0
 10
19.06739323594993
 20
3.992430802455712
 30
0.0
 10
17.51119361668029
 20
3.797274732995462
 30
0.0
 10
16.31666012264875
 20
3.532401439370732
 30
0.0
 10
15.65079865793631
 20
3.293813623091079
 30
0.0
 10
15.48343736309145
 20
3.233845644790939
 30
0.0
1001
PE_URL
1000

  0
SPLINE
  5
A5
330
1F
100
AcDbEntity
  8
0
  6
Continuous
 62
     1
370
    15
100
AcDbSpline
210
0.0
220
0.0
230
1.0
 70
     8
 71
     3
 72
    18
 73
    14
 74
     0
 42
0.000000001
 43
0.00000001
 40
0.0
 40
0.0
 40
0.0
 40
0.0
 40
0.0969291616174708
 40
0.19385925035551
 40
0.290780204694935
 40
0.3876930467880869
 40
0.4845988297338085
 40
0.5814986119941312
 40
0.6728502069756221
 40
0.7641903550784054
 40
0.8555281020855424
 40
0.9468725013355593
 40
0.974975909052728
 40
0.974975909052728
 40
0.974975909052728
 40
0.974975909052728
 10
10.00000000000001
 20
0.7004050428274606
 30
0.0
 10
10.5290846960208
 20
0.3964146070561743
 30
0.0
 10
11.58725914872002
 20
-0.2115691721333946
 30
0.0
 10
13.17448903688459
 20
-1.124045698051571
 30
0.0
 10
14.76158585761129
 20
-1.976521790228732
 30
0.0
 10
16.34853141834675
 20
-2.727891696562152
 30
0.0
 10
17.93532068229212
 20
-3.337963522693404
 30
0.0
 10
19.49179792401613
 20
-3.766964602558073
 30
0.0
 10
21.01766346412158
 20
-4.004259727515506
 30
0.0
 10
22.51317736950158
 20
-4.054033079014864
 30
0.0
 10
24.00863608870253
 20
-3.909870104810327
 30
0.0
 10
25.15899473092281
 20
-3.680189184381303
 30
0.0
 10
25.81090570581757
 20
-3.47510003806484
 30
0.0
 10
25.96428652639813
 20
-3.424893341277881
 30
0.0
1001
PE_URL
1000

  0
SPLINE
  5
A6
330
1F
100
AcDbEntity
  8
외형선
  6
Continuous
370
    15
100
AcDbSpline
210
0.0
220
0.0
230
1.0
 70
    24
 71
     3
 72
    16
 73
    12
 74
     0
 42
0.000000001
 43
0.00000001
 40
0.0
 40
0.0
 40
0.0
 40
0.0
 40
0.2132330368604729
 40
0.3242246492519564
 40
0.4384350259218998
 40
0.5494266383133831
 40
0.6636370149833258
 40
0.7746286273748073
 40
0.8888390040447474
 40
0.9998306164362335
 40
1.0
 40
1.0
 40
1.0
 40
1.0
 10
10.0
 20
3.91575209007995
 30
0.0
 10
10.00000000000002
 20
3.676954398626619
 30
0.0
 10
10.00000000000006
 20
3.313858234478774
 30
0.0
 10
9.9999999999999
 20
2.785318443871738
 30
0.0
 10
9.999999999999986
 20
2.383425886705111
 30
0.0
 10
10.0
 20
1.989501626102604
 30
0.0
 10
9.999999999999986
 20
1.623347770535957
 30
0.0
 10
9.99999999999961
 20
1.285924411106842
 30
0.0
 10
10.00000000000136
 20
1.002526691679056
 30
0.0
 10
9.999999999997137
 20
0.8282900999953506
 30
0.0
 10
10.00000000000004
 20
0.769201256019338
 30
0.0
 10
10.00000000000004
 20
0.7691112183322384
 30
0.0
  0
SPLINE
  5
A7
330
1F
100
AcDbEntity
  8
0
  6
Continuous
 62
     1
370
    15
100
AcDbSpline
210
0.0
220
0.0
230
1.0
 70
     8
 71
     3
 72
    38
 73
    34
 74
     0
 42
0.000000001
 43
0.00000001
 40
0.0
 40
0.0
 40
0.0
 40
0.0
 40
0.0625
 40
0.0625
 40
0.125
 40
0.125
 40
0.1875
 40
0.1875
 40
0.25
 40
0.25
 40
0.3125
 40
0.3125
 40
0.375
 40
0.375
 40
0.4375
 40
0.4375
 40
0.5
 40
0.5
 40
0.5625
 40
0.5625
 40
0.625
 40
0.625
 40
0.6875
 40
0.6875
 40
0.75
 40
0.75
 40
0.8125
 40
0.8125
 40
0.875
 40
0.875
 40
0.9375
 40
0.9375
 40
1.0
 40
1.0
 40
1.0
 40
1.0
 10
26.86514496977136
 20
-3.886128767203376
 30
0.0
 10
26.48509243886809
 20
-3.709679050583464
 30
0.0
 10
26.15556373336442
 20
-3.538812314396376
 30
0.0
 10
25.70398735915568
 20
-3.270307443245236
 30
0.0
 10
25.21041815110561
 20
-2.920613546250575
 30
0.0
 10
24.52423715907214
 20
-2.590442512632722
 30
0.0
 10
24.16743254983459
 20
-2.429157894280451
 30
0.0
 10
23.45766762252713
 20
-2.089564196194934
 30
0.0
 10
23.10696878904113
 20
-1.911701529035735
 30
0.0
 10
22.39692364104551
 20
-1.541173816030047
 30
0.0
 10
22.04022386858995
 20
-1.348913700846159
 30
0.0
 10
21.33596558025295
 20
-0.9572346813141117
 30
0.0
 10
20.9806883026811
 20
-0.7563993672130596
 30
0.0
 10
20.27004265780173
 20
-0.3505475619517133
 30
0.0
 10
19.91894534495243
 20
-0.1463656141364721
 30
0.0
 10
19.21020791344183
 20
0.2625856717631617
 30
0.0
 10
18.85320732100235
 20
0.4672252356464137
 30
0.0
 10
18.14647275093238
 20
0.8696571069524727
 30
0.0
 10
17.79379081434203
 20
1.068022611947108
 30
0.0
 10
17.08284034716211
 20
1.455647936293575
 30
0.0
 10
16.730274498752
 20
1.643864936789944
 30
0.0
 10
16.02341553165862
 20
2.006095462835654
 30
0.0
 10
15.66640658460443
 20
2.180524613186231
 30
0.0
 10
14.95776109627645
 20
2.509845724667341
 30
0.0
 10
14.60660870760794
 20
2.664738954549275
 30
0.0
 10
13.89593013721301
 20
2.953435132586836
 30
0.0
 10
13.54082964807972
 20
3.086563625952507
 30
0.0
 10
12.83641484276252
 20
3.326812261683715
 30
0.0
 10
12.4796900293994
 20
3.434742937321025
 30
0.0
 10
11.76970412315924
 20
3.622222461223977
 30
0.0
 10
11.41901137449066
 20
3.701671120537933
 30
0.0
 10
10.70918068511598
 20
3.831398358407252
 30
0.0
 10
10.35239780167187
 20
3.881394008720918
 30
0.0
 10
9.99999999999843
 20
3.915752090090829
 30
0.0
1001
PE_URL
1000

  0
SPLINE
  5
A8
330
1F
100
AcDbEntity
  8
0
  6
Continuous
 62
     1
370
    15
100
AcDbSpline
210
0.0
220
0.0
230
1.0
 70
     8
 71
     3
 72
    14
 73
    10
 74
     0
 42
0.000000001
 43
0.00000001
 40
0.0
 40
0.0
 40
0.0
 40
0.0
 40
0.0662800987429249
 40
0.2296397554436967
 40
0.3836482941233537
 40
0.5376753341579729
 40
0.6917360713851163
 40
0.8458455959083031
 40
1.0
 40
1.0
 40
1.0
 40
1.0
 10
19.71103132488518
 20
-4.001928476976365
 30
0.0
 10
19.49648070730728
 20
-4.008161743975657
 30
0.0
 10
18.75313010455722
 20
-4.029758059257031
 30
0.0
 10
17.51119625547371
 20
-3.851033372175987
 30
0.0
 10
15.98547555547791
 20
-3.491096419077913
 30
0.0
 10
14.48974631923603
 20
-2.965841828888506
 30
0.0
 10
12.99364453210955
 20
-2.306582777590839
 30
0.0
 10
11.4970260096933
 20
-1.542783054380787
 30
0.0
 10
10.4990571007054
 20
-0.9812249654121001
 30
0.0
 10
9.99999999999843
 20
-0.7004050428320941
 30
0.0
1001
PE_URL
1000

  0
LINE
  5
A9
330
1F
100
AcDbEntity
  8
외형선
  6
Continuous
370
    15
100
AcDbLine
 10
10.0
 20
-0.7004050428274717
 30
0.0
 11
10.0
 21
0.7004050428274716
 31
0.0
  0
SPLINE
  5
AA
330
1F
100
AcDbEntity
  8
0
  6
Continuous
 62
     1
370
    15
100
AcDbSpline
210
0.0
220
0.0
230
1.0
 70
     8
 71
     3
 72
    11
 73
     7
 74
     0
 42
0.000000001
 43
0.00000001
 40
0.0
 40
0.0
 40
0.0
 40
0.0
 40
0.2894612758000035
 40
0.5789253202766147
 40
0.8683620865365058
 40
1.0
 40
1.0
 40
1.0
 40
1.0
 10
10.0
 20
-3.960457705851746
 30
0.0
 10
10.52908478152872
 20
-3.996570802592616
 30
0.0
 10
11.58725940524466
 20
-4.06879734149357
 30
0.0
 10
13.17448801081464
 20
-3.901953246567799
 30
0.0
 10
14.47320950486651
 20
-3.641438743829924
 30
0.0
 10
15.24283440050522
 20
-3.372346836489467
 30
0.0
 10
15.48343736309137
 20
-3.288222335734686
 30
0.0
1001
PE_URL
1000

  0
SPLINE
  5
AB
330
1F
100
AcDbEntity
  8
외형선
  6
Continuous
370
    15
100
AcDbSpline
210
0.0
220
0.0
230
1.0
 70
    24
 71
     3
 72
    20
 73
    16
 74
     0
 42
0.000000001
 43
0.00000001
 40
0.0
 40
0.0
 40
0.0
 40
0.0
 40
0.01072900915831
 40
0.0924081861445438
 40
0.1740873631307775
 40
0.2557665401170109
 40
0.3374457171032428
 40
0.4191248940894748
 40
0.5008040710757105
 40
0.5824832480619461
 40
0.66416242504818
 40
0.7458416020344135
 40
0.8275207790206497
 40
0.9091999560068859
 40
0.9999999999999999
 40
0.9999999999999999
 40
0.9999999999999999
 40
0.9999999999999999
 10
10.0
 20
-0.4401762754384655
 30
0.0
 10
9.999999999999986
 20
-0.4388122586929999
 30
0.0
 10
10.00000000000001
 20
-0.4270640803235533
 30
0.0
 10
10.0
 20
-0.4692366225260465
 30
0.0
 10
9.999999999999972
 20
-0.5723712844383165
 30
0.0
 10
9.999999999999943
 20
-0.7450857749073775
 30
0.0
 10
9.999999999999957
 20
-0.9765977299742498
 30
0.0
 10
10.0
 20
-1.260283826701893
 30
0.0
 10
10.0
 20
-1.589490716759165
 30
0.0
 10
10.00000000000002
 20
-1.9533999947578
 30
0.0
 10
10.00000000000002
 20
-2.342827259884408
 30
0.0
 10
10.00000000000002
 20
-2.746132599549527
 30
0.0
 10
10.00000000000002
 20
-3.151430686209016
 30
0.0
 10
9.999999999999957
 20
-3.565084520176113
 30
0.0
 10
10.0
 20
-3.824100964439544
 30
0.0
 10
10.0
 20
-3.960457705851746
 30
0.0
  0
SPLINE
  5
AC
330
1F
100
AcDbEntity
  8
0
  6
Continuous
 62
     1
370
    15
100
AcDbSpline
210
0.0
220
0.0
230
1.0
 70
     8
 71
     3
 72
    34
 73
    30
 74
     0
 42
0.000000001
 43
0.00000001
 40
0.0
 40
0.0
 40
0.0
 40
0.0
 40
0.0625000000000001
 40
0.0625000000000001
 40
0.1250000000000001
 40
0.1250000000000001
 40
0.1875000000000002
 40
0.1875000000000002
 40
0.2500000000000003
 40
0.2500000000000003
 40
0.3125000000000003
 40
0.3125000000000003
 40
0.3437500000000003
 40
0.3437500000000003
 40
0.3750000000000003
 40
0.3750000000000003
 40
0.4375000000000003
 40
0.4375000000000003
 40
0.5000000000000003
 40
0.5000000000000003
 40
0.5625000000000003
 40
0.5625000000000003
 40
0.6250000000000002
 40
0.6250000000000002
 40
0.6875000000000002
 40
0.6875000000000002
 40
0.7500000000000001
 40
0.7500000000000001
 40
0.7847868140896783
 40
0.7847868140896783
 40
0.7847868140896783
 40
0.7847868140896783
 10
27.0
 20
3.031962129729115
 30
0.0
 10
27.18213151788726
 20
2.96421032879149
 30
0.0
 10
27.35904144653794
 20
2.87952336163242
 30
0.0
 10
27.70710720643438
 20
2.682404837272892
 30
0.0
 10
27.88013114371797
 20
2.568463605752804
 30
0.0
 10
28.21520850312505
 20
2.324185077829902
 30
0.0
 10
28.37645203857126
 20
2.19463164843725
 30
0.0
 10
28.69263731621333
 20
1.928909454324571
 30
0.0
 10
28.84916117991806
 20
1.790960837057135
 30
0.0
 10
29.14251596421613
 20
1.534155154277383
 30
0.0
 10
29.28327509866448
 20
1.412014479646187
 30
0.0
 10
29.46963699676942
 20
1.266740506013626
 30
0.0
 10
29.52883259859254
 20
1.223790387995641
 30
0.0
 10
29.6348941198989
 20
1.156159636444656
 30
0.0
 10
29.68204962861731
 20
1.131128348169462
 30
0.0
 10
29.8064818697457
 20
1.084970323350108
 30
0.0
 10
29.86289907978706
 20
1.095906408177626
 30
0.0
 10
29.92868473865883
 20
1.190641746963269
 30
0.0
 10
29.94039370746025
 20
1.272359063936635
 30
0.0
 10
29.93825947494025
 20
1.482324446299113
 30
0.0
 10
29.92430470901756
 20
1.609082747093686
 30
0.0
 10
29.85925460830453
 20
1.893334113962045
 30
0.0
 10
29.80854033763151
 20
2.044998921401213
 30
0.0
 10
29.66433781578673
 20
2.350673559321168
 30
0.0
 10
29.57127658694777
 20
2.503259323260461
 30
0.0
 10
29.35047181414695
 20
2.786665849117061
 30
0.0
 10
29.2205475477358
 20
2.920195626271904
 30
0.0
 10
28.99870033128023
 20
3.100384261764368
 30
0.0
 10
28.91557228397463
 20
3.159487262810694
 30
0.0
 10
28.82888777494863
 20
3.212844618887009
 30
0.0
1001
PE_URL
1000

  0
LINE
  5
AD
330
1F
100
AcDbEntity
  8
0
  6
Continuous
 62
     1
370
    15
100
AcDbLine
 10
29.99999999999999
 20
-0.0271883454718733
 30
0.0
 11
29.99999999999999
 21
0.9728116545281293
 31
0.0
1001
PE_URL
1000

  0
LINE
  5
AE
330
1F
100
AcDbEntity
  8
0
  6
Continuous
 62
     1
370
    15
100
AcDbLine
 10
29.99999999999999
 20
-1.027188345471876
 30
0.0
 11
29.99999999999999
 21
-0.0271883454718733
 31
0.0
1001
PE_URL
1000

  0
SPLINE
  5
AF
330
1F
100
AcDbEntity
  8
0
  6
Continuous
 62
     1
370
    15
100
AcDbSpline
210
0.0
220
0.0
230
1.0
 70
     8
 71
     3
 72
    11
 73
     7
 74
     0
 42
0.000000001
 43
0.00000001
 40
0.0
 40
0.0
 40
0.0
 40
0.0
 40
0.0746529740739461
 40
0.383069353906743
 40
0.6915081960920068
 40
0.9999999999999999
 40
0.9999999999999999
 40
0.9999999999999999
 40
0.9999999999999999
 10
22.15121708343754
 20
3.95573696862595
 30
0.0
 10
22.27187408625656
 20
3.960912204382939
 30
0.0
 10
22.89100548306359
 20
3.987468068262933
 30
0.0
 10
24.00863469564182
 20
3.848676132526511
 30
0.0
 10
25.50422058439281
 20
3.54941945807836
 30
0.0
 10
26.50137832708891
 20
3.204457777168453
 30
0.0
 10
27.00000000000001
 20
3.031962129729107
 30
0.0
1001
PE_URL
1000

  0
LINE
  5
B0
330
1F
100
AcDbEntity
  8
0
  6
Continuous
 62
     1
370
    15
100
AcDbLine
 10
26.86514496977136
 20
3.831752076259638
 30
0.0
 11
26.37401184481178
 21
3.233301965546863
 31
0.0
1001
PE_URL
1000

  0
SPLINE
  5
B1
330
1F
100
AcDbEntity
  8
외형선
  6
Continuous
370
    15
100
AcDbSpline
210
0.0
220
0.0
230
1.0
 70
     8
 71
     3
 72
     8
 73
     4
 74
     0
 42
0.000000001
 43
0.00000001
 40
0.0
 40
0.0
 40
0.0
 40
0.0
 40
1.0
 40
1.0
 40
1.0
 40
1.0
 10
9.999999999999972
 20
3.915752090090677
 30
0.0
 10
9.66823072077046
 20
3.948098931749986
 30
0.0
 10
9.334605153858604
 20
3.966820399085445
 30
0.0
 10
8.999965140767749
 20
3.971587867094204
 30
0.0
  0
LINE
  5
B2
330
1F
100
AcDbEntity
  8
외형선
  6
Continuous
370
    15
100
AcDbLine
 10
8.999965140767706
 20
1.258695328569599
 30
0.0
 11
8.99996514076772
 21
3.971588637488265
 31
0.0
  0
SPLINE
  5
B3
330
1F
100
AcDbEntity
  8
외형선
  6
Continuous
370
    15
100
AcDbSpline
210
0.0
220
0.0
230
1.0
 70
     8
 71
     3
 72
     8
 73
     4
 74
     0
 42
0.000000001
 43
0.00000001
 40
0.0
 40
0.0
 40
0.0
 40
0.0
 40
1.0
 40
1.0
 40
1.0
 40
1.0
 10
10.0
 20
0.7004050428274605
 30
0.0
 10
9.668230720770502
 20
0.8893915039510936
 30
0.0
 10
9.334605153858618
 20
1.076205035504144
 30
0.0
 10
8.99996514076772
 20
1.258718598395151
 30
0.0
  0
SPLINE
  5
B4
330
1F
100
AcDbEntity
  8
외형선
  6
Continuous
370
    15
100
AcDbSpline
210
0.0
220
0.0
230
1.0
 70
     8
 71
     3
 72
     8
 73
     4
 74
     0
 42
0.000000001
 43
0.00000001
 40
0.0
 40
0.0
 40
0.0
 40
0.0
 40
1.0
 40
1.0
 40
1.0
 40
1.0
 10
9.999999999999972
 20
-0.7004050428329747
 30
0.0
 10
9.66823072077046
 20
-0.5109539040820108
 30
0.0
 10
9.334605153858604
 20
-0.3188127007851472
 30
0.0
 10
8.999965140767749
 20
-0.1261267192997438
 30
0.0
  0
LINE
  5
B5
330
1F
100
AcDbEntity
  8
외형선
  6
Continuous
370
    15
100
AcDbLine
 10
8.999965140767706
 20
-3.814866153421432
 30
0.0
 11
8.99996514076772
 21
-0.1260955775037882
 31
0.0
  0
SPLINE
  5
B6
330
1F
100
AcDbEntity
  8
외형선
  6
Continuous
370
    15
100
AcDbSpline
210
0.0
220
0.0
230
1.0
 70
     8
 71
     3
 72
     8
 73
     4
 74
     0
 42
0.000000001
 43
0.00000001
 40
0.0
 40
0.0
 40
0.0
 40
0.0
 40
1.0
 40
1.0
 40
1.0
 40
1.0
 10
10.0
 20
-3.960457705851748
 30
0.0
 10
9.668230720770502
 20
-3.925498162786441
 30
0.0
 10
9.334605153858618
 20
-3.876821271223434
 30
0.0
 10
8.99996514076772
 20
-3.81485825343832
 30
0.0
  0
LINE
  5
B7
330
1F
100
AcDbEntity
  8
외형선
  6
Continuous
370
    15
100
AcDbLine
 10
-69.20000000000002
 20
-0.0271883454718733
 30
0.0
 11
-69.20000000000002
 21
3.972811654528127
 31
0.0
  0
LINE
  5
B8
330
1F
100
AcDbEntity
  8
외형선
  6
Continuous
370
    15
100
AcDbLine
 10
-69.20000000000002
 20
-4.027188345471873
 30
0.0
 11
-69.20000000000002
 21
-0.0271883454718733
 31
0.0
  0
LINE
  5
B9
330
1F
100
AcDbEntity
  8
외형선
  6
Continuous
370
    15
100
AcDbLine
 10
-70.00000000000003
 20
-0.0271883454718733
 30
0.0
 11
-70.00000000000003
 21
3.17281165452813
 31
0.0
  0
LINE
  5
BA
330
1F
100
AcDbEntity
  8
외형선
  6
Continuous
370
    15
100
AcDbLine
 10
-70.00000000000003
 20
-3.227188345471877
 30
0.0
 11
-70.00000000000003
 21
-0.0271883454718733
 31
0.0
  0
SPLINE
  5
BB
330
1F
100
AcDbEntity
  8
외형선
  6
Continuous
370
    15
100
AcDbSpline
210
0.0
220
0.0
230
1.0
 70
    24
 71
     3
 72
    19
 73
    15
 74
     0
 42
0.000000001
 43
0.00000001
 40
0.0
 40
0.0
 40
0.0
 40
0.0
 40
0.1521503635041515
 40
0.2337767093037013
 40
0.3154030551032509
 40
0.3970294009028866
 40
0.4786557467025224
 40
0.5602820925021161
 40
0.6419084383017097
 40
0.7235347841013023
 40
0.805161129900895
 40
0.886787475700482
 40
0.968413821500069
 40
1.0
 40
1.0
 40
1.0
 40
1.0
 10
10.0
 20
-3.960457705851746
 30
0.0
 10
10.0
 20
-3.726955981266419
 30
0.0
 10
10.00000000000002
 20
-3.368184148369632
 30
0.0
 10
10.00000000000002
 20
-2.84422734497858
 30
0.0
 10
9.999999999999972
 20
-2.439776115886659
 30
0.0
 10
9.999999999999972
 20
-2.04611585290743
 30
0.0
 10
9.9999999999999
 20
-1.674595824702849
 30
0.0
 10
9.999999999999957
 20
-1.336697021503812
 30
0.0
 10
10.0
 20
-1.040412659987022
 30
0.0
 10
9.999999999999986
 20
-0.7964579628368591
 30
0.0
 10
9.999999999999986
 20
-0.6080462036372194
 30
0.0
 10
9.999999999999986
 20
-0.4885200489894193
 30
0.0
 10
9.999999999999957
 20
-0.4324647768828846
 30
0.0
 10
10.0
 20
-0.4417229013051254
 30
0.0
 10
10.0
 20
-0.4443059085508768
 30
0.0
  0
SPLINE
  5
BC
330
1F
100
AcDbEntity
  8
외형선
  6
Continuous
370
    15
100
AcDbSpline
210
0.0
220
0.0
230
1.0
 70
    24
 71
     3
 72
    16
 73
    12
 74
     0
 42
0.000000001
 43
0.00000001
 40
0.0
 40
0.0
 40
0.0
 40
0.0
 40
0.0863018152988798
 40
0.198525985489575
 40
0.3107501556802689
 40
0.4229743258709628
 40
0.5351984960616492
 40
0.6474226662523352
 40
0.759646836443038
 40
0.8718710066337411
 40
1.0
 40
1.0
 40
1.0
 40
1.0
 10
9.999999999999929
 20
0.7691112183322383
 30
0.0
 10
9.999999999999915
 20
0.8239702696126768
 30
0.0
 10
9.999999999999957
 20
0.9501663082562993
 30
0.0
 10
9.999999999999986
 20
1.211895290379156
 30
0.0
 10
9.999999999999972
 20
1.53509335372247
 30
0.0
 10
10.00000000000001
 20
1.895913819276145
 30
0.0
 10
9.999999999999957
 20
2.282983334786921
 30
0.0
 10
10.0
 20
2.685297303697143
 30
0.0
 10
10.00000000000002
 20
3.090898748973471
 30
0.0
 10
10.00000000000004
 20
3.510147366489112
 30
0.0
 10
10.00000000000005
 20
3.774714799781716
 30
0.0
 10
10.00000000000005
 20
3.915752090090741
 30
0.0
  0
LINE
  5
BD
330
1F
100
AcDbEntity
  8
중심선
100
AcDbLine
 10
-73.00000000000003
 20
-0.0271883454718733
 30
0.0
 11
32.99999999999999
 21
-0.0271883454718773
 31
0.0
  0
LINE
  5
BE
330
1F
100
AcDbEntity
  8
참조1
100
AcDbLine
 10
-45.00051336755625
 20
-2.527188345471847
 30
0.0
 11
-45.00051336755624
 21
-40.02718834547187
 31
0.0
  0
LINE
  5
BF
330
1F
100
AcDbEntity
  8
참조1
100
AcDbLine
 10
-45.00051336755624
 20
-40.02718834547187
 30
0.0
 11
-60.1588568143087
 21
-40.02718834547187
 31
0.0
  0
CIRCLE
  5
C0
330
1F
100
AcDbEntity
  8
해칭선
100
AcDbCircle
 10
0.0
 20
0.0
 30
0.0
 40
3.000000000000001
  0
INSERT
  5
C1
330
1F
100
AcDbEntity
  8
0
  6
Continuous
 62
     7
100
AcDbBlockReference
 66
     1
  2
블럭10
 10
-33.68789771808065
 20
-52.07436264711581
 30
0.0
  0
ATTRIB
  5
C2
330
C1
100
AcDbEntity
  8
FORMAT
 62
     2
100
AcDbText
 10
-49.8071587575162
 20
-49.99899573428361
 30
0.0
 40
4.233333333333333
  1
SEME0108030E [ 4 FLUTE ]
 41
0.75
  7
SLDTEXTSTYLE0
 11
-49.8071587575162
 21
-52.11566240095028
 31
0.0
100
AcDbAttribute
  2
AUTOATTR0
 70
     0
 74
     1
  0
SEQEND
  5
C3
330
C1
100
AcDbEntity
  8
0
  6
Continuous
 62
     7
  0
HATCH
  5
C4
330
1F
100
AcDbEntity
  8
중심선
100
AcDbHatch
 10
0.0
 20
0.0
 30
0.0
210
0.0
220
0.0
230
1.0
  2
SOLID
 70
     1
 71
     0
 91
        1
 92
        0
 93
        4
 72
     1
 10
-27.9729884136998
 20
-35.82718834547187
 11
-31.41926365753708
 21
-35.82718834547187
 72
     1
 10
-31.41926365753708
 20
-35.82718834547187
 11
-33.5474935167411
 21
-38.36351392604446
 72
     1
 10
-33.5474935167411
 20
-38.36351392604446
 11
-30.10118518779067
 21
-38.36347449674197
 72
     1
 10
-30.10118518779067
 20
-38.36347449674197
 11
-27.9729884136998
 21
-35.82718834547187
 97
        0
 75
     0
 76
     1
 98
        1
 10
-3.971982548995634
 20
-0.0271883454718733
  0
HATCH
  5
C5
330
1F
100
AcDbEntity
  8
중심선
100
AcDbHatch
 10
0.0
 20
0.0
 30
0.0
210
0.0
220
0.0
230
1.0
  2
SOLID
 70
     1
 71
     0
 91
        1
 92
        0
 93
        4
 72
     1
 10
-22.96022442266384
 20
-35.82718834547187
 11
-26.40649966650113
 21
-35.82718834547187
 72
     1
 10
-26.40649966650113
 20
-35.82718834547187
 11
-30.93763767485851
 21
-41.22718834547189
 72
     1
 10
-30.93763767485851
 20
-41.22718834547189
 11
-27.49136243102123
 21
-41.22718834547189
 72
     1
 10
-27.49136243102123
 20
-41.22718834547189
 11
-22.96022442266384
 21
-35.82718834547187
 97
        0
 75
     0
 76
     1
 98
        1
 10
-3.971982548995634
 20
-0.0271883454718733
  0
HATCH
  5
C6
330
1F
100
AcDbEntity
  8
중심선
100
AcDbHatch
 10
0.0
 20
0.0
 30
0.0
210
0.0
220
0.0
230
1.0
  2
SOLID
 70
     1
 71
     0
 91
        1
 92
        0
 93
        4
 72
     1
 10
-17.94746043162795
 20
-35.8271883454719
 11
-21.39373567546506
 21
-35.82718834547187
 72
     1
 10
-21.39373567546506
 20
-35.82718834547187
 11
-28.44217257735431
 21
-44.22718834547189
 72
     1
 10
-28.44217257735431
 20
-44.22718834547189
 11
-24.99589733351703
 21
-44.22718834547189
 72
     1
 10
-24.99589733351703
 20
-44.22718834547189
 11
-17.94746043162795
 21
-35.8271883454719
 97
        0
 75
     0
 76
     1
 98
        1
 10
-3.971982548995634
 20
-0.0271883454718733
  0
HATCH
  5
C7
330
1F
100
AcDbEntity
  8
중심선
100
AcDbHatch
 10
0.0
 20
0.0
 30
0.0
210
0.0
220
0.0
230
1.0
  2
SOLID
 70
     1
 71
     0
 91
        1
 92
        0
 93
        6
 72
     3
 10
-13.14757000061575
 20
-40.02718834552314
 11
3.960054785062283
 21
1.540882976769353E-10
 40
0.3939339440162628
 50
17.09539180608439
 51
320.0019657685081
 73
     0
 72
     1
 10
-11.46457034491515
 20
-38.61508235011017
 11
-9.159268471214116
 21
-36.68075564006225
 72
     3
 10
-13.14757000066859
 20
-40.02718834547202
 11
6.600054785286829
 21
-1.278976924368180E-13
 40
0.636358354079598
 50
39.99873849337413
 51
368.4976242363725
 73
     1
 72
     1
 10
-6.722237508767986
 20
-39.06718834540189
 11
-14.46750269383267
 21
-39.06718834540186
 72
     1
 10
-14.46750269383267
 20
-39.06718834540186
 11
-14.46752773827861
 21
-40.98718834540178
 72
     1
 10
-14.46752773827861
 20
-40.98718834540178
 11
-10.02614796880657
 21
-40.98718834540175
 97
        0
 75
     0
 76
     1
 98
        1
 10
-3.971982548995634
 20
-0.0271883454718733
  0
DIMENSION
  5
C8
330
1F
100
AcDbEntity
  8
치수문자_일반주서
100
AcDbDimension
  2
_D
 10
40.0
 20
-4.027188345471838
 30
0.0
 11
39.99999999999994
 21
13.63931165452819
 31
0.0
 70
   160
  1
%%c<>
 71
     2
 42
8.0
 52
-270.0
  3
SLDDIMSTYLE0
100
AcDbAlignedDimension
 13
29.99999999999999
 23
3.972811654528127
 33
0.0
 14
29.99999999999999
 24
-4.027188345471873
 34
0.0
 50
90.0000000000002
100
AcDbRotatedDimension
1001
PE_URL
1000

  0
DIMENSION
  5
D6
330
1F
100
AcDbEntity
  8
치수문자_일반주서
100
AcDbDimension
  2
_D_1
 10
-80.0
 20
-4.027188345471918
 30
0.0
 11
-80.00000000000006
 21
13.63931165452809
 31
0.0
 70
   160
  1
%%c<>
 71
     2
 42
8.000000000000007
 52
-270.0
  3
SLDDIMSTYLE0
100
AcDbAlignedDimension
 13
-69.20000000000002
 23
3.97281165452813
 33
0.0
 14
-69.20000000000002
 24
-4.027188345471877
 34
0.0
 50
90.0000000000002
100
AcDbRotatedDimension
1001
PE_URL
1000

  0
DIMENSION
  5
E3
330
1F
100
AcDbEntity
  8
치수문자_일반주서
100
AcDbDimension
  2
_D_2
 10
10.0
 20
13.97281165452813
 30
0.0
 11
20.0
 21
13.97281165452813
 31
0.0
 70
   160
  1
<>
 71
     2
 42
19.99999999999999
  3
SLDDIMSTYLE0
100
AcDbAlignedDimension
 13
29.99999999999999
 23
3.972811654528127
 33
0.0
 14
10.0
 24
3.91575209007995
 34
0.0
100
AcDbRotatedDimension
1001
PE_URL
1000

  0
DIMENSION
  5
ED
330
1F
100
AcDbEntity
  8
치수문자_일반주서
100
AcDbDimension
  2
_D_3
 10
-70.00000000000003
 20
23.97281165452813
 30
0.0
 11
-20.00000000000003
 21
23.97281165452813
 31
0.0
 70
   160
  1
<>
 71
     2
 42
100.0
  3
SLDDIMSTYLE0
100
AcDbAlignedDimension
 13
29.99999999999999
 23
3.972811654528127
 33
0.0
 14
-70.00000000000003
 24
3.17281165452813
 34
0.0
 50
0.0000000000000041
100
AcDbRotatedDimension
1001
PE_URL
1000

  0
LINE
  5
F8
330
1F
100
AcDbEntity
  8
참조1
100
AcDbLine
 10
37.81348381534557
 20
7.412811654528129
 30
0.0
 11
37.81348381534557
 21
-7.467188345471875
 31
0.0
  0
LINE
  5
F9
330
1F
100
AcDbEntity
  8
참조1
100
AcDbLine
 10
50.51348381534557
 20
5.412811654528129
 30
0.0
 11
37.81348381534557
 21
5.412811654528129
 31
0.0
  0
SOLID
  5
FA
330
1F
100
AcDbEntity
  8
참조1
100
AcDbTrace
 10
37.81348381534557
 20
5.412811654528129
 30
0.0
 11
44.16348381534556
 21
4.396811654528129
 31
0.0
 12
44.16348381534556
 22
6.428811654528129
 32
0.0
 13
44.16348381534556
 23
6.428811654528129
 33
0.0
  0
LINE
  5
FB
330
1F
100
AcDbEntity
  8
참조1
100
AcDbLine
 10
50.51348381534557
 20
-5.467188345471875
 30
0.0
 11
37.81348381534557
 21
-5.467188345471875
 31
0.0
  0
SOLID
  5
FC
330
1F
100
AcDbEntity
  8
참조1
100
AcDbTrace
 10
37.81348381534557
 20
-5.467188345471875
 30
0.0
 11
44.16348381534556
 21
-6.483188345471875
 31
0.0
 12
44.16348381534556
 22
-4.451188345471875
 32
0.0
 13
44.16348381534556
 23
-4.451188345471875
 33
0.0
  0
MTEXT
  5
FD
330
1F
100
AcDbEntity
  8
참조1
100
AcDbMText
 10
47.21097390781585
 20
10.96102829917806
 30
0.0
 40
3.5
 41
0.0
 71
     1
 72
     1
  1
A
  7
SLDTEXTSTYLE0
 73
     1
 44
1.0
  0
MTEXT
  5
FE
330
1F
100
AcDbEntity
  8
참조1
100
AcDbMText
 10
47.21097390781585
 20
0.0810282991780595
 30
0.0
 40
3.5
 41
0.0
 71
     1
 72
     1
  1
A
  7
SLDTEXTSTYLE0
 73
     1
 44
1.0
  0
INSERT
  5
105
330
1F
100
AcDbEntity
  8
해칭선
100
AcDbBlockReference
  2
SW_DOWELSYMBOL_0
 10
0.0
 20
0.0
 30
0.0
  0
ARC
  5
1BD
330
1F
100
AcDbEntity
  8
0
  6
Continuous
 62
     1
370
    15
100
AcDbCircle
 10
26.99999999999999
 20
0.8347845888113612
 30
0.0
 40
3.0
100
AcDbArc
 50
0.0000000000000424
 51
92.57640952838872
1001
PE_URL
1000

  0
ARC
  5
1BE
102
{ACAD_REACTORS
102
}
330
1F
100
AcDbEntity
  8
0
  6
Continuous
 62
     1
370
    15
100
AcDbCircle
 10
26.99999999999999
 20
-0.8891612797550998
 30
0.0
 40
3.0
100
AcDbArc
 50
267.4235904716111
 51
359.9999999999998
1001
PE_URL
1000

  0
DIMENSION
  5
1BF
102
{ACAD_REACTORS
102
}
102
{ACAD_XDICTIONARY
360
1C0
102
}
330
1F
100
AcDbEntity
  8
치수문자_일반주서
100
AcDbDimension
  2
*D12
 10
26.99999999999999
 20
-0.8891612797550998
 30
0.0
 11
41.07023704476202
 21
-21.88785376937957
 31
0.0
 70
   164
 71
     5
 42
2.999999999999998
  3
SLDDIMSTYLE1
100
AcDbRadialDimension
 15
28.66993883171667
 25
-3.381410123334869
 35
0.0
 40
0.0
1001
ACAD
1000
DSTYLE
1002
{
1070
    78
1070
     8
1002
}
1001
ACAD_DSTYLE_DIMRADIAL_EXTENSION
1070
   387
1070
     1
1070
   388
1040
4.66742215123455
1070
   390
1040
6.283185307179583
1001
PE_URL
1000

  0
ENDSEC
  0
SECTION
  2
OBJECTS
  0
DICTIONARY
  5
C
330
0
100
AcDbDictionary
281
     1
  3
ACAD_DETAILVIEWSTYLE
350
1A2
  3
ACAD_GROUP
350
D
  3
ACAD_LAYOUT
350
1A
  3
ACAD_MLINESTYLE
350
17
  3
ACAD_PLOTSETTINGS
350
19
  3
ACAD_PLOTSTYLENAME
350
E
  3
ACAD_SCALELIST
350
47
  3
ACAD_SECTIONVIEWSTYLE
350
1A3
  3
AcDbVariableDictionary
350
19D
  3
APPDATA
350
127
  3
DWGPROPS
350
1CD
  0
DICTIONARY
  5
16D
330
2
100
AcDbDictionary
280
     1
281
     1
  3
ACAD_LAYERSTATES
360
16E
  0
DICTIONARY
  5
1C0
330
1BF
100
AcDbDictionary
280
     1
281
     1
  0
DICTIONARY
  5
1A2
102
{ACAD_REACTORS
330
C
102
}
330
C
100
AcDbDictionary
281
     1
  0
DICTIONARY
  5
D
102
{ACAD_REACTORS
330
C
102
}
330
C
100
AcDbDictionary
281
     1
  0
DICTIONARY
  5
1A
102
{ACAD_REACTORS
330
C
102
}
330
C
100
AcDbDictionary
281
     1
  3
Layout1
350
1E
  3
Layout2
350
26
  3
Model
350
22
  0
DICTIONARY
  5
17
102
{ACAD_REACTORS
330
C
102
}
330
C
100
AcDbDictionary
281
     1
  3
Standard
350
18
  0
DICTIONARY
  5
19
102
{ACAD_REACTORS
330
C
102
}
330
C
100
AcDbDictionary
281
     1
  0
ACDBDICTIONARYWDFLT
  5
E
102
{ACAD_REACTORS
330
C
102
}
330
C
100
AcDbDictionary
281
     1
  3
Normal
350
F
100
AcDbDictionaryWithDefault
340
F
  0
DICTIONARY
  5
47
102
{ACAD_REACTORS
330
C
102
}
330
C
100
AcDbDictionary
281
     1
  3
A0
350
48
  3
A1
350
49
  3
A2
350
4A
  3
A3
350
4B
  3
A4
350
4C
  3
A5
350
4D
  3
A6
350
4E
  3
A7
350
4F
  3
A8
350
50
  3
A9
350
51
  3
B0
350
52
  3
B1
350
53
  3
B2
350
54
  3
B3
350
55
  3
B4
350
56
  3
B5
350
57
  3
B6
350
58
  3
B7
350
59
  3
B8
350
5A
  3
B9
350
5B
  3
C0
350
5C
  3
C1
350
5D
  3
C2
350
5E
  3
C3
350
5F
  3
C4
350
60
  3
C5
350
61
  3
C6
350
62
  3
C7
350
63
  3
C8
350
64
  3
C9
350
65
  3
D0
350
66
  3
D1
350
67
  3
D2
350
68
  0
DICTIONARY
  5
1A3
102
{ACAD_REACTORS
330
C
102
}
330
C
100
AcDbDictionary
281
     1
  0
DICTIONARY
  5
19D
102
{ACAD_REACTORS
330
C
102
}
330
C
100
AcDbDictionary
281
     1
  0
DICTIONARY
  5
127
102
{ACAD_REACTORS
330
C
102
}
330
C
100
AcDbDictionary
281
     1
  0
XRECORD
  5
1CD
102
{ACAD_REACTORS
330
C
102
}
330
C
100
AcDbXrecord
280
     1
  1
DWGPROPS COOKIE
  2

  3

  4

  6

  7

  8
12017044
  9

300
=
301
=
302
=
303
=
304
=
305
=
306
=
307
=
308
=
309
=
 40
0.0
 41
2458269.44126
 42
2458270.471370544
  1

 90
        0
  0
DICTIONARY
  5
16E
102
{ACAD_REACTORS
330
16D
102
}
330
16D
100
AcDbDictionary
281
     1
  0
LAYOUT
  5
1E
102
{ACAD_REACTORS
330
1A
102
}
330
1A
100
AcDbPlotSettings
  1

  2
none_device
  4

  6

 40
0.0
 41
0.0
 42
0.0
 43
0.0
 44
0.0
 45
0.0
 46
0.0
 47
0.0
 48
0.0
 49
0.0
140
0.0
141
0.0
142
1.0
143
1.0
 70
   688
 72
     1
 73
     0
 74
     5
  7

 75
    16
147
1.0
148
0.0
149
0.0
100
AcDbLayout
  1
Layout1
 70
     1
 71
     1
 10
0.0
 20
0.0
 11
420.0
 21
297.0
 12
0.0
 22
0.0
 32
0.0
 14
1.000000000000000E+20
 24
1.000000000000000E+20
 34
1.000000000000000E+20
 15
-1.000000000000000E+20
 25
-1.000000000000000E+20
 35
-1.000000000000000E+20
146
0.0
 13
0.0
 23
0.0
 33
0.0
 16
1.0
 26
0.0
 36
0.0
 17
0.0
 27
1.0
 37
0.0
 76
     0
330
1B
  0
LAYOUT
  5
26
102
{ACAD_REACTORS
330
1A
102
}
330
1A
100
AcDbPlotSettings
  1

  2
none_device
  4

  6

 40
0.0
 41
0.0
 42
0.0
 43
0.0
 44
0.0
 45
0.0
 46
0.0
 47
0.0
 48
0.0
 49
0.0
140
0.0
141
0.0
142
1.0
143
1.0
 70
   688
 72
     1
 73
     0
 74
     5
  7

 75
    16
147
1.0
148
0.0
149
0.0
100
AcDbLayout
  1
Layout2
 70
     1
 71
     2
 10
0.0
 20
0.0
 11
0.0
 21
0.0
 12
0.0
 22
0.0
 32
0.0
 14
0.0
 24
0.0
 34
0.0
 15
0.0
 25
0.0
 35
0.0
146
0.0
 13
0.0
 23
0.0
 33
0.0
 16
1.0
 26
0.0
 36
0.0
 17
0.0
 27
1.0
 37
0.0
 76
     0
330
23
  0
LAYOUT
  5
22
102
{ACAD_REACTORS
330
1A
102
}
330
1A
100
AcDbPlotSettings
  1

  2
none_device
  4
ANSI_A_(11.00_x_8.50_Inches)
  6

 40
6.35
 41
19.05
 42
6.35000508
 43
19.05000254
 44
279.4
 45
215.9
 46
110.9593412050573
 47
108.2423004080533
 48
0.0
 49
0.0
140
0.0
141
0.0
142
0.0787616753210067
143
1.0
 70
  1696
 72
     0
 73
     0
 74
     0
  7

 75
     0
147
0.0235690232323232
148
0.0
149
0.0
100
AcDbLayout
  1
Model
 70
     1
 71
     0
 10
0.0
 20
0.0
 11
420.0
 21
297.0
 12
0.0
 22
0.0
 32
0.0
 14
-84.37500000000007
 24
-49.99899573428361
 34
0.0
 15
50.51348381534558
 25
28.34781165452813
 35
0.0
146
0.0
 13
0.0
 23
0.0
 33
0.0
 16
1.0
 26
0.0
 36
0.0
 17
0.0
 27
1.0
 37
0.0
 76
     0
330
1F
331
29
  0
MLINESTYLE
  5
18
102
{ACAD_REACTORS
330
17
102
}
330
17
100
AcDbMlineStyle
  2
Standard
 70
     0
  3

 62
   256
 51
90.0
 52
90.0
 71
     2
 49
0.5
 62
   256
  6
BYLAYER
 49
-0.5
 62
   256
  6
BYLAYER
  0
ACDBPLACEHOLDER
  5
F
102
{ACAD_REACTORS
330
E
102
}
330
E
  0
SCALE
  5
48
102
{ACAD_REACTORS
330
47
102
}
330
47
100
AcDbScale
 70
     0
300
1:1
140
1.0
141
1.0
290
     1
  0
SCALE
  5
49
102
{ACAD_REACTORS
330
47
102
}
330
47
100
AcDbScale
 70
     0
300
1:2
140
1.0
141
2.0
290
     0
  0
SCALE
  5
4A
102
{ACAD_REACTORS
330
47
102
}
330
47
100
AcDbScale
 70
     0
300
1:4
140
1.0
141
4.0
290
     0
  0
SCALE
  5
4B
102
{ACAD_REACTORS
330
47
102
}
330
47
100
AcDbScale
 70
     0
300
1:5
140
1.0
141
5.0
290
     0
  0
SCALE
  5
4C
102
{ACAD_REACTORS
330
47
102
}
330
47
100
AcDbScale
 70
     0
300
1:8
140
1.0
141
8.0
290
     0
  0
SCALE
  5
4D
102
{ACAD_REACTORS
330
47
102
}
330
47
100
AcDbScale
 70
     0
300
1:10
140
1.0
141
10.0
290
     0
  0
SCALE
  5
4E
102
{ACAD_REACTORS
330
47
102
}
330
47
100
AcDbScale
 70
     0
300
1:16
140
1.0
141
16.0
290
     0
  0
SCALE
  5
4F
102
{ACAD_REACTORS
330
47
102
}
330
47
100
AcDbScale
 70
     0
300
1:20
140
1.0
141
20.0
290
     0
  0
SCALE
  5
50
102
{ACAD_REACTORS
330
47
102
}
330
47
100
AcDbScale
 70
     0
300
1:30
140
1.0
141
30.0
290
     0
  0
SCALE
  5
51
102
{ACAD_REACTORS
330
47
102
}
330
47
100
AcDbScale
 70
     0
300
1:40
140
1.0
141
40.0
290
     0
  0
SCALE
  5
52
102
{ACAD_REACTORS
330
47
102
}
330
47
100
AcDbScale
 70
     0
300
1:50
140
1.0
141
50.0
290
     0
  0
SCALE
  5
53
102
{ACAD_REACTORS
330
47
102
}
330
47
100
AcDbScale
 70
     0
300
1:100
140
1.0
141
100.0
290
     0
  0
SCALE
  5
54
102
{ACAD_REACTORS
330
47
102
}
330
47
100
AcDbScale
 70
     0
300
2:1
140
2.0
141
1.0
290
     0
  0
SCALE
  5
55
102
{ACAD_REACTORS
330
47
102
}
330
47
100
AcDbScale
 70
     0
300
4:1
140
4.0
141
1.0
290
     0
  0
SCALE
  5
56
102
{ACAD_REACTORS
330
47
102
}
330
47
100
AcDbScale
 70
     0
300
8:1
140
8.0
141
1.0
290
     0
  0
SCALE
  5
57
102
{ACAD_REACTORS
330
47
102
}
330
47
100
AcDbScale
 70
     0
300
10:1
140
10.0
141
1.0
290
     0
  0
SCALE
  5
58
102
{ACAD_REACTORS
330
47
102
}
330
47
100
AcDbScale
 70
     0
300
100:1
140
100.0
141
1.0
290
     0
  0
SCALE
  5
59
102
{ACAD_REACTORS
330
47
102
}
330
47
100
AcDbScale
 70
     0
300
1/128" = 1'-0"
140
0.0078125
141
12.0
290
     0
  0
SCALE
  5
5A
102
{ACAD_REACTORS
330
47
102
}
330
47
100
AcDbScale
 70
     0
300
1/64" = 1'-0"
140
0.015625
141
12.0
290
     0
  0
SCALE
  5
5B
102
{ACAD_REACTORS
330
47
102
}
330
47
100
AcDbScale
 70
     0
300
1/32" = 1'-0"
140
0.03125
141
12.0
290
     0
  0
SCALE
  5
5C
102
{ACAD_REACTORS
330
47
102
}
330
47
100
AcDbScale
 70
     0
300
1/16" = 1'-0"
140
0.0625
141
12.0
290
     0
  0
SCALE
  5
5D
102
{ACAD_REACTORS
330
47
102
}
330
47
100
AcDbScale
 70
     0
300
3/32" = 1'-0"
140
0.09375
141
12.0
290
     0
  0
SCALE
  5
5E
102
{ACAD_REACTORS
330
47
102
}
330
47
100
AcDbScale
 70
     0
300
1/8" = 1'-0"
140
0.125
141
12.0
290
     0
  0
SCALE
  5
5F
102
{ACAD_REACTORS
330
47
102
}
330
47
100
AcDbScale
 70
     0
300
3/16" = 1'-0"
140
0.1875
141
12.0
290
     0
  0
SCALE
  5
60
102
{ACAD_REACTORS
330
47
102
}
330
47
100
AcDbScale
 70
     0
300
1/4" = 1'-0"
140
0.25
141
12.0
290
     0
  0
SCALE
  5
61
102
{ACAD_REACTORS
330
47
102
}
330
47
100
AcDbScale
 70
     0
300
3/8" = 1'-0"
140
0.375
141
12.0
290
     0
  0
SCALE
  5
62
102
{ACAD_REACTORS
330
47
102
}
330
47
100
AcDbScale
 70
     0
300
1/2" = 1'-0"
140
0.5
141
12.0
290
     0
  0
SCALE
  5
63
102
{ACAD_REACTORS
330
47
102
}
330
47
100
AcDbScale
 70
     0
300
3/4" = 1'-0"
140
0.75
141
12.0
290
     0
  0
SCALE
  5
64
102
{ACAD_REACTORS
330
47
102
}
330
47
100
AcDbScale
 70
     0
300
1" = 1'-0"
140
1.0
141
12.0
290
     0
  0
SCALE
  5
65
102
{ACAD_REACTORS
330
47
102
}
330
47
100
AcDbScale
 70
     0
300
1-1/2" = 1'-0"
140
1.5
141
12.0
290
     0
  0
SCALE
  5
66
102
{ACAD_REACTORS
330
47
102
}
330
47
100
AcDbScale
 70
     0
300
3" = 1'-0"
140
3.0
141
12.0
290
     0
  0
SCALE
  5
67
102
{ACAD_REACTORS
330
47
102
}
330
47
100
AcDbScale
 70
     0
300
6" = 1'-0"
140
6.0
141
12.0
290
     0
  0
SCALE
  5
68
102
{ACAD_REACTORS
330
47
102
}
330
47
100
AcDbScale
 70
     0
300
1'-0" = 1'-0"
140
12.0
141
12.0
290
     0
  0
ENDSEC
  0
EOF
