  0
SECTION
  2
HEADER
  9
$ACADVER
  1
AC1015
  9
$ACADMAINTVER
 70
     6
  9
$DWGCODEPAGE
  3
ANSI_949
  9
$INSBASE
 10
0.0
 20
0.0
 30
0.0
  9
$EXTMIN
 10
-84.37500000000007
 20
-49.99899573428362
 30
0.0
  9
$EXTMAX
 10
50.51348381534558
 20
28.34781165452813
 30
0.0
  9
$LIMMIN
 10
0.0
 20
0.0
  9
$LIMMAX
 10
420.0
 20
297.0
  9
$ORTHOMODE
 70
     1
  9
$REGENMODE
 70
     1
  9
$FILLMODE
 70
     1
  9
$QTEXTMODE
 70
     0
  9
$MIRRTEXT
 70
     1
  9
$LTSCALE
 40
1.0
  9
$ATTMODE
 70
     1
  9
$TEXTSIZE
 40
3.5
  9
$TRACEWID
 40
1.0
  9
$TEXTSTYLE
  7
Standard
  9
$CLAYER
  8
0
  9
$CELTYPE
  6
ByLayer
  9
$CECOLOR
 62
   256
  9
$CELTSCALE
 40
1.0
  9
$DISPSILH
 70
     0
  9
$DIMSCALE
 40
1.0
  9
$DIMASZ
 40
3.302
  9
$DIMEXO
 40
1.0
  9
$DIMDLI
 40
3.75
  9
$DIMRND
 40
0.0
  9
$DIMDLE
 40
0.0
  9
$DIMEXE
 40
1.0
  9
$DIMTP
 40
0.0
  9
$DIMTM
 40
0.0
  9
$DIMTXT
 40
3.5
  9
$DIMCEN
 40
2.5
  9
$DIMTSZ
 40
0.0
  9
$DIMTOL
 70
     0
  9
$DIMLIM
 70
     0
  9
$DIMTIH
 70
     1
  9
$DIMTOH
 70
     1
  9
$DIMSE1
 70
     0
  9
$DIMSE2
 70
     0
  9
$DIMTAD
 70
     1
  9
$DIMZIN
 70
     0
  9
$DIMBLK
  1

  9
$DIMASO
 70
     1
  9
$DIMSHO
 70
     1
  9
$DIMPOST
  1

  9
$DIMAPOST
  1

  9
$DIMALT
 70
     0
  9
$DIMALTD
 70
     3
  9
$DIMALTF
 40
0.0393700787401575
  9
$DIMLFAC
 40
1.0
  9
$DIMTOFL
 70
     1
  9
$DIMTVP
 40
0.0
  9
$DIMTIX
 70
     0
  9
$DIMSOXD
 70
     0
  9
$DIMSAH
 70
     0
  9
$DIMBLK1
  1

  9
$DIMBLK2
  1

  9
$DIMSTYLE
  2
ISO-25
  9
$DIMCLRD
 70
     0
  9
$DIMCLRE
 70
     0
  9
$DIMCLRT
 70
     0
  9
$DIMTFAC
 40
1.0
  9
$DIMGAP
 40
1.524
  9
$DIMJUST
 70
     0
  9
$DIMSD1
 70
     0
  9
$DIMSD2
 70
     0
  9
$DIMTOLJ
 70
     0
  9
$DIMTZIN
 70
     0
  9
$DIMALTZ
 70
     0
  9
$DIMALTTZ
 70
     0
  9
$DIMUPT
 70
     0
  9
$DIMDEC
 70
     2
  9
$DIMTDEC
 70
     2
  9
$DIMALTU
 70
     2
  9
$DIMALTTD
 70
     3
  9
$DIMTXSTY
  7
Standard
  9
$DIMAUNIT
 70
     0
  9
$DIMADEC
 70
     2
  9
$DIMALTRND
 40
0.0
  9
$DIMAZIN
 70
     0
  9
$DIMDSEP
 70
    44
  9
$DIMATFIT
 70
     3
  9
$DIMFRAC
 70
     0
  9
$DIMLDRBLK
  1

  9
$DIMLUNIT
 70
     2
  9
$DIMLWD
 70
    -2
  9
$DIMLWE
 70
    -2
  9
$DIMTMOVE
 70
     0
  9
$LUNITS
 70
     2
  9
$LUPREC
 70
     2
  9
$SKETCHINC
 40
1.0
  9
$FILLETRAD
 40
10.0
  9
$AUNITS
 70
     0
  9
$AUPREC
 70
     2
  9
$MENU
  1
.
  9
$ELEVATION
 40
0.0
  9
$PELEVATION
 40
0.0
  9
$THICKNESS
 40
0.0
  9
$LIMCHECK
 70
     0
  9
$CHAMFERA
 40
0.0
  9
$CHAMFERB
 40
0.0
  9
$CHAMFERC
 40
0.0
  9
$CHAMFERD
 40
0.0
  9
$SKPOLY
 70
     0
  9
$TDCREATE
 40
2458269.815503831
  9
$TDUCREATE
 40
2458269.440503831
  9
$TDUPDATE
 40
2458270.833349583
  9
$TDUUPDATE
 40
2458270.458349583
  9
$TDINDWG
 40
0.0021657986
  9
$TDUSRTIMER
 40
0.002165787
  9
$USRTIMER
 70
     1
  9
$ANGBASE
 50
0.0
  9
$ANGDIR
 70
     0
  9
$PDMODE
 70
     0
  9
$PDSIZE
 40
-1.0
  9
$PLINEWID
 40
0.0
  9
$SPLFRAME
 70
     0
  9
$SPLINETYPE
 70
     6
  9
$SPLINESEGS
 70
     8
  9
$HANDSEED
  5
1C9
  9
$SURFTAB1
 70
     6
  9
$SURFTAB2
 70
     6
  9
$SURFTYPE
 70
     6
  9
$SURFU
 70
     6
  9
$SURFV
 70
     6
  9
$UCSBASE
  2

  9
$UCSNAME
  2

  9
$UCSORG
 10
0.0
 20
0.0
 30
0.0
  9
$UCSXDIR
 10
1.0
 20
0.0
 30
0.0
  9
$UCSYDIR
 10
0.0
 20
1.0
 30
0.0
  9
$UCSORTHOREF
  2

  9
$UCSORTHOVIEW
 70
     0
  9
$UCSORGTOP
 10
0.0
 20
0.0
 30
0.0
  9
$UCSORGBOTTOM
 10
0.0
 20
0.0
 30
0.0
  9
$UCSORGLEFT
 10
0.0
 20
0.0
 30
0.0
  9
$UCSORGRIGHT
 10
0.0
 20
0.0
 30
0.0
  9
$UCSORGFRONT
 10
0.0
 20
0.0
 30
0.0
  9
$UCSORGBACK
 10
0.0
 20
0.0
 30
0.0
  9
$PUCSBASE
  2

  9
$PUCSNAME
  2

  9
$PUCSORG
 10
0.0
 20
0.0
 30
0.0
  9
$PUCSXDIR
 10
1.0
 20
0.0
 30
0.0
  9
$PUCSYDIR
 10
0.0
 20
1.0
 30
0.0
  9
$PUCSORTHOREF
  2

  9
$PUCSORTHOVIEW
 70
     0
  9
$PUCSORGTOP
 10
0.0
 20
0.0
 30
0.0
  9
$PUCSORGBOTTOM
 10
0.0
 20
0.0
 30
0.0
  9
$PUCSORGLEFT
 10
0.0
 20
0.0
 30
0.0
  9
$PUCSORGRIGHT
 10
0.0
 20
0.0
 30
0.0
  9
$PUCSORGFRONT
 10
0.0
 20
0.0
 30
0.0
  9
$PUCSORGBACK
 10
0.0
 20
0.0
 30
0.0
  9
$USERI1
 70
     0
  9
$USERI2
 70
     0
  9
$USERI3
 70
     0
  9
$USERI4
 70
     0
  9
$USERI5
 70
     0
  9
$USERR1
 40
0.0
  9
$USERR2
 40
0.0
  9
$USERR3
 40
0.0
  9
$USERR4
 40
0.0
  9
$USERR5
 40
0.0
  9
$WORLDVIEW
 70
     1
  9
$SHADEDGE
 70
     3
  9
$SHADEDIF
 70
    70
  9
$TILEMODE
 70
     1
  9
$MAXACTVP
 70
    64
  9
$PINSBASE
 10
0.0
 20
0.0
 30
0.0
  9
$PLIMCHECK
 70
     0
  9
$PEXTMIN
 10
1.000000000000000E+20
 20
1.000000000000000E+20
 30
1.000000000000000E+20
  9
$PEXTMAX
 10
-1.000000000000000E+20
 20
-1.000000000000000E+20
 30
-1.000000000000000E+20
  9
$PLIMMIN
 10
0.0
 20
0.0
  9
$PLIMMAX
 10
0.0
 20
0.0
  9
$UNITMODE
 70
     0
  9
$VISRETAIN
 70
     1
  9
$PLINEGEN
 70
     0
  9
$PSLTSCALE
 70
     1
  9
$TREEDEPTH
 70
  3020
  9
$CMLSTYLE
  2
Standard
  9
$CMLJUST
 70
     0
  9
$CMLSCALE
 40
20.0
  9
$PROXYGRAPHICS
 70
     1
  9
$MEASUREMENT
 70
     1
  9
$CELWEIGHT
370
    -1
  9
$ENDCAPS
280
     0
  9
$JOINSTYLE
280
     0
  9
$LWDISPLAY
290
     1
  9
$INSUNITS
 70
     4
  9
$HYPERLINKBASE
  1

  9
$STYLESHEET
  1

  9
$XEDIT
290
     1
  9
$CEPSNTYPE
380
     0
  9
$PSTYLEMODE
290
     1
  9
$FINGERPRINTGUID
  2
{6B5DFCF4-F4C7-48EC-9DAF-8897E2E66F2B}
  9
$VERSIONGUID
  2
{FAEB1C32-E019-11D5-929B-00C0DF256EC4}
  9
$EXTNAMES
290
     1
  9
$PSVPSCALE
 40
0.0
  9
$OLESTARTUP
290
     0
  0
ENDSEC
  0
SECTION
  2
CLASSES
  0
CLASS
  1
ACDBDICTIONARYWDFLT
  2
AcDbDictionaryWithDefault
  3
ObjectDBX Classes
 90
        0
280
     0
281
     0
  0
CLASS
  1
VISUALSTYLE
  2
AcDbVisualStyle
  3
ObjectDBX Classes
 90
     4095
280
     0
281
     0
  0
CLASS
  1
MATERIAL
  2
AcDbMaterial
  3
ObjectDBX Classes
 90
     1153
280
     0
281
     0
  0
CLASS
  1
SCALE
  2
AcDbScale
  3
ObjectDBX Classes
 90
     1153
280
     0
281
     0
  0
CLASS
  1
SUN
  2
AcDbSun
  3
SCENEOE
 90
     1153
280
     0
281
     0
  0
CLASS
  1
ACDBPLACEHOLDER
  2
AcDbPlaceHolder
  3
ObjectDBX Classes
 90
        0
280
     0
281
     0
  0
CLASS
  1
LAYOUT
  2
AcDbLayout
  3
ObjectDBX Classes
 90
        0
280
     0
281
     0
  0
CLASS
  1
TABLESTYLE
  2
AcDbTableStyle
  3
ObjectDBX Classes
 90
     4095
280
     0
281
     0
  0
CLASS
  1
MLEADERSTYLE
  2
AcDbMLeaderStyle
  3
ACDB_MLEADERSTYLE_CLASS
 90
     4095
280
     0
281
     0
  0
CLASS
  1
DICTIONARYVAR
  2
AcDbDictionaryVar
  3
ObjectDBX Classes
 90
        0
280
     0
281
     0
  0
CLASS
  1
DIMASSOC
  2
AcDbDimAssoc
  3
"AcDbDimAssoc|Product Desc:     AcDim ARX App For Dimension|Company:          Autodesk, Inc.|WEB Address:      www.autodesk.com"
 90
        0
280
     0
281
     0
  0
ENDSEC
  0
SECTION
  2
TABLES
  0
TABLE
  2
VPORT
  5
8
330
0
100
AcDbSymbolTable
 70
     1
  0
VPORT
  5
29
330
8
100
AcDbSymbolTableRecord
100
AcDbViewportTableRecord
  2
*Active
 70
     0
 10
0.0
 20
0.0
 11
1.0
 21
1.0
 12
-16.93075809232725
 22
-10.82559203987775
 13
0.0
 23
0.0
 14
10.0
 24
10.0
 15
10.0
 25
10.0
 16
0.0
 26
0.0
 36
1.0
 17
0.0
 27
0.0
 37
0.0
 40
79.91374353658799
 41
2.05607476635514
 42
50.0
 43
0.0
 44
0.0
 50
0.0
 51
0.0
 71
    16
 72
  2000
 73
     1
 74
     3
 75
     0
 76
     0
 77
     0
 78
     0
281
     0
 65
     1
110
0.0
120
0.0
130
0.0
111
1.0
121
0.0
131
0.0
112
0.0
122
1.0
132
0.0
 79
     0
146
0.0
  0
ENDTAB
  0
TABLE
  2
LTYPE
  5
5
330
0
100
AcDbSymbolTable
 70
     6
  0
LTYPE
  5
14
330
5
100
AcDbSymbolTableRecord
100
AcDbLinetypeTableRecord
  2
ByBlock
 70
     0
  3

 72
    65
 73
     0
 40
0.0
  0
LTYPE
  5
15
330
5
100
AcDbSymbolTableRecord
100
AcDbLinetypeTableRecord
  2
ByLayer
 70
     0
  3

 72
    65
 73
     0
 40
0.0
  0
LTYPE
  5
16
330
5
100
AcDbSymbolTableRecord
100
AcDbLinetypeTableRecord
  2
Continuous
 70
     0
  3
Solid line
 72
    65
 73
     0
 40
0.0
  0
LTYPE
  5
6A
330
5
100
AcDbSymbolTableRecord
100
AcDbLinetypeTableRecord
  2
HIDDEN
 70
     0
  3
Hidden __ __ __ __ __ __ __ __ __ __ __ __ __ __
 72
    65
 73
     2
 40
1.905
 49
1.27
 74
     0
 49
-0.635
 74
     0
  0
LTYPE
  5
6B
330
5
100
AcDbSymbolTableRecord
100
AcDbLinetypeTableRecord
  2
PHANTOM
 70
     0
  3
Phantom ______  __  __  ______  __  __  ______
 72
    65
 73
     6
 40
12.7
 49
6.35
 74
     0
 49
-1.27
 74
     0
 49
1.27
 74
     0
 49
-1.27
 74
     0
 49
1.27
 74
     0
 49
-1.27
 74
     0
  0
LTYPE
  5
6C
330
5
100
AcDbSymbolTableRecord
100
AcDbLinetypeTableRecord
  2
CENTER
 70
     0
  3
Center ____ _ ____ _ ____ _ ____ _ ____ _ ____
 72
    65
 73
     4
 40
10.16
 49
6.35
 74
     0
 49
-1.27
 74
     0
 49
1.27
 74
     0
 49
-1.27
 74
     0
  0
LTYPE
  5
6D
330
5
100
AcDbSymbolTableRecord
100
AcDbLinetypeTableRecord
  2
CENTERX2
 70
     0
  3
Center (2x) ________  __  ________  __  _____
 72
    65
 73
     4
 40
20.32
 49
12.7
 74
     0
 49
-2.54
 74
     0
 49
2.54
 74
     0
 49
-2.54
 74
     0
  0
LTYPE
  5
6E
330
5
100
AcDbSymbolTableRecord
100
AcDbLinetypeTableRecord
  2
DOT2
 70
     0
  3
Dot (.5x) ........................................
 72
    65
 73
     2
 40
0.635
 49
0.0
 74
     0
 49
-0.635
 74
     0
  0
ENDTAB
  0
TABLE
  2
LAYER
  5
2
102
{ACAD_XDICTIONARY
360
16E
102
}
330
0
100
AcDbSymbolTable
 70
    18
  0
LAYER
  5
10
330
2
100
AcDbSymbolTableRecord
100
AcDbLayerTableRecord
  2
0
 70
     0
 62
     7
  6
Continuous
370
    -3
390
F
  0
LAYER
  5
6F
330
2
100
AcDbSymbolTableRecord
100
AcDbLayerTableRecord
  2
FORMAT
 70
     0
 62
     2
  6
Continuous
370
    -3
390
F
  0
LAYER
  5
70
330
2
100
AcDbSymbolTableRecord
100
AcDbLayerTableRecord
  2
외형선
 70
     0
 62
     4
  6
Continuous
370
    30
390
F
  0
LAYER
  5
71
330
2
100
AcDbSymbolTableRecord
100
AcDbLayerTableRecord
  2
숨은선
 70
     0
 62
     2
  6
HIDDEN
370
    15
390
F
  0
LAYER
  5
72
330
2
100
AcDbSymbolTableRecord
100
AcDbLayerTableRecord
  2
중심선
 70
     0
 62
     1
  6
CENTERX2
370
    -3
390
F
  0
LAYER
  5
73
330
2
100
AcDbSymbolTableRecord
100
AcDbLayerTableRecord
  2
파단선
 70
     0
 62
     4
  6
Continuous
370
    -3
390
F
  0
LAYER
  5
74
330
2
100
AcDbSymbolTableRecord
100
AcDbLayerTableRecord
  2
해칭선
 70
     0
 62
   100
  6
Continuous
370
    -3
390
F
  0
LAYER
  5
75
330
2
100
AcDbSymbolTableRecord
100
AcDbLayerTableRecord
  2
가는실선
 70
     0
 62
     4
  6
Continuous
370
    -3
390
F
  0
LAYER
  5
76
330
2
100
AcDbSymbolTableRecord
100
AcDbLayerTableRecord
  2
치수_보조선
 70
     0
 62
     4
  6
Continuous
370
    -3
390
F
  0
LAYER
  5
77
330
2
100
AcDbSymbolTableRecord
100
AcDbLayerTableRecord
  2
치수문자_일반주서
 70
     0
 62
     7
  6
Continuous
370
    15
390
F
  0
LAYER
  5
78
330
2
100
AcDbSymbolTableRecord
100
AcDbLayerTableRecord
  2
개별주서
 70
     0
 62
   100
  6
Continuous
370
    30
390
F
  0
LAYER
  5
79
330
2
100
AcDbSymbolTableRecord
100
AcDbLayerTableRecord
  2
중간선
 70
     0
 62
     2
  6
Continuous
370
    15
390
F
  0
LAYER
  5
7A
330
2
100
AcDbSymbolTableRecord
100
AcDbLayerTableRecord
  2
윤곽선
 70
     0
 62
     3
  6
Continuous
370
    40
390
F
  0
LAYER
  5
7B
330
2
100
AcDbSymbolTableRecord
100
AcDbLayerTableRecord
  2
중심마크
 70
     0
 62
   100
  6
Continuous
370
    30
390
F
  0
LAYER
  5
7C
330
2
100
AcDbSymbolTableRecord
100
AcDbLayerTableRecord
  2
가상선
 70
     0
 62
     4
  6
PHANTOM
370
    -3
390
F
  0
LAYER
  5
7D
330
2
100
AcDbSymbolTableRecord
100
AcDbLayerTableRecord
  2
특수지정선
 70
     0
 62
     5
  6
CENTERX2
370
    60
390
F
  0
LAYER
  5
7E
330
2
100
AcDbSymbolTableRecord
100
AcDbLayerTableRecord
  2
참조1
 70
     0
 62
    -4
  6
Continuous
370
    -3
390
F
  0
LAYER
  5
12A
330
2
100
AcDbSymbolTableRecord
100
AcDbLayerTableRecord
  2
Defpoints
 70
     0
 62
     7
  6
Continuous
290
     0
370
    -3
390
F
  0
ENDTAB
  0
TABLE
  2
STYLE
  5
3
330
0
100
AcDbSymbolTable
 70
     2
  0
STYLE
  5
11
330
3
100
AcDbSymbolTableRecord
100
AcDbTextStyleTableRecord
  2
Standard
 70
     0
 40
0.0
 41
1.0
 50
0.0
 71
     0
 42
3.5
  3
txt
  4

  0
STYLE
  5
94
330
3
100
AcDbSymbolTableRecord
100
AcDbTextStyleTableRecord
  2
SLDTEXTSTYLE0
 70
     0
 40
0.0
 41
0.75
 50
0.0
 71
     0
 42
3.5
  3
TXT
  4

  0
ENDTAB
  0
TABLE
  2
VIEW
  5
6
330
0
100
AcDbSymbolTable
 70
     0
  0
ENDTAB
  0
TABLE
  2
UCS
  5
7
330
0
100
AcDbSymbolTable
 70
     0
  0
ENDTAB
  0
TABLE
  2
APPID
  5
9
330
0
100
AcDbSymbolTable
 70
     3
  0
APPID
  5
12
330
9
100
AcDbSymbolTableRecord
100
AcDbRegAppTableRecord
  2
ACAD
 70
     0
  0
APPID
  5
132
330
9
100
AcDbSymbolTableRecord
100
AcDbRegAppTableRecord
  2
PE_URL
 70
     0
  0
APPID
  5
133
330
9
100
AcDbSymbolTableRecord
100
AcDbRegAppTableRecord
  2
ACAD_DSTYLE_DIMRADIAL_EXTENSION
 70
     0
  0
ENDTAB
  0
TABLE
  2
DIMSTYLE
  5
A
330
0
100
AcDbSymbolTable
 70
     3
100
AcDbDimStyleTable
  0
DIMSTYLE
105
27
330
A
100
AcDbSymbolTableRecord
100
AcDbDimStyleTableRecord
  2
ISO-25
 70
     0
 41
2.5
 42
0.625
 43
3.75
 44
1.25
 73
     0
 74
     0
 77
     1
 78
     8
140
2.5
141
2.5
143
0.03937007874016
147
0.625
171
     3
172
     1
178
     0
271
     2
272
     2
274
     3
278
    44
283
     0
284
     8
340
11
  0
DIMSTYLE
105
CA
102
{ACAD_REACTORS
330
C9
330
D7
330
E4
330
152
330
EE
102
}
330
A
100
AcDbSymbolTableRecord
100
AcDbDimStyleTableRecord
  2
SLDDIMSTYLE0
 70
     0
 41
3.302
 44
0.0
 45
0.000000001
 73
     0
 74
     0
 77
     1
 78
    12
 79
     3
140
3.5
147
0.875
172
     1
173
     1
178
     0
271
     2
272
     2
276
     2
284
    12
289
     0
340
94
  0
DIMSTYLE
105
EF
102
{ACAD_REACTORS
330
162
330
1BA
102
}
330
A
100
AcDbSymbolTableRecord
100
AcDbDimStyleTableRecord
  2
SLDDIMSTYLE1
 70
     0
 41
3.302
 44
0.0
 45
0.000000001
 73
     0
 74
     0
 77
     1
 78
    12
 79
     3
140
3.5
147
0.875
173
     1
178
     0
271
     2
272
     2
276
     2
284
    12
340
94
  0
ENDTAB
  0
TABLE
  2
BLOCK_RECORD
  5
1
330
0
100
AcDbSymbolTable
 70
    13
  0
BLOCK_RECORD
  5
1F
330
1
100
AcDbSymbolTableRecord
100
AcDbBlockTableRecord
  2
*Model_Space
340
22
  0
BLOCK_RECORD
  5
1B
330
1
100
AcDbSymbolTableRecord
100
AcDbBlockTableRecord
  2
*Paper_Space
340
1E
  0
BLOCK_RECORD
  5
23
330
1
100
AcDbSymbolTableRecord
100
AcDbBlockTableRecord
  2
*Paper_Space0
340
26
  0
BLOCK_RECORD
  5
7F
330
1
100
AcDbSymbolTableRecord
100
AcDbBlockTableRecord
  2
블럭10
340
0
102
{BLKREFS
331
C2
102
}
  0
BLOCK_RECORD
  5
CB
330
1
100
AcDbSymbolTableRecord
100
AcDbBlockTableRecord
  2
_D
340
0
  0
BLOCK_RECORD
  5
D8
330
1
100
AcDbSymbolTableRecord
100
AcDbBlockTableRecord
  2
_D_1
340
0
  0
BLOCK_RECORD
  5
E5
330
1
100
AcDbSymbolTableRecord
100
AcDbBlockTableRecord
  2
_D_2
340
0
  0
BLOCK_RECORD
  5
F0
330
1
100
AcDbSymbolTableRecord
100
AcDbBlockTableRecord
  2
_D_3
340
0
  0
BLOCK_RECORD
  5
100
330
1
100
AcDbSymbolTableRecord
100
AcDbBlockTableRecord
  2
SW_DOWELSYMBOL_0
340
0
102
{BLKREFS
331
106
102
}
  0
BLOCK_RECORD
  5
163
330
1
100
AcDbSymbolTableRecord
100
AcDbBlockTableRecord
  2
*D8
340
0
  0
BLOCK_RECORD
  5
172
330
1
100
AcDbSymbolTableRecord
100
AcDbBlockTableRecord
  2
*D9
340
0
  0
BLOCK_RECORD
  5
185
330
1
100
AcDbSymbolTableRecord
100
AcDbBlockTableRecord
  2
*D10
340
0
  0
BLOCK_RECORD
  5
194
330
1
100
AcDbSymbolTableRecord
100
AcDbBlockTableRecord
  2
*D11
340
0
  0
BLOCK_RECORD
  5
1BD
330
1
100
AcDbSymbolTableRecord
100
AcDbBlockTableRecord
  2
*D12
340
0
  0
ENDTAB
  0
ENDSEC
  0
SECTION
  2
BLOCKS
  0
BLOCK
  5
20
330
1F
100
AcDbEntity
  8
0
100
AcDbBlockBegin
  2
*Model_Space
 70
     0
 10
0.0
 20
0.0
 30
0.0
  3
*Model_Space
  1

  0
ENDBLK
  5
21
330
1F
100
AcDbEntity
  8
0
100
AcDbBlockEnd
  0
BLOCK
  5
1C
330
1B
100
AcDbEntity
 67
     1
  8
0
100
AcDbBlockBegin
  2
*Paper_Space
 70
     0
 10
0.0
 20
0.0
 30
0.0
  3
*Paper_Space
  1

  0
ENDBLK
  5
1D
330
1B
100
AcDbEntity
 67
     1
  8
0
100
AcDbBlockEnd
  0
BLOCK
  5
24
330
23
100
AcDbEntity
  8
0
100
AcDbBlockBegin
  2
*Paper_Space0
 70
     0
 10
0.0
 20
0.0
 30
0.0
  3
*Paper_Space0
  1

  0
ENDBLK
  5
25
330
23
100
AcDbEntity
  8
0
100
AcDbBlockEnd
  0
BLOCK
  5
80
330
7F
100
AcDbEntity
  8
0
100
AcDbBlockBegin
  2
블럭10
 70
     2
 10
0.0
 20
0.0
 30
0.0
  3
블럭10
  1

  0
ELLIPSE
  5
82
330
7F
100
AcDbEntity
  8
중심선
100
AcDbEllipse
 10
20.54032771741204
 20
12.0471743016438
 30
0.0
 11
6.600054785286829
 21
-1.261213355974178E-13
 31
0.0
210
0.0
220
0.0
230
1.0
 40
0.636358354079598
 41
0.9219305317359503
 42
6.513795318482858
  0
ELLIPSE
  5
83
330
7F
100
AcDbEntity
  8
중심선
100
AcDbEllipse
 10
20.54032771746488
 20
12.04717430159265
 30
0.0
 11
3.960054785062283
 21
1.540847449632565E-10
 31
0.0
210
0.0
220
0.0
230
1.0
 40
0.3939339440162632
 41
1.131841032648279
 42
5.62031148352944
  0
LINE
  5
84
330
7F
100
AcDbEntity
  8
중심선
100
AcDbLine
 10
2.268634060543552
 20
16.24717430164393
 30
0.0
 11
5.714909304380834
 21
16.24717430164393
 31
0.0
  0
LINE
  5
85
330
7F
100
AcDbEntity
  8
중심선
100
AcDbLine
 10
5.245725140726316
 20
7.84717430164391
 30
0.0
 11
8.692000384563599
 21
7.84717430164391
 31
0.0
  0
LINE
  5
86
330
7F
100
AcDbEntity
  8
중심선
100
AcDbLine
 10
15.74043728645272
 20
16.24717430164393
 30
0.0
 11
8.692000384563599
 21
7.84717430164391
 31
0.0
  0
LINE
  5
87
330
7F
100
AcDbEntity
  8
중심선
100
AcDbLine
 10
0.1404042013395286
 20
13.71084872107135
 30
0.0
 11
3.58671253028996
 21
13.71088815037384
 31
0.0
  0
LINE
  5
88
330
7F
100
AcDbEntity
  8
중심선
100
AcDbLine
 10
2.750260043222114
 20
10.84717430164391
 30
0.0
 11
6.196535287059397
 21
10.84717430164391
 31
0.0
  0
LINE
  5
89
330
7F
100
AcDbEntity
  8
중심선
100
AcDbLine
 10
12.29416204261559
 20
16.24717430164393
 30
0.0
 11
5.245725140726316
 21
7.84717430164391
 31
0.0
  0
LINE
  5
8A
330
7F
100
AcDbEntity
  8
중심선
100
AcDbLine
 10
10.72767329541681
 20
16.24717430164393
 30
0.0
 11
6.196535287059397
 21
10.84717430164391
 31
0.0
  0
LINE
  5
8B
330
7F
100
AcDbEntity
  8
중심선
100
AcDbLine
 10
7.28139805157953
 20
16.24717430164393
 30
0.0
 11
2.750260043222114
 21
10.84717430164391
 31
0.0
  0
LINE
  5
8C
330
7F
100
AcDbEntity
  8
중심선
100
AcDbLine
 10
5.714909304380834
 20
16.24717430164393
 30
0.0
 11
3.58671253028996
 21
13.71088815037384
 31
0.0
  0
LINE
  5
8D
330
7F
100
AcDbEntity
  8
중심선
100
AcDbLine
 10
2.268634060543552
 20
16.24717430164393
 30
0.0
 11
0.1404042013395286
 21
13.71084872107135
 31
0.0
  0
LINE
  5
8E
330
7F
100
AcDbEntity
  8
중심선
100
AcDbLine
 10
7.28139805157953
 20
16.24717430164393
 30
0.0
 11
10.72767329541681
 21
16.24717430164393
 31
0.0
  0
LINE
  5
8F
330
7F
100
AcDbEntity
  8
중심선
100
AcDbLine
 10
12.29416204261559
 20
16.24717430164393
 30
0.0
 11
15.74043728645272
 21
16.24717430164393
 31
0.0
  0
LINE
  5
90
330
7F
100
AcDbEntity
  8
중심선
100
AcDbLine
 10
19.22036997980202
 20
11.08717430171403
 30
0.0
 11
23.66174974927406
 21
11.08717430171406
 31
0.0
  0
LINE
  5
91
330
7F
100
AcDbEntity
  8
중심선
100
AcDbLine
 10
19.22039502424796
 20
13.00717430171391
 30
0.0
 11
19.22036997980202
 21
11.08717430171403
 31
0.0
  0
LINE
  5
92
330
7F
100
AcDbEntity
  8
중심선
100
AcDbLine
 10
19.22039502424796
 20
13.00717430171391
 30
0.0
 11
26.96566020931264
 21
13.00717430171391
 31
0.0
  0
LINE
  5
93
330
7F
100
AcDbEntity
  8
중심선
100
AcDbLine
 10
22.22332737316547
 20
13.45928029700563
 30
0.0
 11
24.52862924686651
 21
15.39360700705356
 31
0.0
  0
ATTDEF
  5
95
330
7F
100
AcDbEntity
  8
FORMAT
 62
     2
100
AcDbText
 10
-16.11926103943555
 20
2.075366912832191
 30
0.0
 40
4.233333333333333
  1
SEME0108010E [ 4 FLUTE ]
 41
0.75
  7
SLDTEXTSTYLE0
 11
-16.11926103943555
 21
-0.0412997538344756
 31
0.0
100
AcDbAttributeDefinition
  3

  2
AUTOATTR0
 70
     0
 74
     1
  0
ENDBLK
  5
81
330
7F
100
AcDbEntity
  8
0
100
AcDbBlockEnd
  0
BLOCK
  5
CC
330
CB
100
AcDbEntity
  8
0
100
AcDbBlockBegin
  2
_D
 70
     0
 10
0.0
 20
0.0
 30
0.0
  3
_D
  1

  0
LINE
  5
CE
330
CB
100
AcDbEntity
  8
치수문자_일반주서
 62
     0
370
    -2
100
AcDbLine
 10
30.06249999999999
 20
3.972811654528124
 30
0.0
 11
39.99999999999997
 21
3.97281165452816
 31
0.0
  0
LINE
  5
CF
330
CB
100
AcDbEntity
  8
치수문자_일반주서
 62
     0
370
    -2
100
AcDbLine
 10
30.06249999999999
 20
-4.027188345471877
 30
0.0
 11
40.0
 21
-4.027188345471842
 31
0.0
  0
LINE
  5
D0
330
CB
100
AcDbEntity
  8
치수문자_일반주서
 62
     0
370
    -2
100
AcDbLine
 10
39.99999999999997
 20
3.97281165452816
 30
0.0
 11
39.99999999999992
 21
16.70181165452819
 31
0.0
  0
LINE
  5
D1
330
CB
100
AcDbEntity
  8
치수문자_일반주서
 62
     0
370
    -2
100
AcDbLine
 10
39.99999999999997
 20
3.97281165452816
 30
0.0
 11
40.0
 21
-4.027188345471842
 31
0.0
  0
LINE
  5
D2
330
CB
100
AcDbEntity
  8
치수문자_일반주서
 62
     0
370
    -2
100
AcDbLine
 10
39.99999999999996
 20
7.274811654528159
 30
0.0
 11
39.99999999999994
 21
10.57681165452816
 31
0.0
  0
LINE
  5
D3
330
CB
100
AcDbEntity
  8
치수문자_일반주서
 62
     0
370
    -2
100
AcDbLine
 10
40.00000000000001
 20
-7.329188345471842
 30
0.0
 11
40.00000000000003
 21
-10.63118834547184
 31
0.0
  0
SOLID
  5
D4
330
CB
100
AcDbEntity
  8
치수문자_일반주서
 62
     0
100
AcDbTrace
 10
39.44966666666662
 20
7.274811654528158
 30
0.0
 11
40.55033333333329
 21
7.274811654528161
 31
0.0
 12
39.99999999999997
 22
3.97281165452816
 32
0.0
 13
39.99999999999997
 23
3.97281165452816
 33
0.0
  0
SOLID
  5
D5
330
CB
100
AcDbEntity
  8
치수문자_일반주서
 62
     0
100
AcDbTrace
 10
40.55033333333335
 20
-7.32918834547184
 30
0.0
 11
39.44966666666668
 21
-7.329188345471843
 31
0.0
 12
40.0
 22
-4.027188345471842
 32
0.0
 13
40.0
 23
-4.027188345471842
 33
0.0
  0
MTEXT
  5
D6
330
CB
100
AcDbEntity
  8
치수문자_일반주서
 62
     0
100
AcDbMText
 10
35.62499999999994
 20
13.63931165452817
 30
0.0
 40
3.5
 41
0.0
 71
     2
 72
     1
  1
\A1;%%c8
  7
SLDTEXTSTYLE0
 11
-3.552713678800501E-15
 21
1.0
 31
0.0
 73
     1
 44
1.0
  0
POINT
  5
1B2
330
CB
100
AcDbEntity
  8
Defpoints
 62
     0
100
AcDbPoint
 10
29.99999999999999
 20
3.972811654528123
 30
0.0
  0
POINT
  5
1B3
330
CB
100
AcDbEntity
  8
Defpoints
 62
     0
100
AcDbPoint
 10
29.99999999999999
 20
-4.027188345471877
 30
0.0
  0
POINT
  5
1B4
330
CB
100
AcDbEntity
  8
Defpoints
 62
     0
100
AcDbPoint
 10
39.99999999999999
 20
-4.027188345471839
 30
0.0
  0
ENDBLK
  5
CD
330
CB
100
AcDbEntity
  8
0
100
AcDbBlockEnd
  0
BLOCK
  5
D9
330
D8
100
AcDbEntity
  8
0
100
AcDbBlockBegin
  2
_D_1
 70
     0
 10
0.0
 20
0.0
 30
0.0
  3
_D_1
  1

  0
LINE
  5
DB
330
D8
100
AcDbEntity
  8
치수문자_일반주서
 62
     0
370
    -2
100
AcDbLine
 10
-69.26250000000002
 20
3.97281165452813
 30
0.0
 11
-80.00000000000003
 21
3.972811654528089
 31
0.0
  0
LINE
  5
DC
330
D8
100
AcDbEntity
  8
치수문자_일반주서
 62
     0
370
    -2
100
AcDbLine
 10
-69.26250000000002
 20
-4.027188345471877
 30
0.0
 11
-80.0
 21
-4.027188345471918
 31
0.0
  0
LINE
  5
DD
330
D8
100
AcDbEntity
  8
치수문자_일반주서
 62
     0
370
    -2
100
AcDbLine
 10
-80.00000000000003
 20
3.972811654528089
 30
0.0
 11
-80.00000000000007
 21
16.70181165452809
 31
0.0
  0
LINE
  5
DE
330
D8
100
AcDbEntity
  8
치수문자_일반주서
 62
     0
370
    -2
100
AcDbLine
 10
-80.00000000000003
 20
3.972811654528089
 30
0.0
 11
-80.0
 21
-4.027188345471918
 31
0.0
  0
LINE
  5
DF
330
D8
100
AcDbEntity
  8
치수문자_일반주서
 62
     0
370
    -2
100
AcDbLine
 10
-80.00000000000004
 20
7.274811654528088
 30
0.0
 11
-80.00000000000006
 21
10.57681165452809
 31
0.0
  0
LINE
  5
E0
330
D8
100
AcDbEntity
  8
치수문자_일반주서
 62
     0
370
    -2
100
AcDbLine
 10
-79.99999999999999
 20
-7.329188345471918
 30
0.0
 11
-79.99999999999997
 21
-10.63118834547192
 31
0.0
  0
SOLID
  5
E1
330
D8
100
AcDbEntity
  8
치수문자_일반주서
 62
     0
100
AcDbTrace
 10
-80.55033333333337
 20
7.274811654528087
 30
0.0
 11
-79.44966666666672
 21
7.27481165452809
 31
0.0
 12
-80.00000000000003
 22
3.972811654528089
 32
0.0
 13
-80.00000000000003
 23
3.972811654528089
 33
0.0
  0
SOLID
  5
E2
330
D8
100
AcDbEntity
  8
치수문자_일반주서
 62
     0
100
AcDbTrace
 10
-79.44966666666666
 20
-7.329188345471916
 30
0.0
 11
-80.55033333333331
 21
-7.32918834547192
 31
0.0
 12
-80.0
 22
-4.027188345471918
 32
0.0
 13
-80.0
 23
-4.027188345471918
 33
0.0
  0
MTEXT
  5
E3
330
D8
100
AcDbEntity
  8
치수문자_일반주서
 62
     0
100
AcDbMText
 10
-84.37500000000006
 20
13.63931165452808
 30
0.0
 40
3.5
 41
0.0
 71
     2
 72
     1
  1
\A1;%%c8
  7
SLDTEXTSTYLE0
 11
-3.552713678800499E-15
 21
1.0
 31
0.0
 73
     1
 44
1.0
  0
POINT
  5
1AF
330
D8
100
AcDbEntity
  8
Defpoints
 62
     0
100
AcDbPoint
 10
-69.20000000000002
 20
3.97281165452813
 30
0.0
  0
POINT
  5
1B0
330
D8
100
AcDbEntity
  8
Defpoints
 62
     0
100
AcDbPoint
 10
-69.20000000000002
 20
-4.027188345471877
 30
0.0
  0
POINT
  5
1B1
330
D8
100
AcDbEntity
  8
Defpoints
 62
     0
100
AcDbPoint
 10
-80.0
 20
-4.027188345471917
 30
0.0
  0
ENDBLK
  5
DA
330
D8
100
AcDbEntity
  8
0
100
AcDbBlockEnd
  0
BLOCK
  5
E6
330
E5
100
AcDbEntity
  8
0
100
AcDbBlockBegin
  2
_D_2
 70
     0
 10
0.0
 20
0.0
 30
0.0
  3
_D_2
  1

  0
LINE
  5
E8
330
E5
100
AcDbEntity
  8
치수문자_일반주서
 62
     0
370
    -2
100
AcDbLine
 10
29.99999999999999
 20
4.035311654528123
 30
0.0
 11
29.99999999999999
 21
13.97281165452813
 31
0.0
  0
LINE
  5
E9
330
E5
100
AcDbEntity
  8
치수문자_일반주서
 62
     0
370
    -2
100
AcDbLine
 10
10.0
 20
3.97825209007995
 30
0.0
 11
10.0
 21
13.97281165452813
 31
0.0
  0
LINE
  5
EA
330
E5
100
AcDbEntity
  8
치수문자_일반주서
 62
     0
370
    -2
100
AcDbLine
 10
26.69799999999999
 20
13.97281165452813
 30
0.0
 11
13.302
 21
13.97281165452813
 31
0.0
  0
SOLID
  5
EB
330
E5
100
AcDbEntity
  8
치수문자_일반주서
 62
     0
100
AcDbTrace
 10
26.69799999999999
 20
13.42247832119479
 30
0.0
 11
26.69799999999999
 21
14.52314498786146
 31
0.0
 12
29.99999999999999
 22
13.97281165452813
 32
0.0
 13
29.99999999999999
 23
13.97281165452813
 33
0.0
  0
SOLID
  5
EC
330
E5
100
AcDbEntity
  8
치수문자_일반주서
 62
     0
100
AcDbTrace
 10
13.302
 20
14.52314498786146
 30
0.0
 11
13.302
 21
13.42247832119479
 31
0.0
 12
10.0
 22
13.97281165452813
 32
0.0
 13
10.0
 23
13.97281165452813
 33
0.0
  0
MTEXT
  5
ED
330
E5
100
AcDbEntity
  8
치수문자_일반주서
 62
     0
100
AcDbMText
 10
19.99999999999999
 20
18.34781165452813
 30
0.0
 40
3.5
 41
0.0
 71
     2
 72
     1
  1
\A1;20
  7
SLDTEXTSTYLE0
 73
     1
 44
1.0
  0
POINT
  5
1A9
330
E5
100
AcDbEntity
  8
Defpoints
 62
     0
100
AcDbPoint
 10
29.99999999999999
 20
3.972811654528123
 30
0.0
  0
POINT
  5
1AA
330
E5
100
AcDbEntity
  8
Defpoints
 62
     0
100
AcDbPoint
 10
10.0
 20
3.91575209007995
 30
0.0
  0
POINT
  5
1AB
330
E5
100
AcDbEntity
  8
Defpoints
 62
     0
100
AcDbPoint
 10
10.0
 20
13.97281165452813
 30
0.0
  0
ENDBLK
  5
E7
330
E5
100
AcDbEntity
  8
0
100
AcDbBlockEnd
  0
BLOCK
  5
F1
330
F0
100
AcDbEntity
  8
0
100
AcDbBlockBegin
  2
_D_3
 70
     0
 10
0.0
 20
0.0
 30
0.0
  3
_D_3
  1

  0
LINE
  5
F3
330
F0
100
AcDbEntity
  8
치수문자_일반주서
 62
     0
370
    -2
100
AcDbLine
 10
29.99999999999999
 20
4.035311654528123
 30
0.0
 11
29.99999999999999
 21
23.97281165452813
 31
0.0
  0
LINE
  5
F4
330
F0
100
AcDbEntity
  8
치수문자_일반주서
 62
     0
370
    -2
100
AcDbLine
 10
-70.00000000000003
 20
3.23531165452813
 30
0.0
 11
-70.00000000000003
 21
23.97281165452813
 31
0.0
  0
LINE
  5
F5
330
F0
100
AcDbEntity
  8
치수문자_일반주서
 62
     0
370
    -2
100
AcDbLine
 10
26.69799999999999
 20
23.97281165452813
 30
0.0
 11
-66.69800000000004
 21
23.97281165452813
 31
0.0
  0
SOLID
  5
F6
330
F0
100
AcDbEntity
  8
치수문자_일반주서
 62
     0
100
AcDbTrace
 10
26.69799999999999
 20
23.42247832119479
 30
0.0
 11
26.69799999999999
 21
24.52314498786146
 31
0.0
 12
29.99999999999999
 22
23.97281165452813
 32
0.0
 13
29.99999999999999
 23
23.97281165452813
 33
0.0
  0
SOLID
  5
F7
330
F0
100
AcDbEntity
  8
치수문자_일반주서
 62
     0
100
AcDbTrace
 10
-66.69800000000004
 20
24.52314498786146
 30
0.0
 11
-66.69800000000004
 21
23.42247832119479
 31
0.0
 12
-70.00000000000003
 22
23.97281165452813
 32
0.0
 13
-70.00000000000003
 23
23.97281165452813
 33
0.0
  0
MTEXT
  5
F8
330
F0
100
AcDbEntity
  8
치수문자_일반주서
 62
     0
100
AcDbMText
 10
-20.00000000000003
 20
28.34781165452813
 30
0.0
 40
3.5
 41
0.0
 71
     2
 72
     1
  1
\A1;100
  7
SLDTEXTSTYLE0
 73
     1
 44
1.0
  0
POINT
  5
1AC
330
F0
100
AcDbEntity
  8
Defpoints
 62
     0
100
AcDbPoint
 10
29.99999999999999
 20
3.972811654528123
 30
0.0
  0
POINT
  5
1AD
330
F0
100
AcDbEntity
  8
Defpoints
 62
     0
100
AcDbPoint
 10
-70.00000000000003
 20
3.17281165452813
 30
0.0
  0
POINT
  5
1AE
330
F0
100
AcDbEntity
  8
Defpoints
 62
     0
100
AcDbPoint
 10
-70.00000000000003
 20
23.97281165452813
 30
0.0
  0
ENDBLK
  5
F2
330
F0
100
AcDbEntity
  8
0
100
AcDbBlockEnd
  0
BLOCK
  5
101
330
100
100
AcDbEntity
  8
0
100
AcDbBlockBegin
  2
SW_DOWELSYMBOL_0
 70
     0
 10
0.0
 20
0.0
 30
0.0
  3
SW_DOWELSYMBOL_0
  1

  0
CIRCLE
  5
103
330
100
100
AcDbEntity
  8
해칭선
 62
     0
100
AcDbCircle
 10
0.0
 20
0.0
 30
0.0
 40
3.000000000000001
  0
HATCH
  5
104
330
100
100
AcDbEntity
  8
0
  6
Continuous
 62
     0
370
     0
100
AcDbHatch
 10
0.0
 20
0.0
 30
0.0
210
0.0
220
0.0
230
1.0
  2
SOLID
 70
     1
 71
     0
 91
        1
 92
        0
 93
        3
 72
     2
 10
0.0
 20
0.0
 40
3.000000000000001
 50
0.0
 51
90.0
 73
     1
 72
     1
 10
0.0
 20
3.000000000000001
 11
0.0
 21
0.0
 72
     1
 10
0.0
 20
0.0
 11
3.000000000000003
 21
0.0
 97
        0
 75
     0
 76
     1
 98
        1
 10
0.0
 20
0.0
  0
HATCH
  5
105
330
100
100
AcDbEntity
  8
0
  6
Continuous
 62
     0
370
     0
100
AcDbHatch
 10
0.0
 20
0.0
 30
0.0
210
0.0
220
0.0
230
1.0
  2
SOLID
 70
     1
 71
     0
 91
        1
 92
        0
 93
        3
 72
     2
 10
0.0
 20
0.0
 40
3.000000000000001
 50
180.0
 51
270.0000000000008
 73
     1
 72
     1
 10
0.0
 20
-3.000000000000001
 11
0.0
 21
0.0
 72
     1
 10
0.0
 20
0.0
 11
-3.000000000000003
 21
0.0
 97
        0
 75
     0
 76
     1
 98
        1
 10
0.0
 20
0.0
  0
ENDBLK
  5
102
330
100
100
AcDbEntity
  8
0
100
AcDbBlockEnd
  0
BLOCK
  5
164
330
163
100
AcDbEntity
  8
0
100
AcDbBlockBegin
  2
*D8
 70
     1
 10
0.0
 20
0.0
 30
0.0
  3
*D8
  1

  0
LINE
  5
165
330
163
100
AcDbEntity
  8
치수문자_일반주서
 62
     0
370
    -2
100
AcDbLine
 10
12.62717396278132
 20
13.04557445451085
 30
0.0
 11
21.11951954006028
 21
0.0000000000000533
 31
0.0
  0
MTEXT
  5
166
330
163
100
AcDbEntity
  8
치수문자_일반주서
 62
     0
100
AcDbMText
 10
21.05195792753105
 20
4.915330557654589
 30
0.0
 40
3.5
 41
0.0
 71
     5
 72
     1
  1
\A1;R0.1
  7
SLDTEXTSTYLE0
 11
0.5455627707375155
 21
-0.8380699631804049
 31
0.0
 73
     1
 44
1.0
  0
SOLID
  5
167
330
163
100
AcDbEntity
  8
치수문자_일반주서
 62
     0
100
AcDbTrace
 10
13.08839179918493
 20
13.34581583267339
 30
0.0
 11
12.1659561263777
 21
12.7453330763483
 31
0.0
 12
10.82572569380604
 22
15.81288147293254
 32
0.0
 13
10.82572569380604
 23
15.81288147293254
 33
0.0
  0
LINE
  5
168
330
163
100
AcDbEntity
  8
치수문자_일반주서
 62
     0
100
AcDbLine
 10
10.72616941673229
 20
15.89668846925058
 30
0.0
 11
10.81616941673229
 21
15.89668846925058
 31
0.0
  0
LINE
  5
169
330
163
100
AcDbEntity
  8
치수문자_일반주서
 62
     0
100
AcDbLine
 10
10.77116941673229
 20
15.85168846925058
 30
0.0
 11
10.77116941673229
 21
15.94168846925058
 31
0.0
  0
POINT
  5
16A
330
163
100
AcDbEntity
  8
Defpoints
 62
     0
100
AcDbPoint
 10
10.82572569380604
 20
15.81288147293254
 30
0.0
  0
POINT
  5
16B
330
163
100
AcDbEntity
  8
Defpoints
 62
     0
100
AcDbPoint
 10
10.77116941673229
 20
15.89668846925058
 30
0.0
  0
ENDBLK
  5
16C
330
163
100
AcDbEntity
  8
0
100
AcDbBlockEnd
  0
BLOCK
  5
173
330
172
100
AcDbEntity
  8
0
100
AcDbBlockBegin
  2
*D9
 70
     1
 10
0.0
 20
0.0
 30
0.0
  3
*D9
  1

  0
LINE
  5
175
330
172
100
AcDbEntity
  8
치수문자_일반주서
 62
     0
370
    -2
100
AcDbLine
 10
10.9336694167323
 20
21.79496381848847
 30
0.0
 11
20.87116941673229
 21
21.7949638184885
 31
0.0
  0
LINE
  5
176
330
172
100
AcDbEntity
  8
치수문자_일반주서
 62
     0
370
    -2
100
AcDbLine
 10
10.9336694167323
 20
15.79496381848847
 30
0.0
 11
20.87116941673231
 21
15.79496381848851
 31
0.0
  0
LINE
  5
177
330
172
100
AcDbEntity
  8
치수문자_일반주서
 62
     0
370
    -2
100
AcDbLine
 10
20.87116941673229
 20
21.7949638184885
 30
0.0
 11
20.87116941673224
 21
34.52396381848853
 31
0.0
  0
LINE
  5
178
330
172
100
AcDbEntity
  8
치수문자_일반주서
 62
     0
370
    -2
100
AcDbLine
 10
20.87116941673229
 20
21.7949638184885
 30
0.0
 11
20.87116941673231
 21
15.79496381848851
 31
0.0
  0
LINE
  5
179
330
172
100
AcDbEntity
  8
치수문자_일반주서
 62
     0
370
    -2
100
AcDbLine
 10
20.87116941673228
 20
25.0969638184885
 30
0.0
 11
20.87116941673226
 21
28.3989638184885
 31
0.0
  0
LINE
  5
17A
330
172
100
AcDbEntity
  8
치수문자_일반주서
 62
     0
370
    -2
100
AcDbLine
 10
20.87116941673232
 20
12.49296381848851
 30
0.0
 11
20.87116941673233
 21
9.190963818488507
 31
0.0
  0
SOLID
  5
17B
330
172
100
AcDbEntity
  8
치수문자_일반주서
 62
     0
100
AcDbTrace
 10
20.32083608339894
 20
25.0969638184885
 30
0.0
 11
21.42150275006561
 21
25.09696381848851
 31
0.0
 12
20.87116941673229
 22
21.7949638184885
 32
0.0
 13
20.87116941673229
 23
21.7949638184885
 33
0.0
  0
SOLID
  5
17C
330
172
100
AcDbEntity
  8
치수문자_일반주서
 62
     0
100
AcDbTrace
 10
21.42150275006565
 20
12.49296381848851
 30
0.0
 11
20.32083608339898
 21
12.49296381848851
 31
0.0
 12
20.87116941673231
 22
15.79496381848851
 32
0.0
 13
20.87116941673231
 23
15.79496381848851
 33
0.0
  0
MTEXT
  5
17D
330
172
100
AcDbEntity
  8
치수문자_일반주서
 62
     0
100
AcDbMText
 10
16.49616941673225
 20
31.46146381848851
 30
0.0
 40
3.5
 41
0.0
 71
     2
 72
     1
  1
\A1;%%c6
  7
SLDTEXTSTYLE0
 11
-3.552713678800503E-15
 21
1.0
 31
0.0
 73
     1
 44
1.0
  0
POINT
  5
17E
330
172
100
AcDbEntity
  8
Defpoints
 62
     0
100
AcDbPoint
 10
10.8711694167323
 20
21.79496381848847
 30
0.0
  0
POINT
  5
17F
330
172
100
AcDbEntity
  8
Defpoints
 62
     0
100
AcDbPoint
 10
10.8711694167323
 20
15.79496381848847
 30
0.0
  0
POINT
  5
180
330
172
100
AcDbEntity
  8
Defpoints
 62
     0
100
AcDbPoint
 10
20.87116941673231
 20
15.79496381848851
 30
0.0
  0
ENDBLK
  5
174
330
172
100
AcDbEntity
  8
0
100
AcDbBlockEnd
  0
BLOCK
  5
186
330
185
100
AcDbEntity
  8
0
100
AcDbBlockBegin
  2
*D10
 70
     1
 10
0.0
 20
0.0
 30
0.0
  3
*D10
  1

  0
LINE
  5
188
330
185
100
AcDbEntity
  8
치수문자_일반주서
 62
     0
370
    -2
100
AcDbLine
 10
85.03303551976622
 20
10.03308123924025
 30
0.0
 11
94.9705355197662
 21
10.03308123924029
 31
0.0
  0
LINE
  5
189
330
185
100
AcDbEntity
  8
치수문자_일반주서
 62
     0
370
    -2
100
AcDbLine
 10
85.03303551976622
 20
4.033081239240255
 30
0.0
 11
94.97053551976622
 21
4.033081239240293
 31
0.0
  0
LINE
  5
18A
330
185
100
AcDbEntity
  8
치수문자_일반주서
 62
     0
370
    -2
100
AcDbLine
 10
94.9705355197662
 20
10.03308123924029
 30
0.0
 11
94.97053551976616
 21
22.76208123924032
 31
0.0
  0
LINE
  5
18B
330
185
100
AcDbEntity
  8
치수문자_일반주서
 62
     0
370
    -2
100
AcDbLine
 10
94.9705355197662
 20
10.03308123924029
 30
0.0
 11
94.97053551976622
 21
4.033081239240293
 31
0.0
  0
LINE
  5
18C
330
185
100
AcDbEntity
  8
치수문자_일반주서
 62
     0
370
    -2
100
AcDbLine
 10
94.97053551976619
 20
13.33508123924029
 30
0.0
 11
94.97053551976617
 21
16.63708123924029
 31
0.0
  0
LINE
  5
18D
330
185
100
AcDbEntity
  8
치수문자_일반주서
 62
     0
370
    -2
100
AcDbLine
 10
94.97053551976623
 20
0.731081239240293
 30
0.0
 11
94.97053551976624
 21
-2.570918760759707
 31
0.0
  0
SOLID
  5
18E
330
185
100
AcDbEntity
  8
치수문자_일반주서
 62
     0
100
AcDbTrace
 10
94.42020218643286
 20
13.33508123924029
 30
0.0
 11
95.52086885309951
 21
13.33508123924029
 31
0.0
 12
94.9705355197662
 22
10.03308123924029
 32
0.0
 13
94.9705355197662
 23
10.03308123924029
 33
0.0
  0
SOLID
  5
18F
330
185
100
AcDbEntity
  8
치수문자_일반주서
 62
     0
100
AcDbTrace
 10
95.52086885309956
 20
0.7310812392402943
 30
0.0
 11
94.4202021864329
 21
0.7310812392402917
 31
0.0
 12
94.97053551976622
 22
4.033081239240293
 32
0.0
 13
94.97053551976622
 23
4.033081239240293
 33
0.0
  0
MTEXT
  5
190
330
185
100
AcDbEntity
  8
치수문자_일반주서
 62
     0
100
AcDbMText
 10
90.59553551976617
 20
19.69958123924031
 30
0.0
 40
3.5
 41
0.0
 71
     2
 72
     1
  1
\A1;%%c6
  7
SLDTEXTSTYLE0
 11
-2.368475785867001E-15
 21
1.0
 31
0.0
 73
     1
 44
1.0
  0
POINT
  5
191
330
185
100
AcDbEntity
  8
Defpoints
 62
     0
100
AcDbPoint
 10
84.97053551976622
 20
10.03308123924025
 30
0.0
  0
POINT
  5
192
330
185
100
AcDbEntity
  8
Defpoints
 62
     0
100
AcDbPoint
 10
84.97053551976622
 20
4.033081239240255
 30
0.0
  0
POINT
  5
193
330
185
100
AcDbEntity
  8
Defpoints
 62
     0
100
AcDbPoint
 10
94.97053551976623
 20
4.033081239240293
 30
0.0
  0
ENDBLK
  5
187
330
185
100
AcDbEntity
  8
0
100
AcDbBlockEnd
  0
BLOCK
  5
195
330
194
100
AcDbEntity
  8
0
100
AcDbBlockBegin
  2
*D11
 70
     1
 10
0.0
 20
0.0
 30
0.0
  3
*D11
  1

  0
LINE
  5
197
330
194
100
AcDbEntity
  8
치수문자_일반주서
 62
     0
370
    -2
100
AcDbLine
 10
86.72654006581506
 20
1.283691875262524
 30
0.0
 11
95.21888564309324
 21
-11.76188257924878
 31
0.0
  0
MTEXT
  5
198
330
194
100
AcDbEntity
  8
치수문자_일반주서
 62
     0
100
AcDbMText
 10
95.15132403056431
 20
-6.846552021594237
 30
0.0
 40
3.5
 41
0.0
 71
     5
 72
     1
  1
\A1;R0.1
  7
SLDTEXTSTYLE0
 11
0.5455627707374655
 21
-0.8380699631804374
 31
0.0
 73
     1
 44
1.0
  0
SOLID
  5
199
330
194
100
AcDbEntity
  8
치수문자_일반주서
 62
     0
100
AcDbTrace
 10
87.18775790221869
 20
1.583933253425043
 30
0.0
 11
86.26532222941142
 21
0.983450497100006
 31
0.0
 12
84.92509179683995
 22
4.050998893684328
 32
0.0
 13
84.92509179683995
 23
4.050998893684328
 33
0.0
  0
LINE
  5
19A
330
194
100
AcDbEntity
  8
치수문자_일반주서
 62
     0
100
AcDbLine
 10
84.8255355197662
 20
4.134805890002367
 30
0.0
 11
84.91553551976621
 21
4.134805890002367
 31
0.0
  0
LINE
  5
19B
330
194
100
AcDbEntity
  8
치수문자_일반주서
 62
     0
100
AcDbLine
 10
84.87053551976621
 20
4.089805890002367
 30
0.0
 11
84.87053551976621
 21
4.179805890002367
 31
0.0
  0
POINT
  5
19C
330
194
100
AcDbEntity
  8
Defpoints
 62
     0
100
AcDbPoint
 10
84.92509179683995
 20
4.050998893684328
 30
0.0
  0
POINT
  5
19D
330
194
100
AcDbEntity
  8
Defpoints
 62
     0
100
AcDbPoint
 10
84.87053551976621
 20
4.134805890002367
 30
0.0
  0
ENDBLK
  5
196
330
194
100
AcDbEntity
  8
0
100
AcDbBlockEnd
  0
BLOCK
  5
1BE
330
1BD
100
AcDbEntity
  8
0
100
AcDbBlockBegin
  2
*D12
 70
     1
 10
0.0
 20
0.0
 30
0.0
  3
*D12
  1

  0
LINE
  5
1C0
330
1BD
100
AcDbEntity
  8
치수문자_일반주서
 62
     0
370
    -2
100
AcDbLine
 10
31.3516575618117
 20
-6.684185881514074
 30
0.0
 11
40.28814613911186
 21
-20.37339887692541
 31
0.0
  0
MTEXT
  5
1C1
330
1BD
100
AcDbEntity
  8
치수문자_일반주서
 62
     0
100
AcDbMText
 10
41.05129403639084
 20
-16.74037599138248
 30
0.0
 40
3.5
 41
0.0
 71
     5
 72
     1
  1
\A1;R1
  7
SLDTEXTSTYLE0
 11
0.546642854907418
 21
-0.83736586339465
 31
0.0
 73
     1
 44
1.0
  0
SOLID
  5
1C2
330
1BD
100
AcDbEntity
  8
치수문자_일반주서
 62
     0
100
AcDbTrace
 10
31.81248790863322
 20
-6.383350097030025
 30
0.0
 11
30.89082721499017
 21
-6.985021665998122
 31
0.0
 12
29.5466428549074
 22
-3.91920380058494
 32
0.0
 13
29.5466428549074
 23
-3.91920380058494
 33
0.0
  0
LINE
  5
1C3
330
1BD
100
AcDbEntity
  8
치수문자_일반주서
 62
     0
100
AcDbLine
 10
28.95499999999998
 20
-3.08183793719029
 30
0.0
 11
29.04499999999999
 21
-3.08183793719029
 31
0.0
  0
LINE
  5
1C4
330
1BD
100
AcDbEntity
  8
치수문자_일반주서
 62
     0
100
AcDbLine
 10
28.99999999999999
 20
-3.12683793719029
 30
0.0
 11
28.99999999999999
 21
-3.03683793719029
 31
0.0
  0
POINT
  5
1C5
330
1BD
100
AcDbEntity
  8
Defpoints
 62
     0
100
AcDbPoint
 10
29.5466428549074
 20
-3.91920380058494
 30
0.0
  0
POINT
  5
1C6
330
1BD
100
AcDbEntity
  8
Defpoints
 62
     0
100
AcDbPoint
 10
28.99999999999999
 20
-3.08183793719029
 30
0.0
  0
ENDBLK
  5
1BF
330
1BD
100
AcDbEntity
  8
0
100
AcDbBlockEnd
  0
ENDSEC
  0
SECTION
  2
ENTITIES
  0
LINE
  5
96
330
1F
100
AcDbEntity
  8
0
  6
Continuous
 62
     1
370
    15
100
AcDbLine
 10
19.71226054857599
 20
-4.027188345471875
 30
0.0
 11
22.150668242252
 21
-4.027188345471875
 31
0.0
1001
PE_URL
1000

  0
LINE
  5
97
330
1F
100
AcDbEntity
  8
0
  6
Continuous
 62
     1
370
    15
100
AcDbLine
 10
11.26838811492015
 20
3.972811654528129
 30
0.0
 11
9.999999999999986
 21
3.972811654528129
 31
0.0
1001
PE_URL
1000

  0
LINE
  5
98
330
1F
100
AcDbEntity
  8
0
  6
Continuous
 62
     1
370
    15
100
AcDbLine
 10
22.150668242252
 20
3.972811654528129
 30
0.0
 11
19.71226054857603
 21
3.972811654528129
 31
0.0
1001
PE_URL
1000

  0
LINE
  5
99
330
1F
100
AcDbEntity
  8
0
  6
Continuous
 62
     1
370
    15
100
AcDbLine
 10
9.999999999999986
 20
-4.027188345471875
 30
0.0
 11
11.26838811492011
 21
-4.027188345471875
 31
0.0
1001
PE_URL
1000

  0
LINE
  5
9A
330
1F
100
AcDbEntity
  8
외형선
  6
Continuous
370
    15
100
AcDbLine
 10
-69.20000000000002
 20
3.972811654528127
 30
0.0
 11
-70.00000000000003
 21
3.17281165452813
 31
0.0
  0
LINE
  5
9B
330
1F
100
AcDbEntity
  8
외형선
  6
Continuous
370
    15
100
AcDbLine
 10
-70.00000000000003
 20
-3.227188345471877
 30
0.0
 11
-69.20000000000002
 21
-4.027188345471873
 31
0.0
  0
LINE
  5
9C
330
1F
100
AcDbEntity
  8
외형선
  6
Continuous
370
    15
100
AcDbLine
 10
-69.20000000000002
 20
-4.027188345471873
 30
0.0
 11
9.999999999999986
 21
-4.027188345471873
 31
0.0
  0
LINE
  5
9D
330
1F
100
AcDbEntity
  8
외형선
  6
Continuous
370
    15
100
AcDbLine
 10
9.999999999999986
 20
3.972811654528127
 30
0.0
 11
-69.20000000000002
 21
3.972811654528127
 31
0.0
  0
LINE
  5
9E
330
1F
100
AcDbEntity
  8
0
  6
Continuous
 62
     1
370
    15
100
AcDbLine
 10
29.99999999999999
 20
-2.782743801661372
 30
0.0
 11
29.99999999999999
 21
0.3233671107176609
 31
0.0
1001
PE_URL
1000

  0
SPLINE
  5
9F
330
1F
100
AcDbEntity
  8
0
  6
Continuous
 62
     1
370
    15
100
AcDbSpline
210
0.0
220
0.0
230
1.0
 70
     8
 71
     3
 72
    18
 73
    14
 74
     0
 42
0.000000001
 43
0.00000001
 40
0.0
 40
0.0
 40
0.0
 40
0.0
 40
0.2500000000000001
 40
0.2500000000000001
 40
0.5000000000000002
 40
0.5000000000000002
 40
0.6250000000000001
 40
0.6250000000000001
 40
0.7500000000000001
 40
0.7500000000000001
 40
0.875
 40
0.875
 40
1.0
 40
1.0
 40
1.0
 40
1.0
 10
29.0
 20
-3.368439602289606
 30
0.0
 10
29.12652103035101
 20
-3.408512356131006
 30
0.0
 10
29.24628752562184
 20
-3.429618170227222
 30
0.0
 10
29.4759950304869
 20
-3.430692935934678
 30
0.0
 10
29.58074685711984
 20
-3.410638154360561
 30
0.0
 10
29.72251189624995
 20
-3.341604139323263
 30
0.0
 10
29.76587287503408
 20
-3.312566010280706
 30
0.0
 10
29.84457031469179
 20
-3.240515327093991
 30
0.0
 10
29.87999704451212
 20
-3.196999651936368
 30
0.0
 10
29.93791831017869
 20
-3.097877556085589
 30
0.0
 10
29.96120332355385
 20
-3.040746670374316
 30
0.0
 10
29.99209271845849
 20
-2.917848833139097
 30
0.0
 10
29.99999999999997
 20
-2.852330632726422
 30
0.0
 10
29.99999999999996
 20
-2.782743801661372
 30
0.0
1001
PE_URL
1000

  0
SPLINE
  5
A0
330
1F
100
AcDbEntity
  8
0
  6
Continuous
 62
     1
370
    15
100
AcDbSpline
210
0.0
220
0.0
230
1.0
 70
     8
 71
     3
 72
    19
 73
    15
 74
     0
 42
0.000000001
 43
0.00000001
 40
0.0
 40
0.0
 40
0.0
 40
0.0
 40
0.0142438189222871
 40
0.0999989797911399
 40
0.1857324630067545
 40
0.2714496134101095
 40
0.3571558142723342
 40
0.4428564746858106
 40
0.5285570168260457
 40
0.6228456110826449
 40
0.7171342065109472
 40
0.811422803128346
 40
0.9057114009522343
 40
1.0
 40
1.0
 40
1.0
 40
1.0
 10
11.26838811492015
 20
3.959505342427611
 30
0.0
 10
11.35258233457673
 20
3.963728171551941
 30
0.0
 10
11.94366932577647
 20
3.99337461725371
 30
0.0
 10
13.0414698951882
 20
3.862625174543583
 30
0.0
 10
14.56165435947746
 20
3.560996450455311
 30
0.0
 10
16.08149168974281
 20
3.06970162439566
 30
0.0
 10
17.60108914798712
 20
2.434710585732068
 30
0.0
 10
19.12059675311916
 20
1.680485369831886
 30
0.0
 10
20.6907176094551
 20
0.816768421126937
 30
0.0
 10
22.31204934978535
 20
-0.121412895230911
 30
0.0
 10
23.98401440234061
 20
-1.084522147618869
 30
0.0
 10
25.65601512234912
 20
-1.982619767430112
 30
0.0
 10
27.32800636316324
 20
-2.781287312211056
 30
0.0
 10
28.44266878530989
 20
-3.17272217141668
 30
0.0
 10
29.00000000000033
 20
-3.36843960228971
 30
0.0
1001
PE_URL
1000

  0
SPLINE
  5
A1
330
1F
100
AcDbEntity
  8
0
  6
Continuous
 62
     1
370
    15
100
AcDbSpline
210
0.0
220
0.0
230
1.0
 70
     8
 71
     3
 72
    16
 73
    12
 74
     0
 42
0.000000001
 43
0.00000001
 40
0.0
 40
0.0
 40
0.0
 40
0.0
 40
0.1124881566496305
 40
0.2249759434149434
 40
0.3374704778777493
 40
0.4499788616849197
 40
0.5625081638195141
 40
0.6750654040353932
 40
0.7876471367950035
 40
0.9114086376222408
 40
1.0
 40
1.0
 40
1.0
 40
1.0
 10
29.00000000000029
 20
0.8849908312591304
 30
0.0
 10
28.49351347721599
 20
1.165527987727894
 30
0.0
 10
27.48054209707976
 20
1.726601378201247
 30
0.0
 10
25.96106189259531
 20
2.472469873983698
 30
0.0
 10
24.44147095255842
 20
3.101646836677238
 30
0.0
 10
22.92165585934553
 20
3.580139023269423
 30
0.0
 10
21.40150242198084
 20
3.88552591787864
 30
0.0
 10
19.88094098080919
 20
4.004815795517658
 30
0.0
 10
18.3097114561708
 20
3.92230213384335
 30
0.0
 10
16.84643247242365
 20
3.676041116828531
 30
0.0
 10
15.89013920333311
 20
3.363832314260373
 30
0.0
 10
15.49118379363078
 20
3.233582113022721
 30
0.0
1001
PE_URL
1000

  0
SPLINE
  5
A2
330
1F
100
AcDbEntity
  8
0
  6
Continuous
 62
     1
370
    15
100
AcDbSpline
210
0.0
220
0.0
230
1.0
 70
     8
 71
     3
 72
    14
 73
    10
 74
     0
 42
0.000000001
 43
0.00000001
 40
0.0
 40
0.0
 40
0.0
 40
0.0
 40
0.25
 40
0.25
 40
0.5
 40
0.5
 40
0.75
 40
0.75
 40
1.0
 40
1.0
 40
1.0
 40
1.0
 10
29.99999999999999
 20
0.3233671107176646
 30
0.0
 10
30.0
 20
0.3513067697470698
 30
0.0
 10
29.97144573436788
 20
0.3789868841235376
 30
0.0
 10
29.86315942053611
 20
0.4441527037612669
 30
0.0
 10
29.78297658760832
 20
0.48205744684878
 30
0.0
 10
29.59050324984024
 20
0.5741007120321241
 30
0.0
 10
29.47693636781354
 20
0.629186364629578
 30
0.0
 10
29.24184580079036
 20
0.7509903264595105
 30
0.0
 10
29.11974392842185
 20
0.8178234877342342
 30
0.0
 10
28.99999999999997
 20
0.8849908312593125
 30
0.0
1001
PE_URL
1000

  0
SPLINE
  5
A3
330
1F
100
AcDbEntity
  8
0
  6
Continuous
 62
     1
370
    15
100
AcDbSpline
210
0.0
220
0.0
230
1.0
 70
     8
 71
     3
 72
    18
 73
    14
 74
     0
 42
0.000000001
 43
0.00000001
 40
0.0
 40
0.0
 40
0.0
 40
0.0
 40
0.0929563377964511
 40
0.1858946303776231
 40
0.2788094295146839
 40
0.3717065277499088
 40
0.4645917592747587
 40
0.5574709862648192
 40
0.6503500850746864
 40
0.752536599230828
 40
0.8547231146568184
 40
0.9569096313715079
 40
0.9999999999999999
 40
0.9999999999999999
 40
0.9999999999999999
 40
0.9999999999999999
 10
10.0
 20
0.7004050428274605
 30
0.0
 10
10.50699380039482
 20
0.4093251553584253
 30
0.0
 10
11.52088298065189
 20
-0.1727781134891805
 30
0.0
 10
13.0414723156331
 20
-1.048314401515957
 30
0.0
 10
14.56165371108153
 20
-1.872340369064179
 30
0.0
 10
16.08149186360443
 20
-2.608525457547842
 30
0.0
 10
17.60108910079937
 20
-3.220708381077519
 30
0.0
 10
19.12059676802991
 20
-3.680033142474008
 30
0.0
 10
20.69071759608428
 20
-3.973045247772458
 30
0.0
 10
22.31204939094704
 20
-4.067008439870162
 30
0.0
 10
23.98401425277208
 20
-3.918437964798427
 30
0.0
 10
25.33370033797009
 20
-3.65044206444229
 30
0.0
 10
26.12604829490187
 20
-3.370697244808682
 30
0.0
 10
26.36106548614718
 20
-3.287722535022965
 30
0.0
1001
PE_URL
1000

  0
SPLINE
  5
A4
330
1F
100
AcDbEntity
  8
외형선
  6
Continuous
370
    15
100
AcDbSpline
210
0.0
220
0.0
230
1.0
 70
    24
 71
     3
 72
    16
 73
    12
 74
     0
 42
0.000000001
 43
0.00000001
 40
0.0
 40
0.0
 40
0.0
 40
0.0
 40
0.2132330368604729
 40
0.3242246492519564
 40
0.4384350259218998
 40
0.5494266383133831
 40
0.6636370149833258
 40
0.7746286273748073
 40
0.8888390040447474
 40
0.9998306164362335
 40
1.0
 40
1.0
 40
1.0
 40
1.0
 10
10.0
 20
3.91575209007995
 30
0.0
 10
10.00000000000002
 20
3.676954398626619
 30
0.0
 10
10.00000000000006
 20
3.313858234478774
 30
0.0
 10
9.9999999999999
 20
2.785318443871738
 30
0.0
 10
9.999999999999986
 20
2.383425886705111
 30
0.0
 10
10.0
 20
1.989501626102604
 30
0.0
 10
9.999999999999986
 20
1.623347770535957
 30
0.0
 10
9.99999999999961
 20
1.285924411106842
 30
0.0
 10
10.00000000000136
 20
1.002526691679056
 30
0.0
 10
9.999999999997137
 20
0.8282900999953506
 30
0.0
 10
10.00000000000004
 20
0.769201256019338
 30
0.0
 10
10.00000000000004
 20
0.7691112183322384
 30
0.0
  0
SPLINE
  5
A5
330
1F
100
AcDbEntity
  8
0
  6
Continuous
 62
     1
370
    15
100
AcDbSpline
210
0.0
220
0.0
230
1.0
 70
     8
 71
     3
 72
    48
 73
    44
 74
     0
 42
0.000000001
 43
0.00000001
 40
0.0
 40
0.0
 40
0.0
 40
0.0
 40
0.0624999999999996
 40
0.0624999999999996
 40
0.1249999999999992
 40
0.1249999999999992
 40
0.1874999999999988
 40
0.1874999999999988
 40
0.2499999999999983
 40
0.2499999999999983
 40
0.2812499999999989
 40
0.2812499999999989
 40
0.3124999999999996
 40
0.3124999999999996
 40
0.3749999999999992
 40
0.3749999999999992
 40
0.4062499999999981
 40
0.4062499999999981
 40
0.4374999999999971
 40
0.4374999999999971
 40
0.4999999999999951
 40
0.4999999999999951
 40
0.562499999999993
 40
0.562499999999993
 40
0.624999999999991
 40
0.624999999999991
 40
0.6874999999999889
 40
0.6874999999999889
 40
0.7187499999999887
 40
0.7187499999999887
 40
0.7499999999999885
 40
0.7499999999999885
 40
0.8124999999999897
 40
0.8124999999999897
 40
0.8437499999999911
 40
0.8437499999999911
 40
0.8749999999999927
 40
0.8749999999999927
 40
0.9062499999999941
 40
0.9062499999999941
 40
0.9374999999999956
 40
0.9374999999999956
 40
1.0
 40
1.0
 40
1.0
 40
1.0
 10
28.99218040523139
 20
-4.081807363691747
 30
0.0
 10
28.48167275331016
 20
-4.026873541574536
 30
0.0
 10
27.9284665305176
 20
-3.845105782656977
 30
0.0
 10
27.41745206670843
 20
-3.6199086414316
 30
0.0
 10
27.01896027527885
 20
-3.512255439578833
 30
0.0
 10
26.23254081789912
 20
-3.265063962430539
 30
0.0
 10
25.83337432192103
 20
-3.124341236480867
 30
0.0
 10
25.04057025999636
 20
-2.814549130161846
 30
0.0
 10
24.64817272279869
 20
-2.645789266610701
 30
0.0
 10
24.05236405424091
 20
-2.373652648106486
 30
0.0
 10
23.85355772548294
 20
-2.279914087006443
 30
0.0
 10
23.4577259392378
 20
-2.087436021904785
 30
0.0
 10
23.26167424503671
 20
-1.988867703600324
 30
0.0
 10
22.66907143576802
 20
-1.685603343094189
 30
0.0
 10
22.26960537481899
 20
-1.473519816518729
 30
0.0
 10
21.67692407597377
 20
-1.147494597550899
 30
0.0
 10
21.48088993267795
 20
-1.03760103061313
 30
0.0
 10
21.08510113158477
 20
-0.8149223477095353
 30
0.0
 10
20.88630325545081
 20
-0.7023113015689569
 30
0.0
 10
20.29048036151514
 20
-0.3625134978885892
 30
0.0
 10
19.89804386035357
 20
-0.1341411931761856
 30
0.0
 10
19.10530698402506
 20
0.3229227080767284
 30
0.0
 10
18.7061211867295
 20
0.5513845412290855
 30
0.0
 10
17.91956010584558
 20
0.9982097148889819
 30
0.0
 10
17.52122866303668
 20
1.21863868601288
 30
0.0
 10
16.72791742760366
 20
1.644523204886842
 30
0.0
 10
16.33576401576718
 20
1.849528584840887
 30
0.0
 10
15.74010914606923
 20
2.143047357311629
 30
0.0
 10
15.54124509426369
 20
2.238391042970271
 30
0.0
 10
15.14508199336158
 20
2.423049194105262
 30
0.0
 10
14.94879579408046
 20
2.512218525122034
 30
0.0
 10
14.35687717518926
 20
2.770572621479208
 30
0.0
 10
13.95743573684464
 20
2.930581101254541
 30
0.0
 10
13.36414146554152
 20
3.146951313704208
 30
0.0
 10
13.16816287332484
 20
3.215075193318444
 30
0.0
 10
12.77275315423164
 20
3.343634358192244
 30
0.0
 10
12.57403724775272
 20
3.40397128856604
 30
0.0
 10
12.17676778671797
 20
3.516056692621109
 30
0.0
 10
11.97821691358482
 20
3.567804427005062
 30
0.0
 10
11.58346130237125
 20
3.662196147011894
 30
0.0
 10
11.38726331440792
 20
3.704860332086638
 30
0.0
 10
10.79316303697183
 20
3.81939457386603
 30
0.0
 10
10.39384231042512
 20
3.877353251947414
 30
0.0
 10
9.99999999999843
 20
3.915752090090829
 30
0.0
1001
PE_URL
1000

  0
SPLINE
  5
A7
330
1F
100
AcDbEntity
  8
0
  6
Continuous
 62
     1
370
    15
100
AcDbSpline
210
0.0
220
0.0
230
1.0
 70
     8
 71
     3
 72
    13
 73
     9
 74
     0
 42
0.000000001
 43
0.00000001
 40
0.0
 40
0.0
 40
0.0
 40
0.0
 40
0.1392258834085988
 40
0.3113807275438408
 40
0.4835355612397002
 40
0.6556903845270776
 40
0.8278451974368722
 40
1.0
 40
1.0
 40
1.0
 40
1.0
 10
19.71226054857599
 20
-4.017714088863828
 30
0.0
 10
19.26152764345014
 20
-4.006749545799645
 30
0.0
 10
18.25345689906037
 20
-3.98222718463429
 30
0.0
 10
16.68804942039657
 20
-3.684259302005017
 30
0.0
 10
15.01603683462308
 20
-3.174730729656898
 30
0.0
 10
13.34402445983547
 20
-2.476532524902203
 30
0.0
 10
11.67201218068855
 20
-1.640636695524563
 30
0.0
 10
10.5573373823963
 20
-1.013815587450827
 30
0.0
 10
9.99999999999843
 20
-0.7004050428320941
 30
0.0
1001
PE_URL
1000

  0
LINE
  5
A8
330
1F
100
AcDbEntity
  8
외형선
  6
Continuous
370
    15
100
AcDbLine
 10
10.0
 20
-0.7004050428274717
 30
0.0
 11
10.0
 21
0.7004050428274716
 31
0.0
  0
SPLINE
  5
A9
330
1F
100
AcDbEntity
  8
0
  6
Continuous
 62
     1
370
    15
100
AcDbSpline
210
0.0
220
0.0
230
1.0
 70
     8
 71
     3
 72
    18
 73
    14
 74
     0
 42
0.000000001
 43
0.00000001
 40
0.0
 40
0.0
 40
0.0
 40
0.0
 40
0.2499999999999998
 40
0.2499999999999998
 40
0.4999999999999999
 40
0.4999999999999999
 40
0.6249999999999999
 40
0.6249999999999999
 40
0.7499999999999999
 40
0.7499999999999999
 40
0.875
 40
0.875
 40
1.0
 40
1.0
 40
1.0
 40
1.0
 10
29.0
 20
2.171911479186797
 30
0.0
 10
29.12652103035103
 20
2.111026048868728
 30
0.0
 10
29.24628752562182
 20
2.033393259847212
 30
0.0
 10
29.47599503048684
 20
1.854035647551093
 30
0.0
 10
29.5807468571198
 20
1.756311937499266
 30
0.0
 10
29.72251189624993
 20
1.604944272590129
 30
0.0
 10
29.76587287503408
 20
1.555028072372271
 30
0.0
 10
29.84457031469179
 20
1.45730145432365
 30
0.0
 10
29.87999704451212
 20
1.409236638381543
 30
0.0
 10
29.93791831017868
 20
1.321464540035409
 30
0.0
 10
29.96120332355382
 20
1.280522031912666
 30
0.0
 10
29.99209271845849
 20
1.210907595885228
 30
0.0
 10
29.99999999999996
 20
1.182026300445126
 30
0.0
 10
29.99999999999996
 20
1.15894576493227
 30
0.0
1001
PE_URL
1000

  0
LINE
  5
AA
330
1F
100
AcDbEntity
  8
0
  6
Continuous
 62
     1
370
    15
100
AcDbLine
 10
29.99999999999999
 20
0.3233671107176609
 30
0.0
 11
29.99999999999999
 21
1.15894576493227
 31
0.0
1001
PE_URL
1000

  0
SPLINE
  5
AB
330
1F
100
AcDbEntity
  8
0
  6
Continuous
 62
     1
370
    15
100
AcDbSpline
210
0.0
220
0.0
230
1.0
 70
     8
 71
     3
 72
    11
 73
     7
 74
     0
 42
0.000000001
 43
0.00000001
 40
0.0
 40
0.0
 40
0.0
 40
0.0
 40
0.2769682548102099
 40
0.5538827429606935
 40
0.8307272311695982
 40
1.0
 40
1.0
 40
1.0
 40
1.0
 10
9.999999999999986
 20
-3.960457705851745
 30
0.0
 10
10.50699391172157
 20
-3.995736460731651
 30
0.0
 10
11.5208833146105
 20
-4.066287121978045
 30
0.0
 10
13.04147098024168
 20
-3.921539359149978
 30
0.0
 10
14.36486275009748
 20
-3.666891871880799
 30
0.0
 10
15.18137135986342
 20
-3.392190343170581
 30
0.0
 10
15.49118379363074
 20
-3.28795880396647
 30
0.0
1001
PE_URL
1000

  0
SPLINE
  5
AC
330
1F
100
AcDbEntity
  8
외형선
  6
Continuous
370
    15
100
AcDbSpline
210
0.0
220
0.0
230
1.0
 70
    24
 71
     3
 72
    20
 73
    16
 74
     0
 42
0.000000001
 43
0.00000001
 40
0.0
 40
0.0
 40
0.0
 40
0.0
 40
0.0095814033561033
 40
0.0924267214715093
 40
0.1729372294027402
 40
0.2557825475181462
 40
0.3362930554493755
 40
0.4191383735647797
 40
0.4996488814960124
 40
0.5824941996114206
 40
0.6630047075426518
 40
0.7458500256580576
 40
0.8263605335891594
 40
0.9092058517046987
 40
1.0
 40
1.0
 40
1.0
 40
1.0
 10
9.999999999999986
 20
-0.4395498599597671
 30
0.0
 10
10.0
 20
-0.4383164968406163
 30
0.0
 10
9.999999999999943
 20
-0.4264188963273911
 30
0.0
 10
10.0
 20
-0.4687656359614428
 30
0.0
 10
10.0
 20
-0.5712142716804292
 30
0.0
 10
9.9999999999999
 20
-0.7433776267430822
 30
0.0
 10
9.999999999999986
 20
-0.9749642597623304
 30
0.0
 10
9.999999999999943
 20
-1.257529418339078
 30
0.0
 10
10.00000000000008
 20
-1.58754529244243
 30
0.0
 10
9.999999999999986
 20
-1.949909980231564
 30
0.0
 10
10.00000000000001
 20
-2.340787266310485
 30
0.0
 10
10.00000000000008
 20
-2.742304397957537
 30
0.0
 10
9.999999999999929
 20
-3.149518283826529
 30
0.0
 10
9.999999999999986
 20
-3.563303474308636
 30
0.0
 10
9.999999999999986
 20
-3.824093498771253
 30
0.0
 10
10.0
 20
-3.960457705851746
 30
0.0
  0
SPLINE
  5
AD
330
1F
100
AcDbEntity
  8
0
  6
Continuous
 62
     1
370
    15
100
AcDbSpline
210
0.0
220
0.0
230
1.0
 70
     8
 71
     3
 72
    12
 73
     8
 74
     0
 42
0.000000001
 43
0.00000001
 40
0.0
 40
0.0
 40
0.0
 40
0.0
 40
0.0235583456476342
 40
0.2676687545728949
 40
0.5117791665766919
 40
0.7558895817040548
 40
1.0
 40
1.0
 40
1.0
 40
1.0
 10
22.15066824225197
 20
3.962691438025808
 30
0.0
 10
22.20445455025038
 20
3.96599623105296
 30
0.0
 10
22.81557191351272
 20
4.003545125484246
 30
0.0
 10
23.9840203429532
 20
3.856477402009409
 30
0.0
 10
25.65601353818574
 20
3.50810894230392
 30
0.0
 10
27.32800675920414
 20
2.940089195012673
 30
0.0
 10
28.44266891732352
 20
2.42797071890321
 30
0.0
 10
29.00000000000032
 20
2.171911479186639
 30
0.0
1001
PE_URL
1000

  0
LINE
  5
AE
330
1F
100
AcDbEntity
  8
0
  6
Continuous
 62
     1
370
    15
100
AcDbLine
 10
29.99999999999999
 20
1.15894576493227
 30
0.0
 11
29.99999999999999
 21
2.952259736327135
 31
0.0
1001
PE_URL
1000

  0
SPLINE
  5
AF
330
1F
100
AcDbEntity
  8
0
  6
Continuous
 62
     1
370
    15
100
AcDbSpline
210
0.0
220
0.0
230
1.0
 70
     8
 71
     3
 72
     9
 73
     5
 74
     0
 42
0.000000001
 43
0.00000001
 40
0.0
 40
0.0
 40
0.0
 40
0.0
 40
0.5757846839306585
 40
0.9999999999999999
 40
0.9999999999999999
 40
0.9999999999999999
 40
0.9999999999999999
 10
28.99999999999999
 20
4.027461246246534
 30
0.0
 10
28.30436149576362
 20
3.925195790842682
 30
0.0
 10
27.61386848741878
 20
3.646538595446386
 30
0.0
 10
26.7342241056064
 20
3.356419014014326
 30
0.0
 10
26.3610654861472
 20
3.233345844079219
 30
0.0
1001
PE_URL
1000

  0
LINE
  5
B1
330
1F
100
AcDbEntity
  8
0
  6
Continuous
 62
     1
370
    15
100
AcDbLine
 10
29.99999999999999
 20
-3.006636427270882
 30
0.0
 11
29.99999999999999
 21
-2.782743801661372
 31
0.0
1001
PE_URL
1000

  0
LINE
  5
B2
330
1F
100
AcDbEntity
  8
외형선
  6
Continuous
370
    15
100
AcDbLine
 10
-69.20000000000002
 20
-0.0271883454718733
 30
0.0
 11
-69.20000000000002
 21
3.972811654528127
 31
0.0
  0
LINE
  5
B3
330
1F
100
AcDbEntity
  8
외형선
  6
Continuous
370
    15
100
AcDbLine
 10
-69.20000000000002
 20
-4.027188345471873
 30
0.0
 11
-69.20000000000002
 21
-0.0271883454718733
 31
0.0
  0
LINE
  5
B4
330
1F
100
AcDbEntity
  8
외형선
  6
Continuous
370
    15
100
AcDbLine
 10
-70.00000000000003
 20
-0.0271883454718733
 30
0.0
 11
-70.00000000000003
 21
3.17281165452813
 31
0.0
  0
LINE
  5
B5
330
1F
100
AcDbEntity
  8
외형선
  6
Continuous
370
    15
100
AcDbLine
 10
-70.00000000000003
 20
-3.227188345471877
 30
0.0
 11
-70.00000000000003
 21
-0.0271883454718733
 31
0.0
  0
SPLINE
  5
B6
330
1F
100
AcDbEntity
  8
외형선
  6
Continuous
370
    15
100
AcDbSpline
210
0.0
220
0.0
230
1.0
 70
     8
 71
     3
 72
     8
 73
     4
 74
     0
 42
0.000000001
 43
0.00000001
 40
0.0
 40
0.0
 40
0.0
 40
0.0
 40
1.0
 40
1.0
 40
1.0
 40
1.0
 10
9.999999999999972
 20
3.915752090090677
 30
0.0
 10
9.66823072077046
 20
3.948098931749986
 30
0.0
 10
9.334605153858604
 20
3.966820399085445
 30
0.0
 10
8.999965140767749
 20
3.971587867094204
 30
0.0
  0
LINE
  5
B7
330
1F
100
AcDbEntity
  8
외형선
  6
Continuous
370
    15
100
AcDbLine
 10
8.999965140767706
 20
1.258695328569599
 30
0.0
 11
8.99996514076772
 21
3.971588637488265
 31
0.0
  0
SPLINE
  5
B8
330
1F
100
AcDbEntity
  8
외형선
  6
Continuous
370
    15
100
AcDbSpline
210
0.0
220
0.0
230
1.0
 70
     8
 71
     3
 72
     8
 73
     4
 74
     0
 42
0.000000001
 43
0.00000001
 40
0.0
 40
0.0
 40
0.0
 40
0.0
 40
1.0
 40
1.0
 40
1.0
 40
1.0
 10
10.0
 20
0.7004050428274605
 30
0.0
 10
9.668230720770502
 20
0.8893915039510936
 30
0.0
 10
9.334605153858618
 20
1.076205035504144
 30
0.0
 10
8.99996514076772
 20
1.258718598395151
 30
0.0
  0
SPLINE
  5
B9
330
1F
100
AcDbEntity
  8
외형선
  6
Continuous
370
    15
100
AcDbSpline
210
0.0
220
0.0
230
1.0
 70
     8
 71
     3
 72
     8
 73
     4
 74
     0
 42
0.000000001
 43
0.00000001
 40
0.0
 40
0.0
 40
0.0
 40
0.0
 40
1.0
 40
1.0
 40
1.0
 40
1.0
 10
9.999999999999972
 20
-0.7004050428329747
 30
0.0
 10
9.66823072077046
 20
-0.5109539040820108
 30
0.0
 10
9.334605153858604
 20
-0.3188127007851472
 30
0.0
 10
8.999965140767749
 20
-0.1261267192997438
 30
0.0
  0
LINE
  5
BA
330
1F
100
AcDbEntity
  8
외형선
  6
Continuous
370
    15
100
AcDbLine
 10
8.999965140767706
 20
-3.814866153421432
 30
0.0
 11
8.99996514076772
 21
-0.1260955775037882
 31
0.0
  0
SPLINE
  5
BB
330
1F
100
AcDbEntity
  8
외형선
  6
Continuous
370
    15
100
AcDbSpline
210
0.0
220
0.0
230
1.0
 70
     8
 71
     3
 72
     8
 73
     4
 74
     0
 42
0.000000001
 43
0.00000001
 40
0.0
 40
0.0
 40
0.0
 40
0.0
 40
1.0
 40
1.0
 40
1.0
 40
1.0
 10
10.0
 20
-3.960457705851748
 30
0.0
 10
9.668230720770502
 20
-3.925498162786441
 30
0.0
 10
9.334605153858618
 20
-3.876821271223434
 30
0.0
 10
8.99996514076772
 20
-3.81485825343832
 30
0.0
  0
SPLINE
  5
BC
330
1F
100
AcDbEntity
  8
외형선
  6
Continuous
370
    15
100
AcDbSpline
210
0.0
220
0.0
230
1.0
 70
    24
 71
     3
 72
    19
 73
    15
 74
     0
 42
0.000000001
 43
0.00000001
 40
0.0
 40
0.0
 40
0.0
 40
0.0
 40
0.1521503635133374
 40
0.2337767093178152
 40
0.3154030551222928
 40
0.3970294009268566
 40
0.4786557467314204
 40
0.5602820925359422
 40
0.641908438340464
 40
0.7235347841449846
 40
0.8051611299495053
 40
0.8867874757540204
 40
0.9684138215585354
 40
1.0
 40
1.0
 40
1.0
 40
1.0
 10
10.0
 20
-3.960457705851746
 30
0.0
 10
10.00000000000002
 20
-3.726955981266419
 30
0.0
 10
10.00000000000006
 20
-3.368184148369633
 30
0.0
 10
10.0
 20
-2.844227344978579
 30
0.0
 10
10.0
 20
-2.43977611588666
 30
0.0
 10
9.999999999999957
 20
-2.04611585290743
 30
0.0
 10
9.999999999999915
 20
-1.674595824702845
 30
0.0
 10
9.999999999999972
 20
-1.336697021503829
 30
0.0
 10
9.999999999999986
 20
-1.040412659986957
 30
0.0
 10
9.999999999999972
 20
-0.796457962837106
 30
0.0
 10
10.0
 20
-0.6080462036362979
 30
0.0
 10
10.00000000000001
 20
-0.4885200489928589
 30
0.0
 10
9.999999999999986
 20
-0.432464776890744
 30
0.0
 10
9.999999999999986
 20
-0.4417229013029085
 30
0.0
 10
10.0
 20
-0.4443059085422889
 30
0.0
  0
SPLINE
  5
BD
330
1F
100
AcDbEntity
  8
외형선
  6
Continuous
370
    15
100
AcDbSpline
210
0.0
220
0.0
230
1.0
 70
    24
 71
     3
 72
    16
 73
    12
 74
     0
 42
0.000000001
 43
0.00000001
 40
0.0
 40
0.0
 40
0.0
 40
0.0
 40
0.0863018152988798
 40
0.198525985489575
 40
0.3107501556802689
 40
0.4229743258709628
 40
0.5351984960616492
 40
0.6474226662523352
 40
0.759646836443038
 40
0.8718710066337411
 40
1.0
 40
1.0
 40
1.0
 40
1.0
 10
9.999999999999929
 20
0.7691112183322383
 30
0.0
 10
9.999999999999915
 20
0.8239702696126768
 30
0.0
 10
9.999999999999957
 20
0.9501663082562993
 30
0.0
 10
9.999999999999986
 20
1.211895290379156
 30
0.0
 10
9.999999999999972
 20
1.53509335372247
 30
0.0
 10
10.00000000000001
 20
1.895913819276145
 30
0.0
 10
9.999999999999957
 20
2.282983334786921
 30
0.0
 10
10.0
 20
2.685297303697143
 30
0.0
 10
10.00000000000002
 20
3.090898748973471
 30
0.0
 10
10.00000000000004
 20
3.510147366489112
 30
0.0
 10
10.00000000000005
 20
3.774714799781716
 30
0.0
 10
10.00000000000005
 20
3.915752090090741
 30
0.0
  0
LINE
  5
BE
330
1F
100
AcDbEntity
  8
중심선
100
AcDbLine
 10
-73.00000000000003
 20
-0.0271883454718733
 30
0.0
 11
32.99999999999999
 21
-0.0271883454718773
 31
0.0
  0
LINE
  5
BF
330
1F
100
AcDbEntity
  8
참조1
100
AcDbLine
 10
-45.00051336755625
 20
-2.527188345471847
 30
0.0
 11
-45.00051336755624
 21
-40.02718834547187
 31
0.0
  0
LINE
  5
C0
330
1F
100
AcDbEntity
  8
참조1
100
AcDbLine
 10
-45.00051336755624
 20
-40.02718834547187
 30
0.0
 11
-60.1588568143087
 21
-40.02718834547187
 31
0.0
  0
CIRCLE
  5
C1
330
1F
100
AcDbEntity
  8
해칭선
100
AcDbCircle
 10
0.0
 20
0.0
 30
0.0
 40
3.000000000000001
  0
INSERT
  5
C2
330
1F
100
AcDbEntity
  8
0
  6
Continuous
 62
     7
100
AcDbBlockReference
 66
     1
  2
블럭10
 10
-33.78387986879864
 20
-52.07436264711582
 30
0.0
  0
ATTRIB
  5
C3
330
C2
100
AcDbEntity
  8
FORMAT
 62
     2
100
AcDbText
 10
-49.90314090823419
 20
-49.99899573428362
 30
0.0
 40
4.233333333333333
  1
SEME0108010E [ 4 FLUTE ]
 41
0.75
  7
SLDTEXTSTYLE0
 11
-49.90314090823419
 21
-52.11566240095029
 31
0.0
100
AcDbAttribute
  2
AUTOATTR0
 70
     0
 74
     1
  0
SEQEND
  5
C4
330
C2
100
AcDbEntity
  8
0
  6
Continuous
 62
     7
  0
HATCH
  5
C5
330
1F
100
AcDbEntity
  8
중심선
100
AcDbHatch
 10
0.0
 20
0.0
 30
0.0
210
0.0
220
0.0
230
1.0
  2
SOLID
 70
     1
 71
     0
 91
        1
 92
        0
 93
        4
 72
     1
 10
-28.06897056441778
 20
-35.82718834547188
 11
-31.51524580825506
 21
-35.82718834547188
 72
     1
 10
-31.51524580825506
 20
-35.82718834547188
 11
-33.64347566745909
 21
-38.36351392604448
 72
     1
 10
-33.64347566745909
 20
-38.36351392604448
 11
-30.19716733850866
 21
-38.36347449674199
 72
     1
 10
-30.19716733850866
 20
-38.36347449674199
 11
-28.06897056441778
 21
-35.82718834547188
 97
        0
 75
     0
 76
     1
 98
        1
 10
-4.06796469971362
 20
-0.0271883454718875
  0
HATCH
  5
C6
330
1F
100
AcDbEntity
  8
중심선
100
AcDbHatch
 10
0.0
 20
0.0
 30
0.0
210
0.0
220
0.0
230
1.0
  2
SOLID
 70
     1
 71
     0
 91
        1
 92
        0
 93
        4
 72
     1
 10
-23.05620657338183
 20
-35.82718834547188
 11
-26.50248181721911
 21
-35.82718834547188
 72
     1
 10
-26.50248181721911
 20
-35.82718834547188
 11
-31.0336198255765
 21
-41.2271883454719
 72
     1
 10
-31.0336198255765
 20
-41.2271883454719
 11
-27.58734458173922
 21
-41.2271883454719
 72
     1
 10
-27.58734458173922
 20
-41.2271883454719
 11
-23.05620657338183
 21
-35.82718834547188
 97
        0
 75
     0
 76
     1
 98
        1
 10
-4.06796469971362
 20
-0.0271883454718875
  0
HATCH
  5
C7
330
1F
100
AcDbEntity
  8
중심선
100
AcDbHatch
 10
0.0
 20
0.0
 30
0.0
210
0.0
220
0.0
230
1.0
  2
SOLID
 70
     1
 71
     0
 91
        1
 92
        0
 93
        4
 72
     1
 10
-18.04344258234594
 20
-35.82718834547191
 11
-21.48971782618305
 21
-35.82718834547188
 72
     1
 10
-21.48971782618305
 20
-35.82718834547188
 11
-28.5381547280723
 21
-44.2271883454719
 72
     1
 10
-28.5381547280723
 20
-44.2271883454719
 11
-25.09187948423502
 21
-44.2271883454719
 72
     1
 10
-25.09187948423502
 20
-44.2271883454719
 11
-18.04344258234594
 21
-35.82718834547191
 97
        0
 75
     0
 76
     1
 98
        1
 10
-4.06796469971362
 20
-0.0271883454718875
  0
HATCH
  5
C8
330
1F
100
AcDbEntity
  8
중심선
100
AcDbHatch
 10
0.0
 20
0.0
 30
0.0
210
0.0
220
0.0
230
1.0
  2
SOLID
 70
     1
 71
     0
 91
        1
 92
        0
 93
        6
 72
     3
 10
-13.24355215133374
 20
-40.02718834552316
 11
3.960054785062281
 21
1.540882976769353E-10
 40
0.393933944016263
 50
17.0953918060844
 51
320.0019657685081
 73
     0
 72
     1
 10
-11.56055249563314
 20
-38.61508235011019
 11
-9.255250621932102
 21
-36.68075564006227
 72
     3
 10
-13.24355215138658
 20
-40.02718834547203
 11
6.600054785286831
 21
-1.278976924368180E-13
 40
0.6363583540795978
 50
39.99873849337411
 51
368.4976242363725
 73
     1
 72
     1
 10
-6.818219659485973
 20
-39.0671883454019
 11
-14.56348484455066
 21
-39.06718834540187
 72
     1
 10
-14.56348484455066
 20
-39.06718834540187
 11
-14.56350988899659
 21
-40.9871883454018
 72
     1
 10
-14.56350988899659
 20
-40.9871883454018
 11
-10.12213011952456
 21
-40.98718834540177
 97
        0
 75
     0
 76
     1
 98
        1
 10
-4.06796469971362
 20
-0.0271883454718875
  0
DIMENSION
  5
C9
330
1F
100
AcDbEntity
  8
치수문자_일반주서
100
AcDbDimension
  2
_D
 10
40.0
 20
-4.027188345471842
 30
0.0
 11
39.99999999999994
 21
13.63931165452819
 31
0.0
 70
   160
  1
%%c<>
 71
     2
 42
8.0
 52
-270.0
  3
SLDDIMSTYLE0
100
AcDbAlignedDimension
 13
29.99999999999999
 23
3.972811654528123
 33
0.0
 14
29.99999999999999
 24
-4.027188345471877
 34
0.0
 50
90.0000000000002
100
AcDbRotatedDimension
1001
PE_URL
1000

  0
DIMENSION
  5
D7
330
1F
100
AcDbEntity
  8
치수문자_일반주서
100
AcDbDimension
  2
_D_1
 10
-80.0
 20
-4.027188345471918
 30
0.0
 11
-80.00000000000006
 21
13.63931165452809
 31
0.0
 70
   160
  1
%%c<>
 71
     2
 42
8.000000000000007
 52
-270.0
  3
SLDDIMSTYLE0
100
AcDbAlignedDimension
 13
-69.20000000000002
 23
3.97281165452813
 33
0.0
 14
-69.20000000000002
 24
-4.027188345471877
 34
0.0
 50
90.0000000000002
100
AcDbRotatedDimension
1001
PE_URL
1000

  0
DIMENSION
  5
E4
330
1F
100
AcDbEntity
  8
치수문자_일반주서
100
AcDbDimension
  2
_D_2
 10
10.0
 20
13.97281165452813
 30
0.0
 11
19.99999999999999
 21
13.97281165452813
 31
0.0
 70
   160
  1
<>
 71
     2
 42
19.99999999999999
  3
SLDDIMSTYLE0
100
AcDbAlignedDimension
 13
29.99999999999999
 23
3.972811654528123
 33
0.0
 14
10.0
 24
3.91575209007995
 34
0.0
100
AcDbRotatedDimension
1001
PE_URL
1000

  0
DIMENSION
  5
EE
330
1F
100
AcDbEntity
  8
치수문자_일반주서
100
AcDbDimension
  2
_D_3
 10
-70.00000000000003
 20
23.97281165452813
 30
0.0
 11
-20.00000000000003
 21
23.97281165452813
 31
0.0
 70
   160
  1
<>
 71
     2
 42
100.0
  3
SLDDIMSTYLE0
100
AcDbAlignedDimension
 13
29.99999999999999
 23
3.972811654528123
 33
0.0
 14
-70.00000000000003
 24
3.17281165452813
 34
0.0
 50
0.0000000000000041
100
AcDbRotatedDimension
1001
PE_URL
1000

  0
LINE
  5
F9
330
1F
100
AcDbEntity
  8
참조1
100
AcDbLine
 10
37.81348381534557
 20
7.412811654528129
 30
0.0
 11
37.81348381534557
 21
-7.467188345471875
 31
0.0
  0
LINE
  5
FA
330
1F
100
AcDbEntity
  8
참조1
100
AcDbLine
 10
50.51348381534557
 20
5.412811654528129
 30
0.0
 11
37.81348381534557
 21
5.412811654528129
 31
0.0
  0
SOLID
  5
FB
330
1F
100
AcDbEntity
  8
참조1
100
AcDbTrace
 10
37.81348381534557
 20
5.412811654528129
 30
0.0
 11
44.16348381534556
 21
4.396811654528129
 31
0.0
 12
44.16348381534556
 22
6.428811654528129
 32
0.0
 13
44.16348381534556
 23
6.428811654528129
 33
0.0
  0
LINE
  5
FC
330
1F
100
AcDbEntity
  8
참조1
100
AcDbLine
 10
50.51348381534557
 20
-5.467188345471875
 30
0.0
 11
37.81348381534557
 21
-5.467188345471875
 31
0.0
  0
SOLID
  5
FD
330
1F
100
AcDbEntity
  8
참조1
100
AcDbTrace
 10
37.81348381534557
 20
-5.467188345471875
 30
0.0
 11
44.16348381534556
 21
-6.483188345471875
 31
0.0
 12
44.16348381534556
 22
-4.451188345471875
 32
0.0
 13
44.16348381534556
 23
-4.451188345471875
 33
0.0
  0
MTEXT
  5
FE
330
1F
100
AcDbEntity
  8
참조1
100
AcDbMText
 10
47.21097390781585
 20
10.96102829917806
 30
0.0
 40
3.5
 41
0.0
 71
     1
 72
     1
  1
A
  7
SLDTEXTSTYLE0
 73
     1
 44
1.0
  0
MTEXT
  5
FF
330
1F
100
AcDbEntity
  8
참조1
100
AcDbMText
 10
47.21097390781585
 20
0.0810282991780595
 30
0.0
 40
3.5
 41
0.0
 71
     1
 72
     1
  1
A
  7
SLDTEXTSTYLE0
 73
     1
 44
1.0
  0
INSERT
  5
106
330
1F
100
AcDbEntity
  8
해칭선
100
AcDbBlockReference
  2
SW_DOWELSYMBOL_0
 10
0.0
 20
0.0
 30
0.0
  0
ARC
  5
1B8
330
1F
100
AcDbEntity
  8
0
  6
Continuous
 62
     1
370
    15
100
AcDbCircle
 10
28.99999999999999
 20
3.027461246246534
 30
0.0
 40
1.0
100
AcDbArc
 50
0.0
 51
90.44803434374502
1001
PE_URL
1000

  0
ARC
  5
1B9
102
{ACAD_REACTORS
102
}
330
1F
100
AcDbEntity
  8
0
  6
Continuous
 62
     1
370
    15
100
AcDbCircle
 10
28.99999999999999
 20
-3.08183793719029
 30
0.0
 40
1.0
100
AcDbArc
 50
269.551965656255
 51
0.0
1001
PE_URL
1000

  0
DIMENSION
  5
1BA
102
{ACAD_REACTORS
102
}
102
{ACAD_XDICTIONARY
360
1BB
102
}
330
1F
100
AcDbEntity
  8
치수문자_일반주서
100
AcDbDimension
  2
*D12
 10
28.99999999999999
 20
-3.08183793719029
 30
0.0
 11
38.85320864497989
 21
-18.17531348551445
 31
0.0
 70
   164
 71
     5
 42
1.0
  3
SLDDIMSTYLE1
100
AcDbRadialDimension
 15
29.5466428549074
 25
-3.91920380058494
 35
0.0
 40
0.0
1001
ACAD
1000
DSTYLE
1002
{
1070
    78
1070
     8
1002
}
1001
ACAD_DSTYLE_DIMRADIAL_EXTENSION
1070
   387
1070
     1
1070
   388
1040
4.704569305924327
1070
   390
1040
0.0
1001
PE_URL
1000

  0
ENDSEC
  0
SECTION
  2
OBJECTS
  0
DICTIONARY
  5
C
330
0
100
AcDbDictionary
281
     1
  3
ACAD_DETAILVIEWSTYLE
350
1A3
  3
ACAD_GROUP
350
D
  3
ACAD_LAYOUT
350
1A
  3
ACAD_MLINESTYLE
350
17
  3
ACAD_PLOTSETTINGS
350
19
  3
ACAD_PLOTSTYLENAME
350
E
  3
ACAD_SCALELIST
350
47
  3
ACAD_SECTIONVIEWSTYLE
350
1A4
  3
AcDbVariableDictionary
350
19E
  3
APPDATA
350
128
  3
DWGPROPS
350
1C8
  0
DICTIONARY
  5
16E
330
2
100
AcDbDictionary
280
     1
281
     1
  3
ACAD_LAYERSTATES
360
16F
  0
DICTIONARY
  5
1BB
330
1BA
100
AcDbDictionary
280
     1
281
     1
  0
DICTIONARY
  5
1A3
102
{ACAD_REACTORS
330
C
102
}
330
C
100
AcDbDictionary
281
     1
  0
DICTIONARY
  5
D
102
{ACAD_REACTORS
330
C
102
}
330
C
100
AcDbDictionary
281
     1
  0
DICTIONARY
  5
1A
102
{ACAD_REACTORS
330
C
102
}
330
C
100
AcDbDictionary
281
     1
  3
Layout1
350
1E
  3
Layout2
350
26
  3
Model
350
22
  0
DICTIONARY
  5
17
102
{ACAD_REACTORS
330
C
102
}
330
C
100
AcDbDictionary
281
     1
  3
Standard
350
18
  0
DICTIONARY
  5
19
102
{ACAD_REACTORS
330
C
102
}
330
C
100
AcDbDictionary
281
     1
  0
ACDBDICTIONARYWDFLT
  5
E
102
{ACAD_REACTORS
330
C
102
}
330
C
100
AcDbDictionary
281
     1
  3
Normal
350
F
100
AcDbDictionaryWithDefault
340
F
  0
DICTIONARY
  5
47
102
{ACAD_REACTORS
330
C
102
}
330
C
100
AcDbDictionary
281
     1
  3
A0
350
48
  3
A1
350
49
  3
A2
350
4A
  3
A3
350
4B
  3
A4
350
4C
  3
A5
350
4D
  3
A6
350
4E
  3
A7
350
4F
  3
A8
350
50
  3
A9
350
51
  3
B0
350
52
  3
B1
350
53
  3
B2
350
54
  3
B3
350
55
  3
B4
350
56
  3
B5
350
57
  3
B6
350
58
  3
B7
350
59
  3
B8
350
5A
  3
B9
350
5B
  3
C0
350
5C
  3
C1
350
5D
  3
C2
350
5E
  3
C3
350
5F
  3
C4
350
60
  3
C5
350
61
  3
C6
350
62
  3
C7
350
63
  3
C8
350
64
  3
C9
350
65
  3
D0
350
66
  3
D1
350
67
  3
D2
350
68
  0
DICTIONARY
  5
1A4
102
{ACAD_REACTORS
330
C
102
}
330
C
100
AcDbDictionary
281
     1
  0
DICTIONARY
  5
19E
102
{ACAD_REACTORS
330
C
102
}
330
C
100
AcDbDictionary
281
     1
  0
DICTIONARY
  5
128
102
{ACAD_REACTORS
330
C
102
}
330
C
100
AcDbDictionary
281
     1
  0
XRECORD
  5
1C8
102
{ACAD_REACTORS
330
C
102
}
330
C
100
AcDbXrecord
280
     1
  1
DWGPROPS COOKIE
  2

  3

  4

  6

  7

  8
12017044
  9

300
=
301
=
302
=
303
=
304
=
305
=
306
=
307
=
308
=
309
=
 40
0.0
 41
2458269.440503831
 42
2458270.458349583
  1

 90
        0
  0
DICTIONARY
  5
16F
102
{ACAD_REACTORS
330
16E
102
}
330
16E
100
AcDbDictionary
281
     1
  0
LAYOUT
  5
1E
102
{ACAD_REACTORS
330
1A
102
}
330
1A
100
AcDbPlotSettings
  1

  2
none_device
  4

  6

 40
0.0
 41
0.0
 42
0.0
 43
0.0
 44
0.0
 45
0.0
 46
0.0
 47
0.0
 48
0.0
 49
0.0
140
0.0
141
0.0
142
1.0
143
1.0
 70
   688
 72
     1
 73
     0
 74
     5
  7

 75
    16
147
1.0
148
0.0
149
0.0
100
AcDbLayout
  1
Layout1
 70
     1
 71
     1
 10
0.0
 20
0.0
 11
420.0
 21
297.0
 12
0.0
 22
0.0
 32
0.0
 14
1.000000000000000E+20
 24
1.000000000000000E+20
 34
1.000000000000000E+20
 15
-1.000000000000000E+20
 25
-1.000000000000000E+20
 35
-1.000000000000000E+20
146
0.0
 13
0.0
 23
0.0
 33
0.0
 16
1.0
 26
0.0
 36
0.0
 17
0.0
 27
1.0
 37
0.0
 76
     0
330
1B
  0
LAYOUT
  5
26
102
{ACAD_REACTORS
330
1A
102
}
330
1A
100
AcDbPlotSettings
  1

  2
none_device
  4

  6

 40
0.0
 41
0.0
 42
0.0
 43
0.0
 44
0.0
 45
0.0
 46
0.0
 47
0.0
 48
0.0
 49
0.0
140
0.0
141
0.0
142
1.0
143
1.0
 70
   688
 72
     1
 73
     0
 74
     5
  7

 75
    16
147
1.0
148
0.0
149
0.0
100
AcDbLayout
  1
Layout2
 70
     1
 71
     2
 10
0.0
 20
0.0
 11
0.0
 21
0.0
 12
0.0
 22
0.0
 32
0.0
 14
0.0
 24
0.0
 34
0.0
 15
0.0
 25
0.0
 35
0.0
146
0.0
 13
0.0
 23
0.0
 33
0.0
 16
1.0
 26
0.0
 36
0.0
 17
0.0
 27
1.0
 37
0.0
 76
     0
330
23
  0
LAYOUT
  5
22
102
{ACAD_REACTORS
330
1A
102
}
330
1A
100
AcDbPlotSettings
  1

  2
none_device
  4
ANSI_A_(11.00_x_8.50_Inches)
  6

 40
6.35
 41
19.05
 42
6.35000508
 43
19.05000254
 44
279.4
 45
215.9
 46
110.9593412050573
 47
107.2600697222913
 48
0.0
 49
0.0
140
0.0
141
0.0
142
0.0787616753210067
143
1.0
 70
  1696
 72
     0
 73
     0
 74
     0
  7

 75
     0
147
0.0235690232323232
148
0.0
149
0.0
100
AcDbLayout
  1
Model
 70
     1
 71
     0
 10
0.0
 20
0.0
 11
420.0
 21
297.0
 12
0.0
 22
0.0
 32
0.0
 14
-84.37500000000007
 24
-49.99899573428362
 34
0.0
 15
50.51348381534558
 25
28.34781165452813
 35
0.0
146
0.0
 13
0.0
 23
0.0
 33
0.0
 16
1.0
 26
0.0
 36
0.0
 17
0.0
 27
1.0
 37
0.0
 76
     0
330
1F
331
29
  0
MLINESTYLE
  5
18
102
{ACAD_REACTORS
330
17
102
}
330
17
100
AcDbMlineStyle
  2
Standard
 70
     0
  3

 62
   256
 51
90.0
 52
90.0
 71
     2
 49
0.5
 62
   256
  6
BYLAYER
 49
-0.5
 62
   256
  6
BYLAYER
  0
ACDBPLACEHOLDER
  5
F
102
{ACAD_REACTORS
330
E
102
}
330
E
  0
SCALE
  5
48
102
{ACAD_REACTORS
330
47
102
}
330
47
100
AcDbScale
 70
     0
300
1:1
140
1.0
141
1.0
290
     1
  0
SCALE
  5
49
102
{ACAD_REACTORS
330
47
102
}
330
47
100
AcDbScale
 70
     0
300
1:2
140
1.0
141
2.0
290
     0
  0
SCALE
  5
4A
102
{ACAD_REACTORS
330
47
102
}
330
47
100
AcDbScale
 70
     0
300
1:4
140
1.0
141
4.0
290
     0
  0
SCALE
  5
4B
102
{ACAD_REACTORS
330
47
102
}
330
47
100
AcDbScale
 70
     0
300
1:5
140
1.0
141
5.0
290
     0
  0
SCALE
  5
4C
102
{ACAD_REACTORS
330
47
102
}
330
47
100
AcDbScale
 70
     0
300
1:8
140
1.0
141
8.0
290
     0
  0
SCALE
  5
4D
102
{ACAD_REACTORS
330
47
102
}
330
47
100
AcDbScale
 70
     0
300
1:10
140
1.0
141
10.0
290
     0
  0
SCALE
  5
4E
102
{ACAD_REACTORS
330
47
102
}
330
47
100
AcDbScale
 70
     0
300
1:16
140
1.0
141
16.0
290
     0
  0
SCALE
  5
4F
102
{ACAD_REACTORS
330
47
102
}
330
47
100
AcDbScale
 70
     0
300
1:20
140
1.0
141
20.0
290
     0
  0
SCALE
  5
50
102
{ACAD_REACTORS
330
47
102
}
330
47
100
AcDbScale
 70
     0
300
1:30
140
1.0
141
30.0
290
     0
  0
SCALE
  5
51
102
{ACAD_REACTORS
330
47
102
}
330
47
100
AcDbScale
 70
     0
300
1:40
140
1.0
141
40.0
290
     0
  0
SCALE
  5
52
102
{ACAD_REACTORS
330
47
102
}
330
47
100
AcDbScale
 70
     0
300
1:50
140
1.0
141
50.0
290
     0
  0
SCALE
  5
53
102
{ACAD_REACTORS
330
47
102
}
330
47
100
AcDbScale
 70
     0
300
1:100
140
1.0
141
100.0
290
     0
  0
SCALE
  5
54
102
{ACAD_REACTORS
330
47
102
}
330
47
100
AcDbScale
 70
     0
300
2:1
140
2.0
141
1.0
290
     0
  0
SCALE
  5
55
102
{ACAD_REACTORS
330
47
102
}
330
47
100
AcDbScale
 70
     0
300
4:1
140
4.0
141
1.0
290
     0
  0
SCALE
  5
56
102
{ACAD_REACTORS
330
47
102
}
330
47
100
AcDbScale
 70
     0
300
8:1
140
8.0
141
1.0
290
     0
  0
SCALE
  5
57
102
{ACAD_REACTORS
330
47
102
}
330
47
100
AcDbScale
 70
     0
300
10:1
140
10.0
141
1.0
290
     0
  0
SCALE
  5
58
102
{ACAD_REACTORS
330
47
102
}
330
47
100
AcDbScale
 70
     0
300
100:1
140
100.0
141
1.0
290
     0
  0
SCALE
  5
59
102
{ACAD_REACTORS
330
47
102
}
330
47
100
AcDbScale
 70
     0
300
1/128" = 1'-0"
140
0.0078125
141
12.0
290
     0
  0
SCALE
  5
5A
102
{ACAD_REACTORS
330
47
102
}
330
47
100
AcDbScale
 70
     0
300
1/64" = 1'-0"
140
0.015625
141
12.0
290
     0
  0
SCALE
  5
5B
102
{ACAD_REACTORS
330
47
102
}
330
47
100
AcDbScale
 70
     0
300
1/32" = 1'-0"
140
0.03125
141
12.0
290
     0
  0
SCALE
  5
5C
102
{ACAD_REACTORS
330
47
102
}
330
47
100
AcDbScale
 70
     0
300
1/16" = 1'-0"
140
0.0625
141
12.0
290
     0
  0
SCALE
  5
5D
102
{ACAD_REACTORS
330
47
102
}
330
47
100
AcDbScale
 70
     0
300
3/32" = 1'-0"
140
0.09375
141
12.0
290
     0
  0
SCALE
  5
5E
102
{ACAD_REACTORS
330
47
102
}
330
47
100
AcDbScale
 70
     0
300
1/8" = 1'-0"
140
0.125
141
12.0
290
     0
  0
SCALE
  5
5F
102
{ACAD_REACTORS
330
47
102
}
330
47
100
AcDbScale
 70
     0
300
3/16" = 1'-0"
140
0.1875
141
12.0
290
     0
  0
SCALE
  5
60
102
{ACAD_REACTORS
330
47
102
}
330
47
100
AcDbScale
 70
     0
300
1/4" = 1'-0"
140
0.25
141
12.0
290
     0
  0
SCALE
  5
61
102
{ACAD_REACTORS
330
47
102
}
330
47
100
AcDbScale
 70
     0
300
3/8" = 1'-0"
140
0.375
141
12.0
290
     0
  0
SCALE
  5
62
102
{ACAD_REACTORS
330
47
102
}
330
47
100
AcDbScale
 70
     0
300
1/2" = 1'-0"
140
0.5
141
12.0
290
     0
  0
SCALE
  5
63
102
{ACAD_REACTORS
330
47
102
}
330
47
100
AcDbScale
 70
     0
300
3/4" = 1'-0"
140
0.75
141
12.0
290
     0
  0
SCALE
  5
64
102
{ACAD_REACTORS
330
47
102
}
330
47
100
AcDbScale
 70
     0
300
1" = 1'-0"
140
1.0
141
12.0
290
     0
  0
SCALE
  5
65
102
{ACAD_REACTORS
330
47
102
}
330
47
100
AcDbScale
 70
     0
300
1-1/2" = 1'-0"
140
1.5
141
12.0
290
     0
  0
SCALE
  5
66
102
{ACAD_REACTORS
330
47
102
}
330
47
100
AcDbScale
 70
     0
300
3" = 1'-0"
140
3.0
141
12.0
290
     0
  0
SCALE
  5
67
102
{ACAD_REACTORS
330
47
102
}
330
47
100
AcDbScale
 70
     0
300
6" = 1'-0"
140
6.0
141
12.0
290
     0
  0
SCALE
  5
68
102
{ACAD_REACTORS
330
47
102
}
330
47
100
AcDbScale
 70
     0
300
1'-0" = 1'-0"
140
12.0
141
12.0
290
     0
  0
ENDSEC
  0
EOF
