  0
SECTION
  2
HEADER
  9
$ACADVER
  1
AC1015
  9
$ACADMAINTVER
 70
     6
  9
$DWGCODEPAGE
  3
ANSI_949
  9
$INSBASE
 10
0.0
 20
0.0
 30
0.0
  9
$EXTMIN
 10
-54.31250000000006
 20
-49.97180738881174
 30
0.0
  9
$EXTMAX
 10
79.73835494594202
 20
28.28531165452813
 30
0.0
  9
$LIMMIN
 10
0.0
 20
0.0
  9
$LIMMAX
 10
420.0
 20
297.0
  9
$ORTHOMODE
 70
     1
  9
$REGENMODE
 70
     1
  9
$FILLMODE
 70
     1
  9
$QTEXTMODE
 70
     0
  9
$MIRRTEXT
 70
     1
  9
$LTSCALE
 40
1.0
  9
$ATTMODE
 70
     1
  9
$TEXTSIZE
 40
3.5
  9
$TRACEWID
 40
1.0
  9
$TEXTSTYLE
  7
Standard
  9
$CLAYER
  8
0
  9
$CELTYPE
  6
ByLayer
  9
$CECOLOR
 62
   256
  9
$CELTSCALE
 40
1.0
  9
$DISPSILH
 70
     0
  9
$DIMSCALE
 40
1.0
  9
$DIMASZ
 40
3.302
  9
$DIMEXO
 40
1.0
  9
$DIMDLI
 40
3.75
  9
$DIMRND
 40
0.0
  9
$DIMDLE
 40
0.0
  9
$DIMEXE
 40
1.0
  9
$DIMTP
 40
0.0
  9
$DIMTM
 40
0.0
  9
$DIMTXT
 40
3.5
  9
$DIMCEN
 40
2.5
  9
$DIMTSZ
 40
0.0
  9
$DIMTOL
 70
     0
  9
$DIMLIM
 70
     0
  9
$DIMTIH
 70
     1
  9
$DIMTOH
 70
     1
  9
$DIMSE1
 70
     0
  9
$DIMSE2
 70
     0
  9
$DIMTAD
 70
     1
  9
$DIMZIN
 70
     0
  9
$DIMBLK
  1

  9
$DIMASO
 70
     1
  9
$DIMSHO
 70
     1
  9
$DIMPOST
  1

  9
$DIMAPOST
  1

  9
$DIMALT
 70
     0
  9
$DIMALTD
 70
     3
  9
$DIMALTF
 40
0.0393700787401575
  9
$DIMLFAC
 40
1.0
  9
$DIMTOFL
 70
     1
  9
$DIMTVP
 40
0.0
  9
$DIMTIX
 70
     0
  9
$DIMSOXD
 70
     0
  9
$DIMSAH
 70
     0
  9
$DIMBLK1
  1

  9
$DIMBLK2
  1

  9
$DIMSTYLE
  2
ISO-25
  9
$DIMCLRD
 70
     0
  9
$DIMCLRE
 70
     0
  9
$DIMCLRT
 70
     0
  9
$DIMTFAC
 40
1.0
  9
$DIMGAP
 40
1.524
  9
$DIMJUST
 70
     0
  9
$DIMSD1
 70
     0
  9
$DIMSD2
 70
     0
  9
$DIMTOLJ
 70
     0
  9
$DIMTZIN
 70
     0
  9
$DIMALTZ
 70
     0
  9
$DIMALTTZ
 70
     0
  9
$DIMUPT
 70
     0
  9
$DIMDEC
 70
     2
  9
$DIMTDEC
 70
     2
  9
$DIMALTU
 70
     2
  9
$DIMALTTD
 70
     3
  9
$DIMTXSTY
  7
Standard
  9
$DIMAUNIT
 70
     0
  9
$DIMADEC
 70
     2
  9
$DIMALTRND
 40
0.0
  9
$DIMAZIN
 70
     0
  9
$DIMDSEP
 70
    44
  9
$DIMATFIT
 70
     3
  9
$DIMFRAC
 70
     0
  9
$DIMLDRBLK
  1

  9
$DIMLUNIT
 70
     2
  9
$DIMLWD
 70
    -2
  9
$DIMLWE
 70
    -2
  9
$DIMTMOVE
 70
     0
  9
$LUNITS
 70
     2
  9
$LUPREC
 70
     2
  9
$SKETCHINC
 40
1.0
  9
$FILLETRAD
 40
10.0
  9
$AUNITS
 70
     0
  9
$AUPREC
 70
     2
  9
$MENU
  1
.
  9
$ELEVATION
 40
0.0
  9
$PELEVATION
 40
0.0
  9
$THICKNESS
 40
0.0
  9
$LIMCHECK
 70
     0
  9
$CHAMFERA
 40
0.0
  9
$CHAMFERB
 40
0.0
  9
$CHAMFERC
 40
0.0
  9
$CHAMFERD
 40
0.0
  9
$SKPOLY
 70
     0
  9
$TDCREATE
 40
2458269.814936701
  9
$TDUCREATE
 40
2458269.439936701
  9
$TDUPDATE
 40
2459702.496610984
  9
$TDUUPDATE
 40
2459702.121610984
  9
$TDINDWG
 40
0.00088875
  9
$TDUSRTIMER
 40
0.0008887384
  9
$USRTIMER
 70
     1
  9
$ANGBASE
 50
0.0
  9
$ANGDIR
 70
     0
  9
$PDMODE
 70
     0
  9
$PDSIZE
 40
-1.0
  9
$PLINEWID
 40
0.0
  9
$SPLFRAME
 70
     0
  9
$SPLINETYPE
 70
     6
  9
$SPLINESEGS
 70
     8
  9
$HANDSEED
  5
26B
  9
$SURFTAB1
 70
     6
  9
$SURFTAB2
 70
     6
  9
$SURFTYPE
 70
     6
  9
$SURFU
 70
     6
  9
$SURFV
 70
     6
  9
$UCSBASE
  2

  9
$UCSNAME
  2

  9
$UCSORG
 10
0.0
 20
0.0
 30
0.0
  9
$UCSXDIR
 10
1.0
 20
0.0
 30
0.0
  9
$UCSYDIR
 10
0.0
 20
1.0
 30
0.0
  9
$UCSORTHOREF
  2

  9
$UCSORTHOVIEW
 70
     0
  9
$UCSORGTOP
 10
0.0
 20
0.0
 30
0.0
  9
$UCSORGBOTTOM
 10
0.0
 20
0.0
 30
0.0
  9
$UCSORGLEFT
 10
0.0
 20
0.0
 30
0.0
  9
$UCSORGRIGHT
 10
0.0
 20
0.0
 30
0.0
  9
$UCSORGFRONT
 10
0.0
 20
0.0
 30
0.0
  9
$UCSORGBACK
 10
0.0
 20
0.0
 30
0.0
  9
$PUCSBASE
  2

  9
$PUCSNAME
  2

  9
$PUCSORG
 10
0.0
 20
0.0
 30
0.0
  9
$PUCSXDIR
 10
1.0
 20
0.0
 30
0.0
  9
$PUCSYDIR
 10
0.0
 20
1.0
 30
0.0
  9
$PUCSORTHOREF
  2

  9
$PUCSORTHOVIEW
 70
     0
  9
$PUCSORGTOP
 10
0.0
 20
0.0
 30
0.0
  9
$PUCSORGBOTTOM
 10
0.0
 20
0.0
 30
0.0
  9
$PUCSORGLEFT
 10
0.0
 20
0.0
 30
0.0
  9
$PUCSORGRIGHT
 10
0.0
 20
0.0
 30
0.0
  9
$PUCSORGFRONT
 10
0.0
 20
0.0
 30
0.0
  9
$PUCSORGBACK
 10
0.0
 20
0.0
 30
0.0
  9
$USERI1
 70
     0
  9
$USERI2
 70
     0
  9
$USERI3
 70
     0
  9
$USERI4
 70
     0
  9
$USERI5
 70
     0
  9
$USERR1
 40
0.0
  9
$USERR2
 40
0.0
  9
$USERR3
 40
0.0
  9
$USERR4
 40
0.0
  9
$USERR5
 40
0.0
  9
$WORLDVIEW
 70
     1
  9
$SHADEDGE
 70
     3
  9
$SHADEDIF
 70
    70
  9
$TILEMODE
 70
     1
  9
$MAXACTVP
 70
    64
  9
$PINSBASE
 10
0.0
 20
0.0
 30
0.0
  9
$PLIMCHECK
 70
     0
  9
$PEXTMIN
 10
1.000000000000000E+20
 20
1.000000000000000E+20
 30
1.000000000000000E+20
  9
$PEXTMAX
 10
-1.000000000000000E+20
 20
-1.000000000000000E+20
 30
-1.000000000000000E+20
  9
$PLIMMIN
 10
0.0
 20
0.0
  9
$PLIMMAX
 10
0.0
 20
0.0
  9
$UNITMODE
 70
     0
  9
$VISRETAIN
 70
     1
  9
$PLINEGEN
 70
     0
  9
$PSLTSCALE
 70
     1
  9
$TREEDEPTH
 70
  3020
  9
$CMLSTYLE
  2
Standard
  9
$CMLJUST
 70
     0
  9
$CMLSCALE
 40
20.0
  9
$PROXYGRAPHICS
 70
     1
  9
$MEASUREMENT
 70
     1
  9
$CELWEIGHT
370
    -1
  9
$ENDCAPS
280
     0
  9
$JOINSTYLE
280
     0
  9
$LWDISPLAY
290
     1
  9
$INSUNITS
 70
     4
  9
$HYPERLINKBASE
  1

  9
$STYLESHEET
  1

  9
$XEDIT
290
     1
  9
$CEPSNTYPE
380
     0
  9
$PSTYLEMODE
290
     1
  9
$FINGERPRINTGUID
  2
{3C8D3F25-4460-4EFC-9D98-423F2C3357CD}
  9
$VERSIONGUID
  2
{FAEB1C32-E019-11D5-929B-00C0DF256EC4}
  9
$EXTNAMES
290
     1
  9
$PSVPSCALE
 40
0.0
  9
$OLESTARTUP
290
     0
  0
ENDSEC
  0
SECTION
  2
CLASSES
  0
CLASS
  1
ACDBDICTIONARYWDFLT
  2
AcDbDictionaryWithDefault
  3
ObjectDBX Classes
 90
        0
280
     0
281
     0
  0
CLASS
  1
VISUALSTYLE
  2
AcDbVisualStyle
  3
ObjectDBX Classes
 90
     4095
280
     0
281
     0
  0
CLASS
  1
MATERIAL
  2
AcDbMaterial
  3
ObjectDBX Classes
 90
     1153
280
     0
281
     0
  0
CLASS
  1
SCALE
  2
AcDbScale
  3
ObjectDBX Classes
 90
     1153
280
     0
281
     0
  0
CLASS
  1
SUN
  2
AcDbSun
  3
SCENEOE
 90
     1153
280
     0
281
     0
  0
CLASS
  1
ACDBPLACEHOLDER
  2
AcDbPlaceHolder
  3
ObjectDBX Classes
 90
        0
280
     0
281
     0
  0
CLASS
  1
LAYOUT
  2
AcDbLayout
  3
ObjectDBX Classes
 90
        0
280
     0
281
     0
  0
CLASS
  1
TABLESTYLE
  2
AcDbTableStyle
  3
ObjectDBX Classes
 90
     4095
280
     0
281
     0
  0
CLASS
  1
MLEADERSTYLE
  2
AcDbMLeaderStyle
  3
ACDB_MLEADERSTYLE_CLASS
 90
     4095
280
     0
281
     0
  0
CLASS
  1
BREAKDATA
  2
AcDbBreakData
  3
ObjectDBX Classes
 90
     1024
280
     0
281
     0
  0
ENDSEC
  0
SECTION
  2
TABLES
  0
TABLE
  2
VPORT
  5
8
330
0
100
AcDbSymbolTable
 70
     1
  0
VPORT
  5
29
330
8
100
AcDbSymbolTableRecord
100
AcDbViewportTableRecord
  2
*Active
 70
     0
 10
0.0
 20
0.0
 11
1.0
 21
1.0
 12
-2.448336791578022
 22
10.88467434375592
 13
0.0
 23
0.0
 14
10.0
 24
10.0
 15
10.0
 25
10.0
 16
0.0
 26
0.0
 36
1.0
 17
0.0
 27
0.0
 37
0.0
 40
92.08703660254939
 41
1.531481481481481
 42
50.0
 43
0.0
 44
0.0
 50
0.0
 51
0.0
 71
    16
 72
  2000
 73
     1
 74
     3
 75
     0
 76
     0
 77
     0
 78
     0
281
     0
 65
     1
110
0.0
120
0.0
130
0.0
111
1.0
121
0.0
131
0.0
112
0.0
122
1.0
132
0.0
 79
     0
146
0.0
  0
ENDTAB
  0
TABLE
  2
LTYPE
  5
5
330
0
100
AcDbSymbolTable
 70
     6
  0
LTYPE
  5
14
330
5
100
AcDbSymbolTableRecord
100
AcDbLinetypeTableRecord
  2
ByBlock
 70
     0
  3

 72
    65
 73
     0
 40
0.0
  0
LTYPE
  5
15
330
5
100
AcDbSymbolTableRecord
100
AcDbLinetypeTableRecord
  2
ByLayer
 70
     0
  3

 72
    65
 73
     0
 40
0.0
  0
LTYPE
  5
16
330
5
100
AcDbSymbolTableRecord
100
AcDbLinetypeTableRecord
  2
Continuous
 70
     0
  3
Solid line
 72
    65
 73
     0
 40
0.0
  0
LTYPE
  5
6A
330
5
100
AcDbSymbolTableRecord
100
AcDbLinetypeTableRecord
  2
HIDDEN
 70
     0
  3
Hidden __ __ __ __ __ __ __ __ __ __ __ __ __ __
 72
    65
 73
     2
 40
1.905
 49
1.27
 74
     0
 49
-0.635
 74
     0
  0
LTYPE
  5
6B
330
5
100
AcDbSymbolTableRecord
100
AcDbLinetypeTableRecord
  2
PHANTOM
 70
     0
  3
Phantom ______  __  __  ______  __  __  ______
 72
    65
 73
     6
 40
12.7
 49
6.35
 74
     0
 49
-1.27
 74
     0
 49
1.27
 74
     0
 49
-1.27
 74
     0
 49
1.27
 74
     0
 49
-1.27
 74
     0
  0
LTYPE
  5
6C
330
5
100
AcDbSymbolTableRecord
100
AcDbLinetypeTableRecord
  2
CENTER
 70
     0
  3
Center ____ _ ____ _ ____ _ ____ _ ____ _ ____
 72
    65
 73
     4
 40
10.16
 49
6.35
 74
     0
 49
-1.27
 74
     0
 49
1.27
 74
     0
 49
-1.27
 74
     0
  0
LTYPE
  5
6D
330
5
100
AcDbSymbolTableRecord
100
AcDbLinetypeTableRecord
  2
CENTERX2
 70
     0
  3
Center (2x) ________  __  ________  __  _____
 72
    65
 73
     4
 40
20.32
 49
12.7
 74
     0
 49
-2.54
 74
     0
 49
2.54
 74
     0
 49
-2.54
 74
     0
  0
LTYPE
  5
6E
330
5
100
AcDbSymbolTableRecord
100
AcDbLinetypeTableRecord
  2
DOT2
 70
     0
  3
Dot (.5x) ........................................
 72
    65
 73
     2
 40
0.635
 49
0.0
 74
     0
 49
-0.635
 74
     0
  0
ENDTAB
  0
TABLE
  2
LAYER
  5
2
102
{ACAD_XDICTIONARY
360
1B7
102
}
330
0
100
AcDbSymbolTable
 70
    18
  0
LAYER
  5
10
330
2
100
AcDbSymbolTableRecord
100
AcDbLayerTableRecord
  2
0
 70
     0
 62
     7
  6
Continuous
370
    -3
390
F
  0
LAYER
  5
6F
330
2
100
AcDbSymbolTableRecord
100
AcDbLayerTableRecord
  2
FORMAT
 70
     0
 62
     2
  6
Continuous
370
    -3
390
F
  0
LAYER
  5
70
330
2
100
AcDbSymbolTableRecord
100
AcDbLayerTableRecord
  2
외형선
 70
     0
 62
     4
  6
Continuous
370
    30
390
F
  0
LAYER
  5
71
330
2
100
AcDbSymbolTableRecord
100
AcDbLayerTableRecord
  2
숨은선
 70
     0
 62
     2
  6
HIDDEN
370
    15
390
F
  0
LAYER
  5
72
330
2
100
AcDbSymbolTableRecord
100
AcDbLayerTableRecord
  2
중심선
 70
     0
 62
     1
  6
CENTERX2
370
    -3
390
F
  0
LAYER
  5
73
330
2
100
AcDbSymbolTableRecord
100
AcDbLayerTableRecord
  2
파단선
 70
     0
 62
     4
  6
Continuous
370
    -3
390
F
  0
LAYER
  5
74
330
2
100
AcDbSymbolTableRecord
100
AcDbLayerTableRecord
  2
해칭선
 70
     0
 62
   100
  6
Continuous
370
    -3
390
F
  0
LAYER
  5
75
330
2
100
AcDbSymbolTableRecord
100
AcDbLayerTableRecord
  2
가는실선
 70
     0
 62
     4
  6
Continuous
370
    -3
390
F
  0
LAYER
  5
76
330
2
100
AcDbSymbolTableRecord
100
AcDbLayerTableRecord
  2
치수_보조선
 70
     0
 62
     4
  6
Continuous
370
    -3
390
F
  0
LAYER
  5
77
330
2
100
AcDbSymbolTableRecord
100
AcDbLayerTableRecord
  2
치수문자_일반주서
 70
     0
 62
     7
  6
Continuous
370
    15
390
F
  0
LAYER
  5
78
330
2
100
AcDbSymbolTableRecord
100
AcDbLayerTableRecord
  2
개별주서
 70
     0
 62
   100
  6
Continuous
370
    30
390
F
  0
LAYER
  5
79
330
2
100
AcDbSymbolTableRecord
100
AcDbLayerTableRecord
  2
중간선
 70
     0
 62
     2
  6
Continuous
370
    15
390
F
  0
LAYER
  5
7A
330
2
100
AcDbSymbolTableRecord
100
AcDbLayerTableRecord
  2
윤곽선
 70
     0
 62
     3
  6
Continuous
370
    40
390
F
  0
LAYER
  5
7B
330
2
100
AcDbSymbolTableRecord
100
AcDbLayerTableRecord
  2
중심마크
 70
     0
 62
   100
  6
Continuous
370
    30
390
F
  0
LAYER
  5
7C
330
2
100
AcDbSymbolTableRecord
100
AcDbLayerTableRecord
  2
가상선
 70
     0
 62
     4
  6
PHANTOM
370
    -3
390
F
  0
LAYER
  5
7D
330
2
100
AcDbSymbolTableRecord
100
AcDbLayerTableRecord
  2
특수지정선
 70
     0
 62
     5
  6
CENTERX2
370
    60
390
F
  0
LAYER
  5
7E
330
2
100
AcDbSymbolTableRecord
100
AcDbLayerTableRecord
  2
참조1
 70
     0
 62
    -4
  6
Continuous
370
    -3
390
F
  0
LAYER
  5
12C
330
2
100
AcDbSymbolTableRecord
100
AcDbLayerTableRecord
  2
Defpoints
 70
     0
 62
     7
  6
Continuous
290
     0
370
    -3
390
F
  0
ENDTAB
  0
TABLE
  2
STYLE
  5
3
330
0
100
AcDbSymbolTable
 70
     2
  0
STYLE
  5
11
330
3
100
AcDbSymbolTableRecord
100
AcDbTextStyleTableRecord
  2
Standard
 70
     0
 40
0.0
 41
1.0
 50
0.0
 71
     0
 42
3.5
  3
txt
  4

  0
STYLE
  5
94
330
3
100
AcDbSymbolTableRecord
100
AcDbTextStyleTableRecord
  2
SLDTEXTSTYLE0
 70
     0
 40
0.0
 41
0.75
 50
0.0
 71
     0
 42
3.5
  3
TXT
  4

  0
ENDTAB
  0
TABLE
  2
VIEW
  5
6
330
0
100
AcDbSymbolTable
 70
     0
  0
ENDTAB
  0
TABLE
  2
UCS
  5
7
330
0
100
AcDbSymbolTable
 70
     0
  0
ENDTAB
  0
TABLE
  2
APPID
  5
9
330
0
100
AcDbSymbolTable
 70
     4
  0
APPID
  5
12
330
9
100
AcDbSymbolTableRecord
100
AcDbRegAppTableRecord
  2
ACAD
 70
     0
  0
APPID
  5
138
330
9
100
AcDbSymbolTableRecord
100
AcDbRegAppTableRecord
  2
PE_URL
 70
     0
  0
APPID
  5
139
330
9
100
AcDbSymbolTableRecord
100
AcDbRegAppTableRecord
  2
ACAD_DSTYLE_DIMRADIAL_EXTENSION
 70
     0
  0
APPID
  5
265
330
9
100
AcDbSymbolTableRecord
100
AcDbRegAppTableRecord
  2
ENABLE_CUSTOM_SPLIT
 70
     0
  0
ENDTAB
  0
TABLE
  2
DIMSTYLE
  5
A
330
0
100
AcDbSymbolTable
 70
     3
100
AcDbDimStyleTable
  0
DIMSTYLE
105
27
330
A
100
AcDbSymbolTableRecord
100
AcDbDimStyleTableRecord
  2
ISO-25
 70
     0
 41
2.5
 42
0.625
 43
3.75
 44
1.25
 73
     0
 74
     0
 77
     1
 78
     8
140
2.5
141
2.5
143
0.03937007874016
147
0.625
171
     3
172
     1
178
     0
271
     2
272
     2
274
     3
278
    44
283
     0
284
     8
340
11
  0
DIMSTYLE
105
CC
102
{ACAD_REACTORS
330
169
330
179
330
189
330
196
330
21A
330
21B
330
21C
330
21D
102
}
330
A
100
AcDbSymbolTableRecord
100
AcDbDimStyleTableRecord
  2
SLDDIMSTYLE0
 70
     0
 41
3.302
 44
0.0
 45
0.000000001
 73
     0
 74
     0
 77
     1
 78
    12
 79
     3
140
3.5
147
0.875
172
     1
173
     1
178
     0
271
     2
272
     2
276
     2
284
    12
289
     0
340
94
  0
DIMSTYLE
105
F1
102
{ACAD_REACTORS
330
1AC
330
221
102
}
330
A
100
AcDbSymbolTableRecord
100
AcDbDimStyleTableRecord
  2
SLDDIMSTYLE1
 70
     0
 41
3.302
 44
0.0
 45
0.000000001
 73
     0
 74
     0
 77
     1
 78
    12
 79
     3
140
3.5
147
0.875
173
     1
178
     0
271
     2
272
     2
276
     2
284
    12
340
94
  0
ENDTAB
  0
TABLE
  2
BLOCK_RECORD
  5
1
330
0
100
AcDbSymbolTable
 70
    17
  0
BLOCK_RECORD
  5
1F
102
{ACAD_XDICTIONARY
360
267
102
}
330
1
100
AcDbSymbolTableRecord
100
AcDbBlockTableRecord
  2
*Model_Space
340
22
  0
BLOCK_RECORD
  5
1B
330
1
100
AcDbSymbolTableRecord
100
AcDbBlockTableRecord
  2
*Paper_Space
340
1E
  0
BLOCK_RECORD
  5
23
330
1
100
AcDbSymbolTableRecord
100
AcDbBlockTableRecord
  2
*Paper_Space0
340
26
  0
BLOCK_RECORD
  5
7F
330
1
100
AcDbSymbolTableRecord
100
AcDbBlockTableRecord
  2
블럭10
340
0
102
{BLKREFS
331
C4
102
}
  0
BLOCK_RECORD
  5
CD
330
1
100
AcDbSymbolTableRecord
100
AcDbBlockTableRecord
  2
_D
340
0
  0
BLOCK_RECORD
  5
DA
330
1
100
AcDbSymbolTableRecord
100
AcDbBlockTableRecord
  2
_D_1
340
0
  0
BLOCK_RECORD
  5
E7
330
1
100
AcDbSymbolTableRecord
100
AcDbBlockTableRecord
  2
_D_2
340
0
  0
BLOCK_RECORD
  5
F2
330
1
100
AcDbSymbolTableRecord
100
AcDbBlockTableRecord
  2
_D_3
340
0
  0
BLOCK_RECORD
  5
102
330
1
100
AcDbSymbolTableRecord
100
AcDbBlockTableRecord
  2
SW_DOWELSYMBOL_0
340
0
102
{BLKREFS
331
0
331
1A3
331
21E
102
}
  0
BLOCK_RECORD
  5
1AD
330
1
100
AcDbSymbolTableRecord
100
AcDbBlockTableRecord
  2
*D8
340
0
  0
BLOCK_RECORD
  5
1BB
330
1
100
AcDbSymbolTableRecord
100
AcDbBlockTableRecord
  2
*D9
340
0
  0
BLOCK_RECORD
  5
1CA
330
1
100
AcDbSymbolTableRecord
100
AcDbBlockTableRecord
  2
*D10
340
0
  0
BLOCK_RECORD
  5
1D9
330
1
100
AcDbSymbolTableRecord
100
AcDbBlockTableRecord
  2
*D11
340
0
  0
BLOCK_RECORD
  5
1E5
330
1
100
AcDbSymbolTableRecord
100
AcDbBlockTableRecord
  2
*D12
340
0
  0
BLOCK_RECORD
  5
222
330
1
100
AcDbSymbolTableRecord
100
AcDbBlockTableRecord
  2
*D13
340
0
  0
BLOCK_RECORD
  5
231
330
1
100
AcDbSymbolTableRecord
100
AcDbBlockTableRecord
  2
*D14
340
0
  0
BLOCK_RECORD
  5
240
330
1
100
AcDbSymbolTableRecord
100
AcDbBlockTableRecord
  2
*D15
340
0
  0
BLOCK_RECORD
  5
24C
330
1
100
AcDbSymbolTableRecord
100
AcDbBlockTableRecord
  2
*D16
340
0
  0
BLOCK_RECORD
  5
258
330
1
100
AcDbSymbolTableRecord
100
AcDbBlockTableRecord
  2
*D17
340
0
  0
ENDTAB
  0
ENDSEC
  0
SECTION
  2
BLOCKS
  0
BLOCK
  5
20
330
1F
100
AcDbEntity
  8
0
100
AcDbBlockBegin
  2
*Model_Space
 70
     0
 10
0.0
 20
0.0
 30
0.0
  3
*Model_Space
  1

  0
ENDBLK
  5
21
330
1F
100
AcDbEntity
  8
0
100
AcDbBlockEnd
  0
BLOCK
  5
1C
330
1B
100
AcDbEntity
 67
     1
  8
0
100
AcDbBlockBegin
  2
*Paper_Space
 70
     0
 10
0.0
 20
0.0
 30
0.0
  3
*Paper_Space
  1

  0
ENDBLK
  5
1D
330
1B
100
AcDbEntity
 67
     1
  8
0
100
AcDbBlockEnd
  0
BLOCK
  5
24
330
23
100
AcDbEntity
  8
0
100
AcDbBlockBegin
  2
*Paper_Space0
 70
     0
 10
0.0
 20
0.0
 30
0.0
  3
*Paper_Space0
  1

  0
ENDBLK
  5
25
330
23
100
AcDbEntity
  8
0
100
AcDbBlockEnd
  0
BLOCK
  5
80
330
7F
100
AcDbEntity
  8
0
100
AcDbBlockBegin
  2
블럭10
 70
     2
 10
0.0
 20
0.0
 30
0.0
  3
블럭10
  1

  0
ELLIPSE
  5
82
330
7F
100
AcDbEntity
  8
중심선
100
AcDbEllipse
 10
20.54032771741204
 20
12.0471743016438
 30
0.0
 11
6.600054785286829
 21
-1.261213355974178E-13
 31
0.0
210
0.0
220
0.0
230
1.0
 40
0.636358354079598
 41
0.9219305317359503
 42
6.513795318482858
  0
ELLIPSE
  5
83
330
7F
100
AcDbEntity
  8
중심선
100
AcDbEllipse
 10
20.54032771746488
 20
12.04717430159265
 30
0.0
 11
3.960054785062283
 21
1.540847449632565E-10
 31
0.0
210
0.0
220
0.0
230
1.0
 40
0.3939339440162632
 41
1.131841032648279
 42
5.62031148352944
  0
LINE
  5
84
330
7F
100
AcDbEntity
  8
중심선
100
AcDbLine
 10
2.268634060543552
 20
16.24717430164393
 30
0.0
 11
5.714909304380834
 21
16.24717430164393
 31
0.0
  0
LINE
  5
85
330
7F
100
AcDbEntity
  8
중심선
100
AcDbLine
 10
5.245725140726316
 20
7.84717430164391
 30
0.0
 11
8.692000384563599
 21
7.84717430164391
 31
0.0
  0
LINE
  5
86
330
7F
100
AcDbEntity
  8
중심선
100
AcDbLine
 10
15.74043728645272
 20
16.24717430164393
 30
0.0
 11
8.692000384563599
 21
7.84717430164391
 31
0.0
  0
LINE
  5
87
330
7F
100
AcDbEntity
  8
중심선
100
AcDbLine
 10
0.1404042013395286
 20
13.71084872107135
 30
0.0
 11
3.58671253028996
 21
13.71088815037384
 31
0.0
  0
LINE
  5
88
330
7F
100
AcDbEntity
  8
중심선
100
AcDbLine
 10
2.750260043222114
 20
10.84717430164391
 30
0.0
 11
6.196535287059397
 21
10.84717430164391
 31
0.0
  0
LINE
  5
89
330
7F
100
AcDbEntity
  8
중심선
100
AcDbLine
 10
12.29416204261559
 20
16.24717430164393
 30
0.0
 11
5.245725140726316
 21
7.84717430164391
 31
0.0
  0
LINE
  5
8A
330
7F
100
AcDbEntity
  8
중심선
100
AcDbLine
 10
10.72767329541681
 20
16.24717430164393
 30
0.0
 11
6.196535287059397
 21
10.84717430164391
 31
0.0
  0
LINE
  5
8B
330
7F
100
AcDbEntity
  8
중심선
100
AcDbLine
 10
7.28139805157953
 20
16.24717430164393
 30
0.0
 11
2.750260043222114
 21
10.84717430164391
 31
0.0
  0
LINE
  5
8C
330
7F
100
AcDbEntity
  8
중심선
100
AcDbLine
 10
5.714909304380834
 20
16.24717430164393
 30
0.0
 11
3.58671253028996
 21
13.71088815037384
 31
0.0
  0
LINE
  5
8D
330
7F
100
AcDbEntity
  8
중심선
100
AcDbLine
 10
2.268634060543552
 20
16.24717430164393
 30
0.0
 11
0.1404042013395286
 21
13.71084872107135
 31
0.0
  0
LINE
  5
8E
330
7F
100
AcDbEntity
  8
중심선
100
AcDbLine
 10
7.28139805157953
 20
16.24717430164393
 30
0.0
 11
10.72767329541681
 21
16.24717430164393
 31
0.0
  0
LINE
  5
8F
330
7F
100
AcDbEntity
  8
중심선
100
AcDbLine
 10
12.29416204261559
 20
16.24717430164393
 30
0.0
 11
15.74043728645272
 21
16.24717430164393
 31
0.0
  0
LINE
  5
90
330
7F
100
AcDbEntity
  8
중심선
100
AcDbLine
 10
19.22036997980202
 20
11.08717430171403
 30
0.0
 11
23.66174974927406
 21
11.08717430171406
 31
0.0
  0
LINE
  5
91
330
7F
100
AcDbEntity
  8
중심선
100
AcDbLine
 10
19.22039502424796
 20
13.00717430171391
 30
0.0
 11
19.22036997980202
 21
11.08717430171403
 31
0.0
  0
LINE
  5
92
330
7F
100
AcDbEntity
  8
중심선
100
AcDbLine
 10
19.22039502424796
 20
13.00717430171391
 30
0.0
 11
26.96566020931264
 21
13.00717430171391
 31
0.0
  0
LINE
  5
93
330
7F
100
AcDbEntity
  8
중심선
100
AcDbLine
 10
22.22332737316547
 20
13.45928029700563
 30
0.0
 11
24.52862924686651
 21
15.39360700705356
 31
0.0
  0
ATTDEF
  5
95
330
7F
100
AcDbEntity
  8
FORMAT
 62
     2
100
AcDbText
 10
-20.85824753159254
 20
2.075366912832191
 30
0.0
 40
4.233333333333333
  1
SEME0108010070E [ 4 FLUTE ]
 41
0.75
  7
SLDTEXTSTYLE0
 11
-20.85824753159254
 21
-0.0412997538344756
 31
0.0
100
AcDbAttributeDefinition
  3

  2
AUTOATTR0
 70
     0
 74
     1
  0
ENDBLK
  5
81
330
7F
100
AcDbEntity
  8
0
100
AcDbBlockEnd
  0
BLOCK
  5
CE
330
CD
100
AcDbEntity
  8
0
100
AcDbBlockBegin
  2
_D
 70
     0
 10
0.0
 20
0.0
 30
0.0
  3
_D
  1

  0
SOLID
  5
D0
330
CD
100
AcDbEntity
  8
치수문자_일반주서
100
AcDbTrace
 10
79.32487721999401
 20
3.999999999999998
 30
0.0
 11
79.832877219994
 21
7.301999999999998
 31
0.0
 12
78.81687721999401
 22
7.301999999999998
 32
0.0
 13
78.81687721999401
 23
7.301999999999998
 33
0.0
  0
SOLID
  5
D1
330
CD
100
AcDbEntity
  8
치수문자_일반주서
100
AcDbTrace
 10
79.32487721999401
 20
-4.000000000000005
 30
0.0
 11
78.81687721999401
 21
-7.302000000000005
 31
0.0
 12
79.832877219994
 22
-7.302000000000005
 32
0.0
 13
79.832877219994
 23
-7.302000000000005
 33
0.0
  0
LINE
  5
D2
330
CD
100
AcDbEntity
  8
치수문자_일반주서
100
AcDbLine
 10
22.374667694385
 20
4.000000000000002
 30
0.0
 11
80.32487721999401
 21
3.999999999999998
 31
0.0
  0
LINE
  5
D3
330
CD
100
AcDbEntity
  8
치수문자_일반주서
100
AcDbLine
 10
22.374667694385
 20
-4.000000000000002
 30
0.0
 11
80.32487721999401
 21
-4.000000000000005
 31
0.0
  0
LINE
  5
D4
330
CD
100
AcDbEntity
  8
치수문자_일반주서
100
AcDbLine
 10
79.32487721999401
 20
3.999999999999998
 30
0.0
 11
79.32487721999401
 21
10.35
 31
0.0
  0
LINE
  5
D5
330
CD
100
AcDbEntity
  8
치수문자_일반주서
100
AcDbLine
 10
79.32487721999401
 20
3.999999999999998
 30
0.0
 11
79.32487721999401
 21
-4.000000000000005
 31
0.0
  0
LINE
  5
D6
330
CD
100
AcDbEntity
  8
치수문자_일반주서
100
AcDbLine
 10
79.32487721999401
 20
-4.000000000000005
 30
0.0
 11
79.32487721999401
 21
-10.35
 31
0.0
  0
MTEXT
  5
D7
330
CD
100
AcDbEntity
  8
치수문자_일반주서
100
AcDbMText
 10
74.81314013079215
 20
-3.932274412363788
 30
0.0
 40
3.5
 41
0.0
 71
     1
 72
     1
  1
%%c
  7
SLDTEXTSTYLE0
 11
-7.044195017643634E-15
 21
1.0
 31
0.0
 73
     1
 44
1.0
  0
MTEXT
  5
D8
330
CD
100
AcDbEntity
  8
치수문자_일반주서
100
AcDbMText
 10
74.75966795413225
 20
1.346162986010292
 30
0.0
 40
3.5
 41
0.0
 71
     1
 72
     1
  1
8
  7
SLDTEXTSTYLE0
 11
-7.044195017643634E-15
 21
1.0
 31
0.0
 73
     1
 44
1.0
  0
ENDBLK
  5
CF
330
CD
100
AcDbEntity
  8
0
100
AcDbBlockEnd
  0
BLOCK
  5
DB
330
DA
100
AcDbEntity
  8
0
100
AcDbBlockBegin
  2
_D_1
 70
     0
 10
0.0
 20
0.0
 30
0.0
  3
_D_1
  1

  0
SOLID
  5
DD
330
DA
100
AcDbEntity
  8
치수문자_일반주서
100
AcDbTrace
 10
-53.37512886940358
 20
4.000000000000003
 30
0.0
 11
-52.86712886940357
 21
7.302000000000002
 31
0.0
 12
-53.88312886940358
 22
7.302000000000002
 32
0.0
 13
-53.88312886940358
 23
7.302000000000002
 33
0.0
  0
SOLID
  5
DE
330
DA
100
AcDbEntity
  8
치수문자_일반주서
100
AcDbTrace
 10
-53.37512886940358
 20
-4.000000000000004
 30
0.0
 11
-53.88312886940358
 21
-7.302000000000004
 31
0.0
 12
-52.86712886940357
 22
-7.302000000000004
 32
0.0
 13
-52.86712886940357
 23
-7.302000000000004
 33
0.0
  0
LINE
  5
DF
330
DA
100
AcDbEntity
  8
치수문자_일반주서
100
AcDbLine
 10
-40.97512886940358
 20
4.000000000000004
 30
0.0
 11
-54.37512886940358
 21
4.000000000000003
 31
0.0
  0
LINE
  5
E0
330
DA
100
AcDbEntity
  8
치수문자_일반주서
100
AcDbLine
 10
-40.97512886940358
 20
-4.000000000000004
 30
0.0
 11
-54.37512886940358
 21
-4.000000000000004
 31
0.0
  0
LINE
  5
E1
330
DA
100
AcDbEntity
  8
치수문자_일반주서
100
AcDbLine
 10
-53.37512886940358
 20
4.000000000000003
 30
0.0
 11
-53.37512886940358
 21
10.35
 31
0.0
  0
LINE
  5
E2
330
DA
100
AcDbEntity
  8
치수문자_일반주서
100
AcDbLine
 10
-53.37512886940358
 20
4.000000000000003
 30
0.0
 11
-53.37512886940358
 21
-4.000000000000004
 31
0.0
  0
LINE
  5
E3
330
DA
100
AcDbEntity
  8
치수문자_일반주서
100
AcDbLine
 10
-53.37512886940358
 20
-4.000000000000004
 30
0.0
 11
-53.37512886940358
 21
-10.35
 31
0.0
  0
MTEXT
  5
E4
330
DA
100
AcDbEntity
  8
치수문자_일반주서
100
AcDbMText
 10
-57.88686595860542
 20
-3.932274412363802
 30
0.0
 40
3.5
 41
0.0
 71
     1
 72
     1
  1
%%c
  7
SLDTEXTSTYLE0
 11
-7.044195017643634E-15
 21
1.0
 31
0.0
 73
     1
 44
1.0
  0
MTEXT
  5
E5
330
DA
100
AcDbEntity
  8
치수문자_일반주서
100
AcDbMText
 10
-57.94033813526531
 20
1.346162986010279
 30
0.0
 40
3.5
 41
0.0
 71
     1
 72
     1
  1
8
  7
SLDTEXTSTYLE0
 11
-7.044195017643634E-15
 21
1.0
 31
0.0
 73
     1
 44
1.0
  0
ENDBLK
  5
DC
330
DA
100
AcDbEntity
  8
0
100
AcDbBlockEnd
  0
BLOCK
  5
E8
330
E7
100
AcDbEntity
  8
0
100
AcDbBlockBegin
  2
_D_2
 70
     0
 10
0.0
 20
0.0
 30
0.0
  3
_D_2
  1

  0
SOLID
  5
EA
330
E7
100
AcDbEntity
  8
치수문자_일반주서
100
AcDbTrace
 10
29.22487113059648
 20
20.43261853604187
 30
0.0
 11
25.92287113059648
 21
20.94061853604187
 31
0.0
 12
25.92287113059648
 22
19.92461853604188
 32
0.0
 13
25.92287113059648
 23
19.92461853604188
 33
0.0
  0
SOLID
  5
EB
330
E7
100
AcDbEntity
  8
치수문자_일반주서
100
AcDbTrace
 10
9.224871130596503
 20
20.43261853604191
 30
0.0
 11
12.5268711305965
 21
19.92461853604191
 31
0.0
 12
12.5268711305965
 22
20.94061853604191
 32
0.0
 13
12.5268711305965
 23
20.94061853604191
 33
0.0
  0
LINE
  5
EC
330
E7
100
AcDbEntity
  8
치수문자_일반주서
100
AcDbLine
 10
29.22487113059644
 20
3.979448081799008
 30
0.0
 11
29.22487113059648
 21
21.43261853604187
 31
0.0
  0
LINE
  5
ED
330
E7
100
AcDbEntity
  8
치수문자_일반주서
100
AcDbLine
 10
9.224871130596464
 20
4.942940435551829
 30
0.0
 11
9.224871130596505
 21
21.43261853604191
 31
0.0
  0
LINE
  5
EE
330
E7
100
AcDbEntity
  8
치수문자_일반주서
100
AcDbLine
 10
29.22487113059648
 20
20.43261853604187
 30
0.0
 11
9.224871130596503
 21
20.43261853604191
 31
0.0
  0
MTEXT
  5
EF
330
E7
100
AcDbEntity
  8
치수문자_일반주서
100
AcDbMText
 10
16.63875993707366
 20
24.94435545062079
 30
0.0
 40
3.5
 41
0.0
 71
     1
 72
     1
  1
20
  7
SLDTEXTSTYLE0
 73
     1
 44
1.0
  0
ENDBLK
  5
E9
330
E7
100
AcDbEntity
  8
0
100
AcDbBlockEnd
  0
BLOCK
  5
F3
330
F2
100
AcDbEntity
  8
0
100
AcDbBlockBegin
  2
_D_3
 70
     0
 10
0.0
 20
0.0
 30
0.0
  3
_D_3
  1

  0
SOLID
  5
F5
330
F2
100
AcDbEntity
  8
치수문자_일반주서
100
AcDbTrace
 10
29.22487113059644
 20
27.84898122640881
 30
0.0
 11
25.92287113059644
 21
28.35698122640881
 31
0.0
 12
25.92287113059644
 22
27.34098122640881
 32
0.0
 13
25.92287113059644
 23
27.34098122640881
 33
0.0
  0
SOLID
  5
F6
330
F2
100
AcDbEntity
  8
치수문자_일반주서
100
AcDbTrace
 10
-40.77512886940357
 20
27.8489812264088
 30
0.0
 11
-37.47312886940357
 21
27.3409812264088
 31
0.0
 12
-37.47312886940357
 22
28.3569812264088
 32
0.0
 13
-37.47312886940357
 23
28.3569812264088
 33
0.0
  0
LINE
  5
F7
330
F2
100
AcDbEntity
  8
치수문자_일반주서
100
AcDbLine
 10
29.22487113059644
 20
3.979448081799008
 30
0.0
 11
29.22487113059644
 21
28.84898122640881
 31
0.0
  0
LINE
  5
F8
330
F2
100
AcDbEntity
  8
치수문자_일반주서
100
AcDbLine
 10
-40.77512886940357
 20
4.200000000000003
 30
0.0
 11
-40.77512886940357
 21
28.8489812264088
 31
0.0
  0
LINE
  5
F9
330
F2
100
AcDbEntity
  8
치수문자_일반주서
100
AcDbLine
 10
29.22487113059644
 20
27.84898122640881
 30
0.0
 11
-40.77512886940357
 21
27.8489812264088
 31
0.0
  0
MTEXT
  5
FA
330
F2
100
AcDbEntity
  8
치수문자_일반주서
100
AcDbMText
 10
-8.361240062926386
 20
32.3607181409877
 30
0.0
 40
3.5
 41
0.0
 71
     1
 72
     1
  1
70
  7
SLDTEXTSTYLE0
 73
     1
 44
1.0
  0
ENDBLK
  5
F4
330
F2
100
AcDbEntity
  8
0
100
AcDbBlockEnd
  0
BLOCK
  5
103
330
102
100
AcDbEntity
  8
0
100
AcDbBlockBegin
  2
SW_DOWELSYMBOL_0
 70
     0
 10
0.0
 20
0.0
 30
0.0
  3
SW_DOWELSYMBOL_0
  1

  0
CIRCLE
  5
105
330
102
100
AcDbEntity
  8
해칭선
 62
     0
100
AcDbCircle
 10
0.0
 20
0.0
 30
0.0
 40
3.000000000000001
  0
HATCH
  5
106
330
102
100
AcDbEntity
  8
0
  6
Continuous
 62
     0
370
     0
100
AcDbHatch
 10
0.0
 20
0.0
 30
0.0
210
0.0
220
0.0
230
1.0
  2
SOLID
 70
     1
 71
     0
 91
        1
 92
        0
 93
        3
 72
     2
 10
0.0
 20
0.0
 40
3.000000000000001
 50
0.0
 51
90.0
 73
     1
 72
     1
 10
0.0
 20
3.000000000000001
 11
0.0
 21
0.0
 72
     1
 10
0.0
 20
0.0
 11
3.000000000000003
 21
0.0
 97
        0
 75
     0
 76
     1
 98
        1
 10
0.0
 20
0.0
  0
HATCH
  5
107
330
102
100
AcDbEntity
  8
0
  6
Continuous
 62
     0
370
     0
100
AcDbHatch
 10
0.0
 20
0.0
 30
0.0
210
0.0
220
0.0
230
1.0
  2
SOLID
 70
     1
 71
     0
 91
        1
 92
        0
 93
        3
 72
     2
 10
0.0
 20
0.0
 40
3.000000000000001
 50
180.0
 51
270.0000000000008
 73
     1
 72
     1
 10
0.0
 20
-3.000000000000001
 11
0.0
 21
0.0
 72
     1
 10
0.0
 20
0.0
 11
-3.000000000000003
 21
0.0
 97
        0
 75
     0
 76
     1
 98
        1
 10
0.0
 20
0.0
  0
ENDBLK
  5
104
330
102
100
AcDbEntity
  8
0
100
AcDbBlockEnd
  0
BLOCK
  5
1AE
330
1AD
100
AcDbEntity
  8
0
100
AcDbBlockBegin
  2
*D8
 70
     1
 10
0.0
 20
0.0
 30
0.0
  3
*D8
  1

  0
LINE
  5
1AF
330
1AD
100
AcDbEntity
  8
치수문자_일반주서
 62
     0
370
    -2
100
AcDbLine
 10
115.7266575618118
 20
13.68921299541133
 30
0.0
 11
124.6631461391119
 21
-0.0000000000000071
 31
0.0
  0
MTEXT
  5
1B0
330
1AD
100
AcDbEntity
  8
치수문자_일반주서
 62
     0
100
AcDbMText
 10
125.4262940363909
 20
3.63302288554292
 30
0.0
 40
3.5
 41
0.0
 71
     5
 72
     1
  1
\A1;R1
  7
SLDTEXTSTYLE0
 11
0.546642854907417
 21
-0.8373658633946505
 31
0.0
 73
     1
 44
1.0
  0
SOLID
  5
1B1
330
1AD
100
AcDbEntity
  8
치수문자_일반주서
 62
     0
100
AcDbTrace
 10
116.1874879086333
 20
13.99004877989538
 30
0.0
 11
115.2658272149902
 21
13.38837721092728
 31
0.0
 12
113.9216428549075
 22
16.45419507634047
 32
0.0
 13
113.9216428549075
 23
16.45419507634047
 33
0.0
  0
LINE
  5
1B2
330
1AD
100
AcDbEntity
  8
치수문자_일반주서
 62
     0
100
AcDbLine
 10
113.2850000000001
 20
17.29156093973512
 30
0.0
 11
113.4650000000001
 21
17.29156093973512
 31
0.0
  0
LINE
  5
1B3
330
1AD
100
AcDbEntity
  8
치수문자_일반주서
 62
     0
100
AcDbLine
 10
113.3750000000001
 20
17.20156093973512
 30
0.0
 11
113.3750000000001
 21
17.38156093973512
 31
0.0
  0
POINT
  5
1B4
330
1AD
100
AcDbEntity
  8
Defpoints
 62
     0
100
AcDbPoint
 10
113.9216428549075
 20
16.45419507634047
 30
0.0
  0
POINT
  5
1B5
330
1AD
100
AcDbEntity
  8
Defpoints
 62
     0
100
AcDbPoint
 10
113.3750000000001
 20
17.29156093973512
 30
0.0
  0
ENDBLK
  5
1B6
330
1AD
100
AcDbEntity
  8
0
100
AcDbBlockEnd
  0
BLOCK
  5
1BC
330
1BB
100
AcDbEntity
  8
0
100
AcDbBlockBegin
  2
*D9
 70
     1
 10
0.0
 20
0.0
 30
0.0
  3
*D9
  1

  0
LINE
  5
1BE
330
1BB
100
AcDbEntity
  8
치수문자_일반주서
 62
     0
370
    -2
100
AcDbLine
 10
114.4375000000001
 20
24.34621053145353
 30
0.0
 11
124.375
 21
24.34621053145357
 31
0.0
  0
LINE
  5
1BF
330
1BB
100
AcDbEntity
  8
치수문자_일반주서
 62
     0
370
    -2
100
AcDbLine
 10
114.4375000000001
 20
16.34621053145353
 30
0.0
 11
124.3750000000001
 21
16.34621053145357
 31
0.0
  0
LINE
  5
1C0
330
1BB
100
AcDbEntity
  8
치수문자_일반주서
 62
     0
370
    -2
100
AcDbLine
 10
124.375
 20
24.34621053145357
 30
0.0
 11
124.375
 21
37.0752105314536
 31
0.0
  0
LINE
  5
1C1
330
1BB
100
AcDbEntity
  8
치수문자_일반주서
 62
     0
370
    -2
100
AcDbLine
 10
124.375
 20
24.34621053145357
 30
0.0
 11
124.3750000000001
 21
16.34621053145357
 31
0.0
  0
LINE
  5
1C2
330
1BB
100
AcDbEntity
  8
치수문자_일반주서
 62
     0
370
    -2
100
AcDbLine
 10
124.375
 20
27.64821053145357
 30
0.0
 11
124.375
 21
30.95021053145357
 31
0.0
  0
LINE
  5
1C3
330
1BB
100
AcDbEntity
  8
치수문자_일반주서
 62
     0
370
    -2
100
AcDbLine
 10
124.3750000000001
 20
13.04421053145357
 30
0.0
 11
124.3750000000001
 21
9.742210531453573
 31
0.0
  0
SOLID
  5
1C4
330
1BB
100
AcDbEntity
  8
치수문자_일반주서
 62
     0
100
AcDbTrace
 10
123.8246666666667
 20
27.64821053145357
 30
0.0
 11
124.9253333333334
 21
27.64821053145358
 31
0.0
 12
124.375
 22
24.34621053145357
 32
0.0
 13
124.375
 23
24.34621053145357
 33
0.0
  0
SOLID
  5
1C5
330
1BB
100
AcDbEntity
  8
치수문자_일반주서
 62
     0
100
AcDbTrace
 10
124.9253333333334
 20
13.04421053145357
 30
0.0
 11
123.8246666666668
 21
13.04421053145357
 31
0.0
 12
124.3750000000001
 22
16.34621053145357
 32
0.0
 13
124.3750000000001
 23
16.34621053145357
 33
0.0
  0
MTEXT
  5
1C6
330
1BB
100
AcDbEntity
  8
치수문자_일반주서
 62
     0
100
AcDbMText
 10
120.0
 20
34.01271053145359
 30
0.0
 40
3.5
 41
0.0
 71
     2
 72
     1
  1
\A1;%%c8
  7
SLDTEXTSTYLE0
 11
-3.552713678800501E-15
 21
1.0
 31
0.0
 73
     1
 44
1.0
  0
POINT
  5
1C7
330
1BB
100
AcDbEntity
  8
Defpoints
 62
     0
100
AcDbPoint
 10
114.3750000000001
 20
24.34621053145353
 30
0.0
  0
POINT
  5
1C8
330
1BB
100
AcDbEntity
  8
Defpoints
 62
     0
100
AcDbPoint
 10
114.3750000000001
 20
16.34621053145353
 30
0.0
  0
POINT
  5
1C9
330
1BB
100
AcDbEntity
  8
Defpoints
 62
     0
100
AcDbPoint
 10
124.3750000000001
 20
16.34621053145357
 30
0.0
  0
ENDBLK
  5
1BD
330
1BB
100
AcDbEntity
  8
0
100
AcDbBlockEnd
  0
BLOCK
  5
1CB
330
1CA
100
AcDbEntity
  8
0
100
AcDbBlockBegin
  2
*D10
 70
     1
 10
0.0
 20
0.0
 30
0.0
  3
*D10
  1

  0
LINE
  5
1CD
330
1CA
100
AcDbEntity
  8
치수문자_일반주서
 62
     0
370
    -2
100
AcDbLine
 10
15.11250000000005
 20
24.34621053145354
 30
0.0
 11
4.375000000000047
 21
24.3462105314535
 31
0.0
  0
LINE
  5
1CE
330
1CA
100
AcDbEntity
  8
치수문자_일반주서
 62
     0
370
    -2
100
AcDbLine
 10
15.11250000000005
 20
16.34621053145353
 30
0.0
 11
4.375000000000075
 21
16.34621053145349
 31
0.0
  0
LINE
  5
1CF
330
1CA
100
AcDbEntity
  8
치수문자_일반주서
 62
     0
370
    -2
100
AcDbLine
 10
4.375000000000047
 20
24.3462105314535
 30
0.0
 11
4.375000000000004
 21
37.0752105314535
 31
0.0
  0
LINE
  5
1D0
330
1CA
100
AcDbEntity
  8
치수문자_일반주서
 62
     0
370
    -2
100
AcDbLine
 10
4.375000000000047
 20
24.3462105314535
 30
0.0
 11
4.375000000000075
 21
16.34621053145349
 31
0.0
  0
LINE
  5
1D1
330
1CA
100
AcDbEntity
  8
치수문자_일반주서
 62
     0
370
    -2
100
AcDbLine
 10
4.375000000000036
 20
27.6482105314535
 30
0.0
 11
4.375000000000024
 21
30.9502105314535
 31
0.0
  0
LINE
  5
1D2
330
1CA
100
AcDbEntity
  8
치수문자_일반주서
 62
     0
370
    -2
100
AcDbLine
 10
4.375000000000086
 20
13.04421053145349
 30
0.0
 11
4.375000000000098
 21
9.742210531453495
 31
0.0
  0
SOLID
  5
1D3
330
1CA
100
AcDbEntity
  8
치수문자_일반주서
 62
     0
100
AcDbTrace
 10
3.824666666666702
 20
27.6482105314535
 30
0.0
 11
4.925333333333369
 21
27.6482105314535
 31
0.0
 12
4.375000000000047
 22
24.3462105314535
 32
0.0
 13
4.375000000000047
 23
24.3462105314535
 33
0.0
  0
SOLID
  5
1D4
330
1CA
100
AcDbEntity
  8
치수문자_일반주서
 62
     0
100
AcDbTrace
 10
4.92533333333342
 20
13.0442105314535
 30
0.0
 11
3.824666666666753
 21
13.04421053145349
 31
0.0
 12
4.375000000000075
 22
16.34621053145349
 32
0.0
 13
4.375000000000075
 23
16.34621053145349
 33
0.0
  0
MTEXT
  5
1D5
330
1CA
100
AcDbEntity
  8
치수문자_일반주서
 62
     0
100
AcDbMText
 10
0.0000000000000142
 20
34.01271053145349
 30
0.0
 40
3.5
 41
0.0
 71
     2
 72
     1
  1
\A1;%%c8
  7
SLDTEXTSTYLE0
 11
-3.441691376337982E-15
 21
1.0
 31
0.0
 73
     1
 44
1.0
  0
POINT
  5
1D6
330
1CA
100
AcDbEntity
  8
Defpoints
 62
     0
100
AcDbPoint
 10
15.17500000000005
 20
24.34621053145354
 30
0.0
  0
POINT
  5
1D7
330
1CA
100
AcDbEntity
  8
Defpoints
 62
     0
100
AcDbPoint
 10
15.17500000000005
 20
16.34621053145353
 30
0.0
  0
POINT
  5
1D8
330
1CA
100
AcDbEntity
  8
Defpoints
 62
     0
100
AcDbPoint
 10
4.375000000000071
 20
16.34621053145349
 30
0.0
  0
ENDBLK
  5
1CC
330
1CA
100
AcDbEntity
  8
0
100
AcDbBlockEnd
  0
BLOCK
  5
1DA
330
1D9
100
AcDbEntity
  8
0
100
AcDbBlockBegin
  2
*D11
 70
     1
 10
0.0
 20
0.0
 30
0.0
  3
*D11
  1

  0
LINE
  5
1DC
330
1D9
100
AcDbEntity
  8
치수문자_일반주서
 62
     0
370
    -2
100
AcDbLine
 10
114.3750000000001
 20
24.40871053145353
 30
0.0
 11
114.3750000000001
 21
34.34621053145354
 31
0.0
  0
LINE
  5
1DD
330
1D9
100
AcDbEntity
  8
치수문자_일반주서
 62
     0
370
    -2
100
AcDbLine
 10
94.37500000000007
 20
24.35165096700536
 30
0.0
 11
94.37500000000007
 21
34.34621053145354
 31
0.0
  0
LINE
  5
1DE
330
1D9
100
AcDbEntity
  8
치수문자_일반주서
 62
     0
370
    -2
100
AcDbLine
 10
111.0730000000001
 20
34.34621053145354
 30
0.0
 11
97.67700000000008
 21
34.34621053145354
 31
0.0
  0
SOLID
  5
1DF
330
1D9
100
AcDbEntity
  8
치수문자_일반주서
 62
     0
100
AcDbTrace
 10
111.0730000000001
 20
33.7958771981202
 30
0.0
 11
111.0730000000001
 21
34.89654386478687
 31
0.0
 12
114.3750000000001
 22
34.34621053145354
 32
0.0
 13
114.3750000000001
 23
34.34621053145354
 33
0.0
  0
SOLID
  5
1E0
330
1D9
100
AcDbEntity
  8
치수문자_일반주서
 62
     0
100
AcDbTrace
 10
97.67700000000008
 20
34.89654386478687
 30
0.0
 11
97.67700000000008
 21
33.7958771981202
 31
0.0
 12
94.37500000000007
 22
34.34621053145354
 32
0.0
 13
94.37500000000007
 23
34.34621053145354
 33
0.0
  0
MTEXT
  5
1E1
330
1D9
100
AcDbEntity
  8
치수문자_일반주서
 62
     0
100
AcDbMText
 10
104.3750000000001
 20
38.72121053145354
 30
0.0
 40
3.5
 41
0.0
 71
     2
 72
     1
  1
\A1;20
  7
SLDTEXTSTYLE0
 73
     1
 44
1.0
  0
POINT
  5
1E2
330
1D9
100
AcDbEntity
  8
Defpoints
 62
     0
100
AcDbPoint
 10
114.3750000000001
 20
24.34621053145353
 30
0.0
  0
POINT
  5
1E3
330
1D9
100
AcDbEntity
  8
Defpoints
 62
     0
100
AcDbPoint
 10
94.37500000000007
 20
24.28915096700536
 30
0.0
  0
POINT
  5
1E4
330
1D9
100
AcDbEntity
  8
Defpoints
 62
     0
100
AcDbPoint
 10
94.37500000000007
 20
34.34621053145354
 30
0.0
  0
ENDBLK
  5
1DB
330
1D9
100
AcDbEntity
  8
0
100
AcDbBlockEnd
  0
BLOCK
  5
1E6
330
1E5
100
AcDbEntity
  8
0
100
AcDbBlockBegin
  2
*D12
 70
     1
 10
0.0
 20
0.0
 30
0.0
  3
*D12
  1

  0
LINE
  5
1E8
330
1E5
100
AcDbEntity
  8
치수문자_일반주서
 62
     0
370
    -2
100
AcDbLine
 10
114.3750000000001
 20
24.40871053145353
 30
0.0
 11
114.3750000000001
 21
44.34621053145354
 31
0.0
  0
LINE
  5
1E9
330
1E5
100
AcDbEntity
  8
치수문자_일반주서
 62
     0
370
    -2
100
AcDbLine
 10
14.37500000000004
 20
23.60871053145354
 30
0.0
 11
14.37500000000004
 21
44.34621053145354
 31
0.0
  0
LINE
  5
1EA
330
1E5
100
AcDbEntity
  8
치수문자_일반주서
 62
     0
370
    -2
100
AcDbLine
 10
111.0730000000001
 20
44.34621053145354
 30
0.0
 11
17.67700000000004
 21
44.34621053145354
 31
0.0
  0
SOLID
  5
1EB
330
1E5
100
AcDbEntity
  8
치수문자_일반주서
 62
     0
100
AcDbTrace
 10
111.0730000000001
 20
43.7958771981202
 30
0.0
 11
111.0730000000001
 21
44.89654386478687
 31
0.0
 12
114.3750000000001
 22
44.34621053145354
 32
0.0
 13
114.3750000000001
 23
44.34621053145354
 33
0.0
  0
SOLID
  5
1EC
330
1E5
100
AcDbEntity
  8
치수문자_일반주서
 62
     0
100
AcDbTrace
 10
17.67700000000004
 20
44.89654386478687
 30
0.0
 11
17.67700000000004
 21
43.7958771981202
 31
0.0
 12
14.37500000000004
 22
44.34621053145354
 32
0.0
 13
14.37500000000004
 23
44.34621053145354
 33
0.0
  0
MTEXT
  5
1ED
330
1E5
100
AcDbEntity
  8
치수문자_일반주서
 62
     0
100
AcDbMText
 10
64.37500000000004
 20
48.72121053145354
 30
0.0
 40
3.5
 41
0.0
 71
     2
 72
     1
  1
\A1;100
  7
SLDTEXTSTYLE0
 73
     1
 44
1.0
  0
POINT
  5
1EE
330
1E5
100
AcDbEntity
  8
Defpoints
 62
     0
100
AcDbPoint
 10
114.3750000000001
 20
24.34621053145353
 30
0.0
  0
POINT
  5
1EF
330
1E5
100
AcDbEntity
  8
Defpoints
 62
     0
100
AcDbPoint
 10
14.37500000000004
 20
23.54621053145354
 30
0.0
  0
POINT
  5
1F0
330
1E5
100
AcDbEntity
  8
Defpoints
 62
     0
100
AcDbPoint
 10
14.37500000000004
 20
44.34621053145354
 30
0.0
  0
ENDBLK
  5
1E7
330
1E5
100
AcDbEntity
  8
0
100
AcDbBlockEnd
  0
BLOCK
  5
223
330
222
100
AcDbEntity
  8
0
100
AcDbBlockBegin
  2
*D13
 70
     1
 10
0.0
 20
0.0
 30
0.0
  3
*D13
  1

  0
LINE
  5
225
330
222
100
AcDbEntity
  8
치수문자_일반주서
 62
     0
370
    -2
100
AcDbLine
 10
30.0625
 20
3.972811654528126
 30
0.0
 11
39.99999999999998
 21
3.972811654528163
 31
0.0
  0
LINE
  5
226
330
222
100
AcDbEntity
  8
치수문자_일반주서
 62
     0
370
    -2
100
AcDbLine
 10
30.0625
 20
-4.02718834547187
 30
0.0
 11
40.00000000000001
 21
-4.027188345471835
 31
0.0
  0
LINE
  5
227
330
222
100
AcDbEntity
  8
치수문자_일반주서
 62
     0
370
    -2
100
AcDbLine
 10
39.99999999999998
 20
3.972811654528163
 30
0.0
 11
39.99999999999993
 21
16.70181165452819
 31
0.0
  0
LINE
  5
228
330
222
100
AcDbEntity
  8
치수문자_일반주서
 62
     0
370
    -2
100
AcDbLine
 10
39.99999999999998
 20
3.972811654528163
 30
0.0
 11
40.00000000000001
 21
-4.027188345471835
 31
0.0
  0
LINE
  5
229
330
222
100
AcDbEntity
  8
치수문자_일반주서
 62
     0
370
    -2
100
AcDbLine
 10
39.99999999999996
 20
7.274811654528163
 30
0.0
 11
39.99999999999995
 21
10.57681165452816
 31
0.0
  0
LINE
  5
22A
330
222
100
AcDbEntity
  8
치수문자_일반주서
 62
     0
370
    -2
100
AcDbLine
 10
40.00000000000002
 20
-7.329188345471835
 30
0.0
 11
40.00000000000004
 21
-10.63118834547183
 31
0.0
  0
SOLID
  5
22B
330
222
100
AcDbEntity
  8
치수문자_일반주서
 62
     0
100
AcDbTrace
 10
39.44966666666663
 20
7.274811654528161
 30
0.0
 11
40.5503333333333
 21
7.274811654528165
 31
0.0
 12
39.99999999999998
 22
3.972811654528163
 32
0.0
 13
39.99999999999998
 23
3.972811654528163
 33
0.0
  0
SOLID
  5
22C
330
222
100
AcDbEntity
  8
치수문자_일반주서
 62
     0
100
AcDbTrace
 10
40.55033333333336
 20
-7.329188345471833
 30
0.0
 11
39.44966666666669
 21
-7.329188345471836
 31
0.0
 12
40.00000000000001
 22
-4.027188345471835
 32
0.0
 13
40.00000000000001
 23
-4.027188345471835
 33
0.0
  0
MTEXT
  5
22D
330
222
100
AcDbEntity
  8
치수문자_일반주서
 62
     0
100
AcDbMText
 10
35.62499999999994
 20
13.63931165452818
 30
0.0
 40
3.5
 41
0.0
 71
     2
 72
     1
  1
\A1;%%c8
  7
SLDTEXTSTYLE0
 11
-3.552713678800503E-15
 21
1.0
 31
0.0
 73
     1
 44
1.0
  0
POINT
  5
22E
330
222
100
AcDbEntity
  8
Defpoints
 62
     0
100
AcDbPoint
 10
30.0
 20
3.972811654528126
 30
0.0
  0
POINT
  5
22F
330
222
100
AcDbEntity
  8
Defpoints
 62
     0
100
AcDbPoint
 10
30.0
 20
-4.02718834547187
 30
0.0
  0
POINT
  5
230
330
222
100
AcDbEntity
  8
Defpoints
 62
     0
100
AcDbPoint
 10
40.0
 20
-4.027188345471833
 30
0.0
  0
ENDBLK
  5
224
330
222
100
AcDbEntity
  8
0
100
AcDbBlockEnd
  0
BLOCK
  5
232
330
231
100
AcDbEntity
  8
0
100
AcDbBlockBegin
  2
*D14
 70
     1
 10
0.0
 20
0.0
 30
0.0
  3
*D14
  1

  0
LINE
  5
234
330
231
100
AcDbEntity
  8
치수문자_일반주서
 62
     0
370
    -2
100
AcDbLine
 10
-39.2
 20
3.97281165452813
 30
0.0
 11
-49.93750000000001
 21
3.972811654528089
 31
0.0
  0
LINE
  5
235
330
231
100
AcDbEntity
  8
치수문자_일반주서
 62
     0
370
    -2
100
AcDbLine
 10
-39.2
 20
-4.027188345471874
 30
0.0
 11
-49.93749999999998
 21
-4.027188345471913
 31
0.0
  0
LINE
  5
236
330
231
100
AcDbEntity
  8
치수문자_일반주서
 62
     0
370
    -2
100
AcDbLine
 10
-49.93750000000001
 20
3.972811654528089
 30
0.0
 11
-49.93750000000006
 21
16.70181165452809
 31
0.0
  0
LINE
  5
237
330
231
100
AcDbEntity
  8
치수문자_일반주서
 62
     0
370
    -2
100
AcDbLine
 10
-49.93750000000001
 20
3.972811654528089
 30
0.0
 11
-49.93749999999998
 21
-4.027188345471913
 31
0.0
  0
LINE
  5
238
330
231
100
AcDbEntity
  8
치수문자_일반주서
 62
     0
370
    -2
100
AcDbLine
 10
-49.93750000000002
 20
7.274811654528088
 30
0.0
 11
-49.93750000000004
 21
10.57681165452809
 31
0.0
  0
LINE
  5
239
330
231
100
AcDbEntity
  8
치수문자_일반주서
 62
     0
370
    -2
100
AcDbLine
 10
-49.93749999999996
 20
-7.329188345471913
 30
0.0
 11
-49.93749999999995
 21
-10.63118834547191
 31
0.0
  0
SOLID
  5
23A
330
231
100
AcDbEntity
  8
치수문자_일반주서
 62
     0
100
AcDbTrace
 10
-50.48783333333336
 20
7.274811654528087
 30
0.0
 11
-49.38716666666669
 21
7.27481165452809
 31
0.0
 12
-49.93750000000001
 22
3.972811654528089
 32
0.0
 13
-49.93750000000001
 23
3.972811654528089
 33
0.0
  0
SOLID
  5
23B
330
231
100
AcDbEntity
  8
치수문자_일반주서
 62
     0
100
AcDbTrace
 10
-49.38716666666663
 20
-7.329188345471911
 30
0.0
 11
-50.4878333333333
 21
-7.329188345471914
 31
0.0
 12
-49.93749999999998
 22
-4.027188345471913
 32
0.0
 13
-49.93749999999998
 23
-4.027188345471913
 33
0.0
  0
MTEXT
  5
23C
330
231
100
AcDbEntity
  8
치수문자_일반주서
 62
     0
100
AcDbMText
 10
-54.31250000000004
 20
13.63931165452808
 30
0.0
 40
3.5
 41
0.0
 71
     2
 72
     1
  1
\A1;%%c8
  7
SLDTEXTSTYLE0
 11
-3.552713678800499E-15
 21
1.0
 31
0.0
 73
     1
 44
1.0
  0
POINT
  5
23D
330
231
100
AcDbEntity
  8
Defpoints
 62
     0
100
AcDbPoint
 10
-39.1375
 20
3.97281165452813
 30
0.0
  0
POINT
  5
23E
330
231
100
AcDbEntity
  8
Defpoints
 62
     0
100
AcDbPoint
 10
-39.1375
 20
-4.027188345471874
 30
0.0
  0
POINT
  5
23F
330
231
100
AcDbEntity
  8
Defpoints
 62
     0
100
AcDbPoint
 10
-49.93749999999999
 20
-4.027188345471914
 30
0.0
  0
ENDBLK
  5
233
330
231
100
AcDbEntity
  8
0
100
AcDbBlockEnd
  0
BLOCK
  5
241
330
240
100
AcDbEntity
  8
0
100
AcDbBlockBegin
  2
*D15
 70
     1
 10
0.0
 20
0.0
 30
0.0
  3
*D15
  1

  0
LINE
  5
243
330
240
100
AcDbEntity
  8
치수문자_일반주서
 62
     0
370
    -2
100
AcDbLine
 10
30.0
 20
4.035311654528126
 30
0.0
 11
30.0
 21
13.97281165452813
 31
0.0
  0
LINE
  5
244
330
240
100
AcDbEntity
  8
치수문자_일반주서
 62
     0
370
    -2
100
AcDbLine
 10
10.0
 20
3.978252090079955
 30
0.0
 11
10.0
 21
13.97281165452813
 31
0.0
  0
LINE
  5
245
330
240
100
AcDbEntity
  8
치수문자_일반주서
 62
     0
370
    -2
100
AcDbLine
 10
26.698
 20
13.97281165452813
 30
0.0
 11
13.302
 21
13.97281165452813
 31
0.0
  0
SOLID
  5
246
330
240
100
AcDbEntity
  8
치수문자_일반주서
 62
     0
100
AcDbTrace
 10
26.698
 20
13.4224783211948
 30
0.0
 11
26.698
 21
14.52314498786146
 31
0.0
 12
30.0
 22
13.97281165452813
 32
0.0
 13
30.0
 23
13.97281165452813
 33
0.0
  0
SOLID
  5
247
330
240
100
AcDbEntity
  8
치수문자_일반주서
 62
     0
100
AcDbTrace
 10
13.302
 20
14.52314498786146
 30
0.0
 11
13.302
 21
13.4224783211948
 31
0.0
 12
10.0
 22
13.97281165452813
 32
0.0
 13
10.0
 23
13.97281165452813
 33
0.0
  0
MTEXT
  5
248
330
240
100
AcDbEntity
  8
치수문자_일반주서
 62
     0
100
AcDbMText
 10
20.0
 20
18.34781165452813
 30
0.0
 40
3.5
 41
0.0
 71
     2
 72
     1
  1
\A1;20
  7
SLDTEXTSTYLE0
 73
     1
 44
1.0
  0
POINT
  5
249
330
240
100
AcDbEntity
  8
Defpoints
 62
     0
100
AcDbPoint
 10
30.0
 20
3.972811654528126
 30
0.0
  0
POINT
  5
24A
330
240
100
AcDbEntity
  8
Defpoints
 62
     0
100
AcDbPoint
 10
10.0
 20
3.915752090079955
 30
0.0
  0
POINT
  5
24B
330
240
100
AcDbEntity
  8
Defpoints
 62
     0
100
AcDbPoint
 10
10.0
 20
13.97281165452813
 30
0.0
  0
ENDBLK
  5
242
330
240
100
AcDbEntity
  8
0
100
AcDbBlockEnd
  0
BLOCK
  5
24D
330
24C
100
AcDbEntity
  8
0
100
AcDbBlockBegin
  2
*D16
 70
     1
 10
0.0
 20
0.0
 30
0.0
  3
*D16
  1

  0
LINE
  5
24F
330
24C
100
AcDbEntity
  8
치수문자_일반주서
 62
     0
370
    -2
100
AcDbLine
 10
30.0
 20
3.089961246246538
 30
0.0
 11
30.0
 21
23.91031165452813
 31
0.0
  0
LINE
  5
250
330
24C
100
AcDbEntity
  8
치수문자_일반주서
 62
     0
370
    -2
100
AcDbLine
 10
-40.00000000000001
 20
3.235311654528132
 30
0.0
 11
-40.00000000000001
 21
23.91031165452813
 31
0.0
  0
LINE
  5
251
330
24C
100
AcDbEntity
  8
치수문자_일반주서
 62
     0
370
    -2
100
AcDbLine
 10
26.698
 20
23.91031165452813
 30
0.0
 11
-36.69800000000001
 21
23.91031165452813
 31
0.0
  0
SOLID
  5
252
330
24C
100
AcDbEntity
  8
치수문자_일반주서
 62
     0
100
AcDbTrace
 10
26.698
 20
23.3599783211948
 30
0.0
 11
26.698
 21
24.46064498786146
 31
0.0
 12
30.0
 22
23.91031165452813
 32
0.0
 13
30.0
 23
23.91031165452813
 33
0.0
  0
SOLID
  5
253
330
24C
100
AcDbEntity
  8
치수문자_일반주서
 62
     0
100
AcDbTrace
 10
-36.69800000000001
 20
24.46064498786146
 30
0.0
 11
-36.69800000000001
 21
23.3599783211948
 31
0.0
 12
-40.00000000000001
 22
23.91031165452813
 32
0.0
 13
-40.00000000000001
 23
23.91031165452813
 33
0.0
  0
MTEXT
  5
254
330
24C
100
AcDbEntity
  8
치수문자_일반주서
 62
     0
100
AcDbMText
 10
-5.000000000000007
 20
28.28531165452813
 30
0.0
 40
3.5
 41
0.0
 71
     2
 72
     1
  1
\A1;70
  7
SLDTEXTSTYLE0
 73
     1
 44
1.0
  0
POINT
  5
255
330
24C
100
AcDbEntity
  8
Defpoints
 62
     0
100
AcDbPoint
 10
30.0
 20
3.027461246246538
 30
0.0
  0
POINT
  5
256
330
24C
100
AcDbEntity
  8
Defpoints
 62
     0
100
AcDbPoint
 10
-40.00000000000001
 20
3.110311654528132
 30
0.0
  0
POINT
  5
257
330
24C
100
AcDbEntity
  8
Defpoints
 62
     0
100
AcDbPoint
 10
-40.00000000000001
 20
23.91031165452813
 30
0.0
  0
ENDBLK
  5
24E
330
24C
100
AcDbEntity
  8
0
100
AcDbBlockEnd
  0
BLOCK
  5
259
330
258
100
AcDbEntity
  8
0
100
AcDbBlockBegin
  2
*D17
 70
     1
 10
0.0
 20
0.0
 30
0.0
  3
*D17
  1

  0
LINE
  5
25B
330
258
100
AcDbEntity
  8
치수문자_일반주서
 62
     0
370
    -2
100
AcDbLine
 10
31.35165756181171
 20
-6.684185881514074
 30
0.0
 11
40.28814613911186
 21
-20.37339887692541
 31
0.0
  0
MTEXT
  5
25C
330
258
100
AcDbEntity
  8
치수문자_일반주서
 62
     0
100
AcDbMText
 10
41.05129403639084
 20
-16.74037599138248
 30
0.0
 40
3.5
 41
0.0
 71
     5
 72
     1
  1
\A1;R1
  7
SLDTEXTSTYLE0
 11
0.546642854907417
 21
-0.8373658633946505
 31
0.0
 73
     1
 44
1.0
  0
SOLID
  5
25D
330
258
100
AcDbEntity
  8
치수문자_일반주서
 62
     0
100
AcDbTrace
 10
31.81248790863323
 20
-6.383350097030025
 30
0.0
 11
30.89082721499019
 21
-6.985021665998122
 31
0.0
 12
29.54664285490742
 22
-3.919203800584938
 32
0.0
 13
29.54664285490742
 23
-3.919203800584938
 33
0.0
  0
LINE
  5
25E
330
258
100
AcDbEntity
  8
치수문자_일반주서
 62
     0
100
AcDbLine
 10
28.91
 20
-3.081837937190286
 30
0.0
 11
29.09
 21
-3.081837937190286
 31
0.0
  0
LINE
  5
25F
330
258
100
AcDbEntity
  8
치수문자_일반주서
 62
     0
100
AcDbLine
 10
29.0
 20
-3.171837937190286
 30
0.0
 11
29.0
 21
-2.991837937190287
 31
0.0
  0
POINT
  5
260
330
258
100
AcDbEntity
  8
Defpoints
 62
     0
100
AcDbPoint
 10
29.54664285490742
 20
-3.919203800584938
 30
0.0
  0
POINT
  5
261
330
258
100
AcDbEntity
  8
Defpoints
 62
     0
100
AcDbPoint
 10
29.0
 20
-3.081837937190286
 30
0.0
  0
ENDBLK
  5
25A
330
258
100
AcDbEntity
  8
0
100
AcDbBlockEnd
  0
ENDSEC
  0
SECTION
  2
ENTITIES
  0
LINE
  5
C1
330
1F
100
AcDbEntity
  8
참조1
100
AcDbLine
 10
-15.77564223695981
 20
-2.499999999999974
 30
0.0
 11
-15.7756422369598
 21
-40.0
 31
0.0
  0
LINE
  5
C2
330
1F
100
AcDbEntity
  8
참조1
100
AcDbLine
 10
-15.7756422369598
 20
-40.0
 30
0.0
 11
-30.93398568371225
 21
-40.0
 31
0.0
  0
INSERT
  5
C4
330
1F
100
AcDbEntity
  8
0
  6
Continuous
 62
     7
100
AcDbBlockReference
 66
     1
  2
블럭10
 10
-29.71591516908501
 20
-52.04717430164393
 30
0.0
  0
ATTRIB
  5
C5
330
C4
100
AcDbEntity
  8
FORMAT
 62
     2
100
AcDbText
 10
-50.57416270067755
 20
-49.97180738881174
 30
0.0
 40
4.233333333333333
  1
SEME0108010070E [ 4 FLUTE ]
 41
0.75
  7
SLDTEXTSTYLE0
 11
-50.57416270067755
 21
-52.08847405547841
 31
0.0
100
AcDbAttribute
  2
AUTOATTR0
 70
     0
 74
     1
  0
SEQEND
  5
C6
330
C4
100
AcDbEntity
  8
0
  6
Continuous
 62
     7
  0
HATCH
  5
C7
330
1F
100
AcDbEntity
  8
중심선
100
AcDbHatch
 10
0.0
 20
0.0
 30
0.0
210
0.0
220
0.0
230
1.0
  2
SOLID
 70
     1
 71
     0
 91
        1
 92
        0
 93
        4
 72
     1
 10
-24.00100586470416
 20
-35.8
 11
-27.44728110854144
 21
-35.8
 72
     1
 10
-27.44728110854144
 20
-35.8
 11
-29.57551096774547
 21
-38.33632558057259
 72
     1
 10
-29.57551096774547
 20
-38.33632558057259
 11
-26.12920263879504
 21
-38.3362861512701
 72
     1
 10
-26.12920263879504
 20
-38.3362861512701
 11
-24.00100586470416
 21
-35.8
 97
        0
 75
     0
 76
     1
 98
        1
 10
0.0
 20
0.0
  0
HATCH
  5
C8
330
1F
100
AcDbEntity
  8
중심선
100
AcDbHatch
 10
0.0
 20
0.0
 30
0.0
210
0.0
220
0.0
230
1.0
  2
SOLID
 70
     1
 71
     0
 91
        1
 92
        0
 93
        4
 72
     1
 10
-18.98824187366821
 20
-35.8
 11
-22.43451711750549
 21
-35.8
 72
     1
 10
-22.43451711750549
 20
-35.8
 11
-26.96565512586288
 21
-41.20000000000002
 72
     1
 10
-26.96565512586288
 20
-41.20000000000002
 11
-23.5193798820256
 21
-41.20000000000002
 72
     1
 10
-23.5193798820256
 20
-41.20000000000002
 11
-18.98824187366821
 21
-35.8
 97
        0
 75
     0
 76
     1
 98
        1
 10
0.0
 20
0.0
  0
HATCH
  5
C9
330
1F
100
AcDbEntity
  8
중심선
100
AcDbHatch
 10
0.0
 20
0.0
 30
0.0
210
0.0
220
0.0
230
1.0
  2
SOLID
 70
     1
 71
     0
 91
        1
 92
        0
 93
        4
 72
     1
 10
-13.97547788263232
 20
-35.80000000000003
 11
-17.42175312646943
 21
-35.8
 72
     1
 10
-17.42175312646943
 20
-35.8
 11
-24.47019002835868
 21
-44.20000000000002
 72
     1
 10
-24.47019002835868
 20
-44.20000000000002
 11
-21.0239147845214
 21
-44.20000000000002
 72
     1
 10
-21.0239147845214
 20
-44.20000000000002
 11
-13.97547788263232
 21
-35.80000000000003
 97
        0
 75
     0
 76
     1
 98
        1
 10
0.0
 20
0.0
  0
HATCH
  5
CA
330
1F
100
AcDbEntity
  8
중심선
100
AcDbHatch
 10
0.0
 20
0.0
 30
0.0
210
0.0
220
0.0
230
1.0
  2
SOLID
 70
     1
 71
     0
 91
        1
 92
        0
 93
        6
 72
     3
 10
-9.175587451620116
 20
-40.00000000005127
 11
3.960054785062284
 21
1.540850780301639E-10
 40
0.3939339440162633
 50
17.09539180608433
 51
320.0019657685079
 73
     0
 72
     1
 10
-7.49258779591952
 20
-38.5878940046383
 11
-5.187285922218482
 21
-36.65356729459038
 72
     3
 10
-9.175587451672962
 20
-40.00000000000015
 11
6.600054785286829
 21
-1.249000902703301E-13
 40
0.6363583540795982
 50
39.99873849337408
 51
368.4976242363725
 73
     1
 72
     1
 10
-2.750254959772352
 20
-39.03999999993002
 11
-10.49552014483704
 21
-39.03999999992999
 72
     1
 10
-10.49552014483704
 20
-39.03999999992999
 11
-10.49554518928297
 21
-40.95999999992991
 72
     1
 10
-10.49554518928297
 20
-40.95999999992991
 11
-6.054165419810936
 21
-40.95999999992988
 97
        0
 75
     0
 76
     1
 98
        1
 10
0.0
 20
0.0
  0
LINE
  5
FB
330
1F
100
AcDbEntity
  8
참조1
100
AcDbLine
 10
67.03835494594202
 20
7.440000000000002
 30
0.0
 11
67.03835494594202
 21
-7.440000000000002
 31
0.0
  0
LINE
  5
FC
330
1F
100
AcDbEntity
  8
참조1
100
AcDbLine
 10
79.73835494594202
 20
5.440000000000002
 30
0.0
 11
67.03835494594202
 21
5.440000000000002
 31
0.0
  0
SOLID
  5
FD
330
1F
100
AcDbEntity
  8
참조1
100
AcDbTrace
 10
67.03835494594202
 20
5.440000000000002
 30
0.0
 11
73.38835494594201
 21
4.424000000000002
 31
0.0
 12
73.38835494594201
 22
6.456000000000002
 32
0.0
 13
73.38835494594201
 23
6.456000000000002
 33
0.0
  0
LINE
  5
FE
330
1F
100
AcDbEntity
  8
참조1
100
AcDbLine
 10
79.73835494594202
 20
-5.440000000000002
 30
0.0
 11
67.03835494594202
 21
-5.440000000000002
 31
0.0
  0
SOLID
  5
FF
330
1F
100
AcDbEntity
  8
참조1
100
AcDbTrace
 10
67.03835494594202
 20
-5.440000000000002
 30
0.0
 11
73.38835494594201
 21
-6.456000000000002
 31
0.0
 12
73.38835494594201
 22
-4.424000000000002
 32
0.0
 13
73.38835494594201
 23
-4.424000000000002
 33
0.0
  0
MTEXT
  5
100
330
1F
100
AcDbEntity
  8
참조1
100
AcDbMText
 10
76.4358450384123
 20
10.98821664464994
 30
0.0
 40
3.5
 41
0.0
 71
     1
 72
     1
  1
A
  7
SLDTEXTSTYLE0
 73
     1
 44
1.0
  0
MTEXT
  5
101
330
1F
100
AcDbEntity
  8
참조1
100
AcDbMText
 10
76.4358450384123
 20
0.1082166446499328
 30
0.0
 40
3.5
 41
0.0
 71
     1
 72
     1
  1
A
  7
SLDTEXTSTYLE0
 73
     1
 44
1.0
  0
LINE
  5
1F2
330
1F
100
AcDbEntity
  8
0
  6
Continuous
 62
     1
370
    15
100
AcDbLine
 10
19.71226054857601
 20
-4.02718834547187
 30
0.0
 11
22.15066824225201
 21
-4.02718834547187
 31
0.0
1001
PE_URL
1000

  0
LINE
  5
1F3
330
1F
100
AcDbEntity
  8
0
  6
Continuous
 62
     1
370
    15
100
AcDbLine
 10
11.26838811492016
 20
3.972811654528133
 30
0.0
 11
10.0
 21
3.972811654528133
 31
0.0
1001
PE_URL
1000

  0
LINE
  5
1F4
330
1F
100
AcDbEntity
  8
0
  6
Continuous
 62
     1
370
    15
100
AcDbLine
 10
22.15066824225201
 20
3.972811654528133
 30
0.0
 11
19.71226054857604
 21
3.972811654528133
 31
0.0
1001
PE_URL
1000

  0
LINE
  5
1F5
330
1F
100
AcDbEntity
  8
0
  6
Continuous
 62
     1
370
    15
100
AcDbLine
 10
10.0
 20
-4.02718834547187
 30
0.0
 11
11.26838811492013
 21
-4.02718834547187
 31
0.0
1001
PE_URL
1000

  0
LINE
  5
1F6
102
{ACAD_REACTORS
330
264
330
266
102
}
330
1F
100
AcDbEntity
  8
외형선
  6
Continuous
370
    15
100
AcDbLine
 10
-39.2
 20
3.97281165452813
 30
0.0
 11
-40.00000000000001
 21
3.172811654528132
 31
0.0
  0
LINE
  5
1F7
330
1F
100
AcDbEntity
  8
외형선
  6
Continuous
370
    15
100
AcDbLine
 10
-40.00000000000001
 20
-3.227188345471873
 30
0.0
 11
-39.2
 21
-4.02718834547187
 31
0.0
  0
LINE
  5
1F8
330
1F
100
AcDbEntity
  8
외형선
  6
Continuous
370
    15
100
AcDbLine
 10
-39.2
 20
-4.02718834547187
 30
0.0
 11
10.0
 21
-4.02718834547187
 31
0.0
  0
LINE
  5
1F9
330
1F
100
AcDbEntity
  8
외형선
  6
Continuous
370
    15
100
AcDbLine
 10
10.0
 20
3.97281165452813
 30
0.0
 11
-39.2
 21
3.97281165452813
 31
0.0
  0
LINE
  5
1FA
330
1F
100
AcDbEntity
  8
0
  6
Continuous
 62
     1
370
    15
100
AcDbLine
 10
30.0
 20
-2.782743801661368
 30
0.0
 11
30.0
 21
0.323367110717669
 31
0.0
1001
PE_URL
1000

  0
SPLINE
  5
1FB
330
1F
100
AcDbEntity
  8
0
  6
Continuous
 62
     1
370
    15
100
AcDbSpline
210
0.0
220
0.0
230
1.0
 70
     8
 71
     3
 72
    18
 73
    14
 74
     0
 42
0.000000001
 43
0.00000001
 40
0.0
 40
0.0
 40
0.0
 40
0.0
 40
0.2500000000000001
 40
0.2500000000000001
 40
0.5000000000000002
 40
0.5000000000000002
 40
0.6250000000000001
 40
0.6250000000000001
 40
0.7500000000000001
 40
0.7500000000000001
 40
0.875
 40
0.875
 40
1.0
 40
1.0
 40
1.0
 40
1.0
 10
29.0
 20
-3.368439602289598
 30
0.0
 10
29.12652103035103
 20
-3.408512356130998
 30
0.0
 10
29.24628752562185
 20
-3.429618170227215
 30
0.0
 10
29.4759950304869
 20
-3.430692935934673
 30
0.0
 10
29.58074685711986
 20
-3.410638154360555
 30
0.0
 10
29.72251189624996
 20
-3.341604139323259
 30
0.0
 10
29.76587287503409
 20
-3.312566010280705
 30
0.0
 10
29.84457031469179
 20
-3.240515327093988
 30
0.0
 10
29.87999704451215
 20
-3.196999651936366
 30
0.0
 10
29.9379183101787
 20
-3.097877556085585
 30
0.0
 10
29.96120332355386
 20
-3.040746670374311
 30
0.0
 10
29.99209271845851
 20
-2.917848833139089
 30
0.0
 10
30.0
 20
-2.852330632726421
 30
0.0
 10
29.99999999999997
 20
-2.782743801661368
 30
0.0
1001
PE_URL
1000

  0
SPLINE
  5
1FC
330
1F
100
AcDbEntity
  8
0
  6
Continuous
 62
     1
370
    15
100
AcDbSpline
210
0.0
220
0.0
230
1.0
 70
     8
 71
     3
 72
    19
 73
    15
 74
     0
 42
0.000000001
 43
0.00000001
 40
0.0
 40
0.0
 40
0.0
 40
0.0
 40
0.0142438189222871
 40
0.0999989797911399
 40
0.1857324630067545
 40
0.2714496134101095
 40
0.3571558142723342
 40
0.4428564746858106
 40
0.5285570168260457
 40
0.6228456110826449
 40
0.7171342065109472
 40
0.811422803128346
 40
0.9057114009522343
 40
1.0
 40
1.0
 40
1.0
 40
1.0
 10
11.26838811492016
 20
3.959505342427615
 30
0.0
 10
11.35258233457674
 20
3.963728171551946
 30
0.0
 10
11.94366932577648
 20
3.993374617253714
 30
0.0
 10
13.04146989518821
 20
3.862625174543588
 30
0.0
 10
14.56165435947747
 20
3.560996450455313
 30
0.0
 10
16.08149168974282
 20
3.069701624395663
 30
0.0
 10
17.60108914798712
 20
2.43471058573207
 30
0.0
 10
19.12059675311917
 20
1.680485369831885
 30
0.0
 10
20.69071760945511
 20
0.8167684211269375
 30
0.0
 10
22.31204934978535
 20
-0.1214128952309039
 30
0.0
 10
23.98401440234062
 20
-1.08452214761887
 30
0.0
 10
25.65601512234912
 20
-1.982619767430108
 30
0.0
 10
27.32800636316324
 20
-2.781287312211049
 30
0.0
 10
28.44266878530991
 20
-3.17272217141668
 30
0.0
 10
29.00000000000034
 20
-3.368439602289705
 30
0.0
1001
PE_URL
1000

  0
SPLINE
  5
1FD
330
1F
100
AcDbEntity
  8
0
  6
Continuous
 62
     1
370
    15
100
AcDbSpline
210
0.0
220
0.0
230
1.0
 70
     8
 71
     3
 72
    16
 73
    12
 74
     0
 42
0.000000001
 43
0.00000001
 40
0.0
 40
0.0
 40
0.0
 40
0.0
 40
0.1124881566496305
 40
0.2249759434149434
 40
0.3374704778777493
 40
0.4499788616849197
 40
0.5625081638195141
 40
0.6750654040353932
 40
0.7876471367950035
 40
0.9114086376222408
 40
1.0
 40
1.0
 40
1.0
 40
1.0
 10
29.00000000000031
 20
0.884990831259131
 30
0.0
 10
28.493513477216
 20
1.165527987727899
 30
0.0
 10
27.48054209707976
 20
1.726601378201252
 30
0.0
 10
25.96106189259532
 20
2.472469873983698
 30
0.0
 10
24.44147095255843
 20
3.10164683667724
 30
0.0
 10
22.92165585934555
 20
3.580139023269425
 30
0.0
 10
21.40150242198087
 20
3.885525917878645
 30
0.0
 10
19.88094098080921
 20
4.004815795517661
 30
0.0
 10
18.30971145617082
 20
3.922302133843353
 30
0.0
 10
16.84643247242366
 20
3.676041116828536
 30
0.0
 10
15.89013920333312
 20
3.363832314260378
 30
0.0
 10
15.4911837936308
 20
3.233582113022724
 30
0.0
1001
PE_URL
1000

  0
SPLINE
  5
1FE
330
1F
100
AcDbEntity
  8
0
  6
Continuous
 62
     1
370
    15
100
AcDbSpline
210
0.0
220
0.0
230
1.0
 70
     8
 71
     3
 72
    14
 73
    10
 74
     0
 42
0.000000001
 43
0.00000001
 40
0.0
 40
0.0
 40
0.0
 40
0.0
 40
0.25
 40
0.25
 40
0.5
 40
0.5
 40
0.75
 40
0.75
 40
1.0
 40
1.0
 40
1.0
 40
1.0
 10
30.0
 20
0.323367110717669
 30
0.0
 10
30.0
 20
0.3513067697470689
 30
0.0
 10
29.97144573436788
 20
0.3789868841235418
 30
0.0
 10
29.86315942053614
 20
0.4441527037612687
 30
0.0
 10
29.78297658760835
 20
0.4820574468487848
 30
0.0
 10
29.59050324984025
 20
0.5741007120321271
 30
0.0
 10
29.47693636781355
 20
0.6291863646295823
 30
0.0
 10
29.24184580079037
 20
0.7509903264595152
 30
0.0
 10
29.11974392842188
 20
0.8178234877342376
 30
0.0
 10
29.0
 20
0.8849908312593158
 30
0.0
1001
PE_URL
1000

  0
SPLINE
  5
1FF
330
1F
100
AcDbEntity
  8
0
  6
Continuous
 62
     1
370
    15
100
AcDbSpline
210
0.0
220
0.0
230
1.0
 70
     8
 71
     3
 72
    18
 73
    14
 74
     0
 42
0.000000001
 43
0.00000001
 40
0.0
 40
0.0
 40
0.0
 40
0.0
 40
0.0929563377964511
 40
0.1858946303776231
 40
0.2788094295146839
 40
0.3717065277499088
 40
0.4645917592747587
 40
0.5574709862648192
 40
0.6503500850746864
 40
0.752536599230828
 40
0.8547231146568184
 40
0.9569096313715079
 40
0.9999999999999999
 40
0.9999999999999999
 40
0.9999999999999999
 40
0.9999999999999999
 10
10.0
 20
0.7004050428274624
 30
0.0
 10
10.50699380039484
 20
0.4093251553584309
 30
0.0
 10
11.52088298065189
 20
-0.1727781134891728
 30
0.0
 10
13.04147231563311
 20
-1.048314401515952
 30
0.0
 10
14.56165371108153
 20
-1.872340369064176
 30
0.0
 10
16.08149186360444
 20
-2.608525457547842
 30
0.0
 10
17.60108910079938
 20
-3.220708381077515
 30
0.0
 10
19.12059676802994
 20
-3.680033142474002
 30
0.0
 10
20.69071759608431
 20
-3.973045247772454
 30
0.0
 10
22.31204939094704
 20
-4.067008439870158
 30
0.0
 10
23.98401425277211
 20
-3.918437964798422
 30
0.0
 10
25.3337003379701
 20
-3.650442064442288
 30
0.0
 10
26.12604829490189
 20
-3.370697244808682
 30
0.0
 10
26.3610654861472
 20
-3.287722535022965
 30
0.0
1001
PE_URL
1000

  0
SPLINE
  5
200
330
1F
100
AcDbEntity
  8
외형선
  6
Continuous
370
    15
100
AcDbSpline
210
0.0
220
0.0
230
1.0
 70
    24
 71
     3
 72
    16
 73
    12
 74
     0
 42
0.000000001
 43
0.00000001
 40
0.0
 40
0.0
 40
0.0
 40
0.0
 40
0.2132330368604729
 40
0.3242246492519564
 40
0.4384350259218998
 40
0.5494266383133831
 40
0.6636370149833258
 40
0.7746286273748073
 40
0.8888390040447474
 40
0.9998306164362335
 40
1.0
 40
1.0
 40
1.0
 40
1.0
 10
10.0
 20
3.915752090079955
 30
0.0
 10
10.00000000000003
 20
3.676954398626624
 30
0.0
 10
10.00000000000006
 20
3.313858234478779
 30
0.0
 10
9.999999999999915
 20
2.785318443871741
 30
0.0
 10
10.0
 20
2.383425886705112
 30
0.0
 10
10.0
 20
1.989501626102609
 30
0.0
 10
10.0
 20
1.623347770535958
 30
0.0
 10
9.99999999999963
 20
1.285924411106848
 30
0.0
 10
10.00000000000136
 20
1.002526691679059
 30
0.0
 10
9.999999999997158
 20
0.8282900999953569
 30
0.0
 10
10.00000000000006
 20
0.7692012560193433
 30
0.0
 10
10.00000000000006
 20
0.7691112183322417
 30
0.0
  0
SPLINE
  5
201
330
1F
100
AcDbEntity
  8
0
  6
Continuous
 62
     1
370
    15
100
AcDbSpline
210
0.0
220
0.0
230
1.0
 70
     8
 71
     3
 72
    48
 73
    44
 74
     0
 42
0.000000001
 43
0.00000001
 40
0.0
 40
0.0
 40
0.0
 40
0.0
 40
0.0624999999999996
 40
0.0624999999999996
 40
0.1249999999999992
 40
0.1249999999999992
 40
0.1874999999999988
 40
0.1874999999999988
 40
0.2499999999999983
 40
0.2499999999999983
 40
0.2812499999999989
 40
0.2812499999999989
 40
0.3124999999999996
 40
0.3124999999999996
 40
0.3749999999999992
 40
0.3749999999999992
 40
0.4062499999999981
 40
0.4062499999999981
 40
0.4374999999999971
 40
0.4374999999999971
 40
0.4999999999999951
 40
0.4999999999999951
 40
0.562499999999993
 40
0.562499999999993
 40
0.624999999999991
 40
0.624999999999991
 40
0.6874999999999889
 40
0.6874999999999889
 40
0.7187499999999887
 40
0.7187499999999887
 40
0.7499999999999885
 40
0.7499999999999885
 40
0.8124999999999897
 40
0.8124999999999897
 40
0.8437499999999911
 40
0.8437499999999911
 40
0.8749999999999927
 40
0.8749999999999927
 40
0.9062499999999941
 40
0.9062499999999941
 40
0.9374999999999956
 40
0.9374999999999956
 40
1.0
 40
1.0
 40
1.0
 40
1.0
 10
28.99218040523141
 20
-4.081807363691745
 30
0.0
 10
28.48167275331019
 20
-4.026873541574531
 30
0.0
 10
27.9284665305176
 20
-3.845105782656972
 30
0.0
 10
27.41745206670845
 20
-3.619908641431593
 30
0.0
 10
27.01896027527886
 20
-3.51225543957883
 30
0.0
 10
26.23254081789912
 20
-3.265063962430531
 30
0.0
 10
25.83337432192104
 20
-3.124341236480859
 30
0.0
 10
25.04057025999637
 20
-2.814549130161843
 30
0.0
 10
24.64817272279871
 20
-2.645789266610699
 30
0.0
 10
24.05236405424091
 20
-2.373652648106486
 30
0.0
 10
23.85355772548297
 20
-2.279914087006439
 30
0.0
 10
23.45772593923783
 20
-2.087436021904779
 30
0.0
 10
23.26167424503672
 20
-1.98886770360032
 30
0.0
 10
22.66907143576805
 20
-1.685603343094186
 30
0.0
 10
22.26960537481901
 20
-1.473519816518724
 30
0.0
 10
21.67692407597377
 20
-1.147494597550896
 30
0.0
 10
21.48088993267797
 20
-1.037601030613125
 30
0.0
 10
21.08510113158479
 20
-0.8149223477095333
 30
0.0
 10
20.88630325545083
 20
-0.7023113015689546
 30
0.0
 10
20.29048036151516
 20
-0.3625134978885853
 30
0.0
 10
19.8980438603536
 20
-0.1341411931761769
 30
0.0
 10
19.10530698402508
 20
0.3229227080767316
 30
0.0
 10
18.70612118672952
 20
0.5513845412290905
 30
0.0
 10
17.91956010584559
 20
0.9982097148889864
 30
0.0
 10
17.52122866303671
 20
1.218638686012881
 30
0.0
 10
16.72791742760367
 20
1.644523204886845
 30
0.0
 10
16.33576401576721
 20
1.84952858484089
 30
0.0
 10
15.74010914606924
 20
2.14304735731163
 30
0.0
 10
15.5412450942637
 20
2.238391042970278
 30
0.0
 10
15.1450819933616
 20
2.423049194105261
 30
0.0
 10
14.94879579408047
 20
2.512218525122037
 30
0.0
 10
14.35687717518925
 20
2.770572621479211
 30
0.0
 10
13.95743573684467
 20
2.930581101254546
 30
0.0
 10
13.36414146554154
 20
3.146951313704211
 30
0.0
 10
13.16816287332486
 20
3.215075193318448
 30
0.0
 10
12.77275315423165
 20
3.343634358192247
 30
0.0
 10
12.57403724775273
 20
3.403971288566044
 30
0.0
 10
12.17676778671799
 20
3.516056692621113
 30
0.0
 10
11.97821691358484
 20
3.567804427005065
 30
0.0
 10
11.58346130237126
 20
3.662196147011898
 30
0.0
 10
11.38726331440793
 20
3.704860332086643
 30
0.0
 10
10.79316303697186
 20
3.819394573866035
 30
0.0
 10
10.39384231042513
 20
3.877353251947419
 30
0.0
 10
9.999999999998437
 20
3.915752090090834
 30
0.0
1001
PE_URL
1000

  0
SPLINE
  5
202
330
1F
100
AcDbEntity
  8
0
  6
Continuous
 62
     1
370
    15
100
AcDbSpline
210
0.0
220
0.0
230
1.0
 70
     8
 71
     3
 72
    13
 73
     9
 74
     0
 42
0.000000001
 43
0.00000001
 40
0.0
 40
0.0
 40
0.0
 40
0.0
 40
0.1392258834085988
 40
0.3113807275438408
 40
0.4835355612397002
 40
0.6556903845270776
 40
0.8278451974368722
 40
1.0
 40
1.0
 40
1.0
 40
1.0
 10
19.71226054857601
 20
-4.017714088863826
 30
0.0
 10
19.26152764345017
 20
-4.006749545799643
 30
0.0
 10
18.25345689906038
 20
-3.982227184634283
 30
0.0
 10
16.68804942039657
 20
-3.684259302005017
 30
0.0
 10
15.01603683462309
 20
-3.174730729656893
 30
0.0
 10
13.34402445983548
 20
-2.476532524902197
 30
0.0
 10
11.67201218068857
 20
-1.640636695524563
 30
0.0
 10
10.55733738239633
 20
-1.013815587450821
 30
0.0
 10
9.999999999998437
 20
-0.700405042832088
 30
0.0
1001
PE_URL
1000

  0
LINE
  5
203
330
1F
100
AcDbEntity
  8
외형선
  6
Continuous
370
    15
100
AcDbLine
 10
10.0
 20
-0.7004050428274695
 30
0.0
 11
10.0
 21
0.7004050428274766
 31
0.0
  0
SPLINE
  5
204
330
1F
100
AcDbEntity
  8
0
  6
Continuous
 62
     1
370
    15
100
AcDbSpline
210
0.0
220
0.0
230
1.0
 70
     8
 71
     3
 72
    18
 73
    14
 74
     0
 42
0.000000001
 43
0.00000001
 40
0.0
 40
0.0
 40
0.0
 40
0.0
 40
0.2499999999999998
 40
0.2499999999999998
 40
0.4999999999999999
 40
0.4999999999999999
 40
0.6249999999999999
 40
0.6249999999999999
 40
0.7499999999999999
 40
0.7499999999999999
 40
0.875
 40
0.875
 40
1.0
 40
1.0
 40
1.0
 40
1.0
 10
29.0
 20
2.171911479186804
 30
0.0
 10
29.12652103035106
 20
2.11102604886873
 30
0.0
 10
29.24628752562182
 20
2.033393259847216
 30
0.0
 10
29.47599503048684
 20
1.8540356475511
 30
0.0
 10
29.58074685711981
 20
1.75631193749927
 30
0.0
 10
29.72251189624996
 20
1.604944272590132
 30
0.0
 10
29.76587287503409
 20
1.555028072372274
 30
0.0
 10
29.84457031469179
 20
1.457301454323655
 30
0.0
 10
29.87999704451215
 20
1.409236638381543
 30
0.0
 10
29.9379183101787
 20
1.321464540035414
 30
0.0
 10
29.96120332355383
 20
1.280522031912668
 30
0.0
 10
29.99209271845851
 20
1.210907595885232
 30
0.0
 10
29.99999999999997
 20
1.182026300445131
 30
0.0
 10
29.99999999999997
 20
1.15894576493227
 30
0.0
1001
PE_URL
1000

  0
LINE
  5
205
330
1F
100
AcDbEntity
  8
0
  6
Continuous
 62
     1
370
    15
100
AcDbLine
 10
30.0
 20
0.323367110717669
 30
0.0
 11
30.0
 21
1.15894576493227
 31
0.0
1001
PE_URL
1000

  0
SPLINE
  5
206
330
1F
100
AcDbEntity
  8
0
  6
Continuous
 62
     1
370
    15
100
AcDbSpline
210
0.0
220
0.0
230
1.0
 70
     8
 71
     3
 72
    11
 73
     7
 74
     0
 42
0.000000001
 43
0.00000001
 40
0.0
 40
0.0
 40
0.0
 40
0.0
 40
0.2769682548102099
 40
0.5538827429606935
 40
0.8307272311695982
 40
1.0
 40
1.0
 40
1.0
 40
1.0
 10
10.0
 20
-3.960457705851738
 30
0.0
 10
10.50699391172157
 20
-3.995736460731649
 30
0.0
 10
11.5208833146105
 20
-4.066287121978043
 30
0.0
 10
13.04147098024168
 20
-3.921539359149975
 30
0.0
 10
14.3648627500975
 20
-3.666891871880793
 30
0.0
 10
15.18137135986342
 20
-3.392190343170576
 30
0.0
 10
15.49118379363074
 20
-3.287958803966468
 30
0.0
1001
PE_URL
1000

  0
SPLINE
  5
207
330
1F
100
AcDbEntity
  8
외형선
  6
Continuous
370
    15
100
AcDbSpline
210
0.0
220
0.0
230
1.0
 70
    24
 71
     3
 72
    20
 73
    16
 74
     0
 42
0.000000001
 43
0.00000001
 40
0.0
 40
0.0
 40
0.0
 40
0.0
 40
0.0095814033561033
 40
0.0924267214715093
 40
0.1729372294027402
 40
0.2557825475181462
 40
0.3362930554493755
 40
0.4191383735647797
 40
0.4996488814960124
 40
0.5824941996114206
 40
0.6630047075426518
 40
0.7458500256580576
 40
0.8263605335891594
 40
0.9092058517046987
 40
1.0
 40
1.0
 40
1.0
 40
1.0
 10
10.0
 20
-0.4395498599597687
 30
0.0
 10
10.0
 20
-0.4383164968406135
 30
0.0
 10
9.999999999999943
 20
-0.4264188963273909
 30
0.0
 10
10.0
 20
-0.4687656359614394
 30
0.0
 10
10.0
 20
-0.5712142716804252
 30
0.0
 10
9.999999999999915
 20
-0.7433776267430829
 30
0.0
 10
10.0
 20
-0.9749642597623307
 30
0.0
 10
9.999999999999943
 20
-1.257529418339075
 30
0.0
 10
10.00000000000011
 20
-1.587545292442428
 30
0.0
 10
10.0
 20
-1.94990998023156
 30
0.0
 10
10.00000000000003
 20
-2.340787266310485
 30
0.0
 10
10.00000000000011
 20
-2.742304397957533
 30
0.0
 10
9.999999999999943
 20
-3.149518283826524
 30
0.0
 10
10.0
 20
-3.563303474308633
 30
0.0
 10
10.0
 20
-3.824093498771248
 30
0.0
 10
10.0
 20
-3.960457705851738
 30
0.0
  0
SPLINE
  5
208
330
1F
100
AcDbEntity
  8
0
  6
Continuous
 62
     1
370
    15
100
AcDbSpline
210
0.0
220
0.0
230
1.0
 70
     8
 71
     3
 72
    12
 73
     8
 74
     0
 42
0.000000001
 43
0.00000001
 40
0.0
 40
0.0
 40
0.0
 40
0.0
 40
0.0235583456476342
 40
0.2676687545728949
 40
0.5117791665766919
 40
0.7558895817040548
 40
1.0
 40
1.0
 40
1.0
 40
1.0
 10
22.15066824225198
 20
3.962691438025811
 30
0.0
 10
22.20445455025038
 20
3.965996231052962
 30
0.0
 10
22.81557191351274
 20
4.003545125484251
 30
0.0
 10
23.98402034295322
 20
3.856477402009411
 30
0.0
 10
25.65601353818576
 20
3.508108942303924
 30
0.0
 10
27.32800675920416
 20
2.940089195012675
 30
0.0
 10
28.44266891732354
 20
2.427970718903211
 30
0.0
 10
29.00000000000034
 20
2.171911479186647
 30
0.0
1001
PE_URL
1000

  0
LINE
  5
209
330
1F
100
AcDbEntity
  8
0
  6
Continuous
 62
     1
370
    15
100
AcDbLine
 10
30.0
 20
1.15894576493227
 30
0.0
 11
30.0
 21
2.952259736327139
 31
0.0
1001
PE_URL
1000

  0
SPLINE
  5
20A
330
1F
100
AcDbEntity
  8
0
  6
Continuous
 62
     1
370
    15
100
AcDbSpline
210
0.0
220
0.0
230
1.0
 70
     8
 71
     3
 72
     9
 73
     5
 74
     0
 42
0.000000001
 43
0.00000001
 40
0.0
 40
0.0
 40
0.0
 40
0.0
 40
0.5757846839306585
 40
0.9999999999999999
 40
0.9999999999999999
 40
0.9999999999999999
 40
0.9999999999999999
 10
29.0
 20
4.027461246246538
 30
0.0
 10
28.30436149576363
 20
3.925195790842686
 30
0.0
 10
27.61386848741881
 20
3.64653859544639
 30
0.0
 10
26.73422410560642
 20
3.356419014014328
 30
0.0
 10
26.3610654861472
 20
3.233345844079224
 30
0.0
1001
PE_URL
1000

  0
LINE
  5
20B
330
1F
100
AcDbEntity
  8
0
  6
Continuous
 62
     1
370
    15
100
AcDbLine
 10
30.0
 20
-3.006636427270877
 30
0.0
 11
30.0
 21
-2.782743801661368
 31
0.0
1001
PE_URL
1000

  0
LINE
  5
20C
330
1F
100
AcDbEntity
  8
외형선
  6
Continuous
370
    15
100
AcDbLine
 10
-39.2
 20
-0.0271883454718704
 30
0.0
 11
-39.2
 21
3.97281165452813
 31
0.0
  0
LINE
  5
20D
330
1F
100
AcDbEntity
  8
외형선
  6
Continuous
370
    15
100
AcDbLine
 10
-39.2
 20
-4.02718834547187
 30
0.0
 11
-39.2
 21
-0.0271883454718704
 31
0.0
  0
LINE
  5
20F
330
1F
100
AcDbEntity
  8
외형선
  6
Continuous
370
    15
100
AcDbLine
 10
-40.00000000000001
 20
-3.227188345471873
 30
0.0
 11
-40.00000000000001
 21
-0.0271883454718704
 31
0.0
  0
SPLINE
  5
210
330
1F
100
AcDbEntity
  8
외형선
  6
Continuous
370
    15
100
AcDbSpline
210
0.0
220
0.0
230
1.0
 70
     8
 71
     3
 72
     8
 73
     4
 74
     0
 42
0.000000001
 43
0.00000001
 40
0.0
 40
0.0
 40
0.0
 40
0.0
 40
1.0
 40
1.0
 40
1.0
 40
1.0
 10
10.0
 20
3.915752090090681
 30
0.0
 10
9.668230720770481
 20
3.948098931749989
 30
0.0
 10
9.334605153858604
 20
3.966820399085449
 30
0.0
 10
8.999965140767756
 20
3.971587867094208
 30
0.0
  0
LINE
  5
211
330
1F
100
AcDbEntity
  8
외형선
  6
Continuous
370
    15
100
AcDbLine
 10
8.999965140767728
 20
1.258695328569601
 30
0.0
 11
8.999965140767728
 21
3.971588637488267
 31
0.0
  0
SPLINE
  5
212
330
1F
100
AcDbEntity
  8
외형선
  6
Continuous
370
    15
100
AcDbSpline
210
0.0
220
0.0
230
1.0
 70
     8
 71
     3
 72
     8
 73
     4
 74
     0
 42
0.000000001
 43
0.00000001
 40
0.0
 40
0.0
 40
0.0
 40
0.0
 40
1.0
 40
1.0
 40
1.0
 40
1.0
 10
10.0
 20
0.7004050428274624
 30
0.0
 10
9.66823072077051
 20
0.8893915039510958
 30
0.0
 10
9.334605153858632
 20
1.076205035504145
 30
0.0
 10
8.999965140767728
 20
1.258718598395156
 30
0.0
  0
SPLINE
  5
213
330
1F
100
AcDbEntity
  8
외형선
  6
Continuous
370
    15
100
AcDbSpline
210
0.0
220
0.0
230
1.0
 70
     8
 71
     3
 72
     8
 73
     4
 74
     0
 42
0.000000001
 43
0.00000001
 40
0.0
 40
0.0
 40
0.0
 40
0.0
 40
1.0
 40
1.0
 40
1.0
 40
1.0
 10
10.0
 20
-0.7004050428329691
 30
0.0
 10
9.668230720770481
 20
-0.5109539040820081
 30
0.0
 10
9.334605153858604
 20
-0.3188127007851449
 30
0.0
 10
8.999965140767756
 20
-0.1261267192997408
 30
0.0
  0
LINE
  5
214
330
1F
100
AcDbEntity
  8
외형선
  6
Continuous
370
    15
100
AcDbLine
 10
8.999965140767728
 20
-3.814866153421427
 30
0.0
 11
8.999965140767728
 21
-0.1260955775037829
 31
0.0
  0
SPLINE
  5
215
330
1F
100
AcDbEntity
  8
외형선
  6
Continuous
370
    15
100
AcDbSpline
210
0.0
220
0.0
230
1.0
 70
     8
 71
     3
 72
     8
 73
     4
 74
     0
 42
0.000000001
 43
0.00000001
 40
0.0
 40
0.0
 40
0.0
 40
0.0
 40
1.0
 40
1.0
 40
1.0
 40
1.0
 10
10.0
 20
-3.960457705851745
 30
0.0
 10
9.66823072077051
 20
-3.92549816278644
 30
0.0
 10
9.334605153858632
 20
-3.876821271223434
 30
0.0
 10
8.999965140767728
 20
-3.814858253438317
 30
0.0
  0
SPLINE
  5
216
330
1F
100
AcDbEntity
  8
외형선
  6
Continuous
370
    15
100
AcDbSpline
210
0.0
220
0.0
230
1.0
 70
    24
 71
     3
 72
    19
 73
    15
 74
     0
 42
0.000000001
 43
0.00000001
 40
0.0
 40
0.0
 40
0.0
 40
0.0
 40
0.1521503635133374
 40
0.2337767093178152
 40
0.3154030551222928
 40
0.3970294009268566
 40
0.4786557467314204
 40
0.5602820925359422
 40
0.641908438340464
 40
0.7235347841449846
 40
0.8051611299495053
 40
0.8867874757540204
 40
0.9684138215585354
 40
1.0
 40
1.0
 40
1.0
 40
1.0
 10
10.0
 20
-3.960457705851738
 30
0.0
 10
10.00000000000003
 20
-3.726955981266414
 30
0.0
 10
10.00000000000006
 20
-3.368184148369629
 30
0.0
 10
10.0
 20
-2.844227344978577
 30
0.0
 10
10.0
 20
-2.439776115886659
 30
0.0
 10
9.999999999999972
 20
-2.046115852907427
 30
0.0
 10
9.999999999999943
 20
-1.674595824702841
 30
0.0
 10
10.0
 20
-1.336697021503824
 30
0.0
 10
10.0
 20
-1.040412659986956
 30
0.0
 10
10.0
 20
-0.7964579628371027
 30
0.0
 10
10.0
 20
-0.6080462036362917
 30
0.0
 10
10.00000000000003
 20
-0.4885200489928536
 30
0.0
 10
10.0
 20
-0.4324647768907397
 30
0.0
 10
10.0
 20
-0.44172290130291
 30
0.0
 10
10.0
 20
-0.4443059085422902
 30
0.0
  0
SPLINE
  5
217
330
1F
100
AcDbEntity
  8
외형선
  6
Continuous
370
    15
100
AcDbSpline
210
0.0
220
0.0
230
1.0
 70
    24
 71
     3
 72
    16
 73
    12
 74
     0
 42
0.000000001
 43
0.00000001
 40
0.0
 40
0.0
 40
0.0
 40
0.0
 40
0.0863018152988798
 40
0.198525985489575
 40
0.3107501556802689
 40
0.4229743258709628
 40
0.5351984960616492
 40
0.6474226662523352
 40
0.759646836443038
 40
0.8718710066337411
 40
1.0
 40
1.0
 40
1.0
 40
1.0
 10
9.999999999999943
 20
0.7691112183322417
 30
0.0
 10
9.999999999999943
 20
0.8239702696126798
 30
0.0
 10
9.999999999999972
 20
0.9501663082562999
 30
0.0
 10
10.0
 20
1.211895290379161
 30
0.0
 10
10.0
 20
1.535093353722473
 30
0.0
 10
10.00000000000003
 20
1.895913819276146
 30
0.0
 10
9.999999999999972
 20
2.28298333478692
 30
0.0
 10
10.0
 20
2.685297303697148
 30
0.0
 10
10.00000000000003
 20
3.090898748973473
 30
0.0
 10
10.00000000000006
 20
3.510147366489115
 30
0.0
 10
10.00000000000006
 20
3.774714799781719
 30
0.0
 10
10.00000000000006
 20
3.915752090090745
 30
0.0
  0
LINE
  5
218
330
1F
100
AcDbEntity
  8
중심선
100
AcDbLine
 10
-44.79883750451589
 20
-0.0271883454718704
 30
0.0
 11
33.0
 21
-0.0271883454718704
 31
0.0
  0
CIRCLE
  5
219
330
1F
100
AcDbEntity
  8
해칭선
100
AcDbCircle
 10
0.0
 20
0.0
 30
0.0
 40
3.000000000000001
  0
DIMENSION
  5
21A
330
1F
100
AcDbEntity
  8
치수문자_일반주서
100
AcDbDimension
  2
*D13
 10
40.00000000000001
 20
-4.027188345471835
 30
0.0
 11
39.99999999999994
 21
13.63931165452819
 31
0.0
 70
   160
  1
%%c<>
 71
     2
 42
7.999999999999996
 52
-270.0
  3
SLDDIMSTYLE0
100
AcDbAlignedDimension
 13
30.0
 23
3.972811654528126
 33
0.0
 14
30.0
 24
-4.02718834547187
 34
0.0
 50
90.0000000000002
100
AcDbRotatedDimension
1001
PE_URL
1000

  0
DIMENSION
  5
21B
330
1F
100
AcDbEntity
  8
치수문자_일반주서
100
AcDbDimension
  2
*D14
 10
-49.93749999999998
 20
-4.027188345471913
 30
0.0
 11
-49.93750000000004
 21
13.63931165452809
 31
0.0
 70
   160
  1
%%c<>
 71
     2
 42
8.000000000000004
 52
-270.0
  3
SLDDIMSTYLE0
100
AcDbAlignedDimension
 13
-39.1375
 23
3.97281165452813
 33
0.0
 14
-39.1375
 24
-4.027188345471874
 34
0.0
 50
90.0000000000002
100
AcDbRotatedDimension
1001
PE_URL
1000

  0
DIMENSION
  5
21C
330
1F
100
AcDbEntity
  8
치수문자_일반주서
100
AcDbDimension
  2
*D15
 10
10.0
 20
13.97281165452813
 30
0.0
 11
20.0
 21
13.97281165452813
 31
0.0
 70
   160
  1
<>
 71
     2
 42
20.0
  3
SLDDIMSTYLE0
100
AcDbAlignedDimension
 13
30.0
 23
3.972811654528126
 33
0.0
 14
10.0
 24
3.915752090079955
 34
0.0
100
AcDbRotatedDimension
1001
PE_URL
1000

  0
DIMENSION
  5
21D
102
{ACAD_XDICTIONARY
360
263
102
}
330
1F
100
AcDbEntity
  8
치수문자_일반주서
100
AcDbDimension
  2
*D16
 10
-40.00000000000001
 20
23.91031165452813
 30
0.0
 11
-5.000000000000007
 21
23.91031165452813
 31
0.0
 70
   160
  1
<>
 71
     2
 42
70.00000000000001
  3
SLDDIMSTYLE0
100
AcDbAlignedDimension
 13
30.0
 23
3.027461246246538
 33
0.0
 14
-40.00000000000001
 24
3.110311654528132
 34
0.0
 50
0.0000000000000041
100
AcDbRotatedDimension
1001
PE_URL
1000

1001
ENABLE_CUSTOM_SPLIT
1070
     1
  0
INSERT
  5
21E
330
1F
100
AcDbEntity
  8
해칭선
100
AcDbBlockReference
  2
SW_DOWELSYMBOL_0
 10
0.0
 20
0.0
 30
0.0
  0
ARC
  5
21F
330
1F
100
AcDbEntity
  8
0
  6
Continuous
 62
     1
370
    15
100
AcDbCircle
 10
29.0
 20
3.027461246246538
 30
0.0
 40
1.0
100
AcDbArc
 50
0.0
 51
90.44803434374461
1001
PE_URL
1000

  0
ARC
  5
220
330
1F
100
AcDbEntity
  8
0
  6
Continuous
 62
     1
370
    15
100
AcDbCircle
 10
29.0
 20
-3.081837937190286
 30
0.0
 40
1.0
100
AcDbArc
 50
269.5519656562554
 51
0.0
1001
PE_URL
1000

  0
DIMENSION
  5
221
330
1F
100
AcDbEntity
  8
치수문자_일반주서
100
AcDbDimension
  2
*D17
 10
29.0
 20
-3.081837937190286
 30
0.0
 11
38.85320864497989
 21
-18.17531348551445
 31
0.0
 70
   164
 71
     5
 42
1.000000000000002
  3
SLDDIMSTYLE1
100
AcDbRadialDimension
 15
29.54664285490742
 25
-3.919203800584938
 35
0.0
 40
0.0
1001
ACAD
1000
DSTYLE
1002
{
1070
    78
1070
     8
1002
}
1001
ACAD_DSTYLE_DIMRADIAL_EXTENSION
1070
   387
1070
     1
1070
   388
1040
4.704569305924327
1070
   390
1040
0.0
1001
PE_URL
1000

  0
LINE
  5
262
330
1F
100
AcDbEntity
  8
외형선
  6
Continuous
370
    15
100
AcDbLine
 10
-40.00000000000001
 20
-0.0271883454718704
 30
0.0
 11
-40.00000000000001
 21
3.172811654528132
 31
0.0
  0
ENDSEC
  0
SECTION
  2
OBJECTS
  0
DICTIONARY
  5
C
330
0
100
AcDbDictionary
281
     1
  3
ACAD_GROUP
350
D
  3
ACAD_LAYOUT
350
1A
  3
ACAD_MLINESTYLE
350
17
  3
ACAD_PLOTSETTINGS
350
19
  3
ACAD_PLOTSTYLENAME
350
E
  3
ACAD_SCALELIST
350
47
  3
APPDATA
350
12A
  3
DWGPROPS
350
26A
  0
DICTIONARY
  5
1B7
330
2
100
AcDbDictionary
280
     1
281
     1
  3
ACAD_LAYERSTATES
360
1B8
  0
DICTIONARY
  5
267
330
1F
100
AcDbDictionary
280
     1
281
     1
  3
DIM_BOUNDING_BOXES_V1
360
268
  0
DICTIONARY
  5
263
330
21D
100
AcDbDictionary
280
     1
281
     1
  3
ACAD_CUSTOM_BREAKDATA
360
266
  0
DICTIONARY
  5
D
102
{ACAD_REACTORS
330
C
102
}
330
C
100
AcDbDictionary
281
     1
  0
DICTIONARY
  5
1A
102
{ACAD_REACTORS
330
C
102
}
330
C
100
AcDbDictionary
281
     1
  3
Layout1
350
1E
  3
Layout2
350
26
  3
Model
350
22
  0
DICTIONARY
  5
17
102
{ACAD_REACTORS
330
C
102
}
330
C
100
AcDbDictionary
281
     1
  3
Standard
350
18
  0
DICTIONARY
  5
19
102
{ACAD_REACTORS
330
C
102
}
330
C
100
AcDbDictionary
281
     1
  0
ACDBDICTIONARYWDFLT
  5
E
102
{ACAD_REACTORS
330
C
102
}
330
C
100
AcDbDictionary
281
     1
  3
Normal
350
F
100
AcDbDictionaryWithDefault
340
F
  0
DICTIONARY
  5
47
102
{ACAD_REACTORS
330
C
102
}
330
C
100
AcDbDictionary
281
     1
  3
A0
350
48
  3
A1
350
49
  3
A2
350
4A
  3
A3
350
4B
  3
A4
350
4C
  3
A5
350
4D
  3
A6
350
4E
  3
A7
350
4F
  3
A8
350
50
  3
A9
350
51
  3
B0
350
52
  3
B1
350
53
  3
B2
350
54
  3
B3
350
55
  3
B4
350
56
  3
B5
350
57
  3
B6
350
58
  3
B7
350
59
  3
B8
350
5A
  3
B9
350
5B
  3
C0
350
5C
  3
C1
350
5D
  3
C2
350
5E
  3
C3
350
5F
  3
C4
350
60
  3
C5
350
61
  3
C6
350
62
  3
C7
350
63
  3
C8
350
64
  3
C9
350
65
  3
D0
350
66
  3
D1
350
67
  3
D2
350
68
  0
DICTIONARY
  5
12A
102
{ACAD_REACTORS
330
C
102
}
330
C
100
AcDbDictionary
281
     1
  0
XRECORD
  5
26A
102
{ACAD_REACTORS
330
C
102
}
330
C
100
AcDbXrecord
280
     1
  1
DWGPROPS COOKIE
  2

  3

  4

  6

  7

  8
12016016
  9

300
=
301
=
302
=
303
=
304
=
305
=
306
=
307
=
308
=
309
=
 40
0.0
 41
2458269.439936701
 42
2459702.121610984
  1

 90
        0
  0
DICTIONARY
  5
1B8
102
{ACAD_REACTORS
330
1B7
102
}
330
1B7
100
AcDbDictionary
281
     1
  0
DICTIONARY
  5
268
102
{ACAD_REACTORS
330
267
102
}
330
267
100
AcDbDictionary
281
     1
  0
BREAKDATA
  5
266
102
{ACAD_REACTORS
330
263
102
}
330
263
100
AcDbBreakData
 70
     0
330
21D
 90
        1
100
AcDbBreakPointRef
 71
     0
 72
     0
 91
       -1
 10
0.0
 20
0.0
 30
0.0
 11
0.0
 21
0.0
 31
0.0
331
1F6
 73
     2
 92
        0
  0
LAYOUT
  5
1E
102
{ACAD_REACTORS
330
1A
102
}
330
1A
100
AcDbPlotSettings
  1

  2
none_device
  4

  6

 40
0.0
 41
0.0
 42
0.0
 43
0.0
 44
0.0
 45
0.0
 46
0.0
 47
0.0
 48
0.0
 49
0.0
140
0.0
141
0.0
142
1.0
143
1.0
 70
   688
 72
     1
 73
     0
 74
     5
  7

 75
    16
147
1.0
148
0.0
149
0.0
100
AcDbLayout
  1
Layout1
 70
     1
 71
     1
 10
0.0
 20
0.0
 11
420.0
 21
297.0
 12
0.0
 22
0.0
 32
0.0
 14
1.000000000000000E+20
 24
1.000000000000000E+20
 34
1.000000000000000E+20
 15
-1.000000000000000E+20
 25
-1.000000000000000E+20
 35
-1.000000000000000E+20
146
0.0
 13
0.0
 23
0.0
 33
0.0
 16
1.0
 26
0.0
 36
0.0
 17
0.0
 27
1.0
 37
0.0
 76
     0
330
1B
  0
LAYOUT
  5
26
102
{ACAD_REACTORS
330
1A
102
}
330
1A
100
AcDbPlotSettings
  1

  2
none_device
  4

  6

 40
0.0
 41
0.0
 42
0.0
 43
0.0
 44
0.0
 45
0.0
 46
0.0
 47
0.0
 48
0.0
 49
0.0
140
0.0
141
0.0
142
1.0
143
1.0
 70
   688
 72
     1
 73
     0
 74
     5
  7

 75
    16
147
1.0
148
0.0
149
0.0
100
AcDbLayout
  1
Layout2
 70
     1
 71
     2
 10
0.0
 20
0.0
 11
0.0
 21
0.0
 12
0.0
 22
0.0
 32
0.0
 14
0.0
 24
0.0
 34
0.0
 15
0.0
 25
0.0
 35
0.0
146
0.0
 13
0.0
 23
0.0
 33
0.0
 16
1.0
 26
0.0
 36
0.0
 17
0.0
 27
1.0
 37
0.0
 76
     0
330
23
  0
LAYOUT
  5
22
102
{ACAD_REACTORS
330
1A
102
}
330
1A
100
AcDbPlotSettings
  1

  2
none_device
  4
ANSI_A_(11.00_x_8.50_Inches)
  6

 40
6.35
 41
19.05
 42
6.35000508
 43
19.05000254
 44
279.4
 45
215.9
 46
110.9593412050573
 47
107.2600697222913
 48
0.0
 49
0.0
140
0.0
141
0.0
142
0.0787616753210067
143
1.0
 70
  1696
 72
     0
 73
     0
 74
     0
  7

 75
     0
147
0.0235690232323232
148
0.0
149
0.0
100
AcDbLayout
  1
Model
 70
     1
 71
     0
 10
0.0
 20
0.0
 11
420.0
 21
297.0
 12
0.0
 22
0.0
 32
0.0
 14
-54.31250000000006
 24
-49.97180738881174
 34
0.0
 15
79.73835494594202
 25
28.28531165452813
 35
0.0
146
0.0
 13
0.0
 23
0.0
 33
0.0
 16
1.0
 26
0.0
 36
0.0
 17
0.0
 27
1.0
 37
0.0
 76
     0
330
1F
331
29
  0
MLINESTYLE
  5
18
102
{ACAD_REACTORS
330
17
102
}
330
17
100
AcDbMlineStyle
  2
Standard
 70
     0
  3

 62
   256
 51
90.0
 52
90.0
 71
     2
 49
0.5
 62
   256
  6
BYLAYER
 49
-0.5
 62
   256
  6
BYLAYER
  0
ACDBPLACEHOLDER
  5
F
102
{ACAD_REACTORS
330
E
102
}
330
E
  0
SCALE
  5
48
102
{ACAD_REACTORS
330
47
102
}
330
47
100
AcDbScale
 70
     0
300
1:1
140
1.0
141
1.0
290
     1
  0
SCALE
  5
49
102
{ACAD_REACTORS
330
47
102
}
330
47
100
AcDbScale
 70
     0
300
1:2
140
1.0
141
2.0
290
     0
  0
SCALE
  5
4A
102
{ACAD_REACTORS
330
47
102
}
330
47
100
AcDbScale
 70
     0
300
1:4
140
1.0
141
4.0
290
     0
  0
SCALE
  5
4B
102
{ACAD_REACTORS
330
47
102
}
330
47
100
AcDbScale
 70
     0
300
1:5
140
1.0
141
5.0
290
     0
  0
SCALE
  5
4C
102
{ACAD_REACTORS
330
47
102
}
330
47
100
AcDbScale
 70
     0
300
1:8
140
1.0
141
8.0
290
     0
  0
SCALE
  5
4D
102
{ACAD_REACTORS
330
47
102
}
330
47
100
AcDbScale
 70
     0
300
1:10
140
1.0
141
10.0
290
     0
  0
SCALE
  5
4E
102
{ACAD_REACTORS
330
47
102
}
330
47
100
AcDbScale
 70
     0
300
1:16
140
1.0
141
16.0
290
     0
  0
SCALE
  5
4F
102
{ACAD_REACTORS
330
47
102
}
330
47
100
AcDbScale
 70
     0
300
1:20
140
1.0
141
20.0
290
     0
  0
SCALE
  5
50
102
{ACAD_REACTORS
330
47
102
}
330
47
100
AcDbScale
 70
     0
300
1:30
140
1.0
141
30.0
290
     0
  0
SCALE
  5
51
102
{ACAD_REACTORS
330
47
102
}
330
47
100
AcDbScale
 70
     0
300
1:40
140
1.0
141
40.0
290
     0
  0
SCALE
  5
52
102
{ACAD_REACTORS
330
47
102
}
330
47
100
AcDbScale
 70
     0
300
1:50
140
1.0
141
50.0
290
     0
  0
SCALE
  5
53
102
{ACAD_REACTORS
330
47
102
}
330
47
100
AcDbScale
 70
     0
300
1:100
140
1.0
141
100.0
290
     0
  0
SCALE
  5
54
102
{ACAD_REACTORS
330
47
102
}
330
47
100
AcDbScale
 70
     0
300
2:1
140
2.0
141
1.0
290
     0
  0
SCALE
  5
55
102
{ACAD_REACTORS
330
47
102
}
330
47
100
AcDbScale
 70
     0
300
4:1
140
4.0
141
1.0
290
     0
  0
SCALE
  5
56
102
{ACAD_REACTORS
330
47
102
}
330
47
100
AcDbScale
 70
     0
300
8:1
140
8.0
141
1.0
290
     0
  0
SCALE
  5
57
102
{ACAD_REACTORS
330
47
102
}
330
47
100
AcDbScale
 70
     0
300
10:1
140
10.0
141
1.0
290
     0
  0
SCALE
  5
58
102
{ACAD_REACTORS
330
47
102
}
330
47
100
AcDbScale
 70
     0
300
100:1
140
100.0
141
1.0
290
     0
  0
SCALE
  5
59
102
{ACAD_REACTORS
330
47
102
}
330
47
100
AcDbScale
 70
     0
300
1/128" = 1'-0"
140
0.0078125
141
12.0
290
     0
  0
SCALE
  5
5A
102
{ACAD_REACTORS
330
47
102
}
330
47
100
AcDbScale
 70
     0
300
1/64" = 1'-0"
140
0.015625
141
12.0
290
     0
  0
SCALE
  5
5B
102
{ACAD_REACTORS
330
47
102
}
330
47
100
AcDbScale
 70
     0
300
1/32" = 1'-0"
140
0.03125
141
12.0
290
     0
  0
SCALE
  5
5C
102
{ACAD_REACTORS
330
47
102
}
330
47
100
AcDbScale
 70
     0
300
1/16" = 1'-0"
140
0.0625
141
12.0
290
     0
  0
SCALE
  5
5D
102
{ACAD_REACTORS
330
47
102
}
330
47
100
AcDbScale
 70
     0
300
3/32" = 1'-0"
140
0.09375
141
12.0
290
     0
  0
SCALE
  5
5E
102
{ACAD_REACTORS
330
47
102
}
330
47
100
AcDbScale
 70
     0
300
1/8" = 1'-0"
140
0.125
141
12.0
290
     0
  0
SCALE
  5
5F
102
{ACAD_REACTORS
330
47
102
}
330
47
100
AcDbScale
 70
     0
300
3/16" = 1'-0"
140
0.1875
141
12.0
290
     0
  0
SCALE
  5
60
102
{ACAD_REACTORS
330
47
102
}
330
47
100
AcDbScale
 70
     0
300
1/4" = 1'-0"
140
0.25
141
12.0
290
     0
  0
SCALE
  5
61
102
{ACAD_REACTORS
330
47
102
}
330
47
100
AcDbScale
 70
     0
300
3/8" = 1'-0"
140
0.375
141
12.0
290
     0
  0
SCALE
  5
62
102
{ACAD_REACTORS
330
47
102
}
330
47
100
AcDbScale
 70
     0
300
1/2" = 1'-0"
140
0.5
141
12.0
290
     0
  0
SCALE
  5
63
102
{ACAD_REACTORS
330
47
102
}
330
47
100
AcDbScale
 70
     0
300
3/4" = 1'-0"
140
0.75
141
12.0
290
     0
  0
SCALE
  5
64
102
{ACAD_REACTORS
330
47
102
}
330
47
100
AcDbScale
 70
     0
300
1" = 1'-0"
140
1.0
141
12.0
290
     0
  0
SCALE
  5
65
102
{ACAD_REACTORS
330
47
102
}
330
47
100
AcDbScale
 70
     0
300
1-1/2" = 1'-0"
140
1.5
141
12.0
290
     0
  0
SCALE
  5
66
102
{ACAD_REACTORS
330
47
102
}
330
47
100
AcDbScale
 70
     0
300
3" = 1'-0"
140
3.0
141
12.0
290
     0
  0
SCALE
  5
67
102
{ACAD_REACTORS
330
47
102
}
330
47
100
AcDbScale
 70
     0
300
6" = 1'-0"
140
6.0
141
12.0
290
     0
  0
SCALE
  5
68
102
{ACAD_REACTORS
330
47
102
}
330
47
100
AcDbScale
 70
     0
300
1'-0" = 1'-0"
140
12.0
141
12.0
290
     0
  0
ENDSEC
  0
EOF
