  0
SECTION
  2
HEADER
  9
$ACADVER
  1
AC1015
  9
$ACADMAINTVER
 70
     6
  9
$DWGCODEPAGE
  3
ANSI_949
  9
$INSBASE
 10
0.0
 20
0.0
 30
0.0
  9
$EXTMIN
 10
-84.37500000000006
 20
-49.97180738881174
 30
0.0
  9
$EXTMAX
 10
50.51348381534558
 20
28.375
 30
0.0
  9
$LIMMIN
 10
0.0
 20
0.0
  9
$LIMMAX
 10
420.0
 20
297.0
  9
$ORTHOMODE
 70
     1
  9
$REGENMODE
 70
     1
  9
$FILLMODE
 70
     1
  9
$QTEXTMODE
 70
     0
  9
$MIRRTEXT
 70
     1
  9
$LTSCALE
 40
1.0
  9
$ATTMODE
 70
     1
  9
$TEXTSIZE
 40
3.5
  9
$TRACEWID
 40
1.0
  9
$TEXTSTYLE
  7
Standard
  9
$CLAYER
  8
0
  9
$CELTYPE
  6
ByLayer
  9
$CECOLOR
 62
   256
  9
$CELTSCALE
 40
1.0
  9
$DISPSILH
 70
     0
  9
$DIMSCALE
 40
1.0
  9
$DIMASZ
 40
3.302
  9
$DIMEXO
 40
1.0
  9
$DIMDLI
 40
3.75
  9
$DIMRND
 40
0.0
  9
$DIMDLE
 40
0.0
  9
$DIMEXE
 40
1.0
  9
$DIMTP
 40
0.0
  9
$DIMTM
 40
0.0
  9
$DIMTXT
 40
3.5
  9
$DIMCEN
 40
2.5
  9
$DIMTSZ
 40
0.0
  9
$DIMTOL
 70
     0
  9
$DIMLIM
 70
     0
  9
$DIMTIH
 70
     1
  9
$DIMTOH
 70
     1
  9
$DIMSE1
 70
     0
  9
$DIMSE2
 70
     0
  9
$DIMTAD
 70
     1
  9
$DIMZIN
 70
     0
  9
$DIMBLK
  1

  9
$DIMASO
 70
     1
  9
$DIMSHO
 70
     1
  9
$DIMPOST
  1

  9
$DIMAPOST
  1

  9
$DIMALT
 70
     0
  9
$DIMALTD
 70
     3
  9
$DIMALTF
 40
0.0393700787401575
  9
$DIMLFAC
 40
1.0
  9
$DIMTOFL
 70
     1
  9
$DIMTVP
 40
0.0
  9
$DIMTIX
 70
     0
  9
$DIMSOXD
 70
     0
  9
$DIMSAH
 70
     0
  9
$DIMBLK1
  1

  9
$DIMBLK2
  1

  9
$DIMSTYLE
  2
ISO-25
  9
$DIMCLRD
 70
     0
  9
$DIMCLRE
 70
     0
  9
$DIMCLRT
 70
     0
  9
$DIMTFAC
 40
1.0
  9
$DIMGAP
 40
1.524
  9
$DIMJUST
 70
     0
  9
$DIMSD1
 70
     0
  9
$DIMSD2
 70
     0
  9
$DIMTOLJ
 70
     0
  9
$DIMTZIN
 70
     0
  9
$DIMALTZ
 70
     0
  9
$DIMALTTZ
 70
     0
  9
$DIMUPT
 70
     0
  9
$DIMDEC
 70
     2
  9
$DIMTDEC
 70
     2
  9
$DIMALTU
 70
     2
  9
$DIMALTTD
 70
     3
  9
$DIMTXSTY
  7
Standard
  9
$DIMAUNIT
 70
     0
  9
$DIMADEC
 70
     2
  9
$DIMALTRND
 40
0.0
  9
$DIMAZIN
 70
     0
  9
$DIMDSEP
 70
    44
  9
$DIMATFIT
 70
     3
  9
$DIMFRAC
 70
     0
  9
$DIMLDRBLK
  1

  9
$DIMLUNIT
 70
     2
  9
$DIMLWD
 70
    -2
  9
$DIMLWE
 70
    -2
  9
$DIMTMOVE
 70
     0
  9
$LUNITS
 70
     2
  9
$LUPREC
 70
     2
  9
$SKETCHINC
 40
1.0
  9
$FILLETRAD
 40
10.0
  9
$AUNITS
 70
     0
  9
$AUPREC
 70
     2
  9
$MENU
  1
.
  9
$ELEVATION
 40
0.0
  9
$PELEVATION
 40
0.0
  9
$THICKNESS
 40
0.0
  9
$LIMCHECK
 70
     0
  9
$CHAMFERA
 40
0.0
  9
$CHAMFERB
 40
0.0
  9
$CHAMFERC
 40
0.0
  9
$CHAMFERD
 40
0.0
  9
$SKPOLY
 70
     0
  9
$TDCREATE
 40
2458269.813991667
  9
$TDUCREATE
 40
2458269.438991667
  9
$TDUPDATE
 40
2458270.825988241
  9
$TDUUPDATE
 40
2458270.450988241
  9
$TDINDWG
 40
0.0022524306
  9
$TDUSRTIMER
 40
0.002252419
  9
$USRTIMER
 70
     1
  9
$ANGBASE
 50
0.0
  9
$ANGDIR
 70
     0
  9
$PDMODE
 70
     0
  9
$PDSIZE
 40
-1.0
  9
$PLINEWID
 40
0.0
  9
$SPLFRAME
 70
     0
  9
$SPLINETYPE
 70
     6
  9
$SPLINESEGS
 70
     8
  9
$HANDSEED
  5
1C8
  9
$SURFTAB1
 70
     6
  9
$SURFTAB2
 70
     6
  9
$SURFTYPE
 70
     6
  9
$SURFU
 70
     6
  9
$SURFV
 70
     6
  9
$UCSBASE
  2

  9
$UCSNAME
  2

  9
$UCSORG
 10
0.0
 20
0.0
 30
0.0
  9
$UCSXDIR
 10
1.0
 20
0.0
 30
0.0
  9
$UCSYDIR
 10
0.0
 20
1.0
 30
0.0
  9
$UCSORTHOREF
  2

  9
$UCSORTHOVIEW
 70
     0
  9
$UCSORGTOP
 10
0.0
 20
0.0
 30
0.0
  9
$UCSORGBOTTOM
 10
0.0
 20
0.0
 30
0.0
  9
$UCSORGLEFT
 10
0.0
 20
0.0
 30
0.0
  9
$UCSORGRIGHT
 10
0.0
 20
0.0
 30
0.0
  9
$UCSORGFRONT
 10
0.0
 20
0.0
 30
0.0
  9
$UCSORGBACK
 10
0.0
 20
0.0
 30
0.0
  9
$PUCSBASE
  2

  9
$PUCSNAME
  2

  9
$PUCSORG
 10
0.0
 20
0.0
 30
0.0
  9
$PUCSXDIR
 10
1.0
 20
0.0
 30
0.0
  9
$PUCSYDIR
 10
0.0
 20
1.0
 30
0.0
  9
$PUCSORTHOREF
  2

  9
$PUCSORTHOVIEW
 70
     0
  9
$PUCSORGTOP
 10
0.0
 20
0.0
 30
0.0
  9
$PUCSORGBOTTOM
 10
0.0
 20
0.0
 30
0.0
  9
$PUCSORGLEFT
 10
0.0
 20
0.0
 30
0.0
  9
$PUCSORGRIGHT
 10
0.0
 20
0.0
 30
0.0
  9
$PUCSORGFRONT
 10
0.0
 20
0.0
 30
0.0
  9
$PUCSORGBACK
 10
0.0
 20
0.0
 30
0.0
  9
$USERI1
 70
     0
  9
$USERI2
 70
     0
  9
$USERI3
 70
     0
  9
$USERI4
 70
     0
  9
$USERI5
 70
     0
  9
$USERR1
 40
0.0
  9
$USERR2
 40
0.0
  9
$USERR3
 40
0.0
  9
$USERR4
 40
0.0
  9
$USERR5
 40
0.0
  9
$WORLDVIEW
 70
     1
  9
$SHADEDGE
 70
     3
  9
$SHADEDIF
 70
    70
  9
$TILEMODE
 70
     1
  9
$MAXACTVP
 70
    64
  9
$PINSBASE
 10
0.0
 20
0.0
 30
0.0
  9
$PLIMCHECK
 70
     0
  9
$PEXTMIN
 10
1.000000000000000E+20
 20
1.000000000000000E+20
 30
1.000000000000000E+20
  9
$PEXTMAX
 10
-1.000000000000000E+20
 20
-1.000000000000000E+20
 30
-1.000000000000000E+20
  9
$PLIMMIN
 10
0.0
 20
0.0
  9
$PLIMMAX
 10
0.0
 20
0.0
  9
$UNITMODE
 70
     0
  9
$VISRETAIN
 70
     1
  9
$PLINEGEN
 70
     0
  9
$PSLTSCALE
 70
     1
  9
$TREEDEPTH
 70
  3020
  9
$CMLSTYLE
  2
Standard
  9
$CMLJUST
 70
     0
  9
$CMLSCALE
 40
20.0
  9
$PROXYGRAPHICS
 70
     1
  9
$MEASUREMENT
 70
     1
  9
$CELWEIGHT
370
    -1
  9
$ENDCAPS
280
     0
  9
$JOINSTYLE
280
     0
  9
$LWDISPLAY
290
     1
  9
$INSUNITS
 70
     4
  9
$HYPERLINKBASE
  1

  9
$STYLESHEET
  1

  9
$XEDIT
290
     1
  9
$CEPSNTYPE
380
     0
  9
$PSTYLEMODE
290
     1
  9
$FINGERPRINTGUID
  2
{9D6B33C7-2E60-4A87-875F-AE417D62F794}
  9
$VERSIONGUID
  2
{FAEB1C32-E019-11D5-929B-00C0DF256EC4}
  9
$EXTNAMES
290
     1
  9
$PSVPSCALE
 40
0.0
  9
$OLESTARTUP
290
     0
  0
ENDSEC
  0
SECTION
  2
CLASSES
  0
CLASS
  1
ACDBDICTIONARYWDFLT
  2
AcDbDictionaryWithDefault
  3
ObjectDBX Classes
 90
        0
280
     0
281
     0
  0
CLASS
  1
VISUALSTYLE
  2
AcDbVisualStyle
  3
ObjectDBX Classes
 90
     4095
280
     0
281
     0
  0
CLASS
  1
MATERIAL
  2
AcDbMaterial
  3
ObjectDBX Classes
 90
     1153
280
     0
281
     0
  0
CLASS
  1
SCALE
  2
AcDbScale
  3
ObjectDBX Classes
 90
     1153
280
     0
281
     0
  0
CLASS
  1
SUN
  2
AcDbSun
  3
SCENEOE
 90
     1153
280
     0
281
     0
  0
CLASS
  1
ACDBPLACEHOLDER
  2
AcDbPlaceHolder
  3
ObjectDBX Classes
 90
        0
280
     0
281
     0
  0
CLASS
  1
LAYOUT
  2
AcDbLayout
  3
ObjectDBX Classes
 90
        0
280
     0
281
     0
  0
CLASS
  1
TABLESTYLE
  2
AcDbTableStyle
  3
ObjectDBX Classes
 90
     4095
280
     0
281
     0
  0
CLASS
  1
MLEADERSTYLE
  2
AcDbMLeaderStyle
  3
ACDB_MLEADERSTYLE_CLASS
 90
     4095
280
     0
281
     0
  0
CLASS
  1
DICTIONARYVAR
  2
AcDbDictionaryVar
  3
ObjectDBX Classes
 90
        0
280
     0
281
     0
  0
CLASS
  1
DIMASSOC
  2
AcDbDimAssoc
  3
"AcDbDimAssoc|Product Desc:     AcDim ARX App For Dimension|Company:          Autodesk, Inc.|WEB Address:      www.autodesk.com"
 90
        0
280
     0
281
     0
  0
ENDSEC
  0
SECTION
  2
TABLES
  0
TABLE
  2
VPORT
  5
8
330
0
100
AcDbSymbolTable
 70
     1
  0
VPORT
  5
29
330
8
100
AcDbSymbolTableRecord
100
AcDbViewportTableRecord
  2
*Active
 70
     0
 10
0.0
 20
0.0
 11
1.0
 21
1.0
 12
-16.93075809232724
 22
-10.79840369440587
 13
0.0
 23
0.0
 14
10.0
 24
10.0
 15
10.0
 25
10.0
 16
0.0
 26
0.0
 36
1.0
 17
0.0
 27
0.0
 37
0.0
 40
79.91374353658797
 41
2.05607476635514
 42
50.0
 43
0.0
 44
0.0
 50
0.0
 51
0.0
 71
    16
 72
  2000
 73
     1
 74
     3
 75
     0
 76
     0
 77
     0
 78
     0
281
     0
 65
     1
110
0.0
120
0.0
130
0.0
111
1.0
121
0.0
131
0.0
112
0.0
122
1.0
132
0.0
 79
     0
146
0.0
  0
ENDTAB
  0
TABLE
  2
LTYPE
  5
5
330
0
100
AcDbSymbolTable
 70
     6
  0
LTYPE
  5
14
330
5
100
AcDbSymbolTableRecord
100
AcDbLinetypeTableRecord
  2
ByBlock
 70
     0
  3

 72
    65
 73
     0
 40
0.0
  0
LTYPE
  5
15
330
5
100
AcDbSymbolTableRecord
100
AcDbLinetypeTableRecord
  2
ByLayer
 70
     0
  3

 72
    65
 73
     0
 40
0.0
  0
LTYPE
  5
16
330
5
100
AcDbSymbolTableRecord
100
AcDbLinetypeTableRecord
  2
Continuous
 70
     0
  3
Solid line
 72
    65
 73
     0
 40
0.0
  0
LTYPE
  5
6A
330
5
100
AcDbSymbolTableRecord
100
AcDbLinetypeTableRecord
  2
HIDDEN
 70
     0
  3
Hidden __ __ __ __ __ __ __ __ __ __ __ __ __ __
 72
    65
 73
     2
 40
1.905
 49
1.27
 74
     0
 49
-0.635
 74
     0
  0
LTYPE
  5
6B
330
5
100
AcDbSymbolTableRecord
100
AcDbLinetypeTableRecord
  2
PHANTOM
 70
     0
  3
Phantom ______  __  __  ______  __  __  ______
 72
    65
 73
     6
 40
12.7
 49
6.35
 74
     0
 49
-1.27
 74
     0
 49
1.27
 74
     0
 49
-1.27
 74
     0
 49
1.27
 74
     0
 49
-1.27
 74
     0
  0
LTYPE
  5
6C
330
5
100
AcDbSymbolTableRecord
100
AcDbLinetypeTableRecord
  2
CENTER
 70
     0
  3
Center ____ _ ____ _ ____ _ ____ _ ____ _ ____
 72
    65
 73
     4
 40
10.16
 49
6.35
 74
     0
 49
-1.27
 74
     0
 49
1.27
 74
     0
 49
-1.27
 74
     0
  0
LTYPE
  5
6D
330
5
100
AcDbSymbolTableRecord
100
AcDbLinetypeTableRecord
  2
CENTERX2
 70
     0
  3
Center (2x) ________  __  ________  __  _____
 72
    65
 73
     4
 40
20.32
 49
12.7
 74
     0
 49
-2.54
 74
     0
 49
2.54
 74
     0
 49
-2.54
 74
     0
  0
LTYPE
  5
6E
330
5
100
AcDbSymbolTableRecord
100
AcDbLinetypeTableRecord
  2
DOT2
 70
     0
  3
Dot (.5x) ........................................
 72
    65
 73
     2
 40
0.635
 49
0.0
 74
     0
 49
-0.635
 74
     0
  0
ENDTAB
  0
TABLE
  2
LAYER
  5
2
102
{ACAD_XDICTIONARY
360
16E
102
}
330
0
100
AcDbSymbolTable
 70
    18
  0
LAYER
  5
10
330
2
100
AcDbSymbolTableRecord
100
AcDbLayerTableRecord
  2
0
 70
     0
 62
     7
  6
Continuous
370
    -3
390
F
  0
LAYER
  5
6F
330
2
100
AcDbSymbolTableRecord
100
AcDbLayerTableRecord
  2
FORMAT
 70
     0
 62
     2
  6
Continuous
370
    -3
390
F
  0
LAYER
  5
70
330
2
100
AcDbSymbolTableRecord
100
AcDbLayerTableRecord
  2
외형선
 70
     0
 62
     4
  6
Continuous
370
    30
390
F
  0
LAYER
  5
71
330
2
100
AcDbSymbolTableRecord
100
AcDbLayerTableRecord
  2
숨은선
 70
     0
 62
     2
  6
HIDDEN
370
    15
390
F
  0
LAYER
  5
72
330
2
100
AcDbSymbolTableRecord
100
AcDbLayerTableRecord
  2
중심선
 70
     0
 62
     1
  6
CENTERX2
370
    -3
390
F
  0
LAYER
  5
73
330
2
100
AcDbSymbolTableRecord
100
AcDbLayerTableRecord
  2
파단선
 70
     0
 62
     4
  6
Continuous
370
    -3
390
F
  0
LAYER
  5
74
330
2
100
AcDbSymbolTableRecord
100
AcDbLayerTableRecord
  2
해칭선
 70
     0
 62
   100
  6
Continuous
370
    -3
390
F
  0
LAYER
  5
75
330
2
100
AcDbSymbolTableRecord
100
AcDbLayerTableRecord
  2
가는실선
 70
     0
 62
     4
  6
Continuous
370
    -3
390
F
  0
LAYER
  5
76
330
2
100
AcDbSymbolTableRecord
100
AcDbLayerTableRecord
  2
치수_보조선
 70
     0
 62
     4
  6
Continuous
370
    -3
390
F
  0
LAYER
  5
77
330
2
100
AcDbSymbolTableRecord
100
AcDbLayerTableRecord
  2
치수문자_일반주서
 70
     0
 62
     7
  6
Continuous
370
    15
390
F
  0
LAYER
  5
78
330
2
100
AcDbSymbolTableRecord
100
AcDbLayerTableRecord
  2
개별주서
 70
     0
 62
   100
  6
Continuous
370
    30
390
F
  0
LAYER
  5
79
330
2
100
AcDbSymbolTableRecord
100
AcDbLayerTableRecord
  2
중간선
 70
     0
 62
     2
  6
Continuous
370
    15
390
F
  0
LAYER
  5
7A
330
2
100
AcDbSymbolTableRecord
100
AcDbLayerTableRecord
  2
윤곽선
 70
     0
 62
     3
  6
Continuous
370
    40
390
F
  0
LAYER
  5
7B
330
2
100
AcDbSymbolTableRecord
100
AcDbLayerTableRecord
  2
중심마크
 70
     0
 62
   100
  6
Continuous
370
    30
390
F
  0
LAYER
  5
7C
330
2
100
AcDbSymbolTableRecord
100
AcDbLayerTableRecord
  2
가상선
 70
     0
 62
     4
  6
PHANTOM
370
    -3
390
F
  0
LAYER
  5
7D
330
2
100
AcDbSymbolTableRecord
100
AcDbLayerTableRecord
  2
특수지정선
 70
     0
 62
     5
  6
CENTERX2
370
    60
390
F
  0
LAYER
  5
7E
330
2
100
AcDbSymbolTableRecord
100
AcDbLayerTableRecord
  2
참조1
 70
     0
 62
    -4
  6
Continuous
370
    -3
390
F
  0
LAYER
  5
12A
330
2
100
AcDbSymbolTableRecord
100
AcDbLayerTableRecord
  2
Defpoints
 70
     0
 62
     7
  6
Continuous
290
     0
370
    -3
390
F
  0
ENDTAB
  0
TABLE
  2
STYLE
  5
3
330
0
100
AcDbSymbolTable
 70
     2
  0
STYLE
  5
11
330
3
100
AcDbSymbolTableRecord
100
AcDbTextStyleTableRecord
  2
Standard
 70
     0
 40
0.0
 41
1.0
 50
0.0
 71
     0
 42
3.5
  3
txt
  4

  0
STYLE
  5
94
330
3
100
AcDbSymbolTableRecord
100
AcDbTextStyleTableRecord
  2
SLDTEXTSTYLE0
 70
     0
 40
0.0
 41
0.75
 50
0.0
 71
     0
 42
3.5
  3
TXT
  4

  0
ENDTAB
  0
TABLE
  2
VIEW
  5
6
330
0
100
AcDbSymbolTable
 70
     0
  0
ENDTAB
  0
TABLE
  2
UCS
  5
7
330
0
100
AcDbSymbolTable
 70
     0
  0
ENDTAB
  0
TABLE
  2
APPID
  5
9
330
0
100
AcDbSymbolTable
 70
     3
  0
APPID
  5
12
330
9
100
AcDbSymbolTableRecord
100
AcDbRegAppTableRecord
  2
ACAD
 70
     0
  0
APPID
  5
132
330
9
100
AcDbSymbolTableRecord
100
AcDbRegAppTableRecord
  2
PE_URL
 70
     0
  0
APPID
  5
133
330
9
100
AcDbSymbolTableRecord
100
AcDbRegAppTableRecord
  2
ACAD_DSTYLE_DIMRADIAL_EXTENSION
 70
     0
  0
ENDTAB
  0
TABLE
  2
DIMSTYLE
  5
A
330
0
100
AcDbSymbolTable
 70
     3
100
AcDbDimStyleTable
  0
DIMSTYLE
105
27
330
A
100
AcDbSymbolTableRecord
100
AcDbDimStyleTableRecord
  2
ISO-25
 70
     0
 41
2.5
 42
0.625
 43
3.75
 44
1.25
 73
     0
 74
     0
 77
     1
 78
     8
140
2.5
141
2.5
143
0.03937007874016
147
0.625
171
     3
172
     1
178
     0
271
     2
272
     2
274
     3
278
    44
283
     0
284
     8
340
11
  0
DIMSTYLE
105
CA
102
{ACAD_REACTORS
330
C9
330
D7
330
E4
330
152
330
EE
102
}
330
A
100
AcDbSymbolTableRecord
100
AcDbDimStyleTableRecord
  2
SLDDIMSTYLE0
 70
     0
 41
3.302
 44
0.0
 45
0.000000001
 73
     0
 74
     0
 77
     1
 78
    12
 79
     3
140
3.5
147
0.875
172
     1
173
     1
178
     0
271
     2
272
     2
276
     2
284
    12
289
     0
340
94
  0
DIMSTYLE
105
EF
102
{ACAD_REACTORS
330
162
330
1B9
102
}
330
A
100
AcDbSymbolTableRecord
100
AcDbDimStyleTableRecord
  2
SLDDIMSTYLE1
 70
     0
 41
3.302
 44
0.0
 45
0.000000001
 73
     0
 74
     0
 77
     1
 78
    12
 79
     3
140
3.5
147
0.875
173
     1
178
     0
271
     2
272
     2
276
     2
284
    12
340
94
  0
ENDTAB
  0
TABLE
  2
BLOCK_RECORD
  5
1
330
0
100
AcDbSymbolTable
 70
    13
  0
BLOCK_RECORD
  5
1F
330
1
100
AcDbSymbolTableRecord
100
AcDbBlockTableRecord
  2
*Model_Space
340
22
  0
BLOCK_RECORD
  5
1B
330
1
100
AcDbSymbolTableRecord
100
AcDbBlockTableRecord
  2
*Paper_Space
340
1E
  0
BLOCK_RECORD
  5
23
330
1
100
AcDbSymbolTableRecord
100
AcDbBlockTableRecord
  2
*Paper_Space0
340
26
  0
BLOCK_RECORD
  5
7F
330
1
100
AcDbSymbolTableRecord
100
AcDbBlockTableRecord
  2
블럭10
340
0
102
{BLKREFS
331
C2
102
}
  0
BLOCK_RECORD
  5
CB
330
1
100
AcDbSymbolTableRecord
100
AcDbBlockTableRecord
  2
_D
340
0
  0
BLOCK_RECORD
  5
D8
330
1
100
AcDbSymbolTableRecord
100
AcDbBlockTableRecord
  2
_D_1
340
0
  0
BLOCK_RECORD
  5
E5
330
1
100
AcDbSymbolTableRecord
100
AcDbBlockTableRecord
  2
_D_2
340
0
  0
BLOCK_RECORD
  5
F0
330
1
100
AcDbSymbolTableRecord
100
AcDbBlockTableRecord
  2
_D_3
340
0
  0
BLOCK_RECORD
  5
100
330
1
100
AcDbSymbolTableRecord
100
AcDbBlockTableRecord
  2
SW_DOWELSYMBOL_0
340
0
102
{BLKREFS
331
106
102
}
  0
BLOCK_RECORD
  5
163
330
1
100
AcDbSymbolTableRecord
100
AcDbBlockTableRecord
  2
*D8
340
0
  0
BLOCK_RECORD
  5
172
330
1
100
AcDbSymbolTableRecord
100
AcDbBlockTableRecord
  2
*D9
340
0
  0
BLOCK_RECORD
  5
185
330
1
100
AcDbSymbolTableRecord
100
AcDbBlockTableRecord
  2
*D10
340
0
  0
BLOCK_RECORD
  5
194
330
1
100
AcDbSymbolTableRecord
100
AcDbBlockTableRecord
  2
*D11
340
0
  0
BLOCK_RECORD
  5
1BC
330
1
100
AcDbSymbolTableRecord
100
AcDbBlockTableRecord
  2
*D12
340
0
  0
ENDTAB
  0
ENDSEC
  0
SECTION
  2
BLOCKS
  0
BLOCK
  5
20
330
1F
100
AcDbEntity
  8
0
100
AcDbBlockBegin
  2
*Model_Space
 70
     0
 10
0.0
 20
0.0
 30
0.0
  3
*Model_Space
  1

  0
ENDBLK
  5
21
330
1F
100
AcDbEntity
  8
0
100
AcDbBlockEnd
  0
BLOCK
  5
1C
330
1B
100
AcDbEntity
 67
     1
  8
0
100
AcDbBlockBegin
  2
*Paper_Space
 70
     0
 10
0.0
 20
0.0
 30
0.0
  3
*Paper_Space
  1

  0
ENDBLK
  5
1D
330
1B
100
AcDbEntity
 67
     1
  8
0
100
AcDbBlockEnd
  0
BLOCK
  5
24
330
23
100
AcDbEntity
  8
0
100
AcDbBlockBegin
  2
*Paper_Space0
 70
     0
 10
0.0
 20
0.0
 30
0.0
  3
*Paper_Space0
  1

  0
ENDBLK
  5
25
330
23
100
AcDbEntity
  8
0
100
AcDbBlockEnd
  0
BLOCK
  5
80
330
7F
100
AcDbEntity
  8
0
100
AcDbBlockBegin
  2
블럭10
 70
     2
 10
0.0
 20
0.0
 30
0.0
  3
블럭10
  1

  0
ELLIPSE
  5
82
330
7F
100
AcDbEntity
  8
중심선
100
AcDbEllipse
 10
20.54032771741204
 20
12.0471743016438
 30
0.0
 11
6.600054785286829
 21
-1.261213355974178E-13
 31
0.0
210
0.0
220
0.0
230
1.0
 40
0.636358354079598
 41
0.9219305317359503
 42
6.513795318482858
  0
ELLIPSE
  5
83
330
7F
100
AcDbEntity
  8
중심선
100
AcDbEllipse
 10
20.54032771746488
 20
12.04717430159265
 30
0.0
 11
3.960054785062283
 21
1.540847449632565E-10
 31
0.0
210
0.0
220
0.0
230
1.0
 40
0.3939339440162632
 41
1.131841032648279
 42
5.62031148352944
  0
LINE
  5
84
330
7F
100
AcDbEntity
  8
중심선
100
AcDbLine
 10
2.268634060543552
 20
16.24717430164393
 30
0.0
 11
5.714909304380834
 21
16.24717430164393
 31
0.0
  0
LINE
  5
85
330
7F
100
AcDbEntity
  8
중심선
100
AcDbLine
 10
5.245725140726316
 20
7.84717430164391
 30
0.0
 11
8.692000384563599
 21
7.84717430164391
 31
0.0
  0
LINE
  5
86
330
7F
100
AcDbEntity
  8
중심선
100
AcDbLine
 10
15.74043728645272
 20
16.24717430164393
 30
0.0
 11
8.692000384563599
 21
7.84717430164391
 31
0.0
  0
LINE
  5
87
330
7F
100
AcDbEntity
  8
중심선
100
AcDbLine
 10
0.1404042013395286
 20
13.71084872107135
 30
0.0
 11
3.58671253028996
 21
13.71088815037384
 31
0.0
  0
LINE
  5
88
330
7F
100
AcDbEntity
  8
중심선
100
AcDbLine
 10
2.750260043222114
 20
10.84717430164391
 30
0.0
 11
6.196535287059397
 21
10.84717430164391
 31
0.0
  0
LINE
  5
89
330
7F
100
AcDbEntity
  8
중심선
100
AcDbLine
 10
12.29416204261559
 20
16.24717430164393
 30
0.0
 11
5.245725140726316
 21
7.84717430164391
 31
0.0
  0
LINE
  5
8A
330
7F
100
AcDbEntity
  8
중심선
100
AcDbLine
 10
10.72767329541681
 20
16.24717430164393
 30
0.0
 11
6.196535287059397
 21
10.84717430164391
 31
0.0
  0
LINE
  5
8B
330
7F
100
AcDbEntity
  8
중심선
100
AcDbLine
 10
7.28139805157953
 20
16.24717430164393
 30
0.0
 11
2.750260043222114
 21
10.84717430164391
 31
0.0
  0
LINE
  5
8C
330
7F
100
AcDbEntity
  8
중심선
100
AcDbLine
 10
5.714909304380834
 20
16.24717430164393
 30
0.0
 11
3.58671253028996
 21
13.71088815037384
 31
0.0
  0
LINE
  5
8D
330
7F
100
AcDbEntity
  8
중심선
100
AcDbLine
 10
2.268634060543552
 20
16.24717430164393
 30
0.0
 11
0.1404042013395286
 21
13.71084872107135
 31
0.0
  0
LINE
  5
8E
330
7F
100
AcDbEntity
  8
중심선
100
AcDbLine
 10
7.28139805157953
 20
16.24717430164393
 30
0.0
 11
10.72767329541681
 21
16.24717430164393
 31
0.0
  0
LINE
  5
8F
330
7F
100
AcDbEntity
  8
중심선
100
AcDbLine
 10
12.29416204261559
 20
16.24717430164393
 30
0.0
 11
15.74043728645272
 21
16.24717430164393
 31
0.0
  0
LINE
  5
90
330
7F
100
AcDbEntity
  8
중심선
100
AcDbLine
 10
19.22036997980202
 20
11.08717430171403
 30
0.0
 11
23.66174974927406
 21
11.08717430171406
 31
0.0
  0
LINE
  5
91
330
7F
100
AcDbEntity
  8
중심선
100
AcDbLine
 10
19.22039502424796
 20
13.00717430171391
 30
0.0
 11
19.22036997980202
 21
11.08717430171403
 31
0.0
  0
LINE
  5
92
330
7F
100
AcDbEntity
  8
중심선
100
AcDbLine
 10
19.22039502424796
 20
13.00717430171391
 30
0.0
 11
26.96566020931264
 21
13.00717430171391
 31
0.0
  0
LINE
  5
93
330
7F
100
AcDbEntity
  8
중심선
100
AcDbLine
 10
22.22332737316547
 20
13.45928029700563
 30
0.0
 11
24.52862924686651
 21
15.39360700705356
 31
0.0
  0
ATTDEF
  5
95
330
7F
100
AcDbEntity
  8
FORMAT
 62
     2
100
AcDbText
 10
-16.11926103943555
 20
2.075366912832191
 30
0.0
 40
4.233333333333333
  1
SEME0108003E [ 4 FLUTE ]
 41
0.75
  7
SLDTEXTSTYLE0
 11
-16.11926103943555
 21
-0.0412997538344756
 31
0.0
100
AcDbAttributeDefinition
  3

  2
AUTOATTR0
 70
     0
 74
     1
  0
ENDBLK
  5
81
330
7F
100
AcDbEntity
  8
0
100
AcDbBlockEnd
  0
BLOCK
  5
CC
330
CB
100
AcDbEntity
  8
0
100
AcDbBlockBegin
  2
_D
 70
     0
 10
0.0
 20
0.0
 30
0.0
  3
_D
  1

  0
LINE
  5
CE
330
CB
100
AcDbEntity
  8
치수문자_일반주서
 62
     0
370
    -2
100
AcDbLine
 10
30.06249999999999
 20
3.999999999999999
 30
0.0
 11
39.99999999999997
 21
4.000000000000036
 31
0.0
  0
LINE
  5
CF
330
CB
100
AcDbEntity
  8
치수문자_일반주서
 62
     0
370
    -2
100
AcDbLine
 10
30.06249999999999
 20
-4.000000000000002
 30
0.0
 11
40.0
 21
-3.999999999999966
 31
0.0
  0
LINE
  5
D0
330
CB
100
AcDbEntity
  8
치수문자_일반주서
 62
     0
370
    -2
100
AcDbLine
 10
39.99999999999997
 20
4.000000000000036
 30
0.0
 11
39.99999999999992
 21
16.72900000000006
 31
0.0
  0
LINE
  5
D1
330
CB
100
AcDbEntity
  8
치수문자_일반주서
 62
     0
370
    -2
100
AcDbLine
 10
39.99999999999997
 20
4.000000000000036
 30
0.0
 11
40.0
 21
-3.999999999999966
 31
0.0
  0
LINE
  5
D2
330
CB
100
AcDbEntity
  8
치수문자_일반주서
 62
     0
370
    -2
100
AcDbLine
 10
39.99999999999996
 20
7.302000000000035
 30
0.0
 11
39.99999999999994
 21
10.60400000000003
 31
0.0
  0
LINE
  5
D3
330
CB
100
AcDbEntity
  8
치수문자_일반주서
 62
     0
370
    -2
100
AcDbLine
 10
40.00000000000001
 20
-7.301999999999966
 30
0.0
 11
40.00000000000003
 21
-10.60399999999997
 31
0.0
  0
SOLID
  5
D4
330
CB
100
AcDbEntity
  8
치수문자_일반주서
 62
     0
100
AcDbTrace
 10
39.44966666666662
 20
7.302000000000033
 30
0.0
 11
40.55033333333329
 21
7.302000000000037
 31
0.0
 12
39.99999999999997
 22
4.000000000000036
 32
0.0
 13
39.99999999999997
 23
4.000000000000036
 33
0.0
  0
SOLID
  5
D5
330
CB
100
AcDbEntity
  8
치수문자_일반주서
 62
     0
100
AcDbTrace
 10
40.55033333333335
 20
-7.301999999999964
 30
0.0
 11
39.44966666666668
 21
-7.301999999999968
 31
0.0
 12
40.0
 22
-3.999999999999966
 32
0.0
 13
40.0
 23
-3.999999999999966
 33
0.0
  0
MTEXT
  5
D6
330
CB
100
AcDbEntity
  8
치수문자_일반주서
 62
     0
100
AcDbMText
 10
35.62499999999994
 20
13.66650000000005
 30
0.0
 40
3.5
 41
0.0
 71
     2
 72
     1
  1
\A1;%%c8
  7
SLDTEXTSTYLE0
 11
-3.552713678800501E-15
 21
1.0
 31
0.0
 73
     1
 44
1.0
  0
POINT
  5
1B2
330
CB
100
AcDbEntity
  8
Defpoints
 62
     0
100
AcDbPoint
 10
29.99999999999999
 20
3.999999999999999
 30
0.0
  0
POINT
  5
1B3
330
CB
100
AcDbEntity
  8
Defpoints
 62
     0
100
AcDbPoint
 10
29.99999999999999
 20
-4.000000000000002
 30
0.0
  0
POINT
  5
1B4
330
CB
100
AcDbEntity
  8
Defpoints
 62
     0
100
AcDbPoint
 10
39.99999999999999
 20
-3.999999999999964
 30
0.0
  0
ENDBLK
  5
CD
330
CB
100
AcDbEntity
  8
0
100
AcDbBlockEnd
  0
BLOCK
  5
D9
330
D8
100
AcDbEntity
  8
0
100
AcDbBlockBegin
  2
_D_1
 70
     0
 10
0.0
 20
0.0
 30
0.0
  3
_D_1
  1

  0
LINE
  5
DB
330
D8
100
AcDbEntity
  8
치수문자_일반주서
 62
     0
370
    -2
100
AcDbLine
 10
-69.26250000000002
 20
4.000000000000006
 30
0.0
 11
-80.00000000000003
 21
3.999999999999964
 31
0.0
  0
LINE
  5
DC
330
D8
100
AcDbEntity
  8
치수문자_일반주서
 62
     0
370
    -2
100
AcDbLine
 10
-69.26250000000002
 20
-4.000000000000001
 30
0.0
 11
-80.0
 21
-4.000000000000043
 31
0.0
  0
LINE
  5
DD
330
D8
100
AcDbEntity
  8
치수문자_일반주서
 62
     0
370
    -2
100
AcDbLine
 10
-80.00000000000003
 20
3.999999999999964
 30
0.0
 11
-80.00000000000007
 21
16.72899999999997
 31
0.0
  0
LINE
  5
DE
330
D8
100
AcDbEntity
  8
치수문자_일반주서
 62
     0
370
    -2
100
AcDbLine
 10
-80.00000000000003
 20
3.999999999999964
 30
0.0
 11
-80.0
 21
-4.000000000000043
 31
0.0
  0
LINE
  5
DF
330
D8
100
AcDbEntity
  8
치수문자_일반주서
 62
     0
370
    -2
100
AcDbLine
 10
-80.00000000000004
 20
7.301999999999964
 30
0.0
 11
-80.00000000000006
 21
10.60399999999996
 31
0.0
  0
LINE
  5
E0
330
D8
100
AcDbEntity
  8
치수문자_일반주서
 62
     0
370
    -2
100
AcDbLine
 10
-79.99999999999999
 20
-7.302000000000042
 30
0.0
 11
-79.99999999999997
 21
-10.60400000000004
 31
0.0
  0
SOLID
  5
E1
330
D8
100
AcDbEntity
  8
치수문자_일반주서
 62
     0
100
AcDbTrace
 10
-80.55033333333337
 20
7.301999999999962
 30
0.0
 11
-79.44966666666672
 21
7.301999999999966
 31
0.0
 12
-80.00000000000003
 22
3.999999999999964
 32
0.0
 13
-80.00000000000003
 23
3.999999999999964
 33
0.0
  0
SOLID
  5
E2
330
D8
100
AcDbEntity
  8
치수문자_일반주서
 62
     0
100
AcDbTrace
 10
-79.44966666666666
 20
-7.30200000000004
 30
0.0
 11
-80.55033333333331
 21
-7.302000000000044
 31
0.0
 12
-80.0
 22
-4.000000000000043
 32
0.0
 13
-80.0
 23
-4.000000000000043
 33
0.0
  0
MTEXT
  5
E3
330
D8
100
AcDbEntity
  8
치수문자_일반주서
 62
     0
100
AcDbMText
 10
-84.37500000000006
 20
13.66649999999996
 30
0.0
 40
3.5
 41
0.0
 71
     2
 72
     1
  1
\A1;%%c8
  7
SLDTEXTSTYLE0
 11
-3.552713678800499E-15
 21
1.0
 31
0.0
 73
     1
 44
1.0
  0
POINT
  5
1AF
330
D8
100
AcDbEntity
  8
Defpoints
 62
     0
100
AcDbPoint
 10
-69.20000000000002
 20
4.000000000000006
 30
0.0
  0
POINT
  5
1B0
330
D8
100
AcDbEntity
  8
Defpoints
 62
     0
100
AcDbPoint
 10
-69.20000000000002
 20
-4.000000000000001
 30
0.0
  0
POINT
  5
1B1
330
D8
100
AcDbEntity
  8
Defpoints
 62
     0
100
AcDbPoint
 10
-80.0
 20
-4.000000000000041
 30
0.0
  0
ENDBLK
  5
DA
330
D8
100
AcDbEntity
  8
0
100
AcDbBlockEnd
  0
BLOCK
  5
E6
330
E5
100
AcDbEntity
  8
0
100
AcDbBlockBegin
  2
_D_2
 70
     0
 10
0.0
 20
0.0
 30
0.0
  3
_D_2
  1

  0
LINE
  5
E8
330
E5
100
AcDbEntity
  8
치수문자_일반주서
 62
     0
370
    -2
100
AcDbLine
 10
29.99999999999999
 20
4.062499999999998
 30
0.0
 11
29.99999999999999
 21
14.0
 31
0.0
  0
LINE
  5
E9
330
E5
100
AcDbEntity
  8
치수문자_일반주서
 62
     0
370
    -2
100
AcDbLine
 10
10.0
 20
4.005440435551827
 30
0.0
 11
10.0
 21
14.0
 31
0.0
  0
LINE
  5
EA
330
E5
100
AcDbEntity
  8
치수문자_일반주서
 62
     0
370
    -2
100
AcDbLine
 10
26.69799999999999
 20
14.0
 30
0.0
 11
13.302
 21
14.0
 31
0.0
  0
SOLID
  5
EB
330
E5
100
AcDbEntity
  8
치수문자_일반주서
 62
     0
100
AcDbTrace
 10
26.69799999999999
 20
13.44966666666667
 30
0.0
 11
26.69799999999999
 21
14.55033333333334
 31
0.0
 12
29.99999999999999
 22
14.0
 32
0.0
 13
29.99999999999999
 23
14.0
 33
0.0
  0
SOLID
  5
EC
330
E5
100
AcDbEntity
  8
치수문자_일반주서
 62
     0
100
AcDbTrace
 10
13.302
 20
14.55033333333334
 30
0.0
 11
13.302
 21
13.44966666666667
 31
0.0
 12
10.0
 22
14.0
 32
0.0
 13
10.0
 23
14.0
 33
0.0
  0
MTEXT
  5
ED
330
E5
100
AcDbEntity
  8
치수문자_일반주서
 62
     0
100
AcDbMText
 10
19.99999999999999
 20
18.375
 30
0.0
 40
3.5
 41
0.0
 71
     2
 72
     1
  1
\A1;20
  7
SLDTEXTSTYLE0
 73
     1
 44
1.0
  0
POINT
  5
1A9
330
E5
100
AcDbEntity
  8
Defpoints
 62
     0
100
AcDbPoint
 10
29.99999999999999
 20
3.999999999999999
 30
0.0
  0
POINT
  5
1AA
330
E5
100
AcDbEntity
  8
Defpoints
 62
     0
100
AcDbPoint
 10
10.0
 20
3.942940435551827
 30
0.0
  0
POINT
  5
1AB
330
E5
100
AcDbEntity
  8
Defpoints
 62
     0
100
AcDbPoint
 10
10.0
 20
14.0
 30
0.0
  0
ENDBLK
  5
E7
330
E5
100
AcDbEntity
  8
0
100
AcDbBlockEnd
  0
BLOCK
  5
F1
330
F0
100
AcDbEntity
  8
0
100
AcDbBlockBegin
  2
_D_3
 70
     0
 10
0.0
 20
0.0
 30
0.0
  3
_D_3
  1

  0
LINE
  5
F3
330
F0
100
AcDbEntity
  8
치수문자_일반주서
 62
     0
370
    -2
100
AcDbLine
 10
29.99999999999999
 20
4.062499999999998
 30
0.0
 11
29.99999999999999
 21
24.0
 31
0.0
  0
LINE
  5
F4
330
F0
100
AcDbEntity
  8
치수문자_일반주서
 62
     0
370
    -2
100
AcDbLine
 10
-70.00000000000003
 20
3.262500000000006
 30
0.0
 11
-70.00000000000003
 21
24.0
 31
0.0
  0
LINE
  5
F5
330
F0
100
AcDbEntity
  8
치수문자_일반주서
 62
     0
370
    -2
100
AcDbLine
 10
26.69799999999999
 20
24.0
 30
0.0
 11
-66.69800000000004
 21
24.0
 31
0.0
  0
SOLID
  5
F6
330
F0
100
AcDbEntity
  8
치수문자_일반주서
 62
     0
100
AcDbTrace
 10
26.69799999999999
 20
23.44966666666667
 30
0.0
 11
26.69799999999999
 21
24.55033333333334
 31
0.0
 12
29.99999999999999
 22
24.0
 32
0.0
 13
29.99999999999999
 23
24.0
 33
0.0
  0
SOLID
  5
F7
330
F0
100
AcDbEntity
  8
치수문자_일반주서
 62
     0
100
AcDbTrace
 10
-66.69800000000004
 20
24.55033333333334
 30
0.0
 11
-66.69800000000004
 21
23.44966666666667
 31
0.0
 12
-70.00000000000003
 22
24.0
 32
0.0
 13
-70.00000000000003
 23
24.0
 33
0.0
  0
MTEXT
  5
F8
330
F0
100
AcDbEntity
  8
치수문자_일반주서
 62
     0
100
AcDbMText
 10
-20.00000000000003
 20
28.375
 30
0.0
 40
3.5
 41
0.0
 71
     2
 72
     1
  1
\A1;100
  7
SLDTEXTSTYLE0
 73
     1
 44
1.0
  0
POINT
  5
1AC
330
F0
100
AcDbEntity
  8
Defpoints
 62
     0
100
AcDbPoint
 10
29.99999999999999
 20
3.999999999999999
 30
0.0
  0
POINT
  5
1AD
330
F0
100
AcDbEntity
  8
Defpoints
 62
     0
100
AcDbPoint
 10
-70.00000000000003
 20
3.200000000000006
 30
0.0
  0
POINT
  5
1AE
330
F0
100
AcDbEntity
  8
Defpoints
 62
     0
100
AcDbPoint
 10
-70.00000000000003
 20
24.0
 30
0.0
  0
ENDBLK
  5
F2
330
F0
100
AcDbEntity
  8
0
100
AcDbBlockEnd
  0
BLOCK
  5
101
330
100
100
AcDbEntity
  8
0
100
AcDbBlockBegin
  2
SW_DOWELSYMBOL_0
 70
     0
 10
0.0
 20
0.0
 30
0.0
  3
SW_DOWELSYMBOL_0
  1

  0
CIRCLE
  5
103
330
100
100
AcDbEntity
  8
해칭선
 62
     0
100
AcDbCircle
 10
0.0
 20
0.0
 30
0.0
 40
3.000000000000001
  0
HATCH
  5
104
330
100
100
AcDbEntity
  8
0
  6
Continuous
 62
     0
370
     0
100
AcDbHatch
 10
0.0
 20
0.0
 30
0.0
210
0.0
220
0.0
230
1.0
  2
SOLID
 70
     1
 71
     0
 91
        1
 92
        0
 93
        3
 72
     2
 10
0.0
 20
0.0
 40
3.000000000000001
 50
0.0
 51
90.0
 73
     1
 72
     1
 10
0.0
 20
3.000000000000001
 11
0.0
 21
0.0
 72
     1
 10
0.0
 20
0.0
 11
3.000000000000003
 21
0.0
 97
        0
 75
     0
 76
     1
 98
        1
 10
0.0
 20
0.0
  0
HATCH
  5
105
330
100
100
AcDbEntity
  8
0
  6
Continuous
 62
     0
370
     0
100
AcDbHatch
 10
0.0
 20
0.0
 30
0.0
210
0.0
220
0.0
230
1.0
  2
SOLID
 70
     1
 71
     0
 91
        1
 92
        0
 93
        3
 72
     2
 10
0.0
 20
0.0
 40
3.000000000000001
 50
180.0
 51
270.0000000000008
 73
     1
 72
     1
 10
0.0
 20
-3.000000000000001
 11
0.0
 21
0.0
 72
     1
 10
0.0
 20
0.0
 11
-3.000000000000003
 21
0.0
 97
        0
 75
     0
 76
     1
 98
        1
 10
0.0
 20
0.0
  0
ENDBLK
  5
102
330
100
100
AcDbEntity
  8
0
100
AcDbBlockEnd
  0
BLOCK
  5
164
330
163
100
AcDbEntity
  8
0
100
AcDbBlockBegin
  2
*D8
 70
     1
 10
0.0
 20
0.0
 30
0.0
  3
*D8
  1

  0
LINE
  5
165
330
163
100
AcDbEntity
  8
치수문자_일반주서
 62
     0
370
    -2
100
AcDbLine
 10
12.62717396278132
 20
13.04557445451085
 30
0.0
 11
21.11951954006028
 21
0.0000000000000533
 31
0.0
  0
MTEXT
  5
166
330
163
100
AcDbEntity
  8
치수문자_일반주서
 62
     0
100
AcDbMText
 10
21.05195792753105
 20
4.915330557654589
 30
0.0
 40
3.5
 41
0.0
 71
     5
 72
     1
  1
\A1;R0.1
  7
SLDTEXTSTYLE0
 11
0.5455627707375155
 21
-0.8380699631804049
 31
0.0
 73
     1
 44
1.0
  0
SOLID
  5
167
330
163
100
AcDbEntity
  8
치수문자_일반주서
 62
     0
100
AcDbTrace
 10
13.08839179918493
 20
13.34581583267339
 30
0.0
 11
12.1659561263777
 21
12.7453330763483
 31
0.0
 12
10.82572569380604
 22
15.81288147293254
 32
0.0
 13
10.82572569380604
 23
15.81288147293254
 33
0.0
  0
LINE
  5
168
330
163
100
AcDbEntity
  8
치수문자_일반주서
 62
     0
100
AcDbLine
 10
10.72616941673229
 20
15.89668846925058
 30
0.0
 11
10.81616941673229
 21
15.89668846925058
 31
0.0
  0
LINE
  5
169
330
163
100
AcDbEntity
  8
치수문자_일반주서
 62
     0
100
AcDbLine
 10
10.77116941673229
 20
15.85168846925058
 30
0.0
 11
10.77116941673229
 21
15.94168846925058
 31
0.0
  0
POINT
  5
16A
330
163
100
AcDbEntity
  8
Defpoints
 62
     0
100
AcDbPoint
 10
10.82572569380604
 20
15.81288147293254
 30
0.0
  0
POINT
  5
16B
330
163
100
AcDbEntity
  8
Defpoints
 62
     0
100
AcDbPoint
 10
10.77116941673229
 20
15.89668846925058
 30
0.0
  0
ENDBLK
  5
16C
330
163
100
AcDbEntity
  8
0
100
AcDbBlockEnd
  0
BLOCK
  5
173
330
172
100
AcDbEntity
  8
0
100
AcDbBlockBegin
  2
*D9
 70
     1
 10
0.0
 20
0.0
 30
0.0
  3
*D9
  1

  0
LINE
  5
175
330
172
100
AcDbEntity
  8
치수문자_일반주서
 62
     0
370
    -2
100
AcDbLine
 10
10.9336694167323
 20
21.79496381848847
 30
0.0
 11
20.87116941673229
 21
21.7949638184885
 31
0.0
  0
LINE
  5
176
330
172
100
AcDbEntity
  8
치수문자_일반주서
 62
     0
370
    -2
100
AcDbLine
 10
10.9336694167323
 20
15.79496381848847
 30
0.0
 11
20.87116941673231
 21
15.79496381848851
 31
0.0
  0
LINE
  5
177
330
172
100
AcDbEntity
  8
치수문자_일반주서
 62
     0
370
    -2
100
AcDbLine
 10
20.87116941673229
 20
21.7949638184885
 30
0.0
 11
20.87116941673224
 21
34.52396381848853
 31
0.0
  0
LINE
  5
178
330
172
100
AcDbEntity
  8
치수문자_일반주서
 62
     0
370
    -2
100
AcDbLine
 10
20.87116941673229
 20
21.7949638184885
 30
0.0
 11
20.87116941673231
 21
15.79496381848851
 31
0.0
  0
LINE
  5
179
330
172
100
AcDbEntity
  8
치수문자_일반주서
 62
     0
370
    -2
100
AcDbLine
 10
20.87116941673228
 20
25.0969638184885
 30
0.0
 11
20.87116941673226
 21
28.3989638184885
 31
0.0
  0
LINE
  5
17A
330
172
100
AcDbEntity
  8
치수문자_일반주서
 62
     0
370
    -2
100
AcDbLine
 10
20.87116941673232
 20
12.49296381848851
 30
0.0
 11
20.87116941673233
 21
9.190963818488507
 31
0.0
  0
SOLID
  5
17B
330
172
100
AcDbEntity
  8
치수문자_일반주서
 62
     0
100
AcDbTrace
 10
20.32083608339894
 20
25.0969638184885
 30
0.0
 11
21.42150275006561
 21
25.09696381848851
 31
0.0
 12
20.87116941673229
 22
21.7949638184885
 32
0.0
 13
20.87116941673229
 23
21.7949638184885
 33
0.0
  0
SOLID
  5
17C
330
172
100
AcDbEntity
  8
치수문자_일반주서
 62
     0
100
AcDbTrace
 10
21.42150275006565
 20
12.49296381848851
 30
0.0
 11
20.32083608339898
 21
12.49296381848851
 31
0.0
 12
20.87116941673231
 22
15.79496381848851
 32
0.0
 13
20.87116941673231
 23
15.79496381848851
 33
0.0
  0
MTEXT
  5
17D
330
172
100
AcDbEntity
  8
치수문자_일반주서
 62
     0
100
AcDbMText
 10
16.49616941673225
 20
31.46146381848851
 30
0.0
 40
3.5
 41
0.0
 71
     2
 72
     1
  1
\A1;%%c6
  7
SLDTEXTSTYLE0
 11
-3.552713678800503E-15
 21
1.0
 31
0.0
 73
     1
 44
1.0
  0
POINT
  5
17E
330
172
100
AcDbEntity
  8
Defpoints
 62
     0
100
AcDbPoint
 10
10.8711694167323
 20
21.79496381848847
 30
0.0
  0
POINT
  5
17F
330
172
100
AcDbEntity
  8
Defpoints
 62
     0
100
AcDbPoint
 10
10.8711694167323
 20
15.79496381848847
 30
0.0
  0
POINT
  5
180
330
172
100
AcDbEntity
  8
Defpoints
 62
     0
100
AcDbPoint
 10
20.87116941673231
 20
15.79496381848851
 30
0.0
  0
ENDBLK
  5
174
330
172
100
AcDbEntity
  8
0
100
AcDbBlockEnd
  0
BLOCK
  5
186
330
185
100
AcDbEntity
  8
0
100
AcDbBlockBegin
  2
*D10
 70
     1
 10
0.0
 20
0.0
 30
0.0
  3
*D10
  1

  0
LINE
  5
188
330
185
100
AcDbEntity
  8
치수문자_일반주서
 62
     0
370
    -2
100
AcDbLine
 10
85.43844838706244
 20
9.671570377923736
 30
0.0
 11
95.37594838706241
 21
9.671570377923773
 31
0.0
  0
LINE
  5
189
330
185
100
AcDbEntity
  8
치수문자_일반주서
 62
     0
370
    -2
100
AcDbLine
 10
85.43844838706244
 20
3.671570377923738
 30
0.0
 11
95.37594838706242
 21
3.671570377923775
 31
0.0
  0
LINE
  5
18A
330
185
100
AcDbEntity
  8
치수문자_일반주서
 62
     0
370
    -2
100
AcDbLine
 10
95.37594838706241
 20
9.671570377923773
 30
0.0
 11
95.37594838706237
 21
22.4005703779238
 31
0.0
  0
LINE
  5
18B
330
185
100
AcDbEntity
  8
치수문자_일반주서
 62
     0
370
    -2
100
AcDbLine
 10
95.37594838706241
 20
9.671570377923773
 30
0.0
 11
95.37594838706242
 21
3.671570377923775
 31
0.0
  0
LINE
  5
18C
330
185
100
AcDbEntity
  8
치수문자_일반주서
 62
     0
370
    -2
100
AcDbLine
 10
95.3759483870624
 20
12.97357037792377
 30
0.0
 11
95.37594838706238
 21
16.27557037792377
 31
0.0
  0
LINE
  5
18D
330
185
100
AcDbEntity
  8
치수문자_일반주서
 62
     0
370
    -2
100
AcDbLine
 10
95.37594838706244
 20
0.3695703779237753
 30
0.0
 11
95.37594838706245
 21
-2.932429622076224
 31
0.0
  0
SOLID
  5
18E
330
185
100
AcDbEntity
  8
치수문자_일반주서
 62
     0
100
AcDbTrace
 10
94.82561505372907
 20
12.97357037792377
 30
0.0
 11
95.92628172039572
 21
12.97357037792377
 31
0.0
 12
95.37594838706241
 22
9.671570377923773
 32
0.0
 13
95.37594838706241
 23
9.671570377923773
 33
0.0
  0
SOLID
  5
18F
330
185
100
AcDbEntity
  8
치수문자_일반주서
 62
     0
100
AcDbTrace
 10
95.92628172039576
 20
0.3695703779237766
 30
0.0
 11
94.82561505372911
 21
0.3695703779237741
 31
0.0
 12
95.37594838706242
 22
3.671570377923775
 32
0.0
 13
95.37594838706242
 23
3.671570377923775
 33
0.0
  0
MTEXT
  5
190
330
185
100
AcDbEntity
  8
치수문자_일반주서
 62
     0
100
AcDbMText
 10
91.00094838706238
 20
19.33807037792379
 30
0.0
 40
3.5
 41
0.0
 71
     2
 72
     1
  1
\A1;%%c6
  7
SLDTEXTSTYLE0
 11
-2.368475785867001E-15
 21
1.0
 31
0.0
 73
     1
 44
1.0
  0
POINT
  5
191
330
185
100
AcDbEntity
  8
Defpoints
 62
     0
100
AcDbPoint
 10
85.37594838706244
 20
9.671570377923736
 30
0.0
  0
POINT
  5
192
330
185
100
AcDbEntity
  8
Defpoints
 62
     0
100
AcDbPoint
 10
85.37594838706244
 20
3.671570377923738
 30
0.0
  0
POINT
  5
193
330
185
100
AcDbEntity
  8
Defpoints
 62
     0
100
AcDbPoint
 10
95.37594838706244
 20
3.671570377923775
 30
0.0
  0
ENDBLK
  5
187
330
185
100
AcDbEntity
  8
0
100
AcDbBlockEnd
  0
BLOCK
  5
195
330
194
100
AcDbEntity
  8
0
100
AcDbBlockBegin
  2
*D11
 70
     1
 10
0.0
 20
0.0
 30
0.0
  3
*D11
  1

  0
LINE
  5
197
330
194
100
AcDbEntity
  8
치수문자_일반주서
 62
     0
370
    -2
100
AcDbLine
 10
87.13195293311128
 20
0.9221810139460067
 30
0.0
 11
95.62429851038947
 21
-12.12339344056529
 31
0.0
  0
MTEXT
  5
198
330
194
100
AcDbEntity
  8
치수문자_일반주서
 62
     0
100
AcDbMText
 10
95.55673689786053
 20
-7.208062882910755
 30
0.0
 40
3.5
 41
0.0
 71
     5
 72
     1
  1
\A1;R0.1
  7
SLDTEXTSTYLE0
 11
0.5455627707374655
 21
-0.8380699631804374
 31
0.0
 73
     1
 44
1.0
  0
SOLID
  5
199
330
194
100
AcDbEntity
  8
치수문자_일반주서
 62
     0
100
AcDbTrace
 10
87.59317076951491
 20
1.222422392108525
 30
0.0
 11
86.67073509670765
 21
0.6219396357834883
 31
0.0
 12
85.33050466413617
 22
3.689488032367811
 32
0.0
 13
85.33050466413617
 23
3.689488032367811
 33
0.0
  0
LINE
  5
19A
330
194
100
AcDbEntity
  8
치수문자_일반주서
 62
     0
100
AcDbLine
 10
85.23094838706243
 20
3.773295028685849
 30
0.0
 11
85.32094838706243
 21
3.773295028685849
 31
0.0
  0
LINE
  5
19B
330
194
100
AcDbEntity
  8
치수문자_일반주서
 62
     0
100
AcDbLine
 10
85.27594838706243
 20
3.728295028685849
 30
0.0
 11
85.27594838706243
 21
3.818295028685849
 31
0.0
  0
POINT
  5
19C
330
194
100
AcDbEntity
  8
Defpoints
 62
     0
100
AcDbPoint
 10
85.33050466413617
 20
3.689488032367811
 30
0.0
  0
POINT
  5
19D
330
194
100
AcDbEntity
  8
Defpoints
 62
     0
100
AcDbPoint
 10
85.27594838706243
 20
3.773295028685849
 30
0.0
  0
ENDBLK
  5
196
330
194
100
AcDbEntity
  8
0
100
AcDbBlockEnd
  0
BLOCK
  5
1BD
330
1BC
100
AcDbEntity
  8
0
100
AcDbBlockBegin
  2
*D12
 70
     1
 10
0.0
 20
0.0
 30
0.0
  3
*D12
  1

  0
LINE
  5
1BF
330
1BC
100
AcDbEntity
  8
치수문자_일반주서
 62
     0
370
    -2
100
AcDbLine
 10
31.89660781256067
 20
-6.542518838684188
 30
0.0
 11
43.8397227169204
 21
-22.06373411055281
 31
0.0
  0
MTEXT
  5
1C0
330
1BC
100
AcDbEntity
  8
치수문자_일반주서
 62
     0
100
AcDbMText
 10
43.11871303686428
 20
-16.82223536460567
 30
0.0
 40
3.5
 41
0.0
 71
     5
 72
     1
  1
\A1;R0.3
  7
SLDTEXTSTYLE0
 11
0.6098300423544355
 21
-0.7925322198131679
 31
0.0
 73
     1
 44
1.0
  0
SOLID
  5
1C1
330
1BC
100
AcDbEntity
  8
치수문자_일반주서
 62
     0
100
AcDbTrace
 10
32.33276471086452
 20
-6.206909038708464
 30
0.0
 11
31.46045091425682
 21
-6.878128638659913
 31
0.0
 12
29.88294901270632
 22
-3.925577448861108
 32
0.0
 13
29.88294901270632
 23
-3.925577448861108
 33
0.0
  0
LINE
  5
1C2
330
1BC
100
AcDbEntity
  8
치수문자_일반주서
 62
     0
100
AcDbLine
 10
29.65499999999999
 20
-3.687817782917157
 30
0.0
 11
29.74499999999999
 21
-3.687817782917157
 31
0.0
  0
LINE
  5
1C3
330
1BC
100
AcDbEntity
  8
치수문자_일반주서
 62
     0
100
AcDbLine
 10
29.69999999999999
 20
-3.732817782917157
 30
0.0
 11
29.69999999999999
 21
-3.642817782917157
 31
0.0
  0
POINT
  5
1C4
330
1BC
100
AcDbEntity
  8
Defpoints
 62
     0
100
AcDbPoint
 10
29.88294901270632
 20
-3.925577448861108
 30
0.0
  0
POINT
  5
1C5
330
1BC
100
AcDbEntity
  8
Defpoints
 62
     0
100
AcDbPoint
 10
29.69999999999999
 20
-3.687817782917157
 30
0.0
  0
ENDBLK
  5
1BE
330
1BC
100
AcDbEntity
  8
0
100
AcDbBlockEnd
  0
ENDSEC
  0
SECTION
  2
ENTITIES
  0
LINE
  5
96
330
1F
100
AcDbEntity
  8
0
  6
Continuous
 62
     1
370
    15
100
AcDbLine
 10
11.26826356117164
 20
4.000000000000003
 30
0.0
 11
9.999999999999986
 21
4.000000000000003
 31
0.0
1001
PE_URL
1000

  0
LINE
  5
97
330
1F
100
AcDbEntity
  8
0
  6
Continuous
 62
     1
370
    15
100
AcDbLine
 10
19.71127633915476
 20
-3.999999999999997
 30
0.0
 11
22.15166011266502
 21
-3.999999999999997
 31
0.0
1001
PE_URL
1000

  0
LINE
  5
98
330
1F
100
AcDbEntity
  8
0
  6
Continuous
 62
     1
370
    15
100
AcDbLine
 10
22.15166011266505
 20
4.000000000000003
 30
0.0
 11
19.71127633915484
 21
4.000000000000003
 31
0.0
1001
PE_URL
1000

  0
LINE
  5
99
330
1F
100
AcDbEntity
  8
0
  6
Continuous
 62
     1
370
    15
100
AcDbLine
 10
9.999999999999986
 20
-3.999999999999997
 30
0.0
 11
11.26826356117157
 21
-3.999999999999997
 31
0.0
1001
PE_URL
1000

  0
LINE
  5
9A
330
1F
100
AcDbEntity
  8
외형선
  6
Continuous
370
    15
100
AcDbLine
 10
-69.20000000000002
 20
-3.999999999999997
 30
0.0
 11
9.999999999999986
 21
-3.999999999999997
 31
0.0
  0
LINE
  5
9B
330
1F
100
AcDbEntity
  8
외형선
  6
Continuous
370
    15
100
AcDbLine
 10
9.999999999999986
 20
4.000000000000003
 30
0.0
 11
-69.20000000000002
 21
4.000000000000003
 31
0.0
  0
LINE
  5
9C
330
1F
100
AcDbEntity
  8
외형선
  6
Continuous
370
    15
100
AcDbLine
 10
-69.20000000000002
 20
4.000000000000003
 30
0.0
 11
-70.00000000000003
 21
3.200000000000006
 31
0.0
  0
LINE
  5
9D
330
1F
100
AcDbEntity
  8
외형선
  6
Continuous
370
    15
100
AcDbLine
 10
-70.00000000000003
 20
-3.2
 30
0.0
 11
-69.20000000000002
 21
-3.999999999999997
 31
0.0
  0
LINE
  5
9E
330
1F
100
AcDbEntity
  8
0
  6
Continuous
 62
     1
370
    15
100
AcDbLine
 10
29.99999999999999
 20
-3.381577697743224
 30
0.0
 11
29.99999999999999
 21
0.3914048929357146
 31
0.0
1001
PE_URL
1000

  0
SPLINE
  5
9F
330
1F
100
AcDbEntity
  8
0
  6
Continuous
 62
     1
370
    15
100
AcDbSpline
210
0.0
220
0.0
230
1.0
 70
     8
 71
     3
 72
    10
 73
     6
 74
     0
 42
0.000000001
 43
0.00000001
 40
0.0
 40
0.0
 40
0.0
 40
0.0
 40
0.5
 40
0.5
 40
1.0
 40
1.0
 40
1.0
 40
1.0
 10
29.7
 20
-3.545714832628904
 30
0.0
 10
29.77815008147727
 20
-3.566611102832576
 30
0.0
 10
29.84974071629397
 20
-3.563606160959503
 30
0.0
 10
29.96122313977875
 20
-3.509040332544974
 30
0.0
 10
29.99999999999999
 20
-3.455723090729747
 30
0.0
 10
29.99999999999999
 20
-3.381577697743225
 30
0.0
1001
PE_URL
1000

  0
SPLINE
  5
A0
330
1F
100
AcDbEntity
  8
0
  6
Continuous
 62
     1
370
    15
100
AcDbSpline
210
0.0
220
0.0
230
1.0
 70
     8
 71
     3
 72
    19
 73
    15
 74
     0
 42
0.000000001
 43
0.00000001
 40
0.0
 40
0.0
 40
0.0
 40
0.0
 40
0.0167216980236846
 40
0.1022506815098637
 40
0.1877696743885468
 40
0.2732800002058688
 40
0.3587829908113427
 40
0.4442799850971625
 40
0.5297723277231001
 40
0.6238214219960145
 40
0.7178690289322308
 40
0.8119148556367086
 40
0.9059586098399381
 40
0.9999999999999999
 40
0.9999999999999999
 40
0.9999999999999999
 40
0.9999999999999999
 10
11.26826356117164
 20
3.983758216277184
 30
0.0
 10
11.37100022390477
 20
3.988827808313977
 30
0.0
 10
11.99921954503058
 20
4.019827605105241
 30
0.0
 10
13.15286386766826
 20
3.874942793889256
 30
0.0
 10
14.72909024058639
 20
3.544702446603237
 30
0.0
 10
16.30513073385328
 20
3.013805176407055
 30
0.0
 10
17.88100015777759
 20
2.332500399119602
 30
0.0
 10
19.45676691579208
 20
1.529788696128867
 30
0.0
 10
21.08490473392671
 20
0.6191507306733912
 30
0.0
 10
22.76601810458613
 20
-0.3580753633764406
 30
0.0
 10
24.49955321056134
 20
-1.344691247595248
 30
0.0
 10
26.23308388561267
 20
-2.243310797047687
 30
0.0
 10
27.96656006437447
 20
-3.018070982160419
 30
0.0
 10
29.12219152983749
 20
-3.369835022914098
 30
0.0
 10
29.7
 20
-3.545714832628899
 30
0.0
1001
PE_URL
1000

  0
SPLINE
  5
A1
330
1F
100
AcDbEntity
  8
0
  6
Continuous
 62
     1
370
    15
100
AcDbSpline
210
0.0
220
0.0
230
1.0
 70
     8
 71
     3
 72
    16
 73
    12
 74
     0
 42
0.000000001
 43
0.00000001
 40
0.0
 40
0.0
 40
0.0
 40
0.0
 40
0.1108311497077463
 40
0.2216735437534284
 40
0.3325288975300754
 40
0.4433858704036544
 40
0.5542297315073423
 40
0.6650621415130905
 40
0.7758848253776188
 40
0.8977746035053927
 40
1.0
 40
1.0
 40
1.0
 40
1.0
 10
29.7
 20
0.5153594713729798
 30
0.0
 10
29.17465812412169
 20
0.8135389674746564
 30
0.0
 10
28.12392107397742
 20
1.40992821138097
 30
0.0
 10
26.54769036036653
 20
2.2247488947215
 30
0.0
 10
24.97129393326465
 20
2.926822678935051
 30
0.0
 10
23.39488025852099
 20
3.477680583670849
 30
0.0
 10
21.81863227604479
 20
3.849155102330165
 30
0.0
 10
20.24255253161223
 20
4.023589862926706
 30
0.0
 10
18.61423310119432
 20
3.984556296554288
 30
0.0
 10
17.02639041236743
 20
3.74878947630939
 30
0.0
 10
15.96399007130997
 20
3.414823843537413
 30
0.0
 10
15.47939862727413
 20
3.262492484078105
 30
0.0
1001
PE_URL
1000

  0
SPLINE
  5
A2
330
1F
100
AcDbEntity
  8
0
  6
Continuous
 62
     1
370
    15
100
AcDbSpline
210
0.0
220
0.0
230
1.0
 70
     8
 71
     3
 72
    10
 73
     6
 74
     0
 42
0.000000001
 43
0.00000001
 40
0.0
 40
0.0
 40
0.0
 40
0.0
 40
0.5000000000000009
 40
0.5000000000000009
 40
1.0
 40
1.0
 40
1.0
 40
1.0
 10
29.99999999999999
 20
0.3903276977432704
 30
0.0
 10
30.00000000000004
 20
0.3829015563656922
 30
0.0
 10
29.96406260353503
 20
0.3897675592787881
 30
0.0
 10
29.8477137379045
 20
0.4361528785819956
 30
0.0
 10
29.771574986351
 20
0.474356880634505
 30
0.0
 10
29.7
 20
0.515359471372987
 30
0.0
1001
PE_URL
1000

  0
SPLINE
  5
A3
330
1F
100
AcDbEntity
  8
0
  6
Continuous
 62
     1
370
    15
100
AcDbSpline
210
0.0
220
0.0
230
1.0
 70
     8
 71
     3
 72
    18
 73
    14
 74
     0
 42
0.000000001
 43
0.00000001
 40
0.0
 40
0.0
 40
0.0
 40
0.0
 40
0.0962779795696675
 40
0.1925544109102587
 40
0.2888195962381274
 40
0.3850750254142901
 40
0.4813221976465389
 40
0.5775626200703114
 40
0.6737978063133747
 40
0.7796649731887352
 40
0.885530465830828
 40
0.9913939545398459
 40
1.0
 40
1.0
 40
1.0
 40
1.0
 10
10.0
 20
0.7275933882993368
 30
0.0
 10
10.5254909320989
 20
0.4257047737446197
 30
0.0
 10
11.57646434597039
 20
-0.1780676007476639
 30
0.0
 10
13.15286370383265
 20
-1.084553191978552
 30
0.0
 10
14.72909028420599
 20
-1.932474790941224
 30
0.0
 10
16.30513072318604
 20
-2.681542109226445
 30
0.0
 10
17.88100015683298
 20
-3.292160742220911
 30
0.0
 10
19.4567669302352
 20
-3.733565674846447
 30
0.0
 10
21.08490467472449
 20
-3.989638424898527
 30
0.0
 10
22.76601835125886
 20
-4.029552465539628
 30
0.0
 10
24.49955229266214
 20
-3.798937926682946
 30
0.0
 10
25.70222970598032
 20
-3.528493033853399
 30
0.0
 10
26.32704339600339
 20
-3.290358996466062
 30
0.0
 10
26.37401812215645
 20
-3.27245560962833
 30
0.0
1001
PE_URL
1000

  0
SPLINE
  5
A4
330
1F
100
AcDbEntity
  8
외형선
  6
Continuous
370
    15
100
AcDbSpline
210
0.0
220
0.0
230
1.0
 70
    24
 71
     3
 72
    16
 73
    12
 74
     0
 42
0.000000001
 43
0.00000001
 40
0.0
 40
0.0
 40
0.0
 40
0.0
 40
0.2132330368604729
 40
0.3242246492519564
 40
0.4384350259218998
 40
0.5494266383133831
 40
0.6636370149833258
 40
0.7746286273748073
 40
0.8888390040447474
 40
0.9998306164362335
 40
1.0
 40
1.0
 40
1.0
 40
1.0
 10
10.0
 20
3.942940435551827
 30
0.0
 10
10.00000000000002
 20
3.704142744098495
 30
0.0
 10
10.00000000000006
 20
3.34104657995065
 30
0.0
 10
9.9999999999999
 20
2.812506789343614
 30
0.0
 10
9.999999999999986
 20
2.410614232176987
 30
0.0
 10
10.0
 20
2.016689971574481
 30
0.0
 10
9.999999999999986
 20
1.650536116007834
 30
0.0
 10
9.99999999999961
 20
1.313112756578719
 30
0.0
 10
10.00000000000136
 20
1.029715037150932
 30
0.0
 10
9.999999999997137
 20
0.855478445467227
 30
0.0
 10
10.00000000000004
 20
0.7963896014912143
 30
0.0
 10
10.00000000000004
 20
0.7962995638041147
 30
0.0
  0
SPLINE
  5
A5
330
1F
100
AcDbEntity
  8
0
  6
Continuous
 62
     1
370
    15
100
AcDbSpline
210
0.0
220
0.0
230
1.0
 70
     8
 71
     3
 72
    48
 73
    44
 74
     0
 42
0.000000001
 43
0.00000001
 40
0.0
 40
0.0
 40
0.0
 40
0.0
 40
0.0625000000000018
 40
0.0625000000000018
 40
0.1250000000000035
 40
0.1250000000000035
 40
0.1875000000000053
 40
0.1875000000000053
 40
0.2187500000000062
 40
0.2187500000000062
 40
0.250000000000007
 40
0.250000000000007
 40
0.3125000000000088
 40
0.3125000000000088
 40
0.3437500000000089
 40
0.3437500000000089
 40
0.375000000000009
 40
0.375000000000009
 40
0.4375000000000092
 40
0.4375000000000092
 40
0.5000000000000093
 40
0.5000000000000093
 40
0.5625000000000095
 40
0.5625000000000095
 40
0.5937500000000097
 40
0.5937500000000097
 40
0.6250000000000098
 40
0.6250000000000098
 40
0.6875000000000084
 40
0.6875000000000084
 40
0.750000000000007
 40
0.750000000000007
 40
0.8125000000000057
 40
0.8125000000000057
 40
0.843750000000005
 40
0.843750000000005
 40
0.8750000000000043
 40
0.8750000000000043
 40
0.9062500000000037
 40
0.9062500000000037
 40
0.937500000000003
 40
0.937500000000003
 40
1.0
 40
1.0
 40
1.0
 40
1.0
 10
29.67567567567566
 20
-3.986830035586116
 30
0.0
 10
29.28996631959554
 20
-3.936143745105133
 30
0.0
 10
28.87569224804229
 20
-3.884493307073717
 30
0.0
 10
28.05813654692917
 20
-3.741480273506075
 30
0.0
 10
27.64719403923902
 20
-3.649762527495954
 30
0.0
 10
26.82424835736791
 20
-3.428773865893442
 30
0.0
 10
26.41772647255171
 20
-3.300115198158786
 30
0.0
 10
25.80025620767645
 20
-3.081337099877166
 30
0.0
 10
25.59405391708111
 20
-3.00419970999841
 30
0.0
 10
25.18333204689341
 20
-2.842433399822488
 30
0.0
 10
24.97990908204917
 20
-2.757967111091044
 30
0.0
 10
24.36596462339459
 20
-2.493551842243245
 30
0.0
 10
23.95165118131966
 20
-2.302425743761923
 30
0.0
 10
23.33726477741226
 20
-2.000188768538899
 30
0.0
 10
23.13398937184277
 20
-1.896939708238908
 30
0.0
 10
22.72348027233931
 20
-1.685061343005255
 30
0.0
 10
22.51731073701309
 20
-1.576603378436749
 30
0.0
 10
21.8997159178827
 20
-1.245579731393148
 30
0.0
 10
21.49312127936096
 20
-1.018102953983309
 30
0.0
 10
20.67043610429887
 20
-0.5531022853082709
 30
0.0
 10
20.25876765398957
 20
-0.3163907968980716
 30
0.0
 10
19.44189372376713
 20
0.1566338318161466
 30
0.0
 10
19.02766791192043
 20
0.3946758299012227
 30
0.0
 10
18.41224527122667
 20
0.7456315237647475
 30
0.0
 10
18.2090528234285
 20
0.8614223198082632
 30
0.0
 10
17.79918852710801
 20
1.091094527853485
 30
0.0
 10
17.59314830440452
 20
1.204851376240126
 30
0.0
 10
16.9753545411393
 20
1.540843659883724
 30
0.0
 10
16.56830436358692
 20
1.757030928011789
 30
0.0
 10
15.74647573811981
 20
2.170054240953391
 30
0.0
 10
15.33263669367023
 20
2.366622318438512
 30
0.0
 10
14.51772365991018
 20
2.730963704900299
 30
0.0
 10
14.10371238888224
 20
2.900647877001179
 30
0.0
 10
13.48743794116744
 20
3.130283138153901
 30
0.0
 10
13.28388593669099
 20
3.202584262750069
 30
0.0
 10
12.87478897819206
 20
3.338839064389613
 30
0.0
 10
12.66894044792667
 20
3.402807726548791
 30
0.0
 10
12.2570698523756
 20
3.521611802684672
 30
0.0
 10
12.05105099798393
 20
3.576446270666604
 30
0.0
 10
11.64127942308263
 20
3.676379091101101
 30
0.0
 10
11.43806528594254
 20
3.721458877934353
 30
0.0
 10
10.82252161156327
 20
3.842285240331515
 30
0.0
 10
10.40831648916896
 20
3.903130393919489
 30
0.0
 10
9.99999999999843
 20
3.942940435562704
 30
0.0
1001
PE_URL
1000

  0
SPLINE
  5
A7
330
1F
100
AcDbEntity
  8
0
  6
Continuous
 62
     1
370
    15
100
AcDbSpline
210
0.0
220
0.0
230
1.0
 70
     8
 71
     3
 72
    13
 73
     9
 74
     0
 42
0.000000001
 43
0.00000001
 40
0.0
 40
0.0
 40
0.0
 40
0.0
 40
0.1075790611905093
 40
0.2860739154806721
 40
0.464563986410098
 40
0.6430487231227997
 40
0.8215275766301009
 40
1.0
 40
1.0
 40
1.0
 40
1.0
 10
19.71127633915478
 20
-3.976909806540815
 30
0.0
 10
19.36307162649023
 20
-3.977127815102558
 30
0.0
 10
18.43712670339447
 20
-3.977707542813286
 30
0.0
 10
16.93318227561313
 20
-3.715640976909774
 30
0.0
 10
15.19981047263958
 20
-3.216708941527621
 30
0.0
 10
13.46647211785035
 20
-2.507473694858992
 30
0.0
 10
11.73320904978983
 20
-1.647567427541573
 30
0.0
 10
10.57772941164038
 20
-0.9979963736193058
 30
0.0
 10
9.99999999999843
 20
-0.6732166973602143
 30
0.0
1001
PE_URL
1000

  0
LINE
  5
A8
330
1F
100
AcDbEntity
  8
외형선
  6
Continuous
370
    15
100
AcDbLine
 10
10.0
 20
-0.6732166973555954
 30
0.0
 11
10.0
 21
0.7275933882993479
 31
0.0
  0
SPLINE
  5
A9
330
1F
100
AcDbEntity
  8
0
  6
Continuous
 62
     1
370
    15
100
AcDbSpline
210
0.0
220
0.0
230
1.0
 70
     8
 71
     3
 72
    10
 73
     6
 74
     0
 42
0.000000001
 43
0.00000001
 40
0.0
 40
0.0
 40
0.0
 40
0.0
 40
0.5
 40
0.5
 40
1.0
 40
1.0
 40
1.0
 40
1.0
 10
29.7
 20
1.851460592525597
 30
0.0
 10
29.77815008147729
 20
1.81144234125582
 30
0.0
 10
29.84974071629396
 20
1.752585938912936
 30
0.0
 10
29.96122313977872
 20
1.623616903943818
 30
0.0
 10
30.0
 20
1.553841811253167
 30
0.0
 10
29.99999999999999
 20
1.501643191349244
 30
0.0
1001
PE_URL
1000

  0
LINE
  5
AA
330
1F
100
AcDbEntity
  8
0
  6
Continuous
 62
     1
370
    15
100
AcDbLine
 10
29.99999999999999
 20
0.3903276977432743
 30
0.0
 11
29.99999999999999
 21
1.501643191349243
 31
0.0
1001
PE_URL
1000

  0
SPLINE
  5
AB
330
1F
100
AcDbEntity
  8
0
  6
Continuous
 62
     1
370
    15
100
AcDbSpline
210
0.0
220
0.0
230
1.0
 70
     8
 71
     3
 72
    12
 73
     8
 74
     0
 42
0.000000001
 43
0.00000001
 40
0.0
 40
0.0
 40
0.0
 40
0.0
 40
0.0813873039657637
 40
0.3110477121199219
 40
0.5407037730210105
 40
0.7703547729588496
 40
1.0
 40
1.0
 40
1.0
 40
1.0
 10
22.15166011266505
 20
3.971399753978416
 30
0.0
 10
22.35644163950403
 20
3.979063981272738
 30
0.0
 10
23.13907999099047
 20
4.00835528653662
 30
0.0
 10
24.49955885593802
 20
3.801889941509843
 30
0.0
 10
26.23308238022669
 20
3.361892272488584
 30
0.0
 10
27.96656044070652
 20
2.704261035247555
 30
0.0
 10
29.12219165528043
 20
2.135725024788893
 30
0.0
 10
29.7
 20
1.851460592525613
 30
0.0
1001
PE_URL
1000

  0
SPLINE
  5
AC
330
1F
100
AcDbEntity
  8
0
  6
Continuous
 62
     1
370
    15
100
AcDbSpline
210
0.0
220
0.0
230
1.0
 70
     8
 71
     3
 72
    11
 73
     7
 74
     0
 42
0.000000001
 43
0.00000001
 40
0.0
 40
0.0
 40
0.0
 40
0.0
 40
0.2877049370689285
 40
0.5754052476059106
 40
0.8630719519808419
 40
1.0
 40
1.0
 40
1.0
 40
1.0
 10
9.999999999999972
 20
-3.933269360379867
 30
0.0
 10
10.52549101980615
 20
-3.969252181946074
 30
0.0
 10
11.57646460909086
 20
-4.041217246445128
 30
0.0
 10
13.1528626514217
 20
-3.878036347843898
 30
0.0
 10
14.45383140260749
 20
-3.618861318943253
 30
0.0
 10
15.22931275706065
 20
-3.3493934770512
 30
0.0
 10
15.47939862727406
 20
-3.262492484078101
 30
0.0
1001
PE_URL
1000

  0
SPLINE
  5
AD
330
1F
100
AcDbEntity
  8
외형선
  6
Continuous
370
    15
100
AcDbSpline
210
0.0
220
0.0
230
1.0
 70
    24
 71
     3
 72
    20
 73
    16
 74
     0
 42
0.000000001
 43
0.00000001
 40
0.0
 40
0.0
 40
0.0
 40
0.0
 40
0.0095814033561053
 40
0.0924267214715113
 40
0.172937229402742
 40
0.2557825475181478
 40
0.3362930554493772
 40
0.4191383735647812
 40
0.4996488814960138
 40
0.5824941996114219
 40
0.6630047075426531
 40
0.7458500256580587
 40
0.8263605335891603
 40
0.9092058517046995
 40
1.0
 40
1.0
 40
1.0
 40
1.0
 10
10.0
 20
-0.4123615144878915
 30
0.0
 10
9.999999999999986
 20
-0.4111281513687403
 30
0.0
 10
9.9999999999999
 20
-0.3992305508555145
 30
0.0
 10
10.00000000000001
 20
-0.4415772904895663
 30
0.0
 10
9.999999999999972
 20
-0.5440259262085526
 30
0.0
 10
9.999999999999886
 20
-0.7161892812712061
 30
0.0
 10
9.999999999999972
 20
-0.947775914290454
 30
0.0
 10
9.999999999999972
 20
-1.230341072867203
 30
0.0
 10
10.00000000000009
 20
-1.560356946970553
 30
0.0
 10
9.999999999999986
 20
-1.922721634759688
 30
0.0
 10
10.0
 20
-2.313598920838608
 30
0.0
 10
10.00000000000008
 20
-2.715116052485659
 30
0.0
 10
9.999999999999929
 20
-3.122329938354654
 30
0.0
 10
10.0
 20
-3.536115128836757
 30
0.0
 10
9.999999999999972
 20
-3.796905153299375
 30
0.0
 10
9.999999999999972
 20
-3.933269360379868
 30
0.0
  0
SPLINE
  5
AE
330
1F
100
AcDbEntity
  8
0
  6
Continuous
 62
     1
370
    15
100
AcDbSpline
210
0.0
220
0.0
230
1.0
 70
     8
 71
     3
 72
    10
 73
     6
 74
     0
 42
0.000000001
 43
0.00000001
 40
0.0
 40
0.0
 40
0.0
 40
0.0
 40
0.4738602240239188
 40
0.9477685233814174
 40
0.9999999999999999
 40
0.9999999999999999
 40
0.9999999999999999
 40
0.9999999999999999
 10
29.67567567567566
 20
3.986830035586113
 30
0.0
 10
29.1746575084271
 20
3.904726425364603
 30
0.0
 10
28.12391922683111
 20
3.780849700118613
 30
0.0
 10
27.01525653994946
 20
3.512597360622148
 30
0.0
 10
26.43192699863614
 20
3.29414229996073
 30
0.0
 10
26.37401812215646
 20
3.272455609628337
 30
0.0
1001
PE_URL
1000

  0
LINE
  5
B0
330
1F
100
AcDbEntity
  8
0
  6
Continuous
 62
     1
370
    15
100
AcDbLine
 10
29.99999999999999
 20
1.501643191349243
 30
0.0
 11
29.99999999999999
 21
3.679353786791169
 31
0.0
1001
PE_URL
1000

  0
LINE
  5
B1
330
1F
100
AcDbEntity
  8
0
  6
Continuous
 62
     1
370
    15
100
AcDbLine
 10
29.99999999999999
 20
-3.679353786791163
 30
0.0
 11
29.99999999999999
 21
-3.381577697743224
 31
0.0
1001
PE_URL
1000

  0
SPLINE
  5
B2
330
1F
100
AcDbEntity
  8
외형선
  6
Continuous
370
    15
100
AcDbSpline
210
0.0
220
0.0
230
1.0
 70
     8
 71
     3
 72
     8
 73
     4
 74
     0
 42
0.000000001
 43
0.00000001
 40
0.0
 40
0.0
 40
0.0
 40
0.0
 40
1.0
 40
1.0
 40
1.0
 40
1.0
 10
9.999999999999972
 20
3.942940435562553
 30
0.0
 10
9.66823072077046
 20
3.975287277221863
 30
0.0
 10
9.334605153858604
 20
3.994008744557321
 30
0.0
 10
8.999965140767749
 20
3.998776212566081
 30
0.0
  0
LINE
  5
B3
330
1F
100
AcDbEntity
  8
외형선
  6
Continuous
370
    15
100
AcDbLine
 10
8.999965140767706
 20
1.285883674041475
 30
0.0
 11
8.99996514076772
 21
3.998776982960141
 31
0.0
  0
SPLINE
  5
B4
330
1F
100
AcDbEntity
  8
외형선
  6
Continuous
370
    15
100
AcDbSpline
210
0.0
220
0.0
230
1.0
 70
     8
 71
     3
 72
     8
 73
     4
 74
     0
 42
0.000000001
 43
0.00000001
 40
0.0
 40
0.0
 40
0.0
 40
0.0
 40
1.0
 40
1.0
 40
1.0
 40
1.0
 10
10.0
 20
0.7275933882993368
 30
0.0
 10
9.668230720770502
 20
0.9165798494229699
 30
0.0
 10
9.334605153858618
 20
1.103393380976021
 30
0.0
 10
8.99996514076772
 20
1.285906943867027
 30
0.0
  0
SPLINE
  5
B5
330
1F
100
AcDbEntity
  8
외형선
  6
Continuous
370
    15
100
AcDbSpline
210
0.0
220
0.0
230
1.0
 70
     8
 71
     3
 72
     8
 73
     4
 74
     0
 42
0.000000001
 43
0.00000001
 40
0.0
 40
0.0
 40
0.0
 40
0.0
 40
1.0
 40
1.0
 40
1.0
 40
1.0
 10
9.999999999999972
 20
-0.6732166973610983
 30
0.0
 10
9.66823072077046
 20
-0.4837655586101345
 30
0.0
 10
9.334605153858604
 20
-0.2916243553132709
 30
0.0
 10
8.999965140767749
 20
-0.0989383738278675
 30
0.0
  0
LINE
  5
B6
330
1F
100
AcDbEntity
  8
외형선
  6
Continuous
370
    15
100
AcDbLine
 10
8.999965140767706
 20
-3.787677807949556
 30
0.0
 11
8.99996514076772
 21
-0.0989072320319119
 31
0.0
  0
SPLINE
  5
B7
330
1F
100
AcDbEntity
  8
외형선
  6
Continuous
370
    15
100
AcDbSpline
210
0.0
220
0.0
230
1.0
 70
     8
 71
     3
 72
     8
 73
     4
 74
     0
 42
0.000000001
 43
0.00000001
 40
0.0
 40
0.0
 40
0.0
 40
0.0
 40
1.0
 40
1.0
 40
1.0
 40
1.0
 10
10.0
 20
-3.933269360379871
 30
0.0
 10
9.668230720770502
 20
-3.898309817314565
 30
0.0
 10
9.334605153858618
 20
-3.849632925751557
 30
0.0
 10
8.99996514076772
 20
-3.787669907966444
 30
0.0
  0
LINE
  5
B8
330
1F
100
AcDbEntity
  8
외형선
  6
Continuous
370
    15
100
AcDbLine
 10
-69.20000000000002
 20
0.000000000000003
 30
0.0
 11
-69.20000000000002
 21
4.000000000000003
 31
0.0
  0
LINE
  5
B9
330
1F
100
AcDbEntity
  8
외형선
  6
Continuous
370
    15
100
AcDbLine
 10
-69.20000000000002
 20
-3.999999999999997
 30
0.0
 11
-69.20000000000002
 21
0.000000000000003
 31
0.0
  0
LINE
  5
BA
330
1F
100
AcDbEntity
  8
외형선
  6
Continuous
370
    15
100
AcDbLine
 10
-70.00000000000003
 20
0.000000000000003
 30
0.0
 11
-70.00000000000003
 21
3.200000000000006
 31
0.0
  0
LINE
  5
BB
330
1F
100
AcDbEntity
  8
외형선
  6
Continuous
370
    15
100
AcDbLine
 10
-70.00000000000003
 20
-3.2
 30
0.0
 11
-70.00000000000003
 21
0.000000000000003
 31
0.0
  0
SPLINE
  5
BC
330
1F
100
AcDbEntity
  8
외형선
  6
Continuous
370
    15
100
AcDbSpline
210
0.0
220
0.0
230
1.0
 70
    24
 71
     3
 72
    19
 73
    15
 74
     0
 42
0.000000001
 43
0.00000001
 40
0.0
 40
0.0
 40
0.0
 40
0.0
 40
0.1521503635133374
 40
0.2337767093178152
 40
0.3154030551222928
 40
0.3970294009268566
 40
0.4786557467314204
 40
0.5602820925359422
 40
0.641908438340464
 40
0.7235347841449846
 40
0.8051611299495053
 40
0.8867874757540204
 40
0.9684138215585354
 40
1.0
 40
1.0
 40
1.0
 40
1.0
 10
10.0
 20
-3.933269360379869
 30
0.0
 10
10.00000000000002
 20
-3.699767635794543
 30
0.0
 10
10.00000000000006
 20
-3.340995802897757
 30
0.0
 10
10.0
 20
-2.817038999506702
 30
0.0
 10
10.0
 20
-2.412587770414783
 30
0.0
 10
9.999999999999957
 20
-2.018927507435554
 30
0.0
 10
9.999999999999915
 20
-1.647407479230969
 30
0.0
 10
9.999999999999972
 20
-1.309508676031953
 30
0.0
 10
9.999999999999986
 20
-1.01322431451508
 30
0.0
 10
9.999999999999972
 20
-0.7692696173652297
 30
0.0
 10
10.0
 20
-0.5808578581644216
 30
0.0
 10
10.00000000000001
 20
-0.4613317035209826
 30
0.0
 10
9.999999999999986
 20
-0.4052764314188677
 30
0.0
 10
9.999999999999986
 20
-0.4145345558310322
 30
0.0
 10
10.0
 20
-0.4171175630704126
 30
0.0
  0
SPLINE
  5
BD
330
1F
100
AcDbEntity
  8
외형선
  6
Continuous
370
    15
100
AcDbSpline
210
0.0
220
0.0
230
1.0
 70
    24
 71
     3
 72
    16
 73
    12
 74
     0
 42
0.000000001
 43
0.00000001
 40
0.0
 40
0.0
 40
0.0
 40
0.0
 40
0.0863018152988798
 40
0.198525985489575
 40
0.3107501556802689
 40
0.4229743258709628
 40
0.5351984960616492
 40
0.6474226662523352
 40
0.759646836443038
 40
0.8718710066337411
 40
1.0
 40
1.0
 40
1.0
 40
1.0
 10
9.999999999999929
 20
0.7962995638041146
 30
0.0
 10
9.999999999999915
 20
0.8511586150845531
 30
0.0
 10
9.999999999999957
 20
0.9773546537281756
 30
0.0
 10
9.999999999999986
 20
1.239083635851032
 30
0.0
 10
9.999999999999972
 20
1.562281699194347
 30
0.0
 10
10.00000000000001
 20
1.923102164748022
 30
0.0
 10
9.999999999999957
 20
2.310171680258797
 30
0.0
 10
10.0
 20
2.712485649169019
 30
0.0
 10
10.00000000000002
 20
3.118087094445348
 30
0.0
 10
10.00000000000004
 20
3.537335711960988
 30
0.0
 10
10.00000000000005
 20
3.801903145253592
 30
0.0
 10
10.00000000000005
 20
3.942940435562618
 30
0.0
  0
LINE
  5
BE
330
1F
100
AcDbEntity
  8
중심선
100
AcDbLine
 10
-73.00000000000003
 20
0.000000000000003
 30
0.0
 11
32.99999999999999
 21
-0.000000000000001
 31
0.0
  0
LINE
  5
BF
330
1F
100
AcDbEntity
  8
참조1
100
AcDbLine
 10
-45.00051336755625
 20
-2.499999999999971
 30
0.0
 11
-45.00051336755624
 21
-40.0
 31
0.0
  0
LINE
  5
C0
330
1F
100
AcDbEntity
  8
참조1
100
AcDbLine
 10
-45.00051336755624
 20
-40.0
 30
0.0
 11
-60.1588568143087
 21
-40.0
 31
0.0
  0
CIRCLE
  5
C1
330
1F
100
AcDbEntity
  8
해칭선
100
AcDbCircle
 10
0.0
 20
0.0
 30
0.0
 40
3.000000000000001
  0
INSERT
  5
C2
330
1F
100
AcDbEntity
  8
0
  6
Continuous
 62
     7
100
AcDbBlockReference
 66
     1
  2
블럭10
 10
-33.75656139576284
 20
-52.04717430164393
 30
0.0
  0
ATTRIB
  5
C3
330
C2
100
AcDbEntity
  8
FORMAT
 62
     2
100
AcDbText
 10
-49.87582243519839
 20
-49.97180738881174
 30
0.0
 40
4.233333333333333
  1
SEME0108003E [ 4 FLUTE ]
 41
0.75
  7
SLDTEXTSTYLE0
 11
-49.87582243519839
 21
-52.08847405547841
 31
0.0
100
AcDbAttribute
  2
AUTOATTR0
 70
     0
 74
     1
  0
SEQEND
  5
C4
330
C2
100
AcDbEntity
  8
0
  6
Continuous
 62
     7
  0
HATCH
  5
C5
330
1F
100
AcDbEntity
  8
중심선
100
AcDbHatch
 10
0.0
 20
0.0
 30
0.0
210
0.0
220
0.0
230
1.0
  2
SOLID
 70
     1
 71
     0
 91
        1
 92
        0
 93
        4
 72
     1
 10
-28.04165209138199
 20
-35.8
 11
-31.48792733521927
 21
-35.8
 72
     1
 10
-31.48792733521927
 20
-35.8
 11
-33.61615719442329
 21
-38.33632558057259
 72
     1
 10
-33.61615719442329
 20
-38.33632558057259
 11
-30.16984886547286
 21
-38.3362861512701
 72
     1
 10
-30.16984886547286
 20
-38.3362861512701
 11
-28.04165209138199
 21
-35.8
 97
        0
 75
     0
 76
     1
 98
        1
 10
-4.040646226677829
 20
0.000000000000003
  0
HATCH
  5
C6
330
1F
100
AcDbEntity
  8
중심선
100
AcDbHatch
 10
0.0
 20
0.0
 30
0.0
210
0.0
220
0.0
230
1.0
  2
SOLID
 70
     1
 71
     0
 91
        1
 92
        0
 93
        4
 72
     1
 10
-23.02888810034604
 20
-35.8
 11
-26.47516334418332
 21
-35.8
 72
     1
 10
-26.47516334418332
 20
-35.8
 11
-31.00630135254071
 21
-41.20000000000002
 72
     1
 10
-31.00630135254071
 20
-41.20000000000002
 11
-27.56002610870343
 21
-41.20000000000002
 72
     1
 10
-27.56002610870343
 20
-41.20000000000002
 11
-23.02888810034604
 21
-35.8
 97
        0
 75
     0
 76
     1
 98
        1
 10
-4.040646226677829
 20
0.000000000000003
  0
HATCH
  5
C7
330
1F
100
AcDbEntity
  8
중심선
100
AcDbHatch
 10
0.0
 20
0.0
 30
0.0
210
0.0
220
0.0
230
1.0
  2
SOLID
 70
     1
 71
     0
 91
        1
 92
        0
 93
        4
 72
     1
 10
-18.01612410931014
 20
-35.80000000000003
 11
-21.46239935314726
 21
-35.8
 72
     1
 10
-21.46239935314726
 20
-35.8
 11
-28.51083625503651
 21
-44.20000000000002
 72
     1
 10
-28.51083625503651
 20
-44.20000000000002
 11
-25.06456101119923
 21
-44.20000000000002
 72
     1
 10
-25.06456101119923
 20
-44.20000000000002
 11
-18.01612410931014
 21
-35.80000000000003
 97
        0
 75
     0
 76
     1
 98
        1
 10
-4.040646226677829
 20
0.000000000000003
  0
HATCH
  5
C8
330
1F
100
AcDbEntity
  8
중심선
100
AcDbHatch
 10
0.0
 20
0.0
 30
0.0
210
0.0
220
0.0
230
1.0
  2
SOLID
 70
     1
 71
     0
 91
        1
 92
        0
 93
        6
 72
     3
 10
-13.21623367829795
 20
-40.00000000005127
 11
3.960054785062283
 21
1.540882976769353E-10
 40
0.3939339440162628
 50
17.09539180608439
 51
320.0019657685081
 73
     0
 72
     1
 10
-11.53323402259735
 20
-38.5878940046383
 11
-9.227932148896311
 21
-36.65356729459038
 72
     3
 10
-13.21623367835079
 20
-40.00000000000015
 11
6.600054785286829
 21
-1.278976924368180E-13
 40
0.636358354079598
 50
39.99873849337413
 51
368.4976242363725
 73
     1
 72
     1
 10
-6.790901186450181
 20
-39.03999999993002
 11
-14.53616637151487
 21
-39.03999999992999
 72
     1
 10
-14.53616637151487
 20
-39.03999999992999
 11
-14.5361914159608
 21
-40.95999999992991
 72
     1
 10
-14.5361914159608
 20
-40.95999999992991
 11
-10.09481164648876
 21
-40.95999999992988
 97
        0
 75
     0
 76
     1
 98
        1
 10
-4.040646226677829
 20
0.000000000000003
  0
DIMENSION
  5
C9
330
1F
100
AcDbEntity
  8
치수문자_일반주서
100
AcDbDimension
  2
_D
 10
40.0
 20
-3.999999999999966
 30
0.0
 11
39.99999999999994
 21
13.66650000000006
 31
0.0
 70
   160
  1
%%c<>
 71
     2
 42
8.0
 52
-270.0
  3
SLDDIMSTYLE0
100
AcDbAlignedDimension
 13
29.99999999999999
 23
3.999999999999999
 33
0.0
 14
29.99999999999999
 24
-4.000000000000002
 34
0.0
 50
90.0000000000002
100
AcDbRotatedDimension
1001
PE_URL
1000

  0
DIMENSION
  5
D7
330
1F
100
AcDbEntity
  8
치수문자_일반주서
100
AcDbDimension
  2
_D_1
 10
-80.0
 20
-4.000000000000043
 30
0.0
 11
-80.00000000000006
 21
13.66649999999997
 31
0.0
 70
   160
  1
%%c<>
 71
     2
 42
8.000000000000007
 52
-270.0
  3
SLDDIMSTYLE0
100
AcDbAlignedDimension
 13
-69.20000000000002
 23
4.000000000000006
 33
0.0
 14
-69.20000000000002
 24
-4.000000000000001
 34
0.0
 50
90.0000000000002
100
AcDbRotatedDimension
1001
PE_URL
1000

  0
DIMENSION
  5
E4
330
1F
100
AcDbEntity
  8
치수문자_일반주서
100
AcDbDimension
  2
_D_2
 10
10.0
 20
14.0
 30
0.0
 11
19.99999999999999
 21
14.0
 31
0.0
 70
   160
  1
<>
 71
     2
 42
19.99999999999999
  3
SLDDIMSTYLE0
100
AcDbAlignedDimension
 13
29.99999999999999
 23
3.999999999999999
 33
0.0
 14
10.0
 24
3.942940435551827
 34
0.0
 50
0.0000000000000102
100
AcDbRotatedDimension
1001
PE_URL
1000

  0
DIMENSION
  5
EE
330
1F
100
AcDbEntity
  8
치수문자_일반주서
100
AcDbDimension
  2
_D_3
 10
-70.00000000000003
 20
24.0
 30
0.0
 11
-20.00000000000003
 21
24.0
 31
0.0
 70
   160
  1
<>
 71
     2
 42
100.0
  3
SLDDIMSTYLE0
100
AcDbAlignedDimension
 13
29.99999999999999
 23
3.999999999999999
 33
0.0
 14
-70.00000000000003
 24
3.200000000000006
 34
0.0
 50
0.0000000000000041
100
AcDbRotatedDimension
1001
PE_URL
1000

  0
LINE
  5
F9
330
1F
100
AcDbEntity
  8
참조1
100
AcDbLine
 10
37.81348381534557
 20
7.440000000000005
 30
0.0
 11
37.81348381534557
 21
-7.44
 31
0.0
  0
LINE
  5
FA
330
1F
100
AcDbEntity
  8
참조1
100
AcDbLine
 10
50.51348381534557
 20
5.440000000000005
 30
0.0
 11
37.81348381534557
 21
5.440000000000005
 31
0.0
  0
SOLID
  5
FB
330
1F
100
AcDbEntity
  8
참조1
100
AcDbTrace
 10
37.81348381534557
 20
5.440000000000005
 30
0.0
 11
44.16348381534556
 21
4.424000000000005
 31
0.0
 12
44.16348381534556
 22
6.456000000000005
 32
0.0
 13
44.16348381534556
 23
6.456000000000005
 33
0.0
  0
LINE
  5
FC
330
1F
100
AcDbEntity
  8
참조1
100
AcDbLine
 10
50.51348381534557
 20
-5.44
 30
0.0
 11
37.81348381534557
 21
-5.44
 31
0.0
  0
SOLID
  5
FD
330
1F
100
AcDbEntity
  8
참조1
100
AcDbTrace
 10
37.81348381534557
 20
-5.44
 30
0.0
 11
44.16348381534556
 21
-6.456
 31
0.0
 12
44.16348381534556
 22
-4.423999999999999
 32
0.0
 13
44.16348381534556
 23
-4.423999999999999
 33
0.0
  0
MTEXT
  5
FE
330
1F
100
AcDbEntity
  8
참조1
100
AcDbMText
 10
47.21097390781585
 20
10.98821664464994
 30
0.0
 40
3.5
 41
0.0
 71
     1
 72
     1
  1
A
  7
SLDTEXTSTYLE0
 73
     1
 44
1.0
  0
MTEXT
  5
FF
330
1F
100
AcDbEntity
  8
참조1
100
AcDbMText
 10
47.21097390781585
 20
0.1082166446499358
 30
0.0
 40
3.5
 41
0.0
 71
     1
 72
     1
  1
A
  7
SLDTEXTSTYLE0
 73
     1
 44
1.0
  0
INSERT
  5
106
330
1F
100
AcDbEntity
  8
해칭선
100
AcDbBlockReference
  2
SW_DOWELSYMBOL_0
 10
0.0
 20
0.0
 30
0.0
  0
ARC
  5
1B7
330
1F
100
AcDbEntity
  8
0
  6
Continuous
 62
     1
370
    15
100
AcDbCircle
 10
29.69999999999999
 20
3.687817782917154
 30
0.0
 40
0.3
100
AcDbArc
 50
0.0
 51
94.6507090048801
1001
PE_URL
1000

  0
ARC
  5
1B8
102
{ACAD_REACTORS
102
}
330
1F
100
AcDbEntity
  8
0
  6
Continuous
 62
     1
370
    15
100
AcDbCircle
 10
29.69999999999999
 20
-3.687817782917157
 30
0.0
 40
0.3
100
AcDbArc
 50
265.3492909951199
 51
0.0000000000000848
1001
PE_URL
1000

  0
DIMENSION
  5
1B9
102
{ACAD_REACTORS
102
}
102
{ACAD_XDICTIONARY
360
1BA
102
}
330
1F
100
AcDbEntity
  8
치수문자_일반주서
100
AcDbDimension
  2
*D12
 10
29.69999999999999
 20
-3.687817782917157
 30
0.0
 11
41.03831595985471
 21
-18.42303922578607
 31
0.0
 70
   164
 71
     5
 42
0.3000000000000004
  3
SLDDIMSTYLE1
100
AcDbRadialDimension
 15
29.88294901270632
 25
-3.925577448861108
 35
0.0
 40
0.0
1001
ACAD
1000
DSTYLE
1002
{
1070
    78
1070
     8
1002
}
1001
ACAD_DSTYLE_DIMRADIAL_EXTENSION
1070
   387
1070
     1
1070
   388
1040
4.631218795697383
1070
   390
1040
0.0000000000000015
1001
PE_URL
1000

  0
ENDSEC
  0
SECTION
  2
OBJECTS
  0
DICTIONARY
  5
C
330
0
100
AcDbDictionary
281
     1
  3
ACAD_DETAILVIEWSTYLE
350
1A3
  3
ACAD_GROUP
350
D
  3
ACAD_LAYOUT
350
1A
  3
ACAD_MLINESTYLE
350
17
  3
ACAD_PLOTSETTINGS
350
19
  3
ACAD_PLOTSTYLENAME
350
E
  3
ACAD_SCALELIST
350
47
  3
ACAD_SECTIONVIEWSTYLE
350
1A4
  3
AcDbVariableDictionary
350
19E
  3
APPDATA
350
128
  3
DWGPROPS
350
1C7
  0
DICTIONARY
  5
16E
330
2
100
AcDbDictionary
280
     1
281
     1
  3
ACAD_LAYERSTATES
360
16F
  0
DICTIONARY
  5
1BA
330
1B9
100
AcDbDictionary
280
     1
281
     1
  0
DICTIONARY
  5
1A3
102
{ACAD_REACTORS
330
C
102
}
330
C
100
AcDbDictionary
281
     1
  0
DICTIONARY
  5
D
102
{ACAD_REACTORS
330
C
102
}
330
C
100
AcDbDictionary
281
     1
  0
DICTIONARY
  5
1A
102
{ACAD_REACTORS
330
C
102
}
330
C
100
AcDbDictionary
281
     1
  3
Layout1
350
1E
  3
Layout2
350
26
  3
Model
350
22
  0
DICTIONARY
  5
17
102
{ACAD_REACTORS
330
C
102
}
330
C
100
AcDbDictionary
281
     1
  3
Standard
350
18
  0
DICTIONARY
  5
19
102
{ACAD_REACTORS
330
C
102
}
330
C
100
AcDbDictionary
281
     1
  0
ACDBDICTIONARYWDFLT
  5
E
102
{ACAD_REACTORS
330
C
102
}
330
C
100
AcDbDictionary
281
     1
  3
Normal
350
F
100
AcDbDictionaryWithDefault
340
F
  0
DICTIONARY
  5
47
102
{ACAD_REACTORS
330
C
102
}
330
C
100
AcDbDictionary
281
     1
  3
A0
350
48
  3
A1
350
49
  3
A2
350
4A
  3
A3
350
4B
  3
A4
350
4C
  3
A5
350
4D
  3
A6
350
4E
  3
A7
350
4F
  3
A8
350
50
  3
A9
350
51
  3
B0
350
52
  3
B1
350
53
  3
B2
350
54
  3
B3
350
55
  3
B4
350
56
  3
B5
350
57
  3
B6
350
58
  3
B7
350
59
  3
B8
350
5A
  3
B9
350
5B
  3
C0
350
5C
  3
C1
350
5D
  3
C2
350
5E
  3
C3
350
5F
  3
C4
350
60
  3
C5
350
61
  3
C6
350
62
  3
C7
350
63
  3
C8
350
64
  3
C9
350
65
  3
D0
350
66
  3
D1
350
67
  3
D2
350
68
  0
DICTIONARY
  5
1A4
102
{ACAD_REACTORS
330
C
102
}
330
C
100
AcDbDictionary
281
     1
  0
DICTIONARY
  5
19E
102
{ACAD_REACTORS
330
C
102
}
330
C
100
AcDbDictionary
281
     1
  0
DICTIONARY
  5
128
102
{ACAD_REACTORS
330
C
102
}
330
C
100
AcDbDictionary
281
     1
  0
XRECORD
  5
1C7
102
{ACAD_REACTORS
330
C
102
}
330
C
100
AcDbXrecord
280
     1
  1
DWGPROPS COOKIE
  2

  3

  4

  6

  7

  8
12017044
  9

300
=
301
=
302
=
303
=
304
=
305
=
306
=
307
=
308
=
309
=
 40
0.0
 41
2458269.438991667
 42
2458270.450988241
  1

 90
        0
  0
DICTIONARY
  5
16F
102
{ACAD_REACTORS
330
16E
102
}
330
16E
100
AcDbDictionary
281
     1
  0
LAYOUT
  5
1E
102
{ACAD_REACTORS
330
1A
102
}
330
1A
100
AcDbPlotSettings
  1

  2
none_device
  4

  6

 40
0.0
 41
0.0
 42
0.0
 43
0.0
 44
0.0
 45
0.0
 46
0.0
 47
0.0
 48
0.0
 49
0.0
140
0.0
141
0.0
142
1.0
143
1.0
 70
   688
 72
     1
 73
     0
 74
     5
  7

 75
    16
147
1.0
148
0.0
149
0.0
100
AcDbLayout
  1
Layout1
 70
     1
 71
     1
 10
0.0
 20
0.0
 11
420.0
 21
297.0
 12
0.0
 22
0.0
 32
0.0
 14
1.000000000000000E+20
 24
1.000000000000000E+20
 34
1.000000000000000E+20
 15
-1.000000000000000E+20
 25
-1.000000000000000E+20
 35
-1.000000000000000E+20
146
0.0
 13
0.0
 23
0.0
 33
0.0
 16
1.0
 26
0.0
 36
0.0
 17
0.0
 27
1.0
 37
0.0
 76
     0
330
1B
  0
LAYOUT
  5
26
102
{ACAD_REACTORS
330
1A
102
}
330
1A
100
AcDbPlotSettings
  1

  2
none_device
  4

  6

 40
0.0
 41
0.0
 42
0.0
 43
0.0
 44
0.0
 45
0.0
 46
0.0
 47
0.0
 48
0.0
 49
0.0
140
0.0
141
0.0
142
1.0
143
1.0
 70
   688
 72
     1
 73
     0
 74
     5
  7

 75
    16
147
1.0
148
0.0
149
0.0
100
AcDbLayout
  1
Layout2
 70
     1
 71
     2
 10
0.0
 20
0.0
 11
0.0
 21
0.0
 12
0.0
 22
0.0
 32
0.0
 14
0.0
 24
0.0
 34
0.0
 15
0.0
 25
0.0
 35
0.0
146
0.0
 13
0.0
 23
0.0
 33
0.0
 16
1.0
 26
0.0
 36
0.0
 17
0.0
 27
1.0
 37
0.0
 76
     0
330
23
  0
LAYOUT
  5
22
102
{ACAD_REACTORS
330
1A
102
}
330
1A
100
AcDbPlotSettings
  1

  2
none_device
  4
ANSI_A_(11.00_x_8.50_Inches)
  6

 40
6.35
 41
19.05
 42
6.35000508
 43
19.05000254
 44
279.4
 45
215.9
 46
110.9593412050573
 47
106.559972749464
 48
0.0
 49
0.0
140
0.0
141
0.0
142
0.0787616753210067
143
1.0
 70
  1696
 72
     0
 73
     0
 74
     0
  7

 75
     0
147
0.0235690232323232
148
0.0
149
0.0
100
AcDbLayout
  1
Model
 70
     1
 71
     0
 10
0.0
 20
0.0
 11
420.0
 21
297.0
 12
0.0
 22
0.0
 32
0.0
 14
-84.37500000000006
 24
-49.97180738881174
 34
0.0
 15
50.51348381534558
 25
28.375
 35
0.0
146
0.0
 13
0.0
 23
0.0
 33
0.0
 16
1.0
 26
0.0
 36
0.0
 17
0.0
 27
1.0
 37
0.0
 76
     0
330
1F
331
29
  0
MLINESTYLE
  5
18
102
{ACAD_REACTORS
330
17
102
}
330
17
100
AcDbMlineStyle
  2
Standard
 70
     0
  3

 62
   256
 51
90.0
 52
90.0
 71
     2
 49
0.5
 62
   256
  6
BYLAYER
 49
-0.5
 62
   256
  6
BYLAYER
  0
ACDBPLACEHOLDER
  5
F
102
{ACAD_REACTORS
330
E
102
}
330
E
  0
SCALE
  5
48
102
{ACAD_REACTORS
330
47
102
}
330
47
100
AcDbScale
 70
     0
300
1:1
140
1.0
141
1.0
290
     1
  0
SCALE
  5
49
102
{ACAD_REACTORS
330
47
102
}
330
47
100
AcDbScale
 70
     0
300
1:2
140
1.0
141
2.0
290
     0
  0
SCALE
  5
4A
102
{ACAD_REACTORS
330
47
102
}
330
47
100
AcDbScale
 70
     0
300
1:4
140
1.0
141
4.0
290
     0
  0
SCALE
  5
4B
102
{ACAD_REACTORS
330
47
102
}
330
47
100
AcDbScale
 70
     0
300
1:5
140
1.0
141
5.0
290
     0
  0
SCALE
  5
4C
102
{ACAD_REACTORS
330
47
102
}
330
47
100
AcDbScale
 70
     0
300
1:8
140
1.0
141
8.0
290
     0
  0
SCALE
  5
4D
102
{ACAD_REACTORS
330
47
102
}
330
47
100
AcDbScale
 70
     0
300
1:10
140
1.0
141
10.0
290
     0
  0
SCALE
  5
4E
102
{ACAD_REACTORS
330
47
102
}
330
47
100
AcDbScale
 70
     0
300
1:16
140
1.0
141
16.0
290
     0
  0
SCALE
  5
4F
102
{ACAD_REACTORS
330
47
102
}
330
47
100
AcDbScale
 70
     0
300
1:20
140
1.0
141
20.0
290
     0
  0
SCALE
  5
50
102
{ACAD_REACTORS
330
47
102
}
330
47
100
AcDbScale
 70
     0
300
1:30
140
1.0
141
30.0
290
     0
  0
SCALE
  5
51
102
{ACAD_REACTORS
330
47
102
}
330
47
100
AcDbScale
 70
     0
300
1:40
140
1.0
141
40.0
290
     0
  0
SCALE
  5
52
102
{ACAD_REACTORS
330
47
102
}
330
47
100
AcDbScale
 70
     0
300
1:50
140
1.0
141
50.0
290
     0
  0
SCALE
  5
53
102
{ACAD_REACTORS
330
47
102
}
330
47
100
AcDbScale
 70
     0
300
1:100
140
1.0
141
100.0
290
     0
  0
SCALE
  5
54
102
{ACAD_REACTORS
330
47
102
}
330
47
100
AcDbScale
 70
     0
300
2:1
140
2.0
141
1.0
290
     0
  0
SCALE
  5
55
102
{ACAD_REACTORS
330
47
102
}
330
47
100
AcDbScale
 70
     0
300
4:1
140
4.0
141
1.0
290
     0
  0
SCALE
  5
56
102
{ACAD_REACTORS
330
47
102
}
330
47
100
AcDbScale
 70
     0
300
8:1
140
8.0
141
1.0
290
     0
  0
SCALE
  5
57
102
{ACAD_REACTORS
330
47
102
}
330
47
100
AcDbScale
 70
     0
300
10:1
140
10.0
141
1.0
290
     0
  0
SCALE
  5
58
102
{ACAD_REACTORS
330
47
102
}
330
47
100
AcDbScale
 70
     0
300
100:1
140
100.0
141
1.0
290
     0
  0
SCALE
  5
59
102
{ACAD_REACTORS
330
47
102
}
330
47
100
AcDbScale
 70
     0
300
1/128" = 1'-0"
140
0.0078125
141
12.0
290
     0
  0
SCALE
  5
5A
102
{ACAD_REACTORS
330
47
102
}
330
47
100
AcDbScale
 70
     0
300
1/64" = 1'-0"
140
0.015625
141
12.0
290
     0
  0
SCALE
  5
5B
102
{ACAD_REACTORS
330
47
102
}
330
47
100
AcDbScale
 70
     0
300
1/32" = 1'-0"
140
0.03125
141
12.0
290
     0
  0
SCALE
  5
5C
102
{ACAD_REACTORS
330
47
102
}
330
47
100
AcDbScale
 70
     0
300
1/16" = 1'-0"
140
0.0625
141
12.0
290
     0
  0
SCALE
  5
5D
102
{ACAD_REACTORS
330
47
102
}
330
47
100
AcDbScale
 70
     0
300
3/32" = 1'-0"
140
0.09375
141
12.0
290
     0
  0
SCALE
  5
5E
102
{ACAD_REACTORS
330
47
102
}
330
47
100
AcDbScale
 70
     0
300
1/8" = 1'-0"
140
0.125
141
12.0
290
     0
  0
SCALE
  5
5F
102
{ACAD_REACTORS
330
47
102
}
330
47
100
AcDbScale
 70
     0
300
3/16" = 1'-0"
140
0.1875
141
12.0
290
     0
  0
SCALE
  5
60
102
{ACAD_REACTORS
330
47
102
}
330
47
100
AcDbScale
 70
     0
300
1/4" = 1'-0"
140
0.25
141
12.0
290
     0
  0
SCALE
  5
61
102
{ACAD_REACTORS
330
47
102
}
330
47
100
AcDbScale
 70
     0
300
3/8" = 1'-0"
140
0.375
141
12.0
290
     0
  0
SCALE
  5
62
102
{ACAD_REACTORS
330
47
102
}
330
47
100
AcDbScale
 70
     0
300
1/2" = 1'-0"
140
0.5
141
12.0
290
     0
  0
SCALE
  5
63
102
{ACAD_REACTORS
330
47
102
}
330
47
100
AcDbScale
 70
     0
300
3/4" = 1'-0"
140
0.75
141
12.0
290
     0
  0
SCALE
  5
64
102
{ACAD_REACTORS
330
47
102
}
330
47
100
AcDbScale
 70
     0
300
1" = 1'-0"
140
1.0
141
12.0
290
     0
  0
SCALE
  5
65
102
{ACAD_REACTORS
330
47
102
}
330
47
100
AcDbScale
 70
     0
300
1-1/2" = 1'-0"
140
1.5
141
12.0
290
     0
  0
SCALE
  5
66
102
{ACAD_REACTORS
330
47
102
}
330
47
100
AcDbScale
 70
     0
300
3" = 1'-0"
140
3.0
141
12.0
290
     0
  0
SCALE
  5
67
102
{ACAD_REACTORS
330
47
102
}
330
47
100
AcDbScale
 70
     0
300
6" = 1'-0"
140
6.0
141
12.0
290
     0
  0
SCALE
  5
68
102
{ACAD_REACTORS
330
47
102
}
330
47
100
AcDbScale
 70
     0
300
1'-0" = 1'-0"
140
12.0
141
12.0
290
     0
  0
ENDSEC
  0
EOF
