  0
SECTION
  2
HEADER
  9
$ACADVER
  1
AC1015
  9
$ACADMAINTVER
 70
     6
  9
$DWGCODEPAGE
  3
ANSI_949
  9
$INSBASE
 10
0.0
 20
0.0
 30
0.0
  9
$EXTMIN
 10
-83.50897459621557
 20
-49.97073246008786
 30
0.0
  9
$EXTMAX
 10
51.37950921913007
 20
28.3760749287239
 30
0.0
  9
$LIMMIN
 10
0.0
 20
0.0
  9
$LIMMAX
 10
420.0
 20
297.0
  9
$ORTHOMODE
 70
     1
  9
$REGENMODE
 70
     1
  9
$FILLMODE
 70
     1
  9
$QTEXTMODE
 70
     0
  9
$MIRRTEXT
 70
     1
  9
$LTSCALE
 40
1.0
  9
$ATTMODE
 70
     1
  9
$TEXTSIZE
 40
3.5
  9
$TRACEWID
 40
1.0
  9
$TEXTSTYLE
  7
Standard
  9
$CLAYER
  8
0
  9
$CELTYPE
  6
ByLayer
  9
$CECOLOR
 62
   256
  9
$CELTSCALE
 40
1.0
  9
$DISPSILH
 70
     0
  9
$DIMSCALE
 40
1.0
  9
$DIMASZ
 40
3.302
  9
$DIMEXO
 40
1.0
  9
$DIMDLI
 40
3.75
  9
$DIMRND
 40
0.0
  9
$DIMDLE
 40
0.0
  9
$DIMEXE
 40
1.0
  9
$DIMTP
 40
0.0
  9
$DIMTM
 40
0.0
  9
$DIMTXT
 40
3.5
  9
$DIMCEN
 40
2.5
  9
$DIMTSZ
 40
0.0
  9
$DIMTOL
 70
     0
  9
$DIMLIM
 70
     0
  9
$DIMTIH
 70
     1
  9
$DIMTOH
 70
     1
  9
$DIMSE1
 70
     0
  9
$DIMSE2
 70
     0
  9
$DIMTAD
 70
     1
  9
$DIMZIN
 70
     0
  9
$DIMBLK
  1

  9
$DIMASO
 70
     1
  9
$DIMSHO
 70
     1
  9
$DIMPOST
  1

  9
$DIMAPOST
  1

  9
$DIMALT
 70
     0
  9
$DIMALTD
 70
     3
  9
$DIMALTF
 40
0.0393700787401575
  9
$DIMLFAC
 40
1.0
  9
$DIMTOFL
 70
     1
  9
$DIMTVP
 40
0.0
  9
$DIMTIX
 70
     0
  9
$DIMSOXD
 70
     0
  9
$DIMSAH
 70
     0
  9
$DIMBLK1
  1

  9
$DIMBLK2
  1

  9
$DIMSTYLE
  2
ISO-25
  9
$DIMCLRD
 70
     0
  9
$DIMCLRE
 70
     0
  9
$DIMCLRT
 70
     0
  9
$DIMTFAC
 40
1.0
  9
$DIMGAP
 40
1.524
  9
$DIMJUST
 70
     0
  9
$DIMSD1
 70
     0
  9
$DIMSD2
 70
     0
  9
$DIMTOLJ
 70
     0
  9
$DIMTZIN
 70
     0
  9
$DIMALTZ
 70
     0
  9
$DIMALTTZ
 70
     0
  9
$DIMUPT
 70
     0
  9
$DIMDEC
 70
     2
  9
$DIMTDEC
 70
     2
  9
$DIMALTU
 70
     2
  9
$DIMALTTD
 70
     3
  9
$DIMTXSTY
  7
Standard
  9
$DIMAUNIT
 70
     0
  9
$DIMADEC
 70
     2
  9
$DIMALTRND
 40
0.0
  9
$DIMAZIN
 70
     0
  9
$DIMDSEP
 70
    44
  9
$DIMATFIT
 70
     3
  9
$DIMFRAC
 70
     0
  9
$DIMLDRBLK
  1

  9
$DIMLUNIT
 70
     2
  9
$DIMLWD
 70
    -2
  9
$DIMLWE
 70
    -2
  9
$DIMTMOVE
 70
     0
  9
$LUNITS
 70
     2
  9
$LUPREC
 70
     2
  9
$SKETCHINC
 40
1.0
  9
$FILLETRAD
 40
10.0
  9
$AUNITS
 70
     0
  9
$AUPREC
 70
     2
  9
$MENU
  1
.
  9
$ELEVATION
 40
0.0
  9
$PELEVATION
 40
0.0
  9
$THICKNESS
 40
0.0
  9
$LIMCHECK
 70
     0
  9
$CHAMFERA
 40
0.0
  9
$CHAMFERB
 40
0.0
  9
$CHAMFERC
 40
0.0
  9
$CHAMFERD
 40
0.0
  9
$SKPOLY
 70
     0
  9
$TDCREATE
 40
2458269.813235324
  9
$TDUCREATE
 40
2458269.438235324
  9
$TDUPDATE
 40
2458270.816292176
  9
$TDUUPDATE
 40
2458270.441292176
  9
$TDINDWG
 40
0.0021205093
  9
$TDUSRTIMER
 40
0.0021204977
  9
$USRTIMER
 70
     1
  9
$ANGBASE
 50
0.0
  9
$ANGDIR
 70
     0
  9
$PDMODE
 70
     0
  9
$PDSIZE
 40
-1.0
  9
$PLINEWID
 40
0.0
  9
$SPLFRAME
 70
     0
  9
$SPLINETYPE
 70
     6
  9
$SPLINESEGS
 70
     8
  9
$HANDSEED
  5
1D5
  9
$SURFTAB1
 70
     6
  9
$SURFTAB2
 70
     6
  9
$SURFTYPE
 70
     6
  9
$SURFU
 70
     6
  9
$SURFV
 70
     6
  9
$UCSBASE
  2

  9
$UCSNAME
  2

  9
$UCSORG
 10
0.0
 20
0.0
 30
0.0
  9
$UCSXDIR
 10
1.0
 20
0.0
 30
0.0
  9
$UCSYDIR
 10
0.0
 20
1.0
 30
0.0
  9
$UCSORTHOREF
  2

  9
$UCSORTHOVIEW
 70
     0
  9
$UCSORGTOP
 10
0.0
 20
0.0
 30
0.0
  9
$UCSORGBOTTOM
 10
0.0
 20
0.0
 30
0.0
  9
$UCSORGLEFT
 10
0.0
 20
0.0
 30
0.0
  9
$UCSORGRIGHT
 10
0.0
 20
0.0
 30
0.0
  9
$UCSORGFRONT
 10
0.0
 20
0.0
 30
0.0
  9
$UCSORGBACK
 10
0.0
 20
0.0
 30
0.0
  9
$PUCSBASE
  2

  9
$PUCSNAME
  2

  9
$PUCSORG
 10
0.0
 20
0.0
 30
0.0
  9
$PUCSXDIR
 10
1.0
 20
0.0
 30
0.0
  9
$PUCSYDIR
 10
0.0
 20
1.0
 30
0.0
  9
$PUCSORTHOREF
  2

  9
$PUCSORTHOVIEW
 70
     0
  9
$PUCSORGTOP
 10
0.0
 20
0.0
 30
0.0
  9
$PUCSORGBOTTOM
 10
0.0
 20
0.0
 30
0.0
  9
$PUCSORGLEFT
 10
0.0
 20
0.0
 30
0.0
  9
$PUCSORGRIGHT
 10
0.0
 20
0.0
 30
0.0
  9
$PUCSORGFRONT
 10
0.0
 20
0.0
 30
0.0
  9
$PUCSORGBACK
 10
0.0
 20
0.0
 30
0.0
  9
$USERI1
 70
     0
  9
$USERI2
 70
     0
  9
$USERI3
 70
     0
  9
$USERI4
 70
     0
  9
$USERI5
 70
     0
  9
$USERR1
 40
0.0
  9
$USERR2
 40
0.0
  9
$USERR3
 40
0.0
  9
$USERR4
 40
0.0
  9
$USERR5
 40
0.0
  9
$WORLDVIEW
 70
     1
  9
$SHADEDGE
 70
     3
  9
$SHADEDIF
 70
    70
  9
$TILEMODE
 70
     1
  9
$MAXACTVP
 70
    64
  9
$PINSBASE
 10
0.0
 20
0.0
 30
0.0
  9
$PLIMCHECK
 70
     0
  9
$PEXTMIN
 10
1.000000000000000E+20
 20
1.000000000000000E+20
 30
1.000000000000000E+20
  9
$PEXTMAX
 10
-1.000000000000000E+20
 20
-1.000000000000000E+20
 30
-1.000000000000000E+20
  9
$PLIMMIN
 10
0.0
 20
0.0
  9
$PLIMMAX
 10
0.0
 20
0.0
  9
$UNITMODE
 70
     0
  9
$VISRETAIN
 70
     1
  9
$PLINEGEN
 70
     0
  9
$PSLTSCALE
 70
     1
  9
$TREEDEPTH
 70
  3020
  9
$CMLSTYLE
  2
Standard
  9
$CMLJUST
 70
     0
  9
$CMLSCALE
 40
20.0
  9
$PROXYGRAPHICS
 70
     1
  9
$MEASUREMENT
 70
     1
  9
$CELWEIGHT
370
    -1
  9
$ENDCAPS
280
     0
  9
$JOINSTYLE
280
     0
  9
$LWDISPLAY
290
     1
  9
$INSUNITS
 70
     4
  9
$HYPERLINKBASE
  1

  9
$STYLESHEET
  1

  9
$XEDIT
290
     1
  9
$CEPSNTYPE
380
     0
  9
$PSTYLEMODE
290
     1
  9
$FINGERPRINTGUID
  2
{F1FD6488-1847-4C2E-A865-5CE7537B908C}
  9
$VERSIONGUID
  2
{FAEB1C32-E019-11D5-929B-00C0DF256EC4}
  9
$EXTNAMES
290
     1
  9
$PSVPSCALE
 40
0.0
  9
$OLESTARTUP
290
     0
  0
ENDSEC
  0
SECTION
  2
CLASSES
  0
CLASS
  1
ACDBDICTIONARYWDFLT
  2
AcDbDictionaryWithDefault
  3
ObjectDBX Classes
 90
        0
280
     0
281
     0
  0
CLASS
  1
VISUALSTYLE
  2
AcDbVisualStyle
  3
ObjectDBX Classes
 90
     4095
280
     0
281
     0
  0
CLASS
  1
MATERIAL
  2
AcDbMaterial
  3
ObjectDBX Classes
 90
     1153
280
     0
281
     0
  0
CLASS
  1
SCALE
  2
AcDbScale
  3
ObjectDBX Classes
 90
     1153
280
     0
281
     0
  0
CLASS
  1
SUN
  2
AcDbSun
  3
SCENEOE
 90
     1153
280
     0
281
     0
  0
CLASS
  1
ACDBPLACEHOLDER
  2
AcDbPlaceHolder
  3
ObjectDBX Classes
 90
        0
280
     0
281
     0
  0
CLASS
  1
LAYOUT
  2
AcDbLayout
  3
ObjectDBX Classes
 90
        0
280
     0
281
     0
  0
CLASS
  1
TABLESTYLE
  2
AcDbTableStyle
  3
ObjectDBX Classes
 90
     4095
280
     0
281
     0
  0
CLASS
  1
MLEADERSTYLE
  2
AcDbMLeaderStyle
  3
ACDB_MLEADERSTYLE_CLASS
 90
     4095
280
     0
281
     0
  0
CLASS
  1
DICTIONARYVAR
  2
AcDbDictionaryVar
  3
ObjectDBX Classes
 90
        0
280
     0
281
     0
  0
CLASS
  1
DIMASSOC
  2
AcDbDimAssoc
  3
"AcDbDimAssoc|Product Desc:     AcDim ARX App For Dimension|Company:          Autodesk, Inc.|WEB Address:      www.autodesk.com"
 90
        0
280
     0
281
     0
  0
ENDSEC
  0
SECTION
  2
TABLES
  0
TABLE
  2
VPORT
  5
8
330
0
100
AcDbSymbolTable
 70
     1
  0
VPORT
  5
29
330
8
100
AcDbSymbolTableRecord
100
AcDbViewportTableRecord
  2
*Active
 70
     0
 10
0.0
 20
0.0
 11
1.0
 21
1.0
 12
-16.06473268854276
 22
-10.79732876568198
 13
0.0
 23
0.0
 14
10.0
 24
10.0
 15
10.0
 25
10.0
 16
0.0
 26
0.0
 36
1.0
 17
0.0
 27
0.0
 37
0.0
 40
79.91374353658799
 41
2.05607476635514
 42
50.0
 43
0.0
 44
0.0
 50
0.0
 51
0.0
 71
    16
 72
  2000
 73
     1
 74
     3
 75
     0
 76
     0
 77
     0
 78
     0
281
     0
 65
     1
110
0.0
120
0.0
130
0.0
111
1.0
121
0.0
131
0.0
112
0.0
122
1.0
132
0.0
 79
     0
146
0.0
  0
ENDTAB
  0
TABLE
  2
LTYPE
  5
5
330
0
100
AcDbSymbolTable
 70
     6
  0
LTYPE
  5
14
330
5
100
AcDbSymbolTableRecord
100
AcDbLinetypeTableRecord
  2
ByBlock
 70
     0
  3

 72
    65
 73
     0
 40
0.0
  0
LTYPE
  5
15
330
5
100
AcDbSymbolTableRecord
100
AcDbLinetypeTableRecord
  2
ByLayer
 70
     0
  3

 72
    65
 73
     0
 40
0.0
  0
LTYPE
  5
16
330
5
100
AcDbSymbolTableRecord
100
AcDbLinetypeTableRecord
  2
Continuous
 70
     0
  3
Solid line
 72
    65
 73
     0
 40
0.0
  0
LTYPE
  5
6A
330
5
100
AcDbSymbolTableRecord
100
AcDbLinetypeTableRecord
  2
HIDDEN
 70
     0
  3
Hidden __ __ __ __ __ __ __ __ __ __ __ __ __ __
 72
    65
 73
     2
 40
1.905
 49
1.27
 74
     0
 49
-0.635
 74
     0
  0
LTYPE
  5
6B
330
5
100
AcDbSymbolTableRecord
100
AcDbLinetypeTableRecord
  2
PHANTOM
 70
     0
  3
Phantom ______  __  __  ______  __  __  ______
 72
    65
 73
     6
 40
12.7
 49
6.35
 74
     0
 49
-1.27
 74
     0
 49
1.27
 74
     0
 49
-1.27
 74
     0
 49
1.27
 74
     0
 49
-1.27
 74
     0
  0
LTYPE
  5
6C
330
5
100
AcDbSymbolTableRecord
100
AcDbLinetypeTableRecord
  2
CENTER
 70
     0
  3
Center ____ _ ____ _ ____ _ ____ _ ____ _ ____
 72
    65
 73
     4
 40
10.16
 49
6.35
 74
     0
 49
-1.27
 74
     0
 49
1.27
 74
     0
 49
-1.27
 74
     0
  0
LTYPE
  5
6D
330
5
100
AcDbSymbolTableRecord
100
AcDbLinetypeTableRecord
  2
CENTERX2
 70
     0
  3
Center (2x) ________  __  ________  __  _____
 72
    65
 73
     4
 40
20.32
 49
12.7
 74
     0
 49
-2.54
 74
     0
 49
2.54
 74
     0
 49
-2.54
 74
     0
  0
LTYPE
  5
6E
330
5
100
AcDbSymbolTableRecord
100
AcDbLinetypeTableRecord
  2
DOT2
 70
     0
  3
Dot (.5x) ........................................
 72
    65
 73
     2
 40
0.635
 49
0.0
 74
     0
 49
-0.635
 74
     0
  0
ENDTAB
  0
TABLE
  2
LAYER
  5
2
102
{ACAD_XDICTIONARY
360
17C
102
}
330
0
100
AcDbSymbolTable
 70
    18
  0
LAYER
  5
10
330
2
100
AcDbSymbolTableRecord
100
AcDbLayerTableRecord
  2
0
 70
     0
 62
     7
  6
Continuous
370
    -3
390
F
  0
LAYER
  5
6F
330
2
100
AcDbSymbolTableRecord
100
AcDbLayerTableRecord
  2
FORMAT
 70
     0
 62
     2
  6
Continuous
370
    -3
390
F
  0
LAYER
  5
70
330
2
100
AcDbSymbolTableRecord
100
AcDbLayerTableRecord
  2
외형선
 70
     0
 62
     4
  6
Continuous
370
    30
390
F
  0
LAYER
  5
71
330
2
100
AcDbSymbolTableRecord
100
AcDbLayerTableRecord
  2
숨은선
 70
     0
 62
     2
  6
HIDDEN
370
    15
390
F
  0
LAYER
  5
72
330
2
100
AcDbSymbolTableRecord
100
AcDbLayerTableRecord
  2
중심선
 70
     0
 62
     1
  6
CENTERX2
370
    -3
390
F
  0
LAYER
  5
73
330
2
100
AcDbSymbolTableRecord
100
AcDbLayerTableRecord
  2
파단선
 70
     0
 62
     4
  6
Continuous
370
    -3
390
F
  0
LAYER
  5
74
330
2
100
AcDbSymbolTableRecord
100
AcDbLayerTableRecord
  2
해칭선
 70
     0
 62
   100
  6
Continuous
370
    -3
390
F
  0
LAYER
  5
75
330
2
100
AcDbSymbolTableRecord
100
AcDbLayerTableRecord
  2
가는실선
 70
     0
 62
     4
  6
Continuous
370
    -3
390
F
  0
LAYER
  5
76
330
2
100
AcDbSymbolTableRecord
100
AcDbLayerTableRecord
  2
치수_보조선
 70
     0
 62
     4
  6
Continuous
370
    -3
390
F
  0
LAYER
  5
77
330
2
100
AcDbSymbolTableRecord
100
AcDbLayerTableRecord
  2
치수문자_일반주서
 70
     0
 62
     7
  6
Continuous
370
    15
390
F
  0
LAYER
  5
78
330
2
100
AcDbSymbolTableRecord
100
AcDbLayerTableRecord
  2
개별주서
 70
     0
 62
   100
  6
Continuous
370
    30
390
F
  0
LAYER
  5
79
330
2
100
AcDbSymbolTableRecord
100
AcDbLayerTableRecord
  2
중간선
 70
     0
 62
     2
  6
Continuous
370
    15
390
F
  0
LAYER
  5
7A
330
2
100
AcDbSymbolTableRecord
100
AcDbLayerTableRecord
  2
윤곽선
 70
     0
 62
     3
  6
Continuous
370
    40
390
F
  0
LAYER
  5
7B
330
2
100
AcDbSymbolTableRecord
100
AcDbLayerTableRecord
  2
중심마크
 70
     0
 62
   100
  6
Continuous
370
    30
390
F
  0
LAYER
  5
7C
330
2
100
AcDbSymbolTableRecord
100
AcDbLayerTableRecord
  2
가상선
 70
     0
 62
     4
  6
PHANTOM
370
    -3
390
F
  0
LAYER
  5
7D
330
2
100
AcDbSymbolTableRecord
100
AcDbLayerTableRecord
  2
특수지정선
 70
     0
 62
     5
  6
CENTERX2
370
    60
390
F
  0
LAYER
  5
7E
330
2
100
AcDbSymbolTableRecord
100
AcDbLayerTableRecord
  2
참조1
 70
     0
 62
    -4
  6
Continuous
370
    -3
390
F
  0
LAYER
  5
138
330
2
100
AcDbSymbolTableRecord
100
AcDbLayerTableRecord
  2
Defpoints
 70
     0
 62
     7
  6
Continuous
290
     0
370
    -3
390
F
  0
ENDTAB
  0
TABLE
  2
STYLE
  5
3
330
0
100
AcDbSymbolTable
 70
     2
  0
STYLE
  5
11
330
3
100
AcDbSymbolTableRecord
100
AcDbTextStyleTableRecord
  2
Standard
 70
     0
 40
0.0
 41
1.0
 50
0.0
 71
     0
 42
3.5
  3
txt
  4

  0
STYLE
  5
94
330
3
100
AcDbSymbolTableRecord
100
AcDbTextStyleTableRecord
  2
SLDTEXTSTYLE0
 70
     0
 40
0.0
 41
0.75
 50
0.0
 71
     0
 42
3.5
  3
TXT
  4

  0
ENDTAB
  0
TABLE
  2
VIEW
  5
6
330
0
100
AcDbSymbolTable
 70
     0
  0
ENDTAB
  0
TABLE
  2
UCS
  5
7
330
0
100
AcDbSymbolTable
 70
     0
  0
ENDTAB
  0
TABLE
  2
APPID
  5
9
330
0
100
AcDbSymbolTable
 70
     3
  0
APPID
  5
12
330
9
100
AcDbSymbolTableRecord
100
AcDbRegAppTableRecord
  2
ACAD
 70
     0
  0
APPID
  5
140
330
9
100
AcDbSymbolTableRecord
100
AcDbRegAppTableRecord
  2
PE_URL
 70
     0
  0
APPID
  5
141
330
9
100
AcDbSymbolTableRecord
100
AcDbRegAppTableRecord
  2
ACAD_DSTYLE_DIMRADIAL_EXTENSION
 70
     0
  0
ENDTAB
  0
TABLE
  2
DIMSTYLE
  5
A
330
0
100
AcDbSymbolTable
 70
     3
100
AcDbDimStyleTable
  0
DIMSTYLE
105
27
330
A
100
AcDbSymbolTableRecord
100
AcDbDimStyleTableRecord
  2
ISO-25
 70
     0
 41
2.5
 42
0.625
 43
3.75
 44
1.25
 73
     0
 74
     0
 77
     1
 78
     8
140
2.5
141
2.5
143
0.03937007874016
147
0.625
171
     3
172
     1
178
     0
271
     2
272
     2
274
     3
278
    44
283
     0
284
     8
340
11
  0
DIMSTYLE
105
D6
102
{ACAD_REACTORS
330
D5
330
E3
330
F0
330
160
330
FC
102
}
330
A
100
AcDbSymbolTableRecord
100
AcDbDimStyleTableRecord
  2
SLDDIMSTYLE0
 70
     0
 41
3.302
 44
0.0
 45
0.000000001
 73
     0
 74
     0
 77
     1
 78
    12
 79
     3
140
3.5
147
0.875
172
     1
173
     1
178
     0
271
     2
272
     2
276
     2
284
    12
289
     0
340
94
  0
DIMSTYLE
105
FD
102
{ACAD_REACTORS
330
170
330
1C6
102
}
330
A
100
AcDbSymbolTableRecord
100
AcDbDimStyleTableRecord
  2
SLDDIMSTYLE1
 70
     0
 41
3.302
 44
0.0
 45
0.000000001
 73
     0
 74
     0
 77
     1
 78
    12
 79
     3
140
3.5
147
0.875
173
     1
178
     0
271
     2
272
     2
276
     2
284
    12
340
94
  0
ENDTAB
  0
TABLE
  2
BLOCK_RECORD
  5
1
330
0
100
AcDbSymbolTable
 70
    13
  0
BLOCK_RECORD
  5
1F
330
1
100
AcDbSymbolTableRecord
100
AcDbBlockTableRecord
  2
*Model_Space
340
22
  0
BLOCK_RECORD
  5
1B
330
1
100
AcDbSymbolTableRecord
100
AcDbBlockTableRecord
  2
*Paper_Space
340
1E
  0
BLOCK_RECORD
  5
23
330
1
100
AcDbSymbolTableRecord
100
AcDbBlockTableRecord
  2
*Paper_Space0
340
26
  0
BLOCK_RECORD
  5
7F
330
1
100
AcDbSymbolTableRecord
100
AcDbBlockTableRecord
  2
블럭10
340
0
102
{BLKREFS
331
CE
102
}
  0
BLOCK_RECORD
  5
D7
330
1
100
AcDbSymbolTableRecord
100
AcDbBlockTableRecord
  2
_D
340
0
  0
BLOCK_RECORD
  5
E4
330
1
100
AcDbSymbolTableRecord
100
AcDbBlockTableRecord
  2
_D_1
340
0
  0
BLOCK_RECORD
  5
F1
330
1
100
AcDbSymbolTableRecord
100
AcDbBlockTableRecord
  2
_D_2
340
0
  0
BLOCK_RECORD
  5
FE
330
1
100
AcDbSymbolTableRecord
100
AcDbBlockTableRecord
  2
_D_3
340
0
  0
BLOCK_RECORD
  5
10E
330
1
100
AcDbSymbolTableRecord
100
AcDbBlockTableRecord
  2
SW_DOWELSYMBOL_0
340
0
102
{BLKREFS
331
114
102
}
  0
BLOCK_RECORD
  5
171
330
1
100
AcDbSymbolTableRecord
100
AcDbBlockTableRecord
  2
*D8
340
0
  0
BLOCK_RECORD
  5
180
330
1
100
AcDbSymbolTableRecord
100
AcDbBlockTableRecord
  2
*D9
340
0
  0
BLOCK_RECORD
  5
193
330
1
100
AcDbSymbolTableRecord
100
AcDbBlockTableRecord
  2
*D10
340
0
  0
BLOCK_RECORD
  5
1A2
330
1
100
AcDbSymbolTableRecord
100
AcDbBlockTableRecord
  2
*D11
340
0
  0
BLOCK_RECORD
  5
1C9
330
1
100
AcDbSymbolTableRecord
100
AcDbBlockTableRecord
  2
*D12
340
0
  0
ENDTAB
  0
ENDSEC
  0
SECTION
  2
BLOCKS
  0
BLOCK
  5
20
330
1F
100
AcDbEntity
  8
0
100
AcDbBlockBegin
  2
*Model_Space
 70
     0
 10
0.0
 20
0.0
 30
0.0
  3
*Model_Space
  1

  0
ENDBLK
  5
21
330
1F
100
AcDbEntity
  8
0
100
AcDbBlockEnd
  0
BLOCK
  5
1C
330
1B
100
AcDbEntity
 67
     1
  8
0
100
AcDbBlockBegin
  2
*Paper_Space
 70
     0
 10
0.0
 20
0.0
 30
0.0
  3
*Paper_Space
  1

  0
ENDBLK
  5
1D
330
1B
100
AcDbEntity
 67
     1
  8
0
100
AcDbBlockEnd
  0
BLOCK
  5
24
330
23
100
AcDbEntity
  8
0
100
AcDbBlockBegin
  2
*Paper_Space0
 70
     0
 10
0.0
 20
0.0
 30
0.0
  3
*Paper_Space0
  1

  0
ENDBLK
  5
25
330
23
100
AcDbEntity
  8
0
100
AcDbBlockEnd
  0
BLOCK
  5
80
330
7F
100
AcDbEntity
  8
0
100
AcDbBlockBegin
  2
블럭10
 70
     2
 10
0.0
 20
0.0
 30
0.0
  3
블럭10
  1

  0
ELLIPSE
  5
82
330
7F
100
AcDbEntity
  8
중심선
100
AcDbEllipse
 10
20.54032771741204
 20
12.0471743016438
 30
0.0
 11
6.600054785286829
 21
-1.261213355974178E-13
 31
0.0
210
0.0
220
0.0
230
1.0
 40
0.636358354079598
 41
0.9219305317359503
 42
6.513795318482858
  0
ELLIPSE
  5
83
330
7F
100
AcDbEntity
  8
중심선
100
AcDbEllipse
 10
20.54032771746488
 20
12.04717430159265
 30
0.0
 11
3.960054785062283
 21
1.540847449632565E-10
 31
0.0
210
0.0
220
0.0
230
1.0
 40
0.3939339440162632
 41
1.131841032648279
 42
5.62031148352944
  0
LINE
  5
84
330
7F
100
AcDbEntity
  8
중심선
100
AcDbLine
 10
2.268634060543552
 20
16.24717430164393
 30
0.0
 11
5.714909304380834
 21
16.24717430164393
 31
0.0
  0
LINE
  5
85
330
7F
100
AcDbEntity
  8
중심선
100
AcDbLine
 10
5.245725140726316
 20
7.84717430164391
 30
0.0
 11
8.692000384563599
 21
7.84717430164391
 31
0.0
  0
LINE
  5
86
330
7F
100
AcDbEntity
  8
중심선
100
AcDbLine
 10
15.74043728645272
 20
16.24717430164393
 30
0.0
 11
8.692000384563599
 21
7.84717430164391
 31
0.0
  0
LINE
  5
87
330
7F
100
AcDbEntity
  8
중심선
100
AcDbLine
 10
0.1404042013395286
 20
13.71084872107135
 30
0.0
 11
3.58671253028996
 21
13.71088815037384
 31
0.0
  0
LINE
  5
88
330
7F
100
AcDbEntity
  8
중심선
100
AcDbLine
 10
2.750260043222114
 20
10.84717430164391
 30
0.0
 11
6.196535287059397
 21
10.84717430164391
 31
0.0
  0
LINE
  5
89
330
7F
100
AcDbEntity
  8
중심선
100
AcDbLine
 10
12.29416204261559
 20
16.24717430164393
 30
0.0
 11
5.245725140726316
 21
7.84717430164391
 31
0.0
  0
LINE
  5
8A
330
7F
100
AcDbEntity
  8
중심선
100
AcDbLine
 10
10.72767329541681
 20
16.24717430164393
 30
0.0
 11
6.196535287059397
 21
10.84717430164391
 31
0.0
  0
LINE
  5
8B
330
7F
100
AcDbEntity
  8
중심선
100
AcDbLine
 10
7.28139805157953
 20
16.24717430164393
 30
0.0
 11
2.750260043222114
 21
10.84717430164391
 31
0.0
  0
LINE
  5
8C
330
7F
100
AcDbEntity
  8
중심선
100
AcDbLine
 10
5.714909304380834
 20
16.24717430164393
 30
0.0
 11
3.58671253028996
 21
13.71088815037384
 31
0.0
  0
LINE
  5
8D
330
7F
100
AcDbEntity
  8
중심선
100
AcDbLine
 10
2.268634060543552
 20
16.24717430164393
 30
0.0
 11
0.1404042013395286
 21
13.71084872107135
 31
0.0
  0
LINE
  5
8E
330
7F
100
AcDbEntity
  8
중심선
100
AcDbLine
 10
7.28139805157953
 20
16.24717430164393
 30
0.0
 11
10.72767329541681
 21
16.24717430164393
 31
0.0
  0
LINE
  5
8F
330
7F
100
AcDbEntity
  8
중심선
100
AcDbLine
 10
12.29416204261559
 20
16.24717430164393
 30
0.0
 11
15.74043728645272
 21
16.24717430164393
 31
0.0
  0
LINE
  5
90
330
7F
100
AcDbEntity
  8
중심선
100
AcDbLine
 10
19.22036997980202
 20
11.08717430171403
 30
0.0
 11
23.66174974927406
 21
11.08717430171406
 31
0.0
  0
LINE
  5
91
330
7F
100
AcDbEntity
  8
중심선
100
AcDbLine
 10
19.22039502424796
 20
13.00717430171391
 30
0.0
 11
19.22036997980202
 21
11.08717430171403
 31
0.0
  0
LINE
  5
92
330
7F
100
AcDbEntity
  8
중심선
100
AcDbLine
 10
19.22039502424796
 20
13.00717430171391
 30
0.0
 11
26.96566020931264
 21
13.00717430171391
 31
0.0
  0
LINE
  5
93
330
7F
100
AcDbEntity
  8
중심선
100
AcDbLine
 10
22.22332737316547
 20
13.45928029700563
 30
0.0
 11
24.52862924686651
 21
15.39360700705356
 31
0.0
  0
ATTDEF
  5
95
330
7F
100
AcDbEntity
  8
FORMAT
 62
     2
100
AcDbText
 10
-16.11926103943555
 20
2.075366912832191
 30
0.0
 40
4.233333333333333
  1
SEME0107020E [ 4 FLUTE ]
 41
0.75
  7
SLDTEXTSTYLE0
 11
-16.11926103943555
 21
-0.0412997538344756
 31
0.0
100
AcDbAttributeDefinition
  3

  2
AUTOATTR0
 70
     0
 74
     1
  0
ENDBLK
  5
81
330
7F
100
AcDbEntity
  8
0
100
AcDbBlockEnd
  0
BLOCK
  5
D8
330
D7
100
AcDbEntity
  8
0
100
AcDbBlockBegin
  2
_D
 70
     0
 10
0.0
 20
0.0
 30
0.0
  3
_D
  1

  0
LINE
  5
DA
330
D7
100
AcDbEntity
  8
치수문자_일반주서
 62
     0
370
    -2
100
AcDbLine
 10
20.92852540378443
 20
3.501074928723889
 30
0.0
 11
30.86602540378446
 21
3.501074928723927
 31
0.0
  0
LINE
  5
DB
330
D7
100
AcDbEntity
  8
치수문자_일반주서
 62
     0
370
    -2
100
AcDbLine
 10
20.92852540378443
 20
-3.498925071276111
 30
0.0
 11
30.86602540378448
 21
-3.498925071276075
 31
0.0
  0
LINE
  5
DC
330
D7
100
AcDbEntity
  8
치수문자_일반주서
 62
     0
370
    -2
100
AcDbLine
 10
30.86602540378446
 20
3.501074928723927
 30
0.0
 11
30.86602540378441
 21
16.23007492872395
 31
0.0
  0
LINE
  5
DD
330
D7
100
AcDbEntity
  8
치수문자_일반주서
 62
     0
370
    -2
100
AcDbLine
 10
30.86602540378446
 20
3.501074928723927
 30
0.0
 11
30.86602540378448
 21
-3.498925071276075
 31
0.0
  0
LINE
  5
DE
330
D7
100
AcDbEntity
  8
치수문자_일반주서
 62
     0
370
    -2
100
AcDbLine
 10
30.86602540378445
 20
6.803074928723927
 30
0.0
 11
30.86602540378444
 21
10.10507492872393
 31
0.0
  0
LINE
  5
DF
330
D7
100
AcDbEntity
  8
치수문자_일반주서
 62
     0
370
    -2
100
AcDbLine
 10
30.86602540378449
 20
-6.800925071276074
 30
0.0
 11
30.8660254037845
 21
-10.10292507127607
 31
0.0
  0
SOLID
  5
E0
330
D7
100
AcDbEntity
  8
치수문자_일반주서
 62
     0
100
AcDbTrace
 10
30.31569207045111
 20
6.803074928723925
 30
0.0
 11
31.41635873711778
 21
6.803074928723928
 31
0.0
 12
30.86602540378446
 22
3.501074928723927
 32
0.0
 13
30.86602540378446
 23
3.501074928723927
 33
0.0
  0
SOLID
  5
E1
330
D7
100
AcDbEntity
  8
치수문자_일반주서
 62
     0
100
AcDbTrace
 10
31.41635873711783
 20
-6.800925071276072
 30
0.0
 11
30.31569207045116
 21
-6.800925071276076
 31
0.0
 12
30.86602540378448
 22
-3.498925071276075
 32
0.0
 13
30.86602540378448
 23
-3.498925071276075
 33
0.0
  0
MTEXT
  5
E2
330
D7
100
AcDbEntity
  8
치수문자_일반주서
 62
     0
100
AcDbMText
 10
26.49102540378442
 20
13.16757492872394
 30
0.0
 40
3.5
 41
0.0
 71
     2
 72
     1
  1
\A1;%%c7
  7
SLDTEXTSTYLE0
 11
-3.552713678800501E-15
 21
1.0
 31
0.0
 73
     1
 44
1.0
  0
POINT
  5
1BE
330
D7
100
AcDbEntity
  8
Defpoints
 62
     0
100
AcDbPoint
 10
20.86602540378443
 20
3.501074928723889
 30
0.0
  0
POINT
  5
1BF
330
D7
100
AcDbEntity
  8
Defpoints
 62
     0
100
AcDbPoint
 10
20.86602540378443
 20
-3.498925071276111
 30
0.0
  0
POINT
  5
1C0
330
D7
100
AcDbEntity
  8
Defpoints
 62
     0
100
AcDbPoint
 10
30.86602540378447
 20
-3.498925071276074
 30
0.0
  0
ENDBLK
  5
D9
330
D7
100
AcDbEntity
  8
0
100
AcDbBlockEnd
  0
BLOCK
  5
E5
330
E4
100
AcDbEntity
  8
0
100
AcDbBlockBegin
  2
_D_1
 70
     0
 10
0.0
 20
0.0
 30
0.0
  3
_D_1
  1

  0
LINE
  5
E7
330
E4
100
AcDbEntity
  8
치수문자_일반주서
 62
     0
370
    -2
100
AcDbLine
 10
-68.39647459621553
 20
4.001074928723897
 30
0.0
 11
-79.13397459621554
 21
4.001074928723856
 31
0.0
  0
LINE
  5
E8
330
E4
100
AcDbEntity
  8
치수문자_일반주서
 62
     0
370
    -2
100
AcDbLine
 10
-68.39647459621553
 20
-3.998925071276111
 30
0.0
 11
-79.13397459621551
 21
-3.998925071276155
 31
0.0
  0
LINE
  5
E9
330
E4
100
AcDbEntity
  8
치수문자_일반주서
 62
     0
370
    -2
100
AcDbLine
 10
-79.13397459621554
 20
4.001074928723856
 30
0.0
 11
-79.13397459621558
 21
16.73007492872386
 31
0.0
  0
LINE
  5
EA
330
E4
100
AcDbEntity
  8
치수문자_일반주서
 62
     0
370
    -2
100
AcDbLine
 10
-79.13397459621554
 20
4.001074928723856
 30
0.0
 11
-79.13397459621551
 21
-3.998925071276155
 31
0.0
  0
LINE
  5
EB
330
E4
100
AcDbEntity
  8
치수문자_일반주서
 62
     0
370
    -2
100
AcDbLine
 10
-79.13397459621555
 20
7.303074928723856
 30
0.0
 11
-79.13397459621557
 21
10.60507492872386
 31
0.0
  0
LINE
  5
EC
330
E4
100
AcDbEntity
  8
치수문자_일반주서
 62
     0
370
    -2
100
AcDbLine
 10
-79.1339745962155
 20
-7.300925071276154
 30
0.0
 11
-79.13397459621548
 21
-10.60292507127615
 31
0.0
  0
SOLID
  5
ED
330
E4
100
AcDbEntity
  8
치수문자_일반주서
 62
     0
100
AcDbTrace
 10
-79.68430792954888
 20
7.303074928723854
 30
0.0
 11
-78.58364126288222
 21
7.303074928723857
 31
0.0
 12
-79.13397459621554
 22
4.001074928723856
 32
0.0
 13
-79.13397459621554
 23
4.001074928723856
 33
0.0
  0
SOLID
  5
EE
330
E4
100
AcDbEntity
  8
치수문자_일반주서
 62
     0
100
AcDbTrace
 10
-78.58364126288217
 20
-7.300925071276152
 30
0.0
 11
-79.68430792954882
 21
-7.300925071276156
 31
0.0
 12
-79.13397459621551
 22
-3.998925071276155
 32
0.0
 13
-79.13397459621551
 23
-3.998925071276155
 33
0.0
  0
MTEXT
  5
EF
330
E4
100
AcDbEntity
  8
치수문자_일반주서
 62
     0
100
AcDbMText
 10
-83.50897459621557
 20
13.66757492872384
 30
0.0
 40
3.5
 41
0.0
 71
     2
 72
     1
  1
\A1;%%c8
  7
SLDTEXTSTYLE0
 11
-3.552713678800498E-15
 21
1.0
 31
0.0
 73
     1
 44
1.0
  0
POINT
  5
1BB
330
E4
100
AcDbEntity
  8
Defpoints
 62
     0
100
AcDbPoint
 10
-68.33397459621553
 20
4.001074928723897
 30
0.0
  0
POINT
  5
1BC
330
E4
100
AcDbEntity
  8
Defpoints
 62
     0
100
AcDbPoint
 10
-68.33397459621553
 20
-3.99892507127611
 30
0.0
  0
POINT
  5
1BD
330
E4
100
AcDbEntity
  8
Defpoints
 62
     0
100
AcDbPoint
 10
-79.1339745962155
 20
-3.998925071276151
 30
0.0
  0
ENDBLK
  5
E6
330
E4
100
AcDbEntity
  8
0
100
AcDbBlockEnd
  0
BLOCK
  5
F2
330
F1
100
AcDbEntity
  8
0
100
AcDbBlockBegin
  2
_D_2
 70
     0
 10
0.0
 20
0.0
 30
0.0
  3
_D_2
  1

  0
LINE
  5
F4
330
F1
100
AcDbEntity
  8
치수문자_일반주서
 62
     0
370
    -2
100
AcDbLine
 10
20.86602540378443
 20
3.563574928723889
 30
0.0
 11
20.86602540378443
 21
14.00107492872389
 31
0.0
  0
LINE
  5
F5
330
F1
100
AcDbEntity
  8
치수문자_일반주서
 62
     0
370
    -2
100
AcDbLine
 10
4.866025403784459
 20
3.556326126718504
 30
0.0
 11
4.866025403784459
 21
14.00107492872389
 31
0.0
  0
LINE
  5
F6
330
F1
100
AcDbEntity
  8
치수문자_일반주서
 62
     0
370
    -2
100
AcDbLine
 10
17.56402540378443
 20
14.00107492872389
 30
0.0
 11
8.168025403784458
 21
14.00107492872389
 31
0.0
  0
SOLID
  5
F7
330
F1
100
AcDbEntity
  8
치수문자_일반주서
 62
     0
100
AcDbTrace
 10
17.56402540378443
 20
13.45074159539056
 30
0.0
 11
17.56402540378443
 21
14.55140826205723
 31
0.0
 12
20.86602540378443
 22
14.00107492872389
 32
0.0
 13
20.86602540378443
 23
14.00107492872389
 33
0.0
  0
SOLID
  5
F8
330
F1
100
AcDbEntity
  8
치수문자_일반주서
 62
     0
100
AcDbTrace
 10
8.168025403784458
 20
14.55140826205723
 30
0.0
 11
8.168025403784458
 21
13.45074159539056
 31
0.0
 12
4.866025403784459
 22
14.00107492872389
 32
0.0
 13
4.866025403784459
 23
14.00107492872389
 33
0.0
  0
MTEXT
  5
F9
330
F1
100
AcDbEntity
  8
치수문자_일반주서
 62
     0
100
AcDbMText
 10
12.86602540378442
 20
18.3760749287239
 30
0.0
 40
3.5
 41
0.0
 71
     2
 72
     1
  1
\A1;16
  7
SLDTEXTSTYLE0
 73
     1
 44
1.0
  0
POINT
  5
FA
330
F1
100
AcDbEntity
  8
Defpoints
 62
     0
100
AcDbPoint
 10
20.86602540378443
 20
3.501074928723889
 30
0.0
  0
POINT
  5
FB
330
F1
100
AcDbEntity
  8
Defpoints
 62
     0
100
AcDbPoint
 10
4.866025403784459
 20
3.493826126718504
 30
0.0
  0
POINT
  5
1B7
330
F1
100
AcDbEntity
  8
Defpoints
 62
     0
100
AcDbPoint
 10
4.866025403784459
 20
14.00107492872389
 30
0.0
  0
ENDBLK
  5
F3
330
F1
100
AcDbEntity
  8
0
100
AcDbBlockEnd
  0
BLOCK
  5
FF
330
FE
100
AcDbEntity
  8
0
100
AcDbBlockBegin
  2
_D_3
 70
     0
 10
0.0
 20
0.0
 30
0.0
  3
_D_3
  1

  0
LINE
  5
101
330
FE
100
AcDbEntity
  8
치수문자_일반주서
 62
     0
370
    -2
100
AcDbLine
 10
20.86602540378443
 20
3.563574928723889
 30
0.0
 11
20.86602540378443
 21
24.00107492872389
 31
0.0
  0
LINE
  5
102
330
FE
100
AcDbEntity
  8
치수문자_일반주서
 62
     0
370
    -2
100
AcDbLine
 10
-69.13397459621552
 20
3.263574928723896
 30
0.0
 11
-69.13397459621552
 21
24.00107492872389
 31
0.0
  0
LINE
  5
103
330
FE
100
AcDbEntity
  8
치수문자_일반주서
 62
     0
370
    -2
100
AcDbLine
 10
17.56402540378443
 20
24.00107492872389
 30
0.0
 11
-65.83197459621553
 21
24.00107492872389
 31
0.0
  0
SOLID
  5
104
330
FE
100
AcDbEntity
  8
치수문자_일반주서
 62
     0
100
AcDbTrace
 10
17.56402540378443
 20
23.45074159539056
 30
0.0
 11
17.56402540378443
 21
24.55140826205723
 31
0.0
 12
20.86602540378443
 22
24.00107492872389
 32
0.0
 13
20.86602540378443
 23
24.00107492872389
 33
0.0
  0
SOLID
  5
105
330
FE
100
AcDbEntity
  8
치수문자_일반주서
 62
     0
100
AcDbTrace
 10
-65.83197459621553
 20
24.55140826205723
 30
0.0
 11
-65.83197459621553
 21
23.45074159539056
 31
0.0
 12
-69.13397459621552
 22
24.00107492872389
 32
0.0
 13
-69.13397459621552
 23
24.00107492872389
 33
0.0
  0
MTEXT
  5
106
330
FE
100
AcDbEntity
  8
치수문자_일반주서
 62
     0
100
AcDbMText
 10
-24.13397459621553
 20
28.37607492872389
 30
0.0
 40
3.5
 41
0.0
 71
     2
 72
     1
  1
\A1;90
  7
SLDTEXTSTYLE0
 73
     1
 44
1.0
  0
POINT
  5
1B8
330
FE
100
AcDbEntity
  8
Defpoints
 62
     0
100
AcDbPoint
 10
20.86602540378443
 20
3.501074928723889
 30
0.0
  0
POINT
  5
1B9
330
FE
100
AcDbEntity
  8
Defpoints
 62
     0
100
AcDbPoint
 10
-69.13397459621552
 20
3.201074928723896
 30
0.0
  0
POINT
  5
1BA
330
FE
100
AcDbEntity
  8
Defpoints
 62
     0
100
AcDbPoint
 10
-69.13397459621552
 20
24.00107492872389
 30
0.0
  0
ENDBLK
  5
100
330
FE
100
AcDbEntity
  8
0
100
AcDbBlockEnd
  0
BLOCK
  5
10F
330
10E
100
AcDbEntity
  8
0
100
AcDbBlockBegin
  2
SW_DOWELSYMBOL_0
 70
     0
 10
0.0
 20
0.0
 30
0.0
  3
SW_DOWELSYMBOL_0
  1

  0
CIRCLE
  5
111
330
10E
100
AcDbEntity
  8
해칭선
 62
     0
100
AcDbCircle
 10
0.0
 20
0.0
 30
0.0
 40
3.000000000000001
  0
HATCH
  5
112
330
10E
100
AcDbEntity
  8
0
  6
Continuous
 62
     0
370
     0
100
AcDbHatch
 10
0.0
 20
0.0
 30
0.0
210
0.0
220
0.0
230
1.0
  2
SOLID
 70
     1
 71
     0
 91
        1
 92
        0
 93
        3
 72
     2
 10
0.0
 20
0.0
 40
3.000000000000001
 50
0.0
 51
90.0
 73
     1
 72
     1
 10
0.0
 20
3.000000000000001
 11
0.0
 21
0.0
 72
     1
 10
0.0
 20
0.0
 11
3.000000000000003
 21
0.0
 97
        0
 75
     0
 76
     1
 98
        1
 10
0.0
 20
0.0
  0
HATCH
  5
113
330
10E
100
AcDbEntity
  8
0
  6
Continuous
 62
     0
370
     0
100
AcDbHatch
 10
0.0
 20
0.0
 30
0.0
210
0.0
220
0.0
230
1.0
  2
SOLID
 70
     1
 71
     0
 91
        1
 92
        0
 93
        3
 72
     2
 10
0.0
 20
0.0
 40
3.000000000000001
 50
180.0
 51
270.0000000000008
 73
     1
 72
     1
 10
0.0
 20
-3.000000000000001
 11
0.0
 21
0.0
 72
     1
 10
0.0
 20
0.0
 11
-3.000000000000003
 21
0.0
 97
        0
 75
     0
 76
     1
 98
        1
 10
0.0
 20
0.0
  0
ENDBLK
  5
110
330
10E
100
AcDbEntity
  8
0
100
AcDbBlockEnd
  0
BLOCK
  5
172
330
171
100
AcDbEntity
  8
0
100
AcDbBlockBegin
  2
*D8
 70
     1
 10
0.0
 20
0.0
 30
0.0
  3
*D8
  1

  0
LINE
  5
173
330
171
100
AcDbEntity
  8
치수문자_일반주서
 62
     0
370
    -2
100
AcDbLine
 10
15.80451446780138
 20
13.04557445451085
 30
0.0
 11
24.29686004508034
 21
0.0000000000000511
 31
0.0
  0
MTEXT
  5
174
330
171
100
AcDbEntity
  8
치수문자_일반주서
 62
     0
100
AcDbMText
 10
24.22929843255111
 20
4.915330557654587
 30
0.0
 40
3.5
 41
0.0
 71
     5
 72
     1
  1
\A1;R0.1
  7
SLDTEXTSTYLE0
 11
0.5455627707375155
 21
-0.8380699631804049
 31
0.0
 73
     1
 44
1.0
  0
SOLID
  5
175
330
171
100
AcDbEntity
  8
치수문자_일반주서
 62
     0
100
AcDbTrace
 10
16.26573230420499
 20
13.34581583267339
 30
0.0
 11
15.34329663139776
 21
12.7453330763483
 31
0.0
 12
14.0030661988261
 22
15.81288147293254
 32
0.0
 13
14.0030661988261
 23
15.81288147293254
 33
0.0
  0
LINE
  5
176
330
171
100
AcDbEntity
  8
치수문자_일반주서
 62
     0
100
AcDbLine
 10
13.90350992175235
 20
15.89668846925058
 30
0.0
 11
13.99350992175235
 21
15.89668846925058
 31
0.0
  0
LINE
  5
177
330
171
100
AcDbEntity
  8
치수문자_일반주서
 62
     0
100
AcDbLine
 10
13.94850992175235
 20
15.85168846925058
 30
0.0
 11
13.94850992175235
 21
15.94168846925058
 31
0.0
  0
POINT
  5
178
330
171
100
AcDbEntity
  8
Defpoints
 62
     0
100
AcDbPoint
 10
14.0030661988261
 20
15.81288147293254
 30
0.0
  0
POINT
  5
179
330
171
100
AcDbEntity
  8
Defpoints
 62
     0
100
AcDbPoint
 10
13.94850992175235
 20
15.89668846925058
 30
0.0
  0
ENDBLK
  5
17A
330
171
100
AcDbEntity
  8
0
100
AcDbBlockEnd
  0
BLOCK
  5
181
330
180
100
AcDbEntity
  8
0
100
AcDbBlockBegin
  2
*D9
 70
     1
 10
0.0
 20
0.0
 30
0.0
  3
*D9
  1

  0
LINE
  5
183
330
180
100
AcDbEntity
  8
치수문자_일반주서
 62
     0
370
    -2
100
AcDbLine
 10
14.11100992175236
 20
21.79496381848847
 30
0.0
 11
24.04850992175235
 21
21.7949638184885
 31
0.0
  0
LINE
  5
184
330
180
100
AcDbEntity
  8
치수문자_일반주서
 62
     0
370
    -2
100
AcDbLine
 10
14.11100992175236
 20
15.79496381848847
 30
0.0
 11
24.04850992175237
 21
15.79496381848851
 31
0.0
  0
LINE
  5
185
330
180
100
AcDbEntity
  8
치수문자_일반주서
 62
     0
370
    -2
100
AcDbLine
 10
24.04850992175235
 20
21.7949638184885
 30
0.0
 11
24.0485099217523
 21
34.52396381848853
 31
0.0
  0
LINE
  5
186
330
180
100
AcDbEntity
  8
치수문자_일반주서
 62
     0
370
    -2
100
AcDbLine
 10
24.04850992175235
 20
21.7949638184885
 30
0.0
 11
24.04850992175237
 21
15.79496381848851
 31
0.0
  0
LINE
  5
187
330
180
100
AcDbEntity
  8
치수문자_일반주서
 62
     0
370
    -2
100
AcDbLine
 10
24.04850992175234
 20
25.0969638184885
 30
0.0
 11
24.04850992175233
 21
28.3989638184885
 31
0.0
  0
LINE
  5
188
330
180
100
AcDbEntity
  8
치수문자_일반주서
 62
     0
370
    -2
100
AcDbLine
 10
24.04850992175238
 20
12.49296381848851
 30
0.0
 11
24.04850992175239
 21
9.190963818488507
 31
0.0
  0
SOLID
  5
189
330
180
100
AcDbEntity
  8
치수문자_일반주서
 62
     0
100
AcDbTrace
 10
23.498176588419
 20
25.0969638184885
 30
0.0
 11
24.59884325508567
 21
25.09696381848851
 31
0.0
 12
24.04850992175235
 22
21.7949638184885
 32
0.0
 13
24.04850992175235
 23
21.7949638184885
 33
0.0
  0
SOLID
  5
18A
330
180
100
AcDbEntity
  8
치수문자_일반주서
 62
     0
100
AcDbTrace
 10
24.59884325508571
 20
12.49296381848851
 30
0.0
 11
23.49817658841905
 21
12.49296381848851
 31
0.0
 12
24.04850992175237
 22
15.79496381848851
 32
0.0
 13
24.04850992175237
 23
15.79496381848851
 33
0.0
  0
MTEXT
  5
18B
330
180
100
AcDbEntity
  8
치수문자_일반주서
 62
     0
100
AcDbMText
 10
19.67350992175231
 20
31.46146381848851
 30
0.0
 40
3.5
 41
0.0
 71
     2
 72
     1
  1
\A1;%%c6
  7
SLDTEXTSTYLE0
 11
-3.552713678800503E-15
 21
1.0
 31
0.0
 73
     1
 44
1.0
  0
POINT
  5
18C
330
180
100
AcDbEntity
  8
Defpoints
 62
     0
100
AcDbPoint
 10
14.04850992175236
 20
21.79496381848847
 30
0.0
  0
POINT
  5
18D
330
180
100
AcDbEntity
  8
Defpoints
 62
     0
100
AcDbPoint
 10
14.04850992175236
 20
15.79496381848847
 30
0.0
  0
POINT
  5
18E
330
180
100
AcDbEntity
  8
Defpoints
 62
     0
100
AcDbPoint
 10
24.04850992175237
 20
15.79496381848851
 30
0.0
  0
ENDBLK
  5
182
330
180
100
AcDbEntity
  8
0
100
AcDbBlockEnd
  0
BLOCK
  5
194
330
193
100
AcDbEntity
  8
0
100
AcDbBlockBegin
  2
*D10
 70
     1
 10
0.0
 20
0.0
 30
0.0
  3
*D10
  1

  0
LINE
  5
196
330
193
100
AcDbEntity
  8
치수문자_일반주서
 62
     0
370
    -2
100
AcDbLine
 10
77.71450658675222
 20
8.804022033067866
 30
0.0
 11
87.65200658675221
 21
8.804022033067904
 31
0.0
  0
LINE
  5
197
330
193
100
AcDbEntity
  8
치수문자_일반주서
 62
     0
370
    -2
100
AcDbLine
 10
77.71450658675222
 20
2.804022033067869
 30
0.0
 11
87.65200658675222
 21
2.804022033067906
 31
0.0
  0
LINE
  5
198
330
193
100
AcDbEntity
  8
치수문자_일반주서
 62
     0
370
    -2
100
AcDbLine
 10
87.65200658675221
 20
8.804022033067904
 30
0.0
 11
87.65200658675217
 21
21.53302203306793
 31
0.0
  0
LINE
  5
199
330
193
100
AcDbEntity
  8
치수문자_일반주서
 62
     0
370
    -2
100
AcDbLine
 10
87.65200658675221
 20
8.804022033067904
 30
0.0
 11
87.65200658675222
 21
2.804022033067906
 31
0.0
  0
LINE
  5
19A
330
193
100
AcDbEntity
  8
치수문자_일반주서
 62
     0
370
    -2
100
AcDbLine
 10
87.6520065867522
 20
12.1060220330679
 30
0.0
 11
87.65200658675218
 21
15.4080220330679
 31
0.0
  0
LINE
  5
19B
330
193
100
AcDbEntity
  8
치수문자_일반주서
 62
     0
370
    -2
100
AcDbLine
 10
87.65200658675224
 20
-0.4979779669320941
 30
0.0
 11
87.65200658675225
 21
-3.799977966932094
 31
0.0
  0
SOLID
  5
19C
330
193
100
AcDbEntity
  8
치수문자_일반주서
 62
     0
100
AcDbTrace
 10
87.10167325341887
 20
12.1060220330679
 30
0.0
 11
88.20233992008552
 21
12.10602203306791
 31
0.0
 12
87.65200658675221
 22
8.804022033067904
 32
0.0
 13
87.65200658675221
 23
8.804022033067904
 33
0.0
  0
SOLID
  5
19D
330
193
100
AcDbEntity
  8
치수문자_일반주서
 62
     0
100
AcDbTrace
 10
88.20233992008556
 20
-0.4979779669320928
 30
0.0
 11
87.10167325341891
 21
-0.4979779669320953
 31
0.0
 12
87.65200658675222
 22
2.804022033067906
 32
0.0
 13
87.65200658675222
 23
2.804022033067906
 33
0.0
  0
MTEXT
  5
19E
330
193
100
AcDbEntity
  8
치수문자_일반주서
 62
     0
100
AcDbMText
 10
83.27700658675218
 20
18.47052203306792
 30
0.0
 40
3.5
 41
0.0
 71
     2
 72
     1
  1
\A1;%%c6
  7
SLDTEXTSTYLE0
 11
-2.368475785867001E-15
 21
1.0
 31
0.0
 73
     1
 44
1.0
  0
POINT
  5
19F
330
193
100
AcDbEntity
  8
Defpoints
 62
     0
100
AcDbPoint
 10
77.65200658675222
 20
8.804022033067866
 30
0.0
  0
POINT
  5
1A0
330
193
100
AcDbEntity
  8
Defpoints
 62
     0
100
AcDbPoint
 10
77.65200658675222
 20
2.804022033067868
 30
0.0
  0
POINT
  5
1A1
330
193
100
AcDbEntity
  8
Defpoints
 62
     0
100
AcDbPoint
 10
87.65200658675224
 20
2.804022033067906
 30
0.0
  0
ENDBLK
  5
195
330
193
100
AcDbEntity
  8
0
100
AcDbBlockEnd
  0
BLOCK
  5
1A3
330
1A2
100
AcDbEntity
  8
0
100
AcDbBlockBegin
  2
*D11
 70
     1
 10
0.0
 20
0.0
 30
0.0
  3
*D11
  1

  0
LINE
  5
1A5
330
1A2
100
AcDbEntity
  8
치수문자_일반주서
 62
     0
370
    -2
100
AcDbLine
 10
79.4080111328014
 20
0.0546326690903522
 30
0.0
 11
87.90035671008116
 21
-12.99094178541993
 31
0.0
  0
MTEXT
  5
1A6
330
1A2
100
AcDbEntity
  8
치수문자_일반주서
 62
     0
100
AcDbMText
 10
87.83279509755162
 20
-8.075611227765403
 30
0.0
 40
3.5
 41
0.0
 71
     5
 72
     1
  1
\A1;R0.1
  7
SLDTEXTSTYLE0
 11
0.5455627707375653
 21
-0.8380699631803723
 31
0.0
 73
     1
 44
1.0
  0
SOLID
  5
1A7
330
1A2
100
AcDbEntity
  8
치수문자_일반주서
 62
     0
100
AcDbTrace
 10
79.869228969205
 20
0.3548740472529257
 30
0.0
 11
78.94679329639781
 21
-0.2456087090722212
 31
0.0
 12
77.60656286382597
 22
2.821939687511941
 32
0.0
 13
77.60656286382597
 23
2.821939687511941
 33
0.0
  0
LINE
  5
1A8
330
1A2
100
AcDbEntity
  8
치수문자_일반주서
 62
     0
100
AcDbLine
 10
77.50700658675221
 20
2.90574668382998
 30
0.0
 11
77.59700658675222
 21
2.90574668382998
 31
0.0
  0
LINE
  5
1A9
330
1A2
100
AcDbEntity
  8
치수문자_일반주서
 62
     0
100
AcDbLine
 10
77.55200658675221
 20
2.86074668382998
 30
0.0
 11
77.55200658675221
 21
2.95074668382998
 31
0.0
  0
POINT
  5
1AA
330
1A2
100
AcDbEntity
  8
Defpoints
 62
     0
100
AcDbPoint
 10
77.60656286382597
 20
2.821939687511941
 30
0.0
  0
POINT
  5
1AB
330
1A2
100
AcDbEntity
  8
Defpoints
 62
     0
100
AcDbPoint
 10
77.55200658675221
 20
2.90574668382998
 30
0.0
  0
ENDBLK
  5
1A4
330
1A2
100
AcDbEntity
  8
0
100
AcDbBlockEnd
  0
BLOCK
  5
1CA
330
1C9
100
AcDbEntity
  8
0
100
AcDbBlockBegin
  2
*D12
 70
     1
 10
0.0
 20
0.0
 30
0.0
  3
*D12
  1

  0
LINE
  5
1CC
330
1C9
100
AcDbEntity
  8
치수문자_일반주서
 62
     0
370
    -2
100
AcDbLine
 10
21.89609479490305
 20
-5.751506732839252
 30
0.0
 11
30.86273232793673
 21
-18.62661857511646
 31
0.0
  0
MTEXT
  5
1CD
330
1C9
100
AcDbEntity
  8
치수문자_일반주서
 62
     0
100
AcDbMText
 10
31.26661577721486
 20
-14.61333944086736
 30
0.0
 40
3.5
 41
0.0
 71
     5
 72
     1
  1
\A1;R2
  7
SLDTEXTSTYLE0
 11
0.5714955471743902
 21
-0.8206051666665548
 31
0.0
 73
     1
 44
1.0
  0
SOLID
  5
1CE
330
1C9
100
AcDbEntity
  8
치수문자_일반주서
 62
     0
100
AcDbTrace
 10
22.34770117162521
 20
-5.436993683377612
 30
0.0
 11
21.44448841818089
 21
-6.066019782300891
 31
0.0
 12
20.00901649813321
 22
-3.041868472506288
 32
0.0
 13
20.00901649813321
 23
-3.041868472506288
 33
0.0
  0
LINE
  5
1CF
330
1C9
100
AcDbEntity
  8
치수문자_일반주서
 62
     0
100
AcDbLine
 10
18.82102540378443
 20
-1.40065813917318
 30
0.0
 11
18.91102540378443
 21
-1.40065813917318
 31
0.0
  0
LINE
  5
1D0
330
1C9
100
AcDbEntity
  8
치수문자_일반주서
 62
     0
100
AcDbLine
 10
18.86602540378443
 20
-1.44565813917318
 30
0.0
 11
18.86602540378443
 21
-1.35565813917318
 31
0.0
  0
POINT
  5
1D1
330
1C9
100
AcDbEntity
  8
Defpoints
 62
     0
100
AcDbPoint
 10
20.00901649813321
 20
-3.041868472506288
 30
0.0
  0
POINT
  5
1D2
330
1C9
100
AcDbEntity
  8
Defpoints
 62
     0
100
AcDbPoint
 10
18.86602540378443
 20
-1.40065813917318
 30
0.0
  0
ENDBLK
  5
1CB
330
1C9
100
AcDbEntity
  8
0
100
AcDbBlockEnd
  0
ENDSEC
  0
SECTION
  2
ENTITIES
  0
LINE
  5
96
330
1F
100
AcDbEntity
  8
0
  6
Continuous
 62
     1
370
    15
100
AcDbLine
 10
11.86465552653555
 20
-3.498925071276109
 30
0.0
 11
13.9992725342711
 21
-3.498925071276109
 31
0.0
1001
PE_URL
1000

  0
LINE
  5
97
330
1F
100
AcDbEntity
  8
0
  6
Continuous
 62
     1
370
    15
100
AcDbLine
 10
13.99927253427112
 20
3.501074928723895
 30
0.0
 11
11.86465552653558
 21
3.501074928723895
 31
0.0
1001
PE_URL
1000

  0
ARC
  5
98
330
1F
100
AcDbEntity
  8
0
  6
Continuous
 62
     1
370
    15
100
AcDbCircle
 10
18.86602540378447
 20
-1.498925071276109
 30
0.0
 40
2.0
100
AcDbArc
 50
349.4782733898004
 51
0.0
1001
PE_URL
1000

  0
ARC
  5
99
330
1F
100
AcDbEntity
  8
0
  6
Continuous
 62
     1
370
    15
100
AcDbCircle
 10
18.86602540378447
 20
1.501074928723895
 30
0.0
 40
2.0
100
AcDbArc
 50
0.0
 51
10.50526928964054
1001
PE_URL
1000

  0
LINE
  5
9A
330
1F
100
AcDbEntity
  8
외형선
  6
Continuous
370
    15
100
AcDbLine
 10
-68.33397459621553
 20
-3.998925071276111
 30
0.0
 11
2.0
 21
-3.998925071276111
 31
0.0
  0
LINE
  5
9B
330
1F
100
AcDbEntity
  8
외형선
  6
Continuous
370
    15
100
AcDbLine
 10
2.0
 20
4.001074928723898
 30
0.0
 11
-68.33397459621553
 21
4.001074928723898
 31
0.0
  0
LINE
  5
9C
330
1F
100
AcDbEntity
  8
외형선
  6
Continuous
370
    15
100
AcDbLine
 10
2.0
 20
-3.998925071276116
 30
0.0
 11
3.866025403784473
 21
-3.498925071276108
 31
0.0
  0
LINE
  5
9D
330
1F
100
AcDbEntity
  8
외형선
  6
Continuous
370
    15
100
AcDbLine
 10
3.866025403784473
 20
3.501074928723893
 30
0.0
 11
2.0
 21
4.001074928723902
 31
0.0
  0
LINE
  5
9E
330
1F
100
AcDbEntity
  8
외형선
  6
Continuous
370
    15
100
AcDbLine
 10
-68.33397459621553
 20
4.001074928723893
 30
0.0
 11
-69.13397459621552
 21
3.201074928723896
 31
0.0
  0
LINE
  5
9F
330
1F
100
AcDbEntity
  8
외형선
  6
Continuous
370
    15
100
AcDbLine
 10
-69.13397459621552
 20
-3.19892507127611
 30
0.0
 11
-68.33397459621553
 21
-3.998925071276107
 31
0.0
  0
LINE
  5
A0
330
1F
100
AcDbEntity
  8
외형선
  6
Continuous
370
    15
100
AcDbLine
 10
4.475801709055109
 20
3.501074928723893
 30
0.0
 11
3.866025403784473
 21
3.501074928723893
 31
0.0
  0
LINE
  5
A1
330
1F
100
AcDbEntity
  8
외형선
  6
Continuous
370
    15
100
AcDbLine
 10
3.866025403784473
 20
-3.498925071276108
 30
0.0
 11
4.475801709055066
 21
-3.498925071276108
 31
0.0
  0
SPLINE
  5
A2
330
1F
100
AcDbEntity
  8
0
  6
Continuous
 62
     1
370
    15
100
AcDbSpline
210
0.0
220
0.0
230
1.0
 70
     8
 71
     3
 72
    16
 73
    12
 74
     0
 42
0.000000001
 43
0.00000001
 40
0.0
 40
0.0
 40
0.0
 40
0.0
 40
0.1222126714425563
 40
0.2444247196921265
 40
0.3666361629219862
 40
0.4888470193340825
 40
0.6110573071581858
 40
0.7310905686354984
 40
0.8511207616183492
 40
0.9711481609263642
 40
1.0
 40
1.0
 40
1.0
 40
1.0
 10
4.866025403782988
 20
-0.2240674016070852
 30
0.0
 10
5.388705602113479
 20
-0.5237347463281152
 30
0.0
 10
6.434063333497374
 20
-1.123067907691415
 30
0.0
 10
8.002093728236222
 20
-1.943288191979986
 30
0.0
 10
9.570115916175968
 20
-2.635151920116297
 30
0.0
 10
11.13812533938487
 20
-3.1516336821435
 30
0.0
 10
12.69683144068041
 20
-3.455562025797675
 30
0.0
 10
14.24615934755968
 20
-3.536259920814003
 30
0.0
 10
15.78615484555701
 20
-3.374946764667245
 30
0.0
 10
16.9361897129115
 20
-3.13309359785184
 30
0.0
 10
17.57289283243268
 20
-2.897137838779355
 30
0.0
 10
17.6962818028613
 20
-2.851411129916127
 30
0.0
1001
PE_URL
1000

  0
SPLINE
  5
A3
330
1F
100
AcDbEntity
  8
외형선
  6
Continuous
370
    15
100
AcDbSpline
210
0.0
220
0.0
230
1.0
 70
    24
 71
     3
 72
    21
 73
    17
 74
     0
 42
0.000000001
 43
0.00000001
 40
0.0
 40
0.0
 40
0.0
 40
0.0
 40
0.0556930559568832
 40
0.1296483875642217
 40
0.2057484287982632
 40
0.279703760405601
 40
0.3558038016396416
 40
0.4297591332469791
 40
0.5058591744810189
 40
0.5798145060883603
 40
0.655914547322396
 40
0.7298698789297345
 40
0.8059699201637759
 40
0.8799252517711103
 40
0.9560252930051522
 40
1.0
 40
1.0
 40
1.0
 40
1.0
 10
4.866025403784473
 20
3.202008185171521
 30
0.0
 10
4.866025403784459
 20
3.134084264859823
 30
0.0
 10
4.866025403784402
 20
2.975963533394304
 30
0.0
 10
4.86602540378443
 20
2.691063522813041
 30
0.0
 10
4.866025403784501
 20
2.358468279005593
 30
0.0
 10
4.866025403784459
 20
2.006686333353207
 30
0.0
 10
4.866025403784473
 20
1.652855496583792
 30
0.0
 10
4.866025403784473
 20
1.300395761700726
 30
0.0
 10
4.86602540378443
 20
0.9656835245642162
 30
0.0
 10
4.866025403784459
 20
0.6521692945395726
 30
0.0
 10
4.86602540378453
 20
0.3743104354412562
 30
0.0
 10
4.866025403784388
 20
0.1352078079588747
 30
0.0
 10
4.866025403784516
 20
-0.0549544699746164
 30
0.0
 10
4.866025403784374
 20
-0.1908978756003598
 30
0.0
 10
4.866025403784516
 20
-0.2669400841944471
 30
0.0
 10
4.866025403784459
 20
-0.2731576399540993
 30
0.0
 10
4.866025403784459
 20
-0.2754346815201882
 30
0.0
  0
SPLINE
  5
A4
330
1F
100
AcDbEntity
  8
0
  6
Continuous
 62
     1
370
    15
100
AcDbSpline
210
0.0
220
0.0
230
1.0
 70
     8
 71
     3
 72
    38
 73
    34
 74
     0
 42
0.000000001
 43
0.00000001
 40
0.0
 40
0.0
 40
0.0
 40
0.0
 40
0.0625
 40
0.0625
 40
0.125
 40
0.125
 40
0.1875
 40
0.1875
 40
0.2499999999999999
 40
0.2499999999999999
 40
0.3124999999999999
 40
0.3124999999999999
 40
0.3749999999999999
 40
0.3749999999999999
 40
0.4374999999999999
 40
0.4374999999999999
 40
0.4999999999999999
 40
0.4999999999999999
 40
0.5625
 40
0.5625
 40
0.625
 40
0.625
 40
0.6875
 40
0.6875
 40
0.75
 40
0.75
 40
0.8125
 40
0.8125
 40
0.875
 40
0.875
 40
0.9375
 40
0.9375
 40
1.0
 40
1.0
 40
1.0
 40
1.0
 10
18.7117007085971
 20
-3.394695222192283
 30
0.0
 10
18.32592506453874
 20
-3.324477709414031
 30
0.0
 10
18.05431237104274
 20
-3.149869549309463
 30
0.0
 10
17.69705520845149
 20
-2.874267563157316
 30
0.0
 10
17.40831044310643
 20
-2.774818573270552
 30
0.0
 10
16.8230494908691
 20
-2.556453996030473
 30
0.0
 10
16.5292907638894
 20
-2.437806802423753
 30
0.0
 10
15.94864165505053
 20
-2.185409168092498
 30
0.0
 10
15.65799281222796
 20
-2.051154541618852
 30
0.0
 10
15.07220472495382
 20
-1.768606068078124
 30
0.0
 10
14.77954012578077
 20
-1.620692843517605
 30
0.0
 10
14.20070063266918
 20
-1.315810987571072
 30
0.0
 10
13.90729883187496
 20
-1.157571496616566
 30
0.0
 10
13.3216194334178
 20
-0.8343112434506119
 30
0.0
 10
13.03177881006006
 20
-0.6697692503059997
 30
0.0
 10
12.45029544830675
 20
-0.3368553402973587
 30
0.0
 10
12.1564062339501
 20
-0.1680438650893515
 30
0.0
 10
11.57147095507088
 20
0.1690455360526729
 30
0.0
 10
11.28305551304841
 20
0.3368132145660037
 30
0.0
 10
10.6995486057967
 20
0.670140134790955
 30
0.0
 10
10.40549346768752
 20
0.8354846441333481
 30
0.0
 10
9.82193505029716
 20
1.158387402020197
 30
0.0
 10
9.533540875072628
 20
1.315771151838874
 30
0.0
 10
8.94863801456275
 20
1.621784550902057
 30
0.0
 10
8.654739050877833
 20
1.769908152901663
 30
0.0
 10
8.073185272657366
 20
2.051846922162292
 30
0.0
 10
7.783408373239386
 20
2.186048173769691
 30
0.0
 10
7.197742184334526
 20
2.439263370220529
 30
0.0
 10
6.904320920618364
 20
2.557862763757901
 30
0.0
 10
6.325392357146601
 20
2.775559384029666
 30
0.0
 10
6.032833710268232
 20
2.875550414183798
 30
0.0
 10
5.447039575960762
 20
3.054887064531444
 30
0.0
 10
5.156311263387668
 20
3.134007066219334
 30
0.0
 10
4.866025403782988
 20
3.202008185171869
 30
0.0
1001
PE_URL
1000

  0
LINE
  5
A6
330
1F
100
AcDbEntity
  8
0
  6
Continuous
 62
     1
370
    15
100
AcDbLine
 10
20.86602540378447
 20
-1.079101114487308
 30
0.0
 11
20.86602540378447
 21
-0.360177599488954
 31
0.0
1001
PE_URL
1000

  0
SPLINE
  5
A7
330
1F
100
AcDbEntity
  8
0
  6
Continuous
 62
     1
370
    15
100
AcDbSpline
210
0.0
220
0.0
230
1.0
 70
     8
 71
     3
 72
    24
 73
    20
 74
     0
 42
0.000000001
 43
0.00000001
 40
0.0
 40
0.0
 40
0.0
 40
0.0
 40
0.125
 40
0.125
 40
0.2500000000000001
 40
0.2500000000000001
 40
0.3750000000000001
 40
0.3750000000000001
 40
0.5000000000000001
 40
0.5000000000000001
 40
0.6250000000000001
 40
0.6250000000000001
 40
0.7500000000000002
 40
0.7500000000000002
 40
0.8125000000000002
 40
0.8125000000000002
 40
0.8750000000000002
 40
0.8750000000000002
 40
1.0
 40
1.0
 40
1.0
 40
1.0
 10
18.86602540378447
 20
-2.516808895190576
 30
0.0
 10
18.99649340157042
 20
-2.569083464703469
 30
0.0
 10
19.12283637716121
 20
-2.611815875660684
 30
0.0
 10
19.37048405061165
 20
-2.676188386778524
 30
0.0
 10
19.49329523976187
 20
-2.697698090962748
 30
0.0
 10
19.73016907548193
 20
-2.712562533015216
 30
0.0
 10
19.84367976538929
 20
-2.706324513657612
 30
0.0
 10
20.06398835711352
 20
-2.660524716042
 30
0.0
 10
20.17164362751489
 20
-2.620094397743524
 30
0.0
 10
20.37010292039838
 20
-2.500009139728994
 30
0.0
 10
20.46367336447022
 20
-2.418432246709162
 30
0.0
 10
20.62462297469294
 20
-2.215033621181053
 30
0.0
 10
20.69333908277263
 20
-2.090643103246388
 30
0.0
 10
20.76888903677628
 20
-1.886367272599554
 30
0.0
 10
20.79010050253416
 20
-1.813927601508814
 30
0.0
 10
20.82338352186128
 20
-1.667858383299587
 30
0.0
 10
20.83567776876491
 20
-1.593940424495043
 30
0.0
 10
20.86237592258609
 20
-1.370084667215682
 30
0.0
 10
20.86602540378447
 20
-1.222309741097885
 30
0.0
 10
20.8660254037845
 20
-1.079101114487308
 30
0.0
1001
PE_URL
1000

  0
SPLINE
  5
A8
330
1F
100
AcDbEntity
  8
0
  6
Continuous
 62
     1
370
    15
100
AcDbSpline
210
0.0
220
0.0
230
1.0
 70
     8
 71
     3
 72
    38
 73
    34
 74
     0
 42
0.000000001
 43
0.00000001
 40
0.0
 40
0.0
 40
0.0
 40
0.0
 40
0.0625
 40
0.0625
 40
0.125
 40
0.125
 40
0.1875
 40
0.1875
 40
0.25
 40
0.25
 40
0.3125
 40
0.3125
 40
0.375
 40
0.375
 40
0.4375
 40
0.4375
 40
0.5
 40
0.5
 40
0.5625
 40
0.5625
 40
0.625
 40
0.625
 40
0.6875
 40
0.6875
 40
0.75
 40
0.75
 40
0.8125
 40
0.8125
 40
0.875
 40
0.875
 40
0.9375
 40
0.9375
 40
1.0
 40
1.0
 40
1.0
 40
1.0
 10
18.86602540378449
 20
-2.516808895190569
 30
0.0
 10
18.57397545428735
 20
-2.399793338538334
 30
0.0
 10
18.27994079989616
 20
-2.27371971156388
 30
0.0
 10
17.69705520845148
 20
-2.007414832491568
 30
0.0
 10
17.40831044310648
 20
-1.867263509916323
 30
0.0
 10
16.82304949086904
 20
-1.573716985028513
 30
0.0
 10
16.52929076388938
 20
-1.420737458930138
 30
0.0
 10
15.94864165505055
 20
-1.107205785990352
 30
0.0
 10
15.65799281222791
 20
-0.945999797275613
 30
0.0
 10
15.07220472495384
 20
-0.6172882227005764
 30
0.0
 10
14.77954012578077
 20
-0.4502442379241446
 30
0.0
 10
14.20070063266915
 20
-0.1154351532446705
 30
0.0
 10
13.90729883187496
 20
0.0537201827735981
 30
0.0
 10
13.3216194334178
 20
0.3902799504745816
 30
0.0
 10
13.03177881006014
 20
0.5572140128039195
 30
0.0
 10
12.45029544830675
 20
0.8864291396618682
 30
0.0
 10
12.15640623395008
 20
1.04911759784943
 30
0.0
 10
11.57147095507087
 20
1.365554451833304
 30
0.0
 10
11.28305551304846
 20
1.518861990824148
 30
0.0
 10
10.69954860579669
 20
1.815077793616291
 30
0.0
 10
10.4054934676875
 20
1.957756687001146
 30
0.0
 10
9.821935050297196
 20
2.22781308853347
 30
0.0
 10
9.53354087507267
 20
2.35508462065825
 30
0.0
 10
8.948638014562736
 20
2.593593349722195
 30
0.0
 10
8.654739050877797
 20
2.704393945718199
 30
0.0
 10
8.07318527265738
 20
2.905744520903336
 30
0.0
 10
7.783408373239357
 20
2.996603037792942
 30
0.0
 10
7.197742184334498
 20
3.157494897220895
 30
0.0
 10
6.904320920618336
 20
3.227228299650472
 30
0.0
 10
6.325392357146558
 20
3.343357759483425
 30
0.0
 10
6.032833710268218
 20
3.390239417136701
 30
0.0
 10
5.447039575960748
 20
3.460096664129145
 30
0.0
 10
5.156311263387696
 20
3.483011251599671
 30
0.0
 10
4.866025403782988
 20
3.49382612671856
 30
0.0
1001
PE_URL
1000

  0
SPLINE
  5
A9
330
1F
100
AcDbEntity
  8
0
  6
Continuous
 62
     1
370
    15
100
AcDbSpline
210
0.0
220
0.0
230
1.0
 70
     8
 71
     3
 72
    14
 73
    10
 74
     0
 42
0.000000001
 43
0.00000001
 40
0.0
 40
0.0
 40
0.0
 40
0.0
 40
0.1466590165526551
 40
0.2933184982336564
 40
0.4399784671946907
 40
0.5866389455642312
 40
0.7332999554464985
 40
0.8773482912235244
 40
1.0
 40
1.0
 40
1.0
 40
1.0
 10
18.86602540378447
 20
1.4149269050724
 30
0.0
 10
18.3433813401604
 20
1.681798506497029
 30
0.0
 10
17.29809155534923
 20
2.215542555728255
 30
0.0
 10
15.73015336417485
 20
2.843730980410851
 30
0.0
 10
14.1622077958963
 20
3.289195375141067
 30
0.0
 10
12.59426015523922
 20
3.515495804579239
 30
0.0
 10
11.03560175734304
 20
3.503373918052488
 30
0.0
 10
9.562560626904652
 20
3.292863363293505
 30
0.0
 10
8.612139887306686
 20
2.996703177500148
 30
0.0
 10
8.17505436689203
 20
2.86050315203736
 30
0.0
1001
PE_URL
1000

  0
SPLINE
  5
AA
330
1F
100
AcDbEntity
  8
0
  6
Continuous
 62
     1
370
    15
100
AcDbSpline
210
0.0
220
0.0
230
1.0
 70
     8
 71
     3
 72
    22
 73
    18
 74
     0
 42
0.000000001
 43
0.00000001
 40
0.0
 40
0.0
 40
0.0
 40
0.0
 40
0.125
 40
0.125
 40
0.25
 40
0.25
 40
0.375
 40
0.375
 40
0.5
 40
0.5
 40
0.625
 40
0.625
 40
0.75
 40
0.75
 40
0.875
 40
0.875
 40
1.0
 40
1.0
 40
1.0
 40
1.0
 10
20.86602540378447
 20
-0.3601775994877431
 30
0.0
 10
20.86602540378442
 20
-0.2476548078170976
 30
0.0
 10
20.862177395312
 20
-0.1475329451056008
 30
0.0
 10
20.83019013874857
 20
0.0345306649154058
 30
0.0
 10
20.80146623014891
 20
0.1173156667017554
 30
0.0
 10
20.7146346423605
 20
0.2672336152046721
 30
0.0
 10
20.65699575448902
 20
0.3350874010644315
 30
0.0
 10
20.51224701746571
 20
0.466901430690046
 30
0.0
 10
20.42588087354207
 20
0.5300267284996278
 30
0.0
 10
20.23275241600561
 20
0.6558948841237818
 30
0.0
 10
20.12391449075146
 20
0.7200124748564407
 30
0.0
 10
19.89199751924724
 20
0.8520331576228362
 30
0.0
 10
19.77038647565511
 20
0.9192213786554954
 30
0.0
 10
19.51748310831419
 20
1.059022115116774
 30
0.0
 10
19.38599968749244
 20
1.131788060167369
 30
0.0
 10
19.12650969047461
 20
1.275006207734179
 30
0.0
 10
18.99597793502953
 20
1.346354169655491
 30
0.0
 10
18.86602540378449
 20
1.414926905072403
 30
0.0
1001
PE_URL
1000

  0
LINE
  5
AB
330
1F
100
AcDbEntity
  8
외형선
  6
Continuous
370
    15
100
AcDbLine
 10
4.866025403784473
 20
3.202008185171521
 30
0.0
 11
4.866025403784459
 21
3.493826126718504
 31
0.0
  0
SPLINE
  5
AC
330
1F
100
AcDbEntity
  8
0
  6
Continuous
 62
     1
370
    15
100
AcDbSpline
210
0.0
220
0.0
230
1.0
 70
     8
 71
     3
 72
    12
 73
     8
 74
     0
 42
0.000000001
 43
0.00000001
 40
0.0
 40
0.0
 40
0.0
 40
0.0
 40
0.1197870166673782
 40
0.3398313011025913
 40
0.5598812253373452
 40
0.779937291512132
 40
1.0
 40
1.0
 40
1.0
 40
1.0
 10
11.86465552653557
 20
-3.469839324188229
 30
0.0
 10
11.58520288968666
 20
-3.474677718817043
 30
0.0
 10
10.79240617582733
 20
-3.488404064022911
 30
0.0
 10
9.486299163893595
 20
-3.261301319616327
 30
0.0
 10
7.946252449991935
 20
-2.823952852917095
 30
0.0
 10
6.406160517343839
 20
-2.200707072512969
 30
0.0
 10
5.379408940246382
 20
-1.676612611150902
 30
0.0
 10
4.866025403782988
 20
-1.414561425628928
 30
0.0
1001
PE_URL
1000

  0
LINE
  5
AD
330
1F
100
AcDbEntity
  8
외형선
  6
Continuous
370
    15
100
AcDbLine
 10
4.866025403784473
 20
-1.414561425629712
 30
0.0
 11
4.866025403784473
 21
-0.2240674016079438
 31
0.0
  0
SPLINE
  5
AE
330
1F
100
AcDbEntity
  8
0
  6
Continuous
 62
     1
370
    15
100
AcDbSpline
210
0.0
220
0.0
230
1.0
 70
     8
 71
     3
 72
    24
 73
    20
 74
     0
 42
0.000000001
 43
0.00000001
 40
0.0
 40
0.0
 40
0.0
 40
0.0
 40
0.125
 40
0.125
 40
0.25
 40
0.25
 40
0.375
 40
0.375
 40
0.5
 40
0.5
 40
0.625
 40
0.625
 40
0.75
 40
0.75
 40
0.8125
 40
0.8125
 40
0.875
 40
0.875
 40
1.0
 40
1.0
 40
1.0
 40
1.0
 10
18.86602540378447
 20
2.432177775020146
 30
0.0
 10
18.9964934015704
 20
2.378037205369164
 30
0.0
 10
19.12283637716121
 20
2.312185433164858
 30
0.0
 10
19.37048405061168
 20
2.161662158020642
 30
0.0
 10
19.49329523976184
 20
2.076060896665666
 30
0.0
 10
19.73016907548189
 20
1.894824916893999
 30
0.0
 10
19.84367976538929
 20
1.799788690012025
 30
0.0
 10
20.06398835711352
 20
1.605311612182178
 30
0.0
 10
20.17164362751489
 20
1.50488908426502
 30
0.0
 10
20.37010292039837
 20
1.316895792841326
 30
0.0
 10
20.46367336447023
 20
1.226801238946899
 30
0.0
 10
20.62462297469296
 20
1.078295645164577
 30
0.0
 10
20.69333908277259
 20
1.018922000079334
 30
0.0
 10
20.76888903677622
 20
0.9666768184684151
 30
0.0
 10
20.79010050253418
 20
0.9549224256247406
 30
0.0
 10
20.82338352186128
 20
0.9437415312873332
 30
0.0
 10
20.83567776876489
 20
0.9440805333754689
 30
0.0
 10
20.86237592258608
 20
0.9612415115784764
 30
0.0
 10
20.8660254037845
 20
0.9936575657780041
 30
0.0
 10
20.8660254037845
 20
1.041853346867769
 30
0.0
1001
PE_URL
1000

  0
LINE
  5
AF
330
1F
100
AcDbEntity
  8
0
  6
Continuous
 62
     1
370
    15
100
AcDbLine
 10
20.86602540378447
 20
-0.360177599488954
 30
0.0
 11
20.86602540378447
 21
1.041853346867769
 31
0.0
1001
PE_URL
1000

  0
SPLINE
  5
B0
330
1F
100
AcDbEntity
  8
0
  6
Continuous
 62
     1
370
    15
100
AcDbSpline
210
0.0
220
0.0
230
1.0
 70
     8
 71
     3
 72
    11
 73
     7
 74
     0
 42
0.000000001
 43
0.00000001
 40
0.0
 40
0.0
 40
0.0
 40
0.0
 40
0.0507316087669204
 40
0.3671615284712266
 40
0.6835840833427189
 40
1.0
 40
1.0
 40
1.0
 40
1.0
 10
13.99927253427112
 20
3.485920909196368
 30
0.0
 10
14.08157271193133
 20
3.490749373531349
 30
0.0
 10
14.67720647474004
 20
3.525694576108021
 30
0.0
 10
15.78615408500555
 20
3.371191705892585
 30
0.0
 10
17.32610545657966
 20
3.02952649596407
 30
0.0
 10
18.35272234431194
 20
2.631292622898501
 30
0.0
 10
18.86602540378452
 20
2.432177775020147
 30
0.0
1001
PE_URL
1000

  0
SPLINE
  5
B1
330
1F
100
AcDbEntity
  8
0
  6
Continuous
 62
     1
370
    15
100
AcDbSpline
210
0.0
220
0.0
230
1.0
 70
     8
 71
     3
 72
    10
 73
     6
 74
     0
 42
0.000000001
 43
0.00000001
 40
0.0
 40
0.0
 40
0.0
 40
0.0
 40
0.473866899232964
 40
0.9477313821000625
 40
1.0
 40
1.0
 40
1.0
 40
1.0
 10
4.866025403783002
 20
-3.491676269270772
 30
0.0
 10
5.388705559639352
 20
-3.446260866428442
 30
0.0
 10
6.434063206075148
 20
-3.355430292328282
 30
0.0
 10
7.537072618270468
 20
-3.101224399828665
 30
0.0
 10
8.117401660875348
 20
-2.880300907449259
 30
0.0
 10
8.175054366892002
 20
-2.858353294589577
 30
0.0
1001
PE_URL
1000

  0
SPLINE
  5
B2
330
1F
100
AcDbEntity
  8
외형선
  6
Continuous
370
    15
100
AcDbSpline
210
0.0
220
0.0
230
1.0
 70
    24
 71
     3
 72
    14
 73
    10
 74
     0
 42
0.000000001
 43
0.00000001
 40
0.0
 40
0.0
 40
0.0
 40
0.0
 40
0.1488860537355646
 40
0.3122563598364028
 40
0.4710224388891243
 40
0.6343927449899628
 40
0.7931588240426922
 40
0.9565291301435304
 40
1.0
 40
1.0
 40
1.0
 40
1.0
 10
4.866025403784501
 20
-1.476479856598361
 30
0.0
 10
4.866025403784487
 20
-1.555065940649205
 30
0.0
 10
4.866025403784459
 20
-1.719883288707188
 30
0.0
 10
4.866025403784516
 20
-2.015304574426814
 30
0.0
 10
4.866025403784374
 20
-2.343928009061776
 30
0.0
 10
4.866025403784487
 20
-2.688883965066544
 30
0.0
 10
4.866025403784487
 20
-3.045172969274278
 30
0.0
 10
4.866025403784345
 20
-3.313045543334869
 30
0.0
 10
4.866025403784445
 20
-3.460654058516622
 30
0.0
 10
4.866025403784473
 20
-3.491676269270717
 30
0.0
  0
LINE
  5
B3
330
1F
100
AcDbEntity
  8
0
  6
Continuous
 62
     1
370
    15
100
AcDbLine
 10
20.86602540378447
 20
1.041853346867769
 30
0.0
 11
20.86602540378447
 21
1.456924031780254
 31
0.0
1001
PE_URL
1000

  0
LINE
  5
B4
330
1F
100
AcDbEntity
  8
0
  6
Continuous
 62
     1
370
    15
100
AcDbLine
 10
18.7117007085971
 20
3.396845079640062
 30
0.0
 11
17.6962818028613
 21
2.853560987363914
 31
0.0
1001
PE_URL
1000

  0
LINE
  5
B6
330
1F
100
AcDbEntity
  8
0
  6
Continuous
 62
     1
370
    15
100
AcDbLine
 10
20.86602540378447
 20
-1.498925071276109
 30
0.0
 11
20.86602540378447
 21
-1.079101114487308
 31
0.0
1001
PE_URL
1000

  0
LINE
  5
B7
330
1F
100
AcDbEntity
  8
0
  6
Continuous
 62
     1
370
    15
100
AcDbLine
 10
20.86602540378447
 20
1.456924031780254
 30
0.0
 11
20.86602540378447
 21
1.501074928723895
 31
0.0
1001
PE_URL
1000

  0
LINE
  5
B8
330
1F
100
AcDbEntity
  8
외형선
  6
Continuous
370
    15
100
AcDbLine
 10
2.0
 20
0.0010749287238931
 30
0.0
 11
2.0
 21
4.001074928723898
 31
0.0
  0
LINE
  5
B9
330
1F
100
AcDbEntity
  8
외형선
  6
Continuous
370
    15
100
AcDbLine
 10
2.0
 20
-3.998925071276111
 30
0.0
 11
2.0
 21
0.0010749287238931
 31
0.0
  0
LINE
  5
BA
330
1F
100
AcDbEntity
  8
외형선
  6
Continuous
370
    15
100
AcDbLine
 10
-68.33397459621553
 20
0.0010749287238931
 30
0.0
 11
-68.33397459621553
 21
4.001074928723898
 31
0.0
  0
LINE
  5
BB
330
1F
100
AcDbEntity
  8
외형선
  6
Continuous
370
    15
100
AcDbLine
 10
-68.33397459621553
 20
-3.998925071276111
 30
0.0
 11
-68.33397459621553
 21
0.0010749287238931
 31
0.0
  0
LINE
  5
BC
330
1F
100
AcDbEntity
  8
외형선
  6
Continuous
370
    15
100
AcDbLine
 10
3.866025403784473
 20
3.390836213302623
 30
0.0
 11
3.866025403784473
 21
3.501074928723893
 31
0.0
  0
SPLINE
  5
BD
330
1F
100
AcDbEntity
  8
외형선
  6
Continuous
370
    15
100
AcDbSpline
210
0.0
220
0.0
230
1.0
 70
    24
 71
     3
 72
    14
 73
    10
 74
     0
 42
0.000000001
 43
0.00000001
 40
0.0
 40
0.0
 40
0.0
 40
0.0
 40
0.25
 40
0.25
 40
0.5
 40
0.5
 40
0.75
 40
0.75
 40
1.0
 40
1.0
 40
1.0
 40
1.0
 10
3.866025403784473
 20
0.3517996351447421
 30
0.0
 10
3.866025403784487
 20
0.7054856006983153
 30
0.0
 10
3.866025403784473
 20
1.053652634389084
 30
0.0
 10
3.866025403784487
 20
1.707069666112383
 30
0.0
 10
3.866025403784473
 20
2.012226216394522
 30
0.0
 10
3.866025403784473
 20
2.551494377055528
 30
0.0
 10
3.866025403784473
 20
2.785528864564888
 30
0.0
 10
3.866025403784473
 20
3.160969785198676
 30
0.0
 10
3.866025403784473
 20
3.302322525034232
 30
0.0
 10
3.866025403784473
 20
3.390836213302623
 30
0.0
  0
LINE
  5
BE
330
1F
100
AcDbEntity
  8
외형선
  6
Continuous
370
    15
100
AcDbLine
 10
3.866025403784473
 20
-0.8704286189287633
 30
0.0
 11
3.866025403784473
 21
0.3517996351447419
 31
0.0
  0
SPLINE
  5
BF
330
1F
100
AcDbEntity
  8
외형선
  6
Continuous
370
    15
100
AcDbSpline
210
0.0
220
0.0
230
1.0
 70
    24
 71
     3
 72
    14
 73
    10
 74
     0
 42
0.000000001
 43
0.00000001
 40
0.0
 40
0.0
 40
0.0
 40
0.0
 40
0.25
 40
0.25
 40
0.5
 40
0.5
 40
0.75
 40
0.75
 40
1.0
 40
1.0
 40
1.0
 40
1.0
 10
3.866025403784473
 20
-3.481308189243745
 30
0.0
 10
3.866025403784487
 20
-3.445687063643311
 30
0.0
 10
3.866025403784473
 20
-3.355775202031903
 30
0.0
 10
3.866025403784487
 20
-3.07560259464793
 30
0.0
 10
3.866025403784473
 20
-2.885381917466495
 30
0.0
 10
3.866025403784473
 20
-2.422088966762823
 30
0.0
 10
3.866025403784473
 20
-2.149082950595249
 30
0.0
 10
3.866025403784473
 20
-1.54534905028148
 30
0.0
 10
3.866025403784473
 20
-1.214707508504833
 30
0.0
 10
3.866025403784473
 20
-0.8704286189287641
 30
0.0
  0
LINE
  5
C0
330
1F
100
AcDbEntity
  8
외형선
  6
Continuous
370
    15
100
AcDbLine
 10
3.866025403784473
 20
-3.498925071276108
 30
0.0
 11
3.866025403784473
 21
-3.481308189243745
 31
0.0
  0
LINE
  5
C1
330
1F
100
AcDbEntity
  8
외형선
  6
Continuous
370
    15
100
AcDbLine
 10
-69.13397459621552
 20
0.0010749287238931
 30
0.0
 11
-69.13397459621552
 21
3.201074928723896
 31
0.0
  0
LINE
  5
C2
330
1F
100
AcDbEntity
  8
외형선
  6
Continuous
370
    15
100
AcDbLine
 10
-69.13397459621552
 20
-3.19892507127611
 30
0.0
 11
-69.13397459621552
 21
0.0010749287238931
 31
0.0
  0
SPLINE
  5
C3
330
1F
100
AcDbEntity
  8
외형선
  6
Continuous
370
    15
100
AcDbSpline
210
0.0
220
0.0
230
1.0
 70
    24
 71
     3
 72
    15
 73
    11
 74
     0
 42
0.000000001
 43
0.00000001
 40
0.0
 40
0.0
 40
0.0
 40
0.0
 40
0.0254043221567252
 40
0.1757488987568054
 40
0.3260934753569205
 40
0.4764380519570182
 40
0.6267826285571155
 40
0.777127205157205
 40
0.9274717817573156
 40
0.9999999999999999
 40
0.9999999999999999
 40
0.9999999999999999
 40
0.9999999999999999
 10
4.866025403784487
 20
-0.2748546046843305
 30
0.0
 10
4.866025403784487
 20
-0.2747535326742531
 30
0.0
 10
4.86602540378453
 20
-0.2740543093548244
 30
0.0
 10
4.866025403784487
 20
-0.1118662619114825
 30
0.0
 10
4.866025403784487
 20
0.2927944021383291
 30
0.0
 10
4.866025403784473
 20
0.8788937326040834
 30
0.0
 10
4.866025403784459
 20
1.568547298322869
 30
0.0
 10
4.866025403784487
 20
2.2844970053913
 30
0.0
 10
4.866025403784416
 20
2.840022758682077
 30
0.0
 10
4.866025403784459
 20
3.113131854860843
 30
0.0
 10
4.866025403784473
 20
3.202008185171536
 30
0.0
  0
SPLINE
  5
C4
330
1F
100
AcDbEntity
  8
외형선
  6
Continuous
370
    15
100
AcDbSpline
210
0.0
220
0.0
230
1.0
 70
     8
 71
     3
 72
     8
 73
     4
 74
     0
 42
0.000000001
 43
0.00000001
 40
0.0
 40
0.0
 40
0.0
 40
0.0
 40
1.0
 40
1.0
 40
1.0
 40
1.0
 10
4.866025403783002
 20
-0.2240674016070915
 30
0.0
 10
4.53488353253692
 20
-0.0326769708525438
 30
0.0
 10
4.199238035758928
 20
0.1605963591609713
 30
0.0
 10
3.865866344614705
 20
0.3518452234885063
 30
0.0
  0
SPLINE
  5
C5
330
1F
100
AcDbEntity
  8
외형선
  6
Continuous
370
    15
100
AcDbSpline
210
0.0
220
0.0
230
1.0
 70
     8
 71
     3
 72
     8
 73
     4
 74
     0
 42
0.000000001
 43
0.00000001
 40
0.0
 40
0.0
 40
0.0
 40
0.0
 40
1.0
 40
1.0
 40
1.0
 40
1.0
 10
4.866025403782988
 20
3.202008185171866
 30
0.0
 10
4.534883532536934
 20
3.279580057971436
 30
0.0
 10
4.199238035758942
 20
3.342986295716246
 30
0.0
 10
3.865866344614719
 20
3.390846278505518
 30
0.0
  0
SPLINE
  5
C6
330
1F
100
AcDbEntity
  8
외형선
  6
Continuous
370
    15
100
AcDbSpline
210
0.0
220
0.0
230
1.0
 70
     8
 71
     3
 72
     8
 73
     4
 74
     0
 42
0.000000001
 43
0.00000001
 40
0.0
 40
0.0
 40
0.0
 40
0.0
 40
1.0
 40
1.0
 40
1.0
 40
1.0
 10
4.866025403782988
 20
-1.414561425628929
 30
0.0
 10
4.534883532536934
 20
-1.239161587495634
 30
0.0
 10
4.199238035758942
 20
-1.05655243648971
 30
0.0
 10
3.865866344614719
 20
-0.8703894688275223
 30
0.0
  0
SPLINE
  5
C7
330
1F
100
AcDbEntity
  8
외형선
  6
Continuous
370
    15
100
AcDbSpline
210
0.0
220
0.0
230
1.0
 70
     8
 71
     3
 72
     8
 73
     4
 74
     0
 42
0.000000001
 43
0.00000001
 40
0.0
 40
0.0
 40
0.0
 40
0.0
 40
1.0
 40
1.0
 40
1.0
 40
1.0
 10
4.866025403783002
 20
-3.491676269270771
 30
0.0
 10
4.53488353253692
 20
-3.504013273866994
 30
0.0
 10
4.199238035758928
 20
-3.500567563266501
 30
0.0
 10
3.865866344614705
 20
-3.481303597558216
 30
0.0
  0
SPLINE
  5
C8
330
1F
100
AcDbEntity
  8
외형선
  6
Continuous
370
    15
100
AcDbSpline
210
0.0
220
0.0
230
1.0
 70
    24
 71
     3
 72
    14
 73
    10
 74
     0
 42
0.000000001
 43
0.00000001
 40
0.0
 40
0.0
 40
0.0
 40
0.0
 40
0.1624296820321853
 40
0.3298139955078756
 40
0.4883944338960001
 40
0.6515737157403799
 40
0.8101541541285394
 40
0.9733334359729597
 40
1.0
 40
1.0
 40
1.0
 40
1.0
 10
4.866025403784473
 20
-3.491676269270715
 30
0.0
 10
4.866025403784459
 20
-3.374490296384729
 30
0.0
 10
4.866025403784402
 20
-3.136543798851438
 30
0.0
 10
4.866025403784558
 20
-2.775785974849996
 30
0.0
 10
4.866025403784402
 20
-2.422412071032817
 30
0.0
 10
4.866025403784544
 20
-2.089965965524941
 30
0.0
 10
4.866025403784459
 20
-1.784316491723719
 30
0.0
 10
4.866025403784473
 20
-1.578400128059214
 30
0.0
 10
4.866025403784473
 20
-1.489024010475631
 30
0.0
 10
4.866025403784487
 20
-1.476469856598361
 30
0.0
  0
LINE
  5
C9
330
1F
100
AcDbEntity
  8
외형선
  6
Continuous
370
    15
100
AcDbLine
 10
4.475801709055109
 20
3.50016609626671
 30
0.0
 11
4.866025403783002
 21
3.493826126718558
 31
0.0
  0
LINE
  5
CA
330
1F
100
AcDbEntity
  8
중심선
100
AcDbLine
 10
-72.13397459621552
 20
0.0010749287238931
 30
0.0
 11
23.86602540378447
 21
0.0010749287238892
 31
0.0
  0
LINE
  5
CB
330
1F
100
AcDbEntity
  8
참조1
100
AcDbLine
 10
-44.13448796377176
 20
-2.498925071276081
 30
0.0
 11
-44.13448796377175
 21
-39.9989250712761
 31
0.0
  0
LINE
  5
CC
330
1F
100
AcDbEntity
  8
참조1
100
AcDbLine
 10
-44.13448796377175
 20
-39.9989250712761
 30
0.0
 11
-59.2928314105242
 21
-39.9989250712761
 31
0.0
  0
CIRCLE
  5
CD
330
1F
100
AcDbEntity
  8
해칭선
100
AcDbCircle
 10
0.0
 20
0.0
 30
0.0
 40
3.000000000000001
  0
INSERT
  5
CE
330
1F
100
AcDbEntity
  8
0
  6
Continuous
 62
     7
100
AcDbBlockReference
 66
     1
  2
블럭10
 10
-37.88885591838262
 20
-52.04609937292005
 30
0.0
  0
ATTRIB
  5
CF
330
CE
100
AcDbEntity
  8
FORMAT
 62
     2
100
AcDbText
 10
-54.00811695781817
 20
-49.97073246008786
 30
0.0
 40
4.233333333333333
  1
SEME0107020E [ 4 FLUTE ]
 41
0.75
  7
SLDTEXTSTYLE0
 11
-54.00811695781817
 21
-52.08739912675453
 31
0.0
100
AcDbAttribute
  2
AUTOATTR0
 70
     0
 74
     1
  0
SEQEND
  5
D0
330
CE
100
AcDbEntity
  8
0
  6
Continuous
 62
     7
  0
HATCH
  5
D1
330
1F
100
AcDbEntity
  8
중심선
100
AcDbHatch
 10
0.0
 20
0.0
 30
0.0
210
0.0
220
0.0
230
1.0
  2
SOLID
 70
     1
 71
     0
 91
        1
 92
        0
 93
        4
 72
     1
 10
-32.17394661400176
 20
-35.79892507127612
 11
-35.62022185783904
 21
-35.79892507127612
 72
     1
 10
-35.62022185783905
 20
-35.79892507127612
 11
-37.74845171704307
 21
-38.33525065184871
 72
     1
 10
-37.74845171704307
 20
-38.33525065184871
 11
-34.30214338809264
 21
-38.33521122254622
 72
     1
 10
-34.30214338809265
 20
-38.33521122254622
 11
-32.17394661400177
 21
-35.79892507127612
 97
        0
 75
     0
 76
     1
 98
        1
 10
-8.172940749297606
 20
0.0010749287238789
  0
HATCH
  5
D2
330
1F
100
AcDbEntity
  8
중심선
100
AcDbHatch
 10
0.0
 20
0.0
 30
0.0
210
0.0
220
0.0
230
1.0
  2
SOLID
 70
     1
 71
     0
 91
        1
 92
        0
 93
        4
 72
     1
 10
-27.16118262296581
 20
-35.79892507127612
 11
-30.6074578668031
 21
-35.79892507127612
 72
     1
 10
-30.6074578668031
 20
-35.79892507127612
 11
-35.13859587516049
 21
-41.19892507127614
 72
     1
 10
-35.13859587516049
 20
-41.19892507127614
 11
-31.69232063132321
 21
-41.19892507127614
 72
     1
 10
-31.69232063132321
 20
-41.19892507127614
 11
-27.16118262296581
 21
-35.79892507127612
 97
        0
 75
     0
 76
     1
 98
        1
 10
-8.172940749297606
 20
0.0010749287238789
  0
HATCH
  5
D3
330
1F
100
AcDbEntity
  8
중심선
100
AcDbHatch
 10
0.0
 20
0.0
 30
0.0
210
0.0
220
0.0
230
1.0
  2
SOLID
 70
     1
 71
     0
 91
        1
 92
        0
 93
        4
 72
     1
 10
-22.14841863192992
 20
-35.79892507127614
 11
-25.59469387576704
 21
-35.79892507127612
 72
     1
 10
-25.59469387576704
 20
-35.79892507127612
 11
-32.64313077765628
 21
-44.19892507127614
 72
     1
 10
-32.64313077765628
 20
-44.19892507127614
 11
-29.196855533819
 21
-44.19892507127614
 72
     1
 10
-29.196855533819
 20
-44.19892507127614
 11
-22.14841863192992
 21
-35.79892507127614
 97
        0
 75
     0
 76
     1
 98
        1
 10
-8.172940749297606
 20
0.0010749287238789
  0
HATCH
  5
D4
330
1F
100
AcDbEntity
  8
중심선
100
AcDbHatch
 10
0.0
 20
0.0
 30
0.0
210
0.0
220
0.0
230
1.0
  2
SOLID
 70
     1
 71
     0
 91
        1
 92
        0
 93
        6
 72
     3
 10
-17.34852820091772
 20
-39.99892507132739
 11
3.960054785062281
 21
1.540882976769353E-10
 40
0.393933944016263
 50
17.09539180608441
 51
320.0019657685081
 73
     0
 72
     1
 10
-15.66552854521712
 20
-38.58681907591442
 11
-13.36022667151609
 21
-36.6524923658665
 72
     3
 10
-17.34852820097057
 20
-39.99892507127627
 11
6.600054785286833
 21
-1.278976924368180E-13
 40
0.6363583540795976
 50
39.99873849337408
 51
368.4976242363725
 73
     1
 72
     1
 10
-10.92319570906996
 20
-39.03892507120614
 11
-18.66846089413465
 21
-39.03892507120611
 72
     1
 10
-18.66846089413465
 20
-39.03892507120611
 11
-18.66848593858058
 21
-40.95892507120603
 72
     1
 10
-18.66848593858058
 20
-40.95892507120603
 11
-14.22710616910854
 21
-40.958925071206
 97
        0
 75
     0
 76
     1
 98
        1
 10
-8.172940749297606
 20
0.0010749287238789
  0
DIMENSION
  5
D5
330
1F
100
AcDbEntity
  8
치수문자_일반주서
100
AcDbDimension
  2
_D
 10
30.86602540378448
 20
-3.498925071276075
 30
0.0
 11
30.86602540378442
 21
13.16757492872395
 31
0.0
 70
   160
  1
%%c<>
 71
     2
 42
7.0
 52
-270.0
  3
SLDDIMSTYLE0
100
AcDbAlignedDimension
 13
20.86602540378443
 23
3.501074928723889
 33
0.0
 14
20.86602540378443
 24
-3.498925071276111
 34
0.0
 50
90.0000000000002
100
AcDbRotatedDimension
1001
PE_URL
1000

  0
DIMENSION
  5
E3
330
1F
100
AcDbEntity
  8
치수문자_일반주서
100
AcDbDimension
  2
_D_1
 10
-79.13397459621551
 20
-3.998925071276155
 30
0.0
 11
-79.13397459621557
 21
13.66757492872386
 31
0.0
 70
   160
  1
%%c<>
 71
     2
 42
8.000000000000007
 52
-270.0
  3
SLDDIMSTYLE0
100
AcDbAlignedDimension
 13
-68.33397459621553
 23
4.001074928723897
 33
0.0
 14
-68.33397459621553
 24
-3.99892507127611
 34
0.0
 50
90.0000000000002
100
AcDbRotatedDimension
1001
PE_URL
1000

  0
DIMENSION
  5
F0
330
1F
100
AcDbEntity
  8
치수문자_일반주서
100
AcDbDimension
  2
_D_2
 10
4.866025403784459
 20
14.00107492872389
 30
0.0
 11
12.86602540378442
 21
14.00107492872389
 31
0.0
 70
   160
  1
<>
 71
     2
 42
15.99999999999997
  3
SLDDIMSTYLE0
100
AcDbAlignedDimension
 13
20.86602540378443
 23
3.501074928723889
 33
0.0
 14
4.866025403784459
 24
3.493826126718504
 34
0.0
 50
0.0000000000001272
100
AcDbRotatedDimension
1001
PE_URL
1000

  0
DIMENSION
  5
FC
330
1F
100
AcDbEntity
  8
치수문자_일반주서
100
AcDbDimension
  2
_D_3
 10
-69.13397459621552
 20
24.00107492872389
 30
0.0
 11
-24.13397459621553
 21
24.00107492872389
 31
0.0
 70
   160
  1
<>
 71
     2
 42
89.99999999999996
  3
SLDDIMSTYLE0
100
AcDbAlignedDimension
 13
20.86602540378443
 23
3.501074928723889
 33
0.0
 14
-69.13397459621552
 24
3.201074928723896
 34
0.0
 50
0.0000000000000045
100
AcDbRotatedDimension
1001
PE_URL
1000

  0
LINE
  5
107
330
1F
100
AcDbEntity
  8
참조1
100
AcDbLine
 10
38.67950921913007
 20
7.441074928723896
 30
0.0
 11
38.67950921913007
 21
-7.438925071276109
 31
0.0
  0
LINE
  5
108
330
1F
100
AcDbEntity
  8
참조1
100
AcDbLine
 10
51.37950921913007
 20
5.441074928723896
 30
0.0
 11
38.67950921913007
 21
5.441074928723896
 31
0.0
  0
SOLID
  5
109
330
1F
100
AcDbEntity
  8
참조1
100
AcDbTrace
 10
38.67950921913007
 20
5.441074928723896
 30
0.0
 11
45.02950921913006
 21
4.425074928723896
 31
0.0
 12
45.02950921913006
 22
6.457074928723896
 32
0.0
 13
45.02950921913006
 23
6.457074928723896
 33
0.0
  0
LINE
  5
10A
330
1F
100
AcDbEntity
  8
참조1
100
AcDbLine
 10
51.37950921913007
 20
-5.438925071276109
 30
0.0
 11
38.67950921913007
 21
-5.438925071276109
 31
0.0
  0
SOLID
  5
10B
330
1F
100
AcDbEntity
  8
참조1
100
AcDbTrace
 10
38.67950921913007
 20
-5.438925071276109
 30
0.0
 11
45.02950921913006
 21
-6.454925071276109
 31
0.0
 12
45.02950921913006
 22
-4.422925071276109
 32
0.0
 13
45.02950921913006
 23
-4.422925071276109
 33
0.0
  0
MTEXT
  5
10C
330
1F
100
AcDbEntity
  8
참조1
100
AcDbMText
 10
48.07699931160035
 20
10.98929157337383
 30
0.0
 40
3.5
 41
0.0
 71
     1
 72
     1
  1
A
  7
SLDTEXTSTYLE0
 73
     1
 44
1.0
  0
MTEXT
  5
10D
330
1F
100
AcDbEntity
  8
참조1
100
AcDbMText
 10
48.07699931160035
 20
0.1092915733738259
 30
0.0
 40
3.5
 41
0.0
 71
     1
 72
     1
  1
A
  7
SLDTEXTSTYLE0
 73
     1
 44
1.0
  0
INSERT
  5
114
330
1F
100
AcDbEntity
  8
해칭선
100
AcDbBlockReference
  2
SW_DOWELSYMBOL_0
 10
0.0
 20
0.0
 30
0.0
  0
ARC
  5
1C4
330
1F
100
AcDbEntity
  8
0
  6
Continuous
 62
     1
370
    15
100
AcDbCircle
 10
18.86602540378443
 20
1.402807996620959
 30
0.0
 40
2.0
100
AcDbArc
 50
0.0
 51
94.42547585343385
1001
PE_URL
1000

  0
ARC
  5
1C5
102
{ACAD_REACTORS
102
}
330
1F
100
AcDbEntity
  8
0
  6
Continuous
 62
     1
370
    15
100
AcDbCircle
 10
18.86602540378443
 20
-1.40065813917318
 30
0.0
 40
2.0
100
AcDbArc
 50
265.5745241465661
 51
360.0
1001
PE_URL
1000

  0
DIMENSION
  5
1C6
102
{ACAD_REACTORS
102
}
102
{ACAD_XDICTIONARY
360
1C7
102
}
330
1F
100
AcDbEntity
  8
치수문자_일반주서
100
AcDbDimension
  2
*D12
 10
18.86602540378443
 20
-1.40065813917318
 30
0.0
 11
29.11252721471515
 21
-16.11351525220014
 31
0.0
 70
   164
 71
     5
 42
1.999999999999999
  3
SLDDIMSTYLE1
100
AcDbRadialDimension
 15
20.00901649813321
 25
-3.041868472506288
 35
0.0
 40
0.0
1001
ACAD
1000
DSTYLE
1002
{
1070
    78
1070
     8
1002
}
1001
ACAD_DSTYLE_DIMRADIAL_EXTENSION
1070
   387
1070
     1
1070
   388
1040
4.635149855774763
1070
   390
1040
6.283185307179586
1001
PE_URL
1000

  0
ENDSEC
  0
SECTION
  2
OBJECTS
  0
DICTIONARY
  5
C
330
0
100
AcDbDictionary
281
     1
  3
ACAD_DETAILVIEWSTYLE
350
1B1
  3
ACAD_GROUP
350
D
  3
ACAD_LAYOUT
350
1A
  3
ACAD_MLINESTYLE
350
17
  3
ACAD_PLOTSETTINGS
350
19
  3
ACAD_PLOTSTYLENAME
350
E
  3
ACAD_SCALELIST
350
47
  3
ACAD_SECTIONVIEWSTYLE
350
1B2
  3
AcDbVariableDictionary
350
1AC
  3
APPDATA
350
136
  3
DWGPROPS
350
1D4
  0
DICTIONARY
  5
17C
330
2
100
AcDbDictionary
280
     1
281
     1
  3
ACAD_LAYERSTATES
360
17D
  0
DICTIONARY
  5
1C7
330
1C6
100
AcDbDictionary
280
     1
281
     1
  0
DICTIONARY
  5
1B1
102
{ACAD_REACTORS
330
C
102
}
330
C
100
AcDbDictionary
281
     1
  0
DICTIONARY
  5
D
102
{ACAD_REACTORS
330
C
102
}
330
C
100
AcDbDictionary
281
     1
  0
DICTIONARY
  5
1A
102
{ACAD_REACTORS
330
C
102
}
330
C
100
AcDbDictionary
281
     1
  3
Layout1
350
1E
  3
Layout2
350
26
  3
Model
350
22
  0
DICTIONARY
  5
17
102
{ACAD_REACTORS
330
C
102
}
330
C
100
AcDbDictionary
281
     1
  3
Standard
350
18
  0
DICTIONARY
  5
19
102
{ACAD_REACTORS
330
C
102
}
330
C
100
AcDbDictionary
281
     1
  0
ACDBDICTIONARYWDFLT
  5
E
102
{ACAD_REACTORS
330
C
102
}
330
C
100
AcDbDictionary
281
     1
  3
Normal
350
F
100
AcDbDictionaryWithDefault
340
F
  0
DICTIONARY
  5
47
102
{ACAD_REACTORS
330
C
102
}
330
C
100
AcDbDictionary
281
     1
  3
A0
350
48
  3
A1
350
49
  3
A2
350
4A
  3
A3
350
4B
  3
A4
350
4C
  3
A5
350
4D
  3
A6
350
4E
  3
A7
350
4F
  3
A8
350
50
  3
A9
350
51
  3
B0
350
52
  3
B1
350
53
  3
B2
350
54
  3
B3
350
55
  3
B4
350
56
  3
B5
350
57
  3
B6
350
58
  3
B7
350
59
  3
B8
350
5A
  3
B9
350
5B
  3
C0
350
5C
  3
C1
350
5D
  3
C2
350
5E
  3
C3
350
5F
  3
C4
350
60
  3
C5
350
61
  3
C6
350
62
  3
C7
350
63
  3
C8
350
64
  3
C9
350
65
  3
D0
350
66
  3
D1
350
67
  3
D2
350
68
  0
DICTIONARY
  5
1B2
102
{ACAD_REACTORS
330
C
102
}
330
C
100
AcDbDictionary
281
     1
  0
DICTIONARY
  5
1AC
102
{ACAD_REACTORS
330
C
102
}
330
C
100
AcDbDictionary
281
     1
  0
DICTIONARY
  5
136
102
{ACAD_REACTORS
330
C
102
}
330
C
100
AcDbDictionary
281
     1
  0
XRECORD
  5
1D4
102
{ACAD_REACTORS
330
C
102
}
330
C
100
AcDbXrecord
280
     1
  1
DWGPROPS COOKIE
  2

  3

  4

  6

  7

  8
12017044
  9

300
=
301
=
302
=
303
=
304
=
305
=
306
=
307
=
308
=
309
=
 40
0.0
 41
2458269.438235324
 42
2458270.441292176
  1

 90
        0
  0
DICTIONARY
  5
17D
102
{ACAD_REACTORS
330
17C
102
}
330
17C
100
AcDbDictionary
281
     1
  0
LAYOUT
  5
1E
102
{ACAD_REACTORS
330
1A
102
}
330
1A
100
AcDbPlotSettings
  1

  2
none_device
  4

  6

 40
0.0
 41
0.0
 42
0.0
 43
0.0
 44
0.0
 45
0.0
 46
0.0
 47
0.0
 48
0.0
 49
0.0
140
0.0
141
0.0
142
1.0
143
1.0
 70
   688
 72
     1
 73
     0
 74
     5
  7

 75
    16
147
1.0
148
0.0
149
0.0
100
AcDbLayout
  1
Layout1
 70
     1
 71
     1
 10
0.0
 20
0.0
 11
420.0
 21
297.0
 12
0.0
 22
0.0
 32
0.0
 14
1.000000000000000E+20
 24
1.000000000000000E+20
 34
1.000000000000000E+20
 15
-1.000000000000000E+20
 25
-1.000000000000000E+20
 35
-1.000000000000000E+20
146
0.0
 13
0.0
 23
0.0
 33
0.0
 16
1.0
 26
0.0
 36
0.0
 17
0.0
 27
1.0
 37
0.0
 76
     0
330
1B
  0
LAYOUT
  5
26
102
{ACAD_REACTORS
330
1A
102
}
330
1A
100
AcDbPlotSettings
  1

  2
none_device
  4

  6

 40
0.0
 41
0.0
 42
0.0
 43
0.0
 44
0.0
 45
0.0
 46
0.0
 47
0.0
 48
0.0
 49
0.0
140
0.0
141
0.0
142
1.0
143
1.0
 70
   688
 72
     1
 73
     0
 74
     5
  7

 75
    16
147
1.0
148
0.0
149
0.0
100
AcDbLayout
  1
Layout2
 70
     1
 71
     2
 10
0.0
 20
0.0
 11
0.0
 21
0.0
 12
0.0
 22
0.0
 32
0.0
 14
0.0
 24
0.0
 34
0.0
 15
0.0
 25
0.0
 35
0.0
146
0.0
 13
0.0
 23
0.0
 33
0.0
 16
1.0
 26
0.0
 36
0.0
 17
0.0
 27
1.0
 37
0.0
 76
     0
330
23
  0
LAYOUT
  5
22
102
{ACAD_REACTORS
330
1A
102
}
330
1A
100
AcDbPlotSettings
  1

  2
none_device
  4
ANSI_A_(11.00_x_8.50_Inches)
  6

 40
6.35
 41
19.05
 42
6.35000508
 43
19.05000254
 44
279.4
 45
215.9
 46
110.9593412050573
 47
108.7840850649472
 48
0.0
 49
0.0
140
0.0
141
0.0
142
0.0787616753210067
143
1.0
 70
  1696
 72
     0
 73
     0
 74
     0
  7

 75
     0
147
0.0235690232323232
148
0.0
149
0.0
100
AcDbLayout
  1
Model
 70
     1
 71
     0
 10
0.0
 20
0.0
 11
420.0
 21
297.0
 12
0.0
 22
0.0
 32
0.0
 14
-83.50897459621557
 24
-49.97073246008786
 34
0.0
 15
51.37950921913007
 25
28.3760749287239
 35
0.0
146
0.0
 13
0.0
 23
0.0
 33
0.0
 16
1.0
 26
0.0
 36
0.0
 17
0.0
 27
1.0
 37
0.0
 76
     0
330
1F
331
29
  0
MLINESTYLE
  5
18
102
{ACAD_REACTORS
330
17
102
}
330
17
100
AcDbMlineStyle
  2
Standard
 70
     0
  3

 62
   256
 51
90.0
 52
90.0
 71
     2
 49
0.5
 62
   256
  6
BYLAYER
 49
-0.5
 62
   256
  6
BYLAYER
  0
ACDBPLACEHOLDER
  5
F
102
{ACAD_REACTORS
330
E
102
}
330
E
  0
SCALE
  5
48
102
{ACAD_REACTORS
330
47
102
}
330
47
100
AcDbScale
 70
     0
300
1:1
140
1.0
141
1.0
290
     1
  0
SCALE
  5
49
102
{ACAD_REACTORS
330
47
102
}
330
47
100
AcDbScale
 70
     0
300
1:2
140
1.0
141
2.0
290
     0
  0
SCALE
  5
4A
102
{ACAD_REACTORS
330
47
102
}
330
47
100
AcDbScale
 70
     0
300
1:4
140
1.0
141
4.0
290
     0
  0
SCALE
  5
4B
102
{ACAD_REACTORS
330
47
102
}
330
47
100
AcDbScale
 70
     0
300
1:5
140
1.0
141
5.0
290
     0
  0
SCALE
  5
4C
102
{ACAD_REACTORS
330
47
102
}
330
47
100
AcDbScale
 70
     0
300
1:8
140
1.0
141
8.0
290
     0
  0
SCALE
  5
4D
102
{ACAD_REACTORS
330
47
102
}
330
47
100
AcDbScale
 70
     0
300
1:10
140
1.0
141
10.0
290
     0
  0
SCALE
  5
4E
102
{ACAD_REACTORS
330
47
102
}
330
47
100
AcDbScale
 70
     0
300
1:16
140
1.0
141
16.0
290
     0
  0
SCALE
  5
4F
102
{ACAD_REACTORS
330
47
102
}
330
47
100
AcDbScale
 70
     0
300
1:20
140
1.0
141
20.0
290
     0
  0
SCALE
  5
50
102
{ACAD_REACTORS
330
47
102
}
330
47
100
AcDbScale
 70
     0
300
1:30
140
1.0
141
30.0
290
     0
  0
SCALE
  5
51
102
{ACAD_REACTORS
330
47
102
}
330
47
100
AcDbScale
 70
     0
300
1:40
140
1.0
141
40.0
290
     0
  0
SCALE
  5
52
102
{ACAD_REACTORS
330
47
102
}
330
47
100
AcDbScale
 70
     0
300
1:50
140
1.0
141
50.0
290
     0
  0
SCALE
  5
53
102
{ACAD_REACTORS
330
47
102
}
330
47
100
AcDbScale
 70
     0
300
1:100
140
1.0
141
100.0
290
     0
  0
SCALE
  5
54
102
{ACAD_REACTORS
330
47
102
}
330
47
100
AcDbScale
 70
     0
300
2:1
140
2.0
141
1.0
290
     0
  0
SCALE
  5
55
102
{ACAD_REACTORS
330
47
102
}
330
47
100
AcDbScale
 70
     0
300
4:1
140
4.0
141
1.0
290
     0
  0
SCALE
  5
56
102
{ACAD_REACTORS
330
47
102
}
330
47
100
AcDbScale
 70
     0
300
8:1
140
8.0
141
1.0
290
     0
  0
SCALE
  5
57
102
{ACAD_REACTORS
330
47
102
}
330
47
100
AcDbScale
 70
     0
300
10:1
140
10.0
141
1.0
290
     0
  0
SCALE
  5
58
102
{ACAD_REACTORS
330
47
102
}
330
47
100
AcDbScale
 70
     0
300
100:1
140
100.0
141
1.0
290
     0
  0
SCALE
  5
59
102
{ACAD_REACTORS
330
47
102
}
330
47
100
AcDbScale
 70
     0
300
1/128" = 1'-0"
140
0.0078125
141
12.0
290
     0
  0
SCALE
  5
5A
102
{ACAD_REACTORS
330
47
102
}
330
47
100
AcDbScale
 70
     0
300
1/64" = 1'-0"
140
0.015625
141
12.0
290
     0
  0
SCALE
  5
5B
102
{ACAD_REACTORS
330
47
102
}
330
47
100
AcDbScale
 70
     0
300
1/32" = 1'-0"
140
0.03125
141
12.0
290
     0
  0
SCALE
  5
5C
102
{ACAD_REACTORS
330
47
102
}
330
47
100
AcDbScale
 70
     0
300
1/16" = 1'-0"
140
0.0625
141
12.0
290
     0
  0
SCALE
  5
5D
102
{ACAD_REACTORS
330
47
102
}
330
47
100
AcDbScale
 70
     0
300
3/32" = 1'-0"
140
0.09375
141
12.0
290
     0
  0
SCALE
  5
5E
102
{ACAD_REACTORS
330
47
102
}
330
47
100
AcDbScale
 70
     0
300
1/8" = 1'-0"
140
0.125
141
12.0
290
     0
  0
SCALE
  5
5F
102
{ACAD_REACTORS
330
47
102
}
330
47
100
AcDbScale
 70
     0
300
3/16" = 1'-0"
140
0.1875
141
12.0
290
     0
  0
SCALE
  5
60
102
{ACAD_REACTORS
330
47
102
}
330
47
100
AcDbScale
 70
     0
300
1/4" = 1'-0"
140
0.25
141
12.0
290
     0
  0
SCALE
  5
61
102
{ACAD_REACTORS
330
47
102
}
330
47
100
AcDbScale
 70
     0
300
3/8" = 1'-0"
140
0.375
141
12.0
290
     0
  0
SCALE
  5
62
102
{ACAD_REACTORS
330
47
102
}
330
47
100
AcDbScale
 70
     0
300
1/2" = 1'-0"
140
0.5
141
12.0
290
     0
  0
SCALE
  5
63
102
{ACAD_REACTORS
330
47
102
}
330
47
100
AcDbScale
 70
     0
300
3/4" = 1'-0"
140
0.75
141
12.0
290
     0
  0
SCALE
  5
64
102
{ACAD_REACTORS
330
47
102
}
330
47
100
AcDbScale
 70
     0
300
1" = 1'-0"
140
1.0
141
12.0
290
     0
  0
SCALE
  5
65
102
{ACAD_REACTORS
330
47
102
}
330
47
100
AcDbScale
 70
     0
300
1-1/2" = 1'-0"
140
1.5
141
12.0
290
     0
  0
SCALE
  5
66
102
{ACAD_REACTORS
330
47
102
}
330
47
100
AcDbScale
 70
     0
300
3" = 1'-0"
140
3.0
141
12.0
290
     0
  0
SCALE
  5
67
102
{ACAD_REACTORS
330
47
102
}
330
47
100
AcDbScale
 70
     0
300
6" = 1'-0"
140
6.0
141
12.0
290
     0
  0
SCALE
  5
68
102
{ACAD_REACTORS
330
47
102
}
330
47
100
AcDbScale
 70
     0
300
1'-0" = 1'-0"
140
12.0
141
12.0
290
     0
  0
ENDSEC
  0
EOF
