  0
SECTION
  2
HEADER
  9
$ACADVER
  1
AC1015
  9
$ACADMAINTVER
 70
     6
  9
$DWGCODEPAGE
  3
ANSI_949
  9
$INSBASE
 10
0.0
 20
0.0
 30
0.0
  9
$EXTMIN
 10
-79.44198729810779
 20
-49.97073246008785
 30
0.0
  9
$EXTMAX
 10
55.44649651723785
 20
27.3760749287239
 30
0.0
  9
$LIMMIN
 10
0.0
 20
0.0
  9
$LIMMAX
 10
420.0
 20
297.0
  9
$ORTHOMODE
 70
     1
  9
$REGENMODE
 70
     1
  9
$FILLMODE
 70
     1
  9
$QTEXTMODE
 70
     0
  9
$MIRRTEXT
 70
     1
  9
$LTSCALE
 40
1.0
  9
$ATTMODE
 70
     1
  9
$TEXTSIZE
 40
3.5
  9
$TRACEWID
 40
1.0
  9
$TEXTSTYLE
  7
Standard
  9
$CLAYER
  8
0
  9
$CELTYPE
  6
ByLayer
  9
$CECOLOR
 62
   256
  9
$CELTSCALE
 40
1.0
  9
$DISPSILH
 70
     0
  9
$DIMSCALE
 40
1.0
  9
$DIMASZ
 40
3.302
  9
$DIMEXO
 40
1.0
  9
$DIMDLI
 40
3.75
  9
$DIMRND
 40
0.0
  9
$DIMDLE
 40
0.0
  9
$DIMEXE
 40
1.0
  9
$DIMTP
 40
0.0
  9
$DIMTM
 40
0.0
  9
$DIMTXT
 40
3.5
  9
$DIMCEN
 40
2.5
  9
$DIMTSZ
 40
0.0
  9
$DIMTOL
 70
     0
  9
$DIMLIM
 70
     0
  9
$DIMTIH
 70
     1
  9
$DIMTOH
 70
     1
  9
$DIMSE1
 70
     0
  9
$DIMSE2
 70
     0
  9
$DIMTAD
 70
     1
  9
$DIMZIN
 70
     0
  9
$DIMBLK
  1

  9
$DIMASO
 70
     1
  9
$DIMSHO
 70
     1
  9
$DIMPOST
  1

  9
$DIMAPOST
  1

  9
$DIMALT
 70
     0
  9
$DIMALTD
 70
     3
  9
$DIMALTF
 40
0.0393700787401575
  9
$DIMLFAC
 40
1.0
  9
$DIMTOFL
 70
     1
  9
$DIMTVP
 40
0.0
  9
$DIMTIX
 70
     0
  9
$DIMSOXD
 70
     0
  9
$DIMSAH
 70
     0
  9
$DIMBLK1
  1

  9
$DIMBLK2
  1

  9
$DIMSTYLE
  2
ISO-25
  9
$DIMCLRD
 70
     0
  9
$DIMCLRE
 70
     0
  9
$DIMCLRT
 70
     0
  9
$DIMTFAC
 40
1.0
  9
$DIMGAP
 40
1.524
  9
$DIMJUST
 70
     0
  9
$DIMSD1
 70
     0
  9
$DIMSD2
 70
     0
  9
$DIMTOLJ
 70
     0
  9
$DIMTZIN
 70
     0
  9
$DIMALTZ
 70
     0
  9
$DIMALTTZ
 70
     0
  9
$DIMUPT
 70
     0
  9
$DIMDEC
 70
     2
  9
$DIMTDEC
 70
     2
  9
$DIMALTU
 70
     2
  9
$DIMALTTD
 70
     3
  9
$DIMTXSTY
  7
Standard
  9
$DIMAUNIT
 70
     0
  9
$DIMADEC
 70
     2
  9
$DIMALTRND
 40
0.0
  9
$DIMAZIN
 70
     0
  9
$DIMDSEP
 70
    44
  9
$DIMATFIT
 70
     3
  9
$DIMFRAC
 70
     0
  9
$DIMLDRBLK
  1

  9
$DIMLUNIT
 70
     2
  9
$DIMLWD
 70
    -2
  9
$DIMLWE
 70
    -2
  9
$DIMTMOVE
 70
     0
  9
$LUNITS
 70
     2
  9
$LUPREC
 70
     2
  9
$SKETCHINC
 40
1.0
  9
$FILLETRAD
 40
10.0
  9
$AUNITS
 70
     0
  9
$AUPREC
 70
     2
  9
$MENU
  1
.
  9
$ELEVATION
 40
0.0
  9
$PELEVATION
 40
0.0
  9
$THICKNESS
 40
0.0
  9
$LIMCHECK
 70
     0
  9
$CHAMFERA
 40
0.0
  9
$CHAMFERB
 40
0.0
  9
$CHAMFERC
 40
0.0
  9
$CHAMFERD
 40
0.0
  9
$SKPOLY
 70
     0
  9
$TDCREATE
 40
2458269.811911852
  9
$TDUCREATE
 40
2458269.436911852
  9
$TDUPDATE
 40
2458270.799251794
  9
$TDUUPDATE
 40
2458270.424251794
  9
$TDINDWG
 40
0.0030104282
  9
$TDUSRTIMER
 40
0.0030104167
  9
$USRTIMER
 70
     1
  9
$ANGBASE
 50
0.0
  9
$ANGDIR
 70
     0
  9
$PDMODE
 70
     0
  9
$PDSIZE
 40
-1.0
  9
$PLINEWID
 40
0.0
  9
$SPLFRAME
 70
     0
  9
$SPLINETYPE
 70
     6
  9
$SPLINESEGS
 70
     8
  9
$HANDSEED
  5
1C9
  9
$SURFTAB1
 70
     6
  9
$SURFTAB2
 70
     6
  9
$SURFTYPE
 70
     6
  9
$SURFU
 70
     6
  9
$SURFV
 70
     6
  9
$UCSBASE
  2

  9
$UCSNAME
  2

  9
$UCSORG
 10
0.0
 20
0.0
 30
0.0
  9
$UCSXDIR
 10
1.0
 20
0.0
 30
0.0
  9
$UCSYDIR
 10
0.0
 20
1.0
 30
0.0
  9
$UCSORTHOREF
  2

  9
$UCSORTHOVIEW
 70
     0
  9
$UCSORGTOP
 10
0.0
 20
0.0
 30
0.0
  9
$UCSORGBOTTOM
 10
0.0
 20
0.0
 30
0.0
  9
$UCSORGLEFT
 10
0.0
 20
0.0
 30
0.0
  9
$UCSORGRIGHT
 10
0.0
 20
0.0
 30
0.0
  9
$UCSORGFRONT
 10
0.0
 20
0.0
 30
0.0
  9
$UCSORGBACK
 10
0.0
 20
0.0
 30
0.0
  9
$PUCSBASE
  2

  9
$PUCSNAME
  2

  9
$PUCSORG
 10
0.0
 20
0.0
 30
0.0
  9
$PUCSXDIR
 10
1.0
 20
0.0
 30
0.0
  9
$PUCSYDIR
 10
0.0
 20
1.0
 30
0.0
  9
$PUCSORTHOREF
  2

  9
$PUCSORTHOVIEW
 70
     0
  9
$PUCSORGTOP
 10
0.0
 20
0.0
 30
0.0
  9
$PUCSORGBOTTOM
 10
0.0
 20
0.0
 30
0.0
  9
$PUCSORGLEFT
 10
0.0
 20
0.0
 30
0.0
  9
$PUCSORGRIGHT
 10
0.0
 20
0.0
 30
0.0
  9
$PUCSORGFRONT
 10
0.0
 20
0.0
 30
0.0
  9
$PUCSORGBACK
 10
0.0
 20
0.0
 30
0.0
  9
$USERI1
 70
     0
  9
$USERI2
 70
     0
  9
$USERI3
 70
     0
  9
$USERI4
 70
     0
  9
$USERI5
 70
     0
  9
$USERR1
 40
0.0
  9
$USERR2
 40
0.0
  9
$USERR3
 40
0.0
  9
$USERR4
 40
0.0
  9
$USERR5
 40
0.0
  9
$WORLDVIEW
 70
     1
  9
$SHADEDGE
 70
     3
  9
$SHADEDIF
 70
    70
  9
$TILEMODE
 70
     1
  9
$MAXACTVP
 70
    64
  9
$PINSBASE
 10
0.0
 20
0.0
 30
0.0
  9
$PLIMCHECK
 70
     0
  9
$PEXTMIN
 10
1.000000000000000E+20
 20
1.000000000000000E+20
 30
1.000000000000000E+20
  9
$PEXTMAX
 10
-1.000000000000000E+20
 20
-1.000000000000000E+20
 30
-1.000000000000000E+20
  9
$PLIMMIN
 10
0.0
 20
0.0
  9
$PLIMMAX
 10
0.0
 20
0.0
  9
$UNITMODE
 70
     0
  9
$VISRETAIN
 70
     1
  9
$PLINEGEN
 70
     0
  9
$PSLTSCALE
 70
     1
  9
$TREEDEPTH
 70
  3020
  9
$CMLSTYLE
  2
Standard
  9
$CMLJUST
 70
     0
  9
$CMLSCALE
 40
20.0
  9
$PROXYGRAPHICS
 70
     1
  9
$MEASUREMENT
 70
     1
  9
$CELWEIGHT
370
    -1
  9
$ENDCAPS
280
     0
  9
$JOINSTYLE
280
     0
  9
$LWDISPLAY
290
     1
  9
$INSUNITS
 70
     4
  9
$HYPERLINKBASE
  1

  9
$STYLESHEET
  1

  9
$XEDIT
290
     1
  9
$CEPSNTYPE
380
     0
  9
$PSTYLEMODE
290
     1
  9
$FINGERPRINTGUID
  2
{9D5602E9-CC85-458A-A029-8B3F3070D56E}
  9
$VERSIONGUID
  2
{FAEB1C32-E019-11D5-929B-00C0DF256EC4}
  9
$EXTNAMES
290
     1
  9
$PSVPSCALE
 40
0.0
  9
$OLESTARTUP
290
     0
  0
ENDSEC
  0
SECTION
  2
CLASSES
  0
CLASS
  1
ACDBDICTIONARYWDFLT
  2
AcDbDictionaryWithDefault
  3
ObjectDBX Classes
 90
        0
280
     0
281
     0
  0
CLASS
  1
VISUALSTYLE
  2
AcDbVisualStyle
  3
ObjectDBX Classes
 90
     4095
280
     0
281
     0
  0
CLASS
  1
MATERIAL
  2
AcDbMaterial
  3
ObjectDBX Classes
 90
     1153
280
     0
281
     0
  0
CLASS
  1
SCALE
  2
AcDbScale
  3
ObjectDBX Classes
 90
     1153
280
     0
281
     0
  0
CLASS
  1
SUN
  2
AcDbSun
  3
SCENEOE
 90
     1153
280
     0
281
     0
  0
CLASS
  1
ACDBPLACEHOLDER
  2
AcDbPlaceHolder
  3
ObjectDBX Classes
 90
        0
280
     0
281
     0
  0
CLASS
  1
LAYOUT
  2
AcDbLayout
  3
ObjectDBX Classes
 90
        0
280
     0
281
     0
  0
CLASS
  1
TABLESTYLE
  2
AcDbTableStyle
  3
ObjectDBX Classes
 90
     4095
280
     0
281
     0
  0
CLASS
  1
MLEADERSTYLE
  2
AcDbMLeaderStyle
  3
ACDB_MLEADERSTYLE_CLASS
 90
     4095
280
     0
281
     0
  0
CLASS
  1
DICTIONARYVAR
  2
AcDbDictionaryVar
  3
ObjectDBX Classes
 90
        0
280
     0
281
     0
  0
CLASS
  1
DIMASSOC
  2
AcDbDimAssoc
  3
"AcDbDimAssoc|Product Desc:     AcDim ARX App For Dimension|Company:          Autodesk, Inc.|WEB Address:      www.autodesk.com"
 90
        0
280
     0
281
     0
  0
ENDSEC
  0
SECTION
  2
TABLES
  0
TABLE
  2
VPORT
  5
8
330
0
100
AcDbSymbolTable
 70
     1
  0
VPORT
  5
29
330
8
100
AcDbSymbolTableRecord
100
AcDbViewportTableRecord
  2
*Active
 70
     0
 10
0.0
 20
0.0
 11
1.0
 21
1.0
 12
-11.99774539043497
 22
-11.29732876568197
 13
0.0
 23
0.0
 14
10.0
 24
10.0
 15
10.0
 25
10.0
 16
0.0
 26
0.0
 36
1.0
 17
0.0
 27
0.0
 37
0.0
 40
78.89374353658798
 41
2.003901170351105
 42
50.0
 43
0.0
 44
0.0
 50
0.0
 51
0.0
 71
    16
 72
  2000
 73
     1
 74
     3
 75
     0
 76
     0
 77
     0
 78
     0
281
     0
 65
     1
110
0.0
120
0.0
130
0.0
111
1.0
121
0.0
131
0.0
112
0.0
122
1.0
132
0.0
 79
     0
146
0.0
  0
ENDTAB
  0
TABLE
  2
LTYPE
  5
5
330
0
100
AcDbSymbolTable
 70
     6
  0
LTYPE
  5
14
330
5
100
AcDbSymbolTableRecord
100
AcDbLinetypeTableRecord
  2
ByBlock
 70
     0
  3

 72
    65
 73
     0
 40
0.0
  0
LTYPE
  5
15
330
5
100
AcDbSymbolTableRecord
100
AcDbLinetypeTableRecord
  2
ByLayer
 70
     0
  3

 72
    65
 73
     0
 40
0.0
  0
LTYPE
  5
16
330
5
100
AcDbSymbolTableRecord
100
AcDbLinetypeTableRecord
  2
Continuous
 70
     0
  3
Solid line
 72
    65
 73
     0
 40
0.0
  0
LTYPE
  5
6A
330
5
100
AcDbSymbolTableRecord
100
AcDbLinetypeTableRecord
  2
HIDDEN
 70
     0
  3
Hidden __ __ __ __ __ __ __ __ __ __ __ __ __ __
 72
    65
 73
     2
 40
1.905
 49
1.27
 74
     0
 49
-0.635
 74
     0
  0
LTYPE
  5
6B
330
5
100
AcDbSymbolTableRecord
100
AcDbLinetypeTableRecord
  2
PHANTOM
 70
     0
  3
Phantom ______  __  __  ______  __  __  ______
 72
    65
 73
     6
 40
12.7
 49
6.35
 74
     0
 49
-1.27
 74
     0
 49
1.27
 74
     0
 49
-1.27
 74
     0
 49
1.27
 74
     0
 49
-1.27
 74
     0
  0
LTYPE
  5
6C
330
5
100
AcDbSymbolTableRecord
100
AcDbLinetypeTableRecord
  2
CENTER
 70
     0
  3
Center ____ _ ____ _ ____ _ ____ _ ____ _ ____
 72
    65
 73
     4
 40
10.16
 49
6.35
 74
     0
 49
-1.27
 74
     0
 49
1.27
 74
     0
 49
-1.27
 74
     0
  0
LTYPE
  5
6D
330
5
100
AcDbSymbolTableRecord
100
AcDbLinetypeTableRecord
  2
CENTERX2
 70
     0
  3
Center (2x) ________  __  ________  __  _____
 72
    65
 73
     4
 40
20.32
 49
12.7
 74
     0
 49
-2.54
 74
     0
 49
2.54
 74
     0
 49
-2.54
 74
     0
  0
LTYPE
  5
6E
330
5
100
AcDbSymbolTableRecord
100
AcDbLinetypeTableRecord
  2
DOT2
 70
     0
  3
Dot (.5x) ........................................
 72
    65
 73
     2
 40
0.635
 49
0.0
 74
     0
 49
-0.635
 74
     0
  0
ENDTAB
  0
TABLE
  2
LAYER
  5
2
102
{ACAD_XDICTIONARY
360
174
102
}
330
0
100
AcDbSymbolTable
 70
    18
  0
LAYER
  5
10
330
2
100
AcDbSymbolTableRecord
100
AcDbLayerTableRecord
  2
0
 70
     0
 62
     7
  6
Continuous
370
    -3
390
F
  0
LAYER
  5
6F
330
2
100
AcDbSymbolTableRecord
100
AcDbLayerTableRecord
  2
FORMAT
 70
     0
 62
     2
  6
Continuous
370
    -3
390
F
  0
LAYER
  5
70
330
2
100
AcDbSymbolTableRecord
100
AcDbLayerTableRecord
  2
외형선
 70
     0
 62
     4
  6
Continuous
370
    30
390
F
  0
LAYER
  5
71
330
2
100
AcDbSymbolTableRecord
100
AcDbLayerTableRecord
  2
숨은선
 70
     0
 62
     2
  6
HIDDEN
370
    15
390
F
  0
LAYER
  5
72
330
2
100
AcDbSymbolTableRecord
100
AcDbLayerTableRecord
  2
중심선
 70
     0
 62
     1
  6
CENTERX2
370
    -3
390
F
  0
LAYER
  5
73
330
2
100
AcDbSymbolTableRecord
100
AcDbLayerTableRecord
  2
파단선
 70
     0
 62
     4
  6
Continuous
370
    -3
390
F
  0
LAYER
  5
74
330
2
100
AcDbSymbolTableRecord
100
AcDbLayerTableRecord
  2
해칭선
 70
     0
 62
   100
  6
Continuous
370
    -3
390
F
  0
LAYER
  5
75
330
2
100
AcDbSymbolTableRecord
100
AcDbLayerTableRecord
  2
가는실선
 70
     0
 62
     4
  6
Continuous
370
    -3
390
F
  0
LAYER
  5
76
330
2
100
AcDbSymbolTableRecord
100
AcDbLayerTableRecord
  2
치수_보조선
 70
     0
 62
     4
  6
Continuous
370
    -3
390
F
  0
LAYER
  5
77
330
2
100
AcDbSymbolTableRecord
100
AcDbLayerTableRecord
  2
치수문자_일반주서
 70
     0
 62
     7
  6
Continuous
370
    15
390
F
  0
LAYER
  5
78
330
2
100
AcDbSymbolTableRecord
100
AcDbLayerTableRecord
  2
개별주서
 70
     0
 62
   100
  6
Continuous
370
    30
390
F
  0
LAYER
  5
79
330
2
100
AcDbSymbolTableRecord
100
AcDbLayerTableRecord
  2
중간선
 70
     0
 62
     2
  6
Continuous
370
    15
390
F
  0
LAYER
  5
7A
330
2
100
AcDbSymbolTableRecord
100
AcDbLayerTableRecord
  2
윤곽선
 70
     0
 62
     3
  6
Continuous
370
    40
390
F
  0
LAYER
  5
7B
330
2
100
AcDbSymbolTableRecord
100
AcDbLayerTableRecord
  2
중심마크
 70
     0
 62
   100
  6
Continuous
370
    30
390
F
  0
LAYER
  5
7C
330
2
100
AcDbSymbolTableRecord
100
AcDbLayerTableRecord
  2
가상선
 70
     0
 62
     4
  6
PHANTOM
370
    -3
390
F
  0
LAYER
  5
7D
330
2
100
AcDbSymbolTableRecord
100
AcDbLayerTableRecord
  2
특수지정선
 70
     0
 62
     5
  6
CENTERX2
370
    60
390
F
  0
LAYER
  5
7E
330
2
100
AcDbSymbolTableRecord
100
AcDbLayerTableRecord
  2
참조1
 70
     0
 62
    -4
  6
Continuous
370
    -3
390
F
  0
LAYER
  5
135
330
2
100
AcDbSymbolTableRecord
100
AcDbLayerTableRecord
  2
Defpoints
 70
     0
 62
     7
  6
Continuous
290
     0
370
    -3
390
F
  0
ENDTAB
  0
TABLE
  2
STYLE
  5
3
330
0
100
AcDbSymbolTable
 70
     2
  0
STYLE
  5
11
330
3
100
AcDbSymbolTableRecord
100
AcDbTextStyleTableRecord
  2
Standard
 70
     0
 40
0.0
 41
1.0
 50
0.0
 71
     0
 42
3.5
  3
txt
  4

  0
STYLE
  5
94
330
3
100
AcDbSymbolTableRecord
100
AcDbTextStyleTableRecord
  2
SLDTEXTSTYLE0
 70
     0
 40
0.0
 41
0.75
 50
0.0
 71
     0
 42
3.5
  3
TXT
  4

  0
ENDTAB
  0
TABLE
  2
VIEW
  5
6
330
0
100
AcDbSymbolTable
 70
     0
  0
ENDTAB
  0
TABLE
  2
UCS
  5
7
330
0
100
AcDbSymbolTable
 70
     0
  0
ENDTAB
  0
TABLE
  2
APPID
  5
9
330
0
100
AcDbSymbolTable
 70
     3
  0
APPID
  5
12
330
9
100
AcDbSymbolTableRecord
100
AcDbRegAppTableRecord
  2
ACAD
 70
     0
  0
APPID
  5
13C
330
9
100
AcDbSymbolTableRecord
100
AcDbRegAppTableRecord
  2
PE_URL
 70
     0
  0
APPID
  5
13D
330
9
100
AcDbSymbolTableRecord
100
AcDbRegAppTableRecord
  2
ACAD_DSTYLE_DIMRADIAL_EXTENSION
 70
     0
  0
ENDTAB
  0
TABLE
  2
DIMSTYLE
  5
A
330
0
100
AcDbSymbolTable
 70
     3
100
AcDbDimStyleTable
  0
DIMSTYLE
105
27
330
A
100
AcDbSymbolTableRecord
100
AcDbDimStyleTableRecord
  2
ISO-25
 70
     0
 41
2.5
 42
0.625
 43
3.75
 44
1.25
 73
     0
 74
     0
 77
     1
 78
     8
140
2.5
141
2.5
143
0.03937007874016
147
0.625
171
     3
172
     1
178
     0
271
     2
272
     2
274
     3
278
    44
283
     0
284
     8
340
11
  0
DIMSTYLE
105
D3
102
{ACAD_REACTORS
330
D2
330
E0
330
ED
102
}
330
A
100
AcDbSymbolTableRecord
100
AcDbDimStyleTableRecord
  2
SLDDIMSTYLE0
 70
     0
 41
3.302
 44
0.0
 45
0.000000001
 73
     0
 74
     0
 77
     1
 78
    12
 79
     3
140
3.5
147
0.875
172
     1
173
     1
178
     0
271
     2
272
     2
276
     2
284
    12
289
     0
340
94
  0
DIMSTYLE
105
FA
102
{ACAD_REACTORS
330
F9
330
15C
330
169
330
1BA
102
}
330
A
100
AcDbSymbolTableRecord
100
AcDbDimStyleTableRecord
  2
SLDDIMSTYLE1
 70
     0
 41
3.302
 44
0.0
 45
0.000000001
 73
     0
 74
     0
 77
     1
 78
    12
 79
     3
140
3.5
147
0.875
173
     1
178
     0
271
     2
272
     2
276
     2
284
    12
340
94
  0
ENDTAB
  0
TABLE
  2
BLOCK_RECORD
  5
1
330
0
100
AcDbSymbolTable
 70
    13
  0
BLOCK_RECORD
  5
1F
330
1
100
AcDbSymbolTableRecord
100
AcDbBlockTableRecord
  2
*Model_Space
340
22
  0
BLOCK_RECORD
  5
1B
330
1
100
AcDbSymbolTableRecord
100
AcDbBlockTableRecord
  2
*Paper_Space
340
1E
  0
BLOCK_RECORD
  5
23
330
1
100
AcDbSymbolTableRecord
100
AcDbBlockTableRecord
  2
*Paper_Space0
340
26
  0
BLOCK_RECORD
  5
7F
330
1
100
AcDbSymbolTableRecord
100
AcDbBlockTableRecord
  2
블럭10
340
0
102
{BLKREFS
331
CB
102
}
  0
BLOCK_RECORD
  5
D4
330
1
100
AcDbSymbolTableRecord
100
AcDbBlockTableRecord
  2
_D
340
0
  0
BLOCK_RECORD
  5
E1
330
1
100
AcDbSymbolTableRecord
100
AcDbBlockTableRecord
  2
_D_1
340
0
  0
BLOCK_RECORD
  5
EE
330
1
100
AcDbSymbolTableRecord
100
AcDbBlockTableRecord
  2
_D_2
340
0
  0
BLOCK_RECORD
  5
FB
330
1
100
AcDbSymbolTableRecord
100
AcDbBlockTableRecord
  2
_D_3
340
0
  0
BLOCK_RECORD
  5
10B
330
1
100
AcDbSymbolTableRecord
100
AcDbBlockTableRecord
  2
SW_DOWELSYMBOL_0
340
0
102
{BLKREFS
331
111
102
}
  0
BLOCK_RECORD
  5
16A
330
1
100
AcDbSymbolTableRecord
100
AcDbBlockTableRecord
  2
*D8
340
0
  0
BLOCK_RECORD
  5
178
330
1
100
AcDbSymbolTableRecord
100
AcDbBlockTableRecord
  2
*D9
340
0
  0
BLOCK_RECORD
  5
189
330
1
100
AcDbSymbolTableRecord
100
AcDbBlockTableRecord
  2
*D10
340
0
  0
BLOCK_RECORD
  5
195
330
1
100
AcDbSymbolTableRecord
100
AcDbBlockTableRecord
  2
*D11
340
0
  0
BLOCK_RECORD
  5
1BD
330
1
100
AcDbSymbolTableRecord
100
AcDbBlockTableRecord
  2
*D12
340
0
  0
ENDTAB
  0
ENDSEC
  0
SECTION
  2
BLOCKS
  0
BLOCK
  5
20
330
1F
100
AcDbEntity
  8
0
100
AcDbBlockBegin
  2
*Model_Space
 70
     0
 10
0.0
 20
0.0
 30
0.0
  3
*Model_Space
  1

  0
ENDBLK
  5
21
330
1F
100
AcDbEntity
  8
0
100
AcDbBlockEnd
  0
BLOCK
  5
1C
330
1B
100
AcDbEntity
 67
     1
  8
0
100
AcDbBlockBegin
  2
*Paper_Space
 70
     0
 10
0.0
 20
0.0
 30
0.0
  3
*Paper_Space
  1

  0
ENDBLK
  5
1D
330
1B
100
AcDbEntity
 67
     1
  8
0
100
AcDbBlockEnd
  0
BLOCK
  5
24
330
23
100
AcDbEntity
  8
0
100
AcDbBlockBegin
  2
*Paper_Space0
 70
     0
 10
0.0
 20
0.0
 30
0.0
  3
*Paper_Space0
  1

  0
ENDBLK
  5
25
330
23
100
AcDbEntity
  8
0
100
AcDbBlockEnd
  0
BLOCK
  5
80
330
7F
100
AcDbEntity
  8
0
100
AcDbBlockBegin
  2
블럭10
 70
     2
 10
0.0
 20
0.0
 30
0.0
  3
블럭10
  1

  0
ELLIPSE
  5
82
330
7F
100
AcDbEntity
  8
중심선
100
AcDbEllipse
 10
20.54032771741204
 20
12.0471743016438
 30
0.0
 11
6.600054785286829
 21
-1.261213355974178E-13
 31
0.0
210
0.0
220
0.0
230
1.0
 40
0.636358354079598
 41
0.9219305317359503
 42
6.513795318482858
  0
ELLIPSE
  5
83
330
7F
100
AcDbEntity
  8
중심선
100
AcDbEllipse
 10
20.54032771746488
 20
12.04717430159265
 30
0.0
 11
3.960054785062283
 21
1.540847449632565E-10
 31
0.0
210
0.0
220
0.0
230
1.0
 40
0.3939339440162632
 41
1.131841032648279
 42
5.62031148352944
  0
LINE
  5
84
330
7F
100
AcDbEntity
  8
중심선
100
AcDbLine
 10
2.268634060543552
 20
16.24717430164393
 30
0.0
 11
5.714909304380834
 21
16.24717430164393
 31
0.0
  0
LINE
  5
85
330
7F
100
AcDbEntity
  8
중심선
100
AcDbLine
 10
5.245725140726316
 20
7.84717430164391
 30
0.0
 11
8.692000384563599
 21
7.84717430164391
 31
0.0
  0
LINE
  5
86
330
7F
100
AcDbEntity
  8
중심선
100
AcDbLine
 10
15.74043728645272
 20
16.24717430164393
 30
0.0
 11
8.692000384563599
 21
7.84717430164391
 31
0.0
  0
LINE
  5
87
330
7F
100
AcDbEntity
  8
중심선
100
AcDbLine
 10
0.1404042013395286
 20
13.71084872107135
 30
0.0
 11
3.58671253028996
 21
13.71088815037384
 31
0.0
  0
LINE
  5
88
330
7F
100
AcDbEntity
  8
중심선
100
AcDbLine
 10
2.750260043222114
 20
10.84717430164391
 30
0.0
 11
6.196535287059397
 21
10.84717430164391
 31
0.0
  0
LINE
  5
89
330
7F
100
AcDbEntity
  8
중심선
100
AcDbLine
 10
12.29416204261559
 20
16.24717430164393
 30
0.0
 11
5.245725140726316
 21
7.84717430164391
 31
0.0
  0
LINE
  5
8A
330
7F
100
AcDbEntity
  8
중심선
100
AcDbLine
 10
10.72767329541681
 20
16.24717430164393
 30
0.0
 11
6.196535287059397
 21
10.84717430164391
 31
0.0
  0
LINE
  5
8B
330
7F
100
AcDbEntity
  8
중심선
100
AcDbLine
 10
7.28139805157953
 20
16.24717430164393
 30
0.0
 11
2.750260043222114
 21
10.84717430164391
 31
0.0
  0
LINE
  5
8C
330
7F
100
AcDbEntity
  8
중심선
100
AcDbLine
 10
5.714909304380834
 20
16.24717430164393
 30
0.0
 11
3.58671253028996
 21
13.71088815037384
 31
0.0
  0
LINE
  5
8D
330
7F
100
AcDbEntity
  8
중심선
100
AcDbLine
 10
2.268634060543552
 20
16.24717430164393
 30
0.0
 11
0.1404042013395286
 21
13.71084872107135
 31
0.0
  0
LINE
  5
8E
330
7F
100
AcDbEntity
  8
중심선
100
AcDbLine
 10
7.28139805157953
 20
16.24717430164393
 30
0.0
 11
10.72767329541681
 21
16.24717430164393
 31
0.0
  0
LINE
  5
8F
330
7F
100
AcDbEntity
  8
중심선
100
AcDbLine
 10
12.29416204261559
 20
16.24717430164393
 30
0.0
 11
15.74043728645272
 21
16.24717430164393
 31
0.0
  0
LINE
  5
90
330
7F
100
AcDbEntity
  8
중심선
100
AcDbLine
 10
19.22036997980202
 20
11.08717430171403
 30
0.0
 11
23.66174974927406
 21
11.08717430171406
 31
0.0
  0
LINE
  5
91
330
7F
100
AcDbEntity
  8
중심선
100
AcDbLine
 10
19.22039502424796
 20
13.00717430171391
 30
0.0
 11
19.22036997980202
 21
11.08717430171403
 31
0.0
  0
LINE
  5
92
330
7F
100
AcDbEntity
  8
중심선
100
AcDbLine
 10
19.22039502424796
 20
13.00717430171391
 30
0.0
 11
26.96566020931264
 21
13.00717430171391
 31
0.0
  0
LINE
  5
93
330
7F
100
AcDbEntity
  8
중심선
100
AcDbLine
 10
22.22332737316547
 20
13.45928029700563
 30
0.0
 11
24.52862924686651
 21
15.39360700705356
 31
0.0
  0
ATTDEF
  5
95
330
7F
100
AcDbEntity
  8
FORMAT
 62
     2
100
AcDbText
 10
-16.11926103943555
 20
2.075366912832191
 30
0.0
 40
4.233333333333333
  1
SEME0106015E [ 4 FLUTE ]
 41
0.75
  7
SLDTEXTSTYLE0
 11
-16.11926103943555
 21
-0.0412997538344756
 31
0.0
100
AcDbAttributeDefinition
  3

  2
AUTOATTR0
 70
     0
 74
     1
  0
ENDBLK
  5
81
330
7F
100
AcDbEntity
  8
0
100
AcDbBlockEnd
  0
BLOCK
  5
D5
330
D4
100
AcDbEntity
  8
0
100
AcDbBlockBegin
  2
_D
 70
     0
 10
0.0
 20
0.0
 30
0.0
  3
_D
  1

  0
LINE
  5
D7
330
D4
100
AcDbEntity
  8
치수문자_일반주서
 62
     0
370
    -2
100
AcDbLine
 10
24.99551270189225
 20
3.001074928723889
 30
0.0
 11
34.93301270189222
 21
3.001074928723927
 31
0.0
  0
LINE
  5
D8
330
D4
100
AcDbEntity
  8
치수문자_일반주서
 62
     0
370
    -2
100
AcDbLine
 10
24.99551270189225
 20
-2.998925071276111
 30
0.0
 11
34.93301270189224
 21
-2.998925071276073
 31
0.0
  0
LINE
  5
D9
330
D4
100
AcDbEntity
  8
치수문자_일반주서
 62
     0
370
    -2
100
AcDbLine
 10
34.93301270189222
 20
3.001074928723927
 30
0.0
 11
34.93301270189217
 21
15.73007492872395
 31
0.0
  0
LINE
  5
DA
330
D4
100
AcDbEntity
  8
치수문자_일반주서
 62
     0
370
    -2
100
AcDbLine
 10
34.93301270189222
 20
3.001074928723927
 30
0.0
 11
34.93301270189224
 21
-2.998925071276073
 31
0.0
  0
LINE
  5
DB
330
D4
100
AcDbEntity
  8
치수문자_일반주서
 62
     0
370
    -2
100
AcDbLine
 10
34.9330127018922
 20
6.303074928723927
 30
0.0
 11
34.93301270189219
 21
9.605074928723926
 31
0.0
  0
LINE
  5
DC
330
D4
100
AcDbEntity
  8
치수문자_일반주서
 62
     0
370
    -2
100
AcDbLine
 10
34.93301270189225
 20
-6.300925071276072
 30
0.0
 11
34.93301270189227
 21
-9.602925071276072
 31
0.0
  0
SOLID
  5
DD
330
D4
100
AcDbEntity
  8
치수문자_일반주서
 62
     0
100
AcDbTrace
 10
34.38267936855887
 20
6.303074928723925
 30
0.0
 11
35.48334603522554
 21
6.303074928723928
 31
0.0
 12
34.93301270189222
 22
3.001074928723927
 32
0.0
 13
34.93301270189222
 23
3.001074928723927
 33
0.0
  0
SOLID
  5
DE
330
D4
100
AcDbEntity
  8
치수문자_일반주서
 62
     0
100
AcDbTrace
 10
35.48334603522559
 20
-6.300925071276071
 30
0.0
 11
34.38267936855892
 21
-6.300925071276074
 31
0.0
 12
34.93301270189224
 22
-2.998925071276073
 32
0.0
 13
34.93301270189224
 23
-2.998925071276073
 33
0.0
  0
MTEXT
  5
DF
330
D4
100
AcDbEntity
  8
치수문자_일반주서
 62
     0
100
AcDbMText
 10
30.55801270189218
 20
12.66757492872394
 30
0.0
 40
3.5
 41
0.0
 71
     2
 72
     1
  1
\A1;%%c6
  7
SLDTEXTSTYLE0
 11
-3.552713678800501E-15
 21
1.0
 31
0.0
 73
     1
 44
1.0
  0
POINT
  5
1B1
330
D4
100
AcDbEntity
  8
Defpoints
 62
     0
100
AcDbPoint
 10
24.93301270189225
 20
3.001074928723889
 30
0.0
  0
POINT
  5
1B2
330
D4
100
AcDbEntity
  8
Defpoints
 62
     0
100
AcDbPoint
 10
24.93301270189225
 20
-2.998925071276111
 30
0.0
  0
POINT
  5
1B3
330
D4
100
AcDbEntity
  8
Defpoints
 62
     0
100
AcDbPoint
 10
34.93301270189224
 20
-2.998925071276074
 30
0.0
  0
ENDBLK
  5
D6
330
D4
100
AcDbEntity
  8
0
100
AcDbBlockEnd
  0
BLOCK
  5
E2
330
E1
100
AcDbEntity
  8
0
100
AcDbBlockBegin
  2
_D_1
 70
     0
 10
0.0
 20
0.0
 30
0.0
  3
_D_1
  1

  0
LINE
  5
E4
330
E1
100
AcDbEntity
  8
치수문자_일반주서
 62
     0
370
    -2
100
AcDbLine
 10
-64.52948729810777
 20
3.001074928723896
 30
0.0
 11
-75.06698729810776
 21
3.001074928723854
 31
0.0
  0
LINE
  5
E5
330
E1
100
AcDbEntity
  8
치수문자_일반주서
 62
     0
370
    -2
100
AcDbLine
 10
-64.52948729810777
 20
-2.99892507127611
 30
0.0
 11
-75.06698729810775
 21
-2.998925071276149
 31
0.0
  0
LINE
  5
E6
330
E1
100
AcDbEntity
  8
치수문자_일반주서
 62
     0
370
    -2
100
AcDbLine
 10
-75.06698729810776
 20
3.001074928723854
 30
0.0
 11
-75.0669872981078
 21
15.73007492872386
 31
0.0
  0
LINE
  5
E7
330
E1
100
AcDbEntity
  8
치수문자_일반주서
 62
     0
370
    -2
100
AcDbLine
 10
-75.06698729810776
 20
3.001074928723854
 30
0.0
 11
-75.06698729810775
 21
-2.998925071276149
 31
0.0
  0
LINE
  5
E8
330
E1
100
AcDbEntity
  8
치수문자_일반주서
 62
     0
370
    -2
100
AcDbLine
 10
-75.06698729810778
 20
6.303074928723854
 30
0.0
 11
-75.06698729810779
 21
9.605074928723853
 31
0.0
  0
LINE
  5
E9
330
E1
100
AcDbEntity
  8
치수문자_일반주서
 62
     0
370
    -2
100
AcDbLine
 10
-75.06698729810773
 20
-6.300925071276149
 30
0.0
 11
-75.06698729810772
 21
-9.602925071276148
 31
0.0
  0
SOLID
  5
EA
330
E1
100
AcDbEntity
  8
치수문자_일반주서
 62
     0
100
AcDbTrace
 10
-75.6173206314411
 20
6.303074928723853
 30
0.0
 11
-74.51665396477445
 21
6.303074928723855
 31
0.0
 12
-75.06698729810776
 22
3.001074928723854
 32
0.0
 13
-75.06698729810776
 23
3.001074928723854
 33
0.0
  0
SOLID
  5
EB
330
E1
100
AcDbEntity
  8
치수문자_일반주서
 62
     0
100
AcDbTrace
 10
-74.5166539647744
 20
-6.300925071276148
 30
0.0
 11
-75.61732063144106
 21
-6.30092507127615
 31
0.0
 12
-75.06698729810775
 22
-2.998925071276149
 32
0.0
 13
-75.06698729810775
 23
-2.998925071276149
 33
0.0
  0
MTEXT
  5
EC
330
E1
100
AcDbEntity
  8
치수문자_일반주서
 62
     0
100
AcDbMText
 10
-79.44198729810779
 20
12.66757492872385
 30
0.0
 40
3.5
 41
0.0
 71
     2
 72
     1
  1
\A1;%%c6
  7
SLDTEXTSTYLE0
 11
-2.368475785866999E-15
 21
1.0
 31
0.0
 73
     1
 44
1.0
  0
POINT
  5
1AA
330
E1
100
AcDbEntity
  8
Defpoints
 62
     0
100
AcDbPoint
 10
-64.46698729810777
 20
3.001074928723896
 30
0.0
  0
POINT
  5
1AB
330
E1
100
AcDbEntity
  8
Defpoints
 62
     0
100
AcDbPoint
 10
-64.46698729810777
 20
-2.998925071276109
 30
0.0
  0
POINT
  5
1AC
330
E1
100
AcDbEntity
  8
Defpoints
 62
     0
100
AcDbPoint
 10
-75.06698729810773
 20
-2.998925071276149
 30
0.0
  0
ENDBLK
  5
E3
330
E1
100
AcDbEntity
  8
0
100
AcDbBlockEnd
  0
BLOCK
  5
EF
330
EE
100
AcDbEntity
  8
0
100
AcDbBlockBegin
  2
_D_2
 70
     0
 10
0.0
 20
0.0
 30
0.0
  3
_D_2
  1

  0
LINE
  5
F1
330
EE
100
AcDbEntity
  8
치수문자_일반주서
 62
     0
370
    -2
100
AcDbLine
 10
24.93301270189225
 20
3.063574928723889
 30
0.0
 11
24.93301270189225
 21
13.00107492872389
 31
0.0
  0
LINE
  5
F2
330
EE
100
AcDbEntity
  8
치수문자_일반주서
 62
     0
370
    -2
100
AcDbLine
 10
9.93301270189226
 20
3.020826253762244
 30
0.0
 11
9.93301270189226
 21
13.00107492872389
 31
0.0
  0
LINE
  5
F3
330
EE
100
AcDbEntity
  8
치수문자_일반주서
 62
     0
370
    -2
100
AcDbLine
 10
21.63101270189225
 20
13.00107492872389
 30
0.0
 11
13.23501270189226
 21
13.00107492872389
 31
0.0
  0
SOLID
  5
F4
330
EE
100
AcDbEntity
  8
치수문자_일반주서
 62
     0
100
AcDbTrace
 10
21.63101270189225
 20
12.45074159539056
 30
0.0
 11
21.63101270189225
 21
13.55140826205723
 31
0.0
 12
24.93301270189225
 22
13.00107492872389
 32
0.0
 13
24.93301270189225
 23
13.00107492872389
 33
0.0
  0
SOLID
  5
F5
330
EE
100
AcDbEntity
  8
치수문자_일반주서
 62
     0
100
AcDbTrace
 10
13.23501270189226
 20
13.55140826205723
 30
0.0
 11
13.23501270189226
 21
12.45074159539056
 31
0.0
 12
9.93301270189226
 22
13.00107492872389
 32
0.0
 13
9.93301270189226
 23
13.00107492872389
 33
0.0
  0
MTEXT
  5
F6
330
EE
100
AcDbEntity
  8
치수문자_일반주서
 62
     0
100
AcDbMText
 10
17.43301270189225
 20
17.3760749287239
 30
0.0
 40
3.5
 41
0.0
 71
     2
 72
     1
  1
\A1;15
  7
SLDTEXTSTYLE0
 73
     1
 44
1.0
  0
POINT
  5
F7
330
EE
100
AcDbEntity
  8
Defpoints
 62
     0
100
AcDbPoint
 10
24.93301270189225
 20
3.001074928723889
 30
0.0
  0
POINT
  5
F8
330
EE
100
AcDbEntity
  8
Defpoints
 62
     0
100
AcDbPoint
 10
9.93301270189226
 20
2.958326253762244
 30
0.0
  0
POINT
  5
1AD
330
EE
100
AcDbEntity
  8
Defpoints
 62
     0
100
AcDbPoint
 10
9.93301270189226
 20
13.00107492872389
 30
0.0
  0
ENDBLK
  5
F0
330
EE
100
AcDbEntity
  8
0
100
AcDbBlockEnd
  0
BLOCK
  5
FC
330
FB
100
AcDbEntity
  8
0
100
AcDbBlockBegin
  2
_D_3
 70
     0
 10
0.0
 20
0.0
 30
0.0
  3
_D_3
  1

  0
LINE
  5
FE
330
FB
100
AcDbEntity
  8
치수문자_일반주서
 62
     0
370
    -2
100
AcDbLine
 10
24.93301270189225
 20
3.063574928723889
 30
0.0
 11
24.93301270189224
 21
23.00107492872389
 31
0.0
  0
LINE
  5
FF
330
FB
100
AcDbEntity
  8
치수문자_일반주서
 62
     0
370
    -2
100
AcDbLine
 10
-65.06698729810776
 20
2.463574928723895
 30
0.0
 11
-65.06698729810776
 21
23.00107492872389
 31
0.0
  0
LINE
  5
100
330
FB
100
AcDbEntity
  8
치수문자_일반주서
 62
     0
370
    -2
100
AcDbLine
 10
21.63101270189224
 20
23.00107492872389
 30
0.0
 11
-61.76498729810776
 21
23.00107492872389
 31
0.0
  0
SOLID
  5
101
330
FB
100
AcDbEntity
  8
치수문자_일반주서
 62
     0
100
AcDbTrace
 10
21.63101270189224
 20
22.45074159539056
 30
0.0
 11
21.63101270189224
 21
23.55140826205723
 31
0.0
 12
24.93301270189224
 22
23.00107492872389
 32
0.0
 13
24.93301270189224
 23
23.00107492872389
 33
0.0
  0
SOLID
  5
102
330
FB
100
AcDbEntity
  8
치수문자_일반주서
 62
     0
100
AcDbTrace
 10
-61.76498729810776
 20
23.55140826205723
 30
0.0
 11
-61.76498729810776
 21
22.45074159539056
 31
0.0
 12
-65.06698729810776
 22
23.00107492872389
 32
0.0
 13
-65.06698729810776
 23
23.00107492872389
 33
0.0
  0
MTEXT
  5
103
330
FB
100
AcDbEntity
  8
치수문자_일반주서
 62
     0
100
AcDbMText
 10
-20.06698729810775
 20
27.37607492872389
 30
0.0
 40
3.5
 41
0.0
 71
     2
 72
     1
  1
\A1;90
  7
SLDTEXTSTYLE0
 73
     1
 44
1.0
  0
POINT
  5
1AE
330
FB
100
AcDbEntity
  8
Defpoints
 62
     0
100
AcDbPoint
 10
24.93301270189225
 20
3.001074928723889
 30
0.0
  0
POINT
  5
1AF
330
FB
100
AcDbEntity
  8
Defpoints
 62
     0
100
AcDbPoint
 10
-65.06698729810776
 20
2.401074928723895
 30
0.0
  0
POINT
  5
1B0
330
FB
100
AcDbEntity
  8
Defpoints
 62
     0
100
AcDbPoint
 10
-65.06698729810776
 20
23.00107492872389
 30
0.0
  0
ENDBLK
  5
FD
330
FB
100
AcDbEntity
  8
0
100
AcDbBlockEnd
  0
BLOCK
  5
10C
330
10B
100
AcDbEntity
  8
0
100
AcDbBlockBegin
  2
SW_DOWELSYMBOL_0
 70
     0
 10
0.0
 20
0.0
 30
0.0
  3
SW_DOWELSYMBOL_0
  1

  0
CIRCLE
  5
10E
330
10B
100
AcDbEntity
  8
해칭선
 62
     0
100
AcDbCircle
 10
0.0
 20
0.0
 30
0.0
 40
3.000000000000001
  0
HATCH
  5
10F
330
10B
100
AcDbEntity
  8
0
  6
Continuous
 62
     0
370
     0
100
AcDbHatch
 10
0.0
 20
0.0
 30
0.0
210
0.0
220
0.0
230
1.0
  2
SOLID
 70
     1
 71
     0
 91
        1
 92
        0
 93
        3
 72
     2
 10
0.0
 20
0.0
 40
3.000000000000001
 50
0.0
 51
90.0
 73
     1
 72
     1
 10
0.0
 20
3.000000000000001
 11
0.0
 21
0.0
 72
     1
 10
0.0
 20
0.0
 11
3.000000000000003
 21
0.0
 97
        0
 75
     0
 76
     1
 98
        1
 10
0.0
 20
0.0
  0
HATCH
  5
110
330
10B
100
AcDbEntity
  8
0
  6
Continuous
 62
     0
370
     0
100
AcDbHatch
 10
0.0
 20
0.0
 30
0.0
210
0.0
220
0.0
230
1.0
  2
SOLID
 70
     1
 71
     0
 91
        1
 92
        0
 93
        3
 72
     2
 10
0.0
 20
0.0
 40
3.000000000000001
 50
180.0
 51
270.0000000000008
 73
     1
 72
     1
 10
0.0
 20
-3.000000000000001
 11
0.0
 21
0.0
 72
     1
 10
0.0
 20
0.0
 11
-3.000000000000003
 21
0.0
 97
        0
 75
     0
 76
     1
 98
        1
 10
0.0
 20
0.0
  0
ENDBLK
  5
10D
330
10B
100
AcDbEntity
  8
0
100
AcDbBlockEnd
  0
BLOCK
  5
16B
330
16A
100
AcDbEntity
  8
0
100
AcDbBlockBegin
  2
*D8
 70
     1
 10
0.0
 20
0.0
 30
0.0
  3
*D8
  1

  0
LINE
  5
16C
330
16A
100
AcDbEntity
  8
치수문자_일반주서
 62
     0
370
    -2
100
AcDbLine
 10
11.77456662019823
 20
16.49151495257678
 30
0.0
 11
22.66398241076428
 21
-0.0000000000001465
 31
0.0
  0
MTEXT
  5
16D
330
16A
100
AcDbEntity
  8
치수문자_일반주서
 62
     0
100
AcDbMText
 10
22.56435305291799
 20
4.914785148259656
 30
0.0
 40
3.5
 41
0.0
 71
     5
 72
     1
  1
\A1;R0.1
  7
SLDTEXTSTYLE0
 11
0.5510189947672727
 21
-0.8344927006305473
 31
0.0
 73
     1
 44
1.0
  0
SOLID
  5
16E
330
16A
100
AcDbEntity
  8
치수문자_일반주서
 62
     0
100
AcDbTrace
 10
12.23381576977858
 20
16.79475907269703
 30
0.0
 11
11.31531747061789
 21
16.18827083245652
 31
0.0
 12
9.955101899476698
 22
19.24700985005884
 32
0.0
 13
9.955101899476698
 23
19.24700985005884
 33
0.0
  0
LINE
  5
16F
330
16A
100
AcDbEntity
  8
치수문자_일반주서
 62
     0
100
AcDbLine
 10
9.85499999999997
 20
19.3304591201219
 30
0.0
 11
9.94499999999997
 21
19.3304591201219
 31
0.0
  0
LINE
  5
170
330
16A
100
AcDbEntity
  8
치수문자_일반주서
 62
     0
100
AcDbLine
 10
9.89999999999997
 20
19.2854591201219
 30
0.0
 11
9.89999999999997
 21
19.3754591201219
 31
0.0
  0
POINT
  5
171
330
16A
100
AcDbEntity
  8
Defpoints
 62
     0
100
AcDbPoint
 10
9.955101899476698
 20
19.24700985005884
 30
0.0
  0
POINT
  5
184
330
16A
100
AcDbEntity
  8
Defpoints
 62
     0
100
AcDbPoint
 10
9.89999999999997
 20
19.3304591201219
 30
0.0
  0
ENDBLK
  5
172
330
16A
100
AcDbEntity
  8
0
100
AcDbBlockEnd
  0
BLOCK
  5
179
330
178
100
AcDbEntity
  8
0
100
AcDbBlockBegin
  2
*D9
 70
     1
 10
0.0
 20
0.0
 30
0.0
  3
*D9
  1

  0
LINE
  5
17B
330
178
100
AcDbEntity
  8
치수문자_일반주서
 62
     0
370
    -2
100
AcDbLine
 10
9.999999999999968
 20
22.7929591201219
 30
0.0
 11
9.999999999999968
 21
33.98045912012191
 31
0.0
  0
LINE
  5
17C
330
178
100
AcDbEntity
  8
치수문자_일반주서
 62
     0
370
    -2
100
AcDbLine
 10
0.0
 20
22.74140327075447
 30
0.0
 11
0.0
 21
33.98045912012191
 31
0.0
  0
LINE
  5
17D
330
178
100
AcDbEntity
  8
치수문자_일반주서
 62
     0
370
    -2
100
AcDbLine
 10
6.697999999999968
 20
33.98045912012191
 30
0.0
 11
3.302
 21
33.98045912012191
 31
0.0
  0
SOLID
  5
17E
330
178
100
AcDbEntity
  8
치수문자_일반주서
 62
     0
100
AcDbTrace
 10
6.697999999999968
 20
33.43012578678858
 30
0.0
 11
6.697999999999968
 21
34.53079245345525
 31
0.0
 12
9.999999999999968
 22
33.98045912012191
 32
0.0
 13
9.999999999999968
 23
33.98045912012191
 33
0.0
  0
SOLID
  5
17F
330
178
100
AcDbEntity
  8
치수문자_일반주서
 62
     0
100
AcDbTrace
 10
3.302
 20
34.53079245345525
 30
0.0
 11
3.302
 21
33.43012578678858
 31
0.0
 12
0.0
 22
33.98045912012191
 32
0.0
 13
0.0
 23
33.98045912012191
 33
0.0
  0
MTEXT
  5
180
330
178
100
AcDbEntity
  8
치수문자_일반주서
 62
     0
100
AcDbMText
 10
4.999999999999989
 20
38.35545912012191
 30
0.0
 40
3.5
 41
0.0
 71
     2
 72
     1
  1
\A1;10
  7
SLDTEXTSTYLE0
 73
     1
 44
1.0
  0
POINT
  5
181
330
178
100
AcDbEntity
  8
Defpoints
 62
     0
100
AcDbPoint
 10
9.999999999999968
 20
22.7304591201219
 30
0.0
  0
POINT
  5
182
330
178
100
AcDbEntity
  8
Defpoints
 62
     0
100
AcDbPoint
 10
0.0
 20
22.67890327075447
 30
0.0
  0
POINT
  5
183
330
178
100
AcDbEntity
  8
Defpoints
 62
     0
100
AcDbPoint
 10
0.0
 20
33.98045912012191
 30
0.0
  0
ENDBLK
  5
17A
330
178
100
AcDbEntity
  8
0
100
AcDbBlockEnd
  0
BLOCK
  5
18A
330
189
100
AcDbEntity
  8
0
100
AcDbBlockBegin
  2
*D10
 70
     1
 10
0.0
 20
0.0
 30
0.0
  3
*D10
  1

  0
LINE
  5
18C
330
189
100
AcDbEntity
  8
치수문자_일반주서
 62
     0
370
    -2
100
AcDbLine
 10
79.14261604467116
 20
18.18553088485066
 30
0.0
 11
79.14261604467116
 21
29.37303088485067
 31
0.0
  0
LINE
  5
18D
330
189
100
AcDbEntity
  8
치수문자_일반주서
 62
     0
370
    -2
100
AcDbLine
 10
69.14261604467119
 20
18.13397503548322
 30
0.0
 11
69.14261604467119
 21
29.37303088485067
 31
0.0
  0
LINE
  5
18E
330
189
100
AcDbEntity
  8
치수문자_일반주서
 62
     0
370
    -2
100
AcDbLine
 10
75.84061604467115
 20
29.37303088485067
 30
0.0
 11
72.44461604467119
 21
29.37303088485067
 31
0.0
  0
SOLID
  5
18F
330
189
100
AcDbEntity
  8
치수문자_일반주서
 62
     0
100
AcDbTrace
 10
75.84061604467115
 20
28.82269755151734
 30
0.0
 11
75.84061604467115
 21
29.92336421818401
 31
0.0
 12
79.14261604467116
 22
29.37303088485067
 32
0.0
 13
79.14261604467116
 23
29.37303088485067
 33
0.0
  0
SOLID
  5
190
330
189
100
AcDbEntity
  8
치수문자_일반주서
 62
     0
100
AcDbTrace
 10
72.44461604467119
 20
29.92336421818401
 30
0.0
 11
72.44461604467119
 21
28.82269755151734
 31
0.0
 12
69.14261604467119
 22
29.37303088485067
 32
0.0
 13
69.14261604467119
 23
29.37303088485067
 33
0.0
  0
MTEXT
  5
191
330
189
100
AcDbEntity
  8
치수문자_일반주서
 62
     0
100
AcDbMText
 10
74.14261604467117
 20
33.74803088485067
 30
0.0
 40
3.5
 41
0.0
 71
     2
 72
     1
  1
\A1;10
  7
SLDTEXTSTYLE0
 73
     1
 44
1.0
  0
POINT
  5
192
330
189
100
AcDbEntity
  8
Defpoints
 62
     0
100
AcDbPoint
 10
79.14261604467116
 20
18.12303088485066
 30
0.0
  0
POINT
  5
193
330
189
100
AcDbEntity
  8
Defpoints
 62
     0
100
AcDbPoint
 10
69.14261604467119
 20
18.07147503548322
 30
0.0
  0
POINT
  5
194
330
189
100
AcDbEntity
  8
Defpoints
 62
     0
100
AcDbPoint
 10
69.14261604467119
 20
29.37303088485067
 30
0.0
  0
ENDBLK
  5
18B
330
189
100
AcDbEntity
  8
0
100
AcDbBlockEnd
  0
BLOCK
  5
196
330
195
100
AcDbEntity
  8
0
100
AcDbBlockBegin
  2
*D11
 70
     1
 10
0.0
 20
0.0
 30
0.0
  3
*D11
  1

  0
LINE
  5
198
330
195
100
AcDbEntity
  8
치수문자_일반주서
 62
     0
370
    -2
100
AcDbLine
 10
80.91718266486967
 20
11.8840867173057
 30
0.0
 11
91.80659845543717
 21
-4.607428235270256
 31
0.0
  0
MTEXT
  5
199
330
195
100
AcDbEntity
  8
치수문자_일반주서
 62
     0
100
AcDbMText
 10
91.70696909759045
 20
0.3073569129895379
 30
0.0
 40
3.5
 41
0.0
 71
     5
 72
     1
  1
\A1;R0.1
  7
SLDTEXTSTYLE0
 11
0.5510189947673469
 21
-0.8344927006304982
 31
0.0
 73
     1
 44
1.0
  0
SOLID
  5
19A
330
195
100
AcDbEntity
  8
치수문자_일반주서
 62
     0
100
AcDbTrace
 10
81.37643181444999
 20
12.18733083742599
 30
0.0
 11
80.45793351528935
 21
11.5808425971854
 31
0.0
 12
79.09771794414789
 22
14.6395816147876
 32
0.0
 13
79.09771794414789
 23
14.6395816147876
 33
0.0
  0
LINE
  5
19B
330
195
100
AcDbEntity
  8
치수문자_일반주서
 62
     0
100
AcDbLine
 10
78.99761604467115
 20
14.72303088485066
 30
0.0
 11
79.08761604467115
 21
14.72303088485066
 31
0.0
  0
LINE
  5
19C
330
195
100
AcDbEntity
  8
치수문자_일반주서
 62
     0
100
AcDbLine
 10
79.04261604467115
 20
14.67803088485066
 30
0.0
 11
79.04261604467115
 21
14.76803088485066
 31
0.0
  0
POINT
  5
19D
330
195
100
AcDbEntity
  8
Defpoints
 62
     0
100
AcDbPoint
 10
79.09771794414789
 20
14.6395816147876
 30
0.0
  0
POINT
  5
19E
330
195
100
AcDbEntity
  8
Defpoints
 62
     0
100
AcDbPoint
 10
79.04261604467115
 20
14.72303088485066
 30
0.0
  0
ENDBLK
  5
197
330
195
100
AcDbEntity
  8
0
100
AcDbBlockEnd
  0
BLOCK
  5
1BE
330
1BD
100
AcDbEntity
  8
0
100
AcDbBlockBegin
  2
*D12
 70
     1
 10
0.0
 20
0.0
 30
0.0
  3
*D12
  1

  0
LINE
  5
1C0
330
1BD
100
AcDbEntity
  8
치수문자_일반주서
 62
     0
370
    -2
100
AcDbLine
 10
25.97505565065021
 20
-5.572893854498443
 30
0.0
 11
35.99449545843546
 21
-21.63040579474162
 31
0.0
  0
MTEXT
  5
1C1
330
1BD
100
AcDbEntity
  8
치수문자_일반주서
 62
     0
100
AcDbMText
 10
35.90551798137225
 20
-16.52909880451103
 30
0.0
 40
3.5
 41
0.0
 71
     5
 72
     1
  1
\A1;R1.5
  7
SLDTEXTSTYLE0
 11
0.529371709445641
 21
-0.8483900006710356
 31
0.0
 73
     1
 44
1.0
  0
SOLID
  5
1C2
330
1BD
100
AcDbEntity
  8
치수문자_일반주서
 62
     0
100
AcDbTrace
 10
26.44195294768617
 20
-5.281562957066859
 30
0.0
 11
25.50815835361425
 21
-5.864224751930028
 31
0.0
 12
24.22707026606071
 22
-2.771510072282684
 32
0.0
 13
24.22707026606071
 23
-2.771510072282684
 33
0.0
  0
LINE
  5
1C3
330
1BD
100
AcDbEntity
  8
치수문자_일반주서
 62
     0
100
AcDbLine
 10
23.38801270189224
 20
-1.49892507127613
 30
0.0
 11
23.47801270189225
 21
-1.49892507127613
 31
0.0
  0
LINE
  5
1C4
330
1BD
100
AcDbEntity
  8
치수문자_일반주서
 62
     0
100
AcDbLine
 10
23.43301270189225
 20
-1.54392507127613
 30
0.0
 11
23.43301270189225
 21
-1.45392507127613
 31
0.0
  0
POINT
  5
1C5
330
1BD
100
AcDbEntity
  8
Defpoints
 62
     0
100
AcDbPoint
 10
24.22707026606071
 20
-2.771510072282684
 30
0.0
  0
POINT
  5
1C6
330
1BD
100
AcDbEntity
  8
Defpoints
 62
     0
100
AcDbPoint
 10
23.43301270189225
 20
-1.49892507127613
 30
0.0
  0
ENDBLK
  5
1BF
330
1BD
100
AcDbEntity
  8
0
100
AcDbBlockEnd
  0
ENDSEC
  0
SECTION
  2
ENTITIES
  0
LINE
  5
96
330
1F
100
AcDbEntity
  8
0
  6
Continuous
 62
     1
370
    15
100
AcDbLine
 10
10.88481180854684
 20
3.001074928723893
 30
0.0
 11
9.933012701892245
 21
3.001074928723893
 31
0.0
1001
PE_URL
1000

  0
LINE
  5
97
330
1F
100
AcDbEntity
  8
0
  6
Continuous
 62
     1
370
    15
100
AcDbLine
 10
17.21562626220288
 20
-2.998925071276108
 30
0.0
 11
19.04496622491893
 21
-2.998925071276108
 31
0.0
1001
PE_URL
1000

  0
LINE
  5
98
330
1F
100
AcDbEntity
  8
0
  6
Continuous
 62
     1
370
    15
100
AcDbLine
 10
19.04496622491894
 20
3.001074928723893
 30
0.0
 11
17.21562626220294
 21
3.001074928723893
 31
0.0
1001
PE_URL
1000

  0
ARC
  5
99
330
1F
100
AcDbEntity
  8
0
  6
Continuous
 62
     1
370
    15
100
AcDbCircle
 10
23.43301270189225
 20
-1.498925071276108
 30
0.0
 40
1.500000000000004
100
AcDbArc
 50
355.4036760483928
 51
0.0
1001
PE_URL
1000

  0
LINE
  5
9A
330
1F
100
AcDbEntity
  8
0
  6
Continuous
 62
     1
370
    15
100
AcDbLine
 10
9.933012701892245
 20
-2.998925071276108
 30
0.0
 11
10.88481180854679
 21
-2.998925071276108
 31
0.0
1001
PE_URL
1000

  0
ARC
  5
9B
330
1F
100
AcDbEntity
  8
0
  6
Continuous
 62
     1
370
    15
100
AcDbCircle
 10
23.43301270189225
 20
1.501074928723894
 30
0.0
 40
1.5
100
AcDbArc
 50
0.0
 51
4.583924537916862
1001
PE_URL
1000

  0
LINE
  5
9C
330
1F
100
AcDbEntity
  8
외형선
  6
Continuous
370
    15
100
AcDbLine
 10
9.054084291549707
 20
-2.998925071276107
 30
0.0
 11
9.933012701892245
 21
-2.998925071276107
 31
0.0
  0
LINE
  5
9D
330
1F
100
AcDbEntity
  8
외형선
  6
Continuous
370
    15
100
AcDbLine
 10
-64.46698729810775
 20
-2.998925071276107
 30
0.0
 11
8.932863361860221
 21
-2.998925071276107
 31
0.0
  0
LINE
  5
9E
330
1F
100
AcDbEntity
  8
외형선
  6
Continuous
370
    15
100
AcDbLine
 10
8.932863361860221
 20
3.001074928723892
 30
0.0
 11
-64.46698729810775
 21
3.001074928723892
 31
0.0
  0
LINE
  5
9F
330
1F
100
AcDbEntity
  8
외형선
  6
Continuous
370
    15
100
AcDbLine
 10
9.933012701892245
 20
3.001074928723892
 30
0.0
 11
9.054084291549792
 21
3.001074928723892
 31
0.0
  0
LINE
  5
A0
330
1F
100
AcDbEntity
  8
외형선
  6
Continuous
370
    15
100
AcDbLine
 10
-64.46698729810775
 20
3.001074928723893
 30
0.0
 11
-65.06698729810776
 21
2.401074928723895
 31
0.0
  0
LINE
  5
A1
330
1F
100
AcDbEntity
  8
외형선
  6
Continuous
370
    15
100
AcDbLine
 10
-65.06698729810776
 20
-2.398925071276109
 30
0.0
 11
-64.46698729810775
 21
-2.998925071276107
 31
0.0
  0
SPLINE
  5
A2
330
1F
100
AcDbEntity
  8
0
  6
Continuous
 62
     1
370
    15
100
AcDbSpline
210
0.0
220
0.0
230
1.0
 70
     8
 71
     3
 72
    17
 73
    13
 74
     0
 42
0.000000001
 43
0.00000001
 40
0.0
 40
0.0
 40
0.0
 40
0.0
 40
0.1026326883927396
 40
0.205244765553374
 40
0.307839991205791
 40
0.4104221549362064
 40
0.5129950695386652
 40
0.6155625642728321
 40
0.7122527697992316
 40
0.8089577531011747
 40
0.9056968747727638
 40
1.0
 40
1.0
 40
1.0
 40
1.0
 10
9.93301270189226
 20
0.5470387849009934
 30
0.0
 10
10.35318370803923
 20
0.3054821967290003
 30
0.0
 10
11.19344133939889
 20
-0.1775824689603074
 30
0.0
 10
12.45365046888899
 20
-0.9003332644728796
 30
0.0
 10
13.71361434878619
 20
-1.567997320392692
 30
0.0
 10
14.97338972885329
 20
-2.14442901171512
 30
0.0
 10
16.23301037043973
 20
-2.595221659861167
 30
0.0
 10
17.46856875366171
 20
-2.888246672072934
 30
0.0
 10
18.67985821670018
 20
-3.018117923346584
 30
0.0
 10
19.86739373395907
 20
-2.985710909858147
 30
0.0
 10
21.04521295847429
 20
-2.809179478973956
 30
0.0
 10
21.82731526530368
 20
-2.573274599978103
 30
0.0
 10
22.21338009116657
 20
-2.456826182380485
 30
0.0
1001
PE_URL
1000

  0
SPLINE
  5
A3
330
1F
100
AcDbEntity
  8
외형선
  6
Continuous
370
    15
100
AcDbSpline
210
0.0
220
0.0
230
1.0
 70
    24
 71
     3
 72
    20
 73
    16
 74
     0
 42
0.000000001
 43
0.00000001
 40
0.0
 40
0.0
 40
0.0
 40
0.0
 40
0.0763654934539256
 40
0.1547226070369243
 40
0.2350487215918025
 40
0.3177042989104498
 40
0.3980304134653297
 40
0.4806859907839783
 40
0.5610121053388587
 40
0.6436676826575086
 40
0.7239937972123874
 40
0.8066493745310355
 40
0.8869754890859136
 40
0.9696310664045605
 40
1.0
 40
1.0
 40
1.0
 40
1.0
 10
9.93301270189226
 20
2.958326253762244
 30
0.0
 10
9.93301270189226
 20
2.871957231119826
 30
0.0
 10
9.933012701892245
 20
2.696966672608887
 30
0.0
 10
9.933012701892189
 20
2.410916085783406
 30
0.0
 10
9.933012701892316
 20
2.111234007900008
 30
0.0
 10
9.933012701892203
 20
1.809287185657166
 30
0.0
 10
9.933012701892217
 20
1.514055410887152
 30
0.0
 10
9.933012701892288
 20
1.239061806641039
 30
0.0
 10
9.933012701892288
 20
0.9871998738002462
 30
0.0
 10
9.933012701892245
 20
0.7700421923539525
 30
0.0
 10
9.933012701892245
 20
0.5901261086285086
 30
0.0
 10
9.933012701892231
 20
0.4546773231020995
 30
0.0
 10
9.933012701892132
 20
0.3692217069171164
 30
0.0
 10
9.933012701892203
 20
0.3319605589693241
 30
0.0
 10
9.933012701892217
 20
0.3411398744954641
 30
0.0
 10
9.933012701892217
 20
0.3436062954638932
 30
0.0
  0
SPLINE
  5
A4
330
1F
100
AcDbEntity
  8
0
  6
Continuous
 62
     1
370
    15
100
AcDbSpline
210
0.0
220
0.0
230
1.0
 70
     8
 71
     3
 72
    38
 73
    34
 74
     0
 42
0.000000001
 43
0.00000001
 40
0.0
 40
0.0
 40
0.0
 40
0.0
 40
0.0625
 40
0.0625
 40
0.125
 40
0.125
 40
0.1874999999999999
 40
0.1874999999999999
 40
0.2499999999999999
 40
0.2499999999999999
 40
0.3124999999999999
 40
0.3124999999999999
 40
0.3749999999999999
 40
0.3749999999999999
 40
0.4374999999999999
 40
0.4374999999999999
 40
0.5
 40
0.5
 40
0.5625
 40
0.5625
 40
0.625
 40
0.625
 40
0.6875
 40
0.6875
 40
0.7499999999999999
 40
0.7499999999999999
 40
0.8125
 40
0.8125
 40
0.875
 40
0.875
 40
0.9375
 40
0.9375
 40
1.0
 40
1.0
 40
1.0
 40
1.0
 10
23.43301270189224
 20
-2.998925071276127
 30
0.0
 10
23.15284763050196
 20
-2.923073614620552
 30
0.0
 10
22.67675592816265
 20
-2.783925728050701
 30
0.0
 10
22.30567742763679
 20
-2.590328668475256
 30
0.0
 10
22.02764196007708
 20
-2.455075410252333
 30
0.0
 10
21.46346000356795
 20
-2.190141588924207
 30
0.0
 10
21.17996879665929
 20
-2.075173549683011
 30
0.0
 10
20.62130582654405
 20
-1.829249882888098
 30
0.0
 10
20.33916379029256
 20
-1.69729590024919
 30
0.0
 10
19.77447737707806
 20
-1.419511625520266
 30
0.0
 10
19.4958830829947
 20
-1.274384737207357
 30
0.0
 10
18.93352896714028
 20
-0.9733563541409815
 30
0.0
 10
18.64969088584477
 20
-0.8173973098804466
 30
0.0
 10
18.08785735086273
 20
-0.500731429168243
 30
0.0
 10
17.80887570257864
 20
-0.3398669284351354
 30
0.0
 10
17.24407171853522
 20
-0.0152506210636403
 30
0.0
 10
16.96276349357851
 20
0.1476313459878758
 30
0.0
 10
16.40335057679612
 20
0.4700773901885923
 30
0.0
 10
16.11973997380008
 20
0.6306896526378161
 30
0.0
 10
15.55584578355992
 20
0.94434174174029
 30
0.0
 10
15.27787198638905
 20
1.096983975941772
 30
0.0
 10
14.71408007251878
 20
1.39273505410496
 30
0.0
 10
14.43043652321968
 20
1.535400300561111
 30
0.0
 10
13.87079379678543
 20
1.804796235048693
 30
0.0
 10
13.58973267033235
 20
1.932368753549738
 30
0.0
 10
13.02490140897645
 20
2.169797508326646
 30
0.0
 10
12.745776243409
 20
2.279031196895149
 30
0.0
 10
12.18411930370488
 20
2.477062866540638
 30
0.0
 10
11.90028646786089
 20
2.565925095306455
 30
0.0
 10
11.3377760609899
 20
2.719813664618383
 30
0.0
 10
11.05928594389694
 20
2.784932786726769
 30
0.0
 10
10.49464743420734
 20
2.890731576795843
 30
0.0
 10
10.21221931437949
 20
2.931078579435113
 30
0.0
 10
9.933012701892956
 20
2.958326253757341
 30
0.0
1001
PE_URL
1000

  0
LINE
  5
A6
330
1F
100
AcDbEntity
  8
0
  6
Continuous
 62
     1
370
    15
100
AcDbLine
 10
24.93301270189225
 20
-1.258735167425069
 30
0.0
 11
24.93301270189225
 21
-0.074114975127126
 31
0.0
1001
PE_URL
1000

  0
SPLINE
  5
A7
330
1F
100
AcDbEntity
  8
0
  6
Continuous
 62
     1
370
    15
100
AcDbSpline
210
0.0
220
0.0
230
1.0
 70
     8
 71
     3
 72
    18
 73
    14
 74
     0
 42
0.000000001
 43
0.00000001
 40
0.0
 40
0.0
 40
0.0
 40
0.0
 40
0.25
 40
0.25
 40
0.5
 40
0.5
 40
0.625
 40
0.625
 40
0.75
 40
0.75
 40
0.875
 40
0.875
 40
1.0
 40
1.0
 40
1.0
 40
1.0
 10
23.43301270189225
 20
-2.241242831512309
 30
0.0
 10
23.62243001365893
 20
-2.314079666333588
 30
0.0
 10
23.79979948792648
 20
-2.360248045157709
 30
0.0
 10
24.14691125146935
 20
-2.381970645673564
 30
0.0
 10
24.30737411045672
 20
-2.356843337514687
 30
0.0
 10
24.52726432609916
 20
-2.240699409751264
 30
0.0
 10
24.59483854285347
 20
-2.189869487159593
 30
0.0
 10
24.71831200263301
 20
-2.057085186588488
 30
0.0
 10
24.77127868798799
 20
-1.977949151790992
 30
0.0
 10
24.85694560318611
 20
-1.793258723253601
 30
0.0
 10
24.88755905914318
 20
-1.691618655850769
 30
0.0
 10
24.92587869866324
 20
-1.477090172052557
 30
0.0
 10
24.93301270189225
 20
-1.367640078517831
 30
0.0
 10
24.93301270189222
 20
-1.258735167425067
 30
0.0
1001
PE_URL
1000

  0
SPLINE
  5
A8
330
1F
100
AcDbEntity
  8
0
  6
Continuous
 62
     1
370
    15
100
AcDbSpline
210
0.0
220
0.0
230
1.0
 70
     8
 71
     3
 72
    18
 73
    14
 74
     0
 42
0.000000001
 43
0.00000001
 40
0.0
 40
0.0
 40
0.0
 40
0.0
 40
0.024598821651777
 40
0.1250210664299727
 40
0.2254268193260227
 40
0.3258197890530291
 40
0.4262037070366402
 40
0.5265823208167368
 40
0.6212090719332338
 40
0.7158502854544886
 40
0.8105249088024213
 40
0.9052517154811144
 40
1.0
 40
1.0
 40
1.0
 40
1.0
 10
10.88481180854684
 20
2.984796471409842
 30
0.0
 10
10.98771314070968
 20
2.989705019336714
 30
0.0
 10
11.51069893515859
 20
3.014652226366684
 30
0.0
 10
12.45364846134152
 20
2.884657327237801
 30
0.0
 10
13.71361488738698
 20
2.594940741529923
 30
0.0
 10
14.9733895816025
 20
2.139359876051505
 30
0.0
 10
16.23301042091913
 20
1.562496253522571
 30
0.0
 10
17.46856870099181
 20
0.9060467171133461
 30
0.0
 10
18.67985836939916
 20
0.2139325782786008
 30
0.0
 10
19.86739317157897
 20
-0.4762056198805191
 30
0.0
 10
21.05540443782726
 20
-1.139361016782675
 30
0.0
 10
22.24403575036521
 20
-1.751513106236589
 30
0.0
 10
23.03665710233716
 20
-2.077987253990536
 30
0.0
 10
23.43301270189227
 20
-2.24124283151231
 30
0.0
1001
PE_URL
1000

  0
SPLINE
  5
A9
330
1F
100
AcDbEntity
  8
0
  6
Continuous
 62
     1
370
    15
100
AcDbSpline
210
0.0
220
0.0
230
1.0
 70
     8
 71
     3
 72
    15
 73
    11
 74
     0
 42
0.000000001
 43
0.00000001
 40
0.0
 40
0.0
 40
0.0
 40
0.0
 40
0.1343841804275454
 40
0.2687879203403219
 40
0.4031663152113198
 40
0.5375188878202517
 40
0.671850571148957
 40
0.8061663352222905
 40
0.9327772215562283
 40
0.9999999999999999
 40
0.9999999999999999
 40
0.9999999999999999
 40
0.9999999999999999
 10
23.43301270189226
 20
1.098696446029087
 30
0.0
 10
23.01285354822213
 20
1.318153848965888
 30
0.0
 10
22.17247408713044
 20
1.757100596648546
 30
0.0
 10
20.91187860943665
 20
2.295379254389251
 30
0.0
 10
19.65146235787549
 20
2.704198412848857
 30
0.0
 10
18.39130905625345
 20
2.953069246142297
 30
0.0
 10
17.13141049932263
 20
3.031395272995828
 30
0.0
 10
15.89567694000477
 20
2.927439254773706
 30
0.0
 10
14.8699693778771
 20
2.726265512471146
 30
0.0
 10
14.26407568505282
 20
2.518332029073006
 30
0.0
 10
14.0539478028817
 20
2.446219341622429
 30
0.0
1001
PE_URL
1000

  0
SPLINE
  5
AA
330
1F
100
AcDbEntity
  8
0
  6
Continuous
 62
     1
370
    15
100
AcDbSpline
210
0.0
220
0.0
230
1.0
 70
     8
 71
     3
 72
    20
 73
    16
 74
     0
 42
0.000000001
 43
0.00000001
 40
0.0
 40
0.0
 40
0.0
 40
0.0
 40
0.1249999999999979
 40
0.1249999999999979
 40
0.2499999999999958
 40
0.2499999999999958
 40
0.3749999999999942
 40
0.3749999999999942
 40
0.4999999999999926
 40
0.4999999999999926
 40
0.7499999999999892
 40
0.7499999999999892
 40
0.8749999999999947
 40
0.8749999999999947
 40
1.0
 40
1.0
 40
1.0
 40
1.0
 10
24.93301270189225
 20
-0.0741149751271259
 30
0.0
 10
24.93301270189226
 20
-0.0082534519830809
 30
0.0
 10
24.9260834357643
 20
0.0500679535443487
 30
0.0
 10
24.89254729020254
 20
0.1574267968013693
 30
0.0
 10
24.86558717132552
 20
0.2069641453487451
 30
0.0
 10
24.79151574950628
 20
0.2994528066951964
 30
0.0
 10
24.74481804028407
 20
0.3424639924408402
 30
0.0
 10
24.63241330928495
 20
0.4280899594664497
 30
0.0
 10
24.56625341198221
 20
0.4708614033212026
 30
0.0
 10
24.34955301328313
 20
0.6003311093744743
 30
0.0
 10
24.17459028979187
 20
0.6932188827871834
 30
0.0
 10
23.90159850518173
 20
0.841890032369329
 30
0.0
 10
23.80712885975872
 20
0.8936712181853379
 30
0.0
 10
23.6195192087394
 20
0.9968930882970305
 30
0.0
 10
23.52631675585235
 20
1.048434295244987
 30
0.0
 10
23.43301270189226
 20
1.098696446029075
 30
0.0
1001
PE_URL
1000

  0
LINE
  5
AB
330
1F
100
AcDbEntity
  8
외형선
  6
Continuous
370
    15
100
AcDbLine
 10
9.93301270189226
 20
2.958326253762244
 30
0.0
 11
9.933012701892245
 21
3.001074928723893
 31
0.0
  0
SPLINE
  5
AC
330
1F
100
AcDbEntity
  8
0
  6
Continuous
 62
     1
370
    15
100
AcDbSpline
210
0.0
220
0.0
230
1.0
 70
     8
 71
     3
 72
    14
 73
    10
 74
     0
 42
0.000000001
 43
0.00000001
 40
0.0
 40
0.0
 40
0.0
 40
0.0
 40
0.0115707375785357
 40
0.1845373597739706
 40
0.3475819397861522
 40
0.5106177971571554
 40
0.6736777082751677
 40
0.8367943240039493
 40
1.0
 40
1.0
 40
1.0
 40
1.0
 10
17.21562626220288
 20
-2.993442621817959
 30
0.0
 10
17.18753561953641
 20
-2.995248931009837
 30
0.0
 10
16.73952848111163
 20
-3.024057079750774
 30
0.0
 10
15.89567768684437
 20
-2.918216853245032
 30
0.0
 10
14.68435579869167
 20
-2.675817953687769
 30
0.0
 10
13.49704568600024
 20
-2.281495171903464
 30
0.0
 10
12.30953511591175
 20
-1.77259595554313
 30
0.0
 10
11.1215387571259
 20
-1.171921919628099
 30
0.0
 10
10.32926013017843
 20
-0.7263932472928365
 30
0.0
 10
9.933012701892956
 20
-0.5035681140181113
 30
0.0
1001
PE_URL
1000

  0
LINE
  5
AD
330
1F
100
AcDbEntity
  8
외형선
  6
Continuous
370
    15
100
AcDbLine
 10
9.93301270189226
 20
-0.5035681140201771
 30
0.0
 11
9.93301270189226
 21
0.5470387849009913
 31
0.0
  0
SPLINE
  5
AE
330
1F
100
AcDbEntity
  8
0
  6
Continuous
 62
     1
370
    15
100
AcDbSpline
210
0.0
220
0.0
230
1.0
 70
     8
 71
     3
 72
    11
 73
     7
 74
     0
 42
0.000000001
 43
0.00000001
 40
0.0
 40
0.0
 40
0.0
 40
0.0
 40
0.3058646155239726
 40
0.6116678057196013
 40
0.9174207752675699
 40
0.9999999999999999
 40
0.9999999999999999
 40
0.9999999999999999
 40
0.9999999999999999
 10
9.933012701892231
 20
-2.948827352326823
 30
0.0
 10
10.35318384230926
 20
-2.976757359620933
 30
0.0
 10
11.19344174218212
 20
-3.032611765159328
 30
0.0
 10
12.45364885824371
 20
-2.882441913408645
 30
0.0
 10
13.4071201686038
 20
-2.681320123190194
 30
0.0
 10
13.94051983656447
 20
-2.485673856135403
 30
0.0
 10
14.05394780288169
 20
-2.444069484174645
 30
0.0
1001
PE_URL
1000

  0
SPLINE
  5
AF
330
1F
100
AcDbEntity
  8
외형선
  6
Continuous
370
    15
100
AcDbSpline
210
0.0
220
0.0
230
1.0
 70
    24
 71
     3
 72
    20
 73
    16
 74
     0
 42
0.000000001
 43
0.00000001
 40
0.0
 40
0.0
 40
0.0
 40
0.0
 40
0.0095241931660457
 40
0.0923664769948016
 40
0.1728740361539728
 40
0.2557163199827299
 40
0.3362238791419024
 40
0.4190661629706601
 40
0.4995737221298306
 40
0.5824160059585869
 40
0.6629235651177566
 40
0.7457658489465118
 40
0.8262734081055526
 40
0.909115691934442
 40
1.0
 40
1.0
 40
1.0
 40
1.0
 10
9.93301270189226
 20
-0.3079879911618231
 30
0.0
 10
9.93301270189226
 20
-0.3070677354720754
 30
0.0
 10
9.933012701892373
 20
-0.2981430135019826
 30
0.0
 10
9.933012701892203
 20
-0.3298835185019632
 30
0.0
 10
9.933012701892189
 20
-0.4066849139751973
 30
0.0
 10
9.933012701892316
 20
-0.5357805253422139
 30
0.0
 10
9.933012701892174
 20
-0.7094443207545061
 30
0.0
 10
9.933012701892274
 20
-0.9213460149230978
 30
0.0
 10
9.933012701892231
 20
-1.16883942265335
 30
0.0
 10
9.933012701892231
 20
-1.440599127895053
 30
0.0
 10
9.933012701892117
 20
-1.733748051106166
 30
0.0
 10
9.933012701892245
 20
-2.034882133453698
 30
0.0
 10
9.933012701892217
 20
-2.340293806603911
 30
0.0
 10
9.933012701892288
 20
-2.650754458230479
 30
0.0
 10
9.933012701892245
 20
-2.846450055181697
 30
0.0
 10
9.933012701892231
 20
-2.948827352326823
 30
0.0
  0
SPLINE
  5
B0
330
1F
100
AcDbEntity
  8
0
  6
Continuous
 62
     1
370
    15
100
AcDbSpline
210
0.0
220
0.0
230
1.0
 70
     8
 71
     3
 72
    15
 73
    11
 74
     0
 42
0.000000001
 43
0.00000001
 40
0.0
 40
0.0
 40
0.0
 40
0.0
 40
0.1381258226139307
 40
0.2815027872792201
 40
0.402877002939012
 40
0.5285907518352483
 40
0.6843729855727928
 40
0.8152895979059136
 40
0.946599736981812
 40
1.0
 40
1.0
 40
1.0
 40
1.0
 10
23.43301270189225
 20
1.994065410921242
 30
0.0
 10
23.52670777736975
 20
1.948200485571637
 30
0.0
 10
23.71765994259214
 20
1.854726983803947
 30
0.0
 10
23.977256698153
 20
1.669908666973978
 30
0.0
 10
24.21544372313026
 20
1.472702380912233
 30
0.0
 10
24.4441287087915
 20
1.260022902373298
 30
0.0
 10
24.6535981253232
 20
1.0491531762367
 30
0.0
 10
24.81573205311022
 20
0.8860879064263625
 30
0.0
 10
24.8989542056166
 20
0.8084949733446977
 30
0.0
 10
24.91092641080704
 20
0.8104206862581547
 30
0.0
 10
24.91438760681347
 20
0.8109774149258977
 30
0.0
1001
PE_URL
1000

  0
SPLINE
  5
B1
330
1F
100
AcDbEntity
  8
0
  6
Continuous
 62
     1
370
    15
100
AcDbSpline
210
0.0
220
0.0
230
1.0
 70
     8
 71
     3
 72
     8
 73
     4
 74
     0
 42
0.000000001
 43
0.00000001
 40
0.0
 40
0.0
 40
0.0
 40
0.0
 40
1.0
 40
1.0
 40
1.0
 40
1.0
 10
24.93215530643867
 20
0.8079583104955059
 30
0.0
 10
24.93274259002745
 20
0.8099236486110143
 30
0.0
 10
24.93301270189222
 20
0.8123627345904921
 30
0.0
 10
24.93301270189222
 20
0.8152484493207779
 30
0.0
1001
PE_URL
1000

  0
LINE
  5
B2
330
1F
100
AcDbEntity
  8
0
  6
Continuous
 62
     1
370
    15
100
AcDbLine
 10
24.93301270189225
 20
-0.074114975127126
 30
0.0
 11
24.93301270189225
 21
0.815248449320778
 31
0.0
1001
PE_URL
1000

  0
SPLINE
  5
B3
330
1F
100
AcDbEntity
  8
0
  6
Continuous
 62
     1
370
    15
100
AcDbSpline
210
0.0
220
0.0
230
1.0
 70
     8
 71
     3
 72
    11
 73
     7
 74
     0
 42
0.000000001
 43
0.00000001
 40
0.0
 40
0.0
 40
0.0
 40
0.0
 40
0.1874189648484722
 40
0.4581593510061437
 40
0.7290489654852166
 40
1.0
 40
1.0
 40
1.0
 40
1.0
 10
19.04496622491893
 20
2.98441042541667
 30
0.0
 10
19.31906248986358
 20
2.983834532659287
 30
0.0
 10
19.989110832953
 20
2.98242672074343
 30
0.0
 10
21.05540635878071
 20
2.798777854245534
 30
0.0
 10
22.24403526988952
 20
2.477498025874707
 30
0.0
 10
23.03665694216645
 20
2.155221793051513
 30
0.0
 10
23.43301270189225
 20
1.994065410921234
 30
0.0
1001
PE_URL
1000

  0
LINE
  5
B4
330
1F
100
AcDbEntity
  8
0
  6
Continuous
 62
     1
370
    15
100
AcDbLine
 10
24.93301270189225
 20
0.815248449320778
 30
0.0
 11
24.93301270189225
 21
1.499189236231459
 31
0.0
1001
PE_URL
1000

  0
LINE
  5
B5
330
1F
100
AcDbEntity
  8
0
  6
Continuous
 62
     1
370
    15
100
AcDbLine
 10
23.43301270189224
 20
3.001074928723908
 30
0.0
 11
22.21338009116658
 21
2.458976039828271
 31
0.0
1001
PE_URL
1000

  0
LINE
  5
B7
330
1F
100
AcDbEntity
  8
0
  6
Continuous
 62
     1
370
    15
100
AcDbLine
 10
24.93301270189225
 20
-1.498925071276108
 30
0.0
 11
24.93301270189225
 21
-1.258735167425069
 31
0.0
1001
PE_URL
1000

  0
LINE
  5
B8
330
1F
100
AcDbEntity
  8
0
  6
Continuous
 62
     1
370
    15
100
AcDbLine
 10
24.93301270189225
 20
1.499189236231459
 30
0.0
 11
24.93301270189225
 21
1.501074928723894
 31
0.0
1001
PE_URL
1000

  0
SPLINE
  5
B9
330
1F
100
AcDbEntity
  8
외형선
  6
Continuous
370
    15
100
AcDbSpline
210
0.0
220
0.0
230
1.0
 70
    24
 71
     3
 72
    14
 73
    10
 74
     0
 42
0.000000001
 43
0.00000001
 40
0.0
 40
0.0
 40
0.0
 40
0.0
 40
0.1525127658333102
 40
0.3157146790499925
 40
0.4789165922668474
 40
0.6421185054836167
 40
0.8053204187003845
 40
0.9685223319171405
 40
1.0
 40
1.0
 40
1.0
 40
1.0
 10
9.93301270189226
 20
-2.948827352326825
 30
0.0
 10
9.933012701892288
 20
-2.773711180291515
 30
0.0
 10
9.933012701892316
 20
-2.411205486105773
 30
0.0
 10
9.933012701892288
 20
-1.803131801729919
 30
0.0
 10
9.933012701892245
 20
-1.22356609018118
 30
0.0
 10
9.933012701892217
 20
-0.7368678899811419
 30
0.0
 10
9.933012701892359
 20
-0.4226398660557299
 30
0.0
 10
9.933012701892274
 20
-0.2832449028094972
 30
0.0
 10
9.933012701892231
 20
-0.3159831208177535
 30
0.0
 10
9.933012701892231
 20
-0.3212765509412866
 30
0.0
  0
SPLINE
  5
BA
330
1F
100
AcDbEntity
  8
외형선
  6
Continuous
370
    15
100
AcDbSpline
210
0.0
220
0.0
230
1.0
 70
     8
 71
     3
 72
     8
 73
     4
 74
     0
 42
0.000000001
 43
0.00000001
 40
0.0
 40
0.0
 40
0.0
 40
0.0
 40
1.0
 40
1.0
 40
1.0
 40
1.0
 10
9.93301270189226
 20
-2.948827352326824
 30
0.0
 10
9.60249963703319
 20
-2.913931647558897
 30
0.0
 10
9.266039803295754
 20
-2.86058452249191
 30
0.0
 10
8.93286336186025
 20
-2.790109900008488
 30
0.0
  0
SPLINE
  5
BB
330
1F
100
AcDbEntity
  8
외형선
  6
Continuous
370
    15
100
AcDbSpline
210
0.0
220
0.0
230
1.0
 70
     8
 71
     3
 72
     8
 73
     4
 74
     0
 42
0.000000001
 43
0.00000001
 40
0.0
 40
0.0
 40
0.0
 40
0.0
 40
1.0
 40
1.0
 40
1.0
 40
1.0
 10
9.933012701892217
 20
-0.503568114017692
 30
0.0
 10
9.602499637033162
 20
-0.3145530940756968
 30
0.0
 10
9.266039803295726
 20
-0.121294007568128
 30
0.0
 10
8.932863361860264
 20
0.0709140376380176
 30
0.0
  0
SPLINE
  5
BC
330
1F
100
AcDbEntity
  8
외형선
  6
Continuous
370
    15
100
AcDbSpline
210
0.0
220
0.0
230
1.0
 70
     8
 71
     3
 72
     8
 73
     4
 74
     0
 42
0.000000001
 43
0.00000001
 40
0.0
 40
0.0
 40
0.0
 40
0.0
 40
1.0
 40
1.0
 40
1.0
 40
1.0
 10
9.933012701892217
 20
2.958326253757412
 30
0.0
 10
9.602499637033162
 20
2.990580906576381
 30
0.0
 10
9.266039803295726
 20
3.004737660871577
 30
0.0
 10
8.932863361860264
 20
3.000261901699416
 30
0.0
  0
LINE
  5
BD
330
1F
100
AcDbEntity
  8
외형선
  6
Continuous
370
    15
100
AcDbLine
 10
8.932863361860235
 20
1.100728830379105
 30
0.0
 11
8.932863361860221
 21
3.001074928723892
 31
0.0
  0
SPLINE
  5
BE
330
1F
100
AcDbEntity
  8
외형선
  6
Continuous
370
    15
100
AcDbSpline
210
0.0
220
0.0
230
1.0
 70
     8
 71
     3
 72
     8
 73
     4
 74
     0
 42
0.000000001
 43
0.00000001
 40
0.0
 40
0.0
 40
0.0
 40
0.0
 40
1.0
 40
1.0
 40
1.0
 40
1.0
 10
9.93301270189226
 20
0.5470387849009934
 30
0.0
 10
9.60249963703319
 20
0.7355840849773871
 30
0.0
 10
9.266039803295754
 20
0.9218730338095827
 30
0.0
 10
8.93286336186025
 20
1.100750904570493
 30
0.0
  0
LINE
  5
BF
330
1F
100
AcDbEntity
  8
외형선
  6
Continuous
370
    15
100
AcDbLine
 10
8.932863361860235
 20
-2.790118596736935
 30
0.0
 11
8.932863361860221
 21
0.0709313785003412
 31
0.0
  0
LINE
  5
C0
330
1F
100
AcDbEntity
  8
외형선
  6
Continuous
370
    15
100
AcDbLine
 10
9.05408429154972
 20
-2.996782127471474
 30
0.0
 11
8.932863361860264
 21
-2.99811204425163
 31
0.0
  0
LINE
  5
C1
330
1F
100
AcDbEntity
  8
외형선
  6
Continuous
370
    15
100
AcDbLine
 10
8.932863361860221
 20
-2.998925071276107
 30
0.0
 11
8.932863361860221
 21
-2.998111640401914
 31
0.0
  0
LINE
  5
C2
330
1F
100
AcDbEntity
  8
외형선
  6
Continuous
370
    15
100
AcDbLine
 10
-64.46698729810775
 20
0.0010749287238931
 30
0.0
 11
-64.46698729810775
 21
3.001074928723892
 31
0.0
  0
LINE
  5
C3
330
1F
100
AcDbEntity
  8
외형선
  6
Continuous
370
    15
100
AcDbLine
 10
-64.46698729810775
 20
-2.998925071276107
 30
0.0
 11
-64.46698729810775
 21
0.0010749287238931
 31
0.0
  0
LINE
  5
C4
330
1F
100
AcDbEntity
  8
외형선
  6
Continuous
370
    15
100
AcDbLine
 10
-65.06698729810776
 20
0.0010749287238931
 30
0.0
 11
-65.06698729810776
 21
2.401074928723895
 31
0.0
  0
LINE
  5
C5
330
1F
100
AcDbEntity
  8
외형선
  6
Continuous
370
    15
100
AcDbLine
 10
-65.06698729810776
 20
-2.398925071276109
 30
0.0
 11
-65.06698729810776
 21
0.0010749287238931
 31
0.0
  0
SPLINE
  5
C6
330
1F
100
AcDbEntity
  8
외형선
  6
Continuous
370
    15
100
AcDbSpline
210
0.0
220
0.0
230
1.0
 70
    24
 71
     3
 72
    14
 73
    10
 74
     0
 42
0.000000001
 43
0.00000001
 40
0.0
 40
0.0
 40
0.0
 40
0.0
 40
0.0890937215294152
 40
0.2525247663407769
 40
0.4159558111520529
 40
0.5793868559633274
 40
0.7428179007745901
 40
0.9062489455858795
 40
0.9999999999999999
 40
0.9999999999999999
 40
0.9999999999999999
 40
0.9999999999999999
 10
9.933012701892288
 20
0.3628511951169357
 30
0.0
 10
9.933012701892302
 20
0.3567723712879997
 30
0.0
 10
9.933012701892274
 20
0.3395427220974894
 30
0.0
 10
9.933012701892274
 20
0.5353296640057501
 30
0.0
 10
9.933012701892203
 20
0.9103198624574559
 30
0.0
 10
9.93301270189233
 20
1.433765683438631
 30
0.0
 10
9.933012701892274
 20
2.032354696972877
 30
0.0
 10
9.933012701892096
 20
2.561596684871509
 30
0.0
 10
9.933012701892231
 20
2.852340783263775
 30
0.0
 10
9.93301270189226
 20
2.958326253757456
 30
0.0
  0
LINE
  5
C7
330
1F
100
AcDbEntity
  8
중심선
100
AcDbLine
 10
-68.06698729810776
 20
0.0010749287238931
 30
0.0
 11
27.93301270189225
 21
0.0010749287238892
 31
0.0
  0
LINE
  5
C8
330
1F
100
AcDbEntity
  8
참조1
100
AcDbLine
 10
-40.06750066566399
 20
-2.498925071276081
 30
0.0
 11
-40.06750066566398
 21
-39.9989250712761
 31
0.0
  0
LINE
  5
C9
330
1F
100
AcDbEntity
  8
참조1
100
AcDbLine
 10
-40.06750066566398
 20
-39.9989250712761
 30
0.0
 11
-55.22584411241643
 21
-39.9989250712761
 31
0.0
  0
CIRCLE
  5
CA
330
1F
100
AcDbEntity
  8
해칭선
100
AcDbCircle
 10
0.0
 20
0.0
 30
0.0
 40
2.999999999999997
  0
INSERT
  5
CB
330
1F
100
AcDbEntity
  8
0
  6
Continuous
 62
     7
100
AcDbBlockReference
 66
     1
  2
블럭10
 10
-33.7590911020804
 20
-52.04609937292004
 30
0.0
  0
ATTRIB
  5
CC
330
CB
100
AcDbEntity
  8
FORMAT
 62
     2
100
AcDbText
 10
-49.87835214151595
 20
-49.97073246008785
 30
0.0
 40
4.233333333333333
  1
SEME0106015E [ 4 FLUTE ]
 41
0.75
  7
SLDTEXTSTYLE0
 11
-49.87835214151595
 21
-52.08739912675451
 31
0.0
100
AcDbAttribute
  2
AUTOATTR0
 70
     0
 74
     1
  0
SEQEND
  5
CD
330
CB
100
AcDbEntity
  8
0
  6
Continuous
 62
     7
  0
HATCH
  5
CE
330
1F
100
AcDbEntity
  8
중심선
100
AcDbHatch
 10
0.0
 20
0.0
 30
0.0
210
0.0
220
0.0
230
1.0
  2
SOLID
 70
     1
 71
     0
 91
        1
 92
        0
 93
        4
 72
     1
 10
-28.04418179769955
 20
-35.7989250712761
 11
-31.49045704153683
 21
-35.7989250712761
 72
     1
 10
-31.49045704153683
 20
-35.7989250712761
 11
-33.61868690074085
 21
-38.3352506518487
 72
     1
 10
-33.61868690074085
 20
-38.3352506518487
 11
-30.17237857179042
 21
-38.33521122254621
 72
     1
 10
-30.17237857179042
 20
-38.33521122254621
 11
-28.04418179769955
 21
-35.7989250712761
 97
        0
 75
     0
 76
     1
 98
        1
 10
-4.043175932995389
 20
0.0010749287238931
  0
HATCH
  5
CF
330
1F
100
AcDbEntity
  8
중심선
100
AcDbHatch
 10
0.0
 20
0.0
 30
0.0
210
0.0
220
0.0
230
1.0
  2
SOLID
 70
     1
 71
     0
 91
        1
 92
        0
 93
        4
 72
     1
 10
-23.0314178066636
 20
-35.7989250712761
 11
-26.47769305050088
 21
-35.7989250712761
 72
     1
 10
-26.47769305050088
 20
-35.7989250712761
 11
-31.00883105885827
 21
-41.19892507127612
 72
     1
 10
-31.00883105885827
 20
-41.19892507127612
 11
-27.56255581502099
 21
-41.19892507127612
 72
     1
 10
-27.56255581502099
 20
-41.19892507127612
 11
-23.0314178066636
 21
-35.7989250712761
 97
        0
 75
     0
 76
     1
 98
        1
 10
-4.043175932995389
 20
0.0010749287238931
  0
HATCH
  5
D0
330
1F
100
AcDbEntity
  8
중심선
100
AcDbHatch
 10
0.0
 20
0.0
 30
0.0
210
0.0
220
0.0
230
1.0
  2
SOLID
 70
     1
 71
     0
 91
        1
 92
        0
 93
        4
 72
     1
 10
-18.0186538156277
 20
-35.79892507127613
 11
-21.46492905946482
 21
-35.7989250712761
 72
     1
 10
-21.46492905946482
 20
-35.7989250712761
 11
-28.51336596135407
 21
-44.19892507127612
 72
     1
 10
-28.51336596135407
 20
-44.19892507127612
 11
-25.06709071751679
 21
-44.19892507127612
 72
     1
 10
-25.06709071751679
 20
-44.19892507127612
 11
-18.0186538156277
 21
-35.79892507127613
 97
        0
 75
     0
 76
     1
 98
        1
 10
-4.043175932995389
 20
0.0010749287238931
  0
HATCH
  5
D1
330
1F
100
AcDbEntity
  8
중심선
100
AcDbHatch
 10
0.0
 20
0.0
 30
0.0
210
0.0
220
0.0
230
1.0
  2
SOLID
 70
     1
 71
     0
 91
        1
 92
        0
 93
        6
 72
     3
 10
-13.2187633846155
 20
-39.99892507132738
 11
3.960054785062283
 21
1.540882976769353E-10
 40
0.3939339440162628
 50
17.0953918060844
 51
320.0019657685081
 73
     0
 72
     1
 10
-11.53576372891491
 20
-38.58681907591441
 11
-9.230461855213871
 21
-36.65249236586649
 72
     3
 10
-13.21876338466835
 20
-39.99892507127625
 11
6.600054785286831
 21
-1.278976924368180E-13
 40
0.6363583540795978
 50
39.99873849337411
 51
368.4976242363725
 73
     1
 72
     1
 10
-6.793430892767741
 20
-39.03892507120612
 11
-14.53869607783243
 21
-39.03892507120609
 72
     1
 10
-14.53869607783243
 20
-39.03892507120609
 11
-14.53872112227836
 21
-40.95892507120602
 72
     1
 10
-14.53872112227836
 20
-40.95892507120602
 11
-10.09734135280632
 21
-40.95892507120599
 97
        0
 75
     0
 76
     1
 98
        1
 10
-4.043175932995389
 20
0.0010749287238931
  0
DIMENSION
  5
D2
330
1F
100
AcDbEntity
  8
치수문자_일반주서
100
AcDbDimension
  2
_D
 10
34.93301270189224
 20
-2.998925071276073
 30
0.0
 11
34.93301270189218
 21
12.66757492872395
 31
0.0
 70
   160
  1
%%c<>
 71
     2
 42
6.0
 52
-270.0
  3
SLDDIMSTYLE0
100
AcDbAlignedDimension
 13
24.93301270189225
 23
3.001074928723889
 33
0.0
 14
24.93301270189225
 24
-2.998925071276111
 34
0.0
 50
90.0000000000002
100
AcDbRotatedDimension
  0
DIMENSION
  5
E0
330
1F
100
AcDbEntity
  8
치수문자_일반주서
100
AcDbDimension
  2
_D_1
 10
-75.06698729810775
 20
-2.998925071276149
 30
0.0
 11
-75.06698729810779
 21
12.66757492872386
 31
0.0
 70
   160
  1
%%c<>
 71
     2
 42
6.000000000000005
 52
-270.0
  3
SLDDIMSTYLE0
100
AcDbAlignedDimension
 13
-64.46698729810777
 23
3.001074928723896
 33
0.0
 14
-64.46698729810777
 24
-2.998925071276109
 34
0.0
 50
90.0000000000002
100
AcDbRotatedDimension
  0
DIMENSION
  5
ED
330
1F
100
AcDbEntity
  8
치수문자_일반주서
100
AcDbDimension
  2
_D_2
 10
9.93301270189226
 20
13.00107492872389
 30
0.0
 11
17.43301270189225
 21
13.00107492872389
 31
0.0
 70
   160
  1
<>
 71
     2
 42
14.99999999999999
  3
SLDDIMSTYLE0
100
AcDbAlignedDimension
 13
24.93301270189225
 23
3.001074928723889
 33
0.0
 14
9.93301270189226
 24
2.958326253762244
 34
0.0
100
AcDbRotatedDimension
  0
DIMENSION
  5
F9
330
1F
100
AcDbEntity
  8
치수문자_일반주서
100
AcDbDimension
  2
_D_3
 10
-65.06698729810776
 20
23.00107492872389
 30
0.0
 11
-20.06698729810775
 21
23.00107492872389
 31
0.0
 70
   160
  1
<>
 71
     2
 42
90.0
  3
SLDDIMSTYLE1
100
AcDbAlignedDimension
 13
24.93301270189225
 23
3.001074928723889
 33
0.0
 14
-65.06698729810776
 24
2.401074928723895
 34
0.0
 50
0.0000000000000045
100
AcDbRotatedDimension
  0
LINE
  5
104
330
1F
100
AcDbEntity
  8
참조1
100
AcDbLine
 10
42.74649651723784
 20
7.441074928723896
 30
0.0
 11
42.74649651723784
 21
-7.438925071276109
 31
0.0
  0
LINE
  5
105
330
1F
100
AcDbEntity
  8
참조1
100
AcDbLine
 10
55.44649651723784
 20
5.441074928723896
 30
0.0
 11
42.74649651723784
 21
5.441074928723896
 31
0.0
  0
SOLID
  5
106
330
1F
100
AcDbEntity
  8
참조1
100
AcDbTrace
 10
42.74649651723784
 20
5.441074928723896
 30
0.0
 11
49.09649651723783
 21
4.425074928723896
 31
0.0
 12
49.09649651723783
 22
6.457074928723896
 32
0.0
 13
49.09649651723783
 23
6.457074928723896
 33
0.0
  0
LINE
  5
107
330
1F
100
AcDbEntity
  8
참조1
100
AcDbLine
 10
55.44649651723784
 20
-5.438925071276109
 30
0.0
 11
42.74649651723784
 21
-5.438925071276109
 31
0.0
  0
SOLID
  5
108
330
1F
100
AcDbEntity
  8
참조1
100
AcDbTrace
 10
42.74649651723784
 20
-5.438925071276109
 30
0.0
 11
49.09649651723783
 21
-6.454925071276109
 31
0.0
 12
49.09649651723783
 22
-4.422925071276109
 32
0.0
 13
49.09649651723783
 23
-4.422925071276109
 33
0.0
  0
MTEXT
  5
109
330
1F
100
AcDbEntity
  8
참조1
100
AcDbMText
 10
52.14398660970812
 20
10.98929157337383
 30
0.0
 40
3.5
 41
0.0
 71
     1
 72
     1
  1
A
  7
SLDTEXTSTYLE0
 73
     1
 44
1.0
  0
MTEXT
  5
10A
330
1F
100
AcDbEntity
  8
참조1
100
AcDbMText
 10
52.14398660970812
 20
0.1092915733738259
 30
0.0
 40
3.5
 41
0.0
 71
     1
 72
     1
  1
A
  7
SLDTEXTSTYLE0
 73
     1
 44
1.0
  0
INSERT
  5
111
330
1F
100
AcDbEntity
  8
해칭선
100
AcDbBlockReference
  2
SW_DOWELSYMBOL_0
 10
0.0
 20
0.0
 30
0.0
  0
ARC
  5
1B5
330
1F
100
AcDbEntity
  8
0
  6
Continuous
 62
     1
370
    15
100
AcDbCircle
 10
23.43301270189225
 20
1.501074928723909
 30
0.0
 40
1.5
100
AcDbArc
 50
0.0
 51
90.00000000000028
1001
PE_URL
1000

  0
ARC
  5
1B9
102
{ACAD_REACTORS
102
}
330
1F
100
AcDbEntity
  8
0
  6
Continuous
 62
     1
370
    15
100
AcDbCircle
 10
23.43301270189225
 20
-1.49892507127613
 30
0.0
 40
1.5
100
AcDbArc
 50
269.9999999999997
 51
360.0
1001
PE_URL
1000

  0
DIMENSION
  5
1BA
102
{ACAD_REACTORS
102
}
102
{ACAD_XDICTIONARY
360
1BB
102
}
330
1F
100
AcDbEntity
  8
치수문자_일반주서
100
AcDbDimension
  2
*D12
 10
23.43301270189225
 20
-1.49892507127613
 30
0.0
 11
33.67849422961078
 21
-17.91869954180584
 31
0.0
 70
   164
 71
     5
 42
1.5
  3
SLDDIMSTYLE1
100
AcDbRadialDimension
 15
24.22707026606071
 25
-2.771510072282684
 35
0.0
 40
0.0
1001
ACAD
1000
DSTYLE
1002
{
1070
    78
1070
     8
1002
}
1001
ACAD_DSTYLE_DIMRADIAL_EXTENSION
1070
   387
1070
     1
1070
   388
1040
4.712388980384684
1070
   390
1040
6.283185307179586
1001
PE_URL
1000

  0
ENDSEC
  0
SECTION
  2
OBJECTS
  0
DICTIONARY
  5
C
330
0
100
AcDbDictionary
281
     1
  3
ACAD_DETAILVIEWSTYLE
350
1A4
  3
ACAD_GROUP
350
D
  3
ACAD_LAYOUT
350
1A
  3
ACAD_MLINESTYLE
350
17
  3
ACAD_PLOTSETTINGS
350
19
  3
ACAD_PLOTSTYLENAME
350
E
  3
ACAD_SCALELIST
350
47
  3
ACAD_SECTIONVIEWSTYLE
350
1A5
  3
AcDbVariableDictionary
350
19F
  3
APPDATA
350
133
  3
DWGPROPS
350
1C8
  0
DICTIONARY
  5
174
330
2
100
AcDbDictionary
280
     1
281
     1
  3
ACAD_LAYERSTATES
360
175
  0
DICTIONARY
  5
1BB
330
1BA
100
AcDbDictionary
280
     1
281
     1
  0
DICTIONARY
  5
1A4
102
{ACAD_REACTORS
330
C
102
}
330
C
100
AcDbDictionary
281
     1
  0
DICTIONARY
  5
D
102
{ACAD_REACTORS
330
C
102
}
330
C
100
AcDbDictionary
281
     1
  0
DICTIONARY
  5
1A
102
{ACAD_REACTORS
330
C
102
}
330
C
100
AcDbDictionary
281
     1
  3
Layout1
350
1E
  3
Layout2
350
26
  3
Model
350
22
  0
DICTIONARY
  5
17
102
{ACAD_REACTORS
330
C
102
}
330
C
100
AcDbDictionary
281
     1
  3
Standard
350
18
  0
DICTIONARY
  5
19
102
{ACAD_REACTORS
330
C
102
}
330
C
100
AcDbDictionary
281
     1
  0
ACDBDICTIONARYWDFLT
  5
E
102
{ACAD_REACTORS
330
C
102
}
330
C
100
AcDbDictionary
281
     1
  3
Normal
350
F
100
AcDbDictionaryWithDefault
340
F
  0
DICTIONARY
  5
47
102
{ACAD_REACTORS
330
C
102
}
330
C
100
AcDbDictionary
281
     1
  3
A0
350
48
  3
A1
350
49
  3
A2
350
4A
  3
A3
350
4B
  3
A4
350
4C
  3
A5
350
4D
  3
A6
350
4E
  3
A7
350
4F
  3
A8
350
50
  3
A9
350
51
  3
B0
350
52
  3
B1
350
53
  3
B2
350
54
  3
B3
350
55
  3
B4
350
56
  3
B5
350
57
  3
B6
350
58
  3
B7
350
59
  3
B8
350
5A
  3
B9
350
5B
  3
C0
350
5C
  3
C1
350
5D
  3
C2
350
5E
  3
C3
350
5F
  3
C4
350
60
  3
C5
350
61
  3
C6
350
62
  3
C7
350
63
  3
C8
350
64
  3
C9
350
65
  3
D0
350
66
  3
D1
350
67
  3
D2
350
68
  0
DICTIONARY
  5
1A5
102
{ACAD_REACTORS
330
C
102
}
330
C
100
AcDbDictionary
281
     1
  0
DICTIONARY
  5
19F
102
{ACAD_REACTORS
330
C
102
}
330
C
100
AcDbDictionary
281
     1
  0
DICTIONARY
  5
133
102
{ACAD_REACTORS
330
C
102
}
330
C
100
AcDbDictionary
281
     1
  0
XRECORD
  5
1C8
102
{ACAD_REACTORS
330
C
102
}
330
C
100
AcDbXrecord
280
     1
  1
DWGPROPS COOKIE
  2

  3

  4

  6

  7

  8
12017044
  9

300
=
301
=
302
=
303
=
304
=
305
=
306
=
307
=
308
=
309
=
 40
0.0
 41
2458269.436911852
 42
2458270.424251794
  1

 90
        0
  0
DICTIONARY
  5
175
102
{ACAD_REACTORS
330
174
102
}
330
174
100
AcDbDictionary
281
     1
  0
LAYOUT
  5
1E
102
{ACAD_REACTORS
330
1A
102
}
330
1A
100
AcDbPlotSettings
  1

  2
none_device
  4

  6

 40
0.0
 41
0.0
 42
0.0
 43
0.0
 44
0.0
 45
0.0
 46
0.0
 47
0.0
 48
0.0
 49
0.0
140
0.0
141
0.0
142
1.0
143
1.0
 70
   688
 72
     1
 73
     0
 74
     5
  7

 75
    16
147
1.0
148
0.0
149
0.0
100
AcDbLayout
  1
Layout1
 70
     1
 71
     1
 10
0.0
 20
0.0
 11
420.0
 21
297.0
 12
0.0
 22
0.0
 32
0.0
 14
1.000000000000000E+20
 24
1.000000000000000E+20
 34
1.000000000000000E+20
 15
-1.000000000000000E+20
 25
-1.000000000000000E+20
 35
-1.000000000000000E+20
146
0.0
 13
0.0
 23
0.0
 33
0.0
 16
1.0
 26
0.0
 36
0.0
 17
0.0
 27
1.0
 37
0.0
 76
     0
330
1B
  0
LAYOUT
  5
26
102
{ACAD_REACTORS
330
1A
102
}
330
1A
100
AcDbPlotSettings
  1

  2
none_device
  4

  6

 40
0.0
 41
0.0
 42
0.0
 43
0.0
 44
0.0
 45
0.0
 46
0.0
 47
0.0
 48
0.0
 49
0.0
140
0.0
141
0.0
142
1.0
143
1.0
 70
   688
 72
     1
 73
     0
 74
     5
  7

 75
    16
147
1.0
148
0.0
149
0.0
100
AcDbLayout
  1
Layout2
 70
     1
 71
     2
 10
0.0
 20
0.0
 11
0.0
 21
0.0
 12
0.0
 22
0.0
 32
0.0
 14
0.0
 24
0.0
 34
0.0
 15
0.0
 25
0.0
 35
0.0
146
0.0
 13
0.0
 23
0.0
 33
0.0
 16
1.0
 26
0.0
 36
0.0
 17
0.0
 27
1.0
 37
0.0
 76
     0
330
23
  0
LAYOUT
  5
22
102
{ACAD_REACTORS
330
1A
102
}
330
1A
100
AcDbPlotSettings
  1

  2
none_device
  4
ANSI_A_(11.00_x_8.50_Inches)
  6

 40
6.35
 41
19.05
 42
6.35000508
 43
19.05000254
 44
279.4
 45
215.9
 46
111.1914481004139
 47
108.7131486798558
 48
0.0
 49
0.0
140
0.0
141
0.0
142
0.078647911477692
143
1.0
 70
  1696
 72
     0
 73
     0
 74
     0
  7

 75
     0
147
0.0235690232323232
148
0.0
149
0.0
100
AcDbLayout
  1
Model
 70
     1
 71
     0
 10
0.0
 20
0.0
 11
420.0
 21
297.0
 12
0.0
 22
0.0
 32
0.0
 14
-79.44198729810779
 24
-49.97073246008785
 34
0.0
 15
55.44649651723785
 25
27.3760749287239
 35
0.0
146
0.0
 13
0.0
 23
0.0
 33
0.0
 16
1.0
 26
0.0
 36
0.0
 17
0.0
 27
1.0
 37
0.0
 76
     0
330
1F
331
29
  0
MLINESTYLE
  5
18
102
{ACAD_REACTORS
330
17
102
}
330
17
100
AcDbMlineStyle
  2
Standard
 70
     0
  3

 62
   256
 51
90.0
 52
90.0
 71
     2
 49
0.5
 62
   256
  6
BYLAYER
 49
-0.5
 62
   256
  6
BYLAYER
  0
ACDBPLACEHOLDER
  5
F
102
{ACAD_REACTORS
330
E
102
}
330
E
  0
SCALE
  5
48
102
{ACAD_REACTORS
330
47
102
}
330
47
100
AcDbScale
 70
     0
300
1:1
140
1.0
141
1.0
290
     1
  0
SCALE
  5
49
102
{ACAD_REACTORS
330
47
102
}
330
47
100
AcDbScale
 70
     0
300
1:2
140
1.0
141
2.0
290
     0
  0
SCALE
  5
4A
102
{ACAD_REACTORS
330
47
102
}
330
47
100
AcDbScale
 70
     0
300
1:4
140
1.0
141
4.0
290
     0
  0
SCALE
  5
4B
102
{ACAD_REACTORS
330
47
102
}
330
47
100
AcDbScale
 70
     0
300
1:5
140
1.0
141
5.0
290
     0
  0
SCALE
  5
4C
102
{ACAD_REACTORS
330
47
102
}
330
47
100
AcDbScale
 70
     0
300
1:8
140
1.0
141
8.0
290
     0
  0
SCALE
  5
4D
102
{ACAD_REACTORS
330
47
102
}
330
47
100
AcDbScale
 70
     0
300
1:10
140
1.0
141
10.0
290
     0
  0
SCALE
  5
4E
102
{ACAD_REACTORS
330
47
102
}
330
47
100
AcDbScale
 70
     0
300
1:16
140
1.0
141
16.0
290
     0
  0
SCALE
  5
4F
102
{ACAD_REACTORS
330
47
102
}
330
47
100
AcDbScale
 70
     0
300
1:20
140
1.0
141
20.0
290
     0
  0
SCALE
  5
50
102
{ACAD_REACTORS
330
47
102
}
330
47
100
AcDbScale
 70
     0
300
1:30
140
1.0
141
30.0
290
     0
  0
SCALE
  5
51
102
{ACAD_REACTORS
330
47
102
}
330
47
100
AcDbScale
 70
     0
300
1:40
140
1.0
141
40.0
290
     0
  0
SCALE
  5
52
102
{ACAD_REACTORS
330
47
102
}
330
47
100
AcDbScale
 70
     0
300
1:50
140
1.0
141
50.0
290
     0
  0
SCALE
  5
53
102
{ACAD_REACTORS
330
47
102
}
330
47
100
AcDbScale
 70
     0
300
1:100
140
1.0
141
100.0
290
     0
  0
SCALE
  5
54
102
{ACAD_REACTORS
330
47
102
}
330
47
100
AcDbScale
 70
     0
300
2:1
140
2.0
141
1.0
290
     0
  0
SCALE
  5
55
102
{ACAD_REACTORS
330
47
102
}
330
47
100
AcDbScale
 70
     0
300
4:1
140
4.0
141
1.0
290
     0
  0
SCALE
  5
56
102
{ACAD_REACTORS
330
47
102
}
330
47
100
AcDbScale
 70
     0
300
8:1
140
8.0
141
1.0
290
     0
  0
SCALE
  5
57
102
{ACAD_REACTORS
330
47
102
}
330
47
100
AcDbScale
 70
     0
300
10:1
140
10.0
141
1.0
290
     0
  0
SCALE
  5
58
102
{ACAD_REACTORS
330
47
102
}
330
47
100
AcDbScale
 70
     0
300
100:1
140
100.0
141
1.0
290
     0
  0
SCALE
  5
59
102
{ACAD_REACTORS
330
47
102
}
330
47
100
AcDbScale
 70
     0
300
1/128" = 1'-0"
140
0.0078125
141
12.0
290
     0
  0
SCALE
  5
5A
102
{ACAD_REACTORS
330
47
102
}
330
47
100
AcDbScale
 70
     0
300
1/64" = 1'-0"
140
0.015625
141
12.0
290
     0
  0
SCALE
  5
5B
102
{ACAD_REACTORS
330
47
102
}
330
47
100
AcDbScale
 70
     0
300
1/32" = 1'-0"
140
0.03125
141
12.0
290
     0
  0
SCALE
  5
5C
102
{ACAD_REACTORS
330
47
102
}
330
47
100
AcDbScale
 70
     0
300
1/16" = 1'-0"
140
0.0625
141
12.0
290
     0
  0
SCALE
  5
5D
102
{ACAD_REACTORS
330
47
102
}
330
47
100
AcDbScale
 70
     0
300
3/32" = 1'-0"
140
0.09375
141
12.0
290
     0
  0
SCALE
  5
5E
102
{ACAD_REACTORS
330
47
102
}
330
47
100
AcDbScale
 70
     0
300
1/8" = 1'-0"
140
0.125
141
12.0
290
     0
  0
SCALE
  5
5F
102
{ACAD_REACTORS
330
47
102
}
330
47
100
AcDbScale
 70
     0
300
3/16" = 1'-0"
140
0.1875
141
12.0
290
     0
  0
SCALE
  5
60
102
{ACAD_REACTORS
330
47
102
}
330
47
100
AcDbScale
 70
     0
300
1/4" = 1'-0"
140
0.25
141
12.0
290
     0
  0
SCALE
  5
61
102
{ACAD_REACTORS
330
47
102
}
330
47
100
AcDbScale
 70
     0
300
3/8" = 1'-0"
140
0.375
141
12.0
290
     0
  0
SCALE
  5
62
102
{ACAD_REACTORS
330
47
102
}
330
47
100
AcDbScale
 70
     0
300
1/2" = 1'-0"
140
0.5
141
12.0
290
     0
  0
SCALE
  5
63
102
{ACAD_REACTORS
330
47
102
}
330
47
100
AcDbScale
 70
     0
300
3/4" = 1'-0"
140
0.75
141
12.0
290
     0
  0
SCALE
  5
64
102
{ACAD_REACTORS
330
47
102
}
330
47
100
AcDbScale
 70
     0
300
1" = 1'-0"
140
1.0
141
12.0
290
     0
  0
SCALE
  5
65
102
{ACAD_REACTORS
330
47
102
}
330
47
100
AcDbScale
 70
     0
300
1-1/2" = 1'-0"
140
1.5
141
12.0
290
     0
  0
SCALE
  5
66
102
{ACAD_REACTORS
330
47
102
}
330
47
100
AcDbScale
 70
     0
300
3" = 1'-0"
140
3.0
141
12.0
290
     0
  0
SCALE
  5
67
102
{ACAD_REACTORS
330
47
102
}
330
47
100
AcDbScale
 70
     0
300
6" = 1'-0"
140
6.0
141
12.0
290
     0
  0
SCALE
  5
68
102
{ACAD_REACTORS
330
47
102
}
330
47
100
AcDbScale
 70
     0
300
1'-0" = 1'-0"
140
12.0
141
12.0
290
     0
  0
ENDSEC
  0
EOF
