  0
SECTION
  2
HEADER
  9
$ACADVER
  1
AC1015
  9
$ACADMAINTVER
 70
     6
  9
$DWGCODEPAGE
  3
ANSI_949
  9
$INSBASE
 10
0.0
 20
0.0
 30
0.0
  9
$EXTMIN
 10
-99.44198729810779
 20
-49.97180738881174
 30
0.0
  9
$EXTMAX
 10
79.73835494594202
 20
27.3760749287239
 30
0.0
  9
$LIMMIN
 10
0.0
 20
0.0
  9
$LIMMAX
 10
420.0
 20
297.0
  9
$ORTHOMODE
 70
     1
  9
$REGENMODE
 70
     1
  9
$FILLMODE
 70
     1
  9
$QTEXTMODE
 70
     0
  9
$MIRRTEXT
 70
     1
  9
$LTSCALE
 40
1.0
  9
$ATTMODE
 70
     1
  9
$TEXTSIZE
 40
3.5
  9
$TRACEWID
 40
1.0
  9
$TEXTSTYLE
  7
Standard
  9
$CLAYER
  8
0
  9
$CELTYPE
  6
ByLayer
  9
$CECOLOR
 62
   256
  9
$CELTSCALE
 40
1.0
  9
$DISPSILH
 70
     0
  9
$DIMSCALE
 40
1.0
  9
$DIMASZ
 40
3.302
  9
$DIMEXO
 40
1.0
  9
$DIMDLI
 40
3.75
  9
$DIMRND
 40
0.0
  9
$DIMDLE
 40
0.0
  9
$DIMEXE
 40
1.0
  9
$DIMTP
 40
0.0
  9
$DIMTM
 40
0.0
  9
$DIMTXT
 40
3.5
  9
$DIMCEN
 40
2.5
  9
$DIMTSZ
 40
0.0
  9
$DIMTOL
 70
     0
  9
$DIMLIM
 70
     0
  9
$DIMTIH
 70
     1
  9
$DIMTOH
 70
     1
  9
$DIMSE1
 70
     0
  9
$DIMSE2
 70
     0
  9
$DIMTAD
 70
     1
  9
$DIMZIN
 70
     0
  9
$DIMBLK
  1

  9
$DIMASO
 70
     1
  9
$DIMSHO
 70
     1
  9
$DIMPOST
  1

  9
$DIMAPOST
  1

  9
$DIMALT
 70
     0
  9
$DIMALTD
 70
     3
  9
$DIMALTF
 40
0.0393700787401575
  9
$DIMLFAC
 40
1.0
  9
$DIMTOFL
 70
     1
  9
$DIMTVP
 40
0.0
  9
$DIMTIX
 70
     0
  9
$DIMSOXD
 70
     0
  9
$DIMSAH
 70
     0
  9
$DIMBLK1
  1

  9
$DIMBLK2
  1

  9
$DIMSTYLE
  2
ISO-25
  9
$DIMCLRD
 70
     0
  9
$DIMCLRE
 70
     0
  9
$DIMCLRT
 70
     0
  9
$DIMTFAC
 40
1.0
  9
$DIMGAP
 40
1.524
  9
$DIMJUST
 70
     0
  9
$DIMSD1
 70
     0
  9
$DIMSD2
 70
     0
  9
$DIMTOLJ
 70
     0
  9
$DIMTZIN
 70
     0
  9
$DIMALTZ
 70
     0
  9
$DIMALTTZ
 70
     0
  9
$DIMUPT
 70
     0
  9
$DIMDEC
 70
     2
  9
$DIMTDEC
 70
     2
  9
$DIMALTU
 70
     2
  9
$DIMALTTD
 70
     3
  9
$DIMTXSTY
  7
Standard
  9
$DIMAUNIT
 70
     0
  9
$DIMADEC
 70
     2
  9
$DIMALTRND
 40
0.0
  9
$DIMAZIN
 70
     0
  9
$DIMDSEP
 70
    44
  9
$DIMATFIT
 70
     3
  9
$DIMFRAC
 70
     0
  9
$DIMLDRBLK
  1

  9
$DIMLUNIT
 70
     2
  9
$DIMLWD
 70
    -2
  9
$DIMLWE
 70
    -2
  9
$DIMTMOVE
 70
     0
  9
$LUNITS
 70
     2
  9
$LUPREC
 70
     2
  9
$SKETCHINC
 40
1.0
  9
$FILLETRAD
 40
10.0
  9
$AUNITS
 70
     0
  9
$AUPREC
 70
     2
  9
$MENU
  1
.
  9
$ELEVATION
 40
0.0
  9
$PELEVATION
 40
0.0
  9
$THICKNESS
 40
0.0
  9
$LIMCHECK
 70
     0
  9
$CHAMFERA
 40
0.0
  9
$CHAMFERB
 40
0.0
  9
$CHAMFERC
 40
0.0
  9
$CHAMFERD
 40
0.0
  9
$SKPOLY
 70
     0
  9
$TDCREATE
 40
2458269.811345081
  9
$TDUCREATE
 40
2458269.436345081
  9
$TDUPDATE
 40
2459702.47666419
  9
$TDUUPDATE
 40
2459702.10166419
  9
$TDINDWG
 40
0.0004251042
  9
$TDUSRTIMER
 40
0.0004250926
  9
$USRTIMER
 70
     1
  9
$ANGBASE
 50
0.0
  9
$ANGDIR
 70
     0
  9
$PDMODE
 70
     0
  9
$PDSIZE
 40
-1.0
  9
$PLINEWID
 40
0.0
  9
$SPLFRAME
 70
     0
  9
$SPLINETYPE
 70
     6
  9
$SPLINESEGS
 70
     8
  9
$HANDSEED
  5
387
  9
$SURFTAB1
 70
     6
  9
$SURFTAB2
 70
     6
  9
$SURFTYPE
 70
     6
  9
$SURFU
 70
     6
  9
$SURFV
 70
     6
  9
$UCSBASE
  2

  9
$UCSNAME
  2

  9
$UCSORG
 10
0.0
 20
0.0
 30
0.0
  9
$UCSXDIR
 10
1.0
 20
0.0
 30
0.0
  9
$UCSYDIR
 10
0.0
 20
1.0
 30
0.0
  9
$UCSORTHOREF
  2

  9
$UCSORTHOVIEW
 70
     0
  9
$UCSORGTOP
 10
0.0
 20
0.0
 30
0.0
  9
$UCSORGBOTTOM
 10
0.0
 20
0.0
 30
0.0
  9
$UCSORGLEFT
 10
0.0
 20
0.0
 30
0.0
  9
$UCSORGRIGHT
 10
0.0
 20
0.0
 30
0.0
  9
$UCSORGFRONT
 10
0.0
 20
0.0
 30
0.0
  9
$UCSORGBACK
 10
0.0
 20
0.0
 30
0.0
  9
$PUCSBASE
  2

  9
$PUCSNAME
  2

  9
$PUCSORG
 10
0.0
 20
0.0
 30
0.0
  9
$PUCSXDIR
 10
1.0
 20
0.0
 30
0.0
  9
$PUCSYDIR
 10
0.0
 20
1.0
 30
0.0
  9
$PUCSORTHOREF
  2

  9
$PUCSORTHOVIEW
 70
     0
  9
$PUCSORGTOP
 10
0.0
 20
0.0
 30
0.0
  9
$PUCSORGBOTTOM
 10
0.0
 20
0.0
 30
0.0
  9
$PUCSORGLEFT
 10
0.0
 20
0.0
 30
0.0
  9
$PUCSORGRIGHT
 10
0.0
 20
0.0
 30
0.0
  9
$PUCSORGFRONT
 10
0.0
 20
0.0
 30
0.0
  9
$PUCSORGBACK
 10
0.0
 20
0.0
 30
0.0
  9
$USERI1
 70
     0
  9
$USERI2
 70
     0
  9
$USERI3
 70
     0
  9
$USERI4
 70
     0
  9
$USERI5
 70
     0
  9
$USERR1
 40
0.0
  9
$USERR2
 40
0.0
  9
$USERR3
 40
0.0
  9
$USERR4
 40
0.0
  9
$USERR5
 40
0.0
  9
$WORLDVIEW
 70
     1
  9
$SHADEDGE
 70
     3
  9
$SHADEDIF
 70
    70
  9
$TILEMODE
 70
     1
  9
$MAXACTVP
 70
    64
  9
$PINSBASE
 10
0.0
 20
0.0
 30
0.0
  9
$PLIMCHECK
 70
     0
  9
$PEXTMIN
 10
1.000000000000000E+20
 20
1.000000000000000E+20
 30
1.000000000000000E+20
  9
$PEXTMAX
 10
-1.000000000000000E+20
 20
-1.000000000000000E+20
 30
-1.000000000000000E+20
  9
$PLIMMIN
 10
0.0
 20
0.0
  9
$PLIMMAX
 10
0.0
 20
0.0
  9
$UNITMODE
 70
     0
  9
$VISRETAIN
 70
     1
  9
$PLINEGEN
 70
     0
  9
$PSLTSCALE
 70
     1
  9
$TREEDEPTH
 70
  3020
  9
$CMLSTYLE
  2
Standard
  9
$CMLJUST
 70
     0
  9
$CMLSCALE
 40
20.0
  9
$PROXYGRAPHICS
 70
     1
  9
$MEASUREMENT
 70
     1
  9
$CELWEIGHT
370
    -1
  9
$ENDCAPS
280
     0
  9
$JOINSTYLE
280
     0
  9
$LWDISPLAY
290
     1
  9
$INSUNITS
 70
     4
  9
$HYPERLINKBASE
  1

  9
$STYLESHEET
  1

  9
$XEDIT
290
     1
  9
$CEPSNTYPE
380
     0
  9
$PSTYLEMODE
290
     1
  9
$FINGERPRINTGUID
  2
{705C865A-A02A-47C9-BFBF-DA976F762988}
  9
$VERSIONGUID
  2
{FAEB1C32-E019-11D5-929B-00C0DF256EC4}
  9
$EXTNAMES
290
     1
  9
$PSVPSCALE
 40
0.0
  9
$OLESTARTUP
290
     0
  0
ENDSEC
  0
SECTION
  2
CLASSES
  0
CLASS
  1
ACDBDICTIONARYWDFLT
  2
AcDbDictionaryWithDefault
  3
ObjectDBX Classes
 90
        0
280
     0
281
     0
  0
CLASS
  1
VISUALSTYLE
  2
AcDbVisualStyle
  3
ObjectDBX Classes
 90
     4095
280
     0
281
     0
  0
CLASS
  1
MATERIAL
  2
AcDbMaterial
  3
ObjectDBX Classes
 90
     1153
280
     0
281
     0
  0
CLASS
  1
SCALE
  2
AcDbScale
  3
ObjectDBX Classes
 90
     1153
280
     0
281
     0
  0
CLASS
  1
SUN
  2
AcDbSun
  3
SCENEOE
 90
     1153
280
     0
281
     0
  0
CLASS
  1
ACDBPLACEHOLDER
  2
AcDbPlaceHolder
  3
ObjectDBX Classes
 90
        0
280
     0
281
     0
  0
CLASS
  1
LAYOUT
  2
AcDbLayout
  3
ObjectDBX Classes
 90
        0
280
     0
281
     0
  0
CLASS
  1
TABLESTYLE
  2
AcDbTableStyle
  3
ObjectDBX Classes
 90
     4095
280
     0
281
     0
  0
CLASS
  1
MLEADERSTYLE
  2
AcDbMLeaderStyle
  3
ACDB_MLEADERSTYLE_CLASS
 90
     4095
280
     0
281
     0
  0
CLASS
  1
DICTIONARYVAR
  2
AcDbDictionaryVar
  3
ObjectDBX Classes
 90
        0
280
     0
281
     0
  0
CLASS
  1
BREAKDATA
  2
AcDbBreakData
  3
ObjectDBX Classes
 90
     1024
280
     0
281
     0
  0
ENDSEC
  0
SECTION
  2
TABLES
  0
TABLE
  2
VPORT
  5
8
330
0
100
AcDbSymbolTable
 70
     1
  0
VPORT
  5
29
330
8
100
AcDbSymbolTableRecord
100
AcDbViewportTableRecord
  2
*Active
 70
     0
 10
0.0
 20
0.0
 11
1.0
 21
1.0
 12
-91.02536048647224
 22
-9.775036254140488
 13
0.0
 23
0.0
 14
10.0
 24
10.0
 15
10.0
 25
10.0
 16
0.0
 26
0.0
 36
1.0
 17
0.0
 27
0.0
 37
0.0
 40
224.1933700078424
 41
1.531481481481482
 42
50.0
 43
0.0
 44
0.0
 50
0.0
 51
0.0
 71
    16
 72
  2000
 73
     1
 74
     3
 75
     0
 76
     0
 77
     0
 78
     0
281
     0
 65
     1
110
0.0
120
0.0
130
0.0
111
1.0
121
0.0
131
0.0
112
0.0
122
1.0
132
0.0
 79
     0
146
0.0
  0
ENDTAB
  0
TABLE
  2
LTYPE
  5
5
330
0
100
AcDbSymbolTable
 70
     6
  0
LTYPE
  5
14
330
5
100
AcDbSymbolTableRecord
100
AcDbLinetypeTableRecord
  2
ByBlock
 70
     0
  3

 72
    65
 73
     0
 40
0.0
  0
LTYPE
  5
15
330
5
100
AcDbSymbolTableRecord
100
AcDbLinetypeTableRecord
  2
ByLayer
 70
     0
  3

 72
    65
 73
     0
 40
0.0
  0
LTYPE
  5
16
330
5
100
AcDbSymbolTableRecord
100
AcDbLinetypeTableRecord
  2
Continuous
 70
     0
  3
Solid line
 72
    65
 73
     0
 40
0.0
  0
LTYPE
  5
6A
330
5
100
AcDbSymbolTableRecord
100
AcDbLinetypeTableRecord
  2
HIDDEN
 70
     0
  3
Hidden __ __ __ __ __ __ __ __ __ __ __ __ __ __
 72
    65
 73
     2
 40
1.905
 49
1.27
 74
     0
 49
-0.635
 74
     0
  0
LTYPE
  5
6B
330
5
100
AcDbSymbolTableRecord
100
AcDbLinetypeTableRecord
  2
PHANTOM
 70
     0
  3
Phantom ______  __  __  ______  __  __  ______
 72
    65
 73
     6
 40
12.7
 49
6.35
 74
     0
 49
-1.27
 74
     0
 49
1.27
 74
     0
 49
-1.27
 74
     0
 49
1.27
 74
     0
 49
-1.27
 74
     0
  0
LTYPE
  5
6C
330
5
100
AcDbSymbolTableRecord
100
AcDbLinetypeTableRecord
  2
CENTER
 70
     0
  3
Center ____ _ ____ _ ____ _ ____ _ ____ _ ____
 72
    65
 73
     4
 40
10.16
 49
6.35
 74
     0
 49
-1.27
 74
     0
 49
1.27
 74
     0
 49
-1.27
 74
     0
  0
LTYPE
  5
6D
330
5
100
AcDbSymbolTableRecord
100
AcDbLinetypeTableRecord
  2
CENTERX2
 70
     0
  3
Center (2x) ________  __  ________  __  _____
 72
    65
 73
     4
 40
20.32
 49
12.7
 74
     0
 49
-2.54
 74
     0
 49
2.54
 74
     0
 49
-2.54
 74
     0
  0
LTYPE
  5
6E
330
5
100
AcDbSymbolTableRecord
100
AcDbLinetypeTableRecord
  2
DOT2
 70
     0
  3
Dot (.5x) ........................................
 72
    65
 73
     2
 40
0.635
 49
0.0
 74
     0
 49
-0.635
 74
     0
  0
ENDTAB
  0
TABLE
  2
LAYER
  5
2
102
{ACAD_XDICTIONARY
360
1C1
102
}
330
0
100
AcDbSymbolTable
 70
    18
  0
LAYER
  5
10
330
2
100
AcDbSymbolTableRecord
100
AcDbLayerTableRecord
  2
0
 70
     0
 62
     7
  6
Continuous
370
    -3
390
F
  0
LAYER
  5
6F
330
2
100
AcDbSymbolTableRecord
100
AcDbLayerTableRecord
  2
FORMAT
 70
     0
 62
     2
  6
Continuous
370
    -3
390
F
  0
LAYER
  5
70
330
2
100
AcDbSymbolTableRecord
100
AcDbLayerTableRecord
  2
외형선
 70
     0
 62
     4
  6
Continuous
370
    30
390
F
  0
LAYER
  5
71
330
2
100
AcDbSymbolTableRecord
100
AcDbLayerTableRecord
  2
숨은선
 70
     0
 62
     2
  6
HIDDEN
370
    15
390
F
  0
LAYER
  5
72
330
2
100
AcDbSymbolTableRecord
100
AcDbLayerTableRecord
  2
중심선
 70
     0
 62
     1
  6
CENTERX2
370
    -3
390
F
  0
LAYER
  5
73
330
2
100
AcDbSymbolTableRecord
100
AcDbLayerTableRecord
  2
파단선
 70
     0
 62
     4
  6
Continuous
370
    -3
390
F
  0
LAYER
  5
74
330
2
100
AcDbSymbolTableRecord
100
AcDbLayerTableRecord
  2
해칭선
 70
     0
 62
   100
  6
Continuous
370
    -3
390
F
  0
LAYER
  5
75
330
2
100
AcDbSymbolTableRecord
100
AcDbLayerTableRecord
  2
가는실선
 70
     0
 62
     4
  6
Continuous
370
    -3
390
F
  0
LAYER
  5
76
330
2
100
AcDbSymbolTableRecord
100
AcDbLayerTableRecord
  2
치수_보조선
 70
     0
 62
     4
  6
Continuous
370
    -3
390
F
  0
LAYER
  5
77
330
2
100
AcDbSymbolTableRecord
100
AcDbLayerTableRecord
  2
치수문자_일반주서
 70
     0
 62
     7
  6
Continuous
370
    15
390
F
  0
LAYER
  5
78
330
2
100
AcDbSymbolTableRecord
100
AcDbLayerTableRecord
  2
개별주서
 70
     0
 62
   100
  6
Continuous
370
    30
390
F
  0
LAYER
  5
79
330
2
100
AcDbSymbolTableRecord
100
AcDbLayerTableRecord
  2
중간선
 70
     0
 62
     2
  6
Continuous
370
    15
390
F
  0
LAYER
  5
7A
330
2
100
AcDbSymbolTableRecord
100
AcDbLayerTableRecord
  2
윤곽선
 70
     0
 62
     3
  6
Continuous
370
    40
390
F
  0
LAYER
  5
7B
330
2
100
AcDbSymbolTableRecord
100
AcDbLayerTableRecord
  2
중심마크
 70
     0
 62
   100
  6
Continuous
370
    30
390
F
  0
LAYER
  5
7C
330
2
100
AcDbSymbolTableRecord
100
AcDbLayerTableRecord
  2
가상선
 70
     0
 62
     4
  6
PHANTOM
370
    -3
390
F
  0
LAYER
  5
7D
330
2
100
AcDbSymbolTableRecord
100
AcDbLayerTableRecord
  2
특수지정선
 70
     0
 62
     5
  6
CENTERX2
370
    60
390
F
  0
LAYER
  5
7E
330
2
100
AcDbSymbolTableRecord
100
AcDbLayerTableRecord
  2
참조1
 70
     0
 62
    -4
  6
Continuous
370
    -3
390
F
  0
LAYER
  5
131
330
2
100
AcDbSymbolTableRecord
100
AcDbLayerTableRecord
  2
Defpoints
 70
     0
 62
     7
  6
Continuous
290
     0
370
    -3
390
F
  0
ENDTAB
  0
TABLE
  2
STYLE
  5
3
330
0
100
AcDbSymbolTable
 70
     2
  0
STYLE
  5
11
330
3
100
AcDbSymbolTableRecord
100
AcDbTextStyleTableRecord
  2
Standard
 70
     0
 40
0.0
 41
1.0
 50
0.0
 71
     0
 42
3.5
  3
txt
  4

  0
STYLE
  5
94
330
3
100
AcDbSymbolTableRecord
100
AcDbTextStyleTableRecord
  2
SLDTEXTSTYLE0
 70
     0
 40
0.0
 41
0.75
 50
0.0
 71
     0
 42
3.5
  3
TXT
  4

  0
ENDTAB
  0
TABLE
  2
VIEW
  5
6
330
0
100
AcDbSymbolTable
 70
     0
  0
ENDTAB
  0
TABLE
  2
UCS
  5
7
330
0
100
AcDbSymbolTable
 70
     0
  0
ENDTAB
  0
TABLE
  2
APPID
  5
9
330
0
100
AcDbSymbolTable
 70
     4
  0
APPID
  5
12
330
9
100
AcDbSymbolTableRecord
100
AcDbRegAppTableRecord
  2
ACAD
 70
     0
  0
APPID
  5
13D
330
9
100
AcDbSymbolTableRecord
100
AcDbRegAppTableRecord
  2
PE_URL
 70
     0
  0
APPID
  5
13E
330
9
100
AcDbSymbolTableRecord
100
AcDbRegAppTableRecord
  2
ACAD_DSTYLE_DIMRADIAL_EXTENSION
 70
     0
  0
APPID
  5
382
330
9
100
AcDbSymbolTableRecord
100
AcDbRegAppTableRecord
  2
ENABLE_CUSTOM_SPLIT
 70
     0
  0
ENDTAB
  0
TABLE
  2
DIMSTYLE
  5
A
330
0
100
AcDbSymbolTable
 70
     3
100
AcDbDimStyleTable
  0
DIMSTYLE
105
27
330
A
100
AcDbSymbolTableRecord
100
AcDbDimStyleTableRecord
  2
ISO-25
 70
     0
 41
2.5
 42
0.625
 43
3.75
 44
1.25
 73
     0
 74
     0
 77
     1
 78
     8
140
2.5
141
2.5
143
0.03937007874016
147
0.625
171
     3
172
     1
178
     0
271
     2
272
     2
274
     3
278
    44
283
     0
284
     8
340
11
  0
DIMSTYLE
105
CF
102
{ACAD_REACTORS
330
173
330
183
330
193
330
295
330
2A5
330
339
330
33A
102
}
330
A
100
AcDbSymbolTableRecord
100
AcDbDimStyleTableRecord
  2
SLDDIMSTYLE0
 70
     0
 41
3.302
 44
0.0
 45
0.000000001
 73
     0
 74
     0
 77
     1
 78
    12
 79
     3
140
3.5
147
0.875
172
     1
173
     1
178
     0
271
     2
272
     2
276
     2
284
    12
289
     0
340
94
  0
DIMSTYLE
105
F6
102
{ACAD_REACTORS
330
1A0
330
1B6
330
286
330
2B2
330
2C8
330
338
330
33B
330
33F
102
}
330
A
100
AcDbSymbolTableRecord
100
AcDbDimStyleTableRecord
  2
SLDDIMSTYLE1
 70
     0
 41
3.302
 44
0.0
 45
0.000000001
 73
     0
 74
     0
 77
     1
 78
    12
 79
     3
140
3.5
147
0.875
173
     1
178
     0
271
     2
272
     2
276
     2
284
    12
340
94
  0
ENDTAB
  0
TABLE
  2
BLOCK_RECORD
  5
1
330
0
100
AcDbSymbolTable
 70
    27
  0
BLOCK_RECORD
  5
1F
102
{ACAD_XDICTIONARY
360
384
102
}
330
1
100
AcDbSymbolTableRecord
100
AcDbBlockTableRecord
  2
*Model_Space
340
22
  0
BLOCK_RECORD
  5
1B
330
1
100
AcDbSymbolTableRecord
100
AcDbBlockTableRecord
  2
*Paper_Space
340
1E
  0
BLOCK_RECORD
  5
23
330
1
100
AcDbSymbolTableRecord
100
AcDbBlockTableRecord
  2
*Paper_Space0
340
26
  0
BLOCK_RECORD
  5
7F
330
1
100
AcDbSymbolTableRecord
100
AcDbBlockTableRecord
  2
블럭10
340
0
102
{BLKREFS
331
C7
102
}
  0
BLOCK_RECORD
  5
D0
330
1
100
AcDbSymbolTableRecord
100
AcDbBlockTableRecord
  2
_D
340
0
  0
BLOCK_RECORD
  5
DD
330
1
100
AcDbSymbolTableRecord
100
AcDbBlockTableRecord
  2
_D_1
340
0
  0
BLOCK_RECORD
  5
EA
330
1
100
AcDbSymbolTableRecord
100
AcDbBlockTableRecord
  2
_D_2
340
0
  0
BLOCK_RECORD
  5
F7
330
1
100
AcDbSymbolTableRecord
100
AcDbBlockTableRecord
  2
_D_3
340
0
  0
BLOCK_RECORD
  5
107
330
1
100
AcDbSymbolTableRecord
100
AcDbBlockTableRecord
  2
SW_DOWELSYMBOL_0
340
0
102
{BLKREFS
331
0
331
1AD
331
0
331
2BF
331
33C
102
}
  0
BLOCK_RECORD
  5
174
330
1
100
AcDbSymbolTableRecord
100
AcDbBlockTableRecord
  2
*D8
340
0
  0
BLOCK_RECORD
  5
184
330
1
100
AcDbSymbolTableRecord
100
AcDbBlockTableRecord
  2
*D9
340
0
  0
BLOCK_RECORD
  5
194
330
1
100
AcDbSymbolTableRecord
100
AcDbBlockTableRecord
  2
*D10
340
0
  0
BLOCK_RECORD
  5
1A1
330
1
100
AcDbSymbolTableRecord
100
AcDbBlockTableRecord
  2
*D11
340
0
  0
BLOCK_RECORD
  5
1B7
330
1
100
AcDbSymbolTableRecord
100
AcDbBlockTableRecord
  2
*D12
340
0
  0
BLOCK_RECORD
  5
1FB
330
1
100
AcDbSymbolTableRecord
100
AcDbBlockTableRecord
  2
*D13
340
0
  0
BLOCK_RECORD
  5
20A
330
1
100
AcDbSymbolTableRecord
100
AcDbBlockTableRecord
  2
*D14
340
0
  0
BLOCK_RECORD
  5
219
330
1
100
AcDbSymbolTableRecord
100
AcDbBlockTableRecord
  2
*D15
340
0
  0
BLOCK_RECORD
  5
225
330
1
100
AcDbSymbolTableRecord
100
AcDbBlockTableRecord
  2
*D16
340
0
  0
BLOCK_RECORD
  5
231
330
1
100
AcDbSymbolTableRecord
100
AcDbBlockTableRecord
  2
*D17
340
0
  0
BLOCK_RECORD
  5
2C9
330
1
100
AcDbSymbolTableRecord
100
AcDbBlockTableRecord
  2
*D19
340
0
  0
BLOCK_RECORD
  5
2D5
330
1
100
AcDbSymbolTableRecord
100
AcDbBlockTableRecord
  2
*D20
340
0
  0
BLOCK_RECORD
  5
2E3
330
1
100
AcDbSymbolTableRecord
100
AcDbBlockTableRecord
  2
*D21
340
0
  0
BLOCK_RECORD
  5
2F2
330
1
100
AcDbSymbolTableRecord
100
AcDbBlockTableRecord
  2
*D22
340
0
  0
BLOCK_RECORD
  5
2FE
330
1
100
AcDbSymbolTableRecord
100
AcDbBlockTableRecord
  2
*D23
340
0
  0
BLOCK_RECORD
  5
340
330
1
100
AcDbSymbolTableRecord
100
AcDbBlockTableRecord
  2
*D24
340
0
  0
BLOCK_RECORD
  5
34E
330
1
100
AcDbSymbolTableRecord
100
AcDbBlockTableRecord
  2
*D25
340
0
  0
BLOCK_RECORD
  5
35D
330
1
100
AcDbSymbolTableRecord
100
AcDbBlockTableRecord
  2
*D26
340
0
  0
BLOCK_RECORD
  5
369
330
1
100
AcDbSymbolTableRecord
100
AcDbBlockTableRecord
  2
*D27
340
0
  0
BLOCK_RECORD
  5
375
330
1
100
AcDbSymbolTableRecord
100
AcDbBlockTableRecord
  2
*D28
340
0
  0
ENDTAB
  0
ENDSEC
  0
SECTION
  2
BLOCKS
  0
BLOCK
  5
20
330
1F
100
AcDbEntity
  8
0
100
AcDbBlockBegin
  2
*Model_Space
 70
     0
 10
0.0
 20
0.0
 30
0.0
  3
*Model_Space
  1

  0
ENDBLK
  5
21
330
1F
100
AcDbEntity
  8
0
100
AcDbBlockEnd
  0
BLOCK
  5
1C
330
1B
100
AcDbEntity
 67
     1
  8
0
100
AcDbBlockBegin
  2
*Paper_Space
 70
     0
 10
0.0
 20
0.0
 30
0.0
  3
*Paper_Space
  1

  0
ENDBLK
  5
1D
330
1B
100
AcDbEntity
 67
     1
  8
0
100
AcDbBlockEnd
  0
BLOCK
  5
24
330
23
100
AcDbEntity
  8
0
100
AcDbBlockBegin
  2
*Paper_Space0
 70
     0
 10
0.0
 20
0.0
 30
0.0
  3
*Paper_Space0
  1

  0
ENDBLK
  5
25
330
23
100
AcDbEntity
  8
0
100
AcDbBlockEnd
  0
BLOCK
  5
80
330
7F
100
AcDbEntity
  8
0
100
AcDbBlockBegin
  2
블럭10
 70
     2
 10
0.0
 20
0.0
 30
0.0
  3
블럭10
  1

  0
ELLIPSE
  5
82
330
7F
100
AcDbEntity
  8
중심선
100
AcDbEllipse
 10
20.54032771741204
 20
12.0471743016438
 30
0.0
 11
6.600054785286829
 21
-1.261213355974178E-13
 31
0.0
210
0.0
220
0.0
230
1.0
 40
0.636358354079598
 41
0.9219305317359503
 42
6.513795318482858
  0
ELLIPSE
  5
83
330
7F
100
AcDbEntity
  8
중심선
100
AcDbEllipse
 10
20.54032771746488
 20
12.04717430159265
 30
0.0
 11
3.960054785062283
 21
1.540847449632565E-10
 31
0.0
210
0.0
220
0.0
230
1.0
 40
0.3939339440162632
 41
1.131841032648279
 42
5.62031148352944
  0
LINE
  5
84
330
7F
100
AcDbEntity
  8
중심선
100
AcDbLine
 10
2.268634060543552
 20
16.24717430164393
 30
0.0
 11
5.714909304380834
 21
16.24717430164393
 31
0.0
  0
LINE
  5
85
330
7F
100
AcDbEntity
  8
중심선
100
AcDbLine
 10
5.245725140726316
 20
7.84717430164391
 30
0.0
 11
8.692000384563599
 21
7.84717430164391
 31
0.0
  0
LINE
  5
86
330
7F
100
AcDbEntity
  8
중심선
100
AcDbLine
 10
15.74043728645272
 20
16.24717430164393
 30
0.0
 11
8.692000384563599
 21
7.84717430164391
 31
0.0
  0
LINE
  5
87
330
7F
100
AcDbEntity
  8
중심선
100
AcDbLine
 10
0.1404042013395286
 20
13.71084872107135
 30
0.0
 11
3.58671253028996
 21
13.71088815037384
 31
0.0
  0
LINE
  5
88
330
7F
100
AcDbEntity
  8
중심선
100
AcDbLine
 10
2.750260043222114
 20
10.84717430164391
 30
0.0
 11
6.196535287059397
 21
10.84717430164391
 31
0.0
  0
LINE
  5
89
330
7F
100
AcDbEntity
  8
중심선
100
AcDbLine
 10
12.29416204261559
 20
16.24717430164393
 30
0.0
 11
5.245725140726316
 21
7.84717430164391
 31
0.0
  0
LINE
  5
8A
330
7F
100
AcDbEntity
  8
중심선
100
AcDbLine
 10
10.72767329541681
 20
16.24717430164393
 30
0.0
 11
6.196535287059397
 21
10.84717430164391
 31
0.0
  0
LINE
  5
8B
330
7F
100
AcDbEntity
  8
중심선
100
AcDbLine
 10
7.28139805157953
 20
16.24717430164393
 30
0.0
 11
2.750260043222114
 21
10.84717430164391
 31
0.0
  0
LINE
  5
8C
330
7F
100
AcDbEntity
  8
중심선
100
AcDbLine
 10
5.714909304380834
 20
16.24717430164393
 30
0.0
 11
3.58671253028996
 21
13.71088815037384
 31
0.0
  0
LINE
  5
8D
330
7F
100
AcDbEntity
  8
중심선
100
AcDbLine
 10
2.268634060543552
 20
16.24717430164393
 30
0.0
 11
0.1404042013395286
 21
13.71084872107135
 31
0.0
  0
LINE
  5
8E
330
7F
100
AcDbEntity
  8
중심선
100
AcDbLine
 10
7.28139805157953
 20
16.24717430164393
 30
0.0
 11
10.72767329541681
 21
16.24717430164393
 31
0.0
  0
LINE
  5
8F
330
7F
100
AcDbEntity
  8
중심선
100
AcDbLine
 10
12.29416204261559
 20
16.24717430164393
 30
0.0
 11
15.74043728645272
 21
16.24717430164393
 31
0.0
  0
LINE
  5
90
330
7F
100
AcDbEntity
  8
중심선
100
AcDbLine
 10
19.22036997980202
 20
11.08717430171403
 30
0.0
 11
23.66174974927406
 21
11.08717430171406
 31
0.0
  0
LINE
  5
91
330
7F
100
AcDbEntity
  8
중심선
100
AcDbLine
 10
19.22039502424796
 20
13.00717430171391
 30
0.0
 11
19.22036997980202
 21
11.08717430171403
 31
0.0
  0
LINE
  5
92
330
7F
100
AcDbEntity
  8
중심선
100
AcDbLine
 10
19.22039502424796
 20
13.00717430171391
 30
0.0
 11
26.96566020931264
 21
13.00717430171391
 31
0.0
  0
LINE
  5
93
330
7F
100
AcDbEntity
  8
중심선
100
AcDbLine
 10
22.22332737316547
 20
13.45928029700563
 30
0.0
 11
24.52862924686651
 21
15.39360700705356
 31
0.0
  0
ATTDEF
  5
95
330
7F
100
AcDbEntity
  8
FORMAT
 62
     2
100
AcDbText
 10
-20.85824753159254
 20
2.075366912832191
 30
0.0
 40
4.233333333333333
  1
SEME0106010110E [ 4 FLUTE ]
 41
0.75
  7
SLDTEXTSTYLE0
 11
-20.85824753159254
 21
-0.0412997538344756
 31
0.0
100
AcDbAttributeDefinition
  3

  2
AUTOATTR0
 70
     0
 74
     1
  0
ENDBLK
  5
81
330
7F
100
AcDbEntity
  8
0
100
AcDbBlockEnd
  0
BLOCK
  5
D1
330
D0
100
AcDbEntity
  8
0
100
AcDbBlockBegin
  2
_D
 70
     0
 10
0.0
 20
0.0
 30
0.0
  3
_D
  1

  0
SOLID
  5
D3
330
D0
100
AcDbEntity
  8
치수문자_일반주서
100
AcDbTrace
 10
59.32487721999404
 20
2.999999999999999
 30
0.0
 11
59.83287721999404
 21
6.301999999999999
 31
0.0
 12
58.81687721999403
 22
6.301999999999999
 32
0.0
 13
58.81687721999403
 23
6.301999999999999
 33
0.0
  0
SOLID
  5
D4
330
D0
100
AcDbEntity
  8
치수문자_일반주서
100
AcDbTrace
 10
59.32487721999404
 20
-2.999999999999999
 30
0.0
 11
58.81687721999403
 21
-6.301999999999998
 31
0.0
 12
59.83287721999404
 22
-6.301999999999998
 32
0.0
 13
59.83287721999404
 23
-6.301999999999998
 33
0.0
  0
LINE
  5
D5
330
D0
100
AcDbEntity
  8
치수문자_일반주서
100
AcDbLine
 10
60.50794284281695
 20
2.999999999999999
 30
0.0
 11
58.32487721999404
 21
2.999999999999999
 31
0.0
  0
LINE
  5
D6
330
D0
100
AcDbEntity
  8
치수문자_일반주서
100
AcDbLine
 10
60.5079428428169
 20
-2.999999999999999
 30
0.0
 11
58.32487721999404
 21
-2.999999999999999
 31
0.0
  0
LINE
  5
D7
330
D0
100
AcDbEntity
  8
치수문자_일반주서
100
AcDbLine
 10
59.32487721999404
 20
2.999999999999999
 30
0.0
 11
59.32487721999404
 21
9.35
 31
0.0
  0
LINE
  5
D8
330
D0
100
AcDbEntity
  8
치수문자_일반주서
100
AcDbLine
 10
59.32487721999404
 20
2.999999999999999
 30
0.0
 11
59.32487721999404
 21
-2.999999999999999
 31
0.0
  0
LINE
  5
D9
330
D0
100
AcDbEntity
  8
치수문자_일반주서
100
AcDbLine
 10
59.32487721999404
 20
-2.999999999999999
 30
0.0
 11
59.32487721999404
 21
-9.35
 31
0.0
  0
MTEXT
  5
DA
330
D0
100
AcDbEntity
  8
치수문자_일반주서
100
AcDbMText
 10
54.81314013079217
 20
-3.932274412363788
 30
0.0
 40
3.5
 41
0.0
 71
     1
 72
     1
  1
%%c
  7
SLDTEXTSTYLE0
 11
-7.044195017643634E-15
 21
1.0
 31
0.0
 73
     1
 44
1.0
  0
MTEXT
  5
DB
330
D0
100
AcDbEntity
  8
치수문자_일반주서
100
AcDbMText
 10
54.75966795413228
 20
1.346162986010292
 30
0.0
 40
3.5
 41
0.0
 71
     1
 72
     1
  1
6
  7
SLDTEXTSTYLE0
 11
-7.044195017643634E-15
 21
1.0
 31
0.0
 73
     1
 44
1.0
  0
ENDBLK
  5
D2
330
D0
100
AcDbEntity
  8
0
100
AcDbBlockEnd
  0
BLOCK
  5
DE
330
DD
100
AcDbEntity
  8
0
100
AcDbBlockBegin
  2
_D_1
 70
     0
 10
0.0
 20
0.0
 30
0.0
  3
_D_1
  1

  0
SOLID
  5
E0
330
DD
100
AcDbEntity
  8
치수문자_일반주서
100
AcDbTrace
 10
-53.57512886940358
 20
3.000000000000002
 30
0.0
 11
-53.06712886940358
 21
6.302000000000001
 31
0.0
 12
-54.08312886940358
 22
6.302000000000001
 32
0.0
 13
-54.08312886940358
 23
6.302000000000001
 33
0.0
  0
SOLID
  5
E1
330
DD
100
AcDbEntity
  8
치수문자_일반주서
100
AcDbTrace
 10
-53.57512886940358
 20
-3.000000000000004
 30
0.0
 11
-54.08312886940358
 21
-6.302000000000003
 31
0.0
 12
-53.06712886940358
 22
-6.302000000000003
 32
0.0
 13
-53.06712886940358
 23
-6.302000000000003
 33
0.0
  0
LINE
  5
E2
330
DD
100
AcDbEntity
  8
치수문자_일반주서
100
AcDbLine
 10
-41.17512886940358
 20
3.000000000000003
 30
0.0
 11
-54.57512886940358
 21
3.000000000000002
 31
0.0
  0
LINE
  5
E3
330
DD
100
AcDbEntity
  8
치수문자_일반주서
100
AcDbLine
 10
-41.17512886940358
 20
-3.000000000000003
 30
0.0
 11
-54.57512886940358
 21
-3.000000000000004
 31
0.0
  0
LINE
  5
E4
330
DD
100
AcDbEntity
  8
치수문자_일반주서
100
AcDbLine
 10
-53.57512886940358
 20
3.000000000000002
 30
0.0
 11
-53.57512886940358
 21
9.350000000000001
 31
0.0
  0
LINE
  5
E5
330
DD
100
AcDbEntity
  8
치수문자_일반주서
100
AcDbLine
 10
-53.57512886940358
 20
3.000000000000002
 30
0.0
 11
-53.57512886940358
 21
-3.000000000000004
 31
0.0
  0
LINE
  5
E6
330
DD
100
AcDbEntity
  8
치수문자_일반주서
100
AcDbLine
 10
-53.57512886940358
 20
-3.000000000000004
 30
0.0
 11
-53.57512886940358
 21
-9.350000000000005
 31
0.0
  0
MTEXT
  5
E7
330
DD
100
AcDbEntity
  8
치수문자_일반주서
100
AcDbMText
 10
-58.08686595860544
 20
-3.932274412363802
 30
0.0
 40
3.5
 41
0.0
 71
     1
 72
     1
  1
%%c
  7
SLDTEXTSTYLE0
 11
-7.044195017643634E-15
 21
1.0
 31
0.0
 73
     1
 44
1.0
  0
MTEXT
  5
E8
330
DD
100
AcDbEntity
  8
치수문자_일반주서
100
AcDbMText
 10
-58.14033813526532
 20
1.346162986010279
 30
0.0
 40
3.5
 41
0.0
 71
     1
 72
     1
  1
6
  7
SLDTEXTSTYLE0
 11
-7.044195017643634E-15
 21
1.0
 31
0.0
 73
     1
 44
1.0
  0
ENDBLK
  5
DF
330
DD
100
AcDbEntity
  8
0
100
AcDbBlockEnd
  0
BLOCK
  5
EB
330
EA
100
AcDbEntity
  8
0
100
AcDbBlockBegin
  2
_D_2
 70
     0
 10
0.0
 20
0.0
 30
0.0
  3
_D_2
  1

  0
SOLID
  5
ED
330
EA
100
AcDbEntity
  8
치수문자_일반주서
100
AcDbTrace
 10
69.22487113059641
 20
19.44370309051278
 30
0.0
 11
72.52687113059642
 21
18.93570309051278
 31
0.0
 12
72.52687113059642
 22
19.95170309051278
 32
0.0
 13
72.52687113059642
 23
19.95170309051278
 33
0.0
  0
SOLID
  5
EE
330
EA
100
AcDbEntity
  8
치수문자_일반주서
100
AcDbTrace
 10
54.22487113059645
 20
19.44370309051278
 30
0.0
 11
50.92287113059646
 21
19.95170309051278
 31
0.0
 12
50.92287113059646
 22
18.93570309051278
 32
0.0
 13
50.92287113059646
 23
18.93570309051278
 33
0.0
  0
LINE
  5
EF
330
EA
100
AcDbEntity
  8
치수문자_일반주서
100
AcDbLine
 10
69.22487113059641
 20
2.990532636269926
 30
0.0
 11
69.22487113059641
 21
20.44370309051278
 31
0.0
  0
LINE
  5
F0
330
EA
100
AcDbEntity
  8
치수문자_일반주서
100
AcDbLine
 10
54.22487113059645
 20
3.957251325038345
 30
0.0
 11
54.22487113059645
 21
20.44370309051278
 31
0.0
  0
LINE
  5
F1
330
EA
100
AcDbEntity
  8
치수문자_일반주서
100
AcDbLine
 10
69.22487113059641
 20
19.44370309051278
 30
0.0
 11
75.5748711305964
 21
19.44370309051278
 31
0.0
  0
LINE
  5
F2
330
EA
100
AcDbEntity
  8
치수문자_일반주서
100
AcDbLine
 10
69.22487113059641
 20
19.44370309051278
 30
0.0
 11
54.22487113059645
 21
19.44370309051278
 31
0.0
  0
LINE
  5
F3
330
EA
100
AcDbEntity
  8
치수문자_일반주서
100
AcDbLine
 10
54.22487113059645
 20
19.44370309051278
 30
0.0
 11
47.87487113059645
 21
19.44370309051278
 31
0.0
  0
MTEXT
  5
F4
330
EA
100
AcDbEntity
  8
치수문자_일반주서
100
AcDbMText
 10
59.13875993707361
 20
23.95544000509168
 30
0.0
 40
3.5
 41
0.0
 71
     1
 72
     1
  1
15
  7
SLDTEXTSTYLE0
 73
     1
 44
1.0
  0
ENDBLK
  5
EC
330
EA
100
AcDbEntity
  8
0
100
AcDbBlockEnd
  0
BLOCK
  5
F8
330
F7
100
AcDbEntity
  8
0
100
AcDbBlockBegin
  2
_D_3
 70
     0
 10
0.0
 20
0.0
 30
0.0
  3
_D_3
  1

  0
SOLID
  5
FA
330
F7
100
AcDbEntity
  8
치수문자_일반주서
100
AcDbTrace
 10
69.22487113059641
 20
26.86006578087972
 30
0.0
 11
65.9228711305964
 21
27.36806578087971
 31
0.0
 12
65.9228711305964
 22
26.35206578087972
 32
0.0
 13
65.9228711305964
 23
26.35206578087972
 33
0.0
  0
SOLID
  5
FB
330
F7
100
AcDbEntity
  8
치수문자_일반주서
100
AcDbTrace
 10
-40.77512886940357
 20
26.86006578087971
 30
0.0
 11
-37.47312886940357
 21
26.35206578087971
 31
0.0
 12
-37.47312886940357
 22
27.36806578087971
 32
0.0
 13
-37.47312886940357
 23
27.36806578087971
 33
0.0
  0
LINE
  5
FC
330
F7
100
AcDbEntity
  8
치수문자_일반주서
100
AcDbLine
 10
69.22487113059641
 20
2.990532636269926
 30
0.0
 11
69.22487113059641
 21
27.86006578087972
 31
0.0
  0
LINE
  5
FD
330
F7
100
AcDbEntity
  8
치수문자_일반주서
100
AcDbLine
 10
-40.77512886940357
 20
3.400000000000002
 30
0.0
 11
-40.77512886940357
 21
27.86006578087971
 31
0.0
  0
LINE
  5
FE
330
F7
100
AcDbEntity
  8
치수문자_일반주서
100
AcDbLine
 10
69.22487113059641
 20
26.86006578087972
 30
0.0
 11
-40.77512886940357
 21
26.86006578087971
 31
0.0
  0
MTEXT
  5
FF
330
F7
100
AcDbEntity
  8
치수문자_일반주서
100
AcDbMText
 10
10.34570445672752
 20
31.37180269545861
 30
0.0
 40
3.5
 41
0.0
 71
     1
 72
     1
  1
110
  7
SLDTEXTSTYLE0
 73
     1
 44
1.0
  0
ENDBLK
  5
F9
330
F7
100
AcDbEntity
  8
0
100
AcDbBlockEnd
  0
BLOCK
  5
108
330
107
100
AcDbEntity
  8
0
100
AcDbBlockBegin
  2
SW_DOWELSYMBOL_0
 70
     0
 10
0.0
 20
0.0
 30
0.0
  3
SW_DOWELSYMBOL_0
  1

  0
CIRCLE
  5
10A
330
107
100
AcDbEntity
  8
해칭선
 62
     0
100
AcDbCircle
 10
0.0
 20
0.0
 30
0.0
 40
3.000000000000001
  0
HATCH
  5
10B
330
107
100
AcDbEntity
  8
0
  6
Continuous
 62
     0
370
     0
100
AcDbHatch
 10
0.0
 20
0.0
 30
0.0
210
0.0
220
0.0
230
1.0
  2
SOLID
 70
     1
 71
     0
 91
        1
 92
        0
 93
        3
 72
     2
 10
0.0
 20
0.0
 40
3.000000000000001
 50
0.0
 51
90.0
 73
     1
 72
     1
 10
0.0
 20
3.000000000000001
 11
0.0
 21
0.0
 72
     1
 10
0.0
 20
0.0
 11
3.000000000000003
 21
0.0
 97
        0
 75
     0
 76
     1
 98
        1
 10
0.0
 20
0.0
  0
HATCH
  5
10C
330
107
100
AcDbEntity
  8
0
  6
Continuous
 62
     0
370
     0
100
AcDbHatch
 10
0.0
 20
0.0
 30
0.0
210
0.0
220
0.0
230
1.0
  2
SOLID
 70
     1
 71
     0
 91
        1
 92
        0
 93
        3
 72
     2
 10
0.0
 20
0.0
 40
3.000000000000001
 50
180.0
 51
270.0000000000008
 73
     1
 72
     1
 10
0.0
 20
-3.000000000000001
 11
0.0
 21
0.0
 72
     1
 10
0.0
 20
0.0
 11
-3.000000000000003
 21
0.0
 97
        0
 75
     0
 76
     1
 98
        1
 10
0.0
 20
0.0
  0
ENDBLK
  5
109
330
107
100
AcDbEntity
  8
0
100
AcDbBlockEnd
  0
BLOCK
  5
175
330
174
100
AcDbEntity
  8
0
100
AcDbBlockBegin
  2
*D8
 70
     1
 10
0.0
 20
0.0
 30
0.0
  3
*D8
  1

  0
LINE
  5
176
330
174
100
AcDbEntity
  8
치수문자_일반주서
 62
     0
370
    -2
100
AcDbLine
 10
104.4375
 20
24.56590269147375
 30
0.0
 11
114.375
 21
24.56590269147379
 31
0.0
  0
LINE
  5
177
330
174
100
AcDbEntity
  8
치수문자_일반주서
 62
     0
370
    -2
100
AcDbLine
 10
104.4375
 20
18.56590269147375
 30
0.0
 11
114.375
 21
18.56590269147379
 31
0.0
  0
LINE
  5
178
330
174
100
AcDbEntity
  8
치수문자_일반주서
 62
     0
370
    -2
100
AcDbLine
 10
114.375
 20
24.56590269147379
 30
0.0
 11
114.375
 21
37.29490269147382
 31
0.0
  0
LINE
  5
179
330
174
100
AcDbEntity
  8
치수문자_일반주서
 62
     0
370
    -2
100
AcDbLine
 10
114.375
 20
24.56590269147379
 30
0.0
 11
114.375
 21
18.56590269147379
 31
0.0
  0
LINE
  5
17A
330
174
100
AcDbEntity
  8
치수문자_일반주서
 62
     0
370
    -2
100
AcDbLine
 10
114.375
 20
27.86790269147379
 30
0.0
 11
114.375
 21
31.16990269147379
 31
0.0
  0
LINE
  5
17B
330
174
100
AcDbEntity
  8
치수문자_일반주서
 62
     0
370
    -2
100
AcDbLine
 10
114.3750000000001
 20
15.26390269147379
 30
0.0
 11
114.3750000000001
 21
11.96190269147379
 31
0.0
  0
SOLID
  5
17C
330
174
100
AcDbEntity
  8
치수문자_일반주서
 62
     0
100
AcDbTrace
 10
113.8246666666667
 20
27.86790269147379
 30
0.0
 11
114.9253333333333
 21
27.86790269147379
 31
0.0
 12
114.375
 22
24.56590269147379
 32
0.0
 13
114.375
 23
24.56590269147379
 33
0.0
  0
SOLID
  5
17D
330
174
100
AcDbEntity
  8
치수문자_일반주서
 62
     0
100
AcDbTrace
 10
114.9253333333334
 20
15.26390269147379
 30
0.0
 11
113.8246666666667
 21
15.26390269147379
 31
0.0
 12
114.375
 22
18.56590269147379
 32
0.0
 13
114.375
 23
18.56590269147379
 33
0.0
  0
MTEXT
  5
17E
330
174
100
AcDbEntity
  8
치수문자_일반주서
 62
     0
100
AcDbMText
 10
110.0
 20
34.2324026914738
 30
0.0
 40
3.5
 41
0.0
 71
     2
 72
     1
  1
\A1;%%c6
  7
SLDTEXTSTYLE0
 11
-2.368475785867002E-15
 21
1.0
 31
0.0
 73
     1
 44
1.0
  0
POINT
  5
17F
330
174
100
AcDbEntity
  8
Defpoints
 62
     0
100
AcDbPoint
 10
104.375
 20
24.56590269147375
 30
0.0
  0
POINT
  5
180
330
174
100
AcDbEntity
  8
Defpoints
 62
     0
100
AcDbPoint
 10
104.375
 20
18.56590269147375
 30
0.0
  0
POINT
  5
181
330
174
100
AcDbEntity
  8
Defpoints
 62
     0
100
AcDbPoint
 10
114.3750000000001
 20
18.56590269147379
 30
0.0
  0
ENDBLK
  5
182
330
174
100
AcDbEntity
  8
0
100
AcDbBlockEnd
  0
BLOCK
  5
185
330
184
100
AcDbEntity
  8
0
100
AcDbBlockBegin
  2
*D9
 70
     1
 10
0.0
 20
0.0
 30
0.0
  3
*D9
  1

  0
LINE
  5
186
330
184
100
AcDbEntity
  8
치수문자_일반주서
 62
     0
370
    -2
100
AcDbLine
 10
14.91250000000002
 20
24.56590269147376
 30
0.0
 11
4.375000000000035
 21
24.56590269147372
 31
0.0
  0
LINE
  5
187
330
184
100
AcDbEntity
  8
치수문자_일반주서
 62
     0
370
    -2
100
AcDbLine
 10
14.91250000000002
 20
18.56590269147376
 30
0.0
 11
4.375000000000056
 21
18.56590269147372
 31
0.0
  0
LINE
  5
188
330
184
100
AcDbEntity
  8
치수문자_일반주서
 62
     0
370
    -2
100
AcDbLine
 10
4.375000000000035
 20
24.56590269147372
 30
0.0
 11
4.374999999999989
 21
37.29490269147372
 31
0.0
  0
LINE
  5
189
330
184
100
AcDbEntity
  8
치수문자_일반주서
 62
     0
370
    -2
100
AcDbLine
 10
4.375000000000035
 20
24.56590269147372
 30
0.0
 11
4.375000000000056
 21
18.56590269147372
 31
0.0
  0
LINE
  5
18A
330
184
100
AcDbEntity
  8
치수문자_일반주서
 62
     0
370
    -2
100
AcDbLine
 10
4.375000000000023
 20
27.86790269147372
 30
0.0
 11
4.375000000000012
 21
31.16990269147372
 31
0.0
  0
LINE
  5
18B
330
184
100
AcDbEntity
  8
치수문자_일반주서
 62
     0
370
    -2
100
AcDbLine
 10
4.375000000000068
 20
15.26390269147372
 30
0.0
 11
4.375000000000079
 21
11.96190269147372
 31
0.0
  0
SOLID
  5
18C
330
184
100
AcDbEntity
  8
치수문자_일반주서
 62
     0
100
AcDbTrace
 10
3.82466666666669
 20
27.86790269147372
 30
0.0
 11
4.925333333333357
 21
27.86790269147372
 31
0.0
 12
4.375000000000035
 22
24.56590269147372
 32
0.0
 13
4.375000000000035
 23
24.56590269147372
 33
0.0
  0
SOLID
  5
18D
330
184
100
AcDbEntity
  8
치수문자_일반주서
 62
     0
100
AcDbTrace
 10
4.925333333333401
 20
15.26390269147372
 30
0.0
 11
3.824666666666734
 21
15.26390269147372
 31
0.0
 12
4.375000000000056
 22
18.56590269147372
 32
0.0
 13
4.375000000000056
 23
18.56590269147372
 33
0.0
  0
MTEXT
  5
18E
330
184
100
AcDbEntity
  8
치수문자_일반주서
 62
     0
100
AcDbMText
 10
0.0
 20
34.23240269147371
 30
0.0
 40
3.5
 41
0.0
 71
     2
 72
     1
  1
\A1;%%c6
  7
SLDTEXTSTYLE0
 11
-3.552713678800499E-15
 21
1.0
 31
0.0
 73
     1
 44
1.0
  0
POINT
  5
18F
330
184
100
AcDbEntity
  8
Defpoints
 62
     0
100
AcDbPoint
 10
14.97500000000002
 20
24.56590269147376
 30
0.0
  0
POINT
  5
190
330
184
100
AcDbEntity
  8
Defpoints
 62
     0
100
AcDbPoint
 10
14.97500000000002
 20
18.56590269147376
 30
0.0
  0
POINT
  5
191
330
184
100
AcDbEntity
  8
Defpoints
 62
     0
100
AcDbPoint
 10
4.375000000000043
 20
18.56590269147372
 30
0.0
  0
ENDBLK
  5
192
330
184
100
AcDbEntity
  8
0
100
AcDbBlockEnd
  0
BLOCK
  5
195
330
194
100
AcDbEntity
  8
0
100
AcDbBlockBegin
  2
*D10
 70
     1
 10
0.0
 20
0.0
 30
0.0
  3
*D10
  1

  0
LINE
  5
196
330
194
100
AcDbEntity
  8
치수문자_일반주서
 62
     0
370
    -2
100
AcDbLine
 10
104.375
 20
24.62840269147375
 30
0.0
 11
104.375
 21
34.56590269147377
 31
0.0
  0
LINE
  5
197
330
194
100
AcDbEntity
  8
치수문자_일반주서
 62
     0
370
    -2
100
AcDbLine
 10
89.37500000000006
 20
24.58565401651211
 30
0.0
 11
89.37500000000006
 21
34.56590269147377
 31
0.0
  0
LINE
  5
198
330
194
100
AcDbEntity
  8
치수문자_일반주서
 62
     0
370
    -2
100
AcDbLine
 10
101.073
 20
34.56590269147377
 30
0.0
 11
92.67700000000005
 21
34.56590269147377
 31
0.0
  0
SOLID
  5
199
330
194
100
AcDbEntity
  8
치수문자_일반주서
 62
     0
100
AcDbTrace
 10
101.073
 20
34.01556935814043
 30
0.0
 11
101.073
 21
35.1162360248071
 31
0.0
 12
104.375
 22
34.56590269147377
 32
0.0
 13
104.375
 23
34.56590269147377
 33
0.0
  0
SOLID
  5
19A
330
194
100
AcDbEntity
  8
치수문자_일반주서
 62
     0
100
AcDbTrace
 10
92.67700000000005
 20
35.1162360248071
 30
0.0
 11
92.67700000000005
 21
34.01556935814043
 31
0.0
 12
89.37500000000006
 22
34.56590269147377
 32
0.0
 13
89.37500000000006
 23
34.56590269147377
 33
0.0
  0
MTEXT
  5
19B
330
194
100
AcDbEntity
  8
치수문자_일반주서
 62
     0
100
AcDbMText
 10
96.87500000000004
 20
38.94090269147377
 30
0.0
 40
3.5
 41
0.0
 71
     2
 72
     1
  1
\A1;15
  7
SLDTEXTSTYLE0
 73
     1
 44
1.0
  0
POINT
  5
19C
330
194
100
AcDbEntity
  8
Defpoints
 62
     0
100
AcDbPoint
 10
104.375
 20
24.56590269147375
 30
0.0
  0
POINT
  5
19D
330
194
100
AcDbEntity
  8
Defpoints
 62
     0
100
AcDbPoint
 10
89.37500000000006
 20
24.52315401651211
 30
0.0
  0
POINT
  5
19E
330
194
100
AcDbEntity
  8
Defpoints
 62
     0
100
AcDbPoint
 10
89.37500000000006
 20
34.56590269147377
 30
0.0
  0
ENDBLK
  5
19F
330
194
100
AcDbEntity
  8
0
100
AcDbBlockEnd
  0
BLOCK
  5
1A2
330
1A1
100
AcDbEntity
  8
0
100
AcDbBlockBegin
  2
*D11
 70
     1
 10
0.0
 20
0.0
 30
0.0
  3
*D11
  1

  0
LINE
  5
1A3
330
1A1
100
AcDbEntity
  8
치수문자_일반주서
 62
     0
370
    -2
100
AcDbLine
 10
104.375
 20
24.62840269147375
 30
0.0
 11
104.375
 21
44.56590269147376
 31
0.0
  0
LINE
  5
1A4
330
1A1
100
AcDbEntity
  8
치수문자_일반주서
 62
     0
370
    -2
100
AcDbLine
 10
14.37500000000003
 20
24.02840269147376
 30
0.0
 11
14.37500000000003
 21
44.56590269147376
 31
0.0
  0
LINE
  5
1A5
330
1A1
100
AcDbEntity
  8
치수문자_일반주서
 62
     0
370
    -2
100
AcDbLine
 10
101.073
 20
44.56590269147376
 30
0.0
 11
17.67700000000003
 21
44.56590269147376
 31
0.0
  0
SOLID
  5
1A6
330
1A1
100
AcDbEntity
  8
치수문자_일반주서
 62
     0
100
AcDbTrace
 10
101.073
 20
44.01556935814043
 30
0.0
 11
101.073
 21
45.11623602480709
 31
0.0
 12
104.375
 22
44.56590269147376
 32
0.0
 13
104.375
 23
44.56590269147376
 33
0.0
  0
SOLID
  5
1A7
330
1A1
100
AcDbEntity
  8
치수문자_일반주서
 62
     0
100
AcDbTrace
 10
17.67700000000003
 20
45.11623602480709
 30
0.0
 11
17.67700000000003
 21
44.01556935814043
 31
0.0
 12
14.37500000000003
 22
44.56590269147376
 32
0.0
 13
14.37500000000003
 23
44.56590269147376
 33
0.0
  0
MTEXT
  5
1A8
330
1A1
100
AcDbEntity
  8
치수문자_일반주서
 62
     0
100
AcDbMText
 10
59.37500000000004
 20
48.94090269147376
 30
0.0
 40
3.5
 41
0.0
 71
     2
 72
     1
  1
\A1;90
  7
SLDTEXTSTYLE0
 73
     1
 44
1.0
  0
POINT
  5
1A9
330
1A1
100
AcDbEntity
  8
Defpoints
 62
     0
100
AcDbPoint
 10
104.375
 20
24.56590269147375
 30
0.0
  0
POINT
  5
1AA
330
1A1
100
AcDbEntity
  8
Defpoints
 62
     0
100
AcDbPoint
 10
14.37500000000003
 20
23.96590269147376
 30
0.0
  0
POINT
  5
1AB
330
1A1
100
AcDbEntity
  8
Defpoints
 62
     0
100
AcDbPoint
 10
14.37500000000003
 20
44.56590269147376
 30
0.0
  0
ENDBLK
  5
1AC
330
1A1
100
AcDbEntity
  8
0
100
AcDbBlockEnd
  0
BLOCK
  5
1B8
330
1B7
100
AcDbEntity
  8
0
100
AcDbBlockBegin
  2
*D12
 70
     1
 10
0.0
 20
0.0
 30
0.0
  3
*D12
  1

  0
LINE
  5
1B9
330
1B7
100
AcDbEntity
  8
치수문자_일반주서
 62
     0
370
    -2
100
AcDbLine
 10
106.0107393672261
 20
15.97096840852126
 30
0.0
 11
116.8549381846581
 21
0.0000000000000013
 31
0.0
  0
MTEXT
  5
1BA
330
1B7
100
AcDbEntity
  8
치수문자_일반주서
 62
     0
100
AcDbMText
 10
116.4461373429301
 20
5.27503989883512
 30
0.0
 40
3.5
 41
0.0
 71
     5
 72
     1
  1
\A1;R0.5
  7
SLDTEXTSTYLE0
 11
0.5617410224161055
 21
-0.8273131352365368
 31
0.0
 73
     1
 44
1.0
  0
SOLID
  5
1BB
330
1B7
100
AcDbEntity
  8
치수문자_일반주서
 62
     0
100
AcDbTrace
 10
106.4660373626512
 20
16.28011321785759
 30
0.0
 11
105.5554413718009
 21
15.66182359918493
 31
0.0
 12
104.1558705112081
 22
18.70275638107231
 32
0.0
 13
104.1558705112081
 23
18.70275638107231
 33
0.0
  0
LINE
  5
1BC
330
1B7
100
AcDbEntity
  8
치수문자_일반주서
 62
     0
100
AcDbLine
 10
103.785
 20
19.11641294869057
 30
0.0
 11
103.965
 21
19.11641294869057
 31
0.0
  0
LINE
  5
1BD
330
1B7
100
AcDbEntity
  8
치수문자_일반주서
 62
     0
100
AcDbLine
 10
103.875
 20
19.02641294869057
 30
0.0
 11
103.875
 21
19.20641294869057
 31
0.0
  0
POINT
  5
1BE
330
1B7
100
AcDbEntity
  8
Defpoints
 62
     0
100
AcDbPoint
 10
104.1558705112081
 20
18.70275638107231
 30
0.0
  0
POINT
  5
1BF
330
1B7
100
AcDbEntity
  8
Defpoints
 62
     0
100
AcDbPoint
 10
103.875
 20
19.11641294869057
 30
0.0
  0
ENDBLK
  5
1C0
330
1B7
100
AcDbEntity
  8
0
100
AcDbBlockEnd
  0
BLOCK
  5
1FC
330
1FB
100
AcDbEntity
  8
0
100
AcDbBlockBegin
  2
*D13
 70
     1
 10
0.0
 20
0.0
 30
0.0
  3
*D13
  1

  0
LINE
  5
1FE
330
1FB
100
AcDbEntity
  8
치수문자_일반주서
 62
     0
370
    -2
100
AcDbLine
 10
24.99551270189227
 20
3.001074928723888
 30
0.0
 11
34.93301270189225
 21
3.001074928723925
 31
0.0
  0
LINE
  5
1FF
330
1FB
100
AcDbEntity
  8
치수문자_일반주서
 62
     0
370
    -2
100
AcDbLine
 10
24.99551270189227
 20
-2.998925071276112
 30
0.0
 11
34.93301270189227
 21
-2.998925071276075
 31
0.0
  0
LINE
  5
200
330
1FB
100
AcDbEntity
  8
치수문자_일반주서
 62
     0
370
    -2
100
AcDbLine
 10
34.93301270189225
 20
3.001074928723925
 30
0.0
 11
34.9330127018922
 21
15.73007492872395
 31
0.0
  0
LINE
  5
201
330
1FB
100
AcDbEntity
  8
치수문자_일반주서
 62
     0
370
    -2
100
AcDbLine
 10
34.93301270189225
 20
3.001074928723925
 30
0.0
 11
34.93301270189227
 21
-2.998925071276075
 31
0.0
  0
LINE
  5
202
330
1FB
100
AcDbEntity
  8
치수문자_일반주서
 62
     0
370
    -2
100
AcDbLine
 10
34.93301270189223
 20
6.303074928723925
 30
0.0
 11
34.93301270189222
 21
9.605074928723925
 31
0.0
  0
LINE
  5
203
330
1FB
100
AcDbEntity
  8
치수문자_일반주서
 62
     0
370
    -2
100
AcDbLine
 10
34.93301270189228
 20
-6.300925071276074
 30
0.0
 11
34.9330127018923
 21
-9.602925071276074
 31
0.0
  0
SOLID
  5
204
330
1FB
100
AcDbEntity
  8
치수문자_일반주서
 62
     0
100
AcDbTrace
 10
34.3826793685589
 20
6.303074928723923
 30
0.0
 11
35.48334603522557
 21
6.303074928723927
 31
0.0
 12
34.93301270189225
 22
3.001074928723925
 32
0.0
 13
34.93301270189225
 23
3.001074928723925
 33
0.0
  0
SOLID
  5
205
330
1FB
100
AcDbEntity
  8
치수문자_일반주서
 62
     0
100
AcDbTrace
 10
35.48334603522562
 20
-6.300925071276072
 30
0.0
 11
34.38267936855895
 21
-6.300925071276076
 31
0.0
 12
34.93301270189227
 22
-2.998925071276075
 32
0.0
 13
34.93301270189227
 23
-2.998925071276075
 33
0.0
  0
MTEXT
  5
206
330
1FB
100
AcDbEntity
  8
치수문자_일반주서
 62
     0
100
AcDbMText
 10
30.55801270189221
 20
12.66757492872394
 30
0.0
 40
3.5
 41
0.0
 71
     2
 72
     1
  1
\A1;%%c6
  7
SLDTEXTSTYLE0
 11
-3.552713678800501E-15
 21
1.0
 31
0.0
 73
     1
 44
1.0
  0
POINT
  5
207
330
1FB
100
AcDbEntity
  8
Defpoints
 62
     0
100
AcDbPoint
 10
24.93301270189227
 20
3.001074928723888
 30
0.0
  0
POINT
  5
208
330
1FB
100
AcDbEntity
  8
Defpoints
 62
     0
100
AcDbPoint
 10
24.93301270189227
 20
-2.998925071276112
 30
0.0
  0
POINT
  5
209
330
1FB
100
AcDbEntity
  8
Defpoints
 62
     0
100
AcDbPoint
 10
34.9330127018923
 20
-2.998925071276075
 30
0.0
  0
ENDBLK
  5
1FD
330
1FB
100
AcDbEntity
  8
0
100
AcDbBlockEnd
  0
BLOCK
  5
20B
330
20A
100
AcDbEntity
  8
0
100
AcDbBlockBegin
  2
*D14
 70
     1
 10
0.0
 20
0.0
 30
0.0
  3
*D14
  1

  0
LINE
  5
20D
330
20A
100
AcDbEntity
  8
치수문자_일반주서
 62
     0
370
    -2
100
AcDbLine
 10
-64.52948729810777
 20
3.001074928723895
 30
0.0
 11
-75.06698729810776
 21
3.001074928723854
 31
0.0
  0
LINE
  5
20E
330
20A
100
AcDbEntity
  8
치수문자_일반주서
 62
     0
370
    -2
100
AcDbLine
 10
-64.52948729810777
 20
-2.998925071276109
 30
0.0
 11
-75.06698729810775
 21
-2.998925071276149
 31
0.0
  0
LINE
  5
20F
330
20A
100
AcDbEntity
  8
치수문자_일반주서
 62
     0
370
    -2
100
AcDbLine
 10
-75.06698729810776
 20
3.001074928723854
 30
0.0
 11
-75.0669872981078
 21
15.73007492872386
 31
0.0
  0
LINE
  5
210
330
20A
100
AcDbEntity
  8
치수문자_일반주서
 62
     0
370
    -2
100
AcDbLine
 10
-75.06698729810776
 20
3.001074928723854
 30
0.0
 11
-75.06698729810775
 21
-2.998925071276149
 31
0.0
  0
LINE
  5
211
330
20A
100
AcDbEntity
  8
치수문자_일반주서
 62
     0
370
    -2
100
AcDbLine
 10
-75.06698729810778
 20
6.303074928723854
 30
0.0
 11
-75.06698729810779
 21
9.605074928723853
 31
0.0
  0
LINE
  5
212
330
20A
100
AcDbEntity
  8
치수문자_일반주서
 62
     0
370
    -2
100
AcDbLine
 10
-75.06698729810773
 20
-6.300925071276149
 30
0.0
 11
-75.06698729810772
 21
-9.602925071276148
 31
0.0
  0
SOLID
  5
213
330
20A
100
AcDbEntity
  8
치수문자_일반주서
 62
     0
100
AcDbTrace
 10
-75.6173206314411
 20
6.303074928723853
 30
0.0
 11
-74.51665396477445
 21
6.303074928723855
 31
0.0
 12
-75.06698729810776
 22
3.001074928723854
 32
0.0
 13
-75.06698729810776
 23
3.001074928723854
 33
0.0
  0
SOLID
  5
214
330
20A
100
AcDbEntity
  8
치수문자_일반주서
 62
     0
100
AcDbTrace
 10
-74.5166539647744
 20
-6.300925071276148
 30
0.0
 11
-75.61732063144106
 21
-6.30092507127615
 31
0.0
 12
-75.06698729810775
 22
-2.998925071276149
 32
0.0
 13
-75.06698729810775
 23
-2.998925071276149
 33
0.0
  0
MTEXT
  5
215
330
20A
100
AcDbEntity
  8
치수문자_일반주서
 62
     0
100
AcDbMText
 10
-79.44198729810779
 20
12.66757492872385
 30
0.0
 40
3.5
 41
0.0
 71
     2
 72
     1
  1
\A1;%%c6
  7
SLDTEXTSTYLE0
 11
-2.368475785867000E-15
 21
1.0
 31
0.0
 73
     1
 44
1.0
  0
POINT
  5
216
330
20A
100
AcDbEntity
  8
Defpoints
 62
     0
100
AcDbPoint
 10
-64.46698729810777
 20
3.001074928723895
 30
0.0
  0
POINT
  5
217
330
20A
100
AcDbEntity
  8
Defpoints
 62
     0
100
AcDbPoint
 10
-64.46698729810777
 20
-2.998925071276108
 30
0.0
  0
POINT
  5
218
330
20A
100
AcDbEntity
  8
Defpoints
 62
     0
100
AcDbPoint
 10
-75.06698729810775
 20
-2.998925071276148
 30
0.0
  0
ENDBLK
  5
20C
330
20A
100
AcDbEntity
  8
0
100
AcDbBlockEnd
  0
BLOCK
  5
21A
330
219
100
AcDbEntity
  8
0
100
AcDbBlockBegin
  2
*D15
 70
     1
 10
0.0
 20
0.0
 30
0.0
  3
*D15
  1

  0
LINE
  5
21C
330
219
100
AcDbEntity
  8
치수문자_일반주서
 62
     0
370
    -2
100
AcDbLine
 10
24.93301270189227
 20
3.063574928723888
 30
0.0
 11
24.93301270189227
 21
13.0010749287239
 31
0.0
  0
LINE
  5
21D
330
219
100
AcDbEntity
  8
치수문자_일반주서
 62
     0
370
    -2
100
AcDbLine
 10
9.933012701892267
 20
3.020826253762245
 30
0.0
 11
9.933012701892267
 21
13.0010749287239
 31
0.0
  0
LINE
  5
21E
330
219
100
AcDbEntity
  8
치수문자_일반주서
 62
     0
370
    -2
100
AcDbLine
 10
21.63101270189227
 20
13.0010749287239
 30
0.0
 11
13.23501270189227
 21
13.0010749287239
 31
0.0
  0
SOLID
  5
21F
330
219
100
AcDbEntity
  8
치수문자_일반주서
 62
     0
100
AcDbTrace
 10
21.63101270189227
 20
12.45074159539057
 30
0.0
 11
21.63101270189227
 21
13.55140826205723
 31
0.0
 12
24.93301270189227
 22
13.0010749287239
 32
0.0
 13
24.93301270189227
 23
13.0010749287239
 33
0.0
  0
SOLID
  5
220
330
219
100
AcDbEntity
  8
치수문자_일반주서
 62
     0
100
AcDbTrace
 10
13.23501270189227
 20
13.55140826205723
 30
0.0
 11
13.23501270189227
 21
12.45074159539057
 31
0.0
 12
9.933012701892267
 22
13.0010749287239
 32
0.0
 13
9.933012701892267
 23
13.0010749287239
 33
0.0
  0
MTEXT
  5
221
330
219
100
AcDbEntity
  8
치수문자_일반주서
 62
     0
100
AcDbMText
 10
17.43301270189227
 20
17.3760749287239
 30
0.0
 40
3.5
 41
0.0
 71
     2
 72
     1
  1
\A1;15
  7
SLDTEXTSTYLE0
 73
     1
 44
1.0
  0
POINT
  5
222
330
219
100
AcDbEntity
  8
Defpoints
 62
     0
100
AcDbPoint
 10
24.93301270189227
 20
3.001074928723888
 30
0.0
  0
POINT
  5
223
330
219
100
AcDbEntity
  8
Defpoints
 62
     0
100
AcDbPoint
 10
9.933012701892267
 20
2.958326253762245
 30
0.0
  0
POINT
  5
224
330
219
100
AcDbEntity
  8
Defpoints
 62
     0
100
AcDbPoint
 10
9.933012701892267
 20
13.0010749287239
 30
0.0
  0
ENDBLK
  5
21B
330
219
100
AcDbEntity
  8
0
100
AcDbBlockEnd
  0
BLOCK
  5
226
330
225
100
AcDbEntity
  8
0
100
AcDbBlockBegin
  2
*D16
 70
     1
 10
0.0
 20
0.0
 30
0.0
  3
*D16
  1

  0
LINE
  5
228
330
225
100
AcDbEntity
  8
치수문자_일반주서
 62
     0
370
    -2
100
AcDbLine
 10
24.93301270189227
 20
3.063574928723888
 30
0.0
 11
24.93301270189227
 21
23.0010749287239
 31
0.0
  0
LINE
  5
229
330
225
100
AcDbEntity
  8
치수문자_일반주서
 62
     0
370
    -2
100
AcDbLine
 10
-65.06698729810776
 20
2.463574928723894
 30
0.0
 11
-65.06698729810776
 21
23.0010749287239
 31
0.0
  0
LINE
  5
22A
330
225
100
AcDbEntity
  8
치수문자_일반주서
 62
     0
370
    -2
100
AcDbLine
 10
21.63101270189227
 20
23.0010749287239
 30
0.0
 11
-61.76498729810776
 21
23.0010749287239
 31
0.0
  0
SOLID
  5
22B
330
225
100
AcDbEntity
  8
치수문자_일반주서
 62
     0
100
AcDbTrace
 10
21.63101270189227
 20
22.45074159539056
 30
0.0
 11
21.63101270189227
 21
23.55140826205723
 31
0.0
 12
24.93301270189227
 22
23.0010749287239
 32
0.0
 13
24.93301270189227
 23
23.0010749287239
 33
0.0
  0
SOLID
  5
22C
330
225
100
AcDbEntity
  8
치수문자_일반주서
 62
     0
100
AcDbTrace
 10
-61.76498729810776
 20
23.55140826205723
 30
0.0
 11
-61.76498729810776
 21
22.45074159539056
 31
0.0
 12
-65.06698729810776
 22
23.0010749287239
 32
0.0
 13
-65.06698729810776
 23
23.0010749287239
 33
0.0
  0
MTEXT
  5
22D
330
225
100
AcDbEntity
  8
치수문자_일반주서
 62
     0
100
AcDbMText
 10
-20.06698729810773
 20
27.3760749287239
 30
0.0
 40
3.5
 41
0.0
 71
     2
 72
     1
  1
\A1;90
  7
SLDTEXTSTYLE0
 73
     1
 44
1.0
  0
POINT
  5
22E
330
225
100
AcDbEntity
  8
Defpoints
 62
     0
100
AcDbPoint
 10
24.93301270189227
 20
3.001074928723888
 30
0.0
  0
POINT
  5
22F
330
225
100
AcDbEntity
  8
Defpoints
 62
     0
100
AcDbPoint
 10
-65.06698729810776
 20
2.401074928723894
 30
0.0
  0
POINT
  5
230
330
225
100
AcDbEntity
  8
Defpoints
 62
     0
100
AcDbPoint
 10
-65.06698729810776
 20
23.0010749287239
 30
0.0
  0
ENDBLK
  5
227
330
225
100
AcDbEntity
  8
0
100
AcDbBlockEnd
  0
BLOCK
  5
232
330
231
100
AcDbEntity
  8
0
100
AcDbBlockBegin
  2
*D17
 70
     1
 10
0.0
 20
0.0
 30
0.0
  3
*D17
  1

  0
LINE
  5
234
330
231
100
AcDbEntity
  8
치수문자_일반주서
 62
     0
370
    -2
100
AcDbLine
 10
26.56875206911822
 20
-5.593859354228644
 30
0.0
 11
37.41295088654989
 21
-21.56482776275017
 31
0.0
  0
MTEXT
  5
235
330
231
100
AcDbEntity
  8
치수문자_일반주서
 62
     0
100
AcDbMText
 10
37.00415004482194
 20
-16.28978786391504
 30
0.0
 40
3.5
 41
0.0
 71
     5
 72
     1
  1
\A1;R0.5
  7
SLDTEXTSTYLE0
 11
0.561741022416086
 21
-0.82731313523655
 31
0.0
 73
     1
 44
1.0
  0
SOLID
  5
236
330
231
100
AcDbEntity
  8
치수문자_일반주서
 62
     0
100
AcDbTrace
 10
27.0240500645434
 20
-5.284714544892325
 30
0.0
 11
26.11345407369304
 21
-5.903004163564964
 31
0.0
 12
24.7138832131003
 22
-2.862071381677556
 32
0.0
 13
24.7138832131003
 23
-2.862071381677556
 33
0.0
  0
LINE
  5
237
330
231
100
AcDbEntity
  8
치수문자_일반주서
 62
     0
100
AcDbLine
 10
24.34301270189227
 20
-2.448414814059291
 30
0.0
 11
24.52301270189227
 21
-2.448414814059291
 31
0.0
  0
LINE
  5
238
330
231
100
AcDbEntity
  8
치수문자_일반주서
 62
     0
100
AcDbLine
 10
24.43301270189227
 20
-2.538414814059291
 30
0.0
 11
24.43301270189227
 21
-2.358414814059291
 31
0.0
  0
POINT
  5
239
330
231
100
AcDbEntity
  8
Defpoints
 62
     0
100
AcDbPoint
 10
24.7138832131003
 20
-2.862071381677556
 30
0.0
  0
POINT
  5
23A
330
231
100
AcDbEntity
  8
Defpoints
 62
     0
100
AcDbPoint
 10
24.43301270189227
 20
-2.448414814059291
 30
0.0
  0
ENDBLK
  5
233
330
231
100
AcDbEntity
  8
0
100
AcDbBlockEnd
  0
BLOCK
  5
2CA
330
2C9
100
AcDbEntity
  8
0
100
AcDbBlockBegin
  2
*D19
 70
     1
 10
0.0
 20
0.0
 30
0.0
  3
*D19
  1

  0
LINE
  5
2CB
330
2C9
100
AcDbEntity
  8
치수문자_일반주서
 62
     0
370
    -2
100
AcDbLine
 10
105.3418150944749
 20
14.07418035741314
 30
0.0
 11
112.5767274996655
 21
0.0000000000000457
 31
0.0
  0
MTEXT
  5
2CC
330
2C9
100
AcDbEntity
  8
치수문자_일반주서
 62
     0
100
AcDbMText
 10
113.7112125465806
 20
3.53471267266896
 30
0.0
 40
3.5
 41
0.0
 71
     5
 72
     1
  1
\A1;R1
  7
SLDTEXTSTYLE0
 11
0.4571862144293126
 21
-0.8893709942064643
 31
0.0
 73
     1
 44
1.0
  0
SOLID
  5
2CD
330
2C9
100
AcDbEntity
  8
치수문자_일반주서
 62
     0
100
AcDbTrace
 10
105.8312655982865
 20
14.32578517075407
 30
0.0
 11
104.8523645906633
 21
13.82257554407221
 31
0.0
 12
103.8321862144293
 22
17.01088338028289
 32
0.0
 13
103.8321862144293
 23
17.01088338028289
 33
0.0
  0
LINE
  5
2CE
330
2C9
100
AcDbEntity
  8
치수문자_일반주서
 62
     0
100
AcDbLine
 10
103.285
 20
17.90025437448935
 30
0.0
 11
103.465
 21
17.90025437448935
 31
0.0
  0
LINE
  5
2CF
330
2C9
100
AcDbEntity
  8
치수문자_일반주서
 62
     0
100
AcDbLine
 10
103.375
 20
17.81025437448935
 30
0.0
 11
103.375
 21
17.99025437448935
 31
0.0
  0
POINT
  5
2D0
330
2C9
100
AcDbEntity
  8
Defpoints
 62
     0
100
AcDbPoint
 10
103.8321862144293
 20
17.01088338028289
 30
0.0
  0
POINT
  5
2D1
330
2C9
100
AcDbEntity
  8
Defpoints
 62
     0
100
AcDbPoint
 10
103.375
 20
17.90025437448935
 30
0.0
  0
ENDBLK
  5
2D2
330
2C9
100
AcDbEntity
  8
0
100
AcDbBlockEnd
  0
BLOCK
  5
2D6
330
2D5
100
AcDbEntity
  8
0
100
AcDbBlockBegin
  2
*D20
 70
     1
 10
0.0
 20
0.0
 30
0.0
  3
*D20
  1

  0
LINE
  5
2D8
330
2D5
100
AcDbEntity
  8
치수문자_일반주서
 62
     0
370
    -2
100
AcDbLine
 10
104.4375
 20
22.77928719929788
 30
0.0
 11
114.375
 21
22.77928719929792
 31
0.0
  0
LINE
  5
2D9
330
2D5
100
AcDbEntity
  8
치수문자_일반주서
 62
     0
370
    -2
100
AcDbLine
 10
104.4375
 20
16.77928719929788
 30
0.0
 11
114.375
 21
16.77928719929792
 31
0.0
  0
LINE
  5
2DA
330
2D5
100
AcDbEntity
  8
치수문자_일반주서
 62
     0
370
    -2
100
AcDbLine
 10
114.375
 20
22.77928719929792
 30
0.0
 11
114.375
 21
35.50828719929792
 31
0.0
  0
LINE
  5
2DB
330
2D5
100
AcDbEntity
  8
치수문자_일반주서
 62
     0
370
    -2
100
AcDbLine
 10
114.375
 20
26.08128719929792
 30
0.0
 11
114.375
 21
29.38328719929792
 31
0.0
  0
LINE
  5
2DC
330
2D5
100
AcDbEntity
  8
치수문자_일반주서
 62
     0
370
    -2
100
AcDbLine
 10
114.375
 20
13.47728719929792
 30
0.0
 11
114.375
 21
10.17528719929792
 31
0.0
  0
SOLID
  5
2DD
330
2D5
100
AcDbEntity
  8
치수문자_일반주서
 62
     0
100
AcDbTrace
 10
113.8246666666667
 20
26.08128719929792
 30
0.0
 11
114.9253333333333
 21
26.08128719929792
 31
0.0
 12
114.375
 22
22.77928719929792
 32
0.0
 13
114.375
 23
22.77928719929792
 33
0.0
  0
SOLID
  5
2DE
330
2D5
100
AcDbEntity
  8
치수문자_일반주서
 62
     0
100
AcDbTrace
 10
114.9253333333334
 20
13.47728719929792
 30
0.0
 11
113.8246666666667
 21
13.47728719929792
 31
0.0
 12
114.375
 22
16.77928719929792
 32
0.0
 13
114.375
 23
16.77928719929792
 33
0.0
  0
MTEXT
  5
2DF
330
2D5
100
AcDbEntity
  8
치수문자_일반주서
 62
     0
100
AcDbMText
 10
110.0
 20
32.44578719929791
 30
0.0
 40
3.5
 41
0.0
 71
     2
 72
     1
  1
\A1;%%c6
  7
SLDTEXTSTYLE0
 11
-2.368475785867000E-15
 21
1.0
 31
0.0
 73
     1
 44
1.0
  0
POINT
  5
2E0
330
2D5
100
AcDbEntity
  8
Defpoints
 62
     0
100
AcDbPoint
 10
104.375
 20
22.77928719929788
 30
0.0
  0
POINT
  5
2E1
330
2D5
100
AcDbEntity
  8
Defpoints
 62
     0
100
AcDbPoint
 10
104.375
 20
16.77928719929788
 30
0.0
  0
POINT
  5
2E2
330
2D5
100
AcDbEntity
  8
Defpoints
 62
     0
100
AcDbPoint
 10
114.375
 20
16.77928719929792
 30
0.0
  0
ENDBLK
  5
2D7
330
2D5
100
AcDbEntity
  8
0
100
AcDbBlockEnd
  0
BLOCK
  5
2E4
330
2E3
100
AcDbEntity
  8
0
100
AcDbBlockBegin
  2
*D21
 70
     1
 10
0.0
 20
0.0
 30
0.0
  3
*D21
  1

  0
LINE
  5
2E6
330
2E3
100
AcDbEntity
  8
치수문자_일반주서
 62
     0
370
    -2
100
AcDbLine
 10
14.91250000000002
 20
22.77928719929789
 30
0.0
 11
4.375000000000035
 21
22.77928719929785
 31
0.0
  0
LINE
  5
2E7
330
2E3
100
AcDbEntity
  8
치수문자_일반주서
 62
     0
370
    -2
100
AcDbLine
 10
14.91250000000002
 20
16.77928719929788
 30
0.0
 11
4.375000000000056
 21
16.77928719929784
 31
0.0
  0
LINE
  5
2E8
330
2E3
100
AcDbEntity
  8
치수문자_일반주서
 62
     0
370
    -2
100
AcDbLine
 10
4.375000000000035
 20
22.77928719929785
 30
0.0
 11
4.374999999999989
 21
35.50828719929785
 31
0.0
  0
LINE
  5
2E9
330
2E3
100
AcDbEntity
  8
치수문자_일반주서
 62
     0
370
    -2
100
AcDbLine
 10
4.375000000000035
 20
22.77928719929785
 30
0.0
 11
4.375000000000056
 21
16.77928719929784
 31
0.0
  0
LINE
  5
2EA
330
2E3
100
AcDbEntity
  8
치수문자_일반주서
 62
     0
370
    -2
100
AcDbLine
 10
4.375000000000023
 20
26.08128719929785
 30
0.0
 11
4.375000000000012
 21
29.38328719929785
 31
0.0
  0
LINE
  5
2EB
330
2E3
100
AcDbEntity
  8
치수문자_일반주서
 62
     0
370
    -2
100
AcDbLine
 10
4.375000000000068
 20
13.47728719929784
 30
0.0
 11
4.375000000000079
 21
10.17528719929784
 31
0.0
  0
SOLID
  5
2EC
330
2E3
100
AcDbEntity
  8
치수문자_일반주서
 62
     0
100
AcDbTrace
 10
3.82466666666669
 20
26.08128719929784
 30
0.0
 11
4.925333333333357
 21
26.08128719929785
 31
0.0
 12
4.375000000000035
 22
22.77928719929785
 32
0.0
 13
4.375000000000035
 23
22.77928719929785
 33
0.0
  0
SOLID
  5
2ED
330
2E3
100
AcDbEntity
  8
치수문자_일반주서
 62
     0
100
AcDbTrace
 10
4.925333333333401
 20
13.47728719929785
 30
0.0
 11
3.824666666666734
 21
13.47728719929784
 31
0.0
 12
4.375000000000056
 22
16.77928719929784
 32
0.0
 13
4.375000000000056
 23
16.77928719929784
 33
0.0
  0
MTEXT
  5
2EE
330
2E3
100
AcDbEntity
  8
치수문자_일반주서
 62
     0
100
AcDbMText
 10
0.0
 20
32.44578719929784
 30
0.0
 40
3.5
 41
0.0
 71
     2
 72
     1
  1
\A1;%%c6
  7
SLDTEXTSTYLE0
 11
-3.552713678800499E-15
 21
1.0
 31
0.0
 73
     1
 44
1.0
  0
POINT
  5
2EF
330
2E3
100
AcDbEntity
  8
Defpoints
 62
     0
100
AcDbPoint
 10
14.97500000000002
 20
22.77928719929789
 30
0.0
  0
POINT
  5
2F0
330
2E3
100
AcDbEntity
  8
Defpoints
 62
     0
100
AcDbPoint
 10
14.97500000000002
 20
16.77928719929788
 30
0.0
  0
POINT
  5
2F1
330
2E3
100
AcDbEntity
  8
Defpoints
 62
     0
100
AcDbPoint
 10
4.375000000000043
 20
16.77928719929784
 30
0.0
  0
ENDBLK
  5
2E5
330
2E3
100
AcDbEntity
  8
0
100
AcDbBlockEnd
  0
BLOCK
  5
2F3
330
2F2
100
AcDbEntity
  8
0
100
AcDbBlockBegin
  2
*D22
 70
     1
 10
0.0
 20
0.0
 30
0.0
  3
*D22
  1

  0
LINE
  5
2F5
330
2F2
100
AcDbEntity
  8
치수문자_일반주서
 62
     0
370
    -2
100
AcDbLine
 10
104.375
 20
22.84178719929788
 30
0.0
 11
104.375
 21
32.77928719929788
 31
0.0
  0
LINE
  5
2F6
330
2F2
100
AcDbEntity
  8
치수문자_일반주서
 62
     0
370
    -2
100
AcDbLine
 10
89.37500000000006
 20
22.79903852433624
 30
0.0
 11
89.37500000000006
 21
32.77928719929788
 31
0.0
  0
LINE
  5
2F7
330
2F2
100
AcDbEntity
  8
치수문자_일반주서
 62
     0
370
    -2
100
AcDbLine
 10
101.073
 20
32.77928719929788
 30
0.0
 11
92.67700000000005
 21
32.77928719929788
 31
0.0
  0
SOLID
  5
2F8
330
2F2
100
AcDbEntity
  8
치수문자_일반주서
 62
     0
100
AcDbTrace
 10
101.073
 20
32.22895386596455
 30
0.0
 11
101.073
 21
33.32962053263122
 31
0.0
 12
104.375
 22
32.77928719929788
 32
0.0
 13
104.375
 23
32.77928719929788
 33
0.0
  0
SOLID
  5
2F9
330
2F2
100
AcDbEntity
  8
치수문자_일반주서
 62
     0
100
AcDbTrace
 10
92.67700000000005
 20
33.32962053263122
 30
0.0
 11
92.67700000000005
 21
32.22895386596455
 31
0.0
 12
89.37500000000006
 22
32.77928719929788
 32
0.0
 13
89.37500000000006
 23
32.77928719929788
 33
0.0
  0
MTEXT
  5
2FA
330
2F2
100
AcDbEntity
  8
치수문자_일반주서
 62
     0
100
AcDbMText
 10
96.87500000000004
 20
37.15428719929788
 30
0.0
 40
3.5
 41
0.0
 71
     2
 72
     1
  1
\A1;15
  7
SLDTEXTSTYLE0
 73
     1
 44
1.0
  0
POINT
  5
2FB
330
2F2
100
AcDbEntity
  8
Defpoints
 62
     0
100
AcDbPoint
 10
104.375
 20
22.77928719929788
 30
0.0
  0
POINT
  5
2FC
330
2F2
100
AcDbEntity
  8
Defpoints
 62
     0
100
AcDbPoint
 10
89.37500000000006
 20
22.73653852433624
 30
0.0
  0
POINT
  5
2FD
330
2F2
100
AcDbEntity
  8
Defpoints
 62
     0
100
AcDbPoint
 10
89.37500000000006
 20
32.77928719929788
 30
0.0
  0
ENDBLK
  5
2F4
330
2F2
100
AcDbEntity
  8
0
100
AcDbBlockEnd
  0
BLOCK
  5
2FF
330
2FE
100
AcDbEntity
  8
0
100
AcDbBlockBegin
  2
*D23
 70
     1
 10
0.0
 20
0.0
 30
0.0
  3
*D23
  1

  0
LINE
  5
301
330
2FE
100
AcDbEntity
  8
치수문자_일반주서
 62
     0
370
    -2
100
AcDbLine
 10
104.375
 20
22.84178719929788
 30
0.0
 11
104.375
 21
42.77928719929788
 31
0.0
  0
LINE
  5
302
330
2FE
100
AcDbEntity
  8
치수문자_일반주서
 62
     0
370
    -2
100
AcDbLine
 10
14.37500000000003
 20
22.24178719929789
 30
0.0
 11
14.37500000000003
 21
42.77928719929788
 31
0.0
  0
LINE
  5
303
330
2FE
100
AcDbEntity
  8
치수문자_일반주서
 62
     0
370
    -2
100
AcDbLine
 10
101.073
 20
42.77928719929788
 30
0.0
 11
17.67700000000003
 21
42.77928719929788
 31
0.0
  0
SOLID
  5
304
330
2FE
100
AcDbEntity
  8
치수문자_일반주서
 62
     0
100
AcDbTrace
 10
101.073
 20
42.22895386596455
 30
0.0
 11
101.073
 21
43.32962053263122
 31
0.0
 12
104.375
 22
42.77928719929788
 32
0.0
 13
104.375
 23
42.77928719929788
 33
0.0
  0
SOLID
  5
305
330
2FE
100
AcDbEntity
  8
치수문자_일반주서
 62
     0
100
AcDbTrace
 10
17.67700000000003
 20
43.32962053263122
 30
0.0
 11
17.67700000000003
 21
42.22895386596455
 31
0.0
 12
14.37500000000003
 22
42.77928719929788
 32
0.0
 13
14.37500000000003
 23
42.77928719929788
 33
0.0
  0
MTEXT
  5
306
330
2FE
100
AcDbEntity
  8
치수문자_일반주서
 62
     0
100
AcDbMText
 10
59.37500000000004
 20
47.15428719929788
 30
0.0
 40
3.5
 41
0.0
 71
     2
 72
     1
  1
\A1;90
  7
SLDTEXTSTYLE0
 73
     1
 44
1.0
  0
POINT
  5
307
330
2FE
100
AcDbEntity
  8
Defpoints
 62
     0
100
AcDbPoint
 10
104.375
 20
22.77928719929788
 30
0.0
  0
POINT
  5
308
330
2FE
100
AcDbEntity
  8
Defpoints
 62
     0
100
AcDbPoint
 10
14.37500000000003
 20
22.17928719929789
 30
0.0
  0
POINT
  5
309
330
2FE
100
AcDbEntity
  8
Defpoints
 62
     0
100
AcDbPoint
 10
14.37500000000003
 20
42.77928719929788
 30
0.0
  0
ENDBLK
  5
300
330
2FE
100
AcDbEntity
  8
0
100
AcDbBlockEnd
  0
BLOCK
  5
341
330
340
100
AcDbEntity
  8
0
100
AcDbBlockBegin
  2
*D24
 70
     1
 10
0.0
 20
0.0
 30
0.0
  3
*D24
  1

  0
LINE
  5
343
330
340
100
AcDbEntity
  8
치수문자_일반주서
 62
     0
370
    -2
100
AcDbLine
 10
24.99551270189221
 20
3.001074928723888
 30
0.0
 11
34.93301270189222
 21
3.001074928723925
 31
0.0
  0
LINE
  5
344
330
340
100
AcDbEntity
  8
치수문자_일반주서
 62
     0
370
    -2
100
AcDbLine
 10
24.99551270189221
 20
-2.998925071276112
 30
0.0
 11
34.93301270189224
 21
-2.998925071276075
 31
0.0
  0
LINE
  5
345
330
340
100
AcDbEntity
  8
치수문자_일반주서
 62
     0
370
    -2
100
AcDbLine
 10
34.93301270189222
 20
3.001074928723925
 30
0.0
 11
34.93301270189217
 21
15.73007492872393
 31
0.0
  0
LINE
  5
346
330
340
100
AcDbEntity
  8
치수문자_일반주서
 62
     0
370
    -2
100
AcDbLine
 10
34.9330127018922
 20
6.303074928723925
 30
0.0
 11
34.93301270189219
 21
9.605074928723925
 31
0.0
  0
LINE
  5
347
330
340
100
AcDbEntity
  8
치수문자_일반주서
 62
     0
370
    -2
100
AcDbLine
 10
34.93301270189225
 20
-6.300925071276074
 30
0.0
 11
34.93301270189227
 21
-9.602925071276074
 31
0.0
  0
SOLID
  5
348
330
340
100
AcDbEntity
  8
치수문자_일반주서
 62
     0
100
AcDbTrace
 10
34.38267936855887
 20
6.303074928723923
 30
0.0
 11
35.48334603522554
 21
6.303074928723927
 31
0.0
 12
34.93301270189222
 22
3.001074928723925
 32
0.0
 13
34.93301270189222
 23
3.001074928723925
 33
0.0
  0
SOLID
  5
349
330
340
100
AcDbEntity
  8
치수문자_일반주서
 62
     0
100
AcDbTrace
 10
35.48334603522559
 20
-6.300925071276072
 30
0.0
 11
34.38267936855892
 21
-6.300925071276076
 31
0.0
 12
34.93301270189224
 22
-2.998925071276075
 32
0.0
 13
34.93301270189224
 23
-2.998925071276075
 33
0.0
  0
MTEXT
  5
34A
330
340
100
AcDbEntity
  8
치수문자_일반주서
 62
     0
100
AcDbMText
 10
30.55801270189218
 20
12.66757492872392
 30
0.0
 40
3.5
 41
0.0
 71
     2
 72
     1
  1
\A1;%%c6
  7
SLDTEXTSTYLE0
 11
-3.552713678800501E-15
 21
1.0
 31
0.0
 73
     1
 44
1.0
  0
POINT
  5
34B
330
340
100
AcDbEntity
  8
Defpoints
 62
     0
100
AcDbPoint
 10
24.93301270189221
 20
3.001074928723888
 30
0.0
  0
POINT
  5
34C
330
340
100
AcDbEntity
  8
Defpoints
 62
     0
100
AcDbPoint
 10
24.93301270189221
 20
-2.998925071276112
 30
0.0
  0
POINT
  5
34D
330
340
100
AcDbEntity
  8
Defpoints
 62
     0
100
AcDbPoint
 10
34.93301270189227
 20
-2.998925071276075
 30
0.0
  0
ENDBLK
  5
342
330
340
100
AcDbEntity
  8
0
100
AcDbBlockEnd
  0
BLOCK
  5
34F
330
34E
100
AcDbEntity
  8
0
100
AcDbBlockBegin
  2
*D25
 70
     1
 10
0.0
 20
0.0
 30
0.0
  3
*D25
  1

  0
LINE
  5
351
330
34E
100
AcDbEntity
  8
치수문자_일반주서
 62
     0
370
    -2
100
AcDbLine
 10
-84.52948729810777
 20
3.001074928723895
 30
0.0
 11
-95.06698729810776
 21
3.001074928723854
 31
0.0
  0
LINE
  5
352
330
34E
100
AcDbEntity
  8
치수문자_일반주서
 62
     0
370
    -2
100
AcDbLine
 10
-84.52948729810777
 20
-2.998925071276109
 30
0.0
 11
-95.06698729810775
 21
-2.998925071276149
 31
0.0
  0
LINE
  5
353
330
34E
100
AcDbEntity
  8
치수문자_일반주서
 62
     0
370
    -2
100
AcDbLine
 10
-95.06698729810776
 20
3.001074928723854
 30
0.0
 11
-95.0669872981078
 21
15.73007492872386
 31
0.0
  0
LINE
  5
354
330
34E
100
AcDbEntity
  8
치수문자_일반주서
 62
     0
370
    -2
100
AcDbLine
 10
-95.06698729810776
 20
3.001074928723854
 30
0.0
 11
-95.06698729810775
 21
-2.998925071276149
 31
0.0
  0
LINE
  5
355
330
34E
100
AcDbEntity
  8
치수문자_일반주서
 62
     0
370
    -2
100
AcDbLine
 10
-95.06698729810778
 20
6.303074928723854
 30
0.0
 11
-95.06698729810779
 21
9.605074928723853
 31
0.0
  0
LINE
  5
356
330
34E
100
AcDbEntity
  8
치수문자_일반주서
 62
     0
370
    -2
100
AcDbLine
 10
-95.06698729810773
 20
-6.300925071276149
 30
0.0
 11
-95.06698729810772
 21
-9.602925071276148
 31
0.0
  0
SOLID
  5
357
330
34E
100
AcDbEntity
  8
치수문자_일반주서
 62
     0
100
AcDbTrace
 10
-95.6173206314411
 20
6.303074928723853
 30
0.0
 11
-94.51665396477445
 21
6.303074928723855
 31
0.0
 12
-95.06698729810776
 22
3.001074928723854
 32
0.0
 13
-95.06698729810776
 23
3.001074928723854
 33
0.0
  0
SOLID
  5
358
330
34E
100
AcDbEntity
  8
치수문자_일반주서
 62
     0
100
AcDbTrace
 10
-94.5166539647744
 20
-6.300925071276148
 30
0.0
 11
-95.61732063144106
 21
-6.30092507127615
 31
0.0
 12
-95.06698729810775
 22
-2.998925071276149
 32
0.0
 13
-95.06698729810775
 23
-2.998925071276149
 33
0.0
  0
MTEXT
  5
359
330
34E
100
AcDbEntity
  8
치수문자_일반주서
 62
     0
100
AcDbMText
 10
-99.44198729810779
 20
12.66757492872385
 30
0.0
 40
3.5
 41
0.0
 71
     2
 72
     1
  1
\A1;%%c6
  7
SLDTEXTSTYLE0
 11
-2.368475785867000E-15
 21
1.0
 31
0.0
 73
     1
 44
1.0
  0
POINT
  5
35A
330
34E
100
AcDbEntity
  8
Defpoints
 62
     0
100
AcDbPoint
 10
-84.46698729810777
 20
3.001074928723895
 30
0.0
  0
POINT
  5
35B
330
34E
100
AcDbEntity
  8
Defpoints
 62
     0
100
AcDbPoint
 10
-84.46698729810777
 20
-2.998925071276108
 30
0.0
  0
POINT
  5
35C
330
34E
100
AcDbEntity
  8
Defpoints
 62
     0
100
AcDbPoint
 10
-95.06698729810775
 20
-2.998925071276148
 30
0.0
  0
ENDBLK
  5
350
330
34E
100
AcDbEntity
  8
0
100
AcDbBlockEnd
  0
BLOCK
  5
35E
330
35D
100
AcDbEntity
  8
0
100
AcDbBlockBegin
  2
*D26
 70
     1
 10
0.0
 20
0.0
 30
0.0
  3
*D26
  1

  0
LINE
  5
360
330
35D
100
AcDbEntity
  8
치수문자_일반주서
 62
     0
370
    -2
100
AcDbLine
 10
24.93301270189221
 20
3.063574928723888
 30
0.0
 11
24.93301270189221
 21
13.00107492872389
 31
0.0
  0
LINE
  5
361
330
35D
100
AcDbEntity
  8
치수문자_일반주서
 62
     0
370
    -2
100
AcDbLine
 10
9.933012701892267
 20
3.020826253762245
 30
0.0
 11
9.933012701892267
 21
13.00107492872389
 31
0.0
  0
LINE
  5
362
330
35D
100
AcDbEntity
  8
치수문자_일반주서
 62
     0
370
    -2
100
AcDbLine
 10
21.63101270189221
 20
13.00107492872389
 30
0.0
 11
13.23501270189227
 21
13.00107492872389
 31
0.0
  0
SOLID
  5
363
330
35D
100
AcDbEntity
  8
치수문자_일반주서
 62
     0
100
AcDbTrace
 10
21.63101270189221
 20
12.45074159539056
 30
0.0
 11
21.63101270189221
 21
13.55140826205722
 31
0.0
 12
24.93301270189221
 22
13.00107492872389
 32
0.0
 13
24.93301270189221
 23
13.00107492872389
 33
0.0
  0
SOLID
  5
364
330
35D
100
AcDbEntity
  8
치수문자_일반주서
 62
     0
100
AcDbTrace
 10
13.23501270189227
 20
13.55140826205722
 30
0.0
 11
13.23501270189227
 21
12.45074159539056
 31
0.0
 12
9.933012701892267
 22
13.00107492872389
 32
0.0
 13
9.933012701892267
 23
13.00107492872389
 33
0.0
  0
MTEXT
  5
365
330
35D
100
AcDbEntity
  8
치수문자_일반주서
 62
     0
100
AcDbMText
 10
17.43301270189227
 20
17.37607492872389
 30
0.0
 40
3.5
 41
0.0
 71
     2
 72
     1
  1
\A1;15
  7
SLDTEXTSTYLE0
 73
     1
 44
1.0
  0
POINT
  5
366
330
35D
100
AcDbEntity
  8
Defpoints
 62
     0
100
AcDbPoint
 10
24.93301270189221
 20
3.001074928723888
 30
0.0
  0
POINT
  5
367
330
35D
100
AcDbEntity
  8
Defpoints
 62
     0
100
AcDbPoint
 10
9.933012701892267
 20
2.958326253762245
 30
0.0
  0
POINT
  5
368
330
35D
100
AcDbEntity
  8
Defpoints
 62
     0
100
AcDbPoint
 10
9.933012701892267
 20
13.00107492872389
 30
0.0
  0
ENDBLK
  5
35F
330
35D
100
AcDbEntity
  8
0
100
AcDbBlockEnd
  0
BLOCK
  5
36A
330
369
100
AcDbEntity
  8
0
100
AcDbBlockBegin
  2
*D27
 70
     1
 10
0.0
 20
0.0
 30
0.0
  3
*D27
  1

  0
LINE
  5
36C
330
369
100
AcDbEntity
  8
치수문자_일반주서
 62
     0
370
    -2
100
AcDbLine
 10
24.93301270189221
 20
3.063574928723888
 30
0.0
 11
24.93301270189221
 21
23.00107492872389
 31
0.0
  0
LINE
  5
36D
330
369
100
AcDbEntity
  8
치수문자_일반주서
 62
     0
370
    -2
100
AcDbLine
 10
-85.06698729810776
 20
2.463574928723894
 30
0.0
 11
-85.06698729810776
 21
23.00107492872389
 31
0.0
  0
LINE
  5
36E
330
369
100
AcDbEntity
  8
치수문자_일반주서
 62
     0
370
    -2
100
AcDbLine
 10
21.63101270189221
 20
23.00107492872389
 30
0.0
 11
-81.76498729810777
 21
23.00107492872389
 31
0.0
  0
SOLID
  5
36F
330
369
100
AcDbEntity
  8
치수문자_일반주서
 62
     0
100
AcDbTrace
 10
21.63101270189221
 20
22.45074159539056
 30
0.0
 11
21.63101270189221
 21
23.55140826205723
 31
0.0
 12
24.93301270189221
 22
23.00107492872389
 32
0.0
 13
24.93301270189221
 23
23.00107492872389
 33
0.0
  0
SOLID
  5
370
330
369
100
AcDbEntity
  8
치수문자_일반주서
 62
     0
100
AcDbTrace
 10
-81.76498729810777
 20
23.55140826205723
 30
0.0
 11
-81.76498729810777
 21
22.45074159539056
 31
0.0
 12
-85.06698729810776
 22
23.00107492872389
 32
0.0
 13
-85.06698729810776
 23
23.00107492872389
 33
0.0
  0
MTEXT
  5
371
330
369
100
AcDbEntity
  8
치수문자_일반주서
 62
     0
100
AcDbMText
 10
-30.06698729810778
 20
27.37607492872389
 30
0.0
 40
3.5
 41
0.0
 71
     2
 72
     1
  1
\A1;110
  7
SLDTEXTSTYLE0
 73
     1
 44
1.0
  0
POINT
  5
372
330
369
100
AcDbEntity
  8
Defpoints
 62
     0
100
AcDbPoint
 10
24.93301270189221
 20
3.001074928723888
 30
0.0
  0
POINT
  5
373
330
369
100
AcDbEntity
  8
Defpoints
 62
     0
100
AcDbPoint
 10
-85.06698729810776
 20
2.401074928723894
 30
0.0
  0
POINT
  5
374
330
369
100
AcDbEntity
  8
Defpoints
 62
     0
100
AcDbPoint
 10
-85.06698729810776
 20
23.00107492872389
 30
0.0
  0
ENDBLK
  5
36B
330
369
100
AcDbEntity
  8
0
100
AcDbBlockEnd
  0
BLOCK
  5
376
330
375
100
AcDbEntity
  8
0
100
AcDbBlockBegin
  2
*D28
 70
     1
 10
0.0
 20
0.0
 30
0.0
  3
*D28
  1

  0
LINE
  5
378
330
375
100
AcDbEntity
  8
치수문자_일반주서
 62
     0
370
    -2
100
AcDbLine
 10
25.89982779636706
 20
-5.704031913160867
 30
0.0
 11
33.13474020155752
 21
-19.77821227057405
 31
0.0
  0
MTEXT
  5
379
330
375
100
AcDbEntity
  8
치수문자_일반주서
 62
     0
100
AcDbMText
 10
34.26922524847259
 20
-16.24349959790515
 30
0.0
 40
3.5
 41
0.0
 71
     5
 72
     1
  1
\A1;R1
  7
SLDTEXTSTYLE0
 11
0.4571862144293014
 21
-0.88937099420647
 31
0.0
 73
     1
 44
1.0
  0
SOLID
  5
37A
330
375
100
AcDbEntity
  8
치수문자_일반주서
 62
     0
100
AcDbTrace
 10
26.38927830017869
 20
-5.452427099819942
 30
0.0
 11
25.41037729255543
 21
-5.955636726501793
 31
0.0
 12
24.39019891632151
 22
-2.767328890291104
 32
0.0
 13
24.39019891632151
 23
-2.767328890291104
 33
0.0
  0
LINE
  5
37B
330
375
100
AcDbEntity
  8
치수문자_일반주서
 62
     0
100
AcDbLine
 10
23.84301270189221
 20
-1.877957896084638
 30
0.0
 11
24.02301270189221
 21
-1.877957896084638
 31
0.0
  0
LINE
  5
37C
330
375
100
AcDbEntity
  8
치수문자_일반주서
 62
     0
100
AcDbLine
 10
23.93301270189221
 20
-1.967957896084638
 30
0.0
 11
23.93301270189221
 21
-1.787957896084638
 31
0.0
  0
POINT
  5
37D
330
375
100
AcDbEntity
  8
Defpoints
 62
     0
100
AcDbPoint
 10
24.39019891632151
 20
-2.767328890291104
 30
0.0
  0
POINT
  5
37E
330
375
100
AcDbEntity
  8
Defpoints
 62
     0
100
AcDbPoint
 10
23.93301270189221
 20
-1.877957896084638
 30
0.0
  0
ENDBLK
  5
377
330
375
100
AcDbEntity
  8
0
100
AcDbBlockEnd
  0
ENDSEC
  0
SECTION
  2
ENTITIES
  0
LINE
  5
C4
330
1F
100
AcDbEntity
  8
참조1
100
AcDbLine
 10
-15.77564223695981
 20
-2.499999999999974
 30
0.0
 11
-15.7756422369598
 21
-40.0
 31
0.0
  0
LINE
  5
C5
330
1F
100
AcDbEntity
  8
참조1
100
AcDbLine
 10
-15.7756422369598
 20
-40.0
 30
0.0
 11
-30.93398568371225
 21
-40.0
 31
0.0
  0
INSERT
  5
C7
330
1F
100
AcDbEntity
  8
0
  6
Continuous
 62
     7
100
AcDbBlockReference
 66
     1
  2
블럭10
 10
-29.71591516908501
 20
-52.04717430164393
 30
0.0
  0
ATTRIB
  5
C8
330
C7
100
AcDbEntity
  8
FORMAT
 62
     2
100
AcDbText
 10
-50.57416270067755
 20
-49.97180738881174
 30
0.0
 40
4.233333333333333
  1
SEME0106010110E [ 4 FLUTE ]
 41
0.75
  7
SLDTEXTSTYLE0
 11
-50.57416270067755
 21
-52.08847405547841
 31
0.0
100
AcDbAttribute
  2
AUTOATTR0
 70
     0
 74
     1
  0
SEQEND
  5
C9
330
C7
100
AcDbEntity
  8
0
  6
Continuous
 62
     7
  0
HATCH
  5
CA
330
1F
100
AcDbEntity
  8
중심선
100
AcDbHatch
 10
0.0
 20
0.0
 30
0.0
210
0.0
220
0.0
230
1.0
  2
SOLID
 70
     1
 71
     0
 91
        1
 92
        0
 93
        4
 72
     1
 10
-24.00100586470416
 20
-35.8
 11
-27.44728110854144
 21
-35.8
 72
     1
 10
-27.44728110854144
 20
-35.8
 11
-29.57551096774547
 21
-38.33632558057259
 72
     1
 10
-29.57551096774547
 20
-38.33632558057259
 11
-26.12920263879504
 21
-38.3362861512701
 72
     1
 10
-26.12920263879504
 20
-38.3362861512701
 11
-24.00100586470416
 21
-35.8
 97
        0
 75
     0
 76
     1
 98
        1
 10
0.0
 20
0.0
  0
HATCH
  5
CB
330
1F
100
AcDbEntity
  8
중심선
100
AcDbHatch
 10
0.0
 20
0.0
 30
0.0
210
0.0
220
0.0
230
1.0
  2
SOLID
 70
     1
 71
     0
 91
        1
 92
        0
 93
        4
 72
     1
 10
-18.98824187366821
 20
-35.8
 11
-22.43451711750549
 21
-35.8
 72
     1
 10
-22.43451711750549
 20
-35.8
 11
-26.96565512586288
 21
-41.20000000000002
 72
     1
 10
-26.96565512586288
 20
-41.20000000000002
 11
-23.5193798820256
 21
-41.20000000000002
 72
     1
 10
-23.5193798820256
 20
-41.20000000000002
 11
-18.98824187366821
 21
-35.8
 97
        0
 75
     0
 76
     1
 98
        1
 10
0.0
 20
0.0
  0
HATCH
  5
CC
330
1F
100
AcDbEntity
  8
중심선
100
AcDbHatch
 10
0.0
 20
0.0
 30
0.0
210
0.0
220
0.0
230
1.0
  2
SOLID
 70
     1
 71
     0
 91
        1
 92
        0
 93
        4
 72
     1
 10
-13.97547788263232
 20
-35.80000000000003
 11
-17.42175312646943
 21
-35.8
 72
     1
 10
-17.42175312646943
 20
-35.8
 11
-24.47019002835868
 21
-44.20000000000002
 72
     1
 10
-24.47019002835868
 20
-44.20000000000002
 11
-21.0239147845214
 21
-44.20000000000002
 72
     1
 10
-21.0239147845214
 20
-44.20000000000002
 11
-13.97547788263232
 21
-35.80000000000003
 97
        0
 75
     0
 76
     1
 98
        1
 10
0.0
 20
0.0
  0
HATCH
  5
CD
330
1F
100
AcDbEntity
  8
중심선
100
AcDbHatch
 10
0.0
 20
0.0
 30
0.0
210
0.0
220
0.0
230
1.0
  2
SOLID
 70
     1
 71
     0
 91
        1
 92
        0
 93
        6
 72
     3
 10
-9.175587451620116
 20
-40.00000000005127
 11
3.960054785062284
 21
1.540850780301639E-10
 40
0.3939339440162633
 50
17.09539180608433
 51
320.0019657685079
 73
     0
 72
     1
 10
-7.49258779591952
 20
-38.5878940046383
 11
-5.187285922218482
 21
-36.65356729459038
 72
     3
 10
-9.175587451672962
 20
-40.00000000000015
 11
6.600054785286829
 21
-1.249000902703301E-13
 40
0.6363583540795982
 50
39.99873849337408
 51
368.4976242363725
 73
     1
 72
     1
 10
-2.750254959772352
 20
-39.03999999993002
 11
-10.49552014483704
 21
-39.03999999992999
 72
     1
 10
-10.49552014483704
 20
-39.03999999992999
 11
-10.49554518928297
 21
-40.95999999992991
 72
     1
 10
-10.49554518928297
 20
-40.95999999992991
 11
-6.054165419810936
 21
-40.95999999992988
 97
        0
 75
     0
 76
     1
 98
        1
 10
0.0
 20
0.0
  0
LINE
  5
100
330
1F
100
AcDbEntity
  8
참조1
100
AcDbLine
 10
67.03835494594202
 20
7.440000000000002
 30
0.0
 11
67.03835494594202
 21
-7.440000000000002
 31
0.0
  0
LINE
  5
101
330
1F
100
AcDbEntity
  8
참조1
100
AcDbLine
 10
79.73835494594202
 20
5.440000000000002
 30
0.0
 11
67.03835494594202
 21
5.440000000000002
 31
0.0
  0
SOLID
  5
102
330
1F
100
AcDbEntity
  8
참조1
100
AcDbTrace
 10
67.03835494594202
 20
5.440000000000002
 30
0.0
 11
73.38835494594201
 21
4.424000000000002
 31
0.0
 12
73.38835494594201
 22
6.456000000000002
 32
0.0
 13
73.38835494594201
 23
6.456000000000002
 33
0.0
  0
LINE
  5
103
330
1F
100
AcDbEntity
  8
참조1
100
AcDbLine
 10
79.73835494594202
 20
-5.440000000000002
 30
0.0
 11
67.03835494594202
 21
-5.440000000000002
 31
0.0
  0
SOLID
  5
104
330
1F
100
AcDbEntity
  8
참조1
100
AcDbTrace
 10
67.03835494594202
 20
-5.440000000000002
 30
0.0
 11
73.38835494594201
 21
-6.456000000000002
 31
0.0
 12
73.38835494594201
 22
-4.424000000000002
 32
0.0
 13
73.38835494594201
 23
-4.424000000000002
 33
0.0
  0
MTEXT
  5
105
330
1F
100
AcDbEntity
  8
참조1
100
AcDbMText
 10
76.4358450384123
 20
10.98821664464994
 30
0.0
 40
3.5
 41
0.0
 71
     1
 72
     1
  1
A
  7
SLDTEXTSTYLE0
 73
     1
 44
1.0
  0
MTEXT
  5
106
330
1F
100
AcDbEntity
  8
참조1
100
AcDbMText
 10
76.4358450384123
 20
0.1082166446499328
 30
0.0
 40
3.5
 41
0.0
 71
     1
 72
     1
  1
A
  7
SLDTEXTSTYLE0
 73
     1
 44
1.0
  0
LINE
  5
30B
330
1F
100
AcDbEntity
  8
0
  6
Continuous
 62
     1
370
    15
100
AcDbLine
 10
10.88473541331848
 20
3.001074928723892
 30
0.0
 11
9.933012701892238
 21
3.001074928723892
 31
0.0
1001
PE_URL
1000

  0
LINE
  5
30C
330
1F
100
AcDbEntity
  8
0
  6
Continuous
 62
     1
370
    15
100
AcDbLine
 10
17.21715002007579
 20
-2.998925071276108
 30
0.0
 11
19.04618541119049
 21
-2.998925071276108
 31
0.0
1001
PE_URL
1000

  0
LINE
  5
30D
330
1F
100
AcDbEntity
  8
0
  6
Continuous
 62
     1
370
    15
100
AcDbLine
 10
19.04618541119052
 20
3.001074928723892
 30
0.0
 11
17.21715002007585
 21
3.001074928723892
 31
0.0
1001
PE_URL
1000

  0
LINE
  5
30E
330
1F
100
AcDbEntity
  8
0
  6
Continuous
 62
     1
370
    15
100
AcDbLine
 10
9.933012701892238
 20
-2.998925071276108
 30
0.0
 11
10.88473541331842
 21
-2.998925071276108
 31
0.0
1001
PE_URL
1000

  0
LINE
  5
30F
330
1F
100
AcDbEntity
  8
외형선
  6
Continuous
370
    15
100
AcDbLine
 10
9.054084291549714
 20
-2.998925071276108
 30
0.0
 11
9.933012701892238
 21
-2.998925071276108
 31
0.0
  0
LINE
  5
310
330
1F
100
AcDbEntity
  8
외형선
  6
Continuous
370
    15
100
AcDbLine
 10
-84.46698729810775
 20
-2.998925071276108
 30
0.0
 11
8.932863361860228
 21
-2.998925071276108
 31
0.0
  0
LINE
  5
311
330
1F
100
AcDbEntity
  8
외형선
  6
Continuous
370
    15
100
AcDbLine
 10
8.932863361860228
 20
3.001074928723892
 30
0.0
 11
-84.46698729810774
 21
3.001074928723892
 31
0.0
  0
LINE
  5
312
330
1F
100
AcDbEntity
  8
외형선
  6
Continuous
370
    15
100
AcDbLine
 10
9.933012701892238
 20
3.001074928723892
 30
0.0
 11
9.054084291549799
 21
3.001074928723892
 31
0.0
  0
LINE
  5
313
330
1F
100
AcDbEntity
  8
외형선
  6
Continuous
370
    15
100
AcDbLine
 10
-84.46698729810775
 20
3.001074928723892
 30
0.0
 11
-85.06698729810776
 21
2.401074928723894
 31
0.0
  0
LINE
  5
314
330
1F
100
AcDbEntity
  8
외형선
  6
Continuous
370
    15
100
AcDbLine
 10
-85.06698729810776
 20
-2.398925071276111
 30
0.0
 11
-84.46698729810775
 21
-2.998925071276108
 31
0.0
  0
SPLINE
  5
315
330
1F
100
AcDbEntity
  8
0
  6
Continuous
 62
     1
370
    15
100
AcDbSpline
210
0.0
220
0.0
230
1.0
 70
     8
 71
     3
 72
    17
 73
    13
 74
     0
 42
0.000000001
 43
0.00000001
 40
0.0
 40
0.0
 40
0.0
 40
0.0
 40
0.1064489979444121
 40
0.2128916339729887
 40
0.3193284750883582
 40
0.4257600912175876
 40
0.5321870549294306
 40
0.6386099411487296
 40
0.7389410376009602
 40
0.8392600268468658
 40
0.9395749007414093
 40
1.0
 40
1.0
 40
1.0
 40
1.0
 10
9.933012701892267
 20
0.5470387849009946
 30
0.0
 10
10.36872392718658
 20
0.296391249508428
 30
0.0
 10
11.24012033752865
 20
-0.2048888413468255
 30
0.0
 10
12.54715838137679
 20
-0.9530647621889976
 30
0.0
 10
13.85411113191711
 20
-1.638728903802431
 30
0.0
 10
15.16099096550215
 20
-2.221830396961817
 30
0.0
 10
16.46778605632892
 20
-2.665016764005163
 30
0.0
 10
17.74966201494578
 20
-2.93477379155539
 30
0.0
 10
19.00631738253799
 20
-3.028086183416537
 30
0.0
 10
20.23799053534896
 20
-2.944047621767194
 30
0.0
 10
21.306330057362
 20
-2.747766255701176
 30
0.0
 10
21.96414214040357
 20
-2.5258066818731
 30
0.0
 10
22.21142574778241
 20
-2.442368013713196
 30
0.0
1001
PE_URL
1000

  0
SPLINE
  5
316
330
1F
100
AcDbEntity
  8
외형선
  6
Continuous
370
    15
100
AcDbSpline
210
0.0
220
0.0
230
1.0
 70
    24
 71
     3
 72
    14
 73
    10
 74
     0
 42
0.000000001
 43
0.00000001
 40
0.0
 40
0.0
 40
0.0
 40
0.0
 40
0.1548596126518383
 40
0.3179280988996327
 40
0.48099658514743
 40
0.6440650713952293
 40
0.8071335576430252
 40
0.9702020438908195
 40
0.9999999999999999
 40
0.9999999999999999
 40
0.9999999999999999
 40
0.9999999999999999
 10
9.933012701892267
 20
2.958326253762245
 30
0.0
 10
9.933012701892238
 20
2.779191594540933
 30
0.0
 10
9.933012701892153
 20
2.411426619038206
 30
0.0
 10
9.933012701892267
 20
1.800395090478496
 30
0.0
 10
9.933012701892295
 20
1.224778369848604
 30
0.0
 10
9.933012701892238
 20
0.7454458787198845
 30
0.0
 10
9.933012701892238
 20
0.4414776016723359
 30
0.0
 10
9.933012701892181
 20
0.3104886232736845
 30
0.0
 10
9.93301270189221
 20
0.347221738531676
 30
0.0
 10
9.933012701892238
 20
0.3528970221260366
 30
0.0
  0
SPLINE
  5
317
330
1F
100
AcDbEntity
  8
0
  6
Continuous
 62
     1
370
    15
100
AcDbSpline
210
0.0
220
0.0
230
1.0
 70
     8
 71
     3
 72
    38
 73
    34
 74
     0
 42
0.000000001
 43
0.00000001
 40
0.0
 40
0.0
 40
0.0
 40
0.0
 40
0.0625
 40
0.0625
 40
0.125
 40
0.125
 40
0.1875
 40
0.1875
 40
0.25
 40
0.25
 40
0.3125
 40
0.3125
 40
0.375
 40
0.375
 40
0.4375
 40
0.4375
 40
0.5
 40
0.5
 40
0.5625
 40
0.5625
 40
0.625
 40
0.625
 40
0.6875
 40
0.6875
 40
0.75
 40
0.75
 40
0.8125
 40
0.8125
 40
0.875
 40
0.875
 40
0.9375
 40
0.9375
 40
1.0
 40
1.0
 40
1.0
 40
1.0
 10
23.6280674585071
 20
-2.830327781442634
 30
0.0
 10
23.61371536004191
 20
-2.825612478454889
 30
0.0
 10
23.35238974184654
 20
-2.777740005702451
 30
0.0
 10
22.7669460567538
 20
-2.632157627866775
 30
0.0
 10
22.47364293991296
 20
-2.546427817324616
 30
0.0
 10
21.89463508412774
 20
-2.352627987127914
 30
0.0
 10
21.60051208509017
 20
-2.243607642442878
 30
0.0
 10
21.01542938712632
 20
-2.005706303941832
 30
0.0
 10
20.72708801191939
 20
-1.877296299592331
 30
0.0
 10
20.14231078828271
 20
-1.602788932826957
 30
0.0
 10
19.84806285325502
 20
-1.456949390426892
 30
0.0
 10
19.26826708758077
 20
-1.154383238275003
 30
0.0
 10
18.97585701091717
 20
-0.9964881400999772
 30
0.0
 10
18.39022780333903
 20
-0.6725838528730321
 30
0.0
 10
18.10150534138697
 20
-0.5074402824556543
 30
0.0
 10
17.51769001643419
 20
-0.1727233595938351
 30
0.0
 10
17.22323949743503
 20
-0.0032611044874429
 30
0.0
 10
16.64169958115082
 20
0.3327026366637291
 30
0.0
 10
16.35111863402594
 20
0.4998775943190701
 30
0.0
 10
15.76523979295632
 20
0.828829113521877
 30
0.0
 10
15.47559433212115
 20
0.9895450017469862
 30
0.0
 10
14.89303472162959
 20
1.300763377105138
 30
0.0
 10
14.59853280985277
 20
1.451499257309088
 30
0.0
 10
14.01553873612283
 20
1.73684040140407
 30
0.0
 10
13.72624813182705
 20
1.871641533483132
 30
0.0
 10
13.14041695547377
 20
2.123399219422996
 30
0.0
 10
12.84930813665653
 20
2.239538055331995
 30
0.0
 10
12.26829594458559
 20
2.449541999343076
 30
0.0
 10
11.9738939197716
 20
2.54388376383778
 30
0.0
 10
11.38973812259155
 20
2.707132624647087
 30
0.0
 10
11.10119690513662
 20
2.776055619008829
 30
0.0
 10
10.51571061109792
 20
2.887704480615664
 30
0.0
 10
10.22260053411128
 20
2.930065479882057
 30
0.0
 10
9.933012701892949
 20
2.958326253757338
 30
0.0
1001
PE_URL
1000

  0
LINE
  5
318
330
1F
100
AcDbEntity
  8
0
  6
Continuous
 62
     1
370
    15
100
AcDbLine
 10
24.93301270189227
 20
-1.819962064752964
 30
0.0
 11
24.93301270189227
 21
0.1954452555341071
 31
0.0
1001
PE_URL
1000

  0
SPLINE
  5
319
330
1F
100
AcDbEntity
  8
0
  6
Continuous
 62
     1
370
    15
100
AcDbSpline
210
0.0
220
0.0
230
1.0
 70
     8
 71
     3
 72
    14
 73
    10
 74
     0
 42
0.000000001
 43
0.00000001
 40
0.0
 40
0.0
 40
0.0
 40
0.0
 40
0.25
 40
0.25
 40
0.5
 40
0.5
 40
0.75
 40
0.75
 40
1.0
 40
1.0
 40
1.0
 40
1.0
 10
23.93301270189227
 20
-2.422786107577132
 30
0.0
 10
24.05844904278445
 20
-2.465418326873937
 30
0.0
 10
24.17745625646887
 20
-2.489685206327081
 30
0.0
 10
24.40590501389522
 20
-2.495719792443822
 30
0.0
 10
24.51101208124123
 20
-2.477317835957752
 30
0.0
 10
24.70104914147993
 20
-2.38425428583875
 30
0.0
 10
24.78375508232065
 20
-2.308968375541291
 30
0.0
 10
24.90090070329643
 20
-2.098639381719046
 30
0.0
 10
24.93301270189227
 20
-1.963108362993228
 30
0.0
 10
24.93301270189227
 20
-1.819962064752961
 30
0.0
1001
PE_URL
1000

  0
SPLINE
  5
31A
330
1F
100
AcDbEntity
  8
0
  6
Continuous
 62
     1
370
    15
100
AcDbSpline
210
0.0
220
0.0
230
1.0
 70
     8
 71
     3
 72
    18
 73
    14
 74
     0
 42
0.000000001
 43
0.00000001
 40
0.0
 40
0.0
 40
0.0
 40
0.0
 40
0.0272352352557716
 40
0.1273959229319649
 40
0.2275511576946126
 40
0.3277014758352709
 40
0.427847416131279
 40
0.5279895195770141
 40
0.6223993537459469
 40
0.7167977952422016
 40
0.8111923642636848
 40
0.9055905922438718
 40
0.9999999999999999
 40
0.9999999999999999
 40
0.9999999999999999
 40
0.9999999999999999
 10
10.88473541331848
 20
2.98232981564998
 30
0.0
 10
11.00320476651243
 20
2.987853099081665
 30
0.0
 10
11.55735869422983
 20
3.013688888043518
 30
0.0
 10
12.54715781439535
 20
2.86983486492856
 30
0.0
 10
13.85411128486751
 20
2.553512487475086
 30
0.0
 10
15.16099092064167
 20
2.062089291840774
 30
0.0
 10
16.46778608282915
 20
1.444904289159396
 30
0.0
 10
17.74966195547739
 20
0.7493127866832516
 30
0.0
 10
19.00631758150985
 20
0.0245526375281777
 30
0.0
 10
20.23798979391245
 20
-0.6879358878601671
 30
0.0
 10
21.46959087336762
 20
-1.359230818296147
 30
0.0
 10
22.70124877031242
 20
-1.964169242911151
 30
0.0
 10
23.5224085170529
 20
-2.269907784838608
 30
0.0
 10
23.93301270189224
 20
-2.422786107577132
 30
0.0
1001
PE_URL
1000

  0
SPLINE
  5
31B
330
1F
100
AcDbEntity
  8
0
  6
Continuous
 62
     1
370
    15
100
AcDbSpline
210
0.0
220
0.0
230
1.0
 70
     8
 71
     3
 72
    15
 73
    11
 74
     0
 42
0.000000001
 43
0.00000001
 40
0.0
 40
0.0
 40
0.0
 40
0.0
 40
0.1323461638261492
 40
0.2646887430396393
 40
0.3970284593764121
 40
0.5293660360290802
 40
0.6617021972797008
 40
0.7940376681313185
 40
0.9187936877383336
 40
1.0
 40
1.0
 40
1.0
 40
1.0
 10
23.93301270189227
 20
0.8246611968605428
 30
0.0
 10
23.49744854477399
 20
1.061441586355539
 30
0.0
 10
22.62633202784789
 20
1.534995952118599
 30
0.0
 10
21.31968156404696
 20
2.13492069761643
 30
0.0
 10
20.01306585571183
 20
2.604433429245464
 30
0.0
 10
18.70647021848981
 20
2.908734955630635
 30
0.0
 10
17.39991161610089
 20
3.032008111767318
 30
0.0
 10
16.11823093819555
 20
2.959878663927046
 30
0.0
 10
15.00506244200142
 20
2.761968399029271
 30
0.0
 10
14.32729251278948
 20
2.53691254201329
 30
0.0
 10
14.06006308295258
 20
2.44817808248693
 30
0.0
1001
PE_URL
1000

  0
SPLINE
  5
31C
330
1F
100
AcDbEntity
  8
0
  6
Continuous
 62
     1
370
    15
100
AcDbSpline
210
0.0
220
0.0
230
1.0
 70
     8
 71
     3
 72
    14
 73
    10
 74
     0
 42
0.000000001
 43
0.00000001
 40
0.0
 40
0.0
 40
0.0
 40
0.0
 40
0.25
 40
0.25
 40
0.5
 40
0.5
 40
0.75
 40
0.75
 40
1.0
 40
1.0
 40
1.0
 40
1.0
 10
24.93301270189227
 20
0.1954452555341035
 30
0.0
 10
24.93301270189227
 20
0.2424153104422793
 30
0.0
 10
24.90549056539754
 20
0.2829014704222708
 30
0.0
 10
24.79852831372006
 20
0.366403528912965
 30
0.0
 10
24.71903566481294
 20
0.4095358413814907
 30
0.0
 10
24.52674375413454
 20
0.5086615854733374
 30
0.0
 10
24.41271095383962
 20
0.5657188418699697
 30
0.0
 10
24.17679203973631
 20
0.6900123204166952
 30
0.0
 10
24.05348595043804
 20
0.7578431986657641
 30
0.0
 10
23.93301270189227
 20
0.8246611968605428
 30
0.0
1001
PE_URL
1000

  0
LINE
  5
31D
330
1F
100
AcDbEntity
  8
외형선
  6
Continuous
370
    15
100
AcDbLine
 10
9.933012701892267
 20
2.958326253762245
 30
0.0
 11
9.933012701892238
 21
3.001074928723892
 31
0.0
  0
SPLINE
  5
31E
330
1F
100
AcDbEntity
  8
0
  6
Continuous
 62
     1
370
    15
100
AcDbSpline
210
0.0
220
0.0
230
1.0
 70
     8
 71
     3
 72
    13
 73
     9
 74
     0
 42
0.000000001
 43
0.00000001
 40
0.0
 40
0.0
 40
0.0
 40
0.0
 40
0.154276150298248
 40
0.3233666004280074
 40
0.492470807846436
 40
0.6616022183899739
 40
0.8307741991316894
 40
1.0
 40
1.0
 40
1.0
 40
1.0
 10
17.21715002007579
 20
-2.987551007987648
 30
0.0
 10
16.84253288169074
 20
-2.978697094399056
 30
0.0
 10
16.05732615811451
 20
-2.960139074043404
 30
0.0
 10
14.86172426841281
 20
-2.718453031988169
 30
0.0
 10
13.62997186392028
 20
-2.334557457439871
 30
0.0
 10
12.39799763251526
 20
-1.814816476741321
 30
0.0
 10
11.16567133180266
 20
-1.196626221036929
 30
0.0
 10
10.34394247553604
 20
-0.7346119765509194
 30
0.0
 10
9.933012701892949
 20
-0.5035681140181154
 30
0.0
1001
PE_URL
1000

  0
LINE
  5
31F
330
1F
100
AcDbEntity
  8
외형선
  6
Continuous
370
    15
100
AcDbLine
 10
9.933012701892267
 20
-0.503568114020176
 30
0.0
 11
9.933012701892267
 21
0.547038784900991
 31
0.0
  0
SPLINE
  5
320
330
1F
100
AcDbEntity
  8
0
  6
Continuous
 62
     1
370
    15
100
AcDbSpline
210
0.0
220
0.0
230
1.0
 70
     8
 71
     3
 72
    11
 73
     7
 74
     0
 42
0.000000001
 43
0.00000001
 40
0.0
 40
0.0
 40
0.0
 40
0.0
 40
0.3167186631627519
 40
0.6334183976599791
 40
0.9501008904996909
 40
1.0
 40
1.0
 40
1.0
 40
1.0
 10
9.933012701892267
 20
-2.948827352326823
 30
0.0
 10
10.36872400386733
 20
-2.977280697220703
 30
0.0
 10
11.24012056756641
 20
-3.034185686496585
 30
0.0
 10
12.5471574613108
 20
-2.865767676715805
 30
0.0
 10
13.48712923620735
 20
-2.662030356057112
 30
0.0
 10
13.99141911471489
 20
-2.471907728414795
 30
0.0
 10
14.06006308295255
 20
-2.446028225039147
 30
0.0
1001
PE_URL
1000

  0
SPLINE
  5
321
330
1F
100
AcDbEntity
  8
외형선
  6
Continuous
370
    15
100
AcDbSpline
210
0.0
220
0.0
230
1.0
 70
    24
 71
     3
 72
    20
 73
    16
 74
     0
 42
0.000000001
 43
0.00000001
 40
0.0
 40
0.0
 40
0.0
 40
0.0
 40
0.0095241931660457
 40
0.0923664769948017
 40
0.172874036153973
 40
0.2557163199827303
 40
0.3362238791419029
 40
0.4190661629706607
 40
0.4995737221298314
 40
0.5824160059585878
 40
0.6629235651177576
 40
0.7457658489465128
 40
0.8262734081055538
 40
0.9091156919344433
 40
1.0
 40
1.0
 40
1.0
 40
1.0
 10
9.933012701892267
 20
-0.3079879911618235
 30
0.0
 10
9.933012701892267
 20
-0.3070677354720743
 30
0.0
 10
9.933012701892324
 20
-0.2981430135019814
 30
0.0
 10
9.933012701892238
 20
-0.329883518501962
 30
0.0
 10
9.93301270189221
 20
-0.406684913975198
 30
0.0
 10
9.933012701892324
 20
-0.535780525342215
 30
0.0
 10
9.933012701892153
 20
-0.7094443207545069
 30
0.0
 10
9.933012701892267
 20
-0.921346014923099
 30
0.0
 10
9.933012701892238
 20
-1.168839422653349
 30
0.0
 10
9.933012701892238
 20
-1.440599127895052
 30
0.0
 10
9.933012701892125
 20
-1.733748051106165
 30
0.0
 10
9.933012701892238
 20
-2.034882133453699
 30
0.0
 10
9.93301270189221
 20
-2.34029380660391
 30
0.0
 10
9.933012701892295
 20
-2.650754458230477
 30
0.0
 10
9.933012701892267
 20
-2.846450055181698
 30
0.0
 10
9.933012701892267
 20
-2.948827352326827
 30
0.0
  0
SPLINE
  5
322
330
1F
100
AcDbEntity
  8
0
  6
Continuous
 62
     1
370
    15
100
AcDbSpline
210
0.0
220
0.0
230
1.0
 70
     8
 71
     3
 72
    14
 73
    10
 74
     0
 42
0.000000001
 43
0.00000001
 40
0.0
 40
0.0
 40
0.0
 40
0.0
 40
0.25
 40
0.25
 40
0.5
 40
0.5
 40
0.75
 40
0.75
 40
1.0
 40
1.0
 40
1.0
 40
1.0
 10
23.93301270189227
 20
1.768812940054087
 30
0.0
 10
24.05844904278445
 20
1.710357119914313
 30
0.0
 10
24.17745625646887
 20
1.634052360864636
 30
0.0
 10
24.40590501389522
 20
1.457623237255074
 30
0.0
 10
24.51101208124118
 20
1.360724322774537
 30
0.0
 10
24.70104914147993
 20
1.16460112165208
 30
0.0
 10
24.7837550823206
 20
1.067371338020241
 30
0.0
 10
24.90090070329637
 20
0.9107212361035621
 30
0.0
 10
24.93301270189227
 20
0.8539583236406649
 30
0.0
 10
24.93301270189227
 20
0.8280116060993414
 30
0.0
1001
PE_URL
1000

  0
LINE
  5
323
330
1F
100
AcDbEntity
  8
0
  6
Continuous
 62
     1
370
    15
100
AcDbLine
 10
24.93301270189227
 20
0.1954452555341071
 30
0.0
 11
24.93301270189227
 21
0.8280116060993414
 31
0.0
1001
PE_URL
1000

  0
SPLINE
  5
324
330
1F
100
AcDbEntity
  8
0
  6
Continuous
 62
     1
370
    15
100
AcDbSpline
210
0.0
220
0.0
230
1.0
 70
     8
 71
     3
 72
    11
 73
     7
 74
     0
 42
0.000000001
 43
0.00000001
 40
0.0
 40
0.0
 40
0.0
 40
0.0
 40
0.2438846496669073
 40
0.4959066375827875
 40
0.7479383944721903
 40
1.0
 40
1.0
 40
1.0
 40
1.0
 10
19.04618541119052
 20
2.998448400946511
 30
0.0
 10
19.44345891681635
 20
2.984360078697158
 30
0.0
 10
20.25126116531663
 20
2.955713369995312
 30
0.0
 10
21.46959101249098
 20
2.702391709609714
 30
0.0
 10
22.70124873552615
 20
2.315197246613064
 30
0.0
 10
23.52240850545707
 20
1.950948231607804
 30
0.0
 10
23.93301270189224
 20
1.768812940054094
 30
0.0
1001
PE_URL
1000

  0
LINE
  5
325
330
1F
100
AcDbEntity
  8
0
  6
Continuous
 62
     1
370
    15
100
AcDbLine
 10
24.93301270189227
 20
0.8280116060993414
 30
0.0
 11
24.93301270189227
 21
1.991607564993817
 31
0.0
1001
PE_URL
1000

  0
SPLINE
  5
326
330
1F
100
AcDbEntity
  8
0
  6
Continuous
 62
     1
370
    15
100
AcDbSpline
210
0.0
220
0.0
230
1.0
 70
     8
 71
     3
 72
     9
 73
     5
 74
     0
 42
0.000000001
 43
0.00000001
 40
0.0
 40
0.0
 40
0.0
 40
0.0
 40
0.759002770238201
 40
1.0
 40
1.0
 40
1.0
 40
1.0
 10
23.61371536004191
 20
2.827762335902669
 30
0.0
 10
23.49744814909985
 20
2.80785495551434
 30
0.0
 10
22.92358390265485
 20
2.705145654696675
 30
0.0
 10
22.3497243179649
 20
2.495130855883854
 30
0.0
 10
22.21142574778241
 20
2.444517871160979
 30
0.0
1001
PE_URL
1000

  0
LINE
  5
327
330
1F
100
AcDbEntity
  8
0
  6
Continuous
 62
     1
370
    15
100
AcDbLine
 10
24.93301270189227
 20
-1.989457707546034
 30
0.0
 11
24.93301270189227
 21
-1.819962064752964
 31
0.0
1001
PE_URL
1000

  0
SPLINE
  5
328
330
1F
100
AcDbEntity
  8
외형선
  6
Continuous
370
    15
100
AcDbSpline
210
0.0
220
0.0
230
1.0
 70
    24
 71
     3
 72
    14
 73
    10
 74
     0
 42
0.000000001
 43
0.00000001
 40
0.0
 40
0.0
 40
0.0
 40
0.0
 40
0.1525127658333102
 40
0.3157146790499925
 40
0.4789165922668474
 40
0.6421185054836167
 40
0.8053204187003845
 40
0.9685223319171405
 40
1.0
 40
1.0
 40
1.0
 40
1.0
 10
9.933012701892267
 20
-2.948827352326827
 30
0.0
 10
9.933012701892295
 20
-2.773711180291514
 30
0.0
 10
9.933012701892324
 20
-2.411205486105771
 30
0.0
 10
9.933012701892295
 20
-1.803131801729918
 30
0.0
 10
9.933012701892238
 20
-1.22356609018118
 30
0.0
 10
9.93301270189221
 20
-0.7368678899811414
 30
0.0
 10
9.933012701892352
 20
-0.4226398660557287
 30
0.0
 10
9.933012701892267
 20
-0.2832449028094963
 30
0.0
 10
9.933012701892238
 20
-0.315983120817755
 30
0.0
 10
9.933012701892238
 20
-0.3212765509412883
 30
0.0
  0
SPLINE
  5
329
330
1F
100
AcDbEntity
  8
외형선
  6
Continuous
370
    15
100
AcDbSpline
210
0.0
220
0.0
230
1.0
 70
     8
 71
     3
 72
     8
 73
     4
 74
     0
 42
0.000000001
 43
0.00000001
 40
0.0
 40
0.0
 40
0.0
 40
0.0
 40
1.0
 40
1.0
 40
1.0
 40
1.0
 10
9.933012701892267
 20
-2.948827352326823
 30
0.0
 10
9.60249963703319
 20
-2.913931647558897
 30
0.0
 10
9.266039803295769
 20
-2.860584522491909
 30
0.0
 10
8.932863361860257
 20
-2.790109900008488
 30
0.0
  0
SPLINE
  5
32A
330
1F
100
AcDbEntity
  8
외형선
  6
Continuous
370
    15
100
AcDbSpline
210
0.0
220
0.0
230
1.0
 70
     8
 71
     3
 72
     8
 73
     4
 74
     0
 42
0.000000001
 43
0.00000001
 40
0.0
 40
0.0
 40
0.0
 40
0.0
 40
1.0
 40
1.0
 40
1.0
 40
1.0
 10
9.93301270189221
 20
-0.5035681140176926
 30
0.0
 10
9.602499637033162
 20
-0.3145530940756984
 30
0.0
 10
9.266039803295712
 20
-0.1212940075681281
 30
0.0
 10
8.932863361860257
 20
0.0709140376380191
 30
0.0
  0
SPLINE
  5
32B
330
1F
100
AcDbEntity
  8
외형선
  6
Continuous
370
    15
100
AcDbSpline
210
0.0
220
0.0
230
1.0
 70
     8
 71
     3
 72
     8
 73
     4
 74
     0
 42
0.000000001
 43
0.00000001
 40
0.0
 40
0.0
 40
0.0
 40
0.0
 40
1.0
 40
1.0
 40
1.0
 40
1.0
 10
9.93301270189221
 20
2.958326253757413
 30
0.0
 10
9.602499637033162
 20
2.99058090657638
 30
0.0
 10
9.266039803295712
 20
3.004737660871577
 30
0.0
 10
8.932863361860257
 20
3.000261901699417
 30
0.0
  0
LINE
  5
32C
330
1F
100
AcDbEntity
  8
외형선
  6
Continuous
370
    15
100
AcDbLine
 10
8.932863361860228
 20
1.100728830379104
 30
0.0
 11
8.932863361860228
 21
3.001074928723892
 31
0.0
  0
SPLINE
  5
32D
330
1F
100
AcDbEntity
  8
외형선
  6
Continuous
370
    15
100
AcDbSpline
210
0.0
220
0.0
230
1.0
 70
     8
 71
     3
 72
     8
 73
     4
 74
     0
 42
0.000000001
 43
0.00000001
 40
0.0
 40
0.0
 40
0.0
 40
0.0
 40
1.0
 40
1.0
 40
1.0
 40
1.0
 10
9.933012701892267
 20
0.5470387849009946
 30
0.0
 10
9.60249963703319
 20
0.7355840849773863
 30
0.0
 10
9.266039803295769
 20
0.9218730338095824
 30
0.0
 10
8.932863361860257
 20
1.100750904570493
 30
0.0
  0
LINE
  5
32E
330
1F
100
AcDbEntity
  8
외형선
  6
Continuous
370
    15
100
AcDbLine
 10
8.932863361860228
 20
-2.790118596736935
 30
0.0
 11
8.932863361860228
 21
0.0709313785003403
 31
0.0
  0
LINE
  5
32F
330
1F
100
AcDbEntity
  8
외형선
  6
Continuous
370
    15
100
AcDbLine
 10
9.054084291549714
 20
-2.996782127471473
 30
0.0
 11
8.932863361860257
 21
-2.998112044251631
 31
0.0
  0
LINE
  5
330
330
1F
100
AcDbEntity
  8
외형선
  6
Continuous
370
    15
100
AcDbLine
 10
8.932863361860228
 20
-2.998925071276108
 30
0.0
 11
8.932863361860228
 21
-2.998111640401913
 31
0.0
  0
LINE
  5
331
330
1F
100
AcDbEntity
  8
외형선
  6
Continuous
370
    15
100
AcDbLine
 10
-84.46698729810775
 20
0.0010749287238916
 30
0.0
 11
-84.46698729810775
 21
3.001074928723892
 31
0.0
  0
LINE
  5
332
330
1F
100
AcDbEntity
  8
외형선
  6
Continuous
370
    15
100
AcDbLine
 10
-84.46698729810775
 20
-2.998925071276108
 30
0.0
 11
-84.46698729810775
 21
0.0010749287238916
 31
0.0
  0
LINE
  5
334
330
1F
100
AcDbEntity
  8
외형선
  6
Continuous
370
    15
100
AcDbLine
 10
-85.06698729810776
 20
-2.398925071276111
 30
0.0
 11
-85.06698729810776
 21
0.0010749287238916
 31
0.0
  0
SPLINE
  5
335
330
1F
100
AcDbEntity
  8
외형선
  6
Continuous
370
    15
100
AcDbSpline
210
0.0
220
0.0
230
1.0
 70
    24
 71
     3
 72
    14
 73
    10
 74
     0
 42
0.000000001
 43
0.00000001
 40
0.0
 40
0.0
 40
0.0
 40
0.0
 40
0.0890937215294152
 40
0.2525247663407769
 40
0.4159558111520529
 40
0.5793868559633274
 40
0.7428179007745901
 40
0.9062489455858795
 40
0.9999999999999999
 40
0.9999999999999999
 40
0.9999999999999999
 40
0.9999999999999999
 10
9.933012701892295
 20
0.3628511951169351
 30
0.0
 10
9.933012701892295
 20
0.3567723712879989
 30
0.0
 10
9.933012701892267
 20
0.3395427220974909
 30
0.0
 10
9.933012701892267
 20
0.5353296640057508
 30
0.0
 10
9.93301270189221
 20
0.910319862457456
 30
0.0
 10
9.933012701892324
 20
1.433765683438629
 30
0.0
 10
9.933012701892267
 20
2.032354696972877
 30
0.0
 10
9.933012701892096
 20
2.56159668487151
 30
0.0
 10
9.933012701892238
 20
2.852340783263774
 30
0.0
 10
9.933012701892267
 20
2.958326253757456
 30
0.0
  0
LINE
  5
336
330
1F
100
AcDbEntity
  8
중심선
100
AcDbLine
 10
-88.17149864206715
 20
0.0010749287238889
 30
0.0
 11
27.93301270189227
 21
0.001074928723888
 31
0.0
  0
CIRCLE
  5
337
330
1F
100
AcDbEntity
  8
해칭선
100
AcDbCircle
 10
0.0
 20
0.0
 30
0.0
 40
2.999999999999997
  0
DIMENSION
  5
338
330
1F
100
AcDbEntity
  8
치수문자_일반주서
100
AcDbDimension
  2
*D24
 10
34.93301270189224
 20
-2.998925071276075
 30
0.0
 11
34.93301270189218
 21
12.66757492872393
 31
0.0
 70
   160
  1
%%c<>
 71
     2
 42
6.0
 52
-270.0
  3
SLDDIMSTYLE1
100
AcDbAlignedDimension
 13
24.93301270189221
 23
3.001074928723888
 33
0.0
 14
24.93301270189221
 24
-2.998925071276112
 34
0.0
 50
90.0000000000002
100
AcDbRotatedDimension
1001
PE_URL
1000

1001
ACAD
1000
DSTYLE
1002
{
1070
    78
1070
     8
1002
}
  0
DIMENSION
  5
339
330
1F
100
AcDbEntity
  8
치수문자_일반주서
100
AcDbDimension
  2
*D25
 10
-95.06698729810775
 20
-2.998925071276149
 30
0.0
 11
-95.06698729810779
 21
12.66757492872386
 31
0.0
 70
   160
  1
%%c<>
 71
     2
 42
6.000000000000004
 52
-270.0
  3
SLDDIMSTYLE0
100
AcDbAlignedDimension
 13
-84.46698729810777
 23
3.001074928723895
 33
0.0
 14
-84.46698729810777
 24
-2.998925071276108
 34
0.0
 50
90.0000000000002
100
AcDbRotatedDimension
  0
DIMENSION
  5
33A
330
1F
100
AcDbEntity
  8
치수문자_일반주서
100
AcDbDimension
  2
*D26
 10
9.933012701892267
 20
13.00107492872389
 30
0.0
 11
17.43301270189227
 21
13.00107492872389
 31
0.0
 70
   160
  1
<>
 71
     2
 42
14.99999999999994
  3
SLDDIMSTYLE0
100
AcDbAlignedDimension
 13
24.93301270189221
 23
3.001074928723888
 33
0.0
 14
9.933012701892267
 24
2.958326253762245
 34
0.0
100
AcDbRotatedDimension
  0
DIMENSION
  5
33B
102
{ACAD_XDICTIONARY
360
380
102
}
330
1F
100
AcDbEntity
  8
치수문자_일반주서
100
AcDbDimension
  2
*D27
 10
-85.06698729810776
 20
23.00107492872389
 30
0.0
 11
-30.06698729810778
 21
23.00107492872389
 31
0.0
 70
   160
  1
<>
 71
     2
 42
110.0
  3
SLDDIMSTYLE1
100
AcDbAlignedDimension
 13
24.93301270189221
 23
3.001074928723888
 33
0.0
 14
-85.06698729810776
 24
2.401074928723894
 34
0.0
 50
0.0000000000000045
100
AcDbRotatedDimension
1001
ENABLE_CUSTOM_SPLIT
1070
     1
  0
INSERT
  5
33C
330
1F
100
AcDbEntity
  8
해칭선
100
AcDbBlockReference
  2
SW_DOWELSYMBOL_0
 10
0.0
 20
0.0
 30
0.0
  0
ARC
  5
33D
330
1F
100
AcDbEntity
  8
0
  6
Continuous
 62
     1
370
    15
100
AcDbCircle
 10
23.93301270189221
 20
1.880107753532418
 30
0.0
 40
0.9999999999999998
100
AcDbArc
 50
0.0
 51
108.6204364286531
1001
PE_URL
1000

  0
ARC
  5
33E
330
1F
100
AcDbEntity
  8
0
  6
Continuous
 62
     1
370
    15
100
AcDbCircle
 10
23.93301270189221
 20
-1.877957896084638
 30
0.0
 40
0.9999999999999998
100
AcDbArc
 50
251.379563571347
 51
0.0
1001
PE_URL
1000

  0
DIMENSION
  5
33F
330
1F
100
AcDbEntity
  8
치수문자_일반주서
100
AcDbDimension
  2
*D28
 10
23.93301270189221
 20
-1.877957896084638
 30
0.0
 11
31.93462638868061
 21
-17.44361341078206
 31
0.0
 70
   164
 71
     5
 42
0.9999999999999956
  3
SLDDIMSTYLE1
100
AcDbRadialDimension
 15
24.39019891632151
 25
-2.767328890291104
 35
0.0
 40
0.0
1001
ACAD
1000
DSTYLE
1002
{
1070
    78
1070
     8
1002
}
1001
ACAD_DSTYLE_DIMRADIAL_EXTENSION
1070
   387
1070
     1
1070
   388
1040
4.387401056546407
1070
   390
1040
0.0
1001
PE_URL
1000

  0
LINE
  5
37F
330
1F
100
AcDbEntity
  8
외형선
  6
Continuous
370
    15
100
AcDbLine
 10
-85.06698729810776
 20
0.0010749287238916
 30
0.0
 11
-85.06698729810776
 21
2.401074928723894
 31
0.0
  0
ENDSEC
  0
SECTION
  2
OBJECTS
  0
DICTIONARY
  5
C
330
0
100
AcDbDictionary
281
     1
  3
ACAD_DETAILVIEWSTYLE
350
242
  3
ACAD_GROUP
350
D
  3
ACAD_LAYOUT
350
1A
  3
ACAD_MLINESTYLE
350
17
  3
ACAD_PLOTSETTINGS
350
19
  3
ACAD_PLOTSTYLENAME
350
E
  3
ACAD_SCALELIST
350
47
  3
ACAD_SECTIONVIEWSTYLE
350
243
  3
AcDbVariableDictionary
350
23D
  3
APPDATA
350
12F
  3
DWGPROPS
350
386
  0
DICTIONARY
  5
1C1
330
2
100
AcDbDictionary
280
     1
281
     1
  3
ACAD_LAYERSTATES
360
1C2
  0
DICTIONARY
  5
384
330
1F
100
AcDbDictionary
280
     1
281
     1
  3
DIM_BOUNDING_BOXES_V1
360
385
  0
DICTIONARY
  5
380
330
33B
100
AcDbDictionary
280
     1
281
     1
  3
ACAD_CUSTOM_BREAKDATA
360
383
  0
DICTIONARY
  5
242
102
{ACAD_REACTORS
330
C
102
}
330
C
100
AcDbDictionary
281
     1
  0
DICTIONARY
  5
D
102
{ACAD_REACTORS
330
C
102
}
330
C
100
AcDbDictionary
281
     1
  0
DICTIONARY
  5
1A
102
{ACAD_REACTORS
330
C
102
}
330
C
100
AcDbDictionary
281
     1
  3
Layout1
350
1E
  3
Layout2
350
26
  3
Model
350
22
  0
DICTIONARY
  5
17
102
{ACAD_REACTORS
330
C
102
}
330
C
100
AcDbDictionary
281
     1
  3
Standard
350
18
  0
DICTIONARY
  5
19
102
{ACAD_REACTORS
330
C
102
}
330
C
100
AcDbDictionary
281
     1
  0
ACDBDICTIONARYWDFLT
  5
E
102
{ACAD_REACTORS
330
C
102
}
330
C
100
AcDbDictionary
281
     1
  3
Normal
350
F
100
AcDbDictionaryWithDefault
340
F
  0
DICTIONARY
  5
47
102
{ACAD_REACTORS
330
C
102
}
330
C
100
AcDbDictionary
281
     1
  3
A0
350
48
  3
A1
350
49
  3
A2
350
4A
  3
A3
350
4B
  3
A4
350
4C
  3
A5
350
4D
  3
A6
350
4E
  3
A7
350
4F
  3
A8
350
50
  3
A9
350
51
  3
B0
350
52
  3
B1
350
53
  3
B2
350
54
  3
B3
350
55
  3
B4
350
56
  3
B5
350
57
  3
B6
350
58
  3
B7
350
59
  3
B8
350
5A
  3
B9
350
5B
  3
C0
350
5C
  3
C1
350
5D
  3
C2
350
5E
  3
C3
350
5F
  3
C4
350
60
  3
C5
350
61
  3
C6
350
62
  3
C7
350
63
  3
C8
350
64
  3
C9
350
65
  3
D0
350
66
  3
D1
350
67
  3
D2
350
68
  0
DICTIONARY
  5
243
102
{ACAD_REACTORS
330
C
102
}
330
C
100
AcDbDictionary
281
     1
  0
DICTIONARY
  5
23D
102
{ACAD_REACTORS
330
C
102
}
330
C
100
AcDbDictionary
281
     1
  0
DICTIONARY
  5
12F
102
{ACAD_REACTORS
330
C
102
}
330
C
100
AcDbDictionary
281
     1
  0
XRECORD
  5
386
102
{ACAD_REACTORS
330
C
102
}
330
C
100
AcDbXrecord
280
     1
  1
DWGPROPS COOKIE
  2

  3

  4

  6

  7

  8
12016016
  9

300
=
301
=
302
=
303
=
304
=
305
=
306
=
307
=
308
=
309
=
 40
0.0
 41
2458269.436345081
 42
2459702.10166419
  1

 90
        0
  0
DICTIONARY
  5
1C2
102
{ACAD_REACTORS
330
1C1
102
}
330
1C1
100
AcDbDictionary
281
     1
  0
DICTIONARY
  5
385
102
{ACAD_REACTORS
330
384
102
}
330
384
100
AcDbDictionary
281
     1
  0
BREAKDATA
  5
383
102
{ACAD_REACTORS
330
380
102
}
330
380
100
AcDbBreakData
 70
     0
330
33B
 90
        0
  0
LAYOUT
  5
1E
102
{ACAD_REACTORS
330
1A
102
}
330
1A
100
AcDbPlotSettings
  1

  2
none_device
  4

  6

 40
0.0
 41
0.0
 42
0.0
 43
0.0
 44
0.0
 45
0.0
 46
0.0
 47
0.0
 48
0.0
 49
0.0
140
0.0
141
0.0
142
1.0
143
1.0
 70
   688
 72
     1
 73
     0
 74
     5
  7

 75
    16
147
1.0
148
0.0
149
0.0
100
AcDbLayout
  1
Layout1
 70
     1
 71
     1
 10
0.0
 20
0.0
 11
420.0
 21
297.0
 12
0.0
 22
0.0
 32
0.0
 14
1.000000000000000E+20
 24
1.000000000000000E+20
 34
1.000000000000000E+20
 15
-1.000000000000000E+20
 25
-1.000000000000000E+20
 35
-1.000000000000000E+20
146
0.0
 13
0.0
 23
0.0
 33
0.0
 16
1.0
 26
0.0
 36
0.0
 17
0.0
 27
1.0
 37
0.0
 76
     0
330
1B
  0
LAYOUT
  5
26
102
{ACAD_REACTORS
330
1A
102
}
330
1A
100
AcDbPlotSettings
  1

  2
none_device
  4

  6

 40
0.0
 41
0.0
 42
0.0
 43
0.0
 44
0.0
 45
0.0
 46
0.0
 47
0.0
 48
0.0
 49
0.0
140
0.0
141
0.0
142
1.0
143
1.0
 70
   688
 72
     1
 73
     0
 74
     5
  7

 75
    16
147
1.0
148
0.0
149
0.0
100
AcDbLayout
  1
Layout2
 70
     1
 71
     2
 10
0.0
 20
0.0
 11
0.0
 21
0.0
 12
0.0
 22
0.0
 32
0.0
 14
0.0
 24
0.0
 34
0.0
 15
0.0
 25
0.0
 35
0.0
146
0.0
 13
0.0
 23
0.0
 33
0.0
 16
1.0
 26
0.0
 36
0.0
 17
0.0
 27
1.0
 37
0.0
 76
     0
330
23
  0
LAYOUT
  5
22
102
{ACAD_REACTORS
330
1A
102
}
330
1A
100
AcDbPlotSettings
  1

  2
none_device
  4
ANSI_A_(11.00_x_8.50_Inches)
  6

 40
6.35
 41
19.05
 42
6.35000508
 43
19.05000254
 44
279.4
 45
215.9
 46
111.6855150645388
 47
108.3034981595624
 48
0.0
 49
0.0
140
0.0
141
0.0
142
0.0789824718862547
143
1.0
 70
  1696
 72
     0
 73
     0
 74
     0
  7

 75
     0
147
0.0235690232323232
148
0.0
149
0.0
100
AcDbLayout
  1
Model
 70
     1
 71
     0
 10
0.0
 20
0.0
 11
420.0
 21
297.0
 12
0.0
 22
0.0
 32
0.0
 14
-99.44198729810779
 24
-49.97180738881174
 34
0.0
 15
79.73835494594202
 25
27.3760749287239
 35
0.0
146
0.0
 13
0.0
 23
0.0
 33
0.0
 16
1.0
 26
0.0
 36
0.0
 17
0.0
 27
1.0
 37
0.0
 76
     0
330
1F
331
29
  0
MLINESTYLE
  5
18
102
{ACAD_REACTORS
330
17
102
}
330
17
100
AcDbMlineStyle
  2
Standard
 70
     0
  3

 62
   256
 51
90.0
 52
90.0
 71
     2
 49
0.5
 62
   256
  6
BYLAYER
 49
-0.5
 62
   256
  6
BYLAYER
  0
ACDBPLACEHOLDER
  5
F
102
{ACAD_REACTORS
330
E
102
}
330
E
  0
SCALE
  5
48
102
{ACAD_REACTORS
330
47
102
}
330
47
100
AcDbScale
 70
     0
300
1:1
140
1.0
141
1.0
290
     1
  0
SCALE
  5
49
102
{ACAD_REACTORS
330
47
102
}
330
47
100
AcDbScale
 70
     0
300
1:2
140
1.0
141
2.0
290
     0
  0
SCALE
  5
4A
102
{ACAD_REACTORS
330
47
102
}
330
47
100
AcDbScale
 70
     0
300
1:4
140
1.0
141
4.0
290
     0
  0
SCALE
  5
4B
102
{ACAD_REACTORS
330
47
102
}
330
47
100
AcDbScale
 70
     0
300
1:5
140
1.0
141
5.0
290
     0
  0
SCALE
  5
4C
102
{ACAD_REACTORS
330
47
102
}
330
47
100
AcDbScale
 70
     0
300
1:8
140
1.0
141
8.0
290
     0
  0
SCALE
  5
4D
102
{ACAD_REACTORS
330
47
102
}
330
47
100
AcDbScale
 70
     0
300
1:10
140
1.0
141
10.0
290
     0
  0
SCALE
  5
4E
102
{ACAD_REACTORS
330
47
102
}
330
47
100
AcDbScale
 70
     0
300
1:16
140
1.0
141
16.0
290
     0
  0
SCALE
  5
4F
102
{ACAD_REACTORS
330
47
102
}
330
47
100
AcDbScale
 70
     0
300
1:20
140
1.0
141
20.0
290
     0
  0
SCALE
  5
50
102
{ACAD_REACTORS
330
47
102
}
330
47
100
AcDbScale
 70
     0
300
1:30
140
1.0
141
30.0
290
     0
  0
SCALE
  5
51
102
{ACAD_REACTORS
330
47
102
}
330
47
100
AcDbScale
 70
     0
300
1:40
140
1.0
141
40.0
290
     0
  0
SCALE
  5
52
102
{ACAD_REACTORS
330
47
102
}
330
47
100
AcDbScale
 70
     0
300
1:50
140
1.0
141
50.0
290
     0
  0
SCALE
  5
53
102
{ACAD_REACTORS
330
47
102
}
330
47
100
AcDbScale
 70
     0
300
1:100
140
1.0
141
100.0
290
     0
  0
SCALE
  5
54
102
{ACAD_REACTORS
330
47
102
}
330
47
100
AcDbScale
 70
     0
300
2:1
140
2.0
141
1.0
290
     0
  0
SCALE
  5
55
102
{ACAD_REACTORS
330
47
102
}
330
47
100
AcDbScale
 70
     0
300
4:1
140
4.0
141
1.0
290
     0
  0
SCALE
  5
56
102
{ACAD_REACTORS
330
47
102
}
330
47
100
AcDbScale
 70
     0
300
8:1
140
8.0
141
1.0
290
     0
  0
SCALE
  5
57
102
{ACAD_REACTORS
330
47
102
}
330
47
100
AcDbScale
 70
     0
300
10:1
140
10.0
141
1.0
290
     0
  0
SCALE
  5
58
102
{ACAD_REACTORS
330
47
102
}
330
47
100
AcDbScale
 70
     0
300
100:1
140
100.0
141
1.0
290
     0
  0
SCALE
  5
59
102
{ACAD_REACTORS
330
47
102
}
330
47
100
AcDbScale
 70
     0
300
1/128" = 1'-0"
140
0.0078125
141
12.0
290
     0
  0
SCALE
  5
5A
102
{ACAD_REACTORS
330
47
102
}
330
47
100
AcDbScale
 70
     0
300
1/64" = 1'-0"
140
0.015625
141
12.0
290
     0
  0
SCALE
  5
5B
102
{ACAD_REACTORS
330
47
102
}
330
47
100
AcDbScale
 70
     0
300
1/32" = 1'-0"
140
0.03125
141
12.0
290
     0
  0
SCALE
  5
5C
102
{ACAD_REACTORS
330
47
102
}
330
47
100
AcDbScale
 70
     0
300
1/16" = 1'-0"
140
0.0625
141
12.0
290
     0
  0
SCALE
  5
5D
102
{ACAD_REACTORS
330
47
102
}
330
47
100
AcDbScale
 70
     0
300
3/32" = 1'-0"
140
0.09375
141
12.0
290
     0
  0
SCALE
  5
5E
102
{ACAD_REACTORS
330
47
102
}
330
47
100
AcDbScale
 70
     0
300
1/8" = 1'-0"
140
0.125
141
12.0
290
     0
  0
SCALE
  5
5F
102
{ACAD_REACTORS
330
47
102
}
330
47
100
AcDbScale
 70
     0
300
3/16" = 1'-0"
140
0.1875
141
12.0
290
     0
  0
SCALE
  5
60
102
{ACAD_REACTORS
330
47
102
}
330
47
100
AcDbScale
 70
     0
300
1/4" = 1'-0"
140
0.25
141
12.0
290
     0
  0
SCALE
  5
61
102
{ACAD_REACTORS
330
47
102
}
330
47
100
AcDbScale
 70
     0
300
3/8" = 1'-0"
140
0.375
141
12.0
290
     0
  0
SCALE
  5
62
102
{ACAD_REACTORS
330
47
102
}
330
47
100
AcDbScale
 70
     0
300
1/2" = 1'-0"
140
0.5
141
12.0
290
     0
  0
SCALE
  5
63
102
{ACAD_REACTORS
330
47
102
}
330
47
100
AcDbScale
 70
     0
300
3/4" = 1'-0"
140
0.75
141
12.0
290
     0
  0
SCALE
  5
64
102
{ACAD_REACTORS
330
47
102
}
330
47
100
AcDbScale
 70
     0
300
1" = 1'-0"
140
1.0
141
12.0
290
     0
  0
SCALE
  5
65
102
{ACAD_REACTORS
330
47
102
}
330
47
100
AcDbScale
 70
     0
300
1-1/2" = 1'-0"
140
1.5
141
12.0
290
     0
  0
SCALE
  5
66
102
{ACAD_REACTORS
330
47
102
}
330
47
100
AcDbScale
 70
     0
300
3" = 1'-0"
140
3.0
141
12.0
290
     0
  0
SCALE
  5
67
102
{ACAD_REACTORS
330
47
102
}
330
47
100
AcDbScale
 70
     0
300
6" = 1'-0"
140
6.0
141
12.0
290
     0
  0
SCALE
  5
68
102
{ACAD_REACTORS
330
47
102
}
330
47
100
AcDbScale
 70
     0
300
1'-0" = 1'-0"
140
12.0
141
12.0
290
     0
  0
ENDSEC
  0
EOF
