  0
SECTION
  2
HEADER
  9
$ACADVER
  1
AC1015
  9
$ACADMAINTVER
 70
     6
  9
$DWGCODEPAGE
  3
ANSI_949
  9
$INSBASE
 10
0.0
 20
0.0
 30
0.0
  9
$EXTMIN
 10
-79.44198729810779
 20
-49.97073246008785
 30
0.0
  9
$EXTMAX
 10
55.44649651723785
 20
27.3760749287239
 30
0.0
  9
$LIMMIN
 10
0.0
 20
0.0
  9
$LIMMAX
 10
420.0
 20
297.0
  9
$ORTHOMODE
 70
     1
  9
$REGENMODE
 70
     1
  9
$FILLMODE
 70
     1
  9
$QTEXTMODE
 70
     0
  9
$MIRRTEXT
 70
     1
  9
$LTSCALE
 40
1.0
  9
$ATTMODE
 70
     1
  9
$TEXTSIZE
 40
3.5
  9
$TRACEWID
 40
1.0
  9
$TEXTSTYLE
  7
Standard
  9
$CLAYER
  8
0
  9
$CELTYPE
  6
ByLayer
  9
$CECOLOR
 62
   256
  9
$CELTSCALE
 40
1.0
  9
$DISPSILH
 70
     0
  9
$DIMSCALE
 40
1.0
  9
$DIMASZ
 40
3.302
  9
$DIMEXO
 40
1.0
  9
$DIMDLI
 40
3.75
  9
$DIMRND
 40
0.0
  9
$DIMDLE
 40
0.0
  9
$DIMEXE
 40
1.0
  9
$DIMTP
 40
0.0
  9
$DIMTM
 40
0.0
  9
$DIMTXT
 40
3.5
  9
$DIMCEN
 40
2.5
  9
$DIMTSZ
 40
0.0
  9
$DIMTOL
 70
     0
  9
$DIMLIM
 70
     0
  9
$DIMTIH
 70
     1
  9
$DIMTOH
 70
     1
  9
$DIMSE1
 70
     0
  9
$DIMSE2
 70
     0
  9
$DIMTAD
 70
     1
  9
$DIMZIN
 70
     0
  9
$DIMBLK
  1

  9
$DIMASO
 70
     1
  9
$DIMSHO
 70
     1
  9
$DIMPOST
  1

  9
$DIMAPOST
  1

  9
$DIMALT
 70
     0
  9
$DIMALTD
 70
     3
  9
$DIMALTF
 40
0.0393700787401575
  9
$DIMLFAC
 40
1.0
  9
$DIMTOFL
 70
     1
  9
$DIMTVP
 40
0.0
  9
$DIMTIX
 70
     0
  9
$DIMSOXD
 70
     0
  9
$DIMSAH
 70
     0
  9
$DIMBLK1
  1

  9
$DIMBLK2
  1

  9
$DIMSTYLE
  2
ISO-25
  9
$DIMCLRD
 70
     0
  9
$DIMCLRE
 70
     0
  9
$DIMCLRT
 70
     0
  9
$DIMTFAC
 40
1.0
  9
$DIMGAP
 40
1.524
  9
$DIMJUST
 70
     0
  9
$DIMSD1
 70
     0
  9
$DIMSD2
 70
     0
  9
$DIMTOLJ
 70
     0
  9
$DIMTZIN
 70
     0
  9
$DIMALTZ
 70
     0
  9
$DIMALTTZ
 70
     0
  9
$DIMUPT
 70
     0
  9
$DIMDEC
 70
     2
  9
$DIMTDEC
 70
     2
  9
$DIMALTU
 70
     2
  9
$DIMALTTD
 70
     3
  9
$DIMTXSTY
  7
Standard
  9
$DIMAUNIT
 70
     0
  9
$DIMADEC
 70
     2
  9
$DIMALTRND
 40
0.0
  9
$DIMAZIN
 70
     0
  9
$DIMDSEP
 70
    44
  9
$DIMATFIT
 70
     3
  9
$DIMFRAC
 70
     0
  9
$DIMLDRBLK
  1

  9
$DIMLUNIT
 70
     2
  9
$DIMLWD
 70
    -2
  9
$DIMLWE
 70
    -2
  9
$DIMTMOVE
 70
     0
  9
$LUNITS
 70
     2
  9
$LUPREC
 70
     2
  9
$SKETCHINC
 40
1.0
  9
$FILLETRAD
 40
10.0
  9
$AUNITS
 70
     0
  9
$AUPREC
 70
     2
  9
$MENU
  1
.
  9
$ELEVATION
 40
0.0
  9
$PELEVATION
 40
0.0
  9
$THICKNESS
 40
0.0
  9
$LIMCHECK
 70
     0
  9
$CHAMFERA
 40
0.0
  9
$CHAMFERB
 40
0.0
  9
$CHAMFERC
 40
0.0
  9
$CHAMFERD
 40
0.0
  9
$SKPOLY
 70
     0
  9
$TDCREATE
 40
2458269.810021424
  9
$TDUCREATE
 40
2458269.435021424
  9
$TDUPDATE
 40
2458270.789572384
  9
$TDUUPDATE
 40
2458270.414572384
  9
$TDINDWG
 40
0.0020742593
  9
$TDUSRTIMER
 40
0.0020742477
  9
$USRTIMER
 70
     1
  9
$ANGBASE
 50
0.0
  9
$ANGDIR
 70
     0
  9
$PDMODE
 70
     0
  9
$PDSIZE
 40
-1.0
  9
$PLINEWID
 40
0.0
  9
$SPLFRAME
 70
     0
  9
$SPLINETYPE
 70
     6
  9
$SPLINESEGS
 70
     8
  9
$HANDSEED
  5
1BC
  9
$SURFTAB1
 70
     6
  9
$SURFTAB2
 70
     6
  9
$SURFTYPE
 70
     6
  9
$SURFU
 70
     6
  9
$SURFV
 70
     6
  9
$UCSBASE
  2

  9
$UCSNAME
  2

  9
$UCSORG
 10
0.0
 20
0.0
 30
0.0
  9
$UCSXDIR
 10
1.0
 20
0.0
 30
0.0
  9
$UCSYDIR
 10
0.0
 20
1.0
 30
0.0
  9
$UCSORTHOREF
  2

  9
$UCSORTHOVIEW
 70
     0
  9
$UCSORGTOP
 10
0.0
 20
0.0
 30
0.0
  9
$UCSORGBOTTOM
 10
0.0
 20
0.0
 30
0.0
  9
$UCSORGLEFT
 10
0.0
 20
0.0
 30
0.0
  9
$UCSORGRIGHT
 10
0.0
 20
0.0
 30
0.0
  9
$UCSORGFRONT
 10
0.0
 20
0.0
 30
0.0
  9
$UCSORGBACK
 10
0.0
 20
0.0
 30
0.0
  9
$PUCSBASE
  2

  9
$PUCSNAME
  2

  9
$PUCSORG
 10
0.0
 20
0.0
 30
0.0
  9
$PUCSXDIR
 10
1.0
 20
0.0
 30
0.0
  9
$PUCSYDIR
 10
0.0
 20
1.0
 30
0.0
  9
$PUCSORTHOREF
  2

  9
$PUCSORTHOVIEW
 70
     0
  9
$PUCSORGTOP
 10
0.0
 20
0.0
 30
0.0
  9
$PUCSORGBOTTOM
 10
0.0
 20
0.0
 30
0.0
  9
$PUCSORGLEFT
 10
0.0
 20
0.0
 30
0.0
  9
$PUCSORGRIGHT
 10
0.0
 20
0.0
 30
0.0
  9
$PUCSORGFRONT
 10
0.0
 20
0.0
 30
0.0
  9
$PUCSORGBACK
 10
0.0
 20
0.0
 30
0.0
  9
$USERI1
 70
     0
  9
$USERI2
 70
     0
  9
$USERI3
 70
     0
  9
$USERI4
 70
     0
  9
$USERI5
 70
     0
  9
$USERR1
 40
0.0
  9
$USERR2
 40
0.0
  9
$USERR3
 40
0.0
  9
$USERR4
 40
0.0
  9
$USERR5
 40
0.0
  9
$WORLDVIEW
 70
     1
  9
$SHADEDGE
 70
     3
  9
$SHADEDIF
 70
    70
  9
$TILEMODE
 70
     1
  9
$MAXACTVP
 70
    64
  9
$PINSBASE
 10
0.0
 20
0.0
 30
0.0
  9
$PLIMCHECK
 70
     0
  9
$PEXTMIN
 10
1.000000000000000E+20
 20
1.000000000000000E+20
 30
1.000000000000000E+20
  9
$PEXTMAX
 10
-1.000000000000000E+20
 20
-1.000000000000000E+20
 30
-1.000000000000000E+20
  9
$PLIMMIN
 10
0.0
 20
0.0
  9
$PLIMMAX
 10
0.0
 20
0.0
  9
$UNITMODE
 70
     0
  9
$VISRETAIN
 70
     1
  9
$PLINEGEN
 70
     0
  9
$PSLTSCALE
 70
     1
  9
$TREEDEPTH
 70
  3020
  9
$CMLSTYLE
  2
Standard
  9
$CMLJUST
 70
     0
  9
$CMLSCALE
 40
20.0
  9
$PROXYGRAPHICS
 70
     1
  9
$MEASUREMENT
 70
     1
  9
$CELWEIGHT
370
    -1
  9
$ENDCAPS
280
     0
  9
$JOINSTYLE
280
     0
  9
$LWDISPLAY
290
     1
  9
$INSUNITS
 70
     4
  9
$HYPERLINKBASE
  1

  9
$STYLESHEET
  1

  9
$XEDIT
290
     1
  9
$CEPSNTYPE
380
     0
  9
$PSTYLEMODE
290
     1
  9
$FINGERPRINTGUID
  2
{1D4C2B1C-F41F-42B9-BD08-014A03C44C4E}
  9
$VERSIONGUID
  2
{FAEB1C32-E019-11D5-929B-00C0DF256EC4}
  9
$EXTNAMES
290
     1
  9
$PSVPSCALE
 40
0.0
  9
$OLESTARTUP
290
     0
  0
ENDSEC
  0
SECTION
  2
CLASSES
  0
CLASS
  1
ACDBDICTIONARYWDFLT
  2
AcDbDictionaryWithDefault
  3
ObjectDBX Classes
 90
        0
280
     0
281
     0
  0
CLASS
  1
VISUALSTYLE
  2
AcDbVisualStyle
  3
ObjectDBX Classes
 90
     4095
280
     0
281
     0
  0
CLASS
  1
MATERIAL
  2
AcDbMaterial
  3
ObjectDBX Classes
 90
     1153
280
     0
281
     0
  0
CLASS
  1
SCALE
  2
AcDbScale
  3
ObjectDBX Classes
 90
     1153
280
     0
281
     0
  0
CLASS
  1
SUN
  2
AcDbSun
  3
SCENEOE
 90
     1153
280
     0
281
     0
  0
CLASS
  1
ACDBPLACEHOLDER
  2
AcDbPlaceHolder
  3
ObjectDBX Classes
 90
        0
280
     0
281
     0
  0
CLASS
  1
LAYOUT
  2
AcDbLayout
  3
ObjectDBX Classes
 90
        0
280
     0
281
     0
  0
CLASS
  1
TABLESTYLE
  2
AcDbTableStyle
  3
ObjectDBX Classes
 90
     4095
280
     0
281
     0
  0
CLASS
  1
MLEADERSTYLE
  2
AcDbMLeaderStyle
  3
ACDB_MLEADERSTYLE_CLASS
 90
     4095
280
     0
281
     0
  0
CLASS
  1
DIMASSOC
  2
AcDbDimAssoc
  3
"AcDbDimAssoc|Product Desc:     AcDim ARX App For Dimension|Company:          Autodesk, Inc.|WEB Address:      www.autodesk.com"
 90
        0
280
     0
281
     0
  0
ENDSEC
  0
SECTION
  2
TABLES
  0
TABLE
  2
VPORT
  5
8
330
0
100
AcDbSymbolTable
 70
     1
  0
VPORT
  5
29
330
8
100
AcDbSymbolTableRecord
100
AcDbViewportTableRecord
  2
*Active
 70
     0
 10
0.0
 20
0.0
 11
1.0
 21
1.0
 12
-11.99774539043497
 22
-11.29732876568197
 13
0.0
 23
0.0
 14
10.0
 24
10.0
 15
10.0
 25
10.0
 16
0.0
 26
0.0
 36
1.0
 17
0.0
 27
0.0
 37
0.0
 40
78.89374353658798
 41
2.003901170351105
 42
50.0
 43
0.0
 44
0.0
 50
0.0
 51
0.0
 71
    16
 72
  2000
 73
     1
 74
     3
 75
     0
 76
     0
 77
     0
 78
     0
281
     0
 65
     1
110
0.0
120
0.0
130
0.0
111
1.0
121
0.0
131
0.0
112
0.0
122
1.0
132
0.0
 79
     0
146
0.0
  0
ENDTAB
  0
TABLE
  2
LTYPE
  5
5
330
0
100
AcDbSymbolTable
 70
     6
  0
LTYPE
  5
14
330
5
100
AcDbSymbolTableRecord
100
AcDbLinetypeTableRecord
  2
ByBlock
 70
     0
  3

 72
    65
 73
     0
 40
0.0
  0
LTYPE
  5
15
330
5
100
AcDbSymbolTableRecord
100
AcDbLinetypeTableRecord
  2
ByLayer
 70
     0
  3

 72
    65
 73
     0
 40
0.0
  0
LTYPE
  5
16
330
5
100
AcDbSymbolTableRecord
100
AcDbLinetypeTableRecord
  2
Continuous
 70
     0
  3
Solid line
 72
    65
 73
     0
 40
0.0
  0
LTYPE
  5
6A
330
5
100
AcDbSymbolTableRecord
100
AcDbLinetypeTableRecord
  2
HIDDEN
 70
     0
  3
Hidden __ __ __ __ __ __ __ __ __ __ __ __ __ __
 72
    65
 73
     2
 40
1.905
 49
1.27
 74
     0
 49
-0.635
 74
     0
  0
LTYPE
  5
6B
330
5
100
AcDbSymbolTableRecord
100
AcDbLinetypeTableRecord
  2
PHANTOM
 70
     0
  3
Phantom ______  __  __  ______  __  __  ______
 72
    65
 73
     6
 40
12.7
 49
6.35
 74
     0
 49
-1.27
 74
     0
 49
1.27
 74
     0
 49
-1.27
 74
     0
 49
1.27
 74
     0
 49
-1.27
 74
     0
  0
LTYPE
  5
6C
330
5
100
AcDbSymbolTableRecord
100
AcDbLinetypeTableRecord
  2
CENTER
 70
     0
  3
Center ____ _ ____ _ ____ _ ____ _ ____ _ ____
 72
    65
 73
     4
 40
10.16
 49
6.35
 74
     0
 49
-1.27
 74
     0
 49
1.27
 74
     0
 49
-1.27
 74
     0
  0
LTYPE
  5
6D
330
5
100
AcDbSymbolTableRecord
100
AcDbLinetypeTableRecord
  2
CENTERX2
 70
     0
  3
Center (2x) ________  __  ________  __  _____
 72
    65
 73
     4
 40
20.32
 49
12.7
 74
     0
 49
-2.54
 74
     0
 49
2.54
 74
     0
 49
-2.54
 74
     0
  0
LTYPE
  5
6E
330
5
100
AcDbSymbolTableRecord
100
AcDbLinetypeTableRecord
  2
DOT2
 70
     0
  3
Dot (.5x) ........................................
 72
    65
 73
     2
 40
0.635
 49
0.0
 74
     0
 49
-0.635
 74
     0
  0
ENDTAB
  0
TABLE
  2
LAYER
  5
2
102
{ACAD_XDICTIONARY
360
170
102
}
330
0
100
AcDbSymbolTable
 70
    18
  0
LAYER
  5
10
330
2
100
AcDbSymbolTableRecord
100
AcDbLayerTableRecord
  2
0
 70
     0
 62
     7
  6
Continuous
370
    -3
390
F
  0
LAYER
  5
6F
330
2
100
AcDbSymbolTableRecord
100
AcDbLayerTableRecord
  2
FORMAT
 70
     0
 62
     2
  6
Continuous
370
    -3
390
F
  0
LAYER
  5
70
330
2
100
AcDbSymbolTableRecord
100
AcDbLayerTableRecord
  2
외형선
 70
     0
 62
     4
  6
Continuous
370
    30
390
F
  0
LAYER
  5
71
330
2
100
AcDbSymbolTableRecord
100
AcDbLayerTableRecord
  2
숨은선
 70
     0
 62
     2
  6
HIDDEN
370
    15
390
F
  0
LAYER
  5
72
330
2
100
AcDbSymbolTableRecord
100
AcDbLayerTableRecord
  2
중심선
 70
     0
 62
     1
  6
CENTERX2
370
    -3
390
F
  0
LAYER
  5
73
330
2
100
AcDbSymbolTableRecord
100
AcDbLayerTableRecord
  2
파단선
 70
     0
 62
     4
  6
Continuous
370
    -3
390
F
  0
LAYER
  5
74
330
2
100
AcDbSymbolTableRecord
100
AcDbLayerTableRecord
  2
해칭선
 70
     0
 62
   100
  6
Continuous
370
    -3
390
F
  0
LAYER
  5
75
330
2
100
AcDbSymbolTableRecord
100
AcDbLayerTableRecord
  2
가는실선
 70
     0
 62
     4
  6
Continuous
370
    -3
390
F
  0
LAYER
  5
76
330
2
100
AcDbSymbolTableRecord
100
AcDbLayerTableRecord
  2
치수_보조선
 70
     0
 62
     4
  6
Continuous
370
    -3
390
F
  0
LAYER
  5
77
330
2
100
AcDbSymbolTableRecord
100
AcDbLayerTableRecord
  2
치수문자_일반주서
 70
     0
 62
     7
  6
Continuous
370
    15
390
F
  0
LAYER
  5
78
330
2
100
AcDbSymbolTableRecord
100
AcDbLayerTableRecord
  2
개별주서
 70
     0
 62
   100
  6
Continuous
370
    30
390
F
  0
LAYER
  5
79
330
2
100
AcDbSymbolTableRecord
100
AcDbLayerTableRecord
  2
중간선
 70
     0
 62
     2
  6
Continuous
370
    15
390
F
  0
LAYER
  5
7A
330
2
100
AcDbSymbolTableRecord
100
AcDbLayerTableRecord
  2
윤곽선
 70
     0
 62
     3
  6
Continuous
370
    40
390
F
  0
LAYER
  5
7B
330
2
100
AcDbSymbolTableRecord
100
AcDbLayerTableRecord
  2
중심마크
 70
     0
 62
   100
  6
Continuous
370
    30
390
F
  0
LAYER
  5
7C
330
2
100
AcDbSymbolTableRecord
100
AcDbLayerTableRecord
  2
가상선
 70
     0
 62
     4
  6
PHANTOM
370
    -3
390
F
  0
LAYER
  5
7D
330
2
100
AcDbSymbolTableRecord
100
AcDbLayerTableRecord
  2
특수지정선
 70
     0
 62
     5
  6
CENTERX2
370
    60
390
F
  0
LAYER
  5
7E
330
2
100
AcDbSymbolTableRecord
100
AcDbLayerTableRecord
  2
참조1
 70
     0
 62
    -4
  6
Continuous
370
    -3
390
F
  0
LAYER
  5
131
330
2
100
AcDbSymbolTableRecord
100
AcDbLayerTableRecord
  2
Defpoints
 70
     0
 62
     7
  6
Continuous
290
     0
370
    -3
390
F
  0
ENDTAB
  0
TABLE
  2
STYLE
  5
3
330
0
100
AcDbSymbolTable
 70
     2
  0
STYLE
  5
11
330
3
100
AcDbSymbolTableRecord
100
AcDbTextStyleTableRecord
  2
Standard
 70
     0
 40
0.0
 41
1.0
 50
0.0
 71
     0
 42
3.5
  3
txt
  4

  0
STYLE
  5
94
330
3
100
AcDbSymbolTableRecord
100
AcDbTextStyleTableRecord
  2
SLDTEXTSTYLE0
 70
     0
 40
0.0
 41
0.75
 50
0.0
 71
     0
 42
3.5
  3
TXT
  4

  0
ENDTAB
  0
TABLE
  2
VIEW
  5
6
330
0
100
AcDbSymbolTable
 70
     0
  0
ENDTAB
  0
TABLE
  2
UCS
  5
7
330
0
100
AcDbSymbolTable
 70
     0
  0
ENDTAB
  0
TABLE
  2
APPID
  5
9
330
0
100
AcDbSymbolTable
 70
     3
  0
APPID
  5
12
330
9
100
AcDbSymbolTableRecord
100
AcDbRegAppTableRecord
  2
ACAD
 70
     0
  0
APPID
  5
138
330
9
100
AcDbSymbolTableRecord
100
AcDbRegAppTableRecord
  2
PE_URL
 70
     0
  0
APPID
  5
139
330
9
100
AcDbSymbolTableRecord
100
AcDbRegAppTableRecord
  2
ACAD_DSTYLE_DIMRADIAL_EXTENSION
 70
     0
  0
ENDTAB
  0
TABLE
  2
DIMSTYLE
  5
A
330
0
100
AcDbSymbolTable
 70
     3
100
AcDbDimStyleTable
  0
DIMSTYLE
105
27
330
A
100
AcDbSymbolTableRecord
100
AcDbDimStyleTableRecord
  2
ISO-25
 70
     0
 41
2.5
 42
0.625
 43
3.75
 44
1.25
 73
     0
 74
     0
 77
     1
 78
     8
140
2.5
141
2.5
143
0.03937007874016
147
0.625
171
     3
172
     1
178
     0
271
     2
272
     2
274
     3
278
    44
283
     0
284
     8
340
11
  0
DIMSTYLE
105
CF
102
{ACAD_REACTORS
330
DC
330
CE
102
}
330
A
100
AcDbSymbolTableRecord
100
AcDbDimStyleTableRecord
  2
SLDDIMSTYLE0
 70
     0
 41
3.302
 44
0.0
 45
0.000000001
 73
     0
 74
     0
 77
     1
 78
    12
 79
     3
140
3.5
147
0.875
172
     1
173
     1
178
     0
271
     2
272
     2
276
     2
284
    12
289
     0
340
94
  0
DIMSTYLE
105
F6
102
{ACAD_REACTORS
330
F5
330
158
330
165
330
E9
330
1AD
102
}
330
A
100
AcDbSymbolTableRecord
100
AcDbDimStyleTableRecord
  2
SLDDIMSTYLE1
 70
     0
 41
3.302
 44
0.0
 45
0.000000001
 73
     0
 74
     0
 77
     1
 78
    12
 79
     3
140
3.5
147
0.875
173
     1
178
     0
271
     2
272
     2
276
     2
284
    12
340
94
  0
ENDTAB
  0
TABLE
  2
BLOCK_RECORD
  5
1
330
0
100
AcDbSymbolTable
 70
    13
  0
BLOCK_RECORD
  5
1F
330
1
100
AcDbSymbolTableRecord
100
AcDbBlockTableRecord
  2
*Model_Space
340
22
  0
BLOCK_RECORD
  5
1B
330
1
100
AcDbSymbolTableRecord
100
AcDbBlockTableRecord
  2
*Paper_Space
340
1E
  0
BLOCK_RECORD
  5
23
330
1
100
AcDbSymbolTableRecord
100
AcDbBlockTableRecord
  2
*Paper_Space0
340
26
  0
BLOCK_RECORD
  5
7F
330
1
100
AcDbSymbolTableRecord
100
AcDbBlockTableRecord
  2
블럭10
340
0
102
{BLKREFS
331
C7
102
}
  0
BLOCK_RECORD
  5
D0
330
1
100
AcDbSymbolTableRecord
100
AcDbBlockTableRecord
  2
_D
340
0
  0
BLOCK_RECORD
  5
DD
330
1
100
AcDbSymbolTableRecord
100
AcDbBlockTableRecord
  2
_D_1
340
0
  0
BLOCK_RECORD
  5
EA
330
1
100
AcDbSymbolTableRecord
100
AcDbBlockTableRecord
  2
_D_2
340
0
  0
BLOCK_RECORD
  5
F7
330
1
100
AcDbSymbolTableRecord
100
AcDbBlockTableRecord
  2
_D_3
340
0
  0
BLOCK_RECORD
  5
107
330
1
100
AcDbSymbolTableRecord
100
AcDbBlockTableRecord
  2
SW_DOWELSYMBOL_0
340
0
102
{BLKREFS
331
10D
102
}
  0
BLOCK_RECORD
  5
166
330
1
100
AcDbSymbolTableRecord
100
AcDbBlockTableRecord
  2
*D8
340
0
  0
BLOCK_RECORD
  5
174
330
1
100
AcDbSymbolTableRecord
100
AcDbBlockTableRecord
  2
*D9
340
0
  0
BLOCK_RECORD
  5
185
330
1
100
AcDbSymbolTableRecord
100
AcDbBlockTableRecord
  2
*D10
340
0
  0
BLOCK_RECORD
  5
191
330
1
100
AcDbSymbolTableRecord
100
AcDbBlockTableRecord
  2
*D11
340
0
  0
BLOCK_RECORD
  5
1B0
330
1
100
AcDbSymbolTableRecord
100
AcDbBlockTableRecord
  2
*D12
340
0
  0
ENDTAB
  0
ENDSEC
  0
SECTION
  2
BLOCKS
  0
BLOCK
  5
20
330
1F
100
AcDbEntity
  8
0
100
AcDbBlockBegin
  2
*Model_Space
 70
     0
 10
0.0
 20
0.0
 30
0.0
  3
*Model_Space
  1

  0
ENDBLK
  5
21
330
1F
100
AcDbEntity
  8
0
100
AcDbBlockEnd
  0
BLOCK
  5
1C
330
1B
100
AcDbEntity
 67
     1
  8
0
100
AcDbBlockBegin
  2
*Paper_Space
 70
     0
 10
0.0
 20
0.0
 30
0.0
  3
*Paper_Space
  1

  0
ENDBLK
  5
1D
330
1B
100
AcDbEntity
 67
     1
  8
0
100
AcDbBlockEnd
  0
BLOCK
  5
24
330
23
100
AcDbEntity
  8
0
100
AcDbBlockBegin
  2
*Paper_Space0
 70
     0
 10
0.0
 20
0.0
 30
0.0
  3
*Paper_Space0
  1

  0
ENDBLK
  5
25
330
23
100
AcDbEntity
  8
0
100
AcDbBlockEnd
  0
BLOCK
  5
80
330
7F
100
AcDbEntity
  8
0
100
AcDbBlockBegin
  2
블럭10
 70
     2
 10
0.0
 20
0.0
 30
0.0
  3
블럭10
  1

  0
ELLIPSE
  5
82
330
7F
100
AcDbEntity
  8
중심선
100
AcDbEllipse
 10
20.54032771741204
 20
12.0471743016438
 30
0.0
 11
6.600054785286829
 21
-1.261213355974178E-13
 31
0.0
210
0.0
220
0.0
230
1.0
 40
0.636358354079598
 41
0.9219305317359503
 42
6.513795318482858
  0
ELLIPSE
  5
83
330
7F
100
AcDbEntity
  8
중심선
100
AcDbEllipse
 10
20.54032771746488
 20
12.04717430159265
 30
0.0
 11
3.960054785062283
 21
1.540847449632565E-10
 31
0.0
210
0.0
220
0.0
230
1.0
 40
0.3939339440162632
 41
1.131841032648279
 42
5.62031148352944
  0
LINE
  5
84
330
7F
100
AcDbEntity
  8
중심선
100
AcDbLine
 10
2.268634060543552
 20
16.24717430164393
 30
0.0
 11
5.714909304380834
 21
16.24717430164393
 31
0.0
  0
LINE
  5
85
330
7F
100
AcDbEntity
  8
중심선
100
AcDbLine
 10
5.245725140726316
 20
7.84717430164391
 30
0.0
 11
8.692000384563599
 21
7.84717430164391
 31
0.0
  0
LINE
  5
86
330
7F
100
AcDbEntity
  8
중심선
100
AcDbLine
 10
15.74043728645272
 20
16.24717430164393
 30
0.0
 11
8.692000384563599
 21
7.84717430164391
 31
0.0
  0
LINE
  5
87
330
7F
100
AcDbEntity
  8
중심선
100
AcDbLine
 10
0.1404042013395286
 20
13.71084872107135
 30
0.0
 11
3.58671253028996
 21
13.71088815037384
 31
0.0
  0
LINE
  5
88
330
7F
100
AcDbEntity
  8
중심선
100
AcDbLine
 10
2.750260043222114
 20
10.84717430164391
 30
0.0
 11
6.196535287059397
 21
10.84717430164391
 31
0.0
  0
LINE
  5
89
330
7F
100
AcDbEntity
  8
중심선
100
AcDbLine
 10
12.29416204261559
 20
16.24717430164393
 30
0.0
 11
5.245725140726316
 21
7.84717430164391
 31
0.0
  0
LINE
  5
8A
330
7F
100
AcDbEntity
  8
중심선
100
AcDbLine
 10
10.72767329541681
 20
16.24717430164393
 30
0.0
 11
6.196535287059397
 21
10.84717430164391
 31
0.0
  0
LINE
  5
8B
330
7F
100
AcDbEntity
  8
중심선
100
AcDbLine
 10
7.28139805157953
 20
16.24717430164393
 30
0.0
 11
2.750260043222114
 21
10.84717430164391
 31
0.0
  0
LINE
  5
8C
330
7F
100
AcDbEntity
  8
중심선
100
AcDbLine
 10
5.714909304380834
 20
16.24717430164393
 30
0.0
 11
3.58671253028996
 21
13.71088815037384
 31
0.0
  0
LINE
  5
8D
330
7F
100
AcDbEntity
  8
중심선
100
AcDbLine
 10
2.268634060543552
 20
16.24717430164393
 30
0.0
 11
0.1404042013395286
 21
13.71084872107135
 31
0.0
  0
LINE
  5
8E
330
7F
100
AcDbEntity
  8
중심선
100
AcDbLine
 10
7.28139805157953
 20
16.24717430164393
 30
0.0
 11
10.72767329541681
 21
16.24717430164393
 31
0.0
  0
LINE
  5
8F
330
7F
100
AcDbEntity
  8
중심선
100
AcDbLine
 10
12.29416204261559
 20
16.24717430164393
 30
0.0
 11
15.74043728645272
 21
16.24717430164393
 31
0.0
  0
LINE
  5
90
330
7F
100
AcDbEntity
  8
중심선
100
AcDbLine
 10
19.22036997980202
 20
11.08717430171403
 30
0.0
 11
23.66174974927406
 21
11.08717430171406
 31
0.0
  0
LINE
  5
91
330
7F
100
AcDbEntity
  8
중심선
100
AcDbLine
 10
19.22039502424796
 20
13.00717430171391
 30
0.0
 11
19.22036997980202
 21
11.08717430171403
 31
0.0
  0
LINE
  5
92
330
7F
100
AcDbEntity
  8
중심선
100
AcDbLine
 10
19.22039502424796
 20
13.00717430171391
 30
0.0
 11
26.96566020931264
 21
13.00717430171391
 31
0.0
  0
LINE
  5
93
330
7F
100
AcDbEntity
  8
중심선
100
AcDbLine
 10
22.22332737316547
 20
13.45928029700563
 30
0.0
 11
24.52862924686651
 21
15.39360700705356
 31
0.0
  0
ATTDEF
  5
95
330
7F
100
AcDbEntity
  8
FORMAT
 62
     2
100
AcDbText
 10
-16.11926103943555
 20
2.075366912832191
 30
0.0
 40
4.233333333333333
  1
SEME0106002E [ 4 FLUTE ]
 41
0.75
  7
SLDTEXTSTYLE0
 11
-16.11926103943555
 21
-0.0412997538344756
 31
0.0
100
AcDbAttributeDefinition
  3

  2
AUTOATTR0
 70
     0
 74
     1
  0
ENDBLK
  5
81
330
7F
100
AcDbEntity
  8
0
100
AcDbBlockEnd
  0
BLOCK
  5
D1
330
D0
100
AcDbEntity
  8
0
100
AcDbBlockBegin
  2
_D
 70
     0
 10
0.0
 20
0.0
 30
0.0
  3
_D
  1

  0
LINE
  5
D3
330
D0
100
AcDbEntity
  8
치수문자_일반주서
 62
     0
370
    -2
100
AcDbLine
 10
24.99551270189225
 20
3.001074928723889
 30
0.0
 11
34.93301270189224
 21
3.001074928723927
 31
0.0
  0
LINE
  5
D4
330
D0
100
AcDbEntity
  8
치수문자_일반주서
 62
     0
370
    -2
100
AcDbLine
 10
24.99551270189225
 20
-2.998925071276111
 30
0.0
 11
34.93301270189226
 21
-2.998925071276073
 31
0.0
  0
LINE
  5
D5
330
D0
100
AcDbEntity
  8
치수문자_일반주서
 62
     0
370
    -2
100
AcDbLine
 10
34.93301270189224
 20
3.001074928723927
 30
0.0
 11
34.93301270189219
 21
15.73007492872396
 31
0.0
  0
LINE
  5
D6
330
D0
100
AcDbEntity
  8
치수문자_일반주서
 62
     0
370
    -2
100
AcDbLine
 10
34.93301270189224
 20
3.001074928723927
 30
0.0
 11
34.93301270189226
 21
-2.998925071276073
 31
0.0
  0
LINE
  5
D7
330
D0
100
AcDbEntity
  8
치수문자_일반주서
 62
     0
370
    -2
100
AcDbLine
 10
34.93301270189222
 20
6.303074928723927
 30
0.0
 11
34.93301270189221
 21
9.605074928723926
 31
0.0
  0
LINE
  5
D8
330
D0
100
AcDbEntity
  8
치수문자_일반주서
 62
     0
370
    -2
100
AcDbLine
 10
34.93301270189227
 20
-6.300925071276072
 30
0.0
 11
34.93301270189229
 21
-9.602925071276072
 31
0.0
  0
SOLID
  5
D9
330
D0
100
AcDbEntity
  8
치수문자_일반주서
 62
     0
100
AcDbTrace
 10
34.38267936855889
 20
6.303074928723925
 30
0.0
 11
35.48334603522556
 21
6.303074928723928
 31
0.0
 12
34.93301270189224
 22
3.001074928723927
 32
0.0
 13
34.93301270189224
 23
3.001074928723927
 33
0.0
  0
SOLID
  5
DA
330
D0
100
AcDbEntity
  8
치수문자_일반주서
 62
     0
100
AcDbTrace
 10
35.48334603522561
 20
-6.300925071276071
 30
0.0
 11
34.38267936855894
 21
-6.300925071276074
 31
0.0
 12
34.93301270189226
 22
-2.998925071276073
 32
0.0
 13
34.93301270189226
 23
-2.998925071276073
 33
0.0
  0
MTEXT
  5
DB
330
D0
100
AcDbEntity
  8
치수문자_일반주서
 62
     0
100
AcDbMText
 10
30.5580127018922
 20
12.66757492872394
 30
0.0
 40
3.5
 41
0.0
 71
     2
 72
     1
  1
\A1;%%c6
  7
SLDTEXTSTYLE0
 11
-3.552713678800501E-15
 21
1.0
 31
0.0
 73
     1
 44
1.0
  0
POINT
  5
1A6
330
D0
100
AcDbEntity
  8
Defpoints
 62
     0
100
AcDbPoint
 10
24.93301270189225
 20
3.001074928723889
 30
0.0
  0
POINT
  5
1A7
330
D0
100
AcDbEntity
  8
Defpoints
 62
     0
100
AcDbPoint
 10
24.93301270189225
 20
-2.998925071276111
 30
0.0
  0
POINT
  5
1AC
330
D0
100
AcDbEntity
  8
Defpoints
 62
     0
100
AcDbPoint
 10
34.93301270189226
 20
-2.998925071276074
 30
0.0
  0
ENDBLK
  5
D2
330
D0
100
AcDbEntity
  8
0
100
AcDbBlockEnd
  0
BLOCK
  5
DE
330
DD
100
AcDbEntity
  8
0
100
AcDbBlockBegin
  2
_D_1
 70
     0
 10
0.0
 20
0.0
 30
0.0
  3
_D_1
  1

  0
LINE
  5
E0
330
DD
100
AcDbEntity
  8
치수문자_일반주서
 62
     0
370
    -2
100
AcDbLine
 10
-64.52948729810777
 20
3.001074928723896
 30
0.0
 11
-75.06698729810776
 21
3.001074928723854
 31
0.0
  0
LINE
  5
E1
330
DD
100
AcDbEntity
  8
치수문자_일반주서
 62
     0
370
    -2
100
AcDbLine
 10
-64.52948729810777
 20
-2.99892507127611
 30
0.0
 11
-75.06698729810775
 21
-2.998925071276149
 31
0.0
  0
LINE
  5
E2
330
DD
100
AcDbEntity
  8
치수문자_일반주서
 62
     0
370
    -2
100
AcDbLine
 10
-75.06698729810776
 20
3.001074928723854
 30
0.0
 11
-75.0669872981078
 21
15.73007492872386
 31
0.0
  0
LINE
  5
E3
330
DD
100
AcDbEntity
  8
치수문자_일반주서
 62
     0
370
    -2
100
AcDbLine
 10
-75.06698729810776
 20
3.001074928723854
 30
0.0
 11
-75.06698729810775
 21
-2.998925071276149
 31
0.0
  0
LINE
  5
E4
330
DD
100
AcDbEntity
  8
치수문자_일반주서
 62
     0
370
    -2
100
AcDbLine
 10
-75.06698729810778
 20
6.303074928723854
 30
0.0
 11
-75.06698729810779
 21
9.605074928723853
 31
0.0
  0
LINE
  5
E5
330
DD
100
AcDbEntity
  8
치수문자_일반주서
 62
     0
370
    -2
100
AcDbLine
 10
-75.06698729810773
 20
-6.300925071276149
 30
0.0
 11
-75.06698729810772
 21
-9.602925071276148
 31
0.0
  0
SOLID
  5
E6
330
DD
100
AcDbEntity
  8
치수문자_일반주서
 62
     0
100
AcDbTrace
 10
-75.6173206314411
 20
6.303074928723853
 30
0.0
 11
-74.51665396477445
 21
6.303074928723855
 31
0.0
 12
-75.06698729810776
 22
3.001074928723854
 32
0.0
 13
-75.06698729810776
 23
3.001074928723854
 33
0.0
  0
SOLID
  5
E7
330
DD
100
AcDbEntity
  8
치수문자_일반주서
 62
     0
100
AcDbTrace
 10
-74.5166539647744
 20
-6.300925071276148
 30
0.0
 11
-75.61732063144106
 21
-6.30092507127615
 31
0.0
 12
-75.06698729810775
 22
-2.998925071276149
 32
0.0
 13
-75.06698729810775
 23
-2.998925071276149
 33
0.0
  0
MTEXT
  5
E8
330
DD
100
AcDbEntity
  8
치수문자_일반주서
 62
     0
100
AcDbMText
 10
-79.44198729810779
 20
12.66757492872385
 30
0.0
 40
3.5
 41
0.0
 71
     2
 72
     1
  1
\A1;%%c6
  7
SLDTEXTSTYLE0
 11
-2.368475785866999E-15
 21
1.0
 31
0.0
 73
     1
 44
1.0
  0
POINT
  5
19F
330
DD
100
AcDbEntity
  8
Defpoints
 62
     0
100
AcDbPoint
 10
-64.46698729810777
 20
3.001074928723896
 30
0.0
  0
POINT
  5
1A0
330
DD
100
AcDbEntity
  8
Defpoints
 62
     0
100
AcDbPoint
 10
-64.46698729810777
 20
-2.998925071276109
 30
0.0
  0
POINT
  5
1A1
330
DD
100
AcDbEntity
  8
Defpoints
 62
     0
100
AcDbPoint
 10
-75.06698729810773
 20
-2.998925071276149
 30
0.0
  0
ENDBLK
  5
DF
330
DD
100
AcDbEntity
  8
0
100
AcDbBlockEnd
  0
BLOCK
  5
EB
330
EA
100
AcDbEntity
  8
0
100
AcDbBlockBegin
  2
_D_2
 70
     0
 10
0.0
 20
0.0
 30
0.0
  3
_D_2
  1

  0
LINE
  5
ED
330
EA
100
AcDbEntity
  8
치수문자_일반주서
 62
     0
370
    -2
100
AcDbLine
 10
24.93301270189225
 20
3.063574928723889
 30
0.0
 11
24.93301270189225
 21
12.92478131987752
 31
0.0
  0
LINE
  5
EE
330
EA
100
AcDbEntity
  8
치수문자_일반주서
 62
     0
370
    -2
100
AcDbLine
 10
9.93301270189226
 20
3.020826253762244
 30
0.0
 11
9.93301270189226
 21
12.92478131987752
 31
0.0
  0
LINE
  5
EF
330
EA
100
AcDbEntity
  8
치수문자_일반주서
 62
     0
370
    -2
100
AcDbLine
 10
21.63101270189225
 20
12.92478131987752
 30
0.0
 11
13.23501270189226
 21
12.92478131987752
 31
0.0
  0
SOLID
  5
F0
330
EA
100
AcDbEntity
  8
치수문자_일반주서
 62
     0
100
AcDbTrace
 10
21.63101270189225
 20
12.37444798654419
 30
0.0
 11
21.63101270189225
 21
13.47511465321086
 31
0.0
 12
24.93301270189225
 22
12.92478131987752
 32
0.0
 13
24.93301270189225
 23
12.92478131987752
 33
0.0
  0
SOLID
  5
F1
330
EA
100
AcDbEntity
  8
치수문자_일반주서
 62
     0
100
AcDbTrace
 10
13.23501270189226
 20
13.47511465321086
 30
0.0
 11
13.23501270189226
 21
12.37444798654419
 31
0.0
 12
9.93301270189226
 22
12.92478131987752
 32
0.0
 13
9.93301270189226
 23
12.92478131987752
 33
0.0
  0
MTEXT
  5
F2
330
EA
100
AcDbEntity
  8
치수문자_일반주서
 62
     0
100
AcDbMText
 10
17.43301270189225
 20
17.29978131987752
 30
0.0
 40
3.5
 41
0.0
 71
     2
 72
     1
  1
\A1;15
  7
SLDTEXTSTYLE0
 73
     1
 44
1.0
  0
POINT
  5
F3
330
EA
100
AcDbEntity
  8
Defpoints
 62
     0
100
AcDbPoint
 10
24.93301270189225
 20
3.001074928723889
 30
0.0
  0
POINT
  5
F4
330
EA
100
AcDbEntity
  8
Defpoints
 62
     0
100
AcDbPoint
 10
9.93301270189226
 20
2.958326253762244
 30
0.0
  0
POINT
  5
1A5
330
EA
100
AcDbEntity
  8
Defpoints
 62
     0
100
AcDbPoint
 10
9.93301270189226
 20
12.92478131987752
 30
0.0
  0
ENDBLK
  5
EC
330
EA
100
AcDbEntity
  8
0
100
AcDbBlockEnd
  0
BLOCK
  5
F8
330
F7
100
AcDbEntity
  8
0
100
AcDbBlockBegin
  2
_D_3
 70
     0
 10
0.0
 20
0.0
 30
0.0
  3
_D_3
  1

  0
LINE
  5
FA
330
F7
100
AcDbEntity
  8
치수문자_일반주서
 62
     0
370
    -2
100
AcDbLine
 10
24.93301270189225
 20
3.063574928723889
 30
0.0
 11
24.93301270189224
 21
23.00107492872389
 31
0.0
  0
LINE
  5
FB
330
F7
100
AcDbEntity
  8
치수문자_일반주서
 62
     0
370
    -2
100
AcDbLine
 10
-65.06698729810776
 20
2.463574928723895
 30
0.0
 11
-65.06698729810776
 21
23.00107492872389
 31
0.0
  0
LINE
  5
FC
330
F7
100
AcDbEntity
  8
치수문자_일반주서
 62
     0
370
    -2
100
AcDbLine
 10
21.63101270189224
 20
23.00107492872389
 30
0.0
 11
-61.76498729810776
 21
23.00107492872389
 31
0.0
  0
SOLID
  5
FD
330
F7
100
AcDbEntity
  8
치수문자_일반주서
 62
     0
100
AcDbTrace
 10
21.63101270189224
 20
22.45074159539056
 30
0.0
 11
21.63101270189224
 21
23.55140826205723
 31
0.0
 12
24.93301270189224
 22
23.00107492872389
 32
0.0
 13
24.93301270189224
 23
23.00107492872389
 33
0.0
  0
SOLID
  5
FE
330
F7
100
AcDbEntity
  8
치수문자_일반주서
 62
     0
100
AcDbTrace
 10
-61.76498729810776
 20
23.55140826205723
 30
0.0
 11
-61.76498729810776
 21
22.45074159539056
 31
0.0
 12
-65.06698729810776
 22
23.00107492872389
 32
0.0
 13
-65.06698729810776
 23
23.00107492872389
 33
0.0
  0
MTEXT
  5
FF
330
F7
100
AcDbEntity
  8
치수문자_일반주서
 62
     0
100
AcDbMText
 10
-20.06698729810775
 20
27.37607492872389
 30
0.0
 40
3.5
 41
0.0
 71
     2
 72
     1
  1
\A1;90
  7
SLDTEXTSTYLE0
 73
     1
 44
1.0
  0
POINT
  5
1A2
330
F7
100
AcDbEntity
  8
Defpoints
 62
     0
100
AcDbPoint
 10
24.93301270189225
 20
3.001074928723889
 30
0.0
  0
POINT
  5
1A3
330
F7
100
AcDbEntity
  8
Defpoints
 62
     0
100
AcDbPoint
 10
-65.06698729810776
 20
2.401074928723895
 30
0.0
  0
POINT
  5
1A4
330
F7
100
AcDbEntity
  8
Defpoints
 62
     0
100
AcDbPoint
 10
-65.06698729810776
 20
23.00107492872389
 30
0.0
  0
ENDBLK
  5
F9
330
F7
100
AcDbEntity
  8
0
100
AcDbBlockEnd
  0
BLOCK
  5
108
330
107
100
AcDbEntity
  8
0
100
AcDbBlockBegin
  2
SW_DOWELSYMBOL_0
 70
     0
 10
0.0
 20
0.0
 30
0.0
  3
SW_DOWELSYMBOL_0
  1

  0
CIRCLE
  5
10A
330
107
100
AcDbEntity
  8
해칭선
 62
     0
100
AcDbCircle
 10
0.0
 20
0.0
 30
0.0
 40
3.000000000000001
  0
HATCH
  5
10B
330
107
100
AcDbEntity
  8
0
  6
Continuous
 62
     0
370
     0
100
AcDbHatch
 10
0.0
 20
0.0
 30
0.0
210
0.0
220
0.0
230
1.0
  2
SOLID
 70
     1
 71
     0
 91
        1
 92
        0
 93
        3
 72
     2
 10
0.0
 20
0.0
 40
3.000000000000001
 50
0.0
 51
90.0
 73
     1
 72
     1
 10
0.0
 20
3.000000000000001
 11
0.0
 21
0.0
 72
     1
 10
0.0
 20
0.0
 11
3.000000000000003
 21
0.0
 97
        0
 75
     0
 76
     1
 98
        1
 10
0.0
 20
0.0
  0
HATCH
  5
10C
330
107
100
AcDbEntity
  8
0
  6
Continuous
 62
     0
370
     0
100
AcDbHatch
 10
0.0
 20
0.0
 30
0.0
210
0.0
220
0.0
230
1.0
  2
SOLID
 70
     1
 71
     0
 91
        1
 92
        0
 93
        3
 72
     2
 10
0.0
 20
0.0
 40
3.000000000000001
 50
180.0
 51
270.0000000000008
 73
     1
 72
     1
 10
0.0
 20
-3.000000000000001
 11
0.0
 21
0.0
 72
     1
 10
0.0
 20
0.0
 11
-3.000000000000003
 21
0.0
 97
        0
 75
     0
 76
     1
 98
        1
 10
0.0
 20
0.0
  0
ENDBLK
  5
109
330
107
100
AcDbEntity
  8
0
100
AcDbBlockEnd
  0
BLOCK
  5
167
330
166
100
AcDbEntity
  8
0
100
AcDbBlockBegin
  2
*D8
 70
     1
 10
0.0
 20
0.0
 30
0.0
  3
*D8
  1

  0
LINE
  5
168
330
166
100
AcDbEntity
  8
치수문자_일반주서
 62
     0
370
    -2
100
AcDbLine
 10
11.77456662019823
 20
16.49151495257678
 30
0.0
 11
22.66398241076428
 21
-0.0000000000001465
 31
0.0
  0
MTEXT
  5
169
330
166
100
AcDbEntity
  8
치수문자_일반주서
 62
     0
100
AcDbMText
 10
22.56435305291799
 20
4.914785148259656
 30
0.0
 40
3.5
 41
0.0
 71
     5
 72
     1
  1
\A1;R0.1
  7
SLDTEXTSTYLE0
 11
0.5510189947672727
 21
-0.8344927006305473
 31
0.0
 73
     1
 44
1.0
  0
SOLID
  5
16A
330
166
100
AcDbEntity
  8
치수문자_일반주서
 62
     0
100
AcDbTrace
 10
12.23381576977858
 20
16.79475907269703
 30
0.0
 11
11.31531747061789
 21
16.18827083245652
 31
0.0
 12
9.955101899476698
 22
19.24700985005884
 32
0.0
 13
9.955101899476698
 23
19.24700985005884
 33
0.0
  0
LINE
  5
16B
330
166
100
AcDbEntity
  8
치수문자_일반주서
 62
     0
100
AcDbLine
 10
9.85499999999997
 20
19.3304591201219
 30
0.0
 11
9.94499999999997
 21
19.3304591201219
 31
0.0
  0
LINE
  5
16C
330
166
100
AcDbEntity
  8
치수문자_일반주서
 62
     0
100
AcDbLine
 10
9.89999999999997
 20
19.2854591201219
 30
0.0
 11
9.89999999999997
 21
19.3754591201219
 31
0.0
  0
POINT
  5
16D
330
166
100
AcDbEntity
  8
Defpoints
 62
     0
100
AcDbPoint
 10
9.955101899476698
 20
19.24700985005884
 30
0.0
  0
POINT
  5
180
330
166
100
AcDbEntity
  8
Defpoints
 62
     0
100
AcDbPoint
 10
9.89999999999997
 20
19.3304591201219
 30
0.0
  0
ENDBLK
  5
16E
330
166
100
AcDbEntity
  8
0
100
AcDbBlockEnd
  0
BLOCK
  5
175
330
174
100
AcDbEntity
  8
0
100
AcDbBlockBegin
  2
*D9
 70
     1
 10
0.0
 20
0.0
 30
0.0
  3
*D9
  1

  0
LINE
  5
177
330
174
100
AcDbEntity
  8
치수문자_일반주서
 62
     0
370
    -2
100
AcDbLine
 10
9.999999999999968
 20
22.7929591201219
 30
0.0
 11
9.999999999999968
 21
33.98045912012191
 31
0.0
  0
LINE
  5
178
330
174
100
AcDbEntity
  8
치수문자_일반주서
 62
     0
370
    -2
100
AcDbLine
 10
0.0
 20
22.74140327075447
 30
0.0
 11
0.0
 21
33.98045912012191
 31
0.0
  0
LINE
  5
179
330
174
100
AcDbEntity
  8
치수문자_일반주서
 62
     0
370
    -2
100
AcDbLine
 10
6.697999999999968
 20
33.98045912012191
 30
0.0
 11
3.302
 21
33.98045912012191
 31
0.0
  0
SOLID
  5
17A
330
174
100
AcDbEntity
  8
치수문자_일반주서
 62
     0
100
AcDbTrace
 10
6.697999999999968
 20
33.43012578678858
 30
0.0
 11
6.697999999999968
 21
34.53079245345525
 31
0.0
 12
9.999999999999968
 22
33.98045912012191
 32
0.0
 13
9.999999999999968
 23
33.98045912012191
 33
0.0
  0
SOLID
  5
17B
330
174
100
AcDbEntity
  8
치수문자_일반주서
 62
     0
100
AcDbTrace
 10
3.302
 20
34.53079245345525
 30
0.0
 11
3.302
 21
33.43012578678858
 31
0.0
 12
0.0
 22
33.98045912012191
 32
0.0
 13
0.0
 23
33.98045912012191
 33
0.0
  0
MTEXT
  5
17C
330
174
100
AcDbEntity
  8
치수문자_일반주서
 62
     0
100
AcDbMText
 10
4.999999999999989
 20
38.35545912012191
 30
0.0
 40
3.5
 41
0.0
 71
     2
 72
     1
  1
\A1;10
  7
SLDTEXTSTYLE0
 73
     1
 44
1.0
  0
POINT
  5
17D
330
174
100
AcDbEntity
  8
Defpoints
 62
     0
100
AcDbPoint
 10
9.999999999999968
 20
22.7304591201219
 30
0.0
  0
POINT
  5
17E
330
174
100
AcDbEntity
  8
Defpoints
 62
     0
100
AcDbPoint
 10
0.0
 20
22.67890327075447
 30
0.0
  0
POINT
  5
17F
330
174
100
AcDbEntity
  8
Defpoints
 62
     0
100
AcDbPoint
 10
0.0
 20
33.98045912012191
 30
0.0
  0
ENDBLK
  5
176
330
174
100
AcDbEntity
  8
0
100
AcDbBlockEnd
  0
BLOCK
  5
186
330
185
100
AcDbEntity
  8
0
100
AcDbBlockBegin
  2
*D10
 70
     1
 10
0.0
 20
0.0
 30
0.0
  3
*D10
  1

  0
LINE
  5
188
330
185
100
AcDbEntity
  8
치수문자_일반주서
 62
     0
370
    -2
100
AcDbLine
 10
67.34500213810993
 20
6.740765715622729
 30
0.0
 11
67.34500213810993
 21
17.92826571562274
 31
0.0
  0
LINE
  5
189
330
185
100
AcDbEntity
  8
치수문자_일반주서
 62
     0
370
    -2
100
AcDbLine
 10
57.34500213810996
 20
6.689209866255297
 30
0.0
 11
57.34500213810996
 21
17.92826571562274
 31
0.0
  0
LINE
  5
18A
330
185
100
AcDbEntity
  8
치수문자_일반주서
 62
     0
370
    -2
100
AcDbLine
 10
64.04300213810993
 20
17.92826571562274
 30
0.0
 11
60.64700213810996
 21
17.92826571562274
 31
0.0
  0
SOLID
  5
18B
330
185
100
AcDbEntity
  8
치수문자_일반주서
 62
     0
100
AcDbTrace
 10
64.04300213810993
 20
17.37793238228941
 30
0.0
 11
64.04300213810993
 21
18.47859904895608
 31
0.0
 12
67.34500213810993
 22
17.92826571562274
 32
0.0
 13
67.34500213810993
 23
17.92826571562274
 33
0.0
  0
SOLID
  5
18C
330
185
100
AcDbEntity
  8
치수문자_일반주서
 62
     0
100
AcDbTrace
 10
60.64700213810996
 20
18.47859904895608
 30
0.0
 11
60.64700213810996
 21
17.37793238228941
 31
0.0
 12
57.34500213810996
 22
17.92826571562274
 32
0.0
 13
57.34500213810996
 23
17.92826571562274
 33
0.0
  0
MTEXT
  5
18D
330
185
100
AcDbEntity
  8
치수문자_일반주서
 62
     0
100
AcDbMText
 10
62.34500213810995
 20
22.30326571562274
 30
0.0
 40
3.5
 41
0.0
 71
     2
 72
     1
  1
\A1;10
  7
SLDTEXTSTYLE0
 73
     1
 44
1.0
  0
POINT
  5
18E
330
185
100
AcDbEntity
  8
Defpoints
 62
     0
100
AcDbPoint
 10
67.34500213810993
 20
6.678265715622729
 30
0.0
  0
POINT
  5
18F
330
185
100
AcDbEntity
  8
Defpoints
 62
     0
100
AcDbPoint
 10
57.34500213810996
 20
6.626709866255297
 30
0.0
  0
POINT
  5
190
330
185
100
AcDbEntity
  8
Defpoints
 62
     0
100
AcDbPoint
 10
57.34500213810996
 20
17.92826571562274
 30
0.0
  0
ENDBLK
  5
187
330
185
100
AcDbEntity
  8
0
100
AcDbBlockEnd
  0
BLOCK
  5
192
330
191
100
AcDbEntity
  8
0
100
AcDbBlockBegin
  2
*D11
 70
     1
 10
0.0
 20
0.0
 30
0.0
  3
*D11
  1

  0
LINE
  5
194
330
191
100
AcDbEntity
  8
치수문자_일반주서
 62
     0
370
    -2
100
AcDbLine
 10
69.11956875830845
 20
0.439321548077769
 30
0.0
 11
80.00898454887594
 21
-16.05219340449818
 31
0.0
  0
MTEXT
  5
195
330
191
100
AcDbEntity
  8
치수문자_일반주서
 62
     0
100
AcDbMText
 10
79.90935519102922
 20
-11.13740825623839
 30
0.0
 40
3.5
 41
0.0
 71
     5
 72
     1
  1
\A1;R0.1
  7
SLDTEXTSTYLE0
 11
0.5510189947673469
 21
-0.8344927006304982
 31
0.0
 73
     1
 44
1.0
  0
SOLID
  5
196
330
191
100
AcDbEntity
  8
치수문자_일반주서
 62
     0
100
AcDbTrace
 10
69.57881790788876
 20
0.7425656681980651
 30
0.0
 11
68.66031960872813
 21
0.136077427957472
 31
0.0
 12
67.30010403758666
 22
3.194816445559674
 32
0.0
 13
67.30010403758666
 23
3.194816445559674
 33
0.0
  0
LINE
  5
197
330
191
100
AcDbEntity
  8
치수문자_일반주서
 62
     0
100
AcDbLine
 10
67.20000213810992
 20
3.27826571562273
 30
0.0
 11
67.29000213810993
 21
3.27826571562273
 31
0.0
  0
LINE
  5
198
330
191
100
AcDbEntity
  8
치수문자_일반주서
 62
     0
100
AcDbLine
 10
67.24500213810992
 20
3.23326571562273
 30
0.0
 11
67.24500213810992
 21
3.32326571562273
 31
0.0
  0
POINT
  5
199
330
191
100
AcDbEntity
  8
Defpoints
 62
     0
100
AcDbPoint
 10
67.30010403758666
 20
3.194816445559674
 30
0.0
  0
POINT
  5
19A
330
191
100
AcDbEntity
  8
Defpoints
 62
     0
100
AcDbPoint
 10
67.24500213810992
 20
3.27826571562273
 30
0.0
  0
ENDBLK
  5
193
330
191
100
AcDbEntity
  8
0
100
AcDbBlockEnd
  0
BLOCK
  5
1B1
330
1B0
100
AcDbEntity
  8
0
100
AcDbBlockBegin
  2
*D12
 70
     1
 10
0.0
 20
0.0
 30
0.0
  3
*D12
  1

  0
LINE
  5
1B3
330
1B0
100
AcDbEntity
  8
치수문자_일반주서
 62
     0
370
    -2
100
AcDbLine
 10
26.66099562968304
 20
-5.715278823165563
 30
0.0
 11
35.30710760222237
 21
-18.82585031379421
 31
0.0
  0
MTEXT
  5
1B4
330
1B0
100
AcDbEntity
  8
치수문자_일반주서
 62
     0
100
AcDbMText
 10
34.96945226275697
 20
-13.54577901368561
 30
0.0
 40
3.5
 41
0.0
 71
     5
 72
     1
  1
\A1;R0.2
  7
SLDTEXTSTYLE0
 11
0.5505376721275839
 21
-0.8348103207126403
 31
0.0
 73
     1
 44
1.0
  0
SOLID
  5
1B5
330
1B0
100
AcDbEntity
  8
치수문자_일반주서
 62
     0
100
AcDbTrace
 10
27.1204195761819
 20
-5.412299590938017
 30
0.0
 11
26.20157168318418
 21
-6.018258055393111
 31
0.0
 12
24.84312023631776
 22
-2.958735144172426
 32
0.0
 13
24.84312023631776
 23
-2.958735144172426
 33
0.0
  0
LINE
  5
1B6
330
1B0
100
AcDbEntity
  8
치수문자_일반주서
 62
     0
100
AcDbLine
 10
24.68801270189224
 20
-2.791773080029898
 30
0.0
 11
24.77801270189224
 21
-2.791773080029898
 31
0.0
  0
LINE
  5
1B7
330
1B0
100
AcDbEntity
  8
치수문자_일반주서
 62
     0
100
AcDbLine
 10
24.73301270189224
 20
-2.836773080029898
 30
0.0
 11
24.73301270189224
 21
-2.746773080029898
 31
0.0
  0
POINT
  5
1B8
330
1B0
100
AcDbEntity
  8
Defpoints
 62
     0
100
AcDbPoint
 10
24.84312023631776
 20
-2.958735144172426
 30
0.0
  0
POINT
  5
1B9
330
1B0
100
AcDbEntity
  8
Defpoints
 62
     0
100
AcDbPoint
 10
24.73301270189224
 20
-2.791773080029898
 30
0.0
  0
ENDBLK
  5
1B2
330
1B0
100
AcDbEntity
  8
0
100
AcDbBlockEnd
  0
ENDSEC
  0
SECTION
  2
ENTITIES
  0
LINE
  5
96
330
1F
100
AcDbEntity
  8
0
  6
Continuous
 62
     1
370
    15
100
AcDbLine
 10
10.88453486720867
 20
3.001074928723894
 30
0.0
 11
9.933012701892245
 21
3.001074928723894
 31
0.0
1001
PE_URL
1000

  0
LINE
  5
97
330
1F
100
AcDbEntity
  8
0
  6
Continuous
 62
     1
370
    15
100
AcDbLine
 10
17.21765497534281
 20
-2.998925071276108
 30
0.0
 11
19.04602386003715
 21
-2.998925071276108
 31
0.0
1001
PE_URL
1000

  0
LINE
  5
98
330
1F
100
AcDbEntity
  8
0
  6
Continuous
 62
     1
370
    15
100
AcDbLine
 10
19.04602386003715
 20
3.001074928723894
 30
0.0
 11
17.21765497534283
 21
3.001074928723894
 31
0.0
1001
PE_URL
1000

  0
LINE
  5
99
330
1F
100
AcDbEntity
  8
0
  6
Continuous
 62
     1
370
    15
100
AcDbLine
 10
9.933012701892245
 20
-2.998925071276108
 30
0.0
 11
10.88453486720861
 21
-2.998925071276108
 31
0.0
1001
PE_URL
1000

  0
LINE
  5
9A
330
1F
100
AcDbEntity
  8
외형선
  6
Continuous
370
    15
100
AcDbLine
 10
9.054084291549707
 20
-2.998925071276107
 30
0.0
 11
9.933012701892245
 21
-2.998925071276107
 31
0.0
  0
LINE
  5
9B
330
1F
100
AcDbEntity
  8
외형선
  6
Continuous
370
    15
100
AcDbLine
 10
-64.46698729810775
 20
-2.998925071276107
 30
0.0
 11
8.932863361860221
 21
-2.998925071276107
 31
0.0
  0
LINE
  5
9C
330
1F
100
AcDbEntity
  8
외형선
  6
Continuous
370
    15
100
AcDbLine
 10
8.932863361860221
 20
3.001074928723892
 30
0.0
 11
-64.46698729810775
 21
3.001074928723892
 31
0.0
  0
LINE
  5
9D
330
1F
100
AcDbEntity
  8
외형선
  6
Continuous
370
    15
100
AcDbLine
 10
9.933012701892245
 20
3.001074928723892
 30
0.0
 11
9.054084291549792
 21
3.001074928723892
 31
0.0
  0
LINE
  5
9E
330
1F
100
AcDbEntity
  8
외형선
  6
Continuous
370
    15
100
AcDbLine
 10
-64.46698729810775
 20
3.001074928723893
 30
0.0
 11
-65.06698729810776
 21
2.401074928723895
 31
0.0
  0
LINE
  5
9F
330
1F
100
AcDbEntity
  8
외형선
  6
Continuous
370
    15
100
AcDbLine
 10
-65.06698729810776
 20
-2.398925071276109
 30
0.0
 11
-64.46698729810775
 21
-2.998925071276107
 31
0.0
  0
SPLINE
  5
A0
330
1F
100
AcDbEntity
  8
0
  6
Continuous
 62
     1
370
    15
100
AcDbSpline
210
0.0
220
0.0
230
1.0
 70
     8
 71
     3
 72
    17
 73
    13
 74
     0
 42
0.000000001
 43
0.00000001
 40
0.0
 40
0.0
 40
0.0
 40
0.0
 40
0.1123508723070957
 40
0.2247007300890815
 40
0.3370510787390643
 40
0.4494024985374083
 40
0.5617549560518813
 40
0.674108417770269
 40
0.7800832399379747
 40
0.8860643931443494
 40
0.9920397618242576
 40
1.0
 40
1.0
 40
1.0
 40
1.0
 10
9.93301270189226
 20
0.5470387849010085
 30
0.0
 10
10.3933811484976
 20
0.2819370537501705
 30
0.0
 10
11.31411388459463
 20
-0.248264014690582
 30
0.0
 10
12.69520872310105
 20
-1.036328441721011
 30
0.0
 10
14.07630767993187
 20
-1.748791524649588
 30
0.0
 10
15.45742120626609
 20
-2.338989752843113
 30
0.0
 10
16.83854569926134
 20
-2.764953858848187
 30
0.0
 10
18.19355963217175
 20
-2.991069586335157
 30
0.0
 10
19.52241247538479
 20
-3.020389128875149
 30
0.0
 10
20.82517253054234
 20
-2.844644894031434
 30
0.0
 10
21.72629194875272
 20
-2.640629311510481
 30
0.0
 10
22.193140525231
 20
-2.462018630181045
 30
0.0
 10
22.22575742141765
 20
-2.449539795834594
 30
0.0
1001
PE_URL
1000

  0
SPLINE
  5
A1
330
1F
100
AcDbEntity
  8
외형선
  6
Continuous
370
    15
100
AcDbSpline
210
0.0
220
0.0
230
1.0
 70
    24
 71
     3
 72
    14
 73
    10
 74
     0
 42
0.000000001
 43
0.00000001
 40
0.0
 40
0.0
 40
0.0
 40
0.0
 40
0.1548596126518378
 40
0.3179280988996317
 40
0.4809965851474285
 40
0.6440650713952272
 40
0.8071335576430226
 40
0.9702020438908165
 40
0.9999999999999999
 40
0.9999999999999999
 40
0.9999999999999999
 40
0.9999999999999999
 10
9.93301270189226
 20
2.958326253762244
 30
0.0
 10
9.933012701892245
 20
2.779191594540932
 30
0.0
 10
9.933012701892217
 20
2.411426619038207
 30
0.0
 10
9.933012701892231
 20
1.800395090478495
 30
0.0
 10
9.933012701892302
 20
1.224778369848605
 30
0.0
 10
9.93301270189226
 20
0.7454458787198831
 30
0.0
 10
9.933012701892217
 20
0.4414776016723341
 30
0.0
 10
9.933012701892231
 20
0.3104886232736849
 30
0.0
 10
9.933012701892217
 20
0.3472217385316783
 30
0.0
 10
9.933012701892231
 20
0.352897022126039
 30
0.0
  0
SPLINE
  5
A2
330
1F
100
AcDbEntity
  8
0
  6
Continuous
 62
     1
370
    15
100
AcDbSpline
210
0.0
220
0.0
230
1.0
 70
     8
 71
     3
 72
    42
 73
    38
 74
     0
 42
0.000000001
 43
0.00000001
 40
0.0
 40
0.0
 40
0.0
 40
0.0
 40
0.0624999999999983
 40
0.0624999999999983
 40
0.0937499999999974
 40
0.0937499999999974
 40
0.1249999999999966
 40
0.1249999999999966
 40
0.1562499999999957
 40
0.1562499999999957
 40
0.1874999999999948
 40
0.1874999999999948
 40
0.2499999999999952
 40
0.2499999999999952
 40
0.3124999999999956
 40
0.3124999999999956
 40
0.374999999999996
 40
0.374999999999996
 40
0.4374999999999964
 40
0.4374999999999964
 40
0.4999999999999968
 40
0.4999999999999968
 40
0.5624999999999971
 40
0.5624999999999971
 40
0.6249999999999976
 40
0.6249999999999976
 40
0.6874999999999979
 40
0.6874999999999979
 40
0.7499999999999983
 40
0.7499999999999983
 40
0.8124999999999987
 40
0.8124999999999987
 40
0.8749999999999991
 40
0.8749999999999991
 40
0.9374999999999994
 40
0.9374999999999994
 40
1.0
 40
1.0
 40
1.0
 40
1.0
 10
24.71872698760653
 20
-2.991262223512313
 30
0.0
 10
24.42534367791775
 20
-2.953665250787893
 30
0.0
 10
24.11386743972814
 20
-2.915678618059886
 30
0.0
 10
23.65196769214967
 20
-2.836153477347302
 30
0.0
 10
23.49957271961983
 20
-2.805971901624061
 30
0.0
 10
23.19168763126581
 20
-2.738093966318866
 30
0.0
 10
23.03684733076053
 20
-2.70042399388097
 30
0.0
 10
22.72720598883882
 20
-2.618028439153264
 30
0.0
 10
22.57240738048008
 20
-2.573303509282824
 30
0.0
 10
22.26468741920025
 20
-2.477372714312043
 30
0.0
 10
22.11227358634363
 20
-2.426238635864464
 30
0.0
 10
21.65014047644451
 20
-2.262902044198519
 30
0.0
 10
21.33867416267719
 20
-2.140994046176674
 30
0.0
 10
20.72368542861296
 20
-1.876942095093118
 30
0.0
 10
20.41654294217599
 20
-1.734362404112542
 30
0.0
 10
19.79733032589648
 20
-1.431602443356824
 30
0.0
 10
19.49183506477058
 20
-1.272526561652942
 30
0.0
 10
18.87491767250282
 20
-0.9416399317571534
 30
0.0
 10
18.56351287494068
 20
-0.7697782650293391
 30
0.0
 10
17.9495006136225
 20
-0.4213699791575075
 30
0.0
 10
17.6413778964373
 20
-0.2438048013861417
 30
0.0
 10
17.02233651536169
 20
0.1125843594960513
 30
0.0
 10
16.71724160988403
 20
0.2902800134431137
 30
0.0
 10
16.09968422559907
 20
0.6421647515766419
 30
0.0
 10
15.78839250182016
 20
0.8160961139374424
 30
0.0
 10
15.17545506306736
 20
1.151789564674753
 30
0.0
 10
14.8661817932711
 20
1.314952535493407
 30
0.0
 10
14.24741272179238
 20
1.62570595866185
 30
0.0
 10
13.94254620997207
 20
1.772576904043624
 30
0.0
 10
13.3244491012656
 20
2.047435394243701
 30
0.0
 10
13.01332194599729
 20
2.174987703710836
 30
0.0
 10
12.40155710086081
 20
2.404551555114894
 30
0.0
 10
12.09096357832532
 20
2.507810846246301
 30
0.0
 10
11.47256774261398
 20
2.686407007815118
 30
0.0
 10
11.16775753850926
 20
2.761598059792628
 30
0.0
 10
10.54922126613256
 20
2.882814905143253
 30
0.0
 10
10.23910332645295
 20
2.92845497822837
 30
0.0
 10
9.93301270189297
 20
2.958326253757343
 30
0.0
1001
PE_URL
1000

  0
LINE
  5
A4
330
1F
100
AcDbEntity
  8
0
  6
Continuous
 62
     1
370
    15
100
AcDbLine
 10
24.93301270189225
 20
-2.555868838212179
 30
0.0
 11
24.93301270189225
 21
0.2913520289947585
 31
0.0
1001
PE_URL
1000

  0
SPLINE
  5
A5
330
1F
100
AcDbEntity
  8
0
  6
Continuous
 62
     1
370
    15
100
AcDbSpline
210
0.0
220
0.0
230
1.0
 70
     8
 71
     3
 72
    10
 73
     6
 74
     0
 42
0.000000001
 43
0.00000001
 40
0.0
 40
0.0
 40
0.0
 40
0.0
 40
0.5
 40
0.5
 40
1.0
 40
1.0
 40
1.0
 40
1.0
 10
24.73301270189226
 20
-2.664831597544547
 30
0.0
 10
24.78518734266654
 20
-2.678665890451642
 30
0.0
 10
24.83297932765169
 20
-2.676496682908466
 30
0.0
 10
24.90725378528087
 20
-2.640140916353043
 30
0.0
 10
24.93301270189269
 20
-2.60487318378294
 30
0.0
 10
24.93301270189216
 20
-2.555868838212172
 30
0.0
1001
PE_URL
1000

  0
SPLINE
  5
A6
330
1F
100
AcDbEntity
  8
0
  6
Continuous
 62
     1
370
    15
100
AcDbSpline
210
0.0
220
0.0
230
1.0
 70
     8
 71
     3
 72
    18
 73
    14
 74
     0
 42
0.000000001
 43
0.00000001
 40
0.0
 40
0.0
 40
0.0
 40
0.0
 40
0.031019919382585
 40
0.1307478418471165
 40
0.2304762000331212
 40
0.3302055090294145
 40
0.4299357391597052
 40
0.529666860676707
 40
0.6237359503665403
 40
0.7178106598350331
 40
0.8118802346392023
 40
0.9059431350598258
 40
1.0
 40
1.0
 40
1.0
 40
1.0
 10
10.88453486720867
 20
2.978410296512793
 30
0.0
 10
11.02772906122747
 20
2.984828023225082
 30
0.0
 10
11.63128742648578
 20
3.011878509941286
 30
0.0
 10
12.69520861384652
 20
2.844477116355634
 30
0.0
 10
14.07630770756509
 20
2.483967629739873
 30
0.0
 10
15.45742120498914
 20
1.933897159869519
 30
0.0
 10
16.83854567673525
 20
1.252160469891764
 30
0.0
 10
18.1935597213983
 20
0.4958777601469107
 30
0.0
 10
19.52241216163464
 20
-0.2765111359783673
 30
0.0
 10
20.82517370429129
 20
-1.017317789404995
 30
0.0
 10
22.12787843224933
 20
-1.691253691342993
 30
0.0
 10
23.43048549934743
 20
-2.271377268886658
 30
0.0
 10
24.29884625430234
 20
-2.533682959858883
 30
0.0
 10
24.73301270189225
 20
-2.664831597544538
 30
0.0
1001
PE_URL
1000

  0
SPLINE
  5
A7
330
1F
100
AcDbEntity
  8
0
  6
Continuous
 62
     1
370
    15
100
AcDbSpline
210
0.0
220
0.0
230
1.0
 70
     8
 71
     3
 72
    15
 73
    11
 74
     0
 42
0.000000001
 43
0.00000001
 40
0.0
 40
0.0
 40
0.0
 40
0.0
 40
0.1294956032254066
 40
0.2589920771880054
 40
0.3884893826088961
 40
0.5179874801446332
 40
0.6474863303902472
 40
0.7769858938822704
 40
0.8990936033903623
 40
1.0
 40
1.0
 40
1.0
 40
1.0
 10
24.73301270189224
 20
0.3733408672979995
 30
0.0
 10
24.27260441432281
 20
0.6345562313237945
 30
0.0
 10
23.35178474336754
 20
1.156988715805155
 30
0.0
 10
21.97054808090765
 20
1.85240691004719
 30
0.0
 10
20.58930203063089
 20
2.419747659710172
 30
0.0
 10
19.20804163504059
 20
2.816332883253587
 30
0.0
 10
17.82678719226831
 20
3.016592035432751
 30
0.0
 10
16.4717499038661
 20
3.000433069944238
 30
0.0
 10
15.21856413192496
 20
2.815785747686825
 30
0.0
 10
14.42570830185784
 20
2.56729788890144
 30
0.0
 10
14.06696765430085
 20
2.454865474343584
 30
0.0
1001
PE_URL
1000

  0
SPLINE
  5
A8
330
1F
100
AcDbEntity
  8
0
  6
Continuous
 62
     1
370
    15
100
AcDbSpline
210
0.0
220
0.0
230
1.0
 70
     8
 71
     3
 72
    10
 73
     6
 74
     0
 42
0.000000001
 43
0.00000001
 40
0.0
 40
0.0
 40
0.0
 40
0.0
 40
0.5
 40
0.5
 40
1.0
 40
1.0
 40
1.0
 40
1.0
 10
24.93301270189225
 20
0.2913520289947594
 30
0.0
 10
24.93301270189226
 20
0.2856212359198839
 30
0.0
 10
24.90910365850212
 20
0.2898313985268727
 30
0.0
 10
24.83148598043042
 20
0.3205019611627004
 30
0.0
 10
24.78072907741992
 20
0.3459662622980116
 30
0.0
 10
24.73301270189225
 20
0.3733408672979936
 30
0.0
1001
PE_URL
1000

  0
LINE
  5
A9
330
1F
100
AcDbEntity
  8
외형선
  6
Continuous
370
    15
100
AcDbLine
 10
9.93301270189226
 20
2.958326253762244
 30
0.0
 11
9.933012701892245
 21
3.001074928723894
 31
0.0
  0
SPLINE
  5
AA
330
1F
100
AcDbEntity
  8
0
  6
Continuous
 62
     1
370
    15
100
AcDbSpline
210
0.0
220
0.0
230
1.0
 70
     8
 71
     3
 72
    13
 73
     9
 74
     0
 42
0.000000001
 43
0.00000001
 40
0.0
 40
0.0
 40
0.0
 40
0.0
 40
0.1059912551947543
 40
0.2847729052704541
 40
0.463563379490372
 40
0.6423639062063713
 40
0.8211757078059485
 40
1.0
 40
1.0
 40
1.0
 40
1.0
 10
17.21765497534281
 20
-2.972835614207938
 30
0.0
 10
16.96026673069392
 20
-2.976688602430159
 30
0.0
 10
16.2687266779184
 20
-2.987040651266628
 30
0.0
 10
15.14317275768272
 20
-2.786370697107974
 30
0.0
 10
13.84075671809493
 20
-2.414261244679215
 30
0.0
 10
12.53826987227858
 20
-1.881458747886089
 30
0.0
 10
11.23568130035358
 20
-1.235687688169613
 30
0.0
 10
10.36724567820912
 20
-0.7476136541338316
 30
0.0
 10
9.933012701892984
 20
-0.5035681140181069
 30
0.0
1001
PE_URL
1000

  0
LINE
  5
AB
330
1F
100
AcDbEntity
  8
외형선
  6
Continuous
370
    15
100
AcDbLine
 10
9.93301270189226
 20
-0.5035681140201771
 30
0.0
 11
9.933012701892245
 21
0.5470387849010176
 31
0.0
  0
SPLINE
  5
AC
330
1F
100
AcDbEntity
  8
0
  6
Continuous
 62
     1
370
    15
100
AcDbSpline
210
0.0
220
0.0
230
1.0
 70
     8
 71
     3
 72
    10
 73
     6
 74
     0
 42
0.000000001
 43
0.00000001
 40
0.0
 40
0.0
 40
0.0
 40
0.0
 40
0.5
 40
0.5
 40
1.0
 40
1.0
 40
1.0
 40
1.0
 10
24.73301270189226
 20
1.376917359091299
 30
0.0
 10
24.78518734266654
 20
1.350111286729141
 30
0.0
 10
24.83297932765175
 20
1.310818478998003
 30
0.0
 10
24.9072537852809
 20
1.224510052580812
 30
0.0
 10
24.93301270189267
 20
1.177692764112501
 30
0.0
 10
24.93301270189216
 20
1.142143976905064
 30
0.0
1001
PE_URL
1000

  0
LINE
  5
AD
330
1F
100
AcDbEntity
  8
0
  6
Continuous
 62
     1
370
    15
100
AcDbLine
 10
24.93301270189225
 20
0.2913520289947591
 30
0.0
 11
24.93301270189225
 21
1.142143976905055
 31
0.0
1001
PE_URL
1000

  0
SPLINE
  5
AE
330
1F
100
AcDbEntity
  8
0
  6
Continuous
 62
     1
370
    15
100
AcDbSpline
210
0.0
220
0.0
230
1.0
 70
     8
 71
     3
 72
    12
 73
     8
 74
     0
 42
0.000000001
 43
0.00000001
 40
0.0
 40
0.0
 40
0.0
 40
0.0
 40
0.0837643135093135
 40
0.3128444132298277
 40
0.5419120095961161
 40
0.7709633532579726
 40
1.0
 40
1.0
 40
1.0
 40
1.0
 10
19.04602386003714
 20
2.979249009660821
 30
0.0
 10
19.2048133841588
 20
2.985001822543674
 30
0.0
 10
19.79786325730515
 20
3.006487528035157
 30
0.0
 10
20.82517376292205
 20
2.849235288886487
 30
0.0
 10
22.12787841661597
 20
2.515987910512099
 30
0.0
 10
23.43048550325537
 20
2.019519916225958
 30
0.0
 10
24.29884625560497
 20
1.591113629924083
 30
0.0
 10
24.73301270189225
 20
1.376917359091321
 30
0.0
1001
PE_URL
1000

  0
SPLINE
  5
AF
330
1F
100
AcDbEntity
  8
0
  6
Continuous
 62
     1
370
    15
100
AcDbSpline
210
0.0
220
0.0
230
1.0
 70
     8
 71
     3
 72
    10
 73
     6
 74
     0
 42
0.000000001
 43
0.00000001
 40
0.0
 40
0.0
 40
0.0
 40
0.0
 40
0.334087671339497
 40
0.6681723258770367
 40
1.0
 40
1.0
 40
1.0
 40
1.0
 10
9.933012701892245
 20
-2.948827352326823
 30
0.0
 10
10.3933811631511
 20
-2.976354457469125
 30
0.0
 10
11.31411392855505
 20
-3.031408419184769
 30
0.0
 10
12.69209645631188
 20
-2.857805466838768
 30
0.0
 10
13.60971395035532
 20
-2.58744011660754
 30
0.0
 10
14.06696765430081
 20
-2.452715616895797
 30
0.0
1001
PE_URL
1000

  0
SPLINE
  5
B0
330
1F
100
AcDbEntity
  8
외형선
  6
Continuous
370
    15
100
AcDbSpline
210
0.0
220
0.0
230
1.0
 70
    24
 71
     3
 72
    20
 73
    16
 74
     0
 42
0.000000001
 43
0.00000001
 40
0.0
 40
0.0
 40
0.0
 40
0.0
 40
0.0095241931660479
 40
0.0923664769948035
 40
0.1728740361539745
 40
0.2557163199827314
 40
0.3362238791419036
 40
0.4190661629706611
 40
0.4995737221298314
 40
0.5824160059585873
 40
0.662923565117757
 40
0.7457658489465118
 40
0.8262734081055524
 40
0.9091156919344414
 40
1.0
 40
1.0
 40
1.0
 40
1.0
 10
9.93301270189226
 20
-0.3079879911618237
 30
0.0
 10
9.933012701892274
 20
-0.3070677354720758
 30
0.0
 10
9.933012701892387
 20
-0.2981430135019825
 30
0.0
 10
9.933012701892189
 20
-0.3298835185019631
 30
0.0
 10
9.933012701892189
 20
-0.4066849139751973
 30
0.0
 10
9.933012701892345
 20
-0.5357805253422139
 30
0.0
 10
9.933012701892146
 20
-0.709444320754506
 30
0.0
 10
9.933012701892288
 20
-0.921346014923098
 30
0.0
 10
9.933012701892217
 20
-1.16883942265335
 30
0.0
 10
9.933012701892245
 20
-1.440599127895054
 30
0.0
 10
9.933012701892132
 20
-1.733748051106166
 30
0.0
 10
9.933012701892231
 20
-2.034882133453698
 30
0.0
 10
9.933012701892203
 20
-2.340293806603909
 30
0.0
 10
9.933012701892288
 20
-2.650754458230481
 30
0.0
 10
9.93301270189226
 20
-2.846450055181697
 30
0.0
 10
9.933012701892245
 20
-2.948827352326822
 30
0.0
  0
SPLINE
  5
B1
330
1F
100
AcDbEntity
  8
0
  6
Continuous
 62
     1
370
    15
100
AcDbSpline
210
0.0
220
0.0
230
1.0
 70
     8
 71
     3
 72
     9
 73
     5
 74
     0
 42
0.000000001
 43
0.00000001
 40
0.0
 40
0.0
 40
0.0
 40
0.0
 40
0.5508917055014411
 40
1.0
 40
1.0
 40
1.0
 40
1.0
 10
24.71872698760653
 20
2.99341208096009
 30
0.0
 10
24.27260443726917
 20
2.928332595325693
 30
0.0
 10
23.43685349016785
 20
2.838377089132345
 30
0.0
 10
22.60110085984475
 20
2.571531997348662
 30
0.0
 10
22.22575742141765
 20
2.45168965328238
 30
0.0
1001
PE_URL
1000

  0
LINE
  5
B3
330
1F
100
AcDbEntity
  8
0
  6
Continuous
 62
     1
370
    15
100
AcDbLine
 10
24.93301270189225
 20
1.142143976905055
 30
0.0
 11
24.93301270189225
 21
2.785987711031152
 31
0.0
1001
PE_URL
1000

  0
LINE
  5
B4
330
1F
100
AcDbEntity
  8
0
  6
Continuous
 62
     1
370
    15
100
AcDbLine
 10
24.93301270189225
 20
-2.783837853583366
 30
0.0
 11
24.93301270189225
 21
-2.555868838212179
 31
0.0
1001
PE_URL
1000

  0
SPLINE
  5
B5
330
1F
100
AcDbEntity
  8
외형선
  6
Continuous
370
    15
100
AcDbSpline
210
0.0
220
0.0
230
1.0
 70
    24
 71
     3
 72
    14
 73
    10
 74
     0
 42
0.000000001
 43
0.00000001
 40
0.0
 40
0.0
 40
0.0
 40
0.0
 40
0.1525127658333102
 40
0.3157146790499925
 40
0.4789165922668474
 40
0.6421185054836167
 40
0.8053204187003845
 40
0.9685223319171405
 40
1.0
 40
1.0
 40
1.0
 40
1.0
 10
9.93301270189226
 20
-2.948827352326825
 30
0.0
 10
9.933012701892288
 20
-2.773711180291515
 30
0.0
 10
9.933012701892316
 20
-2.411205486105773
 30
0.0
 10
9.933012701892288
 20
-1.803131801729919
 30
0.0
 10
9.933012701892245
 20
-1.22356609018118
 30
0.0
 10
9.933012701892217
 20
-0.7368678899811419
 30
0.0
 10
9.933012701892359
 20
-0.4226398660557299
 30
0.0
 10
9.933012701892274
 20
-0.2832449028094972
 30
0.0
 10
9.933012701892231
 20
-0.3159831208177535
 30
0.0
 10
9.933012701892231
 20
-0.3212765509412866
 30
0.0
  0
SPLINE
  5
B6
330
1F
100
AcDbEntity
  8
외형선
  6
Continuous
370
    15
100
AcDbSpline
210
0.0
220
0.0
230
1.0
 70
     8
 71
     3
 72
     8
 73
     4
 74
     0
 42
0.000000001
 43
0.00000001
 40
0.0
 40
0.0
 40
0.0
 40
0.0
 40
1.0
 40
1.0
 40
1.0
 40
1.0
 10
9.93301270189226
 20
-2.948827352326824
 30
0.0
 10
9.60249963703319
 20
-2.913931647558897
 30
0.0
 10
9.266039803295754
 20
-2.86058452249191
 30
0.0
 10
8.93286336186025
 20
-2.790109900008488
 30
0.0
  0
SPLINE
  5
B7
330
1F
100
AcDbEntity
  8
외형선
  6
Continuous
370
    15
100
AcDbSpline
210
0.0
220
0.0
230
1.0
 70
     8
 71
     3
 72
     8
 73
     4
 74
     0
 42
0.000000001
 43
0.00000001
 40
0.0
 40
0.0
 40
0.0
 40
0.0
 40
1.0
 40
1.0
 40
1.0
 40
1.0
 10
9.933012701892217
 20
-0.503568114017692
 30
0.0
 10
9.602499637033162
 20
-0.3145530940756968
 30
0.0
 10
9.266039803295726
 20
-0.121294007568128
 30
0.0
 10
8.932863361860264
 20
0.0709140376380176
 30
0.0
  0
SPLINE
  5
B8
330
1F
100
AcDbEntity
  8
외형선
  6
Continuous
370
    15
100
AcDbSpline
210
0.0
220
0.0
230
1.0
 70
     8
 71
     3
 72
     8
 73
     4
 74
     0
 42
0.000000001
 43
0.00000001
 40
0.0
 40
0.0
 40
0.0
 40
0.0
 40
1.0
 40
1.0
 40
1.0
 40
1.0
 10
9.933012701892217
 20
2.958326253757412
 30
0.0
 10
9.602499637033162
 20
2.990580906576381
 30
0.0
 10
9.266039803295726
 20
3.004737660871577
 30
0.0
 10
8.932863361860264
 20
3.000261901699416
 30
0.0
  0
LINE
  5
B9
330
1F
100
AcDbEntity
  8
외형선
  6
Continuous
370
    15
100
AcDbLine
 10
8.932863361860235
 20
1.100728830379105
 30
0.0
 11
8.932863361860221
 21
3.001074928723892
 31
0.0
  0
SPLINE
  5
BA
330
1F
100
AcDbEntity
  8
외형선
  6
Continuous
370
    15
100
AcDbSpline
210
0.0
220
0.0
230
1.0
 70
     8
 71
     3
 72
     8
 73
     4
 74
     0
 42
0.000000001
 43
0.00000001
 40
0.0
 40
0.0
 40
0.0
 40
0.0
 40
1.0
 40
1.0
 40
1.0
 40
1.0
 10
9.93301270189226
 20
0.5470387849009934
 30
0.0
 10
9.60249963703319
 20
0.7355840849773871
 30
0.0
 10
9.266039803295754
 20
0.9218730338095827
 30
0.0
 10
8.93286336186025
 20
1.100750904570493
 30
0.0
  0
LINE
  5
BB
330
1F
100
AcDbEntity
  8
외형선
  6
Continuous
370
    15
100
AcDbLine
 10
8.932863361860235
 20
-2.790118596736935
 30
0.0
 11
8.932863361860221
 21
0.0709313785003412
 31
0.0
  0
LINE
  5
BC
330
1F
100
AcDbEntity
  8
외형선
  6
Continuous
370
    15
100
AcDbLine
 10
9.05408429154972
 20
-2.996782127471474
 30
0.0
 11
8.932863361860264
 21
-2.99811204425163
 31
0.0
  0
LINE
  5
BD
330
1F
100
AcDbEntity
  8
외형선
  6
Continuous
370
    15
100
AcDbLine
 10
8.932863361860221
 20
-2.998925071276107
 30
0.0
 11
8.932863361860221
 21
-2.998111640401914
 31
0.0
  0
LINE
  5
BE
330
1F
100
AcDbEntity
  8
외형선
  6
Continuous
370
    15
100
AcDbLine
 10
-64.46698729810775
 20
0.0010749287238931
 30
0.0
 11
-64.46698729810775
 21
3.001074928723892
 31
0.0
  0
LINE
  5
BF
330
1F
100
AcDbEntity
  8
외형선
  6
Continuous
370
    15
100
AcDbLine
 10
-64.46698729810775
 20
-2.998925071276107
 30
0.0
 11
-64.46698729810775
 21
0.0010749287238931
 31
0.0
  0
LINE
  5
C0
330
1F
100
AcDbEntity
  8
외형선
  6
Continuous
370
    15
100
AcDbLine
 10
-65.06698729810776
 20
0.0010749287238931
 30
0.0
 11
-65.06698729810776
 21
2.401074928723895
 31
0.0
  0
LINE
  5
C1
330
1F
100
AcDbEntity
  8
외형선
  6
Continuous
370
    15
100
AcDbLine
 10
-65.06698729810776
 20
-2.398925071276109
 30
0.0
 11
-65.06698729810776
 21
0.0010749287238931
 31
0.0
  0
SPLINE
  5
C2
330
1F
100
AcDbEntity
  8
외형선
  6
Continuous
370
    15
100
AcDbSpline
210
0.0
220
0.0
230
1.0
 70
    24
 71
     3
 72
    14
 73
    10
 74
     0
 42
0.000000001
 43
0.00000001
 40
0.0
 40
0.0
 40
0.0
 40
0.0
 40
0.0890937215294152
 40
0.2525247663407769
 40
0.4159558111520529
 40
0.5793868559633274
 40
0.7428179007745901
 40
0.9062489455858795
 40
0.9999999999999999
 40
0.9999999999999999
 40
0.9999999999999999
 40
0.9999999999999999
 10
9.933012701892288
 20
0.3628511951169357
 30
0.0
 10
9.933012701892302
 20
0.3567723712879997
 30
0.0
 10
9.933012701892274
 20
0.3395427220974894
 30
0.0
 10
9.933012701892274
 20
0.5353296640057501
 30
0.0
 10
9.933012701892203
 20
0.9103198624574559
 30
0.0
 10
9.93301270189233
 20
1.433765683438631
 30
0.0
 10
9.933012701892274
 20
2.032354696972877
 30
0.0
 10
9.933012701892096
 20
2.561596684871509
 30
0.0
 10
9.933012701892231
 20
2.852340783263775
 30
0.0
 10
9.93301270189226
 20
2.958326253757456
 30
0.0
  0
LINE
  5
C3
330
1F
100
AcDbEntity
  8
중심선
100
AcDbLine
 10
-68.06698729810776
 20
0.0010749287238931
 30
0.0
 11
27.93301270189225
 21
0.0010749287238892
 31
0.0
  0
LINE
  5
C4
330
1F
100
AcDbEntity
  8
참조1
100
AcDbLine
 10
-40.06750066566399
 20
-2.498925071276081
 30
0.0
 11
-40.06750066566398
 21
-39.9989250712761
 31
0.0
  0
LINE
  5
C5
330
1F
100
AcDbEntity
  8
참조1
100
AcDbLine
 10
-40.06750066566398
 20
-39.9989250712761
 30
0.0
 11
-55.22584411241643
 21
-39.9989250712761
 31
0.0
  0
CIRCLE
  5
C6
330
1F
100
AcDbEntity
  8
해칭선
100
AcDbCircle
 10
0.0
 20
0.0
 30
0.0
 40
2.999999999999997
  0
INSERT
  5
C7
330
1F
100
AcDbEntity
  8
0
  6
Continuous
 62
     7
100
AcDbBlockReference
 66
     1
  2
블럭10
 10
-33.98145781989072
 20
-52.04609937292004
 30
0.0
  0
ATTRIB
  5
C8
330
C7
100
AcDbEntity
  8
FORMAT
 62
     2
100
AcDbText
 10
-50.10071885932627
 20
-49.97073246008785
 30
0.0
 40
4.233333333333333
  1
SEME0106002E [ 4 FLUTE ]
 41
0.75
  7
SLDTEXTSTYLE0
 11
-50.10071885932627
 21
-52.08739912675451
 31
0.0
100
AcDbAttribute
  2
AUTOATTR0
 70
     0
 74
     1
  0
SEQEND
  5
C9
330
C7
100
AcDbEntity
  8
0
  6
Continuous
 62
     7
  0
HATCH
  5
CA
330
1F
100
AcDbEntity
  8
중심선
100
AcDbHatch
 10
0.0
 20
0.0
 30
0.0
210
0.0
220
0.0
230
1.0
  2
SOLID
 70
     1
 71
     0
 91
        1
 92
        0
 93
        4
 72
     1
 10
-28.26654851550987
 20
-35.7989250712761
 11
-31.71282375934715
 21
-35.7989250712761
 72
     1
 10
-31.71282375934715
 20
-35.7989250712761
 11
-33.84105361855117
 21
-38.3352506518487
 72
     1
 10
-33.84105361855117
 20
-38.3352506518487
 11
-30.39474528960074
 21
-38.33521122254621
 72
     1
 10
-30.39474528960074
 20
-38.33521122254621
 11
-28.26654851550987
 21
-35.7989250712761
 97
        0
 75
     0
 76
     1
 98
        1
 10
-4.265542650805706
 20
0.0010749287238931
  0
HATCH
  5
CB
330
1F
100
AcDbEntity
  8
중심선
100
AcDbHatch
 10
0.0
 20
0.0
 30
0.0
210
0.0
220
0.0
230
1.0
  2
SOLID
 70
     1
 71
     0
 91
        1
 92
        0
 93
        4
 72
     1
 10
-23.25378452447391
 20
-35.7989250712761
 11
-26.7000597683112
 21
-35.7989250712761
 72
     1
 10
-26.7000597683112
 20
-35.7989250712761
 11
-31.23119777666859
 21
-41.19892507127612
 72
     1
 10
-31.23119777666859
 20
-41.19892507127612
 11
-27.78492253283131
 21
-41.19892507127612
 72
     1
 10
-27.78492253283131
 20
-41.19892507127612
 11
-23.25378452447391
 21
-35.7989250712761
 97
        0
 75
     0
 76
     1
 98
        1
 10
-4.265542650805706
 20
0.0010749287238931
  0
HATCH
  5
CC
330
1F
100
AcDbEntity
  8
중심선
100
AcDbHatch
 10
0.0
 20
0.0
 30
0.0
210
0.0
220
0.0
230
1.0
  2
SOLID
 70
     1
 71
     0
 91
        1
 92
        0
 93
        4
 72
     1
 10
-18.24102053343802
 20
-35.79892507127613
 11
-21.68729577727514
 21
-35.7989250712761
 72
     1
 10
-21.68729577727514
 20
-35.7989250712761
 11
-28.73573267916439
 21
-44.19892507127612
 72
     1
 10
-28.73573267916439
 20
-44.19892507127612
 11
-25.2894574353271
 21
-44.19892507127612
 72
     1
 10
-25.2894574353271
 20
-44.19892507127612
 11
-18.24102053343802
 21
-35.79892507127613
 97
        0
 75
     0
 76
     1
 98
        1
 10
-4.265542650805706
 20
0.0010749287238931
  0
HATCH
  5
CD
330
1F
100
AcDbEntity
  8
중심선
100
AcDbHatch
 10
0.0
 20
0.0
 30
0.0
210
0.0
220
0.0
230
1.0
  2
SOLID
 70
     1
 71
     0
 91
        1
 92
        0
 93
        6
 72
     3
 10
-13.44113010242582
 20
-39.99892507132738
 11
3.960054785062283
 21
1.540882976769353E-10
 40
0.3939339440162628
 50
17.0953918060844
 51
320.0019657685081
 73
     0
 72
     1
 10
-11.75813044672523
 20
-38.58681907591441
 11
-9.452828573024188
 21
-36.65249236586649
 72
     3
 10
-13.44113010247867
 20
-39.99892507127625
 11
6.600054785286831
 21
-1.278976924368180E-13
 40
0.6363583540795978
 50
39.99873849337411
 51
368.4976242363725
 73
     1
 72
     1
 10
-7.015797610578058
 20
-39.03892507120612
 11
-14.76106279564275
 21
-39.03892507120609
 72
     1
 10
-14.76106279564275
 20
-39.03892507120609
 11
-14.76108784008868
 21
-40.95892507120602
 72
     1
 10
-14.76108784008868
 20
-40.95892507120602
 11
-10.31970807061664
 21
-40.95892507120599
 97
        0
 75
     0
 76
     1
 98
        1
 10
-4.265542650805706
 20
0.0010749287238931
  0
DIMENSION
  5
CE
330
1F
100
AcDbEntity
  8
치수문자_일반주서
100
AcDbDimension
  2
_D
 10
34.93301270189226
 20
-2.998925071276073
 30
0.0
 11
34.9330127018922
 21
12.66757492872396
 31
0.0
 70
   160
  1
%%c<>
 71
     2
 42
6.0
 52
-270.0
  3
SLDDIMSTYLE0
100
AcDbAlignedDimension
 13
24.93301270189225
 23
3.001074928723889
 33
0.0
 14
24.93301270189225
 24
-2.998925071276111
 34
0.0
 50
90.0000000000002
100
AcDbRotatedDimension
1001
PE_URL
1000

  0
DIMENSION
  5
DC
330
1F
100
AcDbEntity
  8
치수문자_일반주서
100
AcDbDimension
  2
_D_1
 10
-75.06698729810775
 20
-2.998925071276149
 30
0.0
 11
-75.06698729810779
 21
12.66757492872386
 31
0.0
 70
   160
  1
%%c<>
 71
     2
 42
6.000000000000005
 52
-270.0
  3
SLDDIMSTYLE0
100
AcDbAlignedDimension
 13
-64.46698729810777
 23
3.001074928723896
 33
0.0
 14
-64.46698729810777
 24
-2.998925071276109
 34
0.0
 50
90.0000000000002
100
AcDbRotatedDimension
  0
DIMENSION
  5
E9
330
1F
100
AcDbEntity
  8
치수문자_일반주서
100
AcDbDimension
  2
_D_2
 10
9.93301270189226
 20
12.92478131987752
 30
0.0
 11
17.43301270189225
 21
12.92478131987752
 31
0.0
 70
   160
  1
<>
 71
     2
 42
14.99999999999999
  3
SLDDIMSTYLE1
100
AcDbAlignedDimension
 13
24.93301270189225
 23
3.001074928723889
 33
0.0
 14
9.93301270189226
 24
2.958326253762244
 34
0.0
100
AcDbRotatedDimension
1001
PE_URL
1000

  0
DIMENSION
  5
F5
330
1F
100
AcDbEntity
  8
치수문자_일반주서
100
AcDbDimension
  2
_D_3
 10
-65.06698729810776
 20
23.00107492872389
 30
0.0
 11
-20.06698729810775
 21
23.00107492872389
 31
0.0
 70
   160
  1
<>
 71
     2
 42
90.0
  3
SLDDIMSTYLE1
100
AcDbAlignedDimension
 13
24.93301270189225
 23
3.001074928723889
 33
0.0
 14
-65.06698729810776
 24
2.401074928723895
 34
0.0
 50
0.0000000000000045
100
AcDbRotatedDimension
1001
PE_URL
1000

  0
LINE
  5
100
330
1F
100
AcDbEntity
  8
참조1
100
AcDbLine
 10
42.74649651723784
 20
7.441074928723896
 30
0.0
 11
42.74649651723784
 21
-7.438925071276109
 31
0.0
  0
LINE
  5
101
330
1F
100
AcDbEntity
  8
참조1
100
AcDbLine
 10
55.44649651723784
 20
5.441074928723896
 30
0.0
 11
42.74649651723784
 21
5.441074928723896
 31
0.0
  0
SOLID
  5
102
330
1F
100
AcDbEntity
  8
참조1
100
AcDbTrace
 10
42.74649651723784
 20
5.441074928723896
 30
0.0
 11
49.09649651723783
 21
4.425074928723896
 31
0.0
 12
49.09649651723783
 22
6.457074928723896
 32
0.0
 13
49.09649651723783
 23
6.457074928723896
 33
0.0
  0
LINE
  5
103
330
1F
100
AcDbEntity
  8
참조1
100
AcDbLine
 10
55.44649651723784
 20
-5.438925071276109
 30
0.0
 11
42.74649651723784
 21
-5.438925071276109
 31
0.0
  0
SOLID
  5
104
330
1F
100
AcDbEntity
  8
참조1
100
AcDbTrace
 10
42.74649651723784
 20
-5.438925071276109
 30
0.0
 11
49.09649651723783
 21
-6.454925071276109
 31
0.0
 12
49.09649651723783
 22
-4.422925071276109
 32
0.0
 13
49.09649651723783
 23
-4.422925071276109
 33
0.0
  0
MTEXT
  5
105
330
1F
100
AcDbEntity
  8
참조1
100
AcDbMText
 10
52.14398660970812
 20
10.98929157337383
 30
0.0
 40
3.5
 41
0.0
 71
     1
 72
     1
  1
A
  7
SLDTEXTSTYLE0
 73
     1
 44
1.0
  0
MTEXT
  5
106
330
1F
100
AcDbEntity
  8
참조1
100
AcDbMText
 10
52.14398660970812
 20
0.1092915733738259
 30
0.0
 40
3.5
 41
0.0
 71
     1
 72
     1
  1
A
  7
SLDTEXTSTYLE0
 73
     1
 44
1.0
  0
INSERT
  5
10D
330
1F
100
AcDbEntity
  8
해칭선
100
AcDbBlockReference
  2
SW_DOWELSYMBOL_0
 10
0.0
 20
0.0
 30
0.0
  0
ARC
  5
1AA
330
1F
100
AcDbEntity
  8
0
  6
Continuous
 62
     1
370
    15
100
AcDbCircle
 10
24.73301270189224
 20
2.793922937477677
 30
0.0
 40
0.2
100
AcDbArc
 50
0.0
 51
94.09604375815182
1001
PE_URL
1000

  0
ARC
  5
1AB
102
{ACAD_REACTORS
102
}
330
1F
100
AcDbEntity
  8
0
  6
Continuous
 62
     1
370
    15
100
AcDbCircle
 10
24.73301270189224
 20
-2.791773080029898
 30
0.0
 40
0.2
100
AcDbArc
 50
265.9039562418482
 51
0.0
1001
PE_URL
1000

  0
DIMENSION
  5
1AD
102
{ACAD_REACTORS
102
}
102
{ACAD_XDICTIONARY
360
1AE
102
}
330
1F
100
AcDbEntity
  8
치수문자_일반주서
100
AcDbDimension
  2
*D12
 10
24.73301270189224
 20
-2.791773080029898
 30
0.0
 11
32.77807517088629
 21
-14.99094040302052
 31
0.0
 70
   164
 71
     5
 42
0.1999999999999995
  3
SLDDIMSTYLE1
100
AcDbRadialDimension
 15
24.84312023631776
 25
-2.958735144172426
 35
0.0
 40
0.0
1001
ACAD
1000
DSTYLE
1002
{
1070
    78
1070
     8
1002
}
1001
ACAD_DSTYLE_DIMRADIAL_EXTENSION
1070
   387
1070
     1
1070
   388
1040
4.640899530499178
1070
   390
1040
0.0
1001
PE_URL
1000

  0
ENDSEC
  0
SECTION
  2
OBJECTS
  0
DICTIONARY
  5
C
330
0
100
AcDbDictionary
281
     1
  3
ACAD_GROUP
350
D
  3
ACAD_LAYOUT
350
1A
  3
ACAD_MLINESTYLE
350
17
  3
ACAD_PLOTSETTINGS
350
19
  3
ACAD_PLOTSTYLENAME
350
E
  3
ACAD_SCALELIST
350
47
  3
APPDATA
350
12F
  3
DWGPROPS
350
1BB
  0
DICTIONARY
  5
170
330
2
100
AcDbDictionary
280
     1
281
     1
  3
ACAD_LAYERSTATES
360
171
  0
DICTIONARY
  5
1AE
330
1AD
100
AcDbDictionary
280
     1
281
     1
  0
DICTIONARY
  5
D
102
{ACAD_REACTORS
330
C
102
}
330
C
100
AcDbDictionary
281
     1
  0
DICTIONARY
  5
1A
102
{ACAD_REACTORS
330
C
102
}
330
C
100
AcDbDictionary
281
     1
  3
Layout1
350
1E
  3
Layout2
350
26
  3
Model
350
22
  0
DICTIONARY
  5
17
102
{ACAD_REACTORS
330
C
102
}
330
C
100
AcDbDictionary
281
     1
  3
Standard
350
18
  0
DICTIONARY
  5
19
102
{ACAD_REACTORS
330
C
102
}
330
C
100
AcDbDictionary
281
     1
  0
ACDBDICTIONARYWDFLT
  5
E
102
{ACAD_REACTORS
330
C
102
}
330
C
100
AcDbDictionary
281
     1
  3
Normal
350
F
100
AcDbDictionaryWithDefault
340
F
  0
DICTIONARY
  5
47
102
{ACAD_REACTORS
330
C
102
}
330
C
100
AcDbDictionary
281
     1
  3
A0
350
48
  3
A1
350
49
  3
A2
350
4A
  3
A3
350
4B
  3
A4
350
4C
  3
A5
350
4D
  3
A6
350
4E
  3
A7
350
4F
  3
A8
350
50
  3
A9
350
51
  3
B0
350
52
  3
B1
350
53
  3
B2
350
54
  3
B3
350
55
  3
B4
350
56
  3
B5
350
57
  3
B6
350
58
  3
B7
350
59
  3
B8
350
5A
  3
B9
350
5B
  3
C0
350
5C
  3
C1
350
5D
  3
C2
350
5E
  3
C3
350
5F
  3
C4
350
60
  3
C5
350
61
  3
C6
350
62
  3
C7
350
63
  3
C8
350
64
  3
C9
350
65
  3
D0
350
66
  3
D1
350
67
  3
D2
350
68
  0
DICTIONARY
  5
12F
102
{ACAD_REACTORS
330
C
102
}
330
C
100
AcDbDictionary
281
     1
  0
XRECORD
  5
1BB
102
{ACAD_REACTORS
330
C
102
}
330
C
100
AcDbXrecord
280
     1
  1
DWGPROPS COOKIE
  2

  3

  4

  6

  7

  8
12017044
  9

300
=
301
=
302
=
303
=
304
=
305
=
306
=
307
=
308
=
309
=
 40
0.0
 41
2458269.435021424
 42
2458270.414572384
  1

 90
        0
  0
DICTIONARY
  5
171
102
{ACAD_REACTORS
330
170
102
}
330
170
100
AcDbDictionary
281
     1
  0
LAYOUT
  5
1E
102
{ACAD_REACTORS
330
1A
102
}
330
1A
100
AcDbPlotSettings
  1

  2
none_device
  4

  6

 40
0.0
 41
0.0
 42
0.0
 43
0.0
 44
0.0
 45
0.0
 46
0.0
 47
0.0
 48
0.0
 49
0.0
140
0.0
141
0.0
142
1.0
143
1.0
 70
   688
 72
     1
 73
     0
 74
     5
  7

 75
    16
147
1.0
148
0.0
149
0.0
100
AcDbLayout
  1
Layout1
 70
     1
 71
     1
 10
0.0
 20
0.0
 11
420.0
 21
297.0
 12
0.0
 22
0.0
 32
0.0
 14
1.000000000000000E+20
 24
1.000000000000000E+20
 34
1.000000000000000E+20
 15
-1.000000000000000E+20
 25
-1.000000000000000E+20
 35
-1.000000000000000E+20
146
0.0
 13
0.0
 23
0.0
 33
0.0
 16
1.0
 26
0.0
 36
0.0
 17
0.0
 27
1.0
 37
0.0
 76
     0
330
1B
  0
LAYOUT
  5
26
102
{ACAD_REACTORS
330
1A
102
}
330
1A
100
AcDbPlotSettings
  1

  2
none_device
  4

  6

 40
0.0
 41
0.0
 42
0.0
 43
0.0
 44
0.0
 45
0.0
 46
0.0
 47
0.0
 48
0.0
 49
0.0
140
0.0
141
0.0
142
1.0
143
1.0
 70
   688
 72
     1
 73
     0
 74
     5
  7

 75
    16
147
1.0
148
0.0
149
0.0
100
AcDbLayout
  1
Layout2
 70
     1
 71
     2
 10
0.0
 20
0.0
 11
0.0
 21
0.0
 12
0.0
 22
0.0
 32
0.0
 14
0.0
 24
0.0
 34
0.0
 15
0.0
 25
0.0
 35
0.0
146
0.0
 13
0.0
 23
0.0
 33
0.0
 16
1.0
 26
0.0
 36
0.0
 17
0.0
 27
1.0
 37
0.0
 76
     0
330
23
  0
LAYOUT
  5
22
102
{ACAD_REACTORS
330
1A
102
}
330
1A
100
AcDbPlotSettings
  1

  2
none_device
  4
ANSI_A_(11.00_x_8.50_Inches)
  6

 40
6.35
 41
19.05
 42
6.35000508
 43
19.05000254
 44
279.4
 45
215.9
 46
111.6855150645388
 47
107.5066733936597
 48
0.0
 49
0.0
140
0.0
141
0.0
142
0.0789824718862547
143
1.0
 70
  1696
 72
     0
 73
     0
 74
     0
  7

 75
     0
147
0.0235690232323232
148
0.0
149
0.0
100
AcDbLayout
  1
Model
 70
     1
 71
     0
 10
0.0
 20
0.0
 11
420.0
 21
297.0
 12
0.0
 22
0.0
 32
0.0
 14
-79.44198729810779
 24
-49.97073246008785
 34
0.0
 15
55.44649651723785
 25
27.3760749287239
 35
0.0
146
0.0
 13
0.0
 23
0.0
 33
0.0
 16
1.0
 26
0.0
 36
0.0
 17
0.0
 27
1.0
 37
0.0
 76
     0
330
1F
331
29
  0
MLINESTYLE
  5
18
102
{ACAD_REACTORS
330
17
102
}
330
17
100
AcDbMlineStyle
  2
Standard
 70
     0
  3

 62
   256
 51
90.0
 52
90.0
 71
     2
 49
0.5
 62
   256
  6
BYLAYER
 49
-0.5
 62
   256
  6
BYLAYER
  0
ACDBPLACEHOLDER
  5
F
102
{ACAD_REACTORS
330
E
102
}
330
E
  0
SCALE
  5
48
102
{ACAD_REACTORS
330
47
102
}
330
47
100
AcDbScale
 70
     0
300
1:1
140
1.0
141
1.0
290
     1
  0
SCALE
  5
49
102
{ACAD_REACTORS
330
47
102
}
330
47
100
AcDbScale
 70
     0
300
1:2
140
1.0
141
2.0
290
     0
  0
SCALE
  5
4A
102
{ACAD_REACTORS
330
47
102
}
330
47
100
AcDbScale
 70
     0
300
1:4
140
1.0
141
4.0
290
     0
  0
SCALE
  5
4B
102
{ACAD_REACTORS
330
47
102
}
330
47
100
AcDbScale
 70
     0
300
1:5
140
1.0
141
5.0
290
     0
  0
SCALE
  5
4C
102
{ACAD_REACTORS
330
47
102
}
330
47
100
AcDbScale
 70
     0
300
1:8
140
1.0
141
8.0
290
     0
  0
SCALE
  5
4D
102
{ACAD_REACTORS
330
47
102
}
330
47
100
AcDbScale
 70
     0
300
1:10
140
1.0
141
10.0
290
     0
  0
SCALE
  5
4E
102
{ACAD_REACTORS
330
47
102
}
330
47
100
AcDbScale
 70
     0
300
1:16
140
1.0
141
16.0
290
     0
  0
SCALE
  5
4F
102
{ACAD_REACTORS
330
47
102
}
330
47
100
AcDbScale
 70
     0
300
1:20
140
1.0
141
20.0
290
     0
  0
SCALE
  5
50
102
{ACAD_REACTORS
330
47
102
}
330
47
100
AcDbScale
 70
     0
300
1:30
140
1.0
141
30.0
290
     0
  0
SCALE
  5
51
102
{ACAD_REACTORS
330
47
102
}
330
47
100
AcDbScale
 70
     0
300
1:40
140
1.0
141
40.0
290
     0
  0
SCALE
  5
52
102
{ACAD_REACTORS
330
47
102
}
330
47
100
AcDbScale
 70
     0
300
1:50
140
1.0
141
50.0
290
     0
  0
SCALE
  5
53
102
{ACAD_REACTORS
330
47
102
}
330
47
100
AcDbScale
 70
     0
300
1:100
140
1.0
141
100.0
290
     0
  0
SCALE
  5
54
102
{ACAD_REACTORS
330
47
102
}
330
47
100
AcDbScale
 70
     0
300
2:1
140
2.0
141
1.0
290
     0
  0
SCALE
  5
55
102
{ACAD_REACTORS
330
47
102
}
330
47
100
AcDbScale
 70
     0
300
4:1
140
4.0
141
1.0
290
     0
  0
SCALE
  5
56
102
{ACAD_REACTORS
330
47
102
}
330
47
100
AcDbScale
 70
     0
300
8:1
140
8.0
141
1.0
290
     0
  0
SCALE
  5
57
102
{ACAD_REACTORS
330
47
102
}
330
47
100
AcDbScale
 70
     0
300
10:1
140
10.0
141
1.0
290
     0
  0
SCALE
  5
58
102
{ACAD_REACTORS
330
47
102
}
330
47
100
AcDbScale
 70
     0
300
100:1
140
100.0
141
1.0
290
     0
  0
SCALE
  5
59
102
{ACAD_REACTORS
330
47
102
}
330
47
100
AcDbScale
 70
     0
300
1/128" = 1'-0"
140
0.0078125
141
12.0
290
     0
  0
SCALE
  5
5A
102
{ACAD_REACTORS
330
47
102
}
330
47
100
AcDbScale
 70
     0
300
1/64" = 1'-0"
140
0.015625
141
12.0
290
     0
  0
SCALE
  5
5B
102
{ACAD_REACTORS
330
47
102
}
330
47
100
AcDbScale
 70
     0
300
1/32" = 1'-0"
140
0.03125
141
12.0
290
     0
  0
SCALE
  5
5C
102
{ACAD_REACTORS
330
47
102
}
330
47
100
AcDbScale
 70
     0
300
1/16" = 1'-0"
140
0.0625
141
12.0
290
     0
  0
SCALE
  5
5D
102
{ACAD_REACTORS
330
47
102
}
330
47
100
AcDbScale
 70
     0
300
3/32" = 1'-0"
140
0.09375
141
12.0
290
     0
  0
SCALE
  5
5E
102
{ACAD_REACTORS
330
47
102
}
330
47
100
AcDbScale
 70
     0
300
1/8" = 1'-0"
140
0.125
141
12.0
290
     0
  0
SCALE
  5
5F
102
{ACAD_REACTORS
330
47
102
}
330
47
100
AcDbScale
 70
     0
300
3/16" = 1'-0"
140
0.1875
141
12.0
290
     0
  0
SCALE
  5
60
102
{ACAD_REACTORS
330
47
102
}
330
47
100
AcDbScale
 70
     0
300
1/4" = 1'-0"
140
0.25
141
12.0
290
     0
  0
SCALE
  5
61
102
{ACAD_REACTORS
330
47
102
}
330
47
100
AcDbScale
 70
     0
300
3/8" = 1'-0"
140
0.375
141
12.0
290
     0
  0
SCALE
  5
62
102
{ACAD_REACTORS
330
47
102
}
330
47
100
AcDbScale
 70
     0
300
1/2" = 1'-0"
140
0.5
141
12.0
290
     0
  0
SCALE
  5
63
102
{ACAD_REACTORS
330
47
102
}
330
47
100
AcDbScale
 70
     0
300
3/4" = 1'-0"
140
0.75
141
12.0
290
     0
  0
SCALE
  5
64
102
{ACAD_REACTORS
330
47
102
}
330
47
100
AcDbScale
 70
     0
300
1" = 1'-0"
140
1.0
141
12.0
290
     0
  0
SCALE
  5
65
102
{ACAD_REACTORS
330
47
102
}
330
47
100
AcDbScale
 70
     0
300
1-1/2" = 1'-0"
140
1.5
141
12.0
290
     0
  0
SCALE
  5
66
102
{ACAD_REACTORS
330
47
102
}
330
47
100
AcDbScale
 70
     0
300
3" = 1'-0"
140
3.0
141
12.0
290
     0
  0
SCALE
  5
67
102
{ACAD_REACTORS
330
47
102
}
330
47
100
AcDbScale
 70
     0
300
6" = 1'-0"
140
6.0
141
12.0
290
     0
  0
SCALE
  5
68
102
{ACAD_REACTORS
330
47
102
}
330
47
100
AcDbScale
 70
     0
300
1'-0" = 1'-0"
140
12.0
141
12.0
290
     0
  0
ENDSEC
  0
EOF
