  0
SECTION
  2
HEADER
  9
$ACADVER
  1
AC1015
  9
$ACADMAINTVER
 70
     6
  9
$DWGCODEPAGE
  3
ANSI_949
  9
$INSBASE
 10
0.0
 20
0.0
 30
0.0
  9
$EXTMIN
 10
-50.57416270067755
 20
-49.97180738881174
 30
0.0
  9
$EXTMAX
 10
79.73835494594202
 20
27.3760749287239
 30
0.0
  9
$LIMMIN
 10
0.0
 20
0.0
  9
$LIMMAX
 10
420.0
 20
297.0
  9
$ORTHOMODE
 70
     1
  9
$REGENMODE
 70
     1
  9
$FILLMODE
 70
     1
  9
$QTEXTMODE
 70
     0
  9
$MIRRTEXT
 70
     1
  9
$LTSCALE
 40
1.0
  9
$ATTMODE
 70
     1
  9
$TEXTSIZE
 40
3.5
  9
$TRACEWID
 40
1.0
  9
$TEXTSTYLE
  7
Standard
  9
$CLAYER
  8
0
  9
$CELTYPE
  6
ByLayer
  9
$CECOLOR
 62
   256
  9
$CELTSCALE
 40
1.0
  9
$DISPSILH
 70
     0
  9
$DIMSCALE
 40
1.0
  9
$DIMASZ
 40
3.302
  9
$DIMEXO
 40
1.0
  9
$DIMDLI
 40
3.75
  9
$DIMRND
 40
0.0
  9
$DIMDLE
 40
0.0
  9
$DIMEXE
 40
1.0
  9
$DIMTP
 40
0.0
  9
$DIMTM
 40
0.0
  9
$DIMTXT
 40
3.5
  9
$DIMCEN
 40
2.5
  9
$DIMTSZ
 40
0.0
  9
$DIMTOL
 70
     0
  9
$DIMLIM
 70
     0
  9
$DIMTIH
 70
     1
  9
$DIMTOH
 70
     1
  9
$DIMSE1
 70
     0
  9
$DIMSE2
 70
     0
  9
$DIMTAD
 70
     1
  9
$DIMZIN
 70
     0
  9
$DIMBLK
  1

  9
$DIMASO
 70
     1
  9
$DIMSHO
 70
     1
  9
$DIMPOST
  1

  9
$DIMAPOST
  1

  9
$DIMALT
 70
     0
  9
$DIMALTD
 70
     3
  9
$DIMALTF
 40
0.0393700787401575
  9
$DIMLFAC
 40
1.0
  9
$DIMTOFL
 70
     1
  9
$DIMTVP
 40
0.0
  9
$DIMTIX
 70
     0
  9
$DIMSOXD
 70
     0
  9
$DIMSAH
 70
     0
  9
$DIMBLK1
  1

  9
$DIMBLK2
  1

  9
$DIMSTYLE
  2
ISO-25
  9
$DIMCLRD
 70
     0
  9
$DIMCLRE
 70
     0
  9
$DIMCLRT
 70
     0
  9
$DIMTFAC
 40
1.0
  9
$DIMGAP
 40
1.524
  9
$DIMJUST
 70
     0
  9
$DIMSD1
 70
     0
  9
$DIMSD2
 70
     0
  9
$DIMTOLJ
 70
     0
  9
$DIMTZIN
 70
     0
  9
$DIMALTZ
 70
     0
  9
$DIMALTTZ
 70
     0
  9
$DIMUPT
 70
     0
  9
$DIMDEC
 70
     2
  9
$DIMTDEC
 70
     2
  9
$DIMALTU
 70
     2
  9
$DIMALTTD
 70
     3
  9
$DIMTXSTY
  7
Standard
  9
$DIMAUNIT
 70
     0
  9
$DIMADEC
 70
     2
  9
$DIMALTRND
 40
0.0
  9
$DIMAZIN
 70
     0
  9
$DIMDSEP
 70
    44
  9
$DIMATFIT
 70
     3
  9
$DIMFRAC
 70
     0
  9
$DIMLDRBLK
  1

  9
$DIMLUNIT
 70
     2
  9
$DIMLWD
 70
    -2
  9
$DIMLWE
 70
    -2
  9
$DIMTMOVE
 70
     0
  9
$LUNITS
 70
     2
  9
$LUPREC
 70
     2
  9
$SKETCHINC
 40
1.0
  9
$FILLETRAD
 40
10.0
  9
$AUNITS
 70
     0
  9
$AUPREC
 70
     2
  9
$MENU
  1
.
  9
$ELEVATION
 40
0.0
  9
$PELEVATION
 40
0.0
  9
$THICKNESS
 40
0.0
  9
$LIMCHECK
 70
     0
  9
$CHAMFERA
 40
0.0
  9
$CHAMFERB
 40
0.0
  9
$CHAMFERC
 40
0.0
  9
$CHAMFERD
 40
0.0
  9
$SKPOLY
 70
     0
  9
$TDCREATE
 40
2458269.809832743
  9
$TDUCREATE
 40
2458269.434832743
  9
$TDUPDATE
 40
2459702.472584051
  9
$TDUUPDATE
 40
2459702.097584051
  9
$TDINDWG
 40
0.0004041088
  9
$TDUSRTIMER
 40
0.0004040972
  9
$USRTIMER
 70
     1
  9
$ANGBASE
 50
0.0
  9
$ANGDIR
 70
     0
  9
$PDMODE
 70
     0
  9
$PDSIZE
 40
-1.0
  9
$PLINEWID
 40
0.0
  9
$SPLFRAME
 70
     0
  9
$SPLINETYPE
 70
     6
  9
$SPLINESEGS
 70
     8
  9
$HANDSEED
  5
279
  9
$SURFTAB1
 70
     6
  9
$SURFTAB2
 70
     6
  9
$SURFTYPE
 70
     6
  9
$SURFU
 70
     6
  9
$SURFV
 70
     6
  9
$UCSBASE
  2

  9
$UCSNAME
  2

  9
$UCSORG
 10
0.0
 20
0.0
 30
0.0
  9
$UCSXDIR
 10
1.0
 20
0.0
 30
0.0
  9
$UCSYDIR
 10
0.0
 20
1.0
 30
0.0
  9
$UCSORTHOREF
  2

  9
$UCSORTHOVIEW
 70
     0
  9
$UCSORGTOP
 10
0.0
 20
0.0
 30
0.0
  9
$UCSORGBOTTOM
 10
0.0
 20
0.0
 30
0.0
  9
$UCSORGLEFT
 10
0.0
 20
0.0
 30
0.0
  9
$UCSORGRIGHT
 10
0.0
 20
0.0
 30
0.0
  9
$UCSORGFRONT
 10
0.0
 20
0.0
 30
0.0
  9
$UCSORGBACK
 10
0.0
 20
0.0
 30
0.0
  9
$PUCSBASE
  2

  9
$PUCSNAME
  2

  9
$PUCSORG
 10
0.0
 20
0.0
 30
0.0
  9
$PUCSXDIR
 10
1.0
 20
0.0
 30
0.0
  9
$PUCSYDIR
 10
0.0
 20
1.0
 30
0.0
  9
$PUCSORTHOREF
  2

  9
$PUCSORTHOVIEW
 70
     0
  9
$PUCSORGTOP
 10
0.0
 20
0.0
 30
0.0
  9
$PUCSORGBOTTOM
 10
0.0
 20
0.0
 30
0.0
  9
$PUCSORGLEFT
 10
0.0
 20
0.0
 30
0.0
  9
$PUCSORGRIGHT
 10
0.0
 20
0.0
 30
0.0
  9
$PUCSORGFRONT
 10
0.0
 20
0.0
 30
0.0
  9
$PUCSORGBACK
 10
0.0
 20
0.0
 30
0.0
  9
$USERI1
 70
     0
  9
$USERI2
 70
     0
  9
$USERI3
 70
     0
  9
$USERI4
 70
     0
  9
$USERI5
 70
     0
  9
$USERR1
 40
0.0
  9
$USERR2
 40
0.0
  9
$USERR3
 40
0.0
  9
$USERR4
 40
0.0
  9
$USERR5
 40
0.0
  9
$WORLDVIEW
 70
     1
  9
$SHADEDGE
 70
     3
  9
$SHADEDIF
 70
    70
  9
$TILEMODE
 70
     1
  9
$MAXACTVP
 70
    64
  9
$PINSBASE
 10
0.0
 20
0.0
 30
0.0
  9
$PLIMCHECK
 70
     0
  9
$PEXTMIN
 10
1.000000000000000E+20
 20
1.000000000000000E+20
 30
1.000000000000000E+20
  9
$PEXTMAX
 10
-1.000000000000000E+20
 20
-1.000000000000000E+20
 30
-1.000000000000000E+20
  9
$PLIMMIN
 10
0.0
 20
0.0
  9
$PLIMMAX
 10
0.0
 20
0.0
  9
$UNITMODE
 70
     0
  9
$VISRETAIN
 70
     1
  9
$PLINEGEN
 70
     0
  9
$PSLTSCALE
 70
     1
  9
$TREEDEPTH
 70
  3020
  9
$CMLSTYLE
  2
Standard
  9
$CMLJUST
 70
     0
  9
$CMLSCALE
 40
20.0
  9
$PROXYGRAPHICS
 70
     1
  9
$MEASUREMENT
 70
     1
  9
$CELWEIGHT
370
    -1
  9
$ENDCAPS
280
     0
  9
$JOINSTYLE
280
     0
  9
$LWDISPLAY
290
     1
  9
$INSUNITS
 70
     4
  9
$HYPERLINKBASE
  1

  9
$STYLESHEET
  1

  9
$XEDIT
290
     1
  9
$CEPSNTYPE
380
     0
  9
$PSTYLEMODE
290
     1
  9
$FINGERPRINTGUID
  2
{6B1B5FD5-5791-442C-8E9A-5E981E145448}
  9
$VERSIONGUID
  2
{FAEB1C32-E019-11D5-929B-00C0DF256EC4}
  9
$EXTNAMES
290
     1
  9
$PSVPSCALE
 40
0.0
  9
$OLESTARTUP
290
     0
  0
ENDSEC
  0
SECTION
  2
CLASSES
  0
CLASS
  1
ACDBDICTIONARYWDFLT
  2
AcDbDictionaryWithDefault
  3
ObjectDBX Classes
 90
        0
280
     0
281
     0
  0
CLASS
  1
VISUALSTYLE
  2
AcDbVisualStyle
  3
ObjectDBX Classes
 90
     4095
280
     0
281
     0
  0
CLASS
  1
MATERIAL
  2
AcDbMaterial
  3
ObjectDBX Classes
 90
     1153
280
     0
281
     0
  0
CLASS
  1
SCALE
  2
AcDbScale
  3
ObjectDBX Classes
 90
     1153
280
     0
281
     0
  0
CLASS
  1
SUN
  2
AcDbSun
  3
SCENEOE
 90
     1153
280
     0
281
     0
  0
CLASS
  1
ACDBPLACEHOLDER
  2
AcDbPlaceHolder
  3
ObjectDBX Classes
 90
        0
280
     0
281
     0
  0
CLASS
  1
LAYOUT
  2
AcDbLayout
  3
ObjectDBX Classes
 90
        0
280
     0
281
     0
  0
CLASS
  1
TABLESTYLE
  2
AcDbTableStyle
  3
ObjectDBX Classes
 90
     4095
280
     0
281
     0
  0
CLASS
  1
MLEADERSTYLE
  2
AcDbMLeaderStyle
  3
ACDB_MLEADERSTYLE_CLASS
 90
     4095
280
     0
281
     0
  0
CLASS
  1
BREAKDATA
  2
AcDbBreakData
  3
ObjectDBX Classes
 90
     1024
280
     0
281
     0
  0
ENDSEC
  0
SECTION
  2
TABLES
  0
TABLE
  2
VPORT
  5
8
330
0
100
AcDbSymbolTable
 70
     1
  0
VPORT
  5
29
330
8
100
AcDbSymbolTableRecord
100
AcDbViewportTableRecord
  2
*Active
 70
     0
 10
0.0
 20
0.0
 11
1.0
 21
1.0
 12
-28.03451696499717
 22
8.220327700918622
 13
0.0
 23
0.0
 14
10.0
 24
10.0
 15
10.0
 25
10.0
 16
0.0
 26
0.0
 36
1.0
 17
0.0
 27
0.0
 37
0.0
 40
143.4837568050192
 41
1.531481481481481
 42
50.0
 43
0.0
 44
0.0
 50
0.0
 51
0.0
 71
    16
 72
  2000
 73
     1
 74
     3
 75
     0
 76
     0
 77
     0
 78
     0
281
     0
 65
     1
110
0.0
120
0.0
130
0.0
111
1.0
121
0.0
131
0.0
112
0.0
122
1.0
132
0.0
 79
     0
146
0.0
  0
ENDTAB
  0
TABLE
  2
LTYPE
  5
5
330
0
100
AcDbSymbolTable
 70
     6
  0
LTYPE
  5
14
330
5
100
AcDbSymbolTableRecord
100
AcDbLinetypeTableRecord
  2
ByBlock
 70
     0
  3

 72
    65
 73
     0
 40
0.0
  0
LTYPE
  5
15
330
5
100
AcDbSymbolTableRecord
100
AcDbLinetypeTableRecord
  2
ByLayer
 70
     0
  3

 72
    65
 73
     0
 40
0.0
  0
LTYPE
  5
16
330
5
100
AcDbSymbolTableRecord
100
AcDbLinetypeTableRecord
  2
Continuous
 70
     0
  3
Solid line
 72
    65
 73
     0
 40
0.0
  0
LTYPE
  5
6A
330
5
100
AcDbSymbolTableRecord
100
AcDbLinetypeTableRecord
  2
HIDDEN
 70
     0
  3
Hidden __ __ __ __ __ __ __ __ __ __ __ __ __ __
 72
    65
 73
     2
 40
1.905
 49
1.27
 74
     0
 49
-0.635
 74
     0
  0
LTYPE
  5
6B
330
5
100
AcDbSymbolTableRecord
100
AcDbLinetypeTableRecord
  2
PHANTOM
 70
     0
  3
Phantom ______  __  __  ______  __  __  ______
 72
    65
 73
     6
 40
12.7
 49
6.35
 74
     0
 49
-1.27
 74
     0
 49
1.27
 74
     0
 49
-1.27
 74
     0
 49
1.27
 74
     0
 49
-1.27
 74
     0
  0
LTYPE
  5
6C
330
5
100
AcDbSymbolTableRecord
100
AcDbLinetypeTableRecord
  2
CENTER
 70
     0
  3
Center ____ _ ____ _ ____ _ ____ _ ____ _ ____
 72
    65
 73
     4
 40
10.16
 49
6.35
 74
     0
 49
-1.27
 74
     0
 49
1.27
 74
     0
 49
-1.27
 74
     0
  0
LTYPE
  5
6D
330
5
100
AcDbSymbolTableRecord
100
AcDbLinetypeTableRecord
  2
CENTERX2
 70
     0
  3
Center (2x) ________  __  ________  __  _____
 72
    65
 73
     4
 40
20.32
 49
12.7
 74
     0
 49
-2.54
 74
     0
 49
2.54
 74
     0
 49
-2.54
 74
     0
  0
LTYPE
  5
6E
330
5
100
AcDbSymbolTableRecord
100
AcDbLinetypeTableRecord
  2
DOT2
 70
     0
  3
Dot (.5x) ........................................
 72
    65
 73
     2
 40
0.635
 49
0.0
 74
     0
 49
-0.635
 74
     0
  0
ENDTAB
  0
TABLE
  2
LAYER
  5
2
102
{ACAD_XDICTIONARY
360
1C0
102
}
330
0
100
AcDbSymbolTable
 70
    18
  0
LAYER
  5
10
330
2
100
AcDbSymbolTableRecord
100
AcDbLayerTableRecord
  2
0
 70
     0
 62
     7
  6
Continuous
370
    -3
390
F
  0
LAYER
  5
6F
330
2
100
AcDbSymbolTableRecord
100
AcDbLayerTableRecord
  2
FORMAT
 70
     0
 62
     2
  6
Continuous
370
    -3
390
F
  0
LAYER
  5
70
330
2
100
AcDbSymbolTableRecord
100
AcDbLayerTableRecord
  2
외형선
 70
     0
 62
     4
  6
Continuous
370
    30
390
F
  0
LAYER
  5
71
330
2
100
AcDbSymbolTableRecord
100
AcDbLayerTableRecord
  2
숨은선
 70
     0
 62
     2
  6
HIDDEN
370
    15
390
F
  0
LAYER
  5
72
330
2
100
AcDbSymbolTableRecord
100
AcDbLayerTableRecord
  2
중심선
 70
     0
 62
     1
  6
CENTERX2
370
    -3
390
F
  0
LAYER
  5
73
330
2
100
AcDbSymbolTableRecord
100
AcDbLayerTableRecord
  2
파단선
 70
     0
 62
     4
  6
Continuous
370
    -3
390
F
  0
LAYER
  5
74
330
2
100
AcDbSymbolTableRecord
100
AcDbLayerTableRecord
  2
해칭선
 70
     0
 62
   100
  6
Continuous
370
    -3
390
F
  0
LAYER
  5
75
330
2
100
AcDbSymbolTableRecord
100
AcDbLayerTableRecord
  2
가는실선
 70
     0
 62
     4
  6
Continuous
370
    -3
390
F
  0
LAYER
  5
76
330
2
100
AcDbSymbolTableRecord
100
AcDbLayerTableRecord
  2
치수_보조선
 70
     0
 62
     4
  6
Continuous
370
    -3
390
F
  0
LAYER
  5
77
330
2
100
AcDbSymbolTableRecord
100
AcDbLayerTableRecord
  2
치수문자_일반주서
 70
     0
 62
     7
  6
Continuous
370
    15
390
F
  0
LAYER
  5
78
330
2
100
AcDbSymbolTableRecord
100
AcDbLayerTableRecord
  2
개별주서
 70
     0
 62
   100
  6
Continuous
370
    30
390
F
  0
LAYER
  5
79
330
2
100
AcDbSymbolTableRecord
100
AcDbLayerTableRecord
  2
중간선
 70
     0
 62
     2
  6
Continuous
370
    15
390
F
  0
LAYER
  5
7A
330
2
100
AcDbSymbolTableRecord
100
AcDbLayerTableRecord
  2
윤곽선
 70
     0
 62
     3
  6
Continuous
370
    40
390
F
  0
LAYER
  5
7B
330
2
100
AcDbSymbolTableRecord
100
AcDbLayerTableRecord
  2
중심마크
 70
     0
 62
   100
  6
Continuous
370
    30
390
F
  0
LAYER
  5
7C
330
2
100
AcDbSymbolTableRecord
100
AcDbLayerTableRecord
  2
가상선
 70
     0
 62
     4
  6
PHANTOM
370
    -3
390
F
  0
LAYER
  5
7D
330
2
100
AcDbSymbolTableRecord
100
AcDbLayerTableRecord
  2
특수지정선
 70
     0
 62
     5
  6
CENTERX2
370
    60
390
F
  0
LAYER
  5
7E
330
2
100
AcDbSymbolTableRecord
100
AcDbLayerTableRecord
  2
참조1
 70
     0
 62
    -4
  6
Continuous
370
    -3
390
F
  0
LAYER
  5
130
330
2
100
AcDbSymbolTableRecord
100
AcDbLayerTableRecord
  2
Defpoints
 70
     0
 62
     7
  6
Continuous
290
     0
370
    -3
390
F
  0
ENDTAB
  0
TABLE
  2
STYLE
  5
3
330
0
100
AcDbSymbolTable
 70
     2
  0
STYLE
  5
11
330
3
100
AcDbSymbolTableRecord
100
AcDbTextStyleTableRecord
  2
Standard
 70
     0
 40
0.0
 41
1.0
 50
0.0
 71
     0
 42
3.5
  3
txt
  4

  0
STYLE
  5
94
330
3
100
AcDbSymbolTableRecord
100
AcDbTextStyleTableRecord
  2
SLDTEXTSTYLE0
 70
     0
 40
0.0
 41
0.75
 50
0.0
 71
     0
 42
3.5
  3
TXT
  4

  0
ENDTAB
  0
TABLE
  2
VIEW
  5
6
330
0
100
AcDbSymbolTable
 70
     0
  0
ENDTAB
  0
TABLE
  2
UCS
  5
7
330
0
100
AcDbSymbolTable
 70
     0
  0
ENDTAB
  0
TABLE
  2
APPID
  5
9
330
0
100
AcDbSymbolTable
 70
     4
  0
APPID
  5
12
330
9
100
AcDbSymbolTableRecord
100
AcDbRegAppTableRecord
  2
ACAD
 70
     0
  0
APPID
  5
13C
330
9
100
AcDbSymbolTableRecord
100
AcDbRegAppTableRecord
  2
PE_URL
 70
     0
  0
APPID
  5
13D
330
9
100
AcDbSymbolTableRecord
100
AcDbRegAppTableRecord
  2
ACAD_DSTYLE_DIMRADIAL_EXTENSION
 70
     0
  0
APPID
  5
273
330
9
100
AcDbSymbolTableRecord
100
AcDbRegAppTableRecord
  2
ENABLE_CUSTOM_SPLIT
 70
     0
  0
ENDTAB
  0
TABLE
  2
DIMSTYLE
  5
A
330
0
100
AcDbSymbolTable
 70
     3
100
AcDbDimStyleTable
  0
DIMSTYLE
105
27
330
A
100
AcDbSymbolTableRecord
100
AcDbDimStyleTableRecord
  2
ISO-25
 70
     0
 41
2.5
 42
0.625
 43
3.75
 44
1.25
 73
     0
 74
     0
 77
     1
 78
     8
140
2.5
141
2.5
143
0.03937007874016
147
0.625
171
     3
172
     1
178
     0
271
     2
272
     2
274
     3
278
    44
283
     0
284
     8
340
11
  0
DIMSTYLE
105
CE
102
{ACAD_REACTORS
330
172
330
182
330
228
330
229
102
}
330
A
100
AcDbSymbolTableRecord
100
AcDbDimStyleTableRecord
  2
SLDDIMSTYLE0
 70
     0
 41
3.302
 44
0.0
 45
0.000000001
 73
     0
 74
     0
 77
     1
 78
    12
 79
     3
140
3.5
147
0.875
172
     1
173
     1
178
     0
271
     2
272
     2
276
     2
284
    12
289
     0
340
94
  0
DIMSTYLE
105
F5
102
{ACAD_REACTORS
330
192
330
19F
330
1B5
330
22A
330
22B
330
22F
102
}
330
A
100
AcDbSymbolTableRecord
100
AcDbDimStyleTableRecord
  2
SLDDIMSTYLE1
 70
     0
 41
3.302
 44
0.0
 45
0.000000001
 73
     0
 74
     0
 77
     1
 78
    12
 79
     3
140
3.5
147
0.875
173
     1
178
     0
271
     2
272
     2
276
     2
284
    12
340
94
  0
ENDTAB
  0
TABLE
  2
BLOCK_RECORD
  5
1
330
0
100
AcDbSymbolTable
 70
    17
  0
BLOCK_RECORD
  5
1F
102
{ACAD_XDICTIONARY
360
275
102
}
330
1
100
AcDbSymbolTableRecord
100
AcDbBlockTableRecord
  2
*Model_Space
340
22
  0
BLOCK_RECORD
  5
1B
330
1
100
AcDbSymbolTableRecord
100
AcDbBlockTableRecord
  2
*Paper_Space
340
1E
  0
BLOCK_RECORD
  5
23
330
1
100
AcDbSymbolTableRecord
100
AcDbBlockTableRecord
  2
*Paper_Space0
340
26
  0
BLOCK_RECORD
  5
7F
330
1
100
AcDbSymbolTableRecord
100
AcDbBlockTableRecord
  2
블럭10
340
0
102
{BLKREFS
331
C6
102
}
  0
BLOCK_RECORD
  5
CF
330
1
100
AcDbSymbolTableRecord
100
AcDbBlockTableRecord
  2
_D
340
0
  0
BLOCK_RECORD
  5
DC
330
1
100
AcDbSymbolTableRecord
100
AcDbBlockTableRecord
  2
_D_1
340
0
  0
BLOCK_RECORD
  5
E9
330
1
100
AcDbSymbolTableRecord
100
AcDbBlockTableRecord
  2
_D_2
340
0
  0
BLOCK_RECORD
  5
F6
330
1
100
AcDbSymbolTableRecord
100
AcDbBlockTableRecord
  2
_D_3
340
0
  0
BLOCK_RECORD
  5
106
330
1
100
AcDbSymbolTableRecord
100
AcDbBlockTableRecord
  2
SW_DOWELSYMBOL_0
340
0
102
{BLKREFS
331
0
331
1AC
331
22C
102
}
  0
BLOCK_RECORD
  5
1B6
330
1
100
AcDbSymbolTableRecord
100
AcDbBlockTableRecord
  2
*D8
340
0
  0
BLOCK_RECORD
  5
1C4
330
1
100
AcDbSymbolTableRecord
100
AcDbBlockTableRecord
  2
*D9
340
0
  0
BLOCK_RECORD
  5
1D3
330
1
100
AcDbSymbolTableRecord
100
AcDbBlockTableRecord
  2
*D10
340
0
  0
BLOCK_RECORD
  5
1E2
330
1
100
AcDbSymbolTableRecord
100
AcDbBlockTableRecord
  2
*D11
340
0
  0
BLOCK_RECORD
  5
1EE
330
1
100
AcDbSymbolTableRecord
100
AcDbBlockTableRecord
  2
*D12
340
0
  0
BLOCK_RECORD
  5
230
330
1
100
AcDbSymbolTableRecord
100
AcDbBlockTableRecord
  2
*D13
340
0
  0
BLOCK_RECORD
  5
23F
330
1
100
AcDbSymbolTableRecord
100
AcDbBlockTableRecord
  2
*D14
340
0
  0
BLOCK_RECORD
  5
24E
330
1
100
AcDbSymbolTableRecord
100
AcDbBlockTableRecord
  2
*D15
340
0
  0
BLOCK_RECORD
  5
25A
330
1
100
AcDbSymbolTableRecord
100
AcDbBlockTableRecord
  2
*D16
340
0
  0
BLOCK_RECORD
  5
266
330
1
100
AcDbSymbolTableRecord
100
AcDbBlockTableRecord
  2
*D17
340
0
  0
ENDTAB
  0
ENDSEC
  0
SECTION
  2
BLOCKS
  0
BLOCK
  5
20
330
1F
100
AcDbEntity
  8
0
100
AcDbBlockBegin
  2
*Model_Space
 70
     0
 10
0.0
 20
0.0
 30
0.0
  3
*Model_Space
  1

  0
ENDBLK
  5
21
330
1F
100
AcDbEntity
  8
0
100
AcDbBlockEnd
  0
BLOCK
  5
1C
330
1B
100
AcDbEntity
 67
     1
  8
0
100
AcDbBlockBegin
  2
*Paper_Space
 70
     0
 10
0.0
 20
0.0
 30
0.0
  3
*Paper_Space
  1

  0
ENDBLK
  5
1D
330
1B
100
AcDbEntity
 67
     1
  8
0
100
AcDbBlockEnd
  0
BLOCK
  5
24
330
23
100
AcDbEntity
  8
0
100
AcDbBlockBegin
  2
*Paper_Space0
 70
     0
 10
0.0
 20
0.0
 30
0.0
  3
*Paper_Space0
  1

  0
ENDBLK
  5
25
330
23
100
AcDbEntity
  8
0
100
AcDbBlockEnd
  0
BLOCK
  5
80
330
7F
100
AcDbEntity
  8
0
100
AcDbBlockBegin
  2
블럭10
 70
     2
 10
0.0
 20
0.0
 30
0.0
  3
블럭10
  1

  0
ELLIPSE
  5
82
330
7F
100
AcDbEntity
  8
중심선
100
AcDbEllipse
 10
20.54032771741204
 20
12.0471743016438
 30
0.0
 11
6.600054785286829
 21
-1.261213355974178E-13
 31
0.0
210
0.0
220
0.0
230
1.0
 40
0.636358354079598
 41
0.9219305317359503
 42
6.513795318482858
  0
ELLIPSE
  5
83
330
7F
100
AcDbEntity
  8
중심선
100
AcDbEllipse
 10
20.54032771746488
 20
12.04717430159265
 30
0.0
 11
3.960054785062283
 21
1.540847449632565E-10
 31
0.0
210
0.0
220
0.0
230
1.0
 40
0.3939339440162632
 41
1.131841032648279
 42
5.62031148352944
  0
LINE
  5
84
330
7F
100
AcDbEntity
  8
중심선
100
AcDbLine
 10
2.268634060543552
 20
16.24717430164393
 30
0.0
 11
5.714909304380834
 21
16.24717430164393
 31
0.0
  0
LINE
  5
85
330
7F
100
AcDbEntity
  8
중심선
100
AcDbLine
 10
5.245725140726316
 20
7.84717430164391
 30
0.0
 11
8.692000384563599
 21
7.84717430164391
 31
0.0
  0
LINE
  5
86
330
7F
100
AcDbEntity
  8
중심선
100
AcDbLine
 10
15.74043728645272
 20
16.24717430164393
 30
0.0
 11
8.692000384563599
 21
7.84717430164391
 31
0.0
  0
LINE
  5
87
330
7F
100
AcDbEntity
  8
중심선
100
AcDbLine
 10
0.1404042013395286
 20
13.71084872107135
 30
0.0
 11
3.58671253028996
 21
13.71088815037384
 31
0.0
  0
LINE
  5
88
330
7F
100
AcDbEntity
  8
중심선
100
AcDbLine
 10
2.750260043222114
 20
10.84717430164391
 30
0.0
 11
6.196535287059397
 21
10.84717430164391
 31
0.0
  0
LINE
  5
89
330
7F
100
AcDbEntity
  8
중심선
100
AcDbLine
 10
12.29416204261559
 20
16.24717430164393
 30
0.0
 11
5.245725140726316
 21
7.84717430164391
 31
0.0
  0
LINE
  5
8A
330
7F
100
AcDbEntity
  8
중심선
100
AcDbLine
 10
10.72767329541681
 20
16.24717430164393
 30
0.0
 11
6.196535287059397
 21
10.84717430164391
 31
0.0
  0
LINE
  5
8B
330
7F
100
AcDbEntity
  8
중심선
100
AcDbLine
 10
7.28139805157953
 20
16.24717430164393
 30
0.0
 11
2.750260043222114
 21
10.84717430164391
 31
0.0
  0
LINE
  5
8C
330
7F
100
AcDbEntity
  8
중심선
100
AcDbLine
 10
5.714909304380834
 20
16.24717430164393
 30
0.0
 11
3.58671253028996
 21
13.71088815037384
 31
0.0
  0
LINE
  5
8D
330
7F
100
AcDbEntity
  8
중심선
100
AcDbLine
 10
2.268634060543552
 20
16.24717430164393
 30
0.0
 11
0.1404042013395286
 21
13.71084872107135
 31
0.0
  0
LINE
  5
8E
330
7F
100
AcDbEntity
  8
중심선
100
AcDbLine
 10
7.28139805157953
 20
16.24717430164393
 30
0.0
 11
10.72767329541681
 21
16.24717430164393
 31
0.0
  0
LINE
  5
8F
330
7F
100
AcDbEntity
  8
중심선
100
AcDbLine
 10
12.29416204261559
 20
16.24717430164393
 30
0.0
 11
15.74043728645272
 21
16.24717430164393
 31
0.0
  0
LINE
  5
90
330
7F
100
AcDbEntity
  8
중심선
100
AcDbLine
 10
19.22036997980202
 20
11.08717430171403
 30
0.0
 11
23.66174974927406
 21
11.08717430171406
 31
0.0
  0
LINE
  5
91
330
7F
100
AcDbEntity
  8
중심선
100
AcDbLine
 10
19.22039502424796
 20
13.00717430171391
 30
0.0
 11
19.22036997980202
 21
11.08717430171403
 31
0.0
  0
LINE
  5
92
330
7F
100
AcDbEntity
  8
중심선
100
AcDbLine
 10
19.22039502424796
 20
13.00717430171391
 30
0.0
 11
26.96566020931264
 21
13.00717430171391
 31
0.0
  0
LINE
  5
93
330
7F
100
AcDbEntity
  8
중심선
100
AcDbLine
 10
22.22332737316547
 20
13.45928029700563
 30
0.0
 11
24.52862924686651
 21
15.39360700705356
 31
0.0
  0
ATTDEF
  5
95
330
7F
100
AcDbEntity
  8
FORMAT
 62
     2
100
AcDbText
 10
-20.85824753159254
 20
2.075366912832191
 30
0.0
 40
4.233333333333333
  1
SEME0106002060E [ 4 FLUTE ]
 41
0.75
  7
SLDTEXTSTYLE0
 11
-20.85824753159254
 21
-0.0412997538344756
 31
0.0
100
AcDbAttributeDefinition
  3

  2
AUTOATTR0
 70
     0
 74
     1
  0
ENDBLK
  5
81
330
7F
100
AcDbEntity
  8
0
100
AcDbBlockEnd
  0
BLOCK
  5
D0
330
CF
100
AcDbEntity
  8
0
100
AcDbBlockBegin
  2
_D
 70
     0
 10
0.0
 20
0.0
 30
0.0
  3
_D
  1

  0
SOLID
  5
D2
330
CF
100
AcDbEntity
  8
치수문자_일반주서
100
AcDbTrace
 10
39.32487721999404
 20
2.999999999999999
 30
0.0
 11
39.83287721999405
 21
6.301999999999998
 31
0.0
 12
38.81687721999404
 22
6.301999999999998
 32
0.0
 13
38.81687721999404
 23
6.301999999999998
 33
0.0
  0
SOLID
  5
D3
330
CF
100
AcDbEntity
  8
치수문자_일반주서
100
AcDbTrace
 10
39.32487721999404
 20
-3.000000000000002
 30
0.0
 11
38.81687721999404
 21
-6.302000000000001
 31
0.0
 12
39.83287721999405
 22
-6.302000000000001
 32
0.0
 13
39.83287721999405
 23
-6.302000000000001
 33
0.0
  0
LINE
  5
D4
330
CF
100
AcDbEntity
  8
치수문자_일반주서
100
AcDbLine
 10
14.33830418661932
 20
3.0
 30
0.0
 11
40.32487721999404
 21
2.999999999999999
 31
0.0
  0
LINE
  5
D5
330
CF
100
AcDbEntity
  8
치수문자_일반주서
100
AcDbLine
 10
14.33830418661932
 20
-3.0
 30
0.0
 11
40.32487721999404
 21
-3.000000000000002
 31
0.0
  0
LINE
  5
D6
330
CF
100
AcDbEntity
  8
치수문자_일반주서
100
AcDbLine
 10
39.32487721999404
 20
2.999999999999999
 30
0.0
 11
39.32487721999404
 21
9.35
 31
0.0
  0
LINE
  5
D7
330
CF
100
AcDbEntity
  8
치수문자_일반주서
100
AcDbLine
 10
39.32487721999404
 20
2.999999999999999
 30
0.0
 11
39.32487721999404
 21
-3.000000000000002
 31
0.0
  0
LINE
  5
D8
330
CF
100
AcDbEntity
  8
치수문자_일반주서
100
AcDbLine
 10
39.32487721999404
 20
-3.000000000000002
 30
0.0
 11
39.32487721999404
 21
-9.350000000000003
 31
0.0
  0
MTEXT
  5
D9
330
CF
100
AcDbEntity
  8
치수문자_일반주서
100
AcDbMText
 10
34.8131401307922
 20
-3.932274412363802
 30
0.0
 40
3.5
 41
0.0
 71
     1
 72
     1
  1
%%c
  7
SLDTEXTSTYLE0
 11
-7.044195017643634E-15
 21
1.0
 31
0.0
 73
     1
 44
1.0
  0
MTEXT
  5
DA
330
CF
100
AcDbEntity
  8
치수문자_일반주서
100
AcDbMText
 10
34.75966795413231
 20
1.346162986010279
 30
0.0
 40
3.5
 41
0.0
 71
     1
 72
     1
  1
6
  7
SLDTEXTSTYLE0
 11
-7.044195017643634E-15
 21
1.0
 31
0.0
 73
     1
 44
1.0
  0
ENDBLK
  5
D1
330
CF
100
AcDbEntity
  8
0
100
AcDbBlockEnd
  0
BLOCK
  5
DD
330
DC
100
AcDbEntity
  8
0
100
AcDbBlockBegin
  2
_D_1
 70
     0
 10
0.0
 20
0.0
 30
0.0
  3
_D_1
  1

  0
SOLID
  5
DF
330
DC
100
AcDbEntity
  8
치수문자_일반주서
100
AcDbTrace
 10
-53.57512886940358
 20
3.000000000000002
 30
0.0
 11
-53.06712886940358
 21
6.302000000000001
 31
0.0
 12
-54.08312886940358
 22
6.302000000000001
 32
0.0
 13
-54.08312886940358
 23
6.302000000000001
 33
0.0
  0
SOLID
  5
E0
330
DC
100
AcDbEntity
  8
치수문자_일반주서
100
AcDbTrace
 10
-53.57512886940358
 20
-3.000000000000004
 30
0.0
 11
-54.08312886940358
 21
-6.302000000000003
 31
0.0
 12
-53.06712886940358
 22
-6.302000000000003
 32
0.0
 13
-53.06712886940358
 23
-6.302000000000003
 33
0.0
  0
LINE
  5
E1
330
DC
100
AcDbEntity
  8
치수문자_일반주서
100
AcDbLine
 10
-41.17512886940358
 20
3.000000000000003
 30
0.0
 11
-54.57512886940358
 21
3.000000000000002
 31
0.0
  0
LINE
  5
E2
330
DC
100
AcDbEntity
  8
치수문자_일반주서
100
AcDbLine
 10
-41.17512886940358
 20
-3.000000000000003
 30
0.0
 11
-54.57512886940358
 21
-3.000000000000004
 31
0.0
  0
LINE
  5
E3
330
DC
100
AcDbEntity
  8
치수문자_일반주서
100
AcDbLine
 10
-53.57512886940358
 20
3.000000000000002
 30
0.0
 11
-53.57512886940358
 21
9.350000000000001
 31
0.0
  0
LINE
  5
E4
330
DC
100
AcDbEntity
  8
치수문자_일반주서
100
AcDbLine
 10
-53.57512886940358
 20
3.000000000000002
 30
0.0
 11
-53.57512886940358
 21
-3.000000000000004
 31
0.0
  0
LINE
  5
E5
330
DC
100
AcDbEntity
  8
치수문자_일반주서
100
AcDbLine
 10
-53.57512886940358
 20
-3.000000000000004
 30
0.0
 11
-53.57512886940358
 21
-9.350000000000005
 31
0.0
  0
MTEXT
  5
E6
330
DC
100
AcDbEntity
  8
치수문자_일반주서
100
AcDbMText
 10
-58.08686595860544
 20
-3.932274412363802
 30
0.0
 40
3.5
 41
0.0
 71
     1
 72
     1
  1
%%c
  7
SLDTEXTSTYLE0
 11
-7.044195017643634E-15
 21
1.0
 31
0.0
 73
     1
 44
1.0
  0
MTEXT
  5
E7
330
DC
100
AcDbEntity
  8
치수문자_일반주서
100
AcDbMText
 10
-58.14033813526532
 20
1.346162986010279
 30
0.0
 40
3.5
 41
0.0
 71
     1
 72
     1
  1
6
  7
SLDTEXTSTYLE0
 11
-7.044195017643634E-15
 21
1.0
 31
0.0
 73
     1
 44
1.0
  0
ENDBLK
  5
DE
330
DC
100
AcDbEntity
  8
0
100
AcDbBlockEnd
  0
BLOCK
  5
EA
330
E9
100
AcDbEntity
  8
0
100
AcDbBlockBegin
  2
_D_2
 70
     0
 10
0.0
 20
0.0
 30
0.0
  3
_D_2
  1

  0
SOLID
  5
EC
330
E9
100
AcDbEntity
  8
치수문자_일반주서
100
AcDbTrace
 10
19.22487113059634
 20
20.23808323655012
 30
0.0
 11
22.52687113059635
 21
19.73008323655014
 31
0.0
 12
22.52687113059634
 22
20.74608323655014
 32
0.0
 13
22.52687113059634
 23
20.74608323655014
 33
0.0
  0
SOLID
  5
ED
330
E9
100
AcDbEntity
  8
치수문자_일반주서
100
AcDbTrace
 10
4.224871130596324
 20
20.23808323655005
 30
0.0
 11
0.9228711305963223
 21
20.74608323655004
 31
0.0
 12
0.922871130596327
 22
19.73008323655004
 32
0.0
 13
0.922871130596327
 23
19.73008323655004
 33
0.0
  0
LINE
  5
EE
330
E9
100
AcDbEntity
  8
치수문자_일반주서
100
AcDbLine
 10
19.22487113059642
 20
3.784912782307259
 30
0.0
 11
19.22487113059634
 21
21.23808323655012
 31
0.0
  0
LINE
  5
EF
330
E9
100
AcDbEntity
  8
치수문자_일반주서
100
AcDbLine
 10
4.224871130596402
 20
3.957251325038349
 30
0.0
 11
4.22487113059632
 21
21.23808323655005
 31
0.0
  0
LINE
  5
F0
330
E9
100
AcDbEntity
  8
치수문자_일반주서
100
AcDbLine
 10
19.22487113059634
 20
20.23808323655012
 30
0.0
 11
25.57487113059635
 21
20.23808323655015
 31
0.0
  0
LINE
  5
F1
330
E9
100
AcDbEntity
  8
치수문자_일반주서
100
AcDbLine
 10
19.22487113059634
 20
20.23808323655012
 30
0.0
 11
4.224871130596324
 21
20.23808323655005
 31
0.0
  0
LINE
  5
F2
330
E9
100
AcDbEntity
  8
치수문자_일반주서
100
AcDbLine
 10
4.224871130596324
 20
20.23808323655005
 30
0.0
 11
-2.125128869403675
 21
20.23808323655003
 31
0.0
  0
MTEXT
  5
F3
330
E9
100
AcDbEntity
  8
치수문자_일반주서
100
AcDbMText
 10
9.138759937073555
 20
24.74982015112898
 30
0.0
 40
3.5
 41
0.0
 71
     1
 72
     1
  1
15
  7
SLDTEXTSTYLE0
 73
     1
 44
1.0
  0
ENDBLK
  5
EB
330
E9
100
AcDbEntity
  8
0
100
AcDbBlockEnd
  0
BLOCK
  5
F7
330
F6
100
AcDbEntity
  8
0
100
AcDbBlockBegin
  2
_D_3
 70
     0
 10
0.0
 20
0.0
 30
0.0
  3
_D_3
  1

  0
SOLID
  5
F9
330
F6
100
AcDbEntity
  8
치수문자_일반주서
100
AcDbTrace
 10
19.22487113059643
 20
27.65444592691706
 30
0.0
 11
15.92287113059643
 21
28.16244592691706
 31
0.0
 12
15.92287113059643
 22
27.14644592691706
 32
0.0
 13
15.92287113059643
 23
27.14644592691706
 33
0.0
  0
SOLID
  5
FA
330
F6
100
AcDbEntity
  8
치수문자_일반주서
100
AcDbTrace
 10
-40.77512886940357
 20
27.65444592691705
 30
0.0
 11
-37.47312886940357
 21
27.14644592691705
 31
0.0
 12
-37.47312886940357
 22
28.16244592691705
 32
0.0
 13
-37.47312886940357
 23
28.16244592691705
 33
0.0
  0
LINE
  5
FB
330
F6
100
AcDbEntity
  8
치수문자_일반주서
100
AcDbLine
 10
19.22487113059643
 20
3.784912782307259
 30
0.0
 11
19.22487113059643
 21
28.65444592691706
 31
0.0
  0
LINE
  5
FC
330
F6
100
AcDbEntity
  8
치수문자_일반주서
100
AcDbLine
 10
-40.77512886940357
 20
3.400000000000002
 30
0.0
 11
-40.77512886940357
 21
28.65444592691705
 31
0.0
  0
LINE
  5
FD
330
F6
100
AcDbEntity
  8
치수문자_일반주서
100
AcDbLine
 10
19.22487113059643
 20
27.65444592691706
 30
0.0
 11
-40.77512886940357
 21
27.65444592691705
 31
0.0
  0
MTEXT
  5
FE
330
F6
100
AcDbEntity
  8
치수문자_일반주서
100
AcDbMText
 10
-13.36124006292639
 20
32.16618284149595
 30
0.0
 40
3.5
 41
0.0
 71
     1
 72
     1
  1
60
  7
SLDTEXTSTYLE0
 73
     1
 44
1.0
  0
ENDBLK
  5
F8
330
F6
100
AcDbEntity
  8
0
100
AcDbBlockEnd
  0
BLOCK
  5
107
330
106
100
AcDbEntity
  8
0
100
AcDbBlockBegin
  2
SW_DOWELSYMBOL_0
 70
     0
 10
0.0
 20
0.0
 30
0.0
  3
SW_DOWELSYMBOL_0
  1

  0
CIRCLE
  5
109
330
106
100
AcDbEntity
  8
해칭선
 62
     0
100
AcDbCircle
 10
0.0
 20
0.0
 30
0.0
 40
3.000000000000001
  0
HATCH
  5
10A
330
106
100
AcDbEntity
  8
0
  6
Continuous
 62
     0
370
     0
100
AcDbHatch
 10
0.0
 20
0.0
 30
0.0
210
0.0
220
0.0
230
1.0
  2
SOLID
 70
     1
 71
     0
 91
        1
 92
        0
 93
        3
 72
     2
 10
0.0
 20
0.0
 40
3.000000000000001
 50
0.0
 51
90.0
 73
     1
 72
     1
 10
0.0
 20
3.000000000000001
 11
0.0
 21
0.0
 72
     1
 10
0.0
 20
0.0
 11
3.000000000000003
 21
0.0
 97
        0
 75
     0
 76
     1
 98
        1
 10
0.0
 20
0.0
  0
HATCH
  5
10B
330
106
100
AcDbEntity
  8
0
  6
Continuous
 62
     0
370
     0
100
AcDbHatch
 10
0.0
 20
0.0
 30
0.0
210
0.0
220
0.0
230
1.0
  2
SOLID
 70
     1
 71
     0
 91
        1
 92
        0
 93
        3
 72
     2
 10
0.0
 20
0.0
 40
3.000000000000001
 50
180.0
 51
270.0000000000008
 73
     1
 72
     1
 10
0.0
 20
-3.000000000000001
 11
0.0
 21
0.0
 72
     1
 10
0.0
 20
0.0
 11
-3.000000000000003
 21
0.0
 97
        0
 75
     0
 76
     1
 98
        1
 10
0.0
 20
0.0
  0
ENDBLK
  5
108
330
106
100
AcDbEntity
  8
0
100
AcDbBlockEnd
  0
BLOCK
  5
1B7
330
1B6
100
AcDbEntity
  8
0
100
AcDbBlockBegin
  2
*D8
 70
     1
 10
0.0
 20
0.0
 30
0.0
  3
*D8
  1

  0
LINE
  5
1B8
330
1B6
100
AcDbEntity
  8
치수문자_일반주서
 62
     0
370
    -2
100
AcDbLine
 10
106.1029829277909
 20
13.1105714906287
 30
0.0
 11
114.7490949003306
 21
0.0000000000003073
 31
0.0
  0
MTEXT
  5
1B9
330
1B6
100
AcDbEntity
  8
치수문자_일반주서
 62
     0
100
AcDbMText
 10
114.4114395608651
 20
5.280071300108895
 30
0.0
 40
3.5
 41
0.0
 71
     5
 72
     1
  1
\A1;R0.2
  7
SLDTEXTSTYLE0
 11
0.5505376721276086
 21
-0.8348103207126238
 31
0.0
 73
     1
 44
1.0
  0
SOLID
  5
1BA
330
1B6
100
AcDbEntity
  8
치수문자_일반주서
 62
     0
100
AcDbTrace
 10
106.5624068742898
 20
13.41355072285626
 30
0.0
 11
105.6435589812921
 21
12.80759225840114
 31
0.0
 12
104.2851075344255
 22
15.86711516962178
 32
0.0
 13
104.2851075344255
 23
15.86711516962178
 33
0.0
  0
LINE
  5
1BB
330
1B6
100
AcDbEntity
  8
치수문자_일반주서
 62
     0
100
AcDbLine
 10
104.085
 20
16.03407723376431
 30
0.0
 11
104.265
 21
16.03407723376431
 31
0.0
  0
LINE
  5
1BC
330
1B6
100
AcDbEntity
  8
치수문자_일반주서
 62
     0
100
AcDbLine
 10
104.175
 20
15.94407723376431
 30
0.0
 11
104.175
 21
16.12407723376431
 31
0.0
  0
POINT
  5
1BD
330
1B6
100
AcDbEntity
  8
Defpoints
 62
     0
100
AcDbPoint
 10
104.2851075344255
 20
15.86711516962178
 30
0.0
  0
POINT
  5
1BE
330
1B6
100
AcDbEntity
  8
Defpoints
 62
     0
100
AcDbPoint
 10
104.175
 20
16.03407723376431
 30
0.0
  0
ENDBLK
  5
1BF
330
1B6
100
AcDbEntity
  8
0
100
AcDbBlockEnd
  0
BLOCK
  5
1C5
330
1C4
100
AcDbEntity
  8
0
100
AcDbBlockBegin
  2
*D9
 70
     1
 10
0.0
 20
0.0
 30
0.0
  3
*D9
  1

  0
LINE
  5
1C7
330
1C4
100
AcDbEntity
  8
치수문자_일반주서
 62
     0
370
    -2
100
AcDbLine
 10
104.4375
 20
21.8269252425181
 30
0.0
 11
114.375
 21
21.82692524251814
 31
0.0
  0
LINE
  5
1C8
330
1C4
100
AcDbEntity
  8
치수문자_일반주서
 62
     0
370
    -2
100
AcDbLine
 10
104.4375
 20
15.8269252425181
 30
0.0
 11
114.375
 21
15.82692524251814
 31
0.0
  0
LINE
  5
1C9
330
1C4
100
AcDbEntity
  8
치수문자_일반주서
 62
     0
370
    -2
100
AcDbLine
 10
114.375
 20
21.82692524251814
 30
0.0
 11
114.375
 21
34.55592524251817
 31
0.0
  0
LINE
  5
1CA
330
1C4
100
AcDbEntity
  8
치수문자_일반주서
 62
     0
370
    -2
100
AcDbLine
 10
114.375
 20
21.82692524251814
 30
0.0
 11
114.375
 21
15.82692524251814
 31
0.0
  0
LINE
  5
1CB
330
1C4
100
AcDbEntity
  8
치수문자_일반주서
 62
     0
370
    -2
100
AcDbLine
 10
114.375
 20
25.12892524251814
 30
0.0
 11
114.375
 21
28.43092524251814
 31
0.0
  0
LINE
  5
1CC
330
1C4
100
AcDbEntity
  8
치수문자_일반주서
 62
     0
370
    -2
100
AcDbLine
 10
114.3750000000001
 20
12.52492524251814
 30
0.0
 11
114.3750000000001
 21
9.222925242518137
 31
0.0
  0
SOLID
  5
1CD
330
1C4
100
AcDbEntity
  8
치수문자_일반주서
 62
     0
100
AcDbTrace
 10
113.8246666666667
 20
25.12892524251814
 30
0.0
 11
114.9253333333333
 21
25.12892524251814
 31
0.0
 12
114.375
 22
21.82692524251814
 32
0.0
 13
114.375
 23
21.82692524251814
 33
0.0
  0
SOLID
  5
1CE
330
1C4
100
AcDbEntity
  8
치수문자_일반주서
 62
     0
100
AcDbTrace
 10
114.9253333333334
 20
12.52492524251814
 30
0.0
 11
113.8246666666667
 21
12.52492524251813
 31
0.0
 12
114.375
 22
15.82692524251814
 32
0.0
 13
114.375
 23
15.82692524251814
 33
0.0
  0
MTEXT
  5
1CF
330
1C4
100
AcDbEntity
  8
치수문자_일반주서
 62
     0
100
AcDbMText
 10
110.0
 20
31.49342524251816
 30
0.0
 40
3.5
 41
0.0
 71
     2
 72
     1
  1
\A1;%%c6
  7
SLDTEXTSTYLE0
 11
-2.368475785867000E-15
 21
1.0
 31
0.0
 73
     1
 44
1.0
  0
POINT
  5
1D0
330
1C4
100
AcDbEntity
  8
Defpoints
 62
     0
100
AcDbPoint
 10
104.375
 20
21.8269252425181
 30
0.0
  0
POINT
  5
1D1
330
1C4
100
AcDbEntity
  8
Defpoints
 62
     0
100
AcDbPoint
 10
104.375
 20
15.8269252425181
 30
0.0
  0
POINT
  5
1D2
330
1C4
100
AcDbEntity
  8
Defpoints
 62
     0
100
AcDbPoint
 10
114.3750000000001
 20
15.82692524251813
 30
0.0
  0
ENDBLK
  5
1C6
330
1C4
100
AcDbEntity
  8
0
100
AcDbBlockEnd
  0
BLOCK
  5
1D4
330
1D3
100
AcDbEntity
  8
0
100
AcDbBlockBegin
  2
*D10
 70
     1
 10
0.0
 20
0.0
 30
0.0
  3
*D10
  1

  0
LINE
  5
1D6
330
1D3
100
AcDbEntity
  8
치수문자_일반주서
 62
     0
370
    -2
100
AcDbLine
 10
14.91250000000002
 20
21.8269252425181
 30
0.0
 11
4.375000000000035
 21
21.82692524251807
 31
0.0
  0
LINE
  5
1D7
330
1D3
100
AcDbEntity
  8
치수문자_일반주서
 62
     0
370
    -2
100
AcDbLine
 10
14.91250000000002
 20
15.8269252425181
 30
0.0
 11
4.375000000000056
 21
15.82692524251806
 31
0.0
  0
LINE
  5
1D8
330
1D3
100
AcDbEntity
  8
치수문자_일반주서
 62
     0
370
    -2
100
AcDbLine
 10
4.375000000000035
 20
21.82692524251807
 30
0.0
 11
4.374999999999989
 21
34.55592524251807
 31
0.0
  0
LINE
  5
1D9
330
1D3
100
AcDbEntity
  8
치수문자_일반주서
 62
     0
370
    -2
100
AcDbLine
 10
4.375000000000035
 20
21.82692524251807
 30
0.0
 11
4.375000000000056
 21
15.82692524251806
 31
0.0
  0
LINE
  5
1DA
330
1D3
100
AcDbEntity
  8
치수문자_일반주서
 62
     0
370
    -2
100
AcDbLine
 10
4.375000000000023
 20
25.12892524251806
 30
0.0
 11
4.375000000000012
 21
28.43092524251806
 31
0.0
  0
LINE
  5
1DB
330
1D3
100
AcDbEntity
  8
치수문자_일반주서
 62
     0
370
    -2
100
AcDbLine
 10
4.375000000000068
 20
12.52492524251806
 30
0.0
 11
4.375000000000079
 21
9.222925242518063
 31
0.0
  0
SOLID
  5
1DC
330
1D3
100
AcDbEntity
  8
치수문자_일반주서
 62
     0
100
AcDbTrace
 10
3.82466666666669
 20
25.12892524251806
 30
0.0
 11
4.925333333333357
 21
25.12892524251807
 31
0.0
 12
4.375000000000035
 22
21.82692524251807
 32
0.0
 13
4.375000000000035
 23
21.82692524251807
 33
0.0
  0
SOLID
  5
1DD
330
1D3
100
AcDbEntity
  8
치수문자_일반주서
 62
     0
100
AcDbTrace
 10
4.925333333333401
 20
12.52492524251806
 30
0.0
 11
3.824666666666734
 21
12.52492524251806
 31
0.0
 12
4.375000000000056
 22
15.82692524251806
 32
0.0
 13
4.375000000000056
 23
15.82692524251806
 33
0.0
  0
MTEXT
  5
1DE
330
1D3
100
AcDbEntity
  8
치수문자_일반주서
 62
     0
100
AcDbMText
 10
0.0
 20
31.49342524251805
 30
0.0
 40
3.5
 41
0.0
 71
     2
 72
     1
  1
\A1;%%c6
  7
SLDTEXTSTYLE0
 11
-3.552713678800499E-15
 21
1.0
 31
0.0
 73
     1
 44
1.0
  0
POINT
  5
1DF
330
1D3
100
AcDbEntity
  8
Defpoints
 62
     0
100
AcDbPoint
 10
14.97500000000002
 20
21.8269252425181
 30
0.0
  0
POINT
  5
1E0
330
1D3
100
AcDbEntity
  8
Defpoints
 62
     0
100
AcDbPoint
 10
14.97500000000002
 20
15.8269252425181
 30
0.0
  0
POINT
  5
1E1
330
1D3
100
AcDbEntity
  8
Defpoints
 62
     0
100
AcDbPoint
 10
4.375000000000043
 20
15.82692524251806
 30
0.0
  0
ENDBLK
  5
1D5
330
1D3
100
AcDbEntity
  8
0
100
AcDbBlockEnd
  0
BLOCK
  5
1E3
330
1E2
100
AcDbEntity
  8
0
100
AcDbBlockBegin
  2
*D11
 70
     1
 10
0.0
 20
0.0
 30
0.0
  3
*D11
  1

  0
LINE
  5
1E5
330
1E2
100
AcDbEntity
  8
치수문자_일반주서
 62
     0
370
    -2
100
AcDbLine
 10
104.375
 20
21.8894252425181
 30
0.0
 11
104.375
 21
31.75063163367173
 31
0.0
  0
LINE
  5
1E6
330
1E2
100
AcDbEntity
  8
치수문자_일반주서
 62
     0
370
    -2
100
AcDbLine
 10
89.37500000000006
 20
21.84667656755645
 30
0.0
 11
89.37500000000006
 21
31.75063163367173
 31
0.0
  0
LINE
  5
1E7
330
1E2
100
AcDbEntity
  8
치수문자_일반주서
 62
     0
370
    -2
100
AcDbLine
 10
101.073
 20
31.75063163367173
 30
0.0
 11
92.67700000000005
 21
31.75063163367173
 31
0.0
  0
SOLID
  5
1E8
330
1E2
100
AcDbEntity
  8
치수문자_일반주서
 62
     0
100
AcDbTrace
 10
101.073
 20
31.2002983003384
 30
0.0
 11
101.073
 21
32.30096496700506
 31
0.0
 12
104.375
 22
31.75063163367173
 32
0.0
 13
104.375
 23
31.75063163367173
 33
0.0
  0
SOLID
  5
1E9
330
1E2
100
AcDbEntity
  8
치수문자_일반주서
 62
     0
100
AcDbTrace
 10
92.67700000000005
 20
32.30096496700506
 30
0.0
 11
92.67700000000005
 21
31.2002983003384
 31
0.0
 12
89.37500000000006
 22
31.75063163367173
 32
0.0
 13
89.37500000000006
 23
31.75063163367173
 33
0.0
  0
MTEXT
  5
1EA
330
1E2
100
AcDbEntity
  8
치수문자_일반주서
 62
     0
100
AcDbMText
 10
96.87500000000004
 20
36.12563163367173
 30
0.0
 40
3.5
 41
0.0
 71
     2
 72
     1
  1
\A1;15
  7
SLDTEXTSTYLE0
 73
     1
 44
1.0
  0
POINT
  5
1EB
330
1E2
100
AcDbEntity
  8
Defpoints
 62
     0
100
AcDbPoint
 10
104.375
 20
21.8269252425181
 30
0.0
  0
POINT
  5
1EC
330
1E2
100
AcDbEntity
  8
Defpoints
 62
     0
100
AcDbPoint
 10
89.37500000000006
 20
21.78417656755645
 30
0.0
  0
POINT
  5
1ED
330
1E2
100
AcDbEntity
  8
Defpoints
 62
     0
100
AcDbPoint
 10
89.37500000000006
 20
31.75063163367173
 30
0.0
  0
ENDBLK
  5
1E4
330
1E2
100
AcDbEntity
  8
0
100
AcDbBlockEnd
  0
BLOCK
  5
1EF
330
1EE
100
AcDbEntity
  8
0
100
AcDbBlockBegin
  2
*D12
 70
     1
 10
0.0
 20
0.0
 30
0.0
  3
*D12
  1

  0
LINE
  5
1F1
330
1EE
100
AcDbEntity
  8
치수문자_일반주서
 62
     0
370
    -2
100
AcDbLine
 10
104.375
 20
21.8894252425181
 30
0.0
 11
104.375
 21
41.8269252425181
 31
0.0
  0
LINE
  5
1F2
330
1EE
100
AcDbEntity
  8
치수문자_일반주서
 62
     0
370
    -2
100
AcDbLine
 10
14.37500000000003
 20
21.2894252425181
 30
0.0
 11
14.37500000000003
 21
41.8269252425181
 31
0.0
  0
LINE
  5
1F3
330
1EE
100
AcDbEntity
  8
치수문자_일반주서
 62
     0
370
    -2
100
AcDbLine
 10
101.073
 20
41.8269252425181
 30
0.0
 11
17.67700000000003
 21
41.8269252425181
 31
0.0
  0
SOLID
  5
1F4
330
1EE
100
AcDbEntity
  8
치수문자_일반주서
 62
     0
100
AcDbTrace
 10
101.073
 20
41.27659190918477
 30
0.0
 11
101.073
 21
42.37725857585144
 31
0.0
 12
104.375
 22
41.8269252425181
 32
0.0
 13
104.375
 23
41.8269252425181
 33
0.0
  0
SOLID
  5
1F5
330
1EE
100
AcDbEntity
  8
치수문자_일반주서
 62
     0
100
AcDbTrace
 10
17.67700000000003
 20
42.37725857585144
 30
0.0
 11
17.67700000000003
 21
41.27659190918477
 31
0.0
 12
14.37500000000003
 22
41.8269252425181
 32
0.0
 13
14.37500000000003
 23
41.8269252425181
 33
0.0
  0
MTEXT
  5
1F6
330
1EE
100
AcDbEntity
  8
치수문자_일반주서
 62
     0
100
AcDbMText
 10
59.37500000000004
 20
46.2019252425181
 30
0.0
 40
3.5
 41
0.0
 71
     2
 72
     1
  1
\A1;90
  7
SLDTEXTSTYLE0
 73
     1
 44
1.0
  0
POINT
  5
1F7
330
1EE
100
AcDbEntity
  8
Defpoints
 62
     0
100
AcDbPoint
 10
104.375
 20
21.8269252425181
 30
0.0
  0
POINT
  5
1F8
330
1EE
100
AcDbEntity
  8
Defpoints
 62
     0
100
AcDbPoint
 10
14.37500000000003
 20
21.2269252425181
 30
0.0
  0
POINT
  5
1F9
330
1EE
100
AcDbEntity
  8
Defpoints
 62
     0
100
AcDbPoint
 10
14.37500000000003
 20
41.8269252425181
 30
0.0
  0
ENDBLK
  5
1F0
330
1EE
100
AcDbEntity
  8
0
100
AcDbBlockEnd
  0
BLOCK
  5
231
330
230
100
AcDbEntity
  8
0
100
AcDbBlockBegin
  2
*D13
 70
     1
 10
0.0
 20
0.0
 30
0.0
  3
*D13
  1

  0
LINE
  5
233
330
230
100
AcDbEntity
  8
치수문자_일반주서
 62
     0
370
    -2
100
AcDbLine
 10
24.99551270189224
 20
3.001074928723888
 30
0.0
 11
34.93301270189225
 21
3.001074928723925
 31
0.0
  0
LINE
  5
234
330
230
100
AcDbEntity
  8
치수문자_일반주서
 62
     0
370
    -2
100
AcDbLine
 10
24.99551270189224
 20
-2.998925071276112
 30
0.0
 11
34.93301270189227
 21
-2.998925071276075
 31
0.0
  0
LINE
  5
235
330
230
100
AcDbEntity
  8
치수문자_일반주서
 62
     0
370
    -2
100
AcDbLine
 10
34.93301270189225
 20
3.001074928723925
 30
0.0
 11
34.9330127018922
 21
15.73007492872396
 31
0.0
  0
LINE
  5
236
330
230
100
AcDbEntity
  8
치수문자_일반주서
 62
     0
370
    -2
100
AcDbLine
 10
34.93301270189225
 20
3.001074928723925
 30
0.0
 11
34.93301270189227
 21
-2.998925071276075
 31
0.0
  0
LINE
  5
237
330
230
100
AcDbEntity
  8
치수문자_일반주서
 62
     0
370
    -2
100
AcDbLine
 10
34.93301270189223
 20
6.303074928723925
 30
0.0
 11
34.93301270189222
 21
9.605074928723925
 31
0.0
  0
LINE
  5
238
330
230
100
AcDbEntity
  8
치수문자_일반주서
 62
     0
370
    -2
100
AcDbLine
 10
34.93301270189228
 20
-6.300925071276074
 30
0.0
 11
34.9330127018923
 21
-9.602925071276074
 31
0.0
  0
SOLID
  5
239
330
230
100
AcDbEntity
  8
치수문자_일반주서
 62
     0
100
AcDbTrace
 10
34.3826793685589
 20
6.303074928723923
 30
0.0
 11
35.48334603522557
 21
6.303074928723927
 31
0.0
 12
34.93301270189225
 22
3.001074928723925
 32
0.0
 13
34.93301270189225
 23
3.001074928723925
 33
0.0
  0
SOLID
  5
23A
330
230
100
AcDbEntity
  8
치수문자_일반주서
 62
     0
100
AcDbTrace
 10
35.48334603522562
 20
-6.300925071276072
 30
0.0
 11
34.38267936855895
 21
-6.300925071276076
 31
0.0
 12
34.93301270189227
 22
-2.998925071276075
 32
0.0
 13
34.93301270189227
 23
-2.998925071276075
 33
0.0
  0
MTEXT
  5
23B
330
230
100
AcDbEntity
  8
치수문자_일반주서
 62
     0
100
AcDbMText
 10
30.55801270189221
 20
12.66757492872395
 30
0.0
 40
3.5
 41
0.0
 71
     2
 72
     1
  1
\A1;%%c6
  7
SLDTEXTSTYLE0
 11
-3.552713678800501E-15
 21
1.0
 31
0.0
 73
     1
 44
1.0
  0
POINT
  5
23C
330
230
100
AcDbEntity
  8
Defpoints
 62
     0
100
AcDbPoint
 10
24.93301270189224
 20
3.001074928723888
 30
0.0
  0
POINT
  5
23D
330
230
100
AcDbEntity
  8
Defpoints
 62
     0
100
AcDbPoint
 10
24.93301270189224
 20
-2.998925071276112
 30
0.0
  0
POINT
  5
23E
330
230
100
AcDbEntity
  8
Defpoints
 62
     0
100
AcDbPoint
 10
34.9330127018923
 20
-2.998925071276075
 30
0.0
  0
ENDBLK
  5
232
330
230
100
AcDbEntity
  8
0
100
AcDbBlockEnd
  0
BLOCK
  5
240
330
23F
100
AcDbEntity
  8
0
100
AcDbBlockBegin
  2
*D14
 70
     1
 10
0.0
 20
0.0
 30
0.0
  3
*D14
  1

  0
LINE
  5
242
330
23F
100
AcDbEntity
  8
치수문자_일반주서
 62
     0
370
    -2
100
AcDbLine
 10
-34.46698729810777
 20
3.001074928723892
 30
0.0
 11
-45.00448729810775
 21
3.001074928723851
 31
0.0
  0
LINE
  5
243
330
23F
100
AcDbEntity
  8
치수문자_일반주서
 62
     0
370
    -2
100
AcDbLine
 10
-34.46698729810777
 20
-2.998925071276112
 30
0.0
 11
-45.00448729810773
 21
-2.998925071276153
 31
0.0
  0
LINE
  5
244
330
23F
100
AcDbEntity
  8
치수문자_일반주서
 62
     0
370
    -2
100
AcDbLine
 10
-45.00448729810775
 20
3.001074928723851
 30
0.0
 11
-45.0044872981078
 21
15.73007492872386
 31
0.0
  0
LINE
  5
245
330
23F
100
AcDbEntity
  8
치수문자_일반주서
 62
     0
370
    -2
100
AcDbLine
 10
-45.00448729810775
 20
3.001074928723851
 30
0.0
 11
-45.00448729810773
 21
-2.998925071276153
 31
0.0
  0
LINE
  5
246
330
23F
100
AcDbEntity
  8
치수문자_일반주서
 62
     0
370
    -2
100
AcDbLine
 10
-45.00448729810777
 20
6.30307492872385
 30
0.0
 11
-45.00448729810778
 21
9.60507492872385
 31
0.0
  0
LINE
  5
247
330
23F
100
AcDbEntity
  8
치수문자_일반주서
 62
     0
370
    -2
100
AcDbLine
 10
-45.00448729810772
 20
-6.300925071276152
 30
0.0
 11
-45.0044872981077
 21
-9.602925071276152
 31
0.0
  0
SOLID
  5
248
330
23F
100
AcDbEntity
  8
치수문자_일반주서
 62
     0
100
AcDbTrace
 10
-45.5548206314411
 20
6.303074928723849
 30
0.0
 11
-44.45415396477443
 21
6.303074928723852
 31
0.0
 12
-45.00448729810775
 22
3.001074928723851
 32
0.0
 13
-45.00448729810775
 23
3.001074928723851
 33
0.0
  0
SOLID
  5
249
330
23F
100
AcDbEntity
  8
치수문자_일반주서
 62
     0
100
AcDbTrace
 10
-44.45415396477438
 20
-6.300925071276151
 30
0.0
 11
-45.55482063144105
 21
-6.300925071276154
 31
0.0
 12
-45.00448729810773
 22
-2.998925071276153
 32
0.0
 13
-45.00448729810773
 23
-2.998925071276153
 33
0.0
  0
MTEXT
  5
24A
330
23F
100
AcDbEntity
  8
치수문자_일반주서
 62
     0
100
AcDbMText
 10
-49.37948729810779
 20
12.66757492872384
 30
0.0
 40
3.5
 41
0.0
 71
     2
 72
     1
  1
\A1;%%c6
  7
SLDTEXTSTYLE0
 11
-3.552713678800499E-15
 21
1.0
 31
0.0
 73
     1
 44
1.0
  0
POINT
  5
24B
330
23F
100
AcDbEntity
  8
Defpoints
 62
     0
100
AcDbPoint
 10
-34.40448729810777
 20
3.001074928723892
 30
0.0
  0
POINT
  5
24C
330
23F
100
AcDbEntity
  8
Defpoints
 62
     0
100
AcDbPoint
 10
-34.40448729810777
 20
-2.998925071276112
 30
0.0
  0
POINT
  5
24D
330
23F
100
AcDbEntity
  8
Defpoints
 62
     0
100
AcDbPoint
 10
-45.00448729810775
 20
-2.998925071276151
 30
0.0
  0
ENDBLK
  5
241
330
23F
100
AcDbEntity
  8
0
100
AcDbBlockEnd
  0
BLOCK
  5
24F
330
24E
100
AcDbEntity
  8
0
100
AcDbBlockBegin
  2
*D15
 70
     1
 10
0.0
 20
0.0
 30
0.0
  3
*D15
  1

  0
LINE
  5
251
330
24E
100
AcDbEntity
  8
치수문자_일반주서
 62
     0
370
    -2
100
AcDbLine
 10
24.93301270189224
 20
3.063574928723888
 30
0.0
 11
24.93301270189224
 21
12.92478131987752
 31
0.0
  0
LINE
  5
252
330
24E
100
AcDbEntity
  8
치수문자_일반주서
 62
     0
370
    -2
100
AcDbLine
 10
9.933012701892267
 20
3.020826253762245
 30
0.0
 11
9.933012701892267
 21
12.92478131987752
 31
0.0
  0
LINE
  5
253
330
24E
100
AcDbEntity
  8
치수문자_일반주서
 62
     0
370
    -2
100
AcDbLine
 10
21.63101270189224
 20
12.92478131987752
 30
0.0
 11
13.23501270189227
 21
12.92478131987752
 31
0.0
  0
SOLID
  5
254
330
24E
100
AcDbEntity
  8
치수문자_일반주서
 62
     0
100
AcDbTrace
 10
21.63101270189224
 20
12.37444798654419
 30
0.0
 11
21.63101270189224
 21
13.47511465321085
 31
0.0
 12
24.93301270189224
 22
12.92478131987752
 32
0.0
 13
24.93301270189224
 23
12.92478131987752
 33
0.0
  0
SOLID
  5
255
330
24E
100
AcDbEntity
  8
치수문자_일반주서
 62
     0
100
AcDbTrace
 10
13.23501270189227
 20
13.47511465321085
 30
0.0
 11
13.23501270189227
 21
12.37444798654419
 31
0.0
 12
9.933012701892267
 22
12.92478131987752
 32
0.0
 13
9.933012701892267
 23
12.92478131987752
 33
0.0
  0
MTEXT
  5
256
330
24E
100
AcDbEntity
  8
치수문자_일반주서
 62
     0
100
AcDbMText
 10
17.43301270189224
 20
17.29978131987752
 30
0.0
 40
3.5
 41
0.0
 71
     2
 72
     1
  1
\A1;15
  7
SLDTEXTSTYLE0
 73
     1
 44
1.0
  0
POINT
  5
257
330
24E
100
AcDbEntity
  8
Defpoints
 62
     0
100
AcDbPoint
 10
24.93301270189224
 20
3.001074928723888
 30
0.0
  0
POINT
  5
258
330
24E
100
AcDbEntity
  8
Defpoints
 62
     0
100
AcDbPoint
 10
9.933012701892267
 20
2.958326253762245
 30
0.0
  0
POINT
  5
259
330
24E
100
AcDbEntity
  8
Defpoints
 62
     0
100
AcDbPoint
 10
9.933012701892267
 20
12.92478131987752
 30
0.0
  0
ENDBLK
  5
250
330
24E
100
AcDbEntity
  8
0
100
AcDbBlockEnd
  0
BLOCK
  5
25B
330
25A
100
AcDbEntity
  8
0
100
AcDbBlockBegin
  2
*D16
 70
     1
 10
0.0
 20
0.0
 30
0.0
  3
*D16
  1

  0
LINE
  5
25D
330
25A
100
AcDbEntity
  8
치수문자_일반주서
 62
     0
370
    -2
100
AcDbLine
 10
24.93301270189224
 20
3.063574928723888
 30
0.0
 11
24.93301270189224
 21
23.00107492872389
 31
0.0
  0
LINE
  5
25E
330
25A
100
AcDbEntity
  8
치수문자_일반주서
 62
     0
370
    -2
100
AcDbLine
 10
-35.06698729810776
 20
2.463574928723894
 30
0.0
 11
-35.06698729810776
 21
23.00107492872389
 31
0.0
  0
LINE
  5
25F
330
25A
100
AcDbEntity
  8
치수문자_일반주서
 62
     0
370
    -2
100
AcDbLine
 10
21.63101270189224
 20
23.00107492872389
 30
0.0
 11
-31.76498729810776
 21
23.00107492872389
 31
0.0
  0
SOLID
  5
260
330
25A
100
AcDbEntity
  8
치수문자_일반주서
 62
     0
100
AcDbTrace
 10
21.63101270189224
 20
22.45074159539056
 30
0.0
 11
21.63101270189224
 21
23.55140826205723
 31
0.0
 12
24.93301270189224
 22
23.00107492872389
 32
0.0
 13
24.93301270189224
 23
23.00107492872389
 33
0.0
  0
SOLID
  5
261
330
25A
100
AcDbEntity
  8
치수문자_일반주서
 62
     0
100
AcDbTrace
 10
-31.76498729810776
 20
23.55140826205723
 30
0.0
 11
-31.76498729810776
 21
22.45074159539056
 31
0.0
 12
-35.06698729810776
 22
23.00107492872389
 32
0.0
 13
-35.06698729810776
 23
23.00107492872389
 33
0.0
  0
MTEXT
  5
262
330
25A
100
AcDbEntity
  8
치수문자_일반주서
 62
     0
100
AcDbMText
 10
-5.066987298107762
 20
27.37607492872389
 30
0.0
 40
3.5
 41
0.0
 71
     2
 72
     1
  1
\A1;60
  7
SLDTEXTSTYLE0
 73
     1
 44
1.0
  0
POINT
  5
263
330
25A
100
AcDbEntity
  8
Defpoints
 62
     0
100
AcDbPoint
 10
24.93301270189224
 20
3.001074928723888
 30
0.0
  0
POINT
  5
264
330
25A
100
AcDbEntity
  8
Defpoints
 62
     0
100
AcDbPoint
 10
-35.06698729810776
 20
2.401074928723894
 30
0.0
  0
POINT
  5
265
330
25A
100
AcDbEntity
  8
Defpoints
 62
     0
100
AcDbPoint
 10
-35.06698729810776
 20
23.00107492872389
 30
0.0
  0
ENDBLK
  5
25C
330
25A
100
AcDbEntity
  8
0
100
AcDbBlockEnd
  0
BLOCK
  5
267
330
266
100
AcDbEntity
  8
0
100
AcDbBlockBegin
  2
*D17
 70
     1
 10
0.0
 20
0.0
 30
0.0
  3
*D17
  1

  0
LINE
  5
269
330
266
100
AcDbEntity
  8
치수문자_일반주서
 62
     0
370
    -2
100
AcDbLine
 10
26.66099562968328
 20
-5.7152788231654
 30
0.0
 11
35.30710760222379
 21
-18.82585031379327
 31
0.0
  0
MTEXT
  5
26A
330
266
100
AcDbEntity
  8
치수문자_일반주서
 62
     0
100
AcDbMText
 10
34.9694522627579
 20
-13.54577901368471
 30
0.0
 40
3.5
 41
0.0
 71
     5
 72
     1
  1
\A1;R0.2
  7
SLDTEXTSTYLE0
 11
0.550537672127658
 21
-0.834810320712591
 31
0.0
 73
     1
 44
1.0
  0
SOLID
  5
26B
330
266
100
AcDbEntity
  8
치수문자_일반주서
 62
     0
100
AcDbTrace
 10
27.12041957618212
 20
-5.412299590937812
 30
0.0
 11
26.20157168318445
 21
-6.018258055392988
 31
0.0
 12
24.84312023631776
 22
-2.958735144172426
 32
0.0
 13
24.84312023631776
 23
-2.958735144172426
 33
0.0
  0
LINE
  5
26C
330
266
100
AcDbEntity
  8
치수문자_일반주서
 62
     0
100
AcDbLine
 10
24.64301270189222
 20
-2.791773080029898
 30
0.0
 11
24.82301270189222
 21
-2.791773080029898
 31
0.0
  0
LINE
  5
26D
330
266
100
AcDbEntity
  8
치수문자_일반주서
 62
     0
100
AcDbLine
 10
24.73301270189222
 20
-2.881773080029898
 30
0.0
 11
24.73301270189222
 21
-2.701773080029898
 31
0.0
  0
POINT
  5
26E
330
266
100
AcDbEntity
  8
Defpoints
 62
     0
100
AcDbPoint
 10
24.84312023631776
 20
-2.958735144172426
 30
0.0
  0
POINT
  5
26F
330
266
100
AcDbEntity
  8
Defpoints
 62
     0
100
AcDbPoint
 10
24.73301270189222
 20
-2.791773080029898
 30
0.0
  0
ENDBLK
  5
268
330
266
100
AcDbEntity
  8
0
100
AcDbBlockEnd
  0
ENDSEC
  0
SECTION
  2
ENTITIES
  0
LINE
  5
C3
330
1F
100
AcDbEntity
  8
참조1
100
AcDbLine
 10
-15.77564223695981
 20
-2.499999999999974
 30
0.0
 11
-15.7756422369598
 21
-40.0
 31
0.0
  0
LINE
  5
C4
330
1F
100
AcDbEntity
  8
참조1
100
AcDbLine
 10
-15.7756422369598
 20
-40.0
 30
0.0
 11
-30.93398568371225
 21
-40.0
 31
0.0
  0
INSERT
  5
C6
330
1F
100
AcDbEntity
  8
0
  6
Continuous
 62
     7
100
AcDbBlockReference
 66
     1
  2
블럭10
 10
-29.71591516908501
 20
-52.04717430164393
 30
0.0
  0
ATTRIB
  5
C7
330
C6
100
AcDbEntity
  8
FORMAT
 62
     2
100
AcDbText
 10
-50.57416270067755
 20
-49.97180738881174
 30
0.0
 40
4.233333333333333
  1
SEME0106002060E [ 4 FLUTE ]
 41
0.75
  7
SLDTEXTSTYLE0
 11
-50.57416270067755
 21
-52.08847405547841
 31
0.0
100
AcDbAttribute
  2
AUTOATTR0
 70
     0
 74
     1
  0
SEQEND
  5
C8
330
C6
100
AcDbEntity
  8
0
  6
Continuous
 62
     7
  0
HATCH
  5
C9
330
1F
100
AcDbEntity
  8
중심선
100
AcDbHatch
 10
0.0
 20
0.0
 30
0.0
210
0.0
220
0.0
230
1.0
  2
SOLID
 70
     1
 71
     0
 91
        1
 92
        0
 93
        4
 72
     1
 10
-24.00100586470416
 20
-35.8
 11
-27.44728110854144
 21
-35.8
 72
     1
 10
-27.44728110854144
 20
-35.8
 11
-29.57551096774547
 21
-38.33632558057259
 72
     1
 10
-29.57551096774547
 20
-38.33632558057259
 11
-26.12920263879504
 21
-38.3362861512701
 72
     1
 10
-26.12920263879504
 20
-38.3362861512701
 11
-24.00100586470416
 21
-35.8
 97
        0
 75
     0
 76
     1
 98
        1
 10
0.0
 20
0.0
  0
HATCH
  5
CA
330
1F
100
AcDbEntity
  8
중심선
100
AcDbHatch
 10
0.0
 20
0.0
 30
0.0
210
0.0
220
0.0
230
1.0
  2
SOLID
 70
     1
 71
     0
 91
        1
 92
        0
 93
        4
 72
     1
 10
-18.98824187366821
 20
-35.8
 11
-22.43451711750549
 21
-35.8
 72
     1
 10
-22.43451711750549
 20
-35.8
 11
-26.96565512586288
 21
-41.20000000000002
 72
     1
 10
-26.96565512586288
 20
-41.20000000000002
 11
-23.5193798820256
 21
-41.20000000000002
 72
     1
 10
-23.5193798820256
 20
-41.20000000000002
 11
-18.98824187366821
 21
-35.8
 97
        0
 75
     0
 76
     1
 98
        1
 10
0.0
 20
0.0
  0
HATCH
  5
CB
330
1F
100
AcDbEntity
  8
중심선
100
AcDbHatch
 10
0.0
 20
0.0
 30
0.0
210
0.0
220
0.0
230
1.0
  2
SOLID
 70
     1
 71
     0
 91
        1
 92
        0
 93
        4
 72
     1
 10
-13.97547788263232
 20
-35.80000000000003
 11
-17.42175312646943
 21
-35.8
 72
     1
 10
-17.42175312646943
 20
-35.8
 11
-24.47019002835868
 21
-44.20000000000002
 72
     1
 10
-24.47019002835868
 20
-44.20000000000002
 11
-21.0239147845214
 21
-44.20000000000002
 72
     1
 10
-21.0239147845214
 20
-44.20000000000002
 11
-13.97547788263232
 21
-35.80000000000003
 97
        0
 75
     0
 76
     1
 98
        1
 10
0.0
 20
0.0
  0
HATCH
  5
CC
330
1F
100
AcDbEntity
  8
중심선
100
AcDbHatch
 10
0.0
 20
0.0
 30
0.0
210
0.0
220
0.0
230
1.0
  2
SOLID
 70
     1
 71
     0
 91
        1
 92
        0
 93
        6
 72
     3
 10
-9.175587451620116
 20
-40.00000000005127
 11
3.960054785062284
 21
1.540850780301639E-10
 40
0.3939339440162633
 50
17.09539180608433
 51
320.0019657685079
 73
     0
 72
     1
 10
-7.49258779591952
 20
-38.5878940046383
 11
-5.187285922218482
 21
-36.65356729459038
 72
     3
 10
-9.175587451672962
 20
-40.00000000000015
 11
6.600054785286829
 21
-1.249000902703301E-13
 40
0.6363583540795982
 50
39.99873849337408
 51
368.4976242363725
 73
     1
 72
     1
 10
-2.750254959772352
 20
-39.03999999993002
 11
-10.49552014483704
 21
-39.03999999992999
 72
     1
 10
-10.49552014483704
 20
-39.03999999992999
 11
-10.49554518928297
 21
-40.95999999992991
 72
     1
 10
-10.49554518928297
 20
-40.95999999992991
 11
-6.054165419810936
 21
-40.95999999992988
 97
        0
 75
     0
 76
     1
 98
        1
 10
0.0
 20
0.0
  0
LINE
  5
FF
330
1F
100
AcDbEntity
  8
참조1
100
AcDbLine
 10
67.03835494594202
 20
7.440000000000002
 30
0.0
 11
67.03835494594202
 21
-7.440000000000002
 31
0.0
  0
LINE
  5
100
330
1F
100
AcDbEntity
  8
참조1
100
AcDbLine
 10
79.73835494594202
 20
5.440000000000002
 30
0.0
 11
67.03835494594202
 21
5.440000000000002
 31
0.0
  0
SOLID
  5
101
330
1F
100
AcDbEntity
  8
참조1
100
AcDbTrace
 10
67.03835494594202
 20
5.440000000000002
 30
0.0
 11
73.38835494594201
 21
4.424000000000002
 31
0.0
 12
73.38835494594201
 22
6.456000000000002
 32
0.0
 13
73.38835494594201
 23
6.456000000000002
 33
0.0
  0
LINE
  5
102
330
1F
100
AcDbEntity
  8
참조1
100
AcDbLine
 10
79.73835494594202
 20
-5.440000000000002
 30
0.0
 11
67.03835494594202
 21
-5.440000000000002
 31
0.0
  0
SOLID
  5
103
330
1F
100
AcDbEntity
  8
참조1
100
AcDbTrace
 10
67.03835494594202
 20
-5.440000000000002
 30
0.0
 11
73.38835494594201
 21
-6.456000000000002
 31
0.0
 12
73.38835494594201
 22
-4.424000000000002
 32
0.0
 13
73.38835494594201
 23
-4.424000000000002
 33
0.0
  0
MTEXT
  5
104
330
1F
100
AcDbEntity
  8
참조1
100
AcDbMText
 10
76.4358450384123
 20
10.98821664464994
 30
0.0
 40
3.5
 41
0.0
 71
     1
 72
     1
  1
A
  7
SLDTEXTSTYLE0
 73
     1
 44
1.0
  0
MTEXT
  5
105
330
1F
100
AcDbEntity
  8
참조1
100
AcDbMText
 10
76.4358450384123
 20
0.1082166446499328
 30
0.0
 40
3.5
 41
0.0
 71
     1
 72
     1
  1
A
  7
SLDTEXTSTYLE0
 73
     1
 44
1.0
  0
LINE
  5
1FB
330
1F
100
AcDbEntity
  8
0
  6
Continuous
 62
     1
370
    15
100
AcDbLine
 10
10.88453486720866
 20
3.001074928723895
 30
0.0
 11
9.933012701892238
 21
3.001074928723895
 31
0.0
1001
PE_URL
1000

  0
LINE
  5
1FC
330
1F
100
AcDbEntity
  8
0
  6
Continuous
 62
     1
370
    15
100
AcDbLine
 10
17.21765497534281
 20
-2.998925071276108
 30
0.0
 11
19.04602386003714
 21
-2.998925071276108
 31
0.0
1001
PE_URL
1000

  0
LINE
  5
1FD
330
1F
100
AcDbEntity
  8
0
  6
Continuous
 62
     1
370
    15
100
AcDbLine
 10
19.04602386003714
 20
3.001074928723895
 30
0.0
 11
17.21765497534281
 21
3.001074928723895
 31
0.0
1001
PE_URL
1000

  0
LINE
  5
1FE
330
1F
100
AcDbEntity
  8
0
  6
Continuous
 62
     1
370
    15
100
AcDbLine
 10
9.933012701892238
 20
-2.998925071276108
 30
0.0
 11
10.8845348672086
 21
-2.998925071276108
 31
0.0
1001
PE_URL
1000

  0
LINE
  5
1FF
330
1F
100
AcDbEntity
  8
외형선
  6
Continuous
370
    15
100
AcDbLine
 10
9.054084291549714
 20
-2.998925071276108
 30
0.0
 11
9.933012701892238
 21
-2.998925071276108
 31
0.0
  0
LINE
  5
200
330
1F
100
AcDbEntity
  8
외형선
  6
Continuous
370
    15
100
AcDbLine
 10
-34.46698729810777
 20
-2.998925071276108
 30
0.0
 11
8.932863361860228
 21
-2.998925071276108
 31
0.0
  0
LINE
  5
201
330
1F
100
AcDbEntity
  8
외형선
  6
Continuous
370
    15
100
AcDbLine
 10
8.932863361860228
 20
3.001074928723892
 30
0.0
 11
-34.46698729810777
 21
3.001074928723892
 31
0.0
  0
LINE
  5
202
330
1F
100
AcDbEntity
  8
외형선
  6
Continuous
370
    15
100
AcDbLine
 10
9.933012701892238
 20
3.001074928723892
 30
0.0
 11
9.054084291549799
 21
3.001074928723892
 31
0.0
  0
LINE
  5
203
330
1F
100
AcDbEntity
  8
외형선
  6
Continuous
370
    15
100
AcDbLine
 10
-34.46698729810777
 20
3.001074928723892
 30
0.0
 11
-35.06698729810776
 21
2.401074928723894
 31
0.0
  0
LINE
  5
204
330
1F
100
AcDbEntity
  8
외형선
  6
Continuous
370
    15
100
AcDbLine
 10
-35.06698729810776
 20
-2.398925071276111
 30
0.0
 11
-34.46698729810777
 21
-2.998925071276108
 31
0.0
  0
SPLINE
  5
205
330
1F
100
AcDbEntity
  8
0
  6
Continuous
 62
     1
370
    15
100
AcDbSpline
210
0.0
220
0.0
230
1.0
 70
     8
 71
     3
 72
    17
 73
    13
 74
     0
 42
0.000000001
 43
0.00000001
 40
0.0
 40
0.0
 40
0.0
 40
0.0
 40
0.1123508723070957
 40
0.2247007300890815
 40
0.3370510787390643
 40
0.4494024985374083
 40
0.5617549560518813
 40
0.674108417770269
 40
0.7800832399379747
 40
0.8860643931443494
 40
0.9920397618242576
 40
1.0
 40
1.0
 40
1.0
 40
1.0
 10
9.933012701892267
 20
0.5470387849010088
 30
0.0
 10
10.39338114849758
 20
0.2819370537501698
 30
0.0
 10
11.31411388459463
 20
-0.2482640146905837
 30
0.0
 10
12.69520872310105
 20
-1.036328441721011
 30
0.0
 10
14.07630767993186
 20
-1.748791524649587
 30
0.0
 10
15.45742120626608
 20
-2.338989752843112
 30
0.0
 10
16.83854569926135
 20
-2.764953858848187
 30
0.0
 10
18.19355963217174
 20
-2.991069586335158
 30
0.0
 10
19.52241247538478
 20
-3.020389128875149
 30
0.0
 10
20.82517253054235
 20
-2.844644894031436
 30
0.0
 10
21.7262919487527
 20
-2.64062931151048
 30
0.0
 10
22.193140525231
 20
-2.462018630181046
 30
0.0
 10
22.22575742141765
 20
-2.449539795834593
 30
0.0
1001
PE_URL
1000

  0
SPLINE
  5
206
330
1F
100
AcDbEntity
  8
외형선
  6
Continuous
370
    15
100
AcDbSpline
210
0.0
220
0.0
230
1.0
 70
    24
 71
     3
 72
    14
 73
    10
 74
     0
 42
0.000000001
 43
0.00000001
 40
0.0
 40
0.0
 40
0.0
 40
0.0
 40
0.1548596126518378
 40
0.3179280988996317
 40
0.4809965851474285
 40
0.6440650713952272
 40
0.8071335576430226
 40
0.9702020438908165
 40
0.9999999999999999
 40
0.9999999999999999
 40
0.9999999999999999
 40
0.9999999999999999
 10
9.933012701892267
 20
2.958326253762245
 30
0.0
 10
9.933012701892238
 20
2.779191594540933
 30
0.0
 10
9.93301270189221
 20
2.411426619038206
 30
0.0
 10
9.933012701892238
 20
1.800395090478496
 30
0.0
 10
9.933012701892295
 20
1.224778369848604
 30
0.0
 10
9.933012701892267
 20
0.7454458787198845
 30
0.0
 10
9.93301270189221
 20
0.4414776016723359
 30
0.0
 10
9.933012701892238
 20
0.3104886232736845
 30
0.0
 10
9.93301270189221
 20
0.3472217385316796
 30
0.0
 10
9.933012701892238
 20
0.3528970221260401
 30
0.0
  0
SPLINE
  5
207
330
1F
100
AcDbEntity
  8
0
  6
Continuous
 62
     1
370
    15
100
AcDbSpline
210
0.0
220
0.0
230
1.0
 70
     8
 71
     3
 72
    42
 73
    38
 74
     0
 42
0.000000001
 43
0.00000001
 40
0.0
 40
0.0
 40
0.0
 40
0.0
 40
0.0624999999999983
 40
0.0624999999999983
 40
0.0937499999999974
 40
0.0937499999999974
 40
0.1249999999999966
 40
0.1249999999999966
 40
0.1562499999999957
 40
0.1562499999999957
 40
0.1874999999999948
 40
0.1874999999999948
 40
0.2499999999999952
 40
0.2499999999999952
 40
0.3124999999999956
 40
0.3124999999999956
 40
0.374999999999996
 40
0.374999999999996
 40
0.4374999999999964
 40
0.4374999999999964
 40
0.4999999999999968
 40
0.4999999999999968
 40
0.5624999999999971
 40
0.5624999999999971
 40
0.6249999999999976
 40
0.6249999999999976
 40
0.6874999999999979
 40
0.6874999999999979
 40
0.7499999999999983
 40
0.7499999999999983
 40
0.8124999999999987
 40
0.8124999999999987
 40
0.8749999999999991
 40
0.8749999999999991
 40
0.9374999999999994
 40
0.9374999999999994
 40
1.0
 40
1.0
 40
1.0
 40
1.0
 10
24.71872698760652
 20
-2.991262223512312
 30
0.0
 10
24.42534367791774
 20
-2.953665250787893
 30
0.0
 10
24.11386743972812
 20
-2.915678618059886
 30
0.0
 10
23.65196769214967
 20
-2.836153477347302
 30
0.0
 10
23.49957271961983
 20
-2.805971901624062
 30
0.0
 10
23.19168763126581
 20
-2.738093966318868
 30
0.0
 10
23.03684733076054
 20
-2.700423993880971
 30
0.0
 10
22.72720598883882
 20
-2.618028439153264
 30
0.0
 10
22.57240738048009
 20
-2.573303509282823
 30
0.0
 10
22.26468741920024
 20
-2.477372714312043
 30
0.0
 10
22.11227358634363
 20
-2.426238635864465
 30
0.0
 10
21.65014047644451
 20
-2.262902044198519
 30
0.0
 10
21.33867416267719
 20
-2.140994046176676
 30
0.0
 10
20.72368542861295
 20
-1.876942095093117
 30
0.0
 10
20.41654294217599
 20
-1.734362404112542
 30
0.0
 10
19.79733032589647
 20
-1.431602443356823
 30
0.0
 10
19.49183506477058
 20
-1.272526561652942
 30
0.0
 10
18.87491767250282
 20
-0.9416399317571518
 30
0.0
 10
18.56351287494067
 20
-0.7697782650293377
 30
0.0
 10
17.94950061362249
 20
-0.4213699791575074
 30
0.0
 10
17.64137789643729
 20
-0.2438048013861405
 30
0.0
 10
17.02233651536167
 20
0.1125843594960507
 30
0.0
 10
16.71724160988401
 20
0.2902800134431125
 30
0.0
 10
16.09968422559908
 20
0.6421647515766402
 30
0.0
 10
15.78839250182014
 20
0.8160961139374407
 30
0.0
 10
15.17545506306735
 20
1.151789564674754
 30
0.0
 10
14.8661817932711
 20
1.314952535493408
 30
0.0
 10
14.24741272179239
 20
1.62570595866185
 30
0.0
 10
13.94254620997205
 20
1.772576904043625
 30
0.0
 10
13.3244491012656
 20
2.047435394243703
 30
0.0
 10
13.01332194599729
 20
2.174987703710837
 30
0.0
 10
12.4015571008608
 20
2.404551555114896
 30
0.0
 10
12.0909635783253
 20
2.507810846246301
 30
0.0
 10
11.47256774261396
 20
2.686407007815117
 30
0.0
 10
11.16775753850925
 20
2.761598059792629
 30
0.0
 10
10.54922126613255
 20
2.882814905143253
 30
0.0
 10
10.23910332645295
 20
2.92845497822837
 30
0.0
 10
9.933012701892977
 20
2.958326253757342
 30
0.0
1001
PE_URL
1000

  0
LINE
  5
208
330
1F
100
AcDbEntity
  8
0
  6
Continuous
 62
     1
370
    15
100
AcDbLine
 10
24.93301270189224
 20
-2.555868838212181
 30
0.0
 11
24.93301270189224
 21
0.2913520289947584
 31
0.0
1001
PE_URL
1000

  0
SPLINE
  5
209
330
1F
100
AcDbEntity
  8
0
  6
Continuous
 62
     1
370
    15
100
AcDbSpline
210
0.0
220
0.0
230
1.0
 70
     8
 71
     3
 72
    10
 73
     6
 74
     0
 42
0.000000001
 43
0.00000001
 40
0.0
 40
0.0
 40
0.0
 40
0.0
 40
0.5
 40
0.5
 40
1.0
 40
1.0
 40
1.0
 40
1.0
 10
24.73301270189225
 20
-2.664831597544548
 30
0.0
 10
24.78518734266655
 20
-2.678665890451644
 30
0.0
 10
24.83297932765169
 20
-2.676496682908468
 30
0.0
 10
24.90725378528086
 20
-2.640140916353044
 30
0.0
 10
24.93301270189269
 20
-2.604873183782939
 30
0.0
 10
24.93301270189215
 20
-2.555868838212174
 30
0.0
1001
PE_URL
1000

  0
SPLINE
  5
20A
330
1F
100
AcDbEntity
  8
0
  6
Continuous
 62
     1
370
    15
100
AcDbSpline
210
0.0
220
0.0
230
1.0
 70
     8
 71
     3
 72
    18
 73
    14
 74
     0
 42
0.000000001
 43
0.00000001
 40
0.0
 40
0.0
 40
0.0
 40
0.0
 40
0.031019919382585
 40
0.1307478418471165
 40
0.2304762000331212
 40
0.3302055090294145
 40
0.4299357391597052
 40
0.529666860676707
 40
0.6237359503665403
 40
0.7178106598350331
 40
0.8118802346392023
 40
0.9059431350598258
 40
1.0
 40
1.0
 40
1.0
 40
1.0
 10
10.88453486720866
 20
2.978410296512795
 30
0.0
 10
11.02772906122746
 20
2.984828023225081
 30
0.0
 10
11.63128742648578
 20
3.011878509941287
 30
0.0
 10
12.69520861384652
 20
2.844477116355634
 30
0.0
 10
14.07630770756509
 20
2.483967629739873
 30
0.0
 10
15.45742120498915
 20
1.93389715986952
 30
0.0
 10
16.83854567673524
 20
1.252160469891763
 30
0.0
 10
18.19355972139829
 20
0.4958777601469109
 30
0.0
 10
19.52241216163463
 20
-0.2765111359783674
 30
0.0
 10
20.82517370429127
 20
-1.017317789404995
 30
0.0
 10
22.12787843224933
 20
-1.691253691342993
 30
0.0
 10
23.43048549934741
 20
-2.271377268886656
 30
0.0
 10
24.29884625430233
 20
-2.533682959858883
 30
0.0
 10
24.73301270189225
 20
-2.664831597544538
 30
0.0
1001
PE_URL
1000

  0
SPLINE
  5
20B
330
1F
100
AcDbEntity
  8
0
  6
Continuous
 62
     1
370
    15
100
AcDbSpline
210
0.0
220
0.0
230
1.0
 70
     8
 71
     3
 72
    15
 73
    11
 74
     0
 42
0.000000001
 43
0.00000001
 40
0.0
 40
0.0
 40
0.0
 40
0.0
 40
0.1294956032254066
 40
0.2589920771880054
 40
0.3884893826088961
 40
0.5179874801446332
 40
0.6474863303902472
 40
0.7769858938822704
 40
0.8990936033903623
 40
1.0
 40
1.0
 40
1.0
 40
1.0
 10
24.73301270189222
 20
0.3733408672980012
 30
0.0
 10
24.27260441432281
 20
0.6345562313237956
 30
0.0
 10
23.35178474336755
 20
1.156988715805156
 30
0.0
 10
21.97054808090763
 20
1.85240691004719
 30
0.0
 10
20.58930203063088
 20
2.419747659710172
 30
0.0
 10
19.20804163504059
 20
2.816332883253587
 30
0.0
 10
17.82678719226831
 20
3.016592035432751
 30
0.0
 10
16.47174990386608
 20
3.00043306994424
 30
0.0
 10
15.21856413192495
 20
2.815785747686824
 30
0.0
 10
14.42570830185784
 20
2.56729788890144
 30
0.0
 10
14.06696765430084
 20
2.454865474343585
 30
0.0
1001
PE_URL
1000

  0
SPLINE
  5
20C
330
1F
100
AcDbEntity
  8
0
  6
Continuous
 62
     1
370
    15
100
AcDbSpline
210
0.0
220
0.0
230
1.0
 70
     8
 71
     3
 72
    10
 73
     6
 74
     0
 42
0.000000001
 43
0.00000001
 40
0.0
 40
0.0
 40
0.0
 40
0.0
 40
0.5
 40
0.5
 40
1.0
 40
1.0
 40
1.0
 40
1.0
 10
24.93301270189224
 20
0.2913520289947584
 30
0.0
 10
24.93301270189227
 20
0.2856212359198835
 30
0.0
 10
24.90910365850212
 20
0.2898313985268715
 30
0.0
 10
24.83148598043041
 20
0.3205019611627016
 30
0.0
 10
24.78072907741992
 20
0.3459662622980133
 30
0.0
 10
24.73301270189225
 20
0.3733408672979941
 30
0.0
1001
PE_URL
1000

  0
LINE
  5
20D
330
1F
100
AcDbEntity
  8
외형선
  6
Continuous
370
    15
100
AcDbLine
 10
9.933012701892267
 20
2.958326253762245
 30
0.0
 11
9.933012701892238
 21
3.001074928723895
 31
0.0
  0
SPLINE
  5
20E
330
1F
100
AcDbEntity
  8
0
  6
Continuous
 62
     1
370
    15
100
AcDbSpline
210
0.0
220
0.0
230
1.0
 70
     8
 71
     3
 72
    13
 73
     9
 74
     0
 42
0.000000001
 43
0.00000001
 40
0.0
 40
0.0
 40
0.0
 40
0.0
 40
0.1059912551947543
 40
0.2847729052704541
 40
0.463563379490372
 40
0.6423639062063713
 40
0.8211757078059485
 40
1.0
 40
1.0
 40
1.0
 40
1.0
 10
17.21765497534281
 20
-2.972835614207938
 30
0.0
 10
16.96026673069392
 20
-2.976688602430158
 30
0.0
 10
16.26872667791841
 20
-2.987040651266629
 30
0.0
 10
15.14317275768272
 20
-2.786370697107973
 30
0.0
 10
13.84075671809492
 20
-2.414261244679214
 30
0.0
 10
12.53826987227856
 20
-1.881458747886089
 30
0.0
 10
11.23568130035358
 20
-1.235687688169612
 30
0.0
 10
10.36724567820912
 20
-0.7476136541338327
 30
0.0
 10
9.933012701892977
 20
-0.5035681140181083
 30
0.0
1001
PE_URL
1000

  0
LINE
  5
20F
330
1F
100
AcDbEntity
  8
외형선
  6
Continuous
370
    15
100
AcDbLine
 10
9.933012701892267
 20
-0.503568114020176
 30
0.0
 11
9.933012701892238
 21
0.5470387849010159
 31
0.0
  0
SPLINE
  5
210
330
1F
100
AcDbEntity
  8
0
  6
Continuous
 62
     1
370
    15
100
AcDbSpline
210
0.0
220
0.0
230
1.0
 70
     8
 71
     3
 72
    10
 73
     6
 74
     0
 42
0.000000001
 43
0.00000001
 40
0.0
 40
0.0
 40
0.0
 40
0.0
 40
0.5
 40
0.5
 40
1.0
 40
1.0
 40
1.0
 40
1.0
 10
24.73301270189225
 20
1.376917359091298
 30
0.0
 10
24.78518734266655
 20
1.350111286729142
 30
0.0
 10
24.83297932765174
 20
1.310818478998002
 30
0.0
 10
24.90725378528089
 20
1.224510052580811
 30
0.0
 10
24.93301270189266
 20
1.1776927641125
 30
0.0
 10
24.93301270189215
 20
1.142143976905064
 30
0.0
1001
PE_URL
1000

  0
LINE
  5
211
330
1F
100
AcDbEntity
  8
0
  6
Continuous
 62
     1
370
    15
100
AcDbLine
 10
24.93301270189224
 20
0.2913520289947584
 30
0.0
 11
24.93301270189224
 21
1.142143976905054
 31
0.0
1001
PE_URL
1000

  0
SPLINE
  5
212
330
1F
100
AcDbEntity
  8
0
  6
Continuous
 62
     1
370
    15
100
AcDbSpline
210
0.0
220
0.0
230
1.0
 70
     8
 71
     3
 72
    12
 73
     8
 74
     0
 42
0.000000001
 43
0.00000001
 40
0.0
 40
0.0
 40
0.0
 40
0.0
 40
0.0837643135093135
 40
0.3128444132298277
 40
0.5419120095961161
 40
0.7709633532579726
 40
1.0
 40
1.0
 40
1.0
 40
1.0
 10
19.04602386003714
 20
2.979249009660823
 30
0.0
 10
19.2048133841588
 20
2.985001822543673
 30
0.0
 10
19.79786325730515
 20
3.006487528035155
 30
0.0
 10
20.82517376292205
 20
2.849235288886486
 30
0.0
 10
22.12787841661597
 20
2.515987910512099
 30
0.0
 10
23.43048550325537
 20
2.019519916225956
 30
0.0
 10
24.29884625560496
 20
1.591113629924084
 30
0.0
 10
24.73301270189225
 20
1.376917359091323
 30
0.0
1001
PE_URL
1000

  0
SPLINE
  5
213
330
1F
100
AcDbEntity
  8
0
  6
Continuous
 62
     1
370
    15
100
AcDbSpline
210
0.0
220
0.0
230
1.0
 70
     8
 71
     3
 72
    10
 73
     6
 74
     0
 42
0.000000001
 43
0.00000001
 40
0.0
 40
0.0
 40
0.0
 40
0.0
 40
0.334087671339497
 40
0.6681723258770367
 40
1.0
 40
1.0
 40
1.0
 40
1.0
 10
9.933012701892238
 20
-2.948827352326823
 30
0.0
 10
10.3933811631511
 20
-2.976354457469125
 30
0.0
 10
11.31411392855503
 20
-3.031408419184768
 30
0.0
 10
12.69209645631187
 20
-2.857805466838766
 30
0.0
 10
13.60971395035531
 20
-2.587440116607539
 30
0.0
 10
14.06696765430081
 20
-2.452715616895798
 30
0.0
1001
PE_URL
1000

  0
SPLINE
  5
214
330
1F
100
AcDbEntity
  8
외형선
  6
Continuous
370
    15
100
AcDbSpline
210
0.0
220
0.0
230
1.0
 70
    24
 71
     3
 72
    20
 73
    16
 74
     0
 42
0.000000001
 43
0.00000001
 40
0.0
 40
0.0
 40
0.0
 40
0.0
 40
0.0095241931660479
 40
0.0923664769948035
 40
0.1728740361539745
 40
0.2557163199827314
 40
0.3362238791419036
 40
0.4190661629706611
 40
0.4995737221298314
 40
0.5824160059585873
 40
0.662923565117757
 40
0.7457658489465118
 40
0.8262734081055524
 40
0.9091156919344414
 40
1.0
 40
1.0
 40
1.0
 40
1.0
 10
9.933012701892267
 20
-0.3079879911618235
 30
0.0
 10
9.933012701892267
 20
-0.3070677354720743
 30
0.0
 10
9.93301270189238
 20
-0.2981430135019814
 30
0.0
 10
9.933012701892181
 20
-0.329883518501962
 30
0.0
 10
9.933012701892181
 20
-0.406684913975198
 30
0.0
 10
9.933012701892352
 20
-0.535780525342215
 30
0.0
 10
9.933012701892153
 20
-0.7094443207545069
 30
0.0
 10
9.933012701892295
 20
-0.921346014923099
 30
0.0
 10
9.93301270189221
 20
-1.168839422653349
 30
0.0
 10
9.933012701892238
 20
-1.440599127895055
 30
0.0
 10
9.933012701892125
 20
-1.733748051106165
 30
0.0
 10
9.933012701892238
 20
-2.034882133453699
 30
0.0
 10
9.93301270189221
 20
-2.34029380660391
 30
0.0
 10
9.933012701892295
 20
-2.65075445823048
 30
0.0
 10
9.933012701892267
 20
-2.846450055181695
 30
0.0
 10
9.933012701892238
 20
-2.94882735232682
 30
0.0
  0
SPLINE
  5
215
330
1F
100
AcDbEntity
  8
0
  6
Continuous
 62
     1
370
    15
100
AcDbSpline
210
0.0
220
0.0
230
1.0
 70
     8
 71
     3
 72
     9
 73
     5
 74
     0
 42
0.000000001
 43
0.00000001
 40
0.0
 40
0.0
 40
0.0
 40
0.0
 40
0.5508917055014411
 40
1.0
 40
1.0
 40
1.0
 40
1.0
 10
24.71872698760652
 20
2.993412080960091
 30
0.0
 10
24.27260443726917
 20
2.928332595325692
 30
0.0
 10
23.43685349016783
 20
2.838377089132344
 30
0.0
 10
22.60110085984473
 20
2.571531997348661
 30
0.0
 10
22.22575742141765
 20
2.451689653282379
 30
0.0
1001
PE_URL
1000

  0
LINE
  5
216
330
1F
100
AcDbEntity
  8
0
  6
Continuous
 62
     1
370
    15
100
AcDbLine
 10
24.93301270189224
 20
1.142143976905054
 30
0.0
 11
24.93301270189224
 21
2.785987711031151
 31
0.0
1001
PE_URL
1000

  0
LINE
  5
217
330
1F
100
AcDbEntity
  8
0
  6
Continuous
 62
     1
370
    15
100
AcDbLine
 10
24.93301270189224
 20
-2.783837853583368
 30
0.0
 11
24.93301270189224
 21
-2.555868838212181
 31
0.0
1001
PE_URL
1000

  0
SPLINE
  5
218
330
1F
100
AcDbEntity
  8
외형선
  6
Continuous
370
    15
100
AcDbSpline
210
0.0
220
0.0
230
1.0
 70
    24
 71
     3
 72
    14
 73
    10
 74
     0
 42
0.000000001
 43
0.00000001
 40
0.0
 40
0.0
 40
0.0
 40
0.0
 40
0.1525127658333102
 40
0.3157146790499925
 40
0.4789165922668474
 40
0.6421185054836167
 40
0.8053204187003845
 40
0.9685223319171405
 40
1.0
 40
1.0
 40
1.0
 40
1.0
 10
9.933012701892267
 20
-2.948827352326827
 30
0.0
 10
9.933012701892295
 20
-2.773711180291514
 30
0.0
 10
9.933012701892324
 20
-2.411205486105771
 30
0.0
 10
9.933012701892295
 20
-1.803131801729918
 30
0.0
 10
9.933012701892238
 20
-1.22356609018118
 30
0.0
 10
9.93301270189221
 20
-0.7368678899811414
 30
0.0
 10
9.933012701892352
 20
-0.4226398660557287
 30
0.0
 10
9.933012701892267
 20
-0.2832449028094963
 30
0.0
 10
9.933012701892238
 20
-0.315983120817755
 30
0.0
 10
9.933012701892238
 20
-0.3212765509412883
 30
0.0
  0
SPLINE
  5
219
330
1F
100
AcDbEntity
  8
외형선
  6
Continuous
370
    15
100
AcDbSpline
210
0.0
220
0.0
230
1.0
 70
     8
 71
     3
 72
     8
 73
     4
 74
     0
 42
0.000000001
 43
0.00000001
 40
0.0
 40
0.0
 40
0.0
 40
0.0
 40
1.0
 40
1.0
 40
1.0
 40
1.0
 10
9.933012701892267
 20
-2.948827352326823
 30
0.0
 10
9.60249963703319
 20
-2.913931647558897
 30
0.0
 10
9.26603980329574
 20
-2.860584522491909
 30
0.0
 10
8.932863361860257
 20
-2.790109900008488
 30
0.0
  0
SPLINE
  5
21A
330
1F
100
AcDbEntity
  8
외형선
  6
Continuous
370
    15
100
AcDbSpline
210
0.0
220
0.0
230
1.0
 70
     8
 71
     3
 72
     8
 73
     4
 74
     0
 42
0.000000001
 43
0.00000001
 40
0.0
 40
0.0
 40
0.0
 40
0.0
 40
1.0
 40
1.0
 40
1.0
 40
1.0
 10
9.93301270189221
 20
-0.5035681140176926
 30
0.0
 10
9.602499637033162
 20
-0.3145530940756984
 30
0.0
 10
9.266039803295712
 20
-0.1212940075681281
 30
0.0
 10
8.932863361860257
 20
0.0709140376380191
 30
0.0
  0
SPLINE
  5
21B
330
1F
100
AcDbEntity
  8
외형선
  6
Continuous
370
    15
100
AcDbSpline
210
0.0
220
0.0
230
1.0
 70
     8
 71
     3
 72
     8
 73
     4
 74
     0
 42
0.000000001
 43
0.00000001
 40
0.0
 40
0.0
 40
0.0
 40
0.0
 40
1.0
 40
1.0
 40
1.0
 40
1.0
 10
9.93301270189221
 20
2.958326253757413
 30
0.0
 10
9.602499637033162
 20
2.99058090657638
 30
0.0
 10
9.266039803295712
 20
3.004737660871577
 30
0.0
 10
8.932863361860257
 20
3.000261901699417
 30
0.0
  0
LINE
  5
21C
330
1F
100
AcDbEntity
  8
외형선
  6
Continuous
370
    15
100
AcDbLine
 10
8.932863361860228
 20
1.100728830379104
 30
0.0
 11
8.932863361860228
 21
3.001074928723892
 31
0.0
  0
SPLINE
  5
21D
330
1F
100
AcDbEntity
  8
외형선
  6
Continuous
370
    15
100
AcDbSpline
210
0.0
220
0.0
230
1.0
 70
     8
 71
     3
 72
     8
 73
     4
 74
     0
 42
0.000000001
 43
0.00000001
 40
0.0
 40
0.0
 40
0.0
 40
0.0
 40
1.0
 40
1.0
 40
1.0
 40
1.0
 10
9.933012701892267
 20
0.5470387849009946
 30
0.0
 10
9.60249963703319
 20
0.7355840849773863
 30
0.0
 10
9.26603980329574
 20
0.9218730338095824
 30
0.0
 10
8.932863361860257
 20
1.100750904570493
 30
0.0
  0
LINE
  5
21E
330
1F
100
AcDbEntity
  8
외형선
  6
Continuous
370
    15
100
AcDbLine
 10
8.932863361860228
 20
-2.790118596736935
 30
0.0
 11
8.932863361860228
 21
0.0709313785003403
 31
0.0
  0
LINE
  5
21F
330
1F
100
AcDbEntity
  8
외형선
  6
Continuous
370
    15
100
AcDbLine
 10
9.054084291549714
 20
-2.996782127471473
 30
0.0
 11
8.932863361860257
 21
-2.998112044251631
 31
0.0
  0
LINE
  5
220
330
1F
100
AcDbEntity
  8
외형선
  6
Continuous
370
    15
100
AcDbLine
 10
8.932863361860228
 20
-2.998925071276108
 30
0.0
 11
8.932863361860228
 21
-2.998111640401913
 31
0.0
  0
LINE
  5
221
330
1F
100
AcDbEntity
  8
외형선
  6
Continuous
370
    15
100
AcDbLine
 10
-34.46698729810777
 20
0.0010749287238916
 30
0.0
 11
-34.46698729810777
 21
3.001074928723892
 31
0.0
  0
LINE
  5
222
330
1F
100
AcDbEntity
  8
외형선
  6
Continuous
370
    15
100
AcDbLine
 10
-34.46698729810777
 20
-2.998925071276108
 30
0.0
 11
-34.46698729810777
 21
0.0010749287238916
 31
0.0
  0
LINE
  5
224
330
1F
100
AcDbEntity
  8
외형선
  6
Continuous
370
    15
100
AcDbLine
 10
-35.06698729810776
 20
-2.398925071276111
 30
0.0
 11
-35.06698729810776
 21
0.0010749287238916
 31
0.0
  0
SPLINE
  5
225
330
1F
100
AcDbEntity
  8
외형선
  6
Continuous
370
    15
100
AcDbSpline
210
0.0
220
0.0
230
1.0
 70
    24
 71
     3
 72
    14
 73
    10
 74
     0
 42
0.000000001
 43
0.00000001
 40
0.0
 40
0.0
 40
0.0
 40
0.0
 40
0.0890937215294152
 40
0.2525247663407769
 40
0.4159558111520529
 40
0.5793868559633274
 40
0.7428179007745901
 40
0.9062489455858795
 40
0.9999999999999999
 40
0.9999999999999999
 40
0.9999999999999999
 40
0.9999999999999999
 10
9.933012701892295
 20
0.3628511951169351
 30
0.0
 10
9.933012701892295
 20
0.3567723712879989
 30
0.0
 10
9.933012701892267
 20
0.3395427220974909
 30
0.0
 10
9.933012701892267
 20
0.5353296640057508
 30
0.0
 10
9.93301270189221
 20
0.910319862457456
 30
0.0
 10
9.933012701892324
 20
1.433765683438629
 30
0.0
 10
9.933012701892267
 20
2.032354696972877
 30
0.0
 10
9.933012701892096
 20
2.56159668487151
 30
0.0
 10
9.933012701892238
 20
2.852340783263774
 30
0.0
 10
9.933012701892267
 20
2.958326253757456
 30
0.0
  0
LINE
  5
226
330
1F
100
AcDbEntity
  8
중심선
100
AcDbLine
 10
-39.00231330227915
 20
0.0010749287238905
 30
0.0
 11
27.93301270189224
 21
0.001074928723888
 31
0.0
  0
CIRCLE
  5
227
330
1F
100
AcDbEntity
  8
해칭선
100
AcDbCircle
 10
0.0
 20
0.0
 30
0.0
 40
2.999999999999997
  0
DIMENSION
  5
228
330
1F
100
AcDbEntity
  8
치수문자_일반주서
100
AcDbDimension
  2
*D13
 10
34.93301270189227
 20
-2.998925071276075
 30
0.0
 11
34.93301270189221
 21
12.66757492872396
 31
0.0
 70
   160
  1
%%c<>
 71
     2
 42
6.0
 52
-270.0
  3
SLDDIMSTYLE0
100
AcDbAlignedDimension
 13
24.93301270189224
 23
3.001074928723888
 33
0.0
 14
24.93301270189224
 24
-2.998925071276112
 34
0.0
 50
90.0000000000002
100
AcDbRotatedDimension
1001
PE_URL
1000

  0
DIMENSION
  5
229
330
1F
100
AcDbEntity
  8
치수문자_일반주서
100
AcDbDimension
  2
*D14
 10
-45.00448729810773
 20
-2.998925071276153
 30
0.0
 11
-45.00448729810779
 21
12.66757492872386
 31
0.0
 70
   160
  1
%%c<>
 71
     2
 42
6.000000000000004
 52
-270.0
  3
SLDDIMSTYLE0
100
AcDbAlignedDimension
 13
-34.40448729810777
 23
3.001074928723892
 33
0.0
 14
-34.40448729810777
 24
-2.998925071276112
 34
0.0
 50
90.0000000000002
100
AcDbRotatedDimension
  0
DIMENSION
  5
22A
330
1F
100
AcDbEntity
  8
치수문자_일반주서
100
AcDbDimension
  2
*D15
 10
9.933012701892267
 20
12.92478131987752
 30
0.0
 11
17.43301270189224
 21
12.92478131987752
 31
0.0
 70
   160
  1
<>
 71
     2
 42
14.99999999999997
  3
SLDDIMSTYLE1
100
AcDbAlignedDimension
 13
24.93301270189224
 23
3.001074928723888
 33
0.0
 14
9.933012701892267
 24
2.958326253762245
 34
0.0
100
AcDbRotatedDimension
1001
PE_URL
1000

  0
DIMENSION
  5
22B
102
{ACAD_XDICTIONARY
360
271
102
}
330
1F
100
AcDbEntity
  8
치수문자_일반주서
100
AcDbDimension
  2
*D16
 10
-35.06698729810776
 20
23.00107492872389
 30
0.0
 11
-5.066987298107762
 21
23.00107492872389
 31
0.0
 70
   160
  1
<>
 71
     2
 42
60.0
  3
SLDDIMSTYLE1
100
AcDbAlignedDimension
 13
24.93301270189224
 23
3.001074928723888
 33
0.0
 14
-35.06698729810776
 24
2.401074928723894
 34
0.0
 50
0.0000000000000045
100
AcDbRotatedDimension
1001
PE_URL
1000

1001
ENABLE_CUSTOM_SPLIT
1070
     1
  0
INSERT
  5
22C
330
1F
100
AcDbEntity
  8
해칭선
100
AcDbBlockReference
  2
SW_DOWELSYMBOL_0
 10
0.0
 20
0.0
 30
0.0
  0
ARC
  5
22D
330
1F
100
AcDbEntity
  8
0
  6
Continuous
 62
     1
370
    15
100
AcDbCircle
 10
24.73301270189222
 20
2.793922937477678
 30
0.0
 40
0.2
100
AcDbArc
 50
0.0
 51
94.09604375814978
1001
PE_URL
1000

  0
ARC
  5
22E
330
1F
100
AcDbEntity
  8
0
  6
Continuous
 62
     1
370
    15
100
AcDbCircle
 10
24.73301270189222
 20
-2.791773080029898
 30
0.0
 40
0.2
100
AcDbArc
 50
265.9039562418502
 51
0.0
1001
PE_URL
1000

  0
DIMENSION
  5
22F
330
1F
100
AcDbEntity
  8
치수문자_일반주서
100
AcDbDimension
  2
*D17
 10
24.73301270189222
 20
-2.791773080029898
 30
0.0
 11
32.77807517088736
 21
-14.99094040301981
 31
0.0
 70
   164
 71
     5
 42
0.2000000000000112
  3
SLDDIMSTYLE1
100
AcDbRadialDimension
 15
24.84312023631776
 25
-2.958735144172426
 35
0.0
 40
0.0
1001
ACAD
1000
DSTYLE
1002
{
1070
    78
1070
     8
1002
}
1001
ACAD_DSTYLE_DIMRADIAL_EXTENSION
1070
   387
1070
     1
1070
   388
1040
4.640899530499178
1070
   390
1040
0.0
1001
PE_URL
1000

  0
LINE
  5
270
330
1F
100
AcDbEntity
  8
외형선
  6
Continuous
370
    15
100
AcDbLine
 10
-35.06698729810776
 20
0.0010749287238916
 30
0.0
 11
-35.06698729810776
 21
2.401074928723894
 31
0.0
  0
ENDSEC
  0
SECTION
  2
OBJECTS
  0
DICTIONARY
  5
C
330
0
100
AcDbDictionary
281
     1
  3
ACAD_GROUP
350
D
  3
ACAD_LAYOUT
350
1A
  3
ACAD_MLINESTYLE
350
17
  3
ACAD_PLOTSETTINGS
350
19
  3
ACAD_PLOTSTYLENAME
350
E
  3
ACAD_SCALELIST
350
47
  3
APPDATA
350
12E
  3
DWGPROPS
350
278
  0
DICTIONARY
  5
1C0
330
2
100
AcDbDictionary
280
     1
281
     1
  3
ACAD_LAYERSTATES
360
1C1
  0
DICTIONARY
  5
275
330
1F
100
AcDbDictionary
280
     1
281
     1
  3
DIM_BOUNDING_BOXES_V1
360
276
  0
DICTIONARY
  5
271
330
22B
100
AcDbDictionary
280
     1
281
     1
  3
ACAD_CUSTOM_BREAKDATA
360
274
  0
DICTIONARY
  5
D
102
{ACAD_REACTORS
330
C
102
}
330
C
100
AcDbDictionary
281
     1
  0
DICTIONARY
  5
1A
102
{ACAD_REACTORS
330
C
102
}
330
C
100
AcDbDictionary
281
     1
  3
Layout1
350
1E
  3
Layout2
350
26
  3
Model
350
22
  0
DICTIONARY
  5
17
102
{ACAD_REACTORS
330
C
102
}
330
C
100
AcDbDictionary
281
     1
  3
Standard
350
18
  0
DICTIONARY
  5
19
102
{ACAD_REACTORS
330
C
102
}
330
C
100
AcDbDictionary
281
     1
  0
ACDBDICTIONARYWDFLT
  5
E
102
{ACAD_REACTORS
330
C
102
}
330
C
100
AcDbDictionary
281
     1
  3
Normal
350
F
100
AcDbDictionaryWithDefault
340
F
  0
DICTIONARY
  5
47
102
{ACAD_REACTORS
330
C
102
}
330
C
100
AcDbDictionary
281
     1
  3
A0
350
48
  3
A1
350
49
  3
A2
350
4A
  3
A3
350
4B
  3
A4
350
4C
  3
A5
350
4D
  3
A6
350
4E
  3
A7
350
4F
  3
A8
350
50
  3
A9
350
51
  3
B0
350
52
  3
B1
350
53
  3
B2
350
54
  3
B3
350
55
  3
B4
350
56
  3
B5
350
57
  3
B6
350
58
  3
B7
350
59
  3
B8
350
5A
  3
B9
350
5B
  3
C0
350
5C
  3
C1
350
5D
  3
C2
350
5E
  3
C3
350
5F
  3
C4
350
60
  3
C5
350
61
  3
C6
350
62
  3
C7
350
63
  3
C8
350
64
  3
C9
350
65
  3
D0
350
66
  3
D1
350
67
  3
D2
350
68
  0
DICTIONARY
  5
12E
102
{ACAD_REACTORS
330
C
102
}
330
C
100
AcDbDictionary
281
     1
  0
XRECORD
  5
278
102
{ACAD_REACTORS
330
C
102
}
330
C
100
AcDbXrecord
280
     1
  1
DWGPROPS COOKIE
  2

  3

  4

  6

  7

  8
12016016
  9

300
=
301
=
302
=
303
=
304
=
305
=
306
=
307
=
308
=
309
=
 40
0.0
 41
2458269.434832743
 42
2459702.097584051
  1

 90
        0
  0
DICTIONARY
  5
1C1
102
{ACAD_REACTORS
330
1C0
102
}
330
1C0
100
AcDbDictionary
281
     1
  0
DICTIONARY
  5
276
102
{ACAD_REACTORS
330
275
102
}
330
275
100
AcDbDictionary
281
     1
  0
BREAKDATA
  5
274
102
{ACAD_REACTORS
330
271
102
}
330
271
100
AcDbBreakData
 70
     0
330
22B
 90
        0
  0
LAYOUT
  5
1E
102
{ACAD_REACTORS
330
1A
102
}
330
1A
100
AcDbPlotSettings
  1

  2
none_device
  4

  6

 40
0.0
 41
0.0
 42
0.0
 43
0.0
 44
0.0
 45
0.0
 46
0.0
 47
0.0
 48
0.0
 49
0.0
140
0.0
141
0.0
142
1.0
143
1.0
 70
   688
 72
     1
 73
     0
 74
     5
  7

 75
    16
147
1.0
148
0.0
149
0.0
100
AcDbLayout
  1
Layout1
 70
     1
 71
     1
 10
0.0
 20
0.0
 11
420.0
 21
297.0
 12
0.0
 22
0.0
 32
0.0
 14
1.000000000000000E+20
 24
1.000000000000000E+20
 34
1.000000000000000E+20
 15
-1.000000000000000E+20
 25
-1.000000000000000E+20
 35
-1.000000000000000E+20
146
0.0
 13
0.0
 23
0.0
 33
0.0
 16
1.0
 26
0.0
 36
0.0
 17
0.0
 27
1.0
 37
0.0
 76
     0
330
1B
  0
LAYOUT
  5
26
102
{ACAD_REACTORS
330
1A
102
}
330
1A
100
AcDbPlotSettings
  1

  2
none_device
  4

  6

 40
0.0
 41
0.0
 42
0.0
 43
0.0
 44
0.0
 45
0.0
 46
0.0
 47
0.0
 48
0.0
 49
0.0
140
0.0
141
0.0
142
1.0
143
1.0
 70
   688
 72
     1
 73
     0
 74
     5
  7

 75
    16
147
1.0
148
0.0
149
0.0
100
AcDbLayout
  1
Layout2
 70
     1
 71
     2
 10
0.0
 20
0.0
 11
0.0
 21
0.0
 12
0.0
 22
0.0
 32
0.0
 14
0.0
 24
0.0
 34
0.0
 15
0.0
 25
0.0
 35
0.0
146
0.0
 13
0.0
 23
0.0
 33
0.0
 16
1.0
 26
0.0
 36
0.0
 17
0.0
 27
1.0
 37
0.0
 76
     0
330
23
  0
LAYOUT
  5
22
102
{ACAD_REACTORS
330
1A
102
}
330
1A
100
AcDbPlotSettings
  1

  2
none_device
  4
ANSI_A_(11.00_x_8.50_Inches)
  6

 40
6.35
 41
19.05
 42
6.35000508
 43
19.05000254
 44
279.4
 45
215.9
 46
111.6855150645388
 47
107.5066733936597
 48
0.0
 49
0.0
140
0.0
141
0.0
142
0.0789824718862547
143
1.0
 70
  1696
 72
     0
 73
     0
 74
     0
  7

 75
     0
147
0.0235690232323232
148
0.0
149
0.0
100
AcDbLayout
  1
Model
 70
     1
 71
     0
 10
0.0
 20
0.0
 11
420.0
 21
297.0
 12
0.0
 22
0.0
 32
0.0
 14
-50.57416270067755
 24
-49.97180738881174
 34
0.0
 15
79.73835494594202
 25
27.3760749287239
 35
0.0
146
0.0
 13
0.0
 23
0.0
 33
0.0
 16
1.0
 26
0.0
 36
0.0
 17
0.0
 27
1.0
 37
0.0
 76
     0
330
1F
331
29
  0
MLINESTYLE
  5
18
102
{ACAD_REACTORS
330
17
102
}
330
17
100
AcDbMlineStyle
  2
Standard
 70
     0
  3

 62
   256
 51
90.0
 52
90.0
 71
     2
 49
0.5
 62
   256
  6
BYLAYER
 49
-0.5
 62
   256
  6
BYLAYER
  0
ACDBPLACEHOLDER
  5
F
102
{ACAD_REACTORS
330
E
102
}
330
E
  0
SCALE
  5
48
102
{ACAD_REACTORS
330
47
102
}
330
47
100
AcDbScale
 70
     0
300
1:1
140
1.0
141
1.0
290
     1
  0
SCALE
  5
49
102
{ACAD_REACTORS
330
47
102
}
330
47
100
AcDbScale
 70
     0
300
1:2
140
1.0
141
2.0
290
     0
  0
SCALE
  5
4A
102
{ACAD_REACTORS
330
47
102
}
330
47
100
AcDbScale
 70
     0
300
1:4
140
1.0
141
4.0
290
     0
  0
SCALE
  5
4B
102
{ACAD_REACTORS
330
47
102
}
330
47
100
AcDbScale
 70
     0
300
1:5
140
1.0
141
5.0
290
     0
  0
SCALE
  5
4C
102
{ACAD_REACTORS
330
47
102
}
330
47
100
AcDbScale
 70
     0
300
1:8
140
1.0
141
8.0
290
     0
  0
SCALE
  5
4D
102
{ACAD_REACTORS
330
47
102
}
330
47
100
AcDbScale
 70
     0
300
1:10
140
1.0
141
10.0
290
     0
  0
SCALE
  5
4E
102
{ACAD_REACTORS
330
47
102
}
330
47
100
AcDbScale
 70
     0
300
1:16
140
1.0
141
16.0
290
     0
  0
SCALE
  5
4F
102
{ACAD_REACTORS
330
47
102
}
330
47
100
AcDbScale
 70
     0
300
1:20
140
1.0
141
20.0
290
     0
  0
SCALE
  5
50
102
{ACAD_REACTORS
330
47
102
}
330
47
100
AcDbScale
 70
     0
300
1:30
140
1.0
141
30.0
290
     0
  0
SCALE
  5
51
102
{ACAD_REACTORS
330
47
102
}
330
47
100
AcDbScale
 70
     0
300
1:40
140
1.0
141
40.0
290
     0
  0
SCALE
  5
52
102
{ACAD_REACTORS
330
47
102
}
330
47
100
AcDbScale
 70
     0
300
1:50
140
1.0
141
50.0
290
     0
  0
SCALE
  5
53
102
{ACAD_REACTORS
330
47
102
}
330
47
100
AcDbScale
 70
     0
300
1:100
140
1.0
141
100.0
290
     0
  0
SCALE
  5
54
102
{ACAD_REACTORS
330
47
102
}
330
47
100
AcDbScale
 70
     0
300
2:1
140
2.0
141
1.0
290
     0
  0
SCALE
  5
55
102
{ACAD_REACTORS
330
47
102
}
330
47
100
AcDbScale
 70
     0
300
4:1
140
4.0
141
1.0
290
     0
  0
SCALE
  5
56
102
{ACAD_REACTORS
330
47
102
}
330
47
100
AcDbScale
 70
     0
300
8:1
140
8.0
141
1.0
290
     0
  0
SCALE
  5
57
102
{ACAD_REACTORS
330
47
102
}
330
47
100
AcDbScale
 70
     0
300
10:1
140
10.0
141
1.0
290
     0
  0
SCALE
  5
58
102
{ACAD_REACTORS
330
47
102
}
330
47
100
AcDbScale
 70
     0
300
100:1
140
100.0
141
1.0
290
     0
  0
SCALE
  5
59
102
{ACAD_REACTORS
330
47
102
}
330
47
100
AcDbScale
 70
     0
300
1/128" = 1'-0"
140
0.0078125
141
12.0
290
     0
  0
SCALE
  5
5A
102
{ACAD_REACTORS
330
47
102
}
330
47
100
AcDbScale
 70
     0
300
1/64" = 1'-0"
140
0.015625
141
12.0
290
     0
  0
SCALE
  5
5B
102
{ACAD_REACTORS
330
47
102
}
330
47
100
AcDbScale
 70
     0
300
1/32" = 1'-0"
140
0.03125
141
12.0
290
     0
  0
SCALE
  5
5C
102
{ACAD_REACTORS
330
47
102
}
330
47
100
AcDbScale
 70
     0
300
1/16" = 1'-0"
140
0.0625
141
12.0
290
     0
  0
SCALE
  5
5D
102
{ACAD_REACTORS
330
47
102
}
330
47
100
AcDbScale
 70
     0
300
3/32" = 1'-0"
140
0.09375
141
12.0
290
     0
  0
SCALE
  5
5E
102
{ACAD_REACTORS
330
47
102
}
330
47
100
AcDbScale
 70
     0
300
1/8" = 1'-0"
140
0.125
141
12.0
290
     0
  0
SCALE
  5
5F
102
{ACAD_REACTORS
330
47
102
}
330
47
100
AcDbScale
 70
     0
300
3/16" = 1'-0"
140
0.1875
141
12.0
290
     0
  0
SCALE
  5
60
102
{ACAD_REACTORS
330
47
102
}
330
47
100
AcDbScale
 70
     0
300
1/4" = 1'-0"
140
0.25
141
12.0
290
     0
  0
SCALE
  5
61
102
{ACAD_REACTORS
330
47
102
}
330
47
100
AcDbScale
 70
     0
300
3/8" = 1'-0"
140
0.375
141
12.0
290
     0
  0
SCALE
  5
62
102
{ACAD_REACTORS
330
47
102
}
330
47
100
AcDbScale
 70
     0
300
1/2" = 1'-0"
140
0.5
141
12.0
290
     0
  0
SCALE
  5
63
102
{ACAD_REACTORS
330
47
102
}
330
47
100
AcDbScale
 70
     0
300
3/4" = 1'-0"
140
0.75
141
12.0
290
     0
  0
SCALE
  5
64
102
{ACAD_REACTORS
330
47
102
}
330
47
100
AcDbScale
 70
     0
300
1" = 1'-0"
140
1.0
141
12.0
290
     0
  0
SCALE
  5
65
102
{ACAD_REACTORS
330
47
102
}
330
47
100
AcDbScale
 70
     0
300
1-1/2" = 1'-0"
140
1.5
141
12.0
290
     0
  0
SCALE
  5
66
102
{ACAD_REACTORS
330
47
102
}
330
47
100
AcDbScale
 70
     0
300
3" = 1'-0"
140
3.0
141
12.0
290
     0
  0
SCALE
  5
67
102
{ACAD_REACTORS
330
47
102
}
330
47
100
AcDbScale
 70
     0
300
6" = 1'-0"
140
6.0
141
12.0
290
     0
  0
SCALE
  5
68
102
{ACAD_REACTORS
330
47
102
}
330
47
100
AcDbScale
 70
     0
300
1'-0" = 1'-0"
140
12.0
141
12.0
290
     0
  0
ENDSEC
  0
EOF
