  0
SECTION
  2
HEADER
  9
$ACADVER
  1
AC1015
  9
$ACADMAINTVER
 70
     6
  9
$DWGCODEPAGE
  3
ANSI_949
  9
$INSBASE
 10
0.0
 20
0.0
 30
0.0
  9
$EXTMIN
 10
-87.4419872981078
 20
-49.97073246008785
 30
0.0
  9
$EXTMAX
 10
47.44649651723783
 20
27.3760749287239
 30
0.0
  9
$LIMMIN
 10
0.0
 20
0.0
  9
$LIMMAX
 10
420.0
 20
297.0
  9
$ORTHOMODE
 70
     1
  9
$REGENMODE
 70
     1
  9
$FILLMODE
 70
     1
  9
$QTEXTMODE
 70
     0
  9
$MIRRTEXT
 70
     1
  9
$LTSCALE
 40
1.0
  9
$ATTMODE
 70
     1
  9
$TEXTSIZE
 40
3.5
  9
$TRACEWID
 40
1.0
  9
$TEXTSTYLE
  7
Standard
  9
$CLAYER
  8
0
  9
$CELTYPE
  6
ByLayer
  9
$CECOLOR
 62
   256
  9
$CELTSCALE
 40
1.0
  9
$DISPSILH
 70
     0
  9
$DIMSCALE
 40
1.0
  9
$DIMASZ
 40
3.302
  9
$DIMEXO
 40
1.0
  9
$DIMDLI
 40
3.75
  9
$DIMRND
 40
0.0
  9
$DIMDLE
 40
0.0
  9
$DIMEXE
 40
1.0
  9
$DIMTP
 40
0.0
  9
$DIMTM
 40
0.0
  9
$DIMTXT
 40
3.5
  9
$DIMCEN
 40
2.5
  9
$DIMTSZ
 40
0.0
  9
$DIMTOL
 70
     0
  9
$DIMLIM
 70
     0
  9
$DIMTIH
 70
     1
  9
$DIMTOH
 70
     1
  9
$DIMSE1
 70
     0
  9
$DIMSE2
 70
     0
  9
$DIMTAD
 70
     1
  9
$DIMZIN
 70
     0
  9
$DIMBLK
  1

  9
$DIMASO
 70
     1
  9
$DIMSHO
 70
     1
  9
$DIMPOST
  1

  9
$DIMAPOST
  1

  9
$DIMALT
 70
     0
  9
$DIMALTD
 70
     3
  9
$DIMALTF
 40
0.0393700787401575
  9
$DIMLFAC
 40
1.0
  9
$DIMTOFL
 70
     1
  9
$DIMTVP
 40
0.0
  9
$DIMTIX
 70
     0
  9
$DIMSOXD
 70
     0
  9
$DIMSAH
 70
     0
  9
$DIMBLK1
  1

  9
$DIMBLK2
  1

  9
$DIMSTYLE
  2
ISO-25
  9
$DIMCLRD
 70
     0
  9
$DIMCLRE
 70
     0
  9
$DIMCLRT
 70
     0
  9
$DIMTFAC
 40
1.0
  9
$DIMGAP
 40
1.524
  9
$DIMJUST
 70
     0
  9
$DIMSD1
 70
     0
  9
$DIMSD2
 70
     0
  9
$DIMTOLJ
 70
     0
  9
$DIMTZIN
 70
     0
  9
$DIMALTZ
 70
     0
  9
$DIMALTTZ
 70
     0
  9
$DIMUPT
 70
     0
  9
$DIMDEC
 70
     2
  9
$DIMTDEC
 70
     2
  9
$DIMALTU
 70
     2
  9
$DIMALTTD
 70
     3
  9
$DIMTXSTY
  7
Standard
  9
$DIMAUNIT
 70
     0
  9
$DIMADEC
 70
     2
  9
$DIMALTRND
 40
0.0
  9
$DIMAZIN
 70
     0
  9
$DIMDSEP
 70
    44
  9
$DIMATFIT
 70
     3
  9
$DIMFRAC
 70
     0
  9
$DIMLDRBLK
  1

  9
$DIMLUNIT
 70
     2
  9
$DIMLWD
 70
    -2
  9
$DIMLWE
 70
    -2
  9
$DIMTMOVE
 70
     0
  9
$LUNITS
 70
     2
  9
$LUPREC
 70
     2
  9
$SKETCHINC
 40
1.0
  9
$FILLETRAD
 40
10.0
  9
$AUNITS
 70
     0
  9
$AUPREC
 70
     2
  9
$MENU
  1
.
  9
$ELEVATION
 40
0.0
  9
$PELEVATION
 40
0.0
  9
$THICKNESS
 40
0.0
  9
$LIMCHECK
 70
     0
  9
$CHAMFERA
 40
0.0
  9
$CHAMFERB
 40
0.0
  9
$CHAMFERC
 40
0.0
  9
$CHAMFERD
 40
0.0
  9
$SKPOLY
 70
     0
  9
$TDCREATE
 40
2458269.80926544
  9
$TDUCREATE
 40
2458269.43426544
  9
$TDUPDATE
 40
2458270.784026539
  9
$TDUUPDATE
 40
2458270.409026539
  9
$TDINDWG
 40
0.0017201157
  9
$TDUSRTIMER
 40
0.0017201042
  9
$USRTIMER
 70
     1
  9
$ANGBASE
 50
0.0
  9
$ANGDIR
 70
     0
  9
$PDMODE
 70
     0
  9
$PDSIZE
 40
-1.0
  9
$PLINEWID
 40
0.0
  9
$SPLFRAME
 70
     0
  9
$SPLINETYPE
 70
     6
  9
$SPLINESEGS
 70
     8
  9
$HANDSEED
  5
1D8
  9
$SURFTAB1
 70
     6
  9
$SURFTAB2
 70
     6
  9
$SURFTYPE
 70
     6
  9
$SURFU
 70
     6
  9
$SURFV
 70
     6
  9
$UCSBASE
  2

  9
$UCSNAME
  2

  9
$UCSORG
 10
0.0
 20
0.0
 30
0.0
  9
$UCSXDIR
 10
1.0
 20
0.0
 30
0.0
  9
$UCSYDIR
 10
0.0
 20
1.0
 30
0.0
  9
$UCSORTHOREF
  2

  9
$UCSORTHOVIEW
 70
     0
  9
$UCSORGTOP
 10
0.0
 20
0.0
 30
0.0
  9
$UCSORGBOTTOM
 10
0.0
 20
0.0
 30
0.0
  9
$UCSORGLEFT
 10
0.0
 20
0.0
 30
0.0
  9
$UCSORGRIGHT
 10
0.0
 20
0.0
 30
0.0
  9
$UCSORGFRONT
 10
0.0
 20
0.0
 30
0.0
  9
$UCSORGBACK
 10
0.0
 20
0.0
 30
0.0
  9
$PUCSBASE
  2

  9
$PUCSNAME
  2

  9
$PUCSORG
 10
0.0
 20
0.0
 30
0.0
  9
$PUCSXDIR
 10
1.0
 20
0.0
 30
0.0
  9
$PUCSYDIR
 10
0.0
 20
1.0
 30
0.0
  9
$PUCSORTHOREF
  2

  9
$PUCSORTHOVIEW
 70
     0
  9
$PUCSORGTOP
 10
0.0
 20
0.0
 30
0.0
  9
$PUCSORGBOTTOM
 10
0.0
 20
0.0
 30
0.0
  9
$PUCSORGLEFT
 10
0.0
 20
0.0
 30
0.0
  9
$PUCSORGRIGHT
 10
0.0
 20
0.0
 30
0.0
  9
$PUCSORGFRONT
 10
0.0
 20
0.0
 30
0.0
  9
$PUCSORGBACK
 10
0.0
 20
0.0
 30
0.0
  9
$USERI1
 70
     0
  9
$USERI2
 70
     0
  9
$USERI3
 70
     0
  9
$USERI4
 70
     0
  9
$USERI5
 70
     0
  9
$USERR1
 40
0.0
  9
$USERR2
 40
0.0
  9
$USERR3
 40
0.0
  9
$USERR4
 40
0.0
  9
$USERR5
 40
0.0
  9
$WORLDVIEW
 70
     1
  9
$SHADEDGE
 70
     3
  9
$SHADEDIF
 70
    70
  9
$TILEMODE
 70
     1
  9
$MAXACTVP
 70
    64
  9
$PINSBASE
 10
0.0
 20
0.0
 30
0.0
  9
$PLIMCHECK
 70
     0
  9
$PEXTMIN
 10
1.000000000000000E+20
 20
1.000000000000000E+20
 30
1.000000000000000E+20
  9
$PEXTMAX
 10
-1.000000000000000E+20
 20
-1.000000000000000E+20
 30
-1.000000000000000E+20
  9
$PLIMMIN
 10
0.0
 20
0.0
  9
$PLIMMAX
 10
0.0
 20
0.0
  9
$UNITMODE
 70
     0
  9
$VISRETAIN
 70
     1
  9
$PLINEGEN
 70
     0
  9
$PSLTSCALE
 70
     1
  9
$TREEDEPTH
 70
  3020
  9
$CMLSTYLE
  2
Standard
  9
$CMLJUST
 70
     0
  9
$CMLSCALE
 40
20.0
  9
$PROXYGRAPHICS
 70
     1
  9
$MEASUREMENT
 70
     1
  9
$CELWEIGHT
370
    -1
  9
$ENDCAPS
280
     0
  9
$JOINSTYLE
280
     0
  9
$LWDISPLAY
290
     1
  9
$INSUNITS
 70
     4
  9
$HYPERLINKBASE
  1

  9
$STYLESHEET
  1

  9
$XEDIT
290
     1
  9
$CEPSNTYPE
380
     0
  9
$PSTYLEMODE
290
     1
  9
$FINGERPRINTGUID
  2
{AD0EB576-E706-460A-9F96-5D17AC3622BC}
  9
$VERSIONGUID
  2
{FAEB1C32-E019-11D5-929B-00C0DF256EC4}
  9
$EXTNAMES
290
     1
  9
$PSVPSCALE
 40
0.0
  9
$OLESTARTUP
290
     0
  0
ENDSEC
  0
SECTION
  2
CLASSES
  0
CLASS
  1
ACDBDICTIONARYWDFLT
  2
AcDbDictionaryWithDefault
  3
ObjectDBX Classes
 90
        0
280
     0
281
     0
  0
CLASS
  1
VISUALSTYLE
  2
AcDbVisualStyle
  3
ObjectDBX Classes
 90
     4095
280
     0
281
     0
  0
CLASS
  1
MATERIAL
  2
AcDbMaterial
  3
ObjectDBX Classes
 90
     1153
280
     0
281
     0
  0
CLASS
  1
SCALE
  2
AcDbScale
  3
ObjectDBX Classes
 90
     1153
280
     0
281
     0
  0
CLASS
  1
SUN
  2
AcDbSun
  3
SCENEOE
 90
     1153
280
     0
281
     0
  0
CLASS
  1
ACDBPLACEHOLDER
  2
AcDbPlaceHolder
  3
ObjectDBX Classes
 90
        0
280
     0
281
     0
  0
CLASS
  1
LAYOUT
  2
AcDbLayout
  3
ObjectDBX Classes
 90
        0
280
     0
281
     0
  0
CLASS
  1
TABLESTYLE
  2
AcDbTableStyle
  3
ObjectDBX Classes
 90
     4095
280
     0
281
     0
  0
CLASS
  1
MLEADERSTYLE
  2
AcDbMLeaderStyle
  3
ACDB_MLEADERSTYLE_CLASS
 90
     4095
280
     0
281
     0
  0
CLASS
  1
DICTIONARYVAR
  2
AcDbDictionaryVar
  3
ObjectDBX Classes
 90
        0
280
     0
281
     0
  0
CLASS
  1
DIMASSOC
  2
AcDbDimAssoc
  3
"AcDbDimAssoc|Product Desc:     AcDim ARX App For Dimension|Company:          Autodesk, Inc.|WEB Address:      www.autodesk.com"
 90
        0
280
     0
281
     0
  0
ENDSEC
  0
SECTION
  2
TABLES
  0
TABLE
  2
VPORT
  5
8
330
0
100
AcDbSymbolTable
 70
     1
  0
VPORT
  5
29
330
8
100
AcDbSymbolTableRecord
100
AcDbViewportTableRecord
  2
*Active
 70
     0
 10
0.0
 20
0.0
 11
1.0
 21
1.0
 12
-19.99774539043499
 22
-11.29732876568197
 13
0.0
 23
0.0
 14
10.0
 24
10.0
 15
10.0
 25
10.0
 16
0.0
 26
0.0
 36
1.0
 17
0.0
 27
0.0
 37
0.0
 40
78.89374353658798
 41
2.003901170351105
 42
50.0
 43
0.0
 44
0.0
 50
0.0
 51
0.0
 71
    16
 72
  2000
 73
     1
 74
     3
 75
     0
 76
     0
 77
     0
 78
     0
281
     0
 65
     1
110
0.0
120
0.0
130
0.0
111
1.0
121
0.0
131
0.0
112
0.0
122
1.0
132
0.0
 79
     0
146
0.0
  0
ENDTAB
  0
TABLE
  2
LTYPE
  5
5
330
0
100
AcDbSymbolTable
 70
     6
  0
LTYPE
  5
14
330
5
100
AcDbSymbolTableRecord
100
AcDbLinetypeTableRecord
  2
ByBlock
 70
     0
  3

 72
    65
 73
     0
 40
0.0
  0
LTYPE
  5
15
330
5
100
AcDbSymbolTableRecord
100
AcDbLinetypeTableRecord
  2
ByLayer
 70
     0
  3

 72
    65
 73
     0
 40
0.0
  0
LTYPE
  5
16
330
5
100
AcDbSymbolTableRecord
100
AcDbLinetypeTableRecord
  2
Continuous
 70
     0
  3
Solid line
 72
    65
 73
     0
 40
0.0
  0
LTYPE
  5
6A
330
5
100
AcDbSymbolTableRecord
100
AcDbLinetypeTableRecord
  2
HIDDEN
 70
     0
  3
Hidden __ __ __ __ __ __ __ __ __ __ __ __ __ __
 72
    65
 73
     2
 40
1.905
 49
1.27
 74
     0
 49
-0.635
 74
     0
  0
LTYPE
  5
6B
330
5
100
AcDbSymbolTableRecord
100
AcDbLinetypeTableRecord
  2
PHANTOM
 70
     0
  3
Phantom ______  __  __  ______  __  __  ______
 72
    65
 73
     6
 40
12.7
 49
6.35
 74
     0
 49
-1.27
 74
     0
 49
1.27
 74
     0
 49
-1.27
 74
     0
 49
1.27
 74
     0
 49
-1.27
 74
     0
  0
LTYPE
  5
6C
330
5
100
AcDbSymbolTableRecord
100
AcDbLinetypeTableRecord
  2
CENTER
 70
     0
  3
Center ____ _ ____ _ ____ _ ____ _ ____ _ ____
 72
    65
 73
     4
 40
10.16
 49
6.35
 74
     0
 49
-1.27
 74
     0
 49
1.27
 74
     0
 49
-1.27
 74
     0
  0
LTYPE
  5
6D
330
5
100
AcDbSymbolTableRecord
100
AcDbLinetypeTableRecord
  2
CENTERX2
 70
     0
  3
Center (2x) ________  __  ________  __  _____
 72
    65
 73
     4
 40
20.32
 49
12.7
 74
     0
 49
-2.54
 74
     0
 49
2.54
 74
     0
 49
-2.54
 74
     0
  0
LTYPE
  5
6E
330
5
100
AcDbSymbolTableRecord
100
AcDbLinetypeTableRecord
  2
DOT2
 70
     0
  3
Dot (.5x) ........................................
 72
    65
 73
     2
 40
0.635
 49
0.0
 74
     0
 49
-0.635
 74
     0
  0
ENDTAB
  0
TABLE
  2
LAYER
  5
2
102
{ACAD_XDICTIONARY
360
17D
102
}
330
0
100
AcDbSymbolTable
 70
    18
  0
LAYER
  5
10
330
2
100
AcDbSymbolTableRecord
100
AcDbLayerTableRecord
  2
0
 70
     0
 62
     7
  6
Continuous
370
    -3
390
F
  0
LAYER
  5
6F
330
2
100
AcDbSymbolTableRecord
100
AcDbLayerTableRecord
  2
FORMAT
 70
     0
 62
     2
  6
Continuous
370
    -3
390
F
  0
LAYER
  5
70
330
2
100
AcDbSymbolTableRecord
100
AcDbLayerTableRecord
  2
외형선
 70
     0
 62
     4
  6
Continuous
370
    30
390
F
  0
LAYER
  5
71
330
2
100
AcDbSymbolTableRecord
100
AcDbLayerTableRecord
  2
숨은선
 70
     0
 62
     2
  6
HIDDEN
370
    15
390
F
  0
LAYER
  5
72
330
2
100
AcDbSymbolTableRecord
100
AcDbLayerTableRecord
  2
중심선
 70
     0
 62
     1
  6
CENTERX2
370
    -3
390
F
  0
LAYER
  5
73
330
2
100
AcDbSymbolTableRecord
100
AcDbLayerTableRecord
  2
파단선
 70
     0
 62
     4
  6
Continuous
370
    -3
390
F
  0
LAYER
  5
74
330
2
100
AcDbSymbolTableRecord
100
AcDbLayerTableRecord
  2
해칭선
 70
     0
 62
   100
  6
Continuous
370
    -3
390
F
  0
LAYER
  5
75
330
2
100
AcDbSymbolTableRecord
100
AcDbLayerTableRecord
  2
가는실선
 70
     0
 62
     4
  6
Continuous
370
    -3
390
F
  0
LAYER
  5
76
330
2
100
AcDbSymbolTableRecord
100
AcDbLayerTableRecord
  2
치수_보조선
 70
     0
 62
     4
  6
Continuous
370
    -3
390
F
  0
LAYER
  5
77
330
2
100
AcDbSymbolTableRecord
100
AcDbLayerTableRecord
  2
치수문자_일반주서
 70
     0
 62
     7
  6
Continuous
370
    15
390
F
  0
LAYER
  5
78
330
2
100
AcDbSymbolTableRecord
100
AcDbLayerTableRecord
  2
개별주서
 70
     0
 62
   100
  6
Continuous
370
    30
390
F
  0
LAYER
  5
79
330
2
100
AcDbSymbolTableRecord
100
AcDbLayerTableRecord
  2
중간선
 70
     0
 62
     2
  6
Continuous
370
    15
390
F
  0
LAYER
  5
7A
330
2
100
AcDbSymbolTableRecord
100
AcDbLayerTableRecord
  2
윤곽선
 70
     0
 62
     3
  6
Continuous
370
    40
390
F
  0
LAYER
  5
7B
330
2
100
AcDbSymbolTableRecord
100
AcDbLayerTableRecord
  2
중심마크
 70
     0
 62
   100
  6
Continuous
370
    30
390
F
  0
LAYER
  5
7C
330
2
100
AcDbSymbolTableRecord
100
AcDbLayerTableRecord
  2
가상선
 70
     0
 62
     4
  6
PHANTOM
370
    -3
390
F
  0
LAYER
  5
7D
330
2
100
AcDbSymbolTableRecord
100
AcDbLayerTableRecord
  2
특수지정선
 70
     0
 62
     5
  6
CENTERX2
370
    60
390
F
  0
LAYER
  5
7E
330
2
100
AcDbSymbolTableRecord
100
AcDbLayerTableRecord
  2
참조1
 70
     0
 62
    -4
  6
Continuous
370
    -3
390
F
  0
LAYER
  5
138
330
2
100
AcDbSymbolTableRecord
100
AcDbLayerTableRecord
  2
Defpoints
 70
     0
 62
     7
  6
Continuous
290
     0
370
    -3
390
F
  0
ENDTAB
  0
TABLE
  2
STYLE
  5
3
330
0
100
AcDbSymbolTable
 70
     2
  0
STYLE
  5
11
330
3
100
AcDbSymbolTableRecord
100
AcDbTextStyleTableRecord
  2
Standard
 70
     0
 40
0.0
 41
1.0
 50
0.0
 71
     0
 42
3.5
  3
txt
  4

  0
STYLE
  5
94
330
3
100
AcDbSymbolTableRecord
100
AcDbTextStyleTableRecord
  2
SLDTEXTSTYLE0
 70
     0
 40
0.0
 41
0.75
 50
0.0
 71
     0
 42
3.5
  3
TXT
  4

  0
ENDTAB
  0
TABLE
  2
VIEW
  5
6
330
0
100
AcDbSymbolTable
 70
     0
  0
ENDTAB
  0
TABLE
  2
UCS
  5
7
330
0
100
AcDbSymbolTable
 70
     0
  0
ENDTAB
  0
TABLE
  2
APPID
  5
9
330
0
100
AcDbSymbolTable
 70
     3
  0
APPID
  5
12
330
9
100
AcDbSymbolTableRecord
100
AcDbRegAppTableRecord
  2
ACAD
 70
     0
  0
APPID
  5
141
330
9
100
AcDbSymbolTableRecord
100
AcDbRegAppTableRecord
  2
PE_URL
 70
     0
  0
APPID
  5
142
330
9
100
AcDbSymbolTableRecord
100
AcDbRegAppTableRecord
  2
ACAD_DSTYLE_DIMRADIAL_EXTENSION
 70
     0
  0
ENDTAB
  0
TABLE
  2
DIMSTYLE
  5
A
330
0
100
AcDbSymbolTable
 70
     4
100
AcDbDimStyleTable
  0
DIMSTYLE
105
27
330
A
100
AcDbSymbolTableRecord
100
AcDbDimStyleTableRecord
  2
ISO-25
 70
     0
 41
2.5
 42
0.625
 43
3.75
 44
1.25
 73
     0
 74
     0
 77
     1
 78
     8
140
2.5
141
2.5
143
0.03937007874016
147
0.625
171
     3
172
     1
178
     0
271
     2
272
     2
274
     3
278
    44
283
     0
284
     8
340
11
  0
DIMSTYLE
105
D5
102
{ACAD_REACTORS
330
D4
330
161
102
}
330
A
100
AcDbSymbolTableRecord
100
AcDbDimStyleTableRecord
  2
SLDDIMSTYLE0
 70
     0
 41
3.302
 44
0.0
 45
0.000000001
 73
     0
 74
     0
 77
     1
 78
     4
 79
     1
140
3.5
147
0.875
172
     1
173
     1
178
     0
271
     2
272
     2
276
     2
284
    12
289
     0
340
94
  0
DIMSTYLE
105
E3
102
{ACAD_REACTORS
330
E2
330
F0
330
172
330
1C9
102
}
330
A
100
AcDbSymbolTableRecord
100
AcDbDimStyleTableRecord
  2
SLDDIMSTYLE1
 70
     0
 41
3.302
 44
0.0
 45
0.000000001
 73
     0
 74
     0
 77
     1
 78
    12
 79
     3
140
3.5
147
0.875
172
     1
173
     1
178
     0
271
     2
272
     2
276
     2
284
    12
289
     0
340
94
  0
DIMSTYLE
105
FD
102
{ACAD_REACTORS
330
FC
102
}
330
A
100
AcDbSymbolTableRecord
100
AcDbDimStyleTableRecord
  2
SLDDIMSTYLE2
 70
     0
 41
3.302
 44
0.0
 45
0.000000001
 73
     0
 74
     0
 77
     1
 78
    12
 79
     3
140
3.5
147
0.875
173
     1
178
     0
271
     2
272
     2
276
     2
284
    12
340
94
  0
ENDTAB
  0
TABLE
  2
BLOCK_RECORD
  5
1
330
0
100
AcDbSymbolTable
 70
    13
  0
BLOCK_RECORD
  5
1F
330
1
100
AcDbSymbolTableRecord
100
AcDbBlockTableRecord
  2
*Model_Space
340
22
  0
BLOCK_RECORD
  5
1B
330
1
100
AcDbSymbolTableRecord
100
AcDbBlockTableRecord
  2
*Paper_Space
340
1E
  0
BLOCK_RECORD
  5
23
330
1
100
AcDbSymbolTableRecord
100
AcDbBlockTableRecord
  2
*Paper_Space0
340
26
  0
BLOCK_RECORD
  5
7F
330
1
100
AcDbSymbolTableRecord
100
AcDbBlockTableRecord
  2
블럭10
340
0
102
{BLKREFS
331
CD
102
}
  0
BLOCK_RECORD
  5
D6
330
1
100
AcDbSymbolTableRecord
100
AcDbBlockTableRecord
  2
_D
340
0
  0
BLOCK_RECORD
  5
E4
330
1
100
AcDbSymbolTableRecord
100
AcDbBlockTableRecord
  2
_D_1
340
0
  0
BLOCK_RECORD
  5
F1
330
1
100
AcDbSymbolTableRecord
100
AcDbBlockTableRecord
  2
_D_2
340
0
  0
BLOCK_RECORD
  5
FE
330
1
100
AcDbSymbolTableRecord
100
AcDbBlockTableRecord
  2
_D_3
340
0
  0
BLOCK_RECORD
  5
10E
330
1
100
AcDbSymbolTableRecord
100
AcDbBlockTableRecord
  2
SW_DOWELSYMBOL_0
340
0
102
{BLKREFS
331
114
102
}
  0
BLOCK_RECORD
  5
173
330
1
100
AcDbSymbolTableRecord
100
AcDbBlockTableRecord
  2
*D8
340
0
  0
BLOCK_RECORD
  5
181
330
1
100
AcDbSymbolTableRecord
100
AcDbBlockTableRecord
  2
*D9
340
0
  0
BLOCK_RECORD
  5
195
330
1
100
AcDbSymbolTableRecord
100
AcDbBlockTableRecord
  2
*D10
340
0
  0
BLOCK_RECORD
  5
1A4
330
1
100
AcDbSymbolTableRecord
100
AcDbBlockTableRecord
  2
*D11
340
0
  0
BLOCK_RECORD
  5
1CC
330
1
100
AcDbSymbolTableRecord
100
AcDbBlockTableRecord
  2
*D12
340
0
  0
ENDTAB
  0
ENDSEC
  0
SECTION
  2
BLOCKS
  0
BLOCK
  5
20
330
1F
100
AcDbEntity
  8
0
100
AcDbBlockBegin
  2
*Model_Space
 70
     0
 10
0.0
 20
0.0
 30
0.0
  3
*Model_Space
  1

  0
ENDBLK
  5
21
330
1F
100
AcDbEntity
  8
0
100
AcDbBlockEnd
  0
BLOCK
  5
1C
330
1B
100
AcDbEntity
 67
     1
  8
0
100
AcDbBlockBegin
  2
*Paper_Space
 70
     0
 10
0.0
 20
0.0
 30
0.0
  3
*Paper_Space
  1

  0
ENDBLK
  5
1D
330
1B
100
AcDbEntity
 67
     1
  8
0
100
AcDbBlockEnd
  0
BLOCK
  5
24
330
23
100
AcDbEntity
  8
0
100
AcDbBlockBegin
  2
*Paper_Space0
 70
     0
 10
0.0
 20
0.0
 30
0.0
  3
*Paper_Space0
  1

  0
ENDBLK
  5
25
330
23
100
AcDbEntity
  8
0
100
AcDbBlockEnd
  0
BLOCK
  5
80
330
7F
100
AcDbEntity
  8
0
100
AcDbBlockBegin
  2
블럭10
 70
     2
 10
0.0
 20
0.0
 30
0.0
  3
블럭10
  1

  0
ELLIPSE
  5
82
330
7F
100
AcDbEntity
  8
중심선
100
AcDbEllipse
 10
20.54032771741204
 20
12.0471743016438
 30
0.0
 11
6.600054785286829
 21
-1.261213355974178E-13
 31
0.0
210
0.0
220
0.0
230
1.0
 40
0.636358354079598
 41
0.9219305317359503
 42
6.513795318482858
  0
ELLIPSE
  5
83
330
7F
100
AcDbEntity
  8
중심선
100
AcDbEllipse
 10
20.54032771746488
 20
12.04717430159265
 30
0.0
 11
3.960054785062283
 21
1.540847449632565E-10
 31
0.0
210
0.0
220
0.0
230
1.0
 40
0.3939339440162632
 41
1.131841032648279
 42
5.62031148352944
  0
LINE
  5
84
330
7F
100
AcDbEntity
  8
중심선
100
AcDbLine
 10
2.268634060543552
 20
16.24717430164393
 30
0.0
 11
5.714909304380834
 21
16.24717430164393
 31
0.0
  0
LINE
  5
85
330
7F
100
AcDbEntity
  8
중심선
100
AcDbLine
 10
5.245725140726316
 20
7.84717430164391
 30
0.0
 11
8.692000384563599
 21
7.84717430164391
 31
0.0
  0
LINE
  5
86
330
7F
100
AcDbEntity
  8
중심선
100
AcDbLine
 10
15.74043728645272
 20
16.24717430164393
 30
0.0
 11
8.692000384563599
 21
7.84717430164391
 31
0.0
  0
LINE
  5
87
330
7F
100
AcDbEntity
  8
중심선
100
AcDbLine
 10
0.1404042013395286
 20
13.71084872107135
 30
0.0
 11
3.58671253028996
 21
13.71088815037384
 31
0.0
  0
LINE
  5
88
330
7F
100
AcDbEntity
  8
중심선
100
AcDbLine
 10
2.750260043222114
 20
10.84717430164391
 30
0.0
 11
6.196535287059397
 21
10.84717430164391
 31
0.0
  0
LINE
  5
89
330
7F
100
AcDbEntity
  8
중심선
100
AcDbLine
 10
12.29416204261559
 20
16.24717430164393
 30
0.0
 11
5.245725140726316
 21
7.84717430164391
 31
0.0
  0
LINE
  5
8A
330
7F
100
AcDbEntity
  8
중심선
100
AcDbLine
 10
10.72767329541681
 20
16.24717430164393
 30
0.0
 11
6.196535287059397
 21
10.84717430164391
 31
0.0
  0
LINE
  5
8B
330
7F
100
AcDbEntity
  8
중심선
100
AcDbLine
 10
7.28139805157953
 20
16.24717430164393
 30
0.0
 11
2.750260043222114
 21
10.84717430164391
 31
0.0
  0
LINE
  5
8C
330
7F
100
AcDbEntity
  8
중심선
100
AcDbLine
 10
5.714909304380834
 20
16.24717430164393
 30
0.0
 11
3.58671253028996
 21
13.71088815037384
 31
0.0
  0
LINE
  5
8D
330
7F
100
AcDbEntity
  8
중심선
100
AcDbLine
 10
2.268634060543552
 20
16.24717430164393
 30
0.0
 11
0.1404042013395286
 21
13.71084872107135
 31
0.0
  0
LINE
  5
8E
330
7F
100
AcDbEntity
  8
중심선
100
AcDbLine
 10
7.28139805157953
 20
16.24717430164393
 30
0.0
 11
10.72767329541681
 21
16.24717430164393
 31
0.0
  0
LINE
  5
8F
330
7F
100
AcDbEntity
  8
중심선
100
AcDbLine
 10
12.29416204261559
 20
16.24717430164393
 30
0.0
 11
15.74043728645272
 21
16.24717430164393
 31
0.0
  0
LINE
  5
90
330
7F
100
AcDbEntity
  8
중심선
100
AcDbLine
 10
19.22036997980202
 20
11.08717430171403
 30
0.0
 11
23.66174974927406
 21
11.08717430171406
 31
0.0
  0
LINE
  5
91
330
7F
100
AcDbEntity
  8
중심선
100
AcDbLine
 10
19.22039502424796
 20
13.00717430171391
 30
0.0
 11
19.22036997980202
 21
11.08717430171403
 31
0.0
  0
LINE
  5
92
330
7F
100
AcDbEntity
  8
중심선
100
AcDbLine
 10
19.22039502424796
 20
13.00717430171391
 30
0.0
 11
26.96566020931264
 21
13.00717430171391
 31
0.0
  0
LINE
  5
93
330
7F
100
AcDbEntity
  8
중심선
100
AcDbLine
 10
22.22332737316547
 20
13.45928029700563
 30
0.0
 11
24.52862924686651
 21
15.39360700705356
 31
0.0
  0
ATTDEF
  5
95
330
7F
100
AcDbEntity
  8
FORMAT
 62
     2
100
AcDbText
 10
-16.11926103943555
 20
2.075366912832191
 30
0.0
 40
4.233333333333333
  1
SEME0105510E [ 4 FLUTE ]
 41
0.75
  7
SLDTEXTSTYLE0
 11
-16.11926103943555
 21
-0.0412997538344756
 31
0.0
100
AcDbAttributeDefinition
  3

  2
AUTOATTR0
 70
     0
 74
     1
  0
ENDBLK
  5
81
330
7F
100
AcDbEntity
  8
0
100
AcDbBlockEnd
  0
BLOCK
  5
D7
330
D6
100
AcDbEntity
  8
0
100
AcDbBlockBegin
  2
_D
 70
     0
 10
0.0
 20
0.0
 30
0.0
  3
_D
  1

  0
LINE
  5
D9
330
D6
100
AcDbEntity
  8
치수문자_일반주서
 62
     0
370
    -2
100
AcDbLine
 10
16.99551270189225
 20
2.751074928723889
 30
0.0
 11
26.93301270189224
 21
2.751074928723927
 31
0.0
  0
LINE
  5
DA
330
D6
100
AcDbEntity
  8
치수문자_일반주서
 62
     0
370
    -2
100
AcDbLine
 10
16.99551270189225
 20
-2.748925071276111
 30
0.0
 11
26.93301270189226
 21
-2.748925071276075
 31
0.0
  0
LINE
  5
DB
330
D6
100
AcDbEntity
  8
치수문자_일반주서
 62
     0
370
    -2
100
AcDbLine
 10
26.93301270189224
 20
2.751074928723927
 30
0.0
 11
26.93301270189219
 21
20.07382492872396
 31
0.0
  0
LINE
  5
DC
330
D6
100
AcDbEntity
  8
치수문자_일반주서
 62
     0
370
    -2
100
AcDbLine
 10
26.93301270189224
 20
2.751074928723927
 30
0.0
 11
26.93301270189226
 21
-2.748925071276075
 31
0.0
  0
LINE
  5
DD
330
D6
100
AcDbEntity
  8
치수문자_일반주서
 62
     0
370
    -2
100
AcDbLine
 10
26.93301270189223
 20
6.053074928723927
 30
0.0
 11
26.93301270189222
 21
9.355074928723926
 31
0.0
  0
LINE
  5
DE
330
D6
100
AcDbEntity
  8
치수문자_일반주서
 62
     0
370
    -2
100
AcDbLine
 10
26.93301270189227
 20
-6.050925071276074
 30
0.0
 11
26.93301270189228
 21
-9.352925071276074
 31
0.0
  0
SOLID
  5
DF
330
D6
100
AcDbEntity
  8
치수문자_일반주서
 62
     0
100
AcDbTrace
 10
26.3826793685589
 20
6.053074928723925
 30
0.0
 11
27.48334603522557
 21
6.053074928723928
 31
0.0
 12
26.93301270189224
 22
2.751074928723927
 32
0.0
 13
26.93301270189224
 23
2.751074928723927
 33
0.0
  0
SOLID
  5
E0
330
D6
100
AcDbEntity
  8
치수문자_일반주서
 62
     0
100
AcDbTrace
 10
27.4833460352256
 20
-6.050925071276072
 30
0.0
 11
26.38267936855894
 21
-6.050925071276076
 31
0.0
 12
26.93301270189226
 22
-2.748925071276075
 32
0.0
 13
26.93301270189226
 23
-2.748925071276075
 33
0.0
  0
MTEXT
  5
E1
330
D6
100
AcDbEntity
  8
치수문자_일반주서
 62
     0
100
AcDbMText
 10
22.5580127018922
 20
15.26132492872394
 30
0.0
 40
3.5
 41
0.0
 71
     2
 72
     1
  1
\A1;%%c5.5
  7
SLDTEXTSTYLE0
 11
-3.229739708000455E-15
 21
1.0
 31
0.0
 73
     1
 44
1.0
  0
POINT
  5
1BF
330
D6
100
AcDbEntity
  8
Defpoints
 62
     0
100
AcDbPoint
 10
16.93301270189225
 20
2.751074928723889
 30
0.0
  0
POINT
  5
1C0
330
D6
100
AcDbEntity
  8
Defpoints
 62
     0
100
AcDbPoint
 10
16.93301270189225
 20
-2.748925071276111
 30
0.0
  0
POINT
  5
1C1
330
D6
100
AcDbEntity
  8
Defpoints
 62
     0
100
AcDbPoint
 10
26.93301270189227
 20
-2.748925071276074
 30
0.0
  0
ENDBLK
  5
D8
330
D6
100
AcDbEntity
  8
0
100
AcDbBlockEnd
  0
BLOCK
  5
E5
330
E4
100
AcDbEntity
  8
0
100
AcDbBlockBegin
  2
_D_1
 70
     0
 10
0.0
 20
0.0
 30
0.0
  3
_D_1
  1

  0
LINE
  5
E7
330
E4
100
AcDbEntity
  8
치수문자_일반주서
 62
     0
370
    -2
100
AcDbLine
 10
-72.52948729810777
 20
3.001074928723896
 30
0.0
 11
-83.06698729810776
 21
3.001074928723854
 31
0.0
  0
LINE
  5
E8
330
E4
100
AcDbEntity
  8
치수문자_일반주서
 62
     0
370
    -2
100
AcDbLine
 10
-72.52948729810777
 20
-2.99892507127611
 30
0.0
 11
-83.06698729810775
 21
-2.998925071276149
 31
0.0
  0
LINE
  5
E9
330
E4
100
AcDbEntity
  8
치수문자_일반주서
 62
     0
370
    -2
100
AcDbLine
 10
-83.06698729810776
 20
3.001074928723854
 30
0.0
 11
-83.0669872981078
 21
15.73007492872386
 31
0.0
  0
LINE
  5
EA
330
E4
100
AcDbEntity
  8
치수문자_일반주서
 62
     0
370
    -2
100
AcDbLine
 10
-83.06698729810776
 20
3.001074928723854
 30
0.0
 11
-83.06698729810775
 21
-2.998925071276149
 31
0.0
  0
LINE
  5
EB
330
E4
100
AcDbEntity
  8
치수문자_일반주서
 62
     0
370
    -2
100
AcDbLine
 10
-83.06698729810778
 20
6.303074928723854
 30
0.0
 11
-83.06698729810779
 21
9.605074928723853
 31
0.0
  0
LINE
  5
EC
330
E4
100
AcDbEntity
  8
치수문자_일반주서
 62
     0
370
    -2
100
AcDbLine
 10
-83.06698729810773
 20
-6.300925071276149
 30
0.0
 11
-83.06698729810772
 21
-9.602925071276148
 31
0.0
  0
SOLID
  5
ED
330
E4
100
AcDbEntity
  8
치수문자_일반주서
 62
     0
100
AcDbTrace
 10
-83.6173206314411
 20
6.303074928723853
 30
0.0
 11
-82.51665396477445
 21
6.303074928723855
 31
0.0
 12
-83.06698729810776
 22
3.001074928723854
 32
0.0
 13
-83.06698729810776
 23
3.001074928723854
 33
0.0
  0
SOLID
  5
EE
330
E4
100
AcDbEntity
  8
치수문자_일반주서
 62
     0
100
AcDbTrace
 10
-82.5166539647744
 20
-6.300925071276148
 30
0.0
 11
-83.61732063144106
 21
-6.30092507127615
 31
0.0
 12
-83.06698729810775
 22
-2.998925071276149
 32
0.0
 13
-83.06698729810775
 23
-2.998925071276149
 33
0.0
  0
MTEXT
  5
EF
330
E4
100
AcDbEntity
  8
치수문자_일반주서
 62
     0
100
AcDbMText
 10
-87.44198729810779
 20
12.66757492872385
 30
0.0
 40
3.5
 41
0.0
 71
     2
 72
     1
  1
\A1;%%c6
  7
SLDTEXTSTYLE0
 11
-2.368475785866999E-15
 21
1.0
 31
0.0
 73
     1
 44
1.0
  0
POINT
  5
1B8
330
E4
100
AcDbEntity
  8
Defpoints
 62
     0
100
AcDbPoint
 10
-72.46698729810777
 20
3.001074928723896
 30
0.0
  0
POINT
  5
1B9
330
E4
100
AcDbEntity
  8
Defpoints
 62
     0
100
AcDbPoint
 10
-72.46698729810777
 20
-2.998925071276109
 30
0.0
  0
POINT
  5
1BA
330
E4
100
AcDbEntity
  8
Defpoints
 62
     0
100
AcDbPoint
 10
-83.06698729810773
 20
-2.998925071276149
 30
0.0
  0
ENDBLK
  5
E6
330
E4
100
AcDbEntity
  8
0
100
AcDbBlockEnd
  0
BLOCK
  5
F2
330
F1
100
AcDbEntity
  8
0
100
AcDbBlockBegin
  2
_D_2
 70
     0
 10
0.0
 20
0.0
 30
0.0
  3
_D_2
  1

  0
LINE
  5
F4
330
F1
100
AcDbEntity
  8
치수문자_일반주서
 62
     0
370
    -2
100
AcDbLine
 10
16.93301270189225
 20
2.813574928723889
 30
0.0
 11
16.93301270189225
 21
13.0010749287239
 31
0.0
  0
LINE
  5
F5
330
F1
100
AcDbEntity
  8
치수문자_일반주서
 62
     0
370
    -2
100
AcDbLine
 10
3.933012701892245
 20
2.813574928723893
 30
0.0
 11
3.933012701892245
 21
13.0010749287239
 31
0.0
  0
LINE
  5
F6
330
F1
100
AcDbEntity
  8
치수문자_일반주서
 62
     0
370
    -2
100
AcDbLine
 10
13.63101270189225
 20
13.0010749287239
 30
0.0
 11
7.235012701892245
 21
13.0010749287239
 31
0.0
  0
SOLID
  5
F7
330
F1
100
AcDbEntity
  8
치수문자_일반주서
 62
     0
100
AcDbTrace
 10
13.63101270189225
 20
12.45074159539056
 30
0.0
 11
13.63101270189225
 21
13.55140826205723
 31
0.0
 12
16.93301270189225
 22
13.0010749287239
 32
0.0
 13
16.93301270189225
 23
13.0010749287239
 33
0.0
  0
SOLID
  5
F8
330
F1
100
AcDbEntity
  8
치수문자_일반주서
 62
     0
100
AcDbTrace
 10
7.235012701892245
 20
13.55140826205723
 30
0.0
 11
7.235012701892245
 21
12.45074159539056
 31
0.0
 12
3.933012701892245
 22
13.0010749287239
 32
0.0
 13
3.933012701892245
 23
13.0010749287239
 33
0.0
  0
MTEXT
  5
F9
330
F1
100
AcDbEntity
  8
치수문자_일반주서
 62
     0
100
AcDbMText
 10
10.43301270189224
 20
17.3760749287239
 30
0.0
 40
3.5
 41
0.0
 71
     2
 72
     1
  1
\A1;13
  7
SLDTEXTSTYLE0
 73
     1
 44
1.0
  0
POINT
  5
FA
330
F1
100
AcDbEntity
  8
Defpoints
 62
     0
100
AcDbPoint
 10
16.93301270189225
 20
2.751074928723889
 30
0.0
  0
POINT
  5
FB
330
F1
100
AcDbEntity
  8
Defpoints
 62
     0
100
AcDbPoint
 10
3.933012701892245
 20
2.751074928723893
 30
0.0
  0
POINT
  5
1BB
330
F1
100
AcDbEntity
  8
Defpoints
 62
     0
100
AcDbPoint
 10
3.933012701892245
 20
13.0010749287239
 30
0.0
  0
ENDBLK
  5
F3
330
F1
100
AcDbEntity
  8
0
100
AcDbBlockEnd
  0
BLOCK
  5
FF
330
FE
100
AcDbEntity
  8
0
100
AcDbBlockBegin
  2
_D_3
 70
     0
 10
0.0
 20
0.0
 30
0.0
  3
_D_3
  1

  0
LINE
  5
101
330
FE
100
AcDbEntity
  8
치수문자_일반주서
 62
     0
370
    -2
100
AcDbLine
 10
16.93301270189225
 20
2.813574928723889
 30
0.0
 11
16.93301270189224
 21
23.0010749287239
 31
0.0
  0
LINE
  5
102
330
FE
100
AcDbEntity
  8
치수문자_일반주서
 62
     0
370
    -2
100
AcDbLine
 10
-73.06698729810776
 20
2.463574928723895
 30
0.0
 11
-73.06698729810776
 21
23.0010749287239
 31
0.0
  0
LINE
  5
103
330
FE
100
AcDbEntity
  8
치수문자_일반주서
 62
     0
370
    -2
100
AcDbLine
 10
13.63101270189224
 20
23.0010749287239
 30
0.0
 11
-69.76498729810777
 21
23.0010749287239
 31
0.0
  0
SOLID
  5
104
330
FE
100
AcDbEntity
  8
치수문자_일반주서
 62
     0
100
AcDbTrace
 10
13.63101270189224
 20
22.45074159539056
 30
0.0
 11
13.63101270189224
 21
23.55140826205723
 31
0.0
 12
16.93301270189224
 22
23.0010749287239
 32
0.0
 13
16.93301270189224
 23
23.0010749287239
 33
0.0
  0
SOLID
  5
105
330
FE
100
AcDbEntity
  8
치수문자_일반주서
 62
     0
100
AcDbTrace
 10
-69.76498729810777
 20
23.55140826205723
 30
0.0
 11
-69.76498729810777
 21
22.45074159539056
 31
0.0
 12
-73.06698729810776
 22
23.0010749287239
 32
0.0
 13
-73.06698729810776
 23
23.0010749287239
 33
0.0
  0
MTEXT
  5
106
330
FE
100
AcDbEntity
  8
치수문자_일반주서
 62
     0
100
AcDbMText
 10
-28.06698729810775
 20
27.3760749287239
 30
0.0
 40
3.5
 41
0.0
 71
     2
 72
     1
  1
\A1;90
  7
SLDTEXTSTYLE0
 73
     1
 44
1.0
  0
POINT
  5
1BC
330
FE
100
AcDbEntity
  8
Defpoints
 62
     0
100
AcDbPoint
 10
16.93301270189225
 20
2.751074928723889
 30
0.0
  0
POINT
  5
1BD
330
FE
100
AcDbEntity
  8
Defpoints
 62
     0
100
AcDbPoint
 10
-73.06698729810776
 20
2.401074928723895
 30
0.0
  0
POINT
  5
1BE
330
FE
100
AcDbEntity
  8
Defpoints
 62
     0
100
AcDbPoint
 10
-73.06698729810776
 20
23.0010749287239
 30
0.0
  0
ENDBLK
  5
100
330
FE
100
AcDbEntity
  8
0
100
AcDbBlockEnd
  0
BLOCK
  5
10F
330
10E
100
AcDbEntity
  8
0
100
AcDbBlockBegin
  2
SW_DOWELSYMBOL_0
 70
     0
 10
0.0
 20
0.0
 30
0.0
  3
SW_DOWELSYMBOL_0
  1

  0
CIRCLE
  5
111
330
10E
100
AcDbEntity
  8
해칭선
 62
     0
100
AcDbCircle
 10
0.0
 20
0.0
 30
0.0
 40
3.000000000000001
  0
HATCH
  5
112
330
10E
100
AcDbEntity
  8
0
  6
Continuous
 62
     0
370
     0
100
AcDbHatch
 10
0.0
 20
0.0
 30
0.0
210
0.0
220
0.0
230
1.0
  2
SOLID
 70
     1
 71
     0
 91
        1
 92
        0
 93
        3
 72
     2
 10
0.0
 20
0.0
 40
3.000000000000001
 50
0.0
 51
90.0
 73
     1
 72
     1
 10
0.0
 20
3.000000000000001
 11
0.0
 21
0.0
 72
     1
 10
0.0
 20
0.0
 11
3.000000000000003
 21
0.0
 97
        0
 75
     0
 76
     1
 98
        1
 10
0.0
 20
0.0
  0
HATCH
  5
113
330
10E
100
AcDbEntity
  8
0
  6
Continuous
 62
     0
370
     0
100
AcDbHatch
 10
0.0
 20
0.0
 30
0.0
210
0.0
220
0.0
230
1.0
  2
SOLID
 70
     1
 71
     0
 91
        1
 92
        0
 93
        3
 72
     2
 10
0.0
 20
0.0
 40
3.000000000000001
 50
180.0
 51
270.0000000000008
 73
     1
 72
     1
 10
0.0
 20
-3.000000000000001
 11
0.0
 21
0.0
 72
     1
 10
0.0
 20
0.0
 11
-3.000000000000003
 21
0.0
 97
        0
 75
     0
 76
     1
 98
        1
 10
0.0
 20
0.0
  0
ENDBLK
  5
110
330
10E
100
AcDbEntity
  8
0
100
AcDbBlockEnd
  0
BLOCK
  5
174
330
173
100
AcDbEntity
  8
0
100
AcDbBlockBegin
  2
*D8
 70
     1
 10
0.0
 20
0.0
 30
0.0
  3
*D8
  1

  0
LINE
  5
175
330
173
100
AcDbEntity
  8
치수문자_일반주서
 62
     0
370
    -2
100
AcDbLine
 10
11.77456662019984
 20
16.49151495257678
 30
0.0
 11
22.66398241076589
 21
-0.0000000000001465
 31
0.0
  0
MTEXT
  5
176
330
173
100
AcDbEntity
  8
치수문자_일반주서
 62
     0
100
AcDbMText
 10
22.5643530529196
 20
4.914785148259656
 30
0.0
 40
3.5
 41
0.0
 71
     5
 72
     1
  1
\A1;R0.1
  7
SLDTEXTSTYLE0
 11
0.5510189947672727
 21
-0.8344927006305473
 31
0.0
 73
     1
 44
1.0
  0
LINE
  5
177
330
173
100
AcDbEntity
  8
치수문자_일반주서
 62
     0
370
    -2
100
AcDbLine
 10
9.90000000000158
 20
19.3304591201219
 30
0.0
 11
9.955101899478308
 21
19.24700985005884
 31
0.0
  0
SOLID
  5
178
330
173
100
AcDbEntity
  8
치수문자_일반주서
 62
     0
100
AcDbTrace
 10
12.23381576978019
 20
16.79475907269703
 30
0.0
 11
11.3153174706195
 21
16.18827083245652
 31
0.0
 12
9.955101899478308
 22
19.24700985005884
 32
0.0
 13
9.955101899478308
 23
19.24700985005884
 33
0.0
  0
POINT
  5
179
330
173
100
AcDbEntity
  8
Defpoints
 62
     0
100
AcDbPoint
 10
9.955101899478308
 20
19.24700985005884
 30
0.0
  0
POINT
  5
17A
330
173
100
AcDbEntity
  8
Defpoints
 62
     0
100
AcDbPoint
 10
9.90000000000158
 20
19.3304591201219
 30
0.0
  0
ENDBLK
  5
17B
330
173
100
AcDbEntity
  8
0
100
AcDbBlockEnd
  0
BLOCK
  5
182
330
181
100
AcDbEntity
  8
0
100
AcDbBlockBegin
  2
*D9
 70
     1
 10
0.0
 20
0.0
 30
0.0
  3
*D9
  1

  0
LINE
  5
184
330
181
100
AcDbEntity
  8
치수문자_일반주서
 62
     0
370
    -2
100
AcDbLine
 10
10.06250000000158
 20
22.7304591201219
 30
0.0
 11
20.00000000000157
 21
22.73045912012194
 31
0.0
  0
LINE
  5
185
330
181
100
AcDbEntity
  8
치수문자_일반주서
 62
     0
370
    -2
100
AcDbLine
 10
10.06250000000158
 20
19.2304591201219
 30
0.0
 11
20.00000000000158
 21
19.23045912012194
 31
0.0
  0
LINE
  5
186
330
181
100
AcDbEntity
  8
치수문자_일반주서
 62
     0
370
    -2
100
AcDbLine
 10
20.00000000000157
 20
22.73045912012194
 30
0.0
 11
20.00000000000151
 21
40.05320912012195
 31
0.0
  0
LINE
  5
187
330
181
100
AcDbEntity
  8
치수문자_일반주서
 62
     0
370
    -2
100
AcDbLine
 10
20.00000000000157
 20
22.73045912012194
 30
0.0
 11
20.00000000000158
 21
19.23045912012194
 31
0.0
  0
LINE
  5
188
330
181
100
AcDbEntity
  8
치수문자_일반주서
 62
     0
370
    -2
100
AcDbLine
 10
20.00000000000156
 20
26.03245912012193
 30
0.0
 11
20.00000000000155
 21
29.33445912012193
 31
0.0
  0
LINE
  5
189
330
181
100
AcDbEntity
  8
치수문자_일반주서
 62
     0
370
    -2
100
AcDbLine
 10
20.00000000000159
 20
15.92845912012194
 30
0.0
 11
20.0000000000016
 21
12.62645912012194
 31
0.0
  0
SOLID
  5
18A
330
181
100
AcDbEntity
  8
치수문자_일반주서
 62
     0
100
AcDbTrace
 10
19.44966666666822
 20
26.03245912012193
 30
0.0
 11
20.55033333333489
 21
26.03245912012193
 31
0.0
 12
20.00000000000157
 22
22.73045912012194
 32
0.0
 13
20.00000000000157
 23
22.73045912012194
 33
0.0
  0
SOLID
  5
18B
330
181
100
AcDbEntity
  8
치수문자_일반주서
 62
     0
100
AcDbTrace
 10
20.55033333333492
 20
15.92845912012194
 30
0.0
 11
19.44966666666825
 21
15.92845912012193
 31
0.0
 12
20.00000000000158
 22
19.23045912012194
 32
0.0
 13
20.00000000000158
 23
19.23045912012194
 33
0.0
  0
MTEXT
  5
18C
330
181
100
AcDbEntity
  8
치수문자_일반주서
 62
     0
100
AcDbMText
 10
15.62500000000153
 20
35.24070912012193
 30
0.0
 40
3.5
 41
0.0
 71
     2
 72
     1
  1
\A1;%%c3.5
  7
SLDTEXTSTYLE0
 11
-3.045183153257575E-15
 21
1.0
 31
0.0
 73
     1
 44
1.0
  0
POINT
  5
18D
330
181
100
AcDbEntity
  8
Defpoints
 62
     0
100
AcDbPoint
 10
10.00000000000158
 20
22.7304591201219
 30
0.0
  0
POINT
  5
18E
330
181
100
AcDbEntity
  8
Defpoints
 62
     0
100
AcDbPoint
 10
10.00000000000158
 20
19.2304591201219
 30
0.0
  0
POINT
  5
18F
330
181
100
AcDbEntity
  8
Defpoints
 62
     0
100
AcDbPoint
 10
20.00000000000158
 20
19.23045912012194
 30
0.0
  0
ENDBLK
  5
183
330
181
100
AcDbEntity
  8
0
100
AcDbBlockEnd
  0
BLOCK
  5
196
330
195
100
AcDbEntity
  8
0
100
AcDbBlockBegin
  2
*D10
 70
     1
 10
0.0
 20
0.0
 30
0.0
  3
*D10
  1

  0
LINE
  5
198
330
195
100
AcDbEntity
  8
치수문자_일반주서
 62
     0
370
    -2
100
AcDbLine
 10
61.86557380951598
 20
2.480298888669609
 30
0.0
 11
71.80307380951598
 21
2.480298888669646
 31
0.0
  0
LINE
  5
199
330
195
100
AcDbEntity
  8
치수문자_일반주서
 62
     0
370
    -2
100
AcDbLine
 10
61.86557380951598
 20
-1.019701111330391
 30
0.0
 11
71.803073809516
 21
-1.019701111330356
 31
0.0
  0
LINE
  5
19A
330
195
100
AcDbEntity
  8
치수문자_일반주서
 62
     0
370
    -2
100
AcDbLine
 10
71.80307380951598
 20
2.480298888669646
 30
0.0
 11
71.80307380951591
 21
19.80304888866966
 31
0.0
  0
LINE
  5
19B
330
195
100
AcDbEntity
  8
치수문자_일반주서
 62
     0
370
    -2
100
AcDbLine
 10
71.80307380951598
 20
2.480298888669646
 30
0.0
 11
71.803073809516
 21
-1.019701111330356
 31
0.0
  0
LINE
  5
19C
330
195
100
AcDbEntity
  8
치수문자_일반주서
 62
     0
370
    -2
100
AcDbLine
 10
71.80307380951596
 20
5.782298888669645
 30
0.0
 11
71.80307380951595
 21
9.084298888669645
 31
0.0
  0
LINE
  5
19D
330
195
100
AcDbEntity
  8
치수문자_일반주서
 62
     0
370
    -2
100
AcDbLine
 10
71.80307380951601
 20
-4.321701111330356
 30
0.0
 11
71.80307380951602
 21
-7.623701111330355
 31
0.0
  0
SOLID
  5
19E
330
195
100
AcDbEntity
  8
치수문자_일반주서
 62
     0
100
AcDbTrace
 10
71.25274047618264
 20
5.782298888669643
 30
0.0
 11
72.35340714284929
 21
5.782298888669648
 31
0.0
 12
71.80307380951598
 22
2.480298888669646
 32
0.0
 13
71.80307380951598
 23
2.480298888669646
 33
0.0
  0
SOLID
  5
19F
330
195
100
AcDbEntity
  8
치수문자_일반주서
 62
     0
100
AcDbTrace
 10
72.35340714284933
 20
-4.321701111330353
 30
0.0
 11
71.25274047618268
 21
-4.321701111330358
 31
0.0
 12
71.803073809516
 22
-1.019701111330356
 32
0.0
 13
71.803073809516
 23
-1.019701111330356
 33
0.0
  0
MTEXT
  5
1A0
330
195
100
AcDbEntity
  8
치수문자_일반주서
 62
     0
100
AcDbMText
 10
67.42807380951592
 20
14.99054888866964
 30
0.0
 40
3.5
 41
0.0
 71
     2
 72
     1
  1
\A1;%%c3.5
  7
SLDTEXTSTYLE0
 11
-4.060244204343429E-15
 21
1.0
 31
0.0
 73
     1
 44
1.0
  0
POINT
  5
1A1
330
195
100
AcDbEntity
  8
Defpoints
 62
     0
100
AcDbPoint
 10
61.80307380951598
 20
2.480298888669608
 30
0.0
  0
POINT
  5
1A2
330
195
100
AcDbEntity
  8
Defpoints
 62
     0
100
AcDbPoint
 10
61.80307380951598
 20
-1.019701111330392
 30
0.0
  0
POINT
  5
1A3
330
195
100
AcDbEntity
  8
Defpoints
 62
     0
100
AcDbPoint
 10
71.80307380951598
 20
-1.019701111330354
 30
0.0
  0
ENDBLK
  5
197
330
195
100
AcDbEntity
  8
0
100
AcDbBlockEnd
  0
BLOCK
  5
1A5
330
1A4
100
AcDbEntity
  8
0
100
AcDbBlockBegin
  2
*D11
 70
     1
 10
0.0
 20
0.0
 30
0.0
  3
*D11
  1

  0
LINE
  5
1A7
330
1A4
100
AcDbEntity
  8
치수문자_일반주서
 62
     0
370
    -2
100
AcDbLine
 10
63.57764042971417
 20
-3.758645278875567
 30
0.0
 11
74.46705622027972
 21
-20.25016023145281
 31
0.0
  0
MTEXT
  5
1A8
330
1A4
100
AcDbEntity
  8
치수문자_일반주서
 62
     0
100
AcDbMText
 10
74.36742686243356
 20
-15.33537508319301
 30
0.0
 40
3.5
 41
0.0
 71
     5
 72
     1
  1
\A1;R0.1
  7
SLDTEXTSTYLE0
 11
0.551018994767248
 21
-0.8344927006305635
 31
0.0
 73
     1
 44
1.0
  0
LINE
  5
1A9
330
1A4
100
AcDbEntity
  8
치수문자_일반주서
 62
     0
370
    -2
100
AcDbLine
 10
61.70307380951598
 20
-0.9197011113303901
 30
0.0
 11
61.75817570899271
 21
-1.003150381393446
 31
0.0
  0
SOLID
  5
1AA
330
1A4
100
AcDbEntity
  8
치수문자_일반주서
 62
     0
100
AcDbTrace
 10
64.03688957929452
 20
-3.455401158755325
 30
0.0
 11
63.11839128013381
 21
-4.06188939899581
 31
0.0
 12
61.75817570899271
 22
-1.003150381393446
 32
0.0
 13
61.75817570899271
 23
-1.003150381393446
 33
0.0
  0
POINT
  5
1AB
330
1A4
100
AcDbEntity
  8
Defpoints
 62
     0
100
AcDbPoint
 10
61.75817570899271
 20
-1.003150381393446
 30
0.0
  0
POINT
  5
1AC
330
1A4
100
AcDbEntity
  8
Defpoints
 62
     0
100
AcDbPoint
 10
61.70307380951598
 20
-0.9197011113303901
 30
0.0
  0
ENDBLK
  5
1A6
330
1A4
100
AcDbEntity
  8
0
100
AcDbBlockEnd
  0
BLOCK
  5
1CD
330
1CC
100
AcDbEntity
  8
0
100
AcDbBlockBegin
  2
*D12
 70
     1
 10
0.0
 20
0.0
 30
0.0
  3
*D12
  1

  0
LINE
  5
1CF
330
1CC
100
AcDbEntity
  8
치수문자_일반주서
 62
     0
370
    -2
100
AcDbLine
 10
18.16028468891142
 20
-5.429477135279503
 30
0.0
 11
27.11166305806285
 21
-20.22157002930821
 31
0.0
  0
MTEXT
  5
1D0
330
1CC
100
AcDbEntity
  8
치수문자_일반주서
 62
     0
100
AcDbMText
 10
27.9984274007136
 20
-16.61672620459081
 30
0.0
 40
3.5
 41
0.0
 71
     5
 72
     1
  1
\A1;R1
  7
SLDTEXTSTYLE0
 11
0.5177294251555508
 21
-0.85554441283203
 31
0.0
 73
     1
 44
1.0
  0
LINE
  5
1D1
330
1CC
100
AcDbEntity
  8
치수문자_일반주서
 62
     0
370
    -2
100
AcDbLine
 10
15.93301270189225
 20
-1.748925071276111
 30
0.0
 11
16.4507421270478
 21
-2.604469484108141
 31
0.0
  0
SOLID
  5
1D2
330
1CC
100
AcDbEntity
  8
치수문자_일반주서
 62
     0
100
AcDbTrace
 10
18.63111929743998
 20
-5.144553374968899
 30
0.0
 11
17.68945008038287
 21
-5.714400895590108
 31
0.0
 12
16.4507421270478
 22
-2.604469484108141
 32
0.0
 13
16.4507421270478
 23
-2.604469484108141
 33
0.0
  0
POINT
  5
1D3
330
1CC
100
AcDbEntity
  8
Defpoints
 62
     0
100
AcDbPoint
 10
16.4507421270478
 20
-2.604469484108141
 30
0.0
  0
POINT
  5
1D4
330
1CC
100
AcDbEntity
  8
Defpoints
 62
     0
100
AcDbPoint
 10
15.93301270189225
 20
-1.748925071276111
 30
0.0
  0
ENDBLK
  5
1CE
330
1CC
100
AcDbEntity
  8
0
100
AcDbBlockEnd
  0
ENDSEC
  0
SECTION
  2
ENTITIES
  0
LINE
  5
96
330
1F
100
AcDbEntity
  8
0
  6
Continuous
 62
     1
370
    15
100
AcDbLine
 10
9.858891095017597
 20
-2.748925071276108
 30
0.0
 11
11.53650274921816
 21
-2.748925071276108
 31
0.0
1001
PE_URL
1000

  0
LINE
  5
97
330
1F
100
AcDbEntity
  8
0
  6
Continuous
 62
     1
370
    15
100
AcDbLine
 10
4.053666085215035
 20
2.751074928723894
 30
0.0
 11
3.933012701892245
 21
2.751074928723894
 31
0.0
1001
PE_URL
1000

  0
LINE
  5
98
330
1F
100
AcDbEntity
  8
0
  6
Continuous
 62
     1
370
    15
100
AcDbLine
 10
11.53650274921816
 20
2.751074928723894
 30
0.0
 11
9.858891095017633
 21
2.751074928723894
 31
0.0
1001
PE_URL
1000

  0
LINE
  5
99
330
1F
100
AcDbEntity
  8
외형선
  6
Continuous
370
    15
100
AcDbLine
 10
3.933012701892245
 20
-2.748925071276108
 30
0.0
 11
4.053666085215021
 21
-2.748925071276108
 31
0.0
  0
LINE
  5
9A
330
1F
100
AcDbEntity
  8
외형선
  6
Continuous
370
    15
100
AcDbLine
 10
-72.46698729810775
 20
-2.998925071276111
 30
0.0
 11
2.0
 21
-2.998925071276111
 31
0.0
  0
LINE
  5
9B
330
1F
100
AcDbEntity
  8
외형선
  6
Continuous
370
    15
100
AcDbLine
 10
2.0
 20
3.001074928723898
 30
0.0
 11
-72.46698729810775
 21
3.001074928723898
 31
0.0
  0
LINE
  5
9C
330
1F
100
AcDbEntity
  8
외형선
  6
Continuous
370
    15
100
AcDbLine
 10
2.0
 20
-2.998925071276116
 30
0.0
 11
2.933012701892245
 21
-2.748925071276107
 31
0.0
  0
LINE
  5
9D
330
1F
100
AcDbEntity
  8
외형선
  6
Continuous
370
    15
100
AcDbLine
 10
2.933012701892245
 20
2.751074928723893
 30
0.0
 11
2.0
 21
3.001074928723902
 31
0.0
  0
LINE
  5
9E
330
1F
100
AcDbEntity
  8
외형선
  6
Continuous
370
    15
100
AcDbLine
 10
-72.46698729810775
 20
3.001074928723893
 30
0.0
 11
-73.06698729810776
 21
2.401074928723895
 31
0.0
  0
LINE
  5
9F
330
1F
100
AcDbEntity
  8
외형선
  6
Continuous
370
    15
100
AcDbLine
 10
-73.06698729810776
 20
-2.398925071276109
 30
0.0
 11
-72.46698729810775
 21
-2.998925071276107
 31
0.0
  0
LINE
  5
A0
330
1F
100
AcDbEntity
  8
외형선
  6
Continuous
370
    15
100
AcDbLine
 10
3.933012701892245
 20
2.751074928723893
 30
0.0
 11
2.933012701892245
 21
2.751074928723893
 31
0.0
  0
LINE
  5
A1
330
1F
100
AcDbEntity
  8
외형선
  6
Continuous
370
    15
100
AcDbLine
 10
2.933012701892245
 20
-2.748925071276107
 30
0.0
 11
3.933012701892245
 21
-2.748925071276107
 31
0.0
  0
SPLINE
  5
A2
330
1F
100
AcDbEntity
  8
0
  6
Continuous
 62
     1
370
    15
100
AcDbSpline
210
0.0
220
0.0
230
1.0
 70
     8
 71
     3
 72
    15
 73
    11
 74
     0
 42
0.000000001
 43
0.00000001
 40
0.0
 40
0.0
 40
0.0
 40
0.0
 40
0.1279723203951299
 40
0.2559447700499436
 40
0.3839173716442217
 40
0.511890147849236
 40
0.6398631213264802
 40
0.765547109192891
 40
0.8912327902694211
 40
0.9999999999999999
 40
0.9999999999999999
 40
0.9999999999999999
 40
0.9999999999999999
 10
3.933012701892245
 20
0.0710763236989651
 30
0.0
 10
4.381019343952516
 20
-0.1880388024056955
 30
0.0
 10
5.277033080586477
 20
-0.7062693163367637
 30
0.0
 10
6.621054305252457
 20
-1.429125491407642
 30
0.0
 10
7.96507930853754
 20
-2.038545056841382
 30
0.0
 10
9.309099467286764
 20
-2.486402817534492
 30
0.0
 10
10.64513422592896
 20
-2.737217875832814
 30
0.0
 10
11.97306643927828
 20
-2.769750032076184
 30
0.0
 10
13.23379451848742
 20
-2.614938649510539
 30
0.0
 10
14.0545411989501
 20
-2.361808927212414
 30
0.0
 10
14.43530138502523
 20
-2.244377175786944
 30
0.0
1001
PE_URL
1000

  0
SPLINE
  5
A3
330
1F
100
AcDbEntity
  8
외형선
  6
Continuous
370
    15
100
AcDbSpline
210
0.0
220
0.0
230
1.0
 70
    24
 71
     3
 72
    13
 73
     9
 74
     0
 42
0.000000001
 43
0.00000001
 40
0.0
 40
0.0
 40
0.0
 40
0.0
 40
0.1212653129461938
 40
0.300175514281314
 40
0.4790857156165241
 40
0.6579959169517323
 40
0.8369061182869421
 40
1.0
 40
1.0
 40
1.0
 40
1.0
 10
3.93301270189226
 20
2.605734444759814
 30
0.0
 10
3.93301270189226
 20
2.499500834082812
 30
0.0
 10
3.93301270189226
 20
2.236534220265725
 30
0.0
 10
3.933012701892288
 20
1.741562266990141
 30
0.0
 10
3.93301270189226
 20
1.18052014262591
 30
0.0
 10
3.933012701892153
 20
0.6726542387648945
 30
0.0
 10
3.933012701892302
 20
0.2702038813635635
 30
0.0
 10
3.933012701892245
 20
0.1353737246019983
 30
0.0
 10
3.933012701892217
 20
0.0710763236989796
 30
0.0
  0
SPLINE
  5
A4
330
1F
100
AcDbEntity
  8
0
  6
Continuous
 62
     1
370
    15
100
AcDbSpline
210
0.0
220
0.0
230
1.0
 70
     8
 71
     3
 72
    36
 73
    32
 74
     0
 42
0.000000001
 43
0.00000001
 40
0.0
 40
0.0
 40
0.0
 40
0.0
 40
0.0624999999999992
 40
0.0624999999999992
 40
0.1249999999999983
 40
0.1249999999999983
 40
0.1874999999999975
 40
0.1874999999999975
 40
0.2499999999999967
 40
0.2499999999999967
 40
0.374999999999995
 40
0.374999999999995
 40
0.4374999999999955
 40
0.4374999999999955
 40
0.499999999999996
 40
0.499999999999996
 40
0.5624999999999964
 40
0.5624999999999964
 40
0.624999999999997
 40
0.624999999999997
 40
0.6874999999999974
 40
0.6874999999999974
 40
0.749999999999998
 40
0.749999999999998
 40
0.8124999999999984
 40
0.8124999999999984
 40
0.874999999999999
 40
0.874999999999999
 40
0.9374999999999994
 40
0.9374999999999994
 40
1.0
 40
1.0
 40
1.0
 40
1.0
 10
15.93301270189225
 20
-2.748925071276111
 30
0.0
 10
15.68255963447415
 20
-2.684601926905763
 30
0.0
 10
15.32151775038
 20
-2.534939137162087
 30
0.0
 10
14.93485566060555
 20
-2.408529382247008
 30
0.0
 10
14.68244887000595
 20
-2.334875053890514
 30
0.0
 10
14.18334249377581
 20
-2.169475196111481
 30
0.0
 10
13.93596069265459
 20
-2.077741932788146
 30
0.0
 10
13.43375086081791
 20
-1.876931057452106
 30
0.0
 10
13.18170607705862
 20
-1.768153820271435
 30
0.0
 10
12.43670024215315
 20
-1.422988041059736
 30
0.0
 10
11.93064629841335
 20
-1.163820518182156
 30
0.0
 10
11.18637613417666
 20
-0.7552711807993245
 30
0.0
 10
10.93442846513153
 20
-0.614692841060858
 30
0.0
 10
10.43210485017089
 20
-0.3298724019194813
 30
0.0
 10
10.18442609761559
 20
-0.186166287185536
 30
0.0
 10
9.685699958144788
 20
0.102243151926764
 30
0.0
 10
9.433332659142714
 20
0.247201991839518
 30
0.0
 10
8.9319275581407
 20
0.5332538646054382
 30
0.0
 10
8.685355555294464
 20
0.673891057718765
 30
0.0
 10
8.184717820338122
 20
0.949864950567343
 30
0.0
 10
7.932261009409437
 20
1.084866126027826
 30
0.0
 10
7.4324203488571
 20
1.3439106953971
 30
0.0
 10
7.185519053753872
 20
1.467921839469039
 30
0.0
 10
6.683612350325411
 20
1.704139764133109
 30
0.0
 10
6.431396538138145
 20
1.815835064740351
 30
0.0
 10
5.933759524371304
 20
2.022388889362976
 30
0.0
 10
5.685094305839002
 20
2.117747712993185
 30
0.0
 10
5.182566720528811
 20
2.290803157802054
 30
0.0
 10
4.931062526498934
 20
2.36816626424539
 30
0.0
 10
4.43597294421356
 20
2.502078038919162
 30
0.0
 10
4.184261553483971
 20
2.559352506930118
 30
0.0
 10
3.933012701892274
 20
2.605734444759811
 30
0.0
1001
PE_URL
1000

  0
LINE
  5
A6
330
1F
100
AcDbEntity
  8
0
  6
Continuous
 62
     1
370
    15
100
AcDbLine
 10
16.93301270189225
 20
-1.582516301562515
 30
0.0
 11
16.93301270189225
 21
0.1478479771920821
 31
0.0
1001
PE_URL
1000

  0
SPLINE
  5
A7
330
1F
100
AcDbEntity
  8
0
  6
Continuous
 62
     1
370
    15
100
AcDbSpline
210
0.0
220
0.0
230
1.0
 70
     8
 71
     3
 72
    14
 73
    10
 74
     0
 42
0.000000001
 43
0.00000001
 40
0.0
 40
0.0
 40
0.0
 40
0.0
 40
0.2499999999999999
 40
0.2499999999999999
 40
0.4999999999999999
 40
0.4999999999999999
 40
0.7499999999999998
 40
0.7499999999999998
 40
1.0
 40
1.0
 40
1.0
 40
1.0
 10
15.93301270189225
 20
-2.192176836380932
 30
0.0
 10
16.05825324964587
 20
-2.235746578459944
 30
0.0
 10
16.17717251154416
 20
-2.261139721352495
 30
0.0
 10
16.40543013574655
 20
-2.268818600687093
 30
0.0
 10
16.51079555743691
 20
-2.250886171271392
 30
0.0
 10
16.70127215144483
 20
-2.157054098101256
 30
0.0
 10
16.7844306238358
 20
-2.080389718186996
 30
0.0
 10
16.90184267193359
 20
-1.864879871341485
 30
0.0
 10
16.93301270189226
 20
-1.726600645402119
 30
0.0
 10
16.93301270189227
 20
-1.582516301562518
 30
0.0
1001
PE_URL
1000

  0
SPLINE
  5
A8
330
1F
100
AcDbEntity
  8
0
  6
Continuous
 62
     1
370
    15
100
AcDbSpline
210
0.0
220
0.0
230
1.0
 70
     8
 71
     3
 72
    16
 73
    12
 74
     0
 42
0.000000001
 43
0.00000001
 40
0.0
 40
0.0
 40
0.0
 40
0.0
 40
0.1029810484360383
 40
0.2161186211123119
 40
0.3292563281148583
 40
0.4423941894868407
 40
0.5555322252627771
 40
0.6666466201957109
 40
0.7777625120577369
 40
0.8888802043606905
 40
1.0
 40
1.0
 40
1.0
 40
1.0
 10
4.053666085215035
 20
2.742173174704717
 30
0.0
 10
4.461454931874052
 20
2.728263338003986
 30
0.0
 10
5.317250872810369
 20
2.699071804480936
 30
0.0
 10
6.621054304433294
 20
2.389595517279638
 30
0.0
 10
7.965079310515556
 20
1.900909087588146
 30
0.0
 10
9.309099460193906
 20
1.256722719715518
 30
0.0
 10
10.6451342521228
 20
0.5192609859065068
 30
0.0
 10
11.97306634348546
 20
-0.2548191670565227
 30
0.0
 10
13.29302835282057
 20
-1.001380738604365
 30
0.0
 10
14.61300866732768
 20
-1.683487827395127
 30
0.0
 10
15.49300858082437
 20
-2.02261276351851
 30
0.0
 10
15.93301270189225
 20
-2.192176836381026
 30
0.0
1001
PE_URL
1000

  0
SPLINE
  5
A9
330
1F
100
AcDbEntity
  8
0
  6
Continuous
 62
     1
370
    15
100
AcDbSpline
210
0.0
220
0.0
230
1.0
 70
     8
 71
     3
 72
    14
 73
    10
 74
     0
 42
0.000000001
 43
0.00000001
 40
0.0
 40
0.0
 40
0.0
 40
0.0
 40
0.149784748376369
 40
0.2995690040062141
 40
0.4493527932195982
 40
0.5991361423726278
 40
0.7489190778459907
 40
0.8960229951387164
 40
1.0
 40
1.0
 40
1.0
 40
1.0
 10
15.93301270189227
 20
0.8020674971518903
 30
0.0
 10
15.48498989386984
 20
1.043328191524298
 30
0.0
 10
14.58894575168459
 20
1.525848786594392
 30
0.0
 10
13.24488325371547
 20
2.112156331257129
 30
0.0
 10
11.90082390981432
 20
2.535562635720576
 30
0.0
 10
10.55677607505704
 20
2.758994073044763
 30
0.0
 10
9.220719657654357
 20
2.758161723054285
 30
0.0
 10
8.021760574236296
 20
2.585774521253517
 30
0.0
 10
7.270783035069748
 20
2.34037387665562
 30
0.0
 10
6.959790090760208
 20
2.238749174159638
 30
0.0
1001
PE_URL
1000

  0
SPLINE
  5
AA
330
1F
100
AcDbEntity
  8
0
  6
Continuous
 62
     1
370
    15
100
AcDbSpline
210
0.0
220
0.0
230
1.0
 70
     8
 71
     3
 72
    14
 73
    10
 74
     0
 42
0.000000001
 43
0.00000001
 40
0.0
 40
0.0
 40
0.0
 40
0.0
 40
0.25
 40
0.25
 40
0.5
 40
0.5
 40
0.75
 40
0.75
 40
1.0
 40
1.0
 40
1.0
 40
1.0
 10
16.93301270189225
 20
0.1478479771922085
 30
0.0
 10
16.93301270189229
 20
0.2018075752817464
 30
0.0
 10
16.90616524547178
 20
0.2469726668225292
 30
0.0
 10
16.80000055489154
 20
0.3372063480447184
 30
0.0
 10
16.72081565687643
 20
0.3822745602052022
 30
0.0
 10
16.52853662771624
 20
0.4840705147047403
 30
0.0
 10
16.41426859053432
 20
0.5418759958455064
 30
0.0
 10
16.17771393339704
 20
0.6671956538217373
 30
0.0
 10
16.05390418516763
 20
0.7353742939496193
 30
0.0
 10
15.93301270189227
 20
0.8020674971518907
 30
0.0
1001
PE_URL
1000

  0
SPLINE
  5
AB
330
1F
100
AcDbEntity
  8
0
  6
Continuous
 62
     1
370
    15
100
AcDbSpline
210
0.0
220
0.0
230
1.0
 70
     8
 71
     3
 72
    12
 73
     8
 74
     0
 42
0.000000001
 43
0.00000001
 40
0.0
 40
0.0
 40
0.0
 40
0.0
 40
0.1090375716313186
 40
0.3317820532340245
 40
0.5545235453807411
 40
0.7772626575409481
 40
0.9999999999999999
 40
0.9999999999999999
 40
0.9999999999999999
 40
0.9999999999999999
 10
9.858891095017597
 20
-2.721639017522111
 30
0.0
 10
9.643499865867398
 20
-2.727253184848805
 30
0.0
 10
8.988102435542316
 20
-2.744336103470178
 30
0.0
 10
7.892777597041153
 20
-2.543387543307126
 30
0.0
 10
6.572836458275482
 20
-2.148354654715808
 30
0.0
 10
5.252920263612957
 20
-1.582766109917542
 30
0.0
 10
4.37298072391566
 20
-1.114994205332206
 30
0.0
 10
3.933012701892274
 20
-0.8811091821756024
 30
0.0
1001
PE_URL
1000

  0
LINE
  5
AC
330
1F
100
AcDbEntity
  8
외형선
  6
Continuous
370
    15
100
AcDbLine
 10
3.93301270189226
 20
-0.8811091821755905
 30
0.0
 11
3.933012701892245
 21
0.0710763236989689
 31
0.0
  0
LINE
  5
AD
330
1F
100
AcDbEntity
  8
외형선
  6
Continuous
370
    15
100
AcDbLine
 10
3.93301270189226
 20
2.605734444759814
 30
0.0
 11
3.933012701892245
 21
2.751074928723894
 31
0.0
  0
SPLINE
  5
AE
330
1F
100
AcDbEntity
  8
0
  6
Continuous
 62
     1
370
    15
100
AcDbSpline
210
0.0
220
0.0
230
1.0
 70
     8
 71
     3
 72
    14
 73
    10
 74
     0
 42
0.000000001
 43
0.00000001
 40
0.0
 40
0.0
 40
0.0
 40
0.0
 40
0.25
 40
0.25
 40
0.5
 40
0.5
 40
0.75
 40
0.75
 40
1.0
 40
1.0
 40
1.0
 40
1.0
 10
15.93301270189225
 20
1.660034450490697
 30
0.0
 10
16.05825324964587
 20
1.602432434006182
 30
0.0
 10
16.17717251154419
 20
1.526511161229774
 30
0.0
 10
16.40543013574655
 20
1.350889074106366
 30
0.0
 10
16.51079555743692
 20
1.254090893225389
 30
0.0
 10
16.70127215144477
 20
1.059768388378444
 30
0.0
 10
16.78443062383579
 20
0.9640149268501345
 30
0.0
 10
16.9018426719336
 20
0.8144464762728174
 30
0.0
 10
16.93301270189229
 20
0.7642451438067671
 30
0.0
 10
16.93301270189227
 20
0.7458828337302518
 30
0.0
1001
PE_URL
1000

  0
LINE
  5
AF
330
1F
100
AcDbEntity
  8
0
  6
Continuous
 62
     1
370
    15
100
AcDbLine
 10
16.93301270189225
 20
0.1478479771920821
 30
0.0
 11
16.93301270189225
 21
0.7458828337302513
 31
0.0
1001
PE_URL
1000

  0
SPLINE
  5
B0
330
1F
100
AcDbEntity
  8
0
  6
Continuous
 62
     1
370
    15
100
AcDbSpline
210
0.0
220
0.0
230
1.0
 70
     8
 71
     3
 72
    11
 73
     7
 74
     0
 42
0.000000001
 43
0.00000001
 40
0.0
 40
0.0
 40
0.0
 40
0.0
 40
0.0992980861989136
 40
0.3995269199746488
 40
0.6997606184395915
 40
1.0
 40
1.0
 40
1.0
 40
1.0
 10
11.53650274921816
 20
2.72774861758785
 30
0.0
 10
11.68202358056484
 20
2.73422200616795
 30
0.0
 10
12.26752821379237
 20
2.76026775488485
 30
0.0
 10
13.29302733815407
 20
2.588358002526462
 30
0.0
 10
14.6130089210016
 20
2.233130020118885
 30
0.0
 10
15.49300866538289
 20
1.851067512360242
 30
0.0
 10
15.93301270189223
 20
1.660034450491704
 30
0.0
1001
PE_URL
1000

  0
SPLINE
  5
B1
330
1F
100
AcDbEntity
  8
0
  6
Continuous
 62
     1
370
    15
100
AcDbSpline
210
0.0
220
0.0
230
1.0
 70
     8
 71
     3
 72
    10
 73
     6
 74
     0
 42
0.000000001
 43
0.00000001
 40
0.0
 40
0.0
 40
0.0
 40
0.0
 40
0.4440432569361047
 40
0.8880869623824127
 40
1.0
 40
1.0
 40
1.0
 40
1.0
 10
3.93301270189226
 20
-2.74803398230556
 30
0.0
 10
4.381019322923756
 20
-2.730864398846872
 30
0.0
 10
5.277033017500166
 20
-2.696525214587192
 30
0.0
 10
6.285958823838293
 20
-2.487937581689089
 30
0.0
 10
6.84687810386658
 20
-2.278715354174179
 30
0.0
 10
6.959790090760194
 20
-2.236599316711855
 30
0.0
1001
PE_URL
1000

  0
SPLINE
  5
B2
330
1F
100
AcDbEntity
  8
외형선
  6
Continuous
370
    15
100
AcDbSpline
210
0.0
220
0.0
230
1.0
 70
    24
 71
     3
 72
    15
 73
    11
 74
     0
 42
0.000000001
 43
0.00000001
 40
0.0
 40
0.0
 40
0.0
 40
0.0
 40
0.0719115035930294
 40
0.2129531120985526
 40
0.3500197780071729
 40
0.4910613865127003
 40
0.6281280524212659
 40
0.7691696609268367
 40
0.8834508440262379
 40
1.0
 40
1.0
 40
1.0
 40
1.0
 10
3.933012701892245
 20
-0.9428165781903333
 30
0.0
 10
3.933012701892274
 20
-0.9725262249721561
 30
0.0
 10
3.933012701892331
 20
-1.060506053308705
 30
0.0
 10
3.933012701892203
 20
-1.242765086141962
 30
0.0
 10
3.93301270189226
 20
-1.481827746311915
 30
0.0
 10
3.933012701892189
 20
-1.741157913654519
 30
0.0
 10
3.933012701892302
 20
-2.015880035735477
 30
0.0
 10
3.933012701892245
 20
-2.278365354204007
 30
0.0
 10
3.933012701892189
 20
-2.525780380075984
 30
0.0
 10
3.933012701892217
 20
-2.673465764775951
 30
0.0
 10
3.933012701892231
 20
-2.748033982305563
 30
0.0
  0
LINE
  5
B3
330
1F
100
AcDbEntity
  8
0
  6
Continuous
 62
     1
370
    15
100
AcDbLine
 10
16.93301270189225
 20
0.7458828337302513
 30
0.0
 11
16.93301270189225
 21
1.744909115865221
 31
0.0
1001
PE_URL
1000

  0
SPLINE
  5
B4
330
1F
100
AcDbEntity
  8
0
  6
Continuous
 62
     1
370
    15
100
AcDbSpline
210
0.0
220
0.0
230
1.0
 70
     8
 71
     3
 72
     9
 73
     5
 74
     0
 42
0.000000001
 43
0.00000001
 40
0.0
 40
0.0
 40
0.0
 40
0.0
 40
0.8974146448647701
 40
0.9999999999999999
 40
0.9999999999999999
 40
0.9999999999999999
 40
0.9999999999999999
 10
15.93301270189225
 20
2.751074928723889
 30
0.0
 10
15.48498984966185
 20
2.66188081397957
 30
0.0
 10
14.98575256309192
 20
2.458940400896275
 30
0.0
 10
14.48651576885828
 20
2.266290129720225
 30
0.0
 10
14.43530138502523
 20
2.246527033234731
 30
0.0
1001
PE_URL
1000

  0
LINE
  5
B6
330
1F
100
AcDbEntity
  8
0
  6
Continuous
 62
     1
370
    15
100
AcDbLine
 10
16.93301270189225
 20
-1.742759258417435
 30
0.0
 11
16.93301270189225
 21
-1.582516301562515
 31
0.0
1001
PE_URL
1000

  0
LINE
  5
B7
330
1F
100
AcDbEntity
  8
외형선
  6
Continuous
370
    15
100
AcDbLine
 10
3.933012701892245
 20
-2.748925071276108
 30
0.0
 11
3.933012701892231
 21
-2.748033982305563
 31
0.0
  0
LINE
  5
B8
330
1F
100
AcDbEntity
  8
외형선
  6
Continuous
370
    15
100
AcDbLine
 10
2.0
 20
0.0010749287238931
 30
0.0
 11
2.0
 21
3.001074928723898
 31
0.0
  0
LINE
  5
B9
330
1F
100
AcDbEntity
  8
외형선
  6
Continuous
370
    15
100
AcDbLine
 10
2.0
 20
-2.998925071276111
 30
0.0
 11
2.0
 21
0.0010749287238931
 31
0.0
  0
LINE
  5
BA
330
1F
100
AcDbEntity
  8
외형선
  6
Continuous
370
    15
100
AcDbLine
 10
-72.46698729810775
 20
0.0010749287238931
 30
0.0
 11
-72.46698729810775
 21
3.001074928723898
 31
0.0
  0
LINE
  5
BB
330
1F
100
AcDbEntity
  8
외형선
  6
Continuous
370
    15
100
AcDbLine
 10
-72.46698729810775
 20
-2.998925071276111
 30
0.0
 11
-72.46698729810775
 21
0.0010749287238931
 31
0.0
  0
LINE
  5
BC
330
1F
100
AcDbEntity
  8
외형선
  6
Continuous
370
    15
100
AcDbLine
 10
2.933012701892245
 20
2.732455012072359
 30
0.0
 11
2.933012701892245
 21
2.751074928723893
 31
0.0
  0
SPLINE
  5
BD
330
1F
100
AcDbEntity
  8
외형선
  6
Continuous
370
    15
100
AcDbSpline
210
0.0
220
0.0
230
1.0
 70
    24
 71
     3
 72
    10
 73
     6
 74
     0
 42
0.000000001
 43
0.00000001
 40
0.0
 40
0.0
 40
0.0
 40
0.0
 40
0.5
 40
0.5
 40
1.0
 40
1.0
 40
1.0
 40
1.0
 10
2.933012701892245
 20
0.6429733193618782
 30
0.0
 10
2.933012701892231
 20
1.186145991133538
 30
0.0
 10
2.93301270189226
 20
1.687179685693321
 30
0.0
 10
2.933012701892245
 20
2.428724408323309
 30
0.0
 10
2.93301270189226
 20
2.667561011287429
 30
0.0
 10
2.933012701892245
 20
2.732455012072359
 30
0.0
  0
LINE
  5
BE
330
1F
100
AcDbEntity
  8
외형선
  6
Continuous
370
    15
100
AcDbLine
 10
2.933012701892245
 20
-0.3183978248675825
 30
0.0
 11
2.933012701892245
 21
0.6429733193618782
 31
0.0
  0
SPLINE
  5
BF
330
1F
100
AcDbEntity
  8
외형선
  6
Continuous
370
    15
100
AcDbSpline
210
0.0
220
0.0
230
1.0
 70
    24
 71
     3
 72
    10
 73
     6
 74
     0
 42
0.000000001
 43
0.00000001
 40
0.0
 40
0.0
 40
0.0
 40
0.0
 40
0.5000000000000002
 40
0.5000000000000002
 40
1.0
 40
1.0
 40
1.0
 40
1.0
 10
2.933012701892245
 20
-2.672960683622426
 30
0.0
 10
2.93301270189226
 20
-2.542572867454625
 30
0.0
 10
2.933012701892245
 20
-2.242045282608887
 30
0.0
 10
2.933012701892245
 20
-1.406424818404053
 30
0.0
 10
2.933012701892245
 20
-0.8732187893477442
 30
0.0
 10
2.933012701892245
 20
-0.3183978248675828
 30
0.0
  0
LINE
  5
C0
330
1F
100
AcDbEntity
  8
외형선
  6
Continuous
370
    15
100
AcDbLine
 10
2.933012701892245
 20
-2.748925071276107
 30
0.0
 11
2.933012701892245
 21
-2.672960683622425
 31
0.0
  0
LINE
  5
C1
330
1F
100
AcDbEntity
  8
외형선
  6
Continuous
370
    15
100
AcDbLine
 10
-73.06698729810776
 20
0.0010749287238931
 30
0.0
 11
-73.06698729810776
 21
2.401074928723895
 31
0.0
  0
LINE
  5
C2
330
1F
100
AcDbEntity
  8
외형선
  6
Continuous
370
    15
100
AcDbLine
 10
-73.06698729810776
 20
-2.398925071276109
 30
0.0
 11
-73.06698729810776
 21
0.0010749287238931
 31
0.0
  0
SPLINE
  5
C3
330
1F
100
AcDbEntity
  8
외형선
  6
Continuous
370
    15
100
AcDbSpline
210
0.0
220
0.0
230
1.0
 70
     8
 71
     3
 72
     8
 73
     4
 74
     0
 42
0.000000001
 43
0.00000001
 40
0.0
 40
0.0
 40
0.0
 40
0.0
 40
1.0
 40
1.0
 40
1.0
 40
1.0
 10
3.93301270189226
 20
-0.8811091821756033
 30
0.0
 10
3.597563451323154
 20
-0.6982724887565416
 30
0.0
 10
3.26779991089473
 20
-0.5099729262764369
 30
0.0
 10
2.933173611581971
 20
-0.3183978248675823
 30
0.0
  0
SPLINE
  5
C4
330
1F
100
AcDbEntity
  8
외형선
  6
Continuous
370
    15
100
AcDbSpline
210
0.0
220
0.0
230
1.0
 70
     8
 71
     3
 72
     8
 73
     4
 74
     0
 42
0.000000001
 43
0.00000001
 40
0.0
 40
0.0
 40
0.0
 40
0.0
 40
1.0
 40
1.0
 40
1.0
 40
1.0
 10
3.933012701892245
 20
0.0710763236989651
 30
0.0
 10
3.597563451323154
 20
0.2640527876271428
 30
0.0
 10
3.26779991089473
 20
0.4554202773194442
 30
0.0
 10
2.933173611581985
 20
0.6429733193618783
 30
0.0
  0
SPLINE
  5
C5
330
1F
100
AcDbEntity
  8
외형선
  6
Continuous
370
    15
100
AcDbSpline
210
0.0
220
0.0
230
1.0
 70
     8
 71
     3
 72
     8
 73
     4
 74
     0
 42
0.000000001
 43
0.00000001
 40
0.0
 40
0.0
 40
0.0
 40
0.0
 40
1.0
 40
1.0
 40
1.0
 40
1.0
 10
3.93301270189226
 20
2.605734444759809
 30
0.0
 10
3.597563451323154
 20
2.667660245360871
 30
0.0
 10
3.26779991089473
 20
2.710047649018139
 30
0.0
 10
2.933173611581971
 20
2.732455012072359
 30
0.0
  0
SPLINE
  5
C6
330
1F
100
AcDbEntity
  8
외형선
  6
Continuous
370
    15
100
AcDbSpline
210
0.0
220
0.0
230
1.0
 70
    24
 71
     3
 72
    14
 73
    10
 74
     0
 42
0.000000001
 43
0.00000001
 40
0.0
 40
0.0
 40
0.0
 40
0.0
 40
0.0240810879077137
 40
0.2022961797870267
 40
0.380511271666327
 40
0.5587263635456252
 40
0.7369414554249062
 40
0.9151565473042257
 40
1.0
 40
1.0
 40
1.0
 40
1.0
 10
3.933012701892245
 20
0.0710763236989694
 30
0.0
 10
3.933012701892245
 20
0.0752712505836334
 30
0.0
 10
3.933012701892302
 20
0.1105112566209686
 30
0.0
 10
3.933012701892203
 20
0.3488890419065652
 30
0.0
 10
3.933012701892231
 20
0.7630976084113492
 30
0.0
 10
3.933012701892359
 20
1.29319122572222
 30
0.0
 10
3.933012701892174
 20
1.855158314427249
 30
0.0
 10
3.933012701892359
 20
2.304285161027849
 30
0.0
 10
3.933012701892217
 20
2.532219494443009
 30
0.0
 10
3.933012701892203
 20
2.605734444759825
 30
0.0
  0
SPLINE
  5
C7
330
1F
100
AcDbEntity
  8
외형선
  6
Continuous
370
    15
100
AcDbSpline
210
0.0
220
0.0
230
1.0
 70
     8
 71
     3
 72
     8
 73
     4
 74
     0
 42
0.000000001
 43
0.00000001
 40
0.0
 40
0.0
 40
0.0
 40
0.0
 40
1.0
 40
1.0
 40
1.0
 40
1.0
 10
3.933012701892245
 20
-2.74803398230556
 30
0.0
 10
3.597563451323154
 20
-2.74312016400679
 30
0.0
 10
3.26779991089473
 20
-2.717982520762682
 30
0.0
 10
2.933173611581985
 20
-2.672960683622426
 30
0.0
  0
SPLINE
  5
C8
330
1F
100
AcDbEntity
  8
외형선
  6
Continuous
370
    15
100
AcDbSpline
210
0.0
220
0.0
230
1.0
 70
    24
 71
     3
 72
    11
 73
     7
 74
     0
 42
0.000000001
 43
0.00000001
 40
0.0
 40
0.0
 40
0.0
 40
0.0
 40
0.2839187399836348
 40
0.55927086669566
 40
0.8346229934077333
 40
1.0
 40
1.0
 40
1.0
 40
1.0
 10
3.933012701892245
 20
-2.74803398230556
 30
0.0
 10
3.933012701892217
 20
-2.560362957303336
 30
0.0
 10
3.933012701892153
 20
-2.19068346093509
 30
0.0
 10
3.933012701892274
 20
-1.631499564061088
 30
0.0
 10
3.933012701892231
 20
-1.19236720418266
 30
0.0
 10
3.933012701892231
 20
-1.010899584634623
 30
0.0
 10
3.933012701892245
 20
-0.9428065781903331
 30
0.0
  0
LINE
  5
C9
330
1F
100
AcDbEntity
  8
중심선
100
AcDbLine
 10
-76.06698729810776
 20
0.0010749287238931
 30
0.0
 11
19.93301270189225
 21
0.0010749287238892
 31
0.0
  0
LINE
  5
CA
330
1F
100
AcDbEntity
  8
참조1
100
AcDbLine
 10
-48.06750066566399
 20
-2.498925071276081
 30
0.0
 11
-48.06750066566398
 21
-39.9989250712761
 31
0.0
  0
LINE
  5
CB
330
1F
100
AcDbEntity
  8
참조1
100
AcDbLine
 10
-48.06750066566398
 20
-39.9989250712761
 30
0.0
 11
-63.22584411241643
 21
-39.9989250712761
 31
0.0
  0
CIRCLE
  5
CC
330
1F
100
AcDbEntity
  8
해칭선
100
AcDbCircle
 10
0.0
 20
0.0
 30
0.0
 40
2.999999999999997
  0
INSERT
  5
CD
330
1F
100
AcDbEntity
  8
0
  6
Continuous
 62
     7
100
AcDbBlockReference
 66
     1
  2
블럭10
 10
-42.00220794156728
 20
-52.04609937292004
 30
0.0
  0
ATTRIB
  5
CE
330
CD
100
AcDbEntity
  8
FORMAT
 62
     2
100
AcDbText
 10
-58.12146898100282
 20
-49.97073246008785
 30
0.0
 40
4.233333333333333
  1
SEME0105510E [ 4 FLUTE ]
 41
0.75
  7
SLDTEXTSTYLE0
 11
-58.12146898100282
 21
-52.08739912675451
 31
0.0
100
AcDbAttribute
  2
AUTOATTR0
 70
     0
 74
     1
  0
SEQEND
  5
CF
330
CD
100
AcDbEntity
  8
0
  6
Continuous
 62
     7
  0
HATCH
  5
D0
330
1F
100
AcDbEntity
  8
중심선
100
AcDbHatch
 10
0.0
 20
0.0
 30
0.0
210
0.0
220
0.0
230
1.0
  2
SOLID
 70
     1
 71
     0
 91
        1
 92
        0
 93
        4
 72
     1
 10
-36.28729863718642
 20
-35.7989250712761
 11
-39.7335738810237
 21
-35.7989250712761
 72
     1
 10
-39.7335738810237
 20
-35.7989250712761
 11
-41.86180374022773
 21
-38.3352506518487
 72
     1
 10
-41.86180374022773
 20
-38.3352506518487
 11
-38.4154954112773
 21
-38.33521122254621
 72
     1
 10
-38.4154954112773
 20
-38.33521122254621
 11
-36.28729863718642
 21
-35.7989250712761
 97
        0
 75
     0
 76
     1
 98
        1
 10
-12.28629277248226
 20
0.0010749287238931
  0
HATCH
  5
D1
330
1F
100
AcDbEntity
  8
중심선
100
AcDbHatch
 10
0.0
 20
0.0
 30
0.0
210
0.0
220
0.0
230
1.0
  2
SOLID
 70
     1
 71
     0
 91
        1
 92
        0
 93
        4
 72
     1
 10
-31.27453464615047
 20
-35.7989250712761
 11
-34.72080988998776
 21
-35.7989250712761
 72
     1
 10
-34.72080988998776
 20
-35.7989250712761
 11
-39.25194789834514
 21
-41.19892507127612
 72
     1
 10
-39.25194789834514
 20
-41.19892507127612
 11
-35.80567265450786
 21
-41.19892507127612
 72
     1
 10
-35.80567265450786
 20
-41.19892507127612
 11
-31.27453464615047
 21
-35.7989250712761
 97
        0
 75
     0
 76
     1
 98
        1
 10
-12.28629277248226
 20
0.0010749287238931
  0
HATCH
  5
D2
330
1F
100
AcDbEntity
  8
중심선
100
AcDbHatch
 10
0.0
 20
0.0
 30
0.0
210
0.0
220
0.0
230
1.0
  2
SOLID
 70
     1
 71
     0
 91
        1
 92
        0
 93
        4
 72
     1
 10
-26.26177065511457
 20
-35.79892507127613
 11
-29.70804589895169
 21
-35.7989250712761
 72
     1
 10
-29.7080458989517
 20
-35.7989250712761
 11
-36.75648280084094
 21
-44.19892507127612
 72
     1
 10
-36.75648280084094
 20
-44.19892507127612
 11
-33.31020755700366
 21
-44.19892507127612
 72
     1
 10
-33.31020755700366
 20
-44.19892507127612
 11
-26.26177065511458
 21
-35.79892507127613
 97
        0
 75
     0
 76
     1
 98
        1
 10
-12.28629277248226
 20
0.0010749287238931
  0
HATCH
  5
D3
330
1F
100
AcDbEntity
  8
중심선
100
AcDbHatch
 10
0.0
 20
0.0
 30
0.0
210
0.0
220
0.0
230
1.0
  2
SOLID
 70
     1
 71
     0
 91
        1
 92
        0
 93
        6
 72
     3
 10
-21.46188022410238
 20
-39.99892507132738
 11
3.960054785062283
 21
1.540882976769353E-10
 40
0.3939339440162628
 50
17.09539180608439
 51
320.0019657685082
 73
     0
 72
     1
 10
-19.77888056840178
 20
-38.58681907591441
 11
-17.47357869470074
 21
-36.65249236586649
 72
     3
 10
-21.46188022415522
 20
-39.99892507127625
 11
6.600054785286829
 21
-1.278976924368180E-13
 40
0.636358354079598
 50
39.99873849337413
 51
368.4976242363725
 73
     1
 72
     1
 10
-15.03654773225462
 20
-39.03892507120612
 11
-22.78181291731931
 21
-39.03892507120609
 72
     1
 10
-22.7818129173193
 20
-39.03892507120609
 11
-22.78183796176523
 21
-40.95892507120602
 72
     1
 10
-22.78183796176523
 20
-40.95892507120602
 11
-18.3404581922932
 21
-40.95892507120599
 97
        0
 75
     0
 76
     1
 98
        1
 10
-12.28629277248226
 20
0.0010749287238931
  0
DIMENSION
  5
D4
330
1F
100
AcDbEntity
  8
치수문자_일반주서
100
AcDbDimension
  2
_D
 10
26.93301270189226
 20
-2.748925071276075
 30
0.0
 11
26.9330127018922
 21
15.26132492872396
 31
0.0
 70
   160
  1
%%c<>
 71
     2
 42
5.5
 52
-270.0
  3
SLDDIMSTYLE0
100
AcDbAlignedDimension
 13
16.93301270189225
 23
2.751074928723889
 33
0.0
 14
16.93301270189225
 24
-2.748925071276111
 34
0.0
 50
90.0000000000002
100
AcDbRotatedDimension
1001
PE_URL
1000

1001
ACAD
1000
DSTYLE
1002
{
1070
   271
1070
     1
1002
}
  0
DIMENSION
  5
E2
330
1F
100
AcDbEntity
  8
치수문자_일반주서
100
AcDbDimension
  2
_D_1
 10
-83.06698729810775
 20
-2.998925071276149
 30
0.0
 11
-83.06698729810779
 21
12.66757492872386
 31
0.0
 70
   160
  1
%%c<>
 71
     2
 42
6.000000000000005
 52
-270.0
  3
SLDDIMSTYLE1
100
AcDbAlignedDimension
 13
-72.46698729810777
 23
3.001074928723896
 33
0.0
 14
-72.46698729810777
 24
-2.998925071276109
 34
0.0
 50
90.0000000000002
100
AcDbRotatedDimension
  0
DIMENSION
  5
F0
330
1F
100
AcDbEntity
  8
치수문자_일반주서
100
AcDbDimension
  2
_D_2
 10
3.933012701892245
 20
13.0010749287239
 30
0.0
 11
10.43301270189224
 21
13.0010749287239
 31
0.0
 70
   160
  1
<>
 71
     2
 42
13.0
  3
SLDDIMSTYLE1
100
AcDbAlignedDimension
 13
16.93301270189225
 23
2.751074928723889
 33
0.0
 14
3.933012701892245
 24
2.751074928723893
 34
0.0
100
AcDbRotatedDimension
  0
DIMENSION
  5
FC
330
1F
100
AcDbEntity
  8
치수문자_일반주서
100
AcDbDimension
  2
_D_3
 10
-73.06698729810776
 20
23.0010749287239
 30
0.0
 11
-28.06698729810775
 21
23.0010749287239
 31
0.0
 70
   160
  1
<>
 71
     2
 42
90.0
  3
SLDDIMSTYLE2
100
AcDbAlignedDimension
 13
16.93301270189225
 23
2.751074928723889
 33
0.0
 14
-73.06698729810776
 24
2.401074928723895
 34
0.0
 50
0.0000000000000045
100
AcDbRotatedDimension
  0
LINE
  5
107
330
1F
100
AcDbEntity
  8
참조1
100
AcDbLine
 10
34.74649651723784
 20
7.441074928723896
 30
0.0
 11
34.74649651723784
 21
-7.438925071276109
 31
0.0
  0
LINE
  5
108
330
1F
100
AcDbEntity
  8
참조1
100
AcDbLine
 10
47.44649651723784
 20
5.441074928723896
 30
0.0
 11
34.74649651723784
 21
5.441074928723896
 31
0.0
  0
SOLID
  5
109
330
1F
100
AcDbEntity
  8
참조1
100
AcDbTrace
 10
34.74649651723784
 20
5.441074928723896
 30
0.0
 11
41.09649651723783
 21
4.425074928723896
 31
0.0
 12
41.09649651723783
 22
6.457074928723896
 32
0.0
 13
41.09649651723783
 23
6.457074928723896
 33
0.0
  0
LINE
  5
10A
330
1F
100
AcDbEntity
  8
참조1
100
AcDbLine
 10
47.44649651723784
 20
-5.438925071276109
 30
0.0
 11
34.74649651723784
 21
-5.438925071276109
 31
0.0
  0
SOLID
  5
10B
330
1F
100
AcDbEntity
  8
참조1
100
AcDbTrace
 10
34.74649651723784
 20
-5.438925071276109
 30
0.0
 11
41.09649651723783
 21
-6.454925071276109
 31
0.0
 12
41.09649651723783
 22
-4.422925071276109
 32
0.0
 13
41.09649651723783
 23
-4.422925071276109
 33
0.0
  0
MTEXT
  5
10C
330
1F
100
AcDbEntity
  8
참조1
100
AcDbMText
 10
44.14398660970812
 20
10.98929157337383
 30
0.0
 40
3.5
 41
0.0
 71
     1
 72
     1
  1
A
  7
SLDTEXTSTYLE0
 73
     1
 44
1.0
  0
MTEXT
  5
10D
330
1F
100
AcDbEntity
  8
참조1
100
AcDbMText
 10
44.14398660970812
 20
0.1092915733738259
 30
0.0
 40
3.5
 41
0.0
 71
     1
 72
     1
  1
A
  7
SLDTEXTSTYLE0
 73
     1
 44
1.0
  0
INSERT
  5
114
330
1F
100
AcDbEntity
  8
해칭선
100
AcDbBlockReference
  2
SW_DOWELSYMBOL_0
 10
0.0
 20
0.0
 30
0.0
  0
ARC
  5
1C7
330
1F
100
AcDbEntity
  8
0
  6
Continuous
 62
     1
370
    15
100
AcDbCircle
 10
15.93301270189225
 20
1.751074928723888
 30
0.0
 40
1.0
100
AcDbArc
 50
359.9999999999999
 51
90.0
1001
PE_URL
1000

  0
ARC
  5
1C8
102
{ACAD_REACTORS
102
}
330
1F
100
AcDbEntity
  8
0
  6
Continuous
 62
     1
370
    15
100
AcDbCircle
 10
15.93301270189225
 20
-1.748925071276111
 30
0.0
 40
1.0
100
AcDbArc
 50
270.0
 51
0.0000000000000763
1001
PE_URL
1000

  0
DIMENSION
  5
1C9
102
{ACAD_REACTORS
102
}
102
{ACAD_XDICTIONARY
360
1CA
102
}
330
1F
100
AcDbEntity
  8
치수문자_일반주서
100
AcDbDimension
  2
*D12
 10
15.93301270189225
 20
-1.748925071276111
 30
0.0
 11
25.75262331702952
 21
-17.97576594562413
 31
0.0
 70
   164
 71
     5
 42
1.0
  3
SLDDIMSTYLE1
100
AcDbRadialDimension
 15
16.4507421270478
 25
-2.604469484108141
 35
0.0
 40
0.0
1001
ACAD
1000
DSTYLE
1002
{
1070
    78
1070
     8
1002
}
1001
ACAD_DSTYLE_DIMRADIAL_EXTENSION
1070
   387
1070
     1
1070
   388
1040
4.71238898038469
1070
   390
1040
0.0000000000000013
1001
PE_URL
1000

  0
ENDSEC
  0
SECTION
  2
OBJECTS
  0
DICTIONARY
  5
C
330
0
100
AcDbDictionary
281
     1
  3
ACAD_DETAILVIEWSTYLE
350
1B2
  3
ACAD_GROUP
350
D
  3
ACAD_LAYOUT
350
1A
  3
ACAD_MLINESTYLE
350
17
  3
ACAD_PLOTSETTINGS
350
19
  3
ACAD_PLOTSTYLENAME
350
E
  3
ACAD_SCALELIST
350
47
  3
ACAD_SECTIONVIEWSTYLE
350
1B3
  3
AcDbVariableDictionary
350
1AD
  3
APPDATA
350
136
  3
DWGPROPS
350
1D7
  0
DICTIONARY
  5
17D
330
2
100
AcDbDictionary
280
     1
281
     1
  3
ACAD_LAYERSTATES
360
17E
  0
DICTIONARY
  5
1CA
330
1C9
100
AcDbDictionary
280
     1
281
     1
  0
DICTIONARY
  5
1B2
102
{ACAD_REACTORS
330
C
102
}
330
C
100
AcDbDictionary
281
     1
  0
DICTIONARY
  5
D
102
{ACAD_REACTORS
330
C
102
}
330
C
100
AcDbDictionary
281
     1
  0
DICTIONARY
  5
1A
102
{ACAD_REACTORS
330
C
102
}
330
C
100
AcDbDictionary
281
     1
  3
Layout1
350
1E
  3
Layout2
350
26
  3
Model
350
22
  0
DICTIONARY
  5
17
102
{ACAD_REACTORS
330
C
102
}
330
C
100
AcDbDictionary
281
     1
  3
Standard
350
18
  0
DICTIONARY
  5
19
102
{ACAD_REACTORS
330
C
102
}
330
C
100
AcDbDictionary
281
     1
  0
ACDBDICTIONARYWDFLT
  5
E
102
{ACAD_REACTORS
330
C
102
}
330
C
100
AcDbDictionary
281
     1
  3
Normal
350
F
100
AcDbDictionaryWithDefault
340
F
  0
DICTIONARY
  5
47
102
{ACAD_REACTORS
330
C
102
}
330
C
100
AcDbDictionary
281
     1
  3
A0
350
48
  3
A1
350
49
  3
A2
350
4A
  3
A3
350
4B
  3
A4
350
4C
  3
A5
350
4D
  3
A6
350
4E
  3
A7
350
4F
  3
A8
350
50
  3
A9
350
51
  3
B0
350
52
  3
B1
350
53
  3
B2
350
54
  3
B3
350
55
  3
B4
350
56
  3
B5
350
57
  3
B6
350
58
  3
B7
350
59
  3
B8
350
5A
  3
B9
350
5B
  3
C0
350
5C
  3
C1
350
5D
  3
C2
350
5E
  3
C3
350
5F
  3
C4
350
60
  3
C5
350
61
  3
C6
350
62
  3
C7
350
63
  3
C8
350
64
  3
C9
350
65
  3
D0
350
66
  3
D1
350
67
  3
D2
350
68
  0
DICTIONARY
  5
1B3
102
{ACAD_REACTORS
330
C
102
}
330
C
100
AcDbDictionary
281
     1
  0
DICTIONARY
  5
1AD
102
{ACAD_REACTORS
330
C
102
}
330
C
100
AcDbDictionary
281
     1
  0
DICTIONARY
  5
136
102
{ACAD_REACTORS
330
C
102
}
330
C
100
AcDbDictionary
281
     1
  0
XRECORD
  5
1D7
102
{ACAD_REACTORS
330
C
102
}
330
C
100
AcDbXrecord
280
     1
  1
DWGPROPS COOKIE
  2

  3

  4

  6

  7

  8
12017044
  9

300
=
301
=
302
=
303
=
304
=
305
=
306
=
307
=
308
=
309
=
 40
0.0
 41
2458269.43426544
 42
2458270.409026539
  1

 90
        0
  0
DICTIONARY
  5
17E
102
{ACAD_REACTORS
330
17D
102
}
330
17D
100
AcDbDictionary
281
     1
  0
LAYOUT
  5
1E
102
{ACAD_REACTORS
330
1A
102
}
330
1A
100
AcDbPlotSettings
  1

  2
none_device
  4

  6

 40
0.0
 41
0.0
 42
0.0
 43
0.0
 44
0.0
 45
0.0
 46
0.0
 47
0.0
 48
0.0
 49
0.0
140
0.0
141
0.0
142
1.0
143
1.0
 70
   688
 72
     1
 73
     0
 74
     5
  7

 75
    16
147
1.0
148
0.0
149
0.0
100
AcDbLayout
  1
Layout1
 70
     1
 71
     1
 10
0.0
 20
0.0
 11
420.0
 21
297.0
 12
0.0
 22
0.0
 32
0.0
 14
1.000000000000000E+20
 24
1.000000000000000E+20
 34
1.000000000000000E+20
 15
-1.000000000000000E+20
 25
-1.000000000000000E+20
 35
-1.000000000000000E+20
146
0.0
 13
0.0
 23
0.0
 33
0.0
 16
1.0
 26
0.0
 36
0.0
 17
0.0
 27
1.0
 37
0.0
 76
     0
330
1B
  0
LAYOUT
  5
26
102
{ACAD_REACTORS
330
1A
102
}
330
1A
100
AcDbPlotSettings
  1

  2
none_device
  4

  6

 40
0.0
 41
0.0
 42
0.0
 43
0.0
 44
0.0
 45
0.0
 46
0.0
 47
0.0
 48
0.0
 49
0.0
140
0.0
141
0.0
142
1.0
143
1.0
 70
   688
 72
     1
 73
     0
 74
     5
  7

 75
    16
147
1.0
148
0.0
149
0.0
100
AcDbLayout
  1
Layout2
 70
     1
 71
     2
 10
0.0
 20
0.0
 11
0.0
 21
0.0
 12
0.0
 22
0.0
 32
0.0
 14
0.0
 24
0.0
 34
0.0
 15
0.0
 25
0.0
 35
0.0
146
0.0
 13
0.0
 23
0.0
 33
0.0
 16
1.0
 26
0.0
 36
0.0
 17
0.0
 27
1.0
 37
0.0
 76
     0
330
23
  0
LAYOUT
  5
22
102
{ACAD_REACTORS
330
1A
102
}
330
1A
100
AcDbPlotSettings
  1

  2
none_device
  4
ANSI_A_(11.00_x_8.50_Inches)
  6

 40
6.35
 41
19.05
 42
6.35000508
 43
19.05000254
 44
279.4
 45
215.9
 46
111.6855150645388
 47
108.5509557967604
 48
0.0
 49
0.0
140
0.0
141
0.0
142
0.0789824718862547
143
1.0
 70
  1696
 72
     0
 73
     0
 74
     0
  7

 75
     0
147
0.0235690232323232
148
0.0
149
0.0
100
AcDbLayout
  1
Model
 70
     1
 71
     0
 10
0.0
 20
0.0
 11
420.0
 21
297.0
 12
0.0
 22
0.0
 32
0.0
 14
-87.4419872981078
 24
-49.97073246008785
 34
0.0
 15
47.44649651723783
 25
27.3760749287239
 35
0.0
146
0.0
 13
0.0
 23
0.0
 33
0.0
 16
1.0
 26
0.0
 36
0.0
 17
0.0
 27
1.0
 37
0.0
 76
     0
330
1F
331
29
  0
MLINESTYLE
  5
18
102
{ACAD_REACTORS
330
17
102
}
330
17
100
AcDbMlineStyle
  2
Standard
 70
     0
  3

 62
   256
 51
90.0
 52
90.0
 71
     2
 49
0.5
 62
   256
  6
BYLAYER
 49
-0.5
 62
   256
  6
BYLAYER
  0
ACDBPLACEHOLDER
  5
F
102
{ACAD_REACTORS
330
E
102
}
330
E
  0
SCALE
  5
48
102
{ACAD_REACTORS
330
47
102
}
330
47
100
AcDbScale
 70
     0
300
1:1
140
1.0
141
1.0
290
     1
  0
SCALE
  5
49
102
{ACAD_REACTORS
330
47
102
}
330
47
100
AcDbScale
 70
     0
300
1:2
140
1.0
141
2.0
290
     0
  0
SCALE
  5
4A
102
{ACAD_REACTORS
330
47
102
}
330
47
100
AcDbScale
 70
     0
300
1:4
140
1.0
141
4.0
290
     0
  0
SCALE
  5
4B
102
{ACAD_REACTORS
330
47
102
}
330
47
100
AcDbScale
 70
     0
300
1:5
140
1.0
141
5.0
290
     0
  0
SCALE
  5
4C
102
{ACAD_REACTORS
330
47
102
}
330
47
100
AcDbScale
 70
     0
300
1:8
140
1.0
141
8.0
290
     0
  0
SCALE
  5
4D
102
{ACAD_REACTORS
330
47
102
}
330
47
100
AcDbScale
 70
     0
300
1:10
140
1.0
141
10.0
290
     0
  0
SCALE
  5
4E
102
{ACAD_REACTORS
330
47
102
}
330
47
100
AcDbScale
 70
     0
300
1:16
140
1.0
141
16.0
290
     0
  0
SCALE
  5
4F
102
{ACAD_REACTORS
330
47
102
}
330
47
100
AcDbScale
 70
     0
300
1:20
140
1.0
141
20.0
290
     0
  0
SCALE
  5
50
102
{ACAD_REACTORS
330
47
102
}
330
47
100
AcDbScale
 70
     0
300
1:30
140
1.0
141
30.0
290
     0
  0
SCALE
  5
51
102
{ACAD_REACTORS
330
47
102
}
330
47
100
AcDbScale
 70
     0
300
1:40
140
1.0
141
40.0
290
     0
  0
SCALE
  5
52
102
{ACAD_REACTORS
330
47
102
}
330
47
100
AcDbScale
 70
     0
300
1:50
140
1.0
141
50.0
290
     0
  0
SCALE
  5
53
102
{ACAD_REACTORS
330
47
102
}
330
47
100
AcDbScale
 70
     0
300
1:100
140
1.0
141
100.0
290
     0
  0
SCALE
  5
54
102
{ACAD_REACTORS
330
47
102
}
330
47
100
AcDbScale
 70
     0
300
2:1
140
2.0
141
1.0
290
     0
  0
SCALE
  5
55
102
{ACAD_REACTORS
330
47
102
}
330
47
100
AcDbScale
 70
     0
300
4:1
140
4.0
141
1.0
290
     0
  0
SCALE
  5
56
102
{ACAD_REACTORS
330
47
102
}
330
47
100
AcDbScale
 70
     0
300
8:1
140
8.0
141
1.0
290
     0
  0
SCALE
  5
57
102
{ACAD_REACTORS
330
47
102
}
330
47
100
AcDbScale
 70
     0
300
10:1
140
10.0
141
1.0
290
     0
  0
SCALE
  5
58
102
{ACAD_REACTORS
330
47
102
}
330
47
100
AcDbScale
 70
     0
300
100:1
140
100.0
141
1.0
290
     0
  0
SCALE
  5
59
102
{ACAD_REACTORS
330
47
102
}
330
47
100
AcDbScale
 70
     0
300
1/128" = 1'-0"
140
0.0078125
141
12.0
290
     0
  0
SCALE
  5
5A
102
{ACAD_REACTORS
330
47
102
}
330
47
100
AcDbScale
 70
     0
300
1/64" = 1'-0"
140
0.015625
141
12.0
290
     0
  0
SCALE
  5
5B
102
{ACAD_REACTORS
330
47
102
}
330
47
100
AcDbScale
 70
     0
300
1/32" = 1'-0"
140
0.03125
141
12.0
290
     0
  0
SCALE
  5
5C
102
{ACAD_REACTORS
330
47
102
}
330
47
100
AcDbScale
 70
     0
300
1/16" = 1'-0"
140
0.0625
141
12.0
290
     0
  0
SCALE
  5
5D
102
{ACAD_REACTORS
330
47
102
}
330
47
100
AcDbScale
 70
     0
300
3/32" = 1'-0"
140
0.09375
141
12.0
290
     0
  0
SCALE
  5
5E
102
{ACAD_REACTORS
330
47
102
}
330
47
100
AcDbScale
 70
     0
300
1/8" = 1'-0"
140
0.125
141
12.0
290
     0
  0
SCALE
  5
5F
102
{ACAD_REACTORS
330
47
102
}
330
47
100
AcDbScale
 70
     0
300
3/16" = 1'-0"
140
0.1875
141
12.0
290
     0
  0
SCALE
  5
60
102
{ACAD_REACTORS
330
47
102
}
330
47
100
AcDbScale
 70
     0
300
1/4" = 1'-0"
140
0.25
141
12.0
290
     0
  0
SCALE
  5
61
102
{ACAD_REACTORS
330
47
102
}
330
47
100
AcDbScale
 70
     0
300
3/8" = 1'-0"
140
0.375
141
12.0
290
     0
  0
SCALE
  5
62
102
{ACAD_REACTORS
330
47
102
}
330
47
100
AcDbScale
 70
     0
300
1/2" = 1'-0"
140
0.5
141
12.0
290
     0
  0
SCALE
  5
63
102
{ACAD_REACTORS
330
47
102
}
330
47
100
AcDbScale
 70
     0
300
3/4" = 1'-0"
140
0.75
141
12.0
290
     0
  0
SCALE
  5
64
102
{ACAD_REACTORS
330
47
102
}
330
47
100
AcDbScale
 70
     0
300
1" = 1'-0"
140
1.0
141
12.0
290
     0
  0
SCALE
  5
65
102
{ACAD_REACTORS
330
47
102
}
330
47
100
AcDbScale
 70
     0
300
1-1/2" = 1'-0"
140
1.5
141
12.0
290
     0
  0
SCALE
  5
66
102
{ACAD_REACTORS
330
47
102
}
330
47
100
AcDbScale
 70
     0
300
3" = 1'-0"
140
3.0
141
12.0
290
     0
  0
SCALE
  5
67
102
{ACAD_REACTORS
330
47
102
}
330
47
100
AcDbScale
 70
     0
300
6" = 1'-0"
140
6.0
141
12.0
290
     0
  0
SCALE
  5
68
102
{ACAD_REACTORS
330
47
102
}
330
47
100
AcDbScale
 70
     0
300
1'-0" = 1'-0"
140
12.0
141
12.0
290
     0
  0
ENDSEC
  0
EOF
