  0
SECTION
  2
HEADER
  9
$ACADVER
  1
AC1015
  9
$ACADMAINTVER
 70
     6
  9
$DWGCODEPAGE
  3
ANSI_949
  9
$INSBASE
 10
0.0
 20
0.0
 30
0.0
  9
$EXTMIN
 10
-87.4419872981078
 20
-49.97073246008785
 30
0.0
  9
$EXTMAX
 10
47.44649651723785
 20
27.37607492872389
 30
0.0
  9
$LIMMIN
 10
0.0
 20
0.0
  9
$LIMMAX
 10
420.0
 20
297.0
  9
$ORTHOMODE
 70
     1
  9
$REGENMODE
 70
     1
  9
$FILLMODE
 70
     1
  9
$QTEXTMODE
 70
     0
  9
$MIRRTEXT
 70
     1
  9
$LTSCALE
 40
1.0
  9
$ATTMODE
 70
     1
  9
$TEXTSIZE
 40
3.5
  9
$TRACEWID
 40
1.0
  9
$TEXTSTYLE
  7
Standard
  9
$CLAYER
  8
0
  9
$CELTYPE
  6
ByLayer
  9
$CECOLOR
 62
   256
  9
$CELTSCALE
 40
1.0
  9
$DISPSILH
 70
     0
  9
$DIMSCALE
 40
1.0
  9
$DIMASZ
 40
3.302
  9
$DIMEXO
 40
1.0
  9
$DIMDLI
 40
3.75
  9
$DIMRND
 40
0.0
  9
$DIMDLE
 40
0.0
  9
$DIMEXE
 40
1.0
  9
$DIMTP
 40
0.0
  9
$DIMTM
 40
0.0
  9
$DIMTXT
 40
3.5
  9
$DIMCEN
 40
2.5
  9
$DIMTSZ
 40
0.0
  9
$DIMTOL
 70
     0
  9
$DIMLIM
 70
     0
  9
$DIMTIH
 70
     1
  9
$DIMTOH
 70
     1
  9
$DIMSE1
 70
     0
  9
$DIMSE2
 70
     0
  9
$DIMTAD
 70
     1
  9
$DIMZIN
 70
     0
  9
$DIMBLK
  1

  9
$DIMASO
 70
     1
  9
$DIMSHO
 70
     1
  9
$DIMPOST
  1

  9
$DIMAPOST
  1

  9
$DIMALT
 70
     0
  9
$DIMALTD
 70
     3
  9
$DIMALTF
 40
0.0393700787401575
  9
$DIMLFAC
 40
1.0
  9
$DIMTOFL
 70
     1
  9
$DIMTVP
 40
0.0
  9
$DIMTIX
 70
     0
  9
$DIMSOXD
 70
     0
  9
$DIMSAH
 70
     0
  9
$DIMBLK1
  1

  9
$DIMBLK2
  1

  9
$DIMSTYLE
  2
ISO-25
  9
$DIMCLRD
 70
     0
  9
$DIMCLRE
 70
     0
  9
$DIMCLRT
 70
     0
  9
$DIMTFAC
 40
1.0
  9
$DIMGAP
 40
1.524
  9
$DIMJUST
 70
     0
  9
$DIMSD1
 70
     0
  9
$DIMSD2
 70
     0
  9
$DIMTOLJ
 70
     0
  9
$DIMTZIN
 70
     0
  9
$DIMALTZ
 70
     0
  9
$DIMALTTZ
 70
     0
  9
$DIMUPT
 70
     0
  9
$DIMDEC
 70
     2
  9
$DIMTDEC
 70
     2
  9
$DIMALTU
 70
     2
  9
$DIMALTTD
 70
     3
  9
$DIMTXSTY
  7
Standard
  9
$DIMAUNIT
 70
     0
  9
$DIMADEC
 70
     2
  9
$DIMALTRND
 40
0.0
  9
$DIMAZIN
 70
     0
  9
$DIMDSEP
 70
    44
  9
$DIMATFIT
 70
     3
  9
$DIMFRAC
 70
     0
  9
$DIMLDRBLK
  1

  9
$DIMLUNIT
 70
     2
  9
$DIMLWD
 70
    -2
  9
$DIMLWE
 70
    -2
  9
$DIMTMOVE
 70
     0
  9
$LUNITS
 70
     2
  9
$LUPREC
 70
     2
  9
$SKETCHINC
 40
1.0
  9
$FILLETRAD
 40
10.0
  9
$AUNITS
 70
     0
  9
$AUPREC
 70
     2
  9
$MENU
  1
.
  9
$ELEVATION
 40
0.0
  9
$PELEVATION
 40
0.0
  9
$THICKNESS
 40
0.0
  9
$LIMCHECK
 70
     0
  9
$CHAMFERA
 40
0.0
  9
$CHAMFERB
 40
0.0
  9
$CHAMFERC
 40
0.0
  9
$CHAMFERD
 40
0.0
  9
$SKPOLY
 70
     0
  9
$TDCREATE
 40
2458269.808698495
  9
$TDUCREATE
 40
2458269.433698495
  9
$TDUPDATE
 40
2458270.778215625
  9
$TDUUPDATE
 40
2458270.403215625
  9
$TDINDWG
 40
0.002040081
  9
$TDUSRTIMER
 40
0.0020400694
  9
$USRTIMER
 70
     1
  9
$ANGBASE
 50
0.0
  9
$ANGDIR
 70
     0
  9
$PDMODE
 70
     0
  9
$PDSIZE
 40
-1.0
  9
$PLINEWID
 40
0.0
  9
$SPLFRAME
 70
     0
  9
$SPLINETYPE
 70
     6
  9
$SPLINESEGS
 70
     8
  9
$HANDSEED
  5
1CE
  9
$SURFTAB1
 70
     6
  9
$SURFTAB2
 70
     6
  9
$SURFTYPE
 70
     6
  9
$SURFU
 70
     6
  9
$SURFV
 70
     6
  9
$UCSBASE
  2

  9
$UCSNAME
  2

  9
$UCSORG
 10
0.0
 20
0.0
 30
0.0
  9
$UCSXDIR
 10
1.0
 20
0.0
 30
0.0
  9
$UCSYDIR
 10
0.0
 20
1.0
 30
0.0
  9
$UCSORTHOREF
  2

  9
$UCSORTHOVIEW
 70
     0
  9
$UCSORGTOP
 10
0.0
 20
0.0
 30
0.0
  9
$UCSORGBOTTOM
 10
0.0
 20
0.0
 30
0.0
  9
$UCSORGLEFT
 10
0.0
 20
0.0
 30
0.0
  9
$UCSORGRIGHT
 10
0.0
 20
0.0
 30
0.0
  9
$UCSORGFRONT
 10
0.0
 20
0.0
 30
0.0
  9
$UCSORGBACK
 10
0.0
 20
0.0
 30
0.0
  9
$PUCSBASE
  2

  9
$PUCSNAME
  2

  9
$PUCSORG
 10
0.0
 20
0.0
 30
0.0
  9
$PUCSXDIR
 10
1.0
 20
0.0
 30
0.0
  9
$PUCSYDIR
 10
0.0
 20
1.0
 30
0.0
  9
$PUCSORTHOREF
  2

  9
$PUCSORTHOVIEW
 70
     0
  9
$PUCSORGTOP
 10
0.0
 20
0.0
 30
0.0
  9
$PUCSORGBOTTOM
 10
0.0
 20
0.0
 30
0.0
  9
$PUCSORGLEFT
 10
0.0
 20
0.0
 30
0.0
  9
$PUCSORGRIGHT
 10
0.0
 20
0.0
 30
0.0
  9
$PUCSORGFRONT
 10
0.0
 20
0.0
 30
0.0
  9
$PUCSORGBACK
 10
0.0
 20
0.0
 30
0.0
  9
$USERI1
 70
     0
  9
$USERI2
 70
     0
  9
$USERI3
 70
     0
  9
$USERI4
 70
     0
  9
$USERI5
 70
     0
  9
$USERR1
 40
0.0
  9
$USERR2
 40
0.0
  9
$USERR3
 40
0.0
  9
$USERR4
 40
0.0
  9
$USERR5
 40
0.0
  9
$WORLDVIEW
 70
     1
  9
$SHADEDGE
 70
     3
  9
$SHADEDIF
 70
    70
  9
$TILEMODE
 70
     1
  9
$MAXACTVP
 70
    64
  9
$PINSBASE
 10
0.0
 20
0.0
 30
0.0
  9
$PLIMCHECK
 70
     0
  9
$PEXTMIN
 10
1.000000000000000E+20
 20
1.000000000000000E+20
 30
1.000000000000000E+20
  9
$PEXTMAX
 10
-1.000000000000000E+20
 20
-1.000000000000000E+20
 30
-1.000000000000000E+20
  9
$PLIMMIN
 10
0.0
 20
0.0
  9
$PLIMMAX
 10
0.0
 20
0.0
  9
$UNITMODE
 70
     0
  9
$VISRETAIN
 70
     1
  9
$PLINEGEN
 70
     0
  9
$PSLTSCALE
 70
     1
  9
$TREEDEPTH
 70
  3020
  9
$CMLSTYLE
  2
Standard
  9
$CMLJUST
 70
     0
  9
$CMLSCALE
 40
20.0
  9
$PROXYGRAPHICS
 70
     1
  9
$MEASUREMENT
 70
     1
  9
$CELWEIGHT
370
    -1
  9
$ENDCAPS
280
     0
  9
$JOINSTYLE
280
     0
  9
$LWDISPLAY
290
     1
  9
$INSUNITS
 70
     4
  9
$HYPERLINKBASE
  1

  9
$STYLESHEET
  1

  9
$XEDIT
290
     1
  9
$CEPSNTYPE
380
     0
  9
$PSTYLEMODE
290
     1
  9
$FINGERPRINTGUID
  2
{7215FD74-8EE4-43C7-AFEE-DA0108C70559}
  9
$VERSIONGUID
  2
{FAEB1C32-E019-11D5-929B-00C0DF256EC4}
  9
$EXTNAMES
290
     1
  9
$PSVPSCALE
 40
0.0
  9
$OLESTARTUP
290
     0
  0
ENDSEC
  0
SECTION
  2
CLASSES
  0
CLASS
  1
ACDBDICTIONARYWDFLT
  2
AcDbDictionaryWithDefault
  3
ObjectDBX Classes
 90
        0
280
     0
281
     0
  0
CLASS
  1
VISUALSTYLE
  2
AcDbVisualStyle
  3
ObjectDBX Classes
 90
     4095
280
     0
281
     0
  0
CLASS
  1
MATERIAL
  2
AcDbMaterial
  3
ObjectDBX Classes
 90
     1153
280
     0
281
     0
  0
CLASS
  1
SCALE
  2
AcDbScale
  3
ObjectDBX Classes
 90
     1153
280
     0
281
     0
  0
CLASS
  1
SUN
  2
AcDbSun
  3
SCENEOE
 90
     1153
280
     0
281
     0
  0
CLASS
  1
ACDBPLACEHOLDER
  2
AcDbPlaceHolder
  3
ObjectDBX Classes
 90
        0
280
     0
281
     0
  0
CLASS
  1
LAYOUT
  2
AcDbLayout
  3
ObjectDBX Classes
 90
        0
280
     0
281
     0
  0
CLASS
  1
TABLESTYLE
  2
AcDbTableStyle
  3
ObjectDBX Classes
 90
     4095
280
     0
281
     0
  0
CLASS
  1
MLEADERSTYLE
  2
AcDbMLeaderStyle
  3
ACDB_MLEADERSTYLE_CLASS
 90
     4095
280
     0
281
     0
  0
CLASS
  1
DIMASSOC
  2
AcDbDimAssoc
  3
"AcDbDimAssoc|Product Desc:     AcDim ARX App For Dimension|Company:          Autodesk, Inc.|WEB Address:      www.autodesk.com"
 90
        0
280
     0
281
     0
  0
ENDSEC
  0
SECTION
  2
TABLES
  0
TABLE
  2
VPORT
  5
8
330
0
100
AcDbSymbolTable
 70
     1
  0
VPORT
  5
29
330
8
100
AcDbSymbolTableRecord
100
AcDbViewportTableRecord
  2
*Active
 70
     0
 10
0.0
 20
0.0
 11
1.0
 21
1.0
 12
-19.99774539043499
 22
-11.29732876568197
 13
0.0
 23
0.0
 14
10.0
 24
10.0
 15
10.0
 25
10.0
 16
0.0
 26
0.0
 36
1.0
 17
0.0
 27
0.0
 37
0.0
 40
78.89374353658798
 41
2.003901170351105
 42
50.0
 43
0.0
 44
0.0
 50
0.0
 51
0.0
 71
    16
 72
  2000
 73
     1
 74
     3
 75
     0
 76
     0
 77
     0
 78
     0
281
     0
 65
     1
110
0.0
120
0.0
130
0.0
111
1.0
121
0.0
131
0.0
112
0.0
122
1.0
132
0.0
 79
     0
146
0.0
  0
ENDTAB
  0
TABLE
  2
LTYPE
  5
5
330
0
100
AcDbSymbolTable
 70
     6
  0
LTYPE
  5
14
330
5
100
AcDbSymbolTableRecord
100
AcDbLinetypeTableRecord
  2
ByBlock
 70
     0
  3

 72
    65
 73
     0
 40
0.0
  0
LTYPE
  5
15
330
5
100
AcDbSymbolTableRecord
100
AcDbLinetypeTableRecord
  2
ByLayer
 70
     0
  3

 72
    65
 73
     0
 40
0.0
  0
LTYPE
  5
16
330
5
100
AcDbSymbolTableRecord
100
AcDbLinetypeTableRecord
  2
Continuous
 70
     0
  3
Solid line
 72
    65
 73
     0
 40
0.0
  0
LTYPE
  5
6A
330
5
100
AcDbSymbolTableRecord
100
AcDbLinetypeTableRecord
  2
HIDDEN
 70
     0
  3
Hidden __ __ __ __ __ __ __ __ __ __ __ __ __ __
 72
    65
 73
     2
 40
1.905
 49
1.27
 74
     0
 49
-0.635
 74
     0
  0
LTYPE
  5
6B
330
5
100
AcDbSymbolTableRecord
100
AcDbLinetypeTableRecord
  2
PHANTOM
 70
     0
  3
Phantom ______  __  __  ______  __  __  ______
 72
    65
 73
     6
 40
12.7
 49
6.35
 74
     0
 49
-1.27
 74
     0
 49
1.27
 74
     0
 49
-1.27
 74
     0
 49
1.27
 74
     0
 49
-1.27
 74
     0
  0
LTYPE
  5
6C
330
5
100
AcDbSymbolTableRecord
100
AcDbLinetypeTableRecord
  2
CENTER
 70
     0
  3
Center ____ _ ____ _ ____ _ ____ _ ____ _ ____
 72
    65
 73
     4
 40
10.16
 49
6.35
 74
     0
 49
-1.27
 74
     0
 49
1.27
 74
     0
 49
-1.27
 74
     0
  0
LTYPE
  5
6D
330
5
100
AcDbSymbolTableRecord
100
AcDbLinetypeTableRecord
  2
CENTERX2
 70
     0
  3
Center (2x) ________  __  ________  __  _____
 72
    65
 73
     4
 40
20.32
 49
12.7
 74
     0
 49
-2.54
 74
     0
 49
2.54
 74
     0
 49
-2.54
 74
     0
  0
LTYPE
  5
6E
330
5
100
AcDbSymbolTableRecord
100
AcDbLinetypeTableRecord
  2
DOT2
 70
     0
  3
Dot (.5x) ........................................
 72
    65
 73
     2
 40
0.635
 49
0.0
 74
     0
 49
-0.635
 74
     0
  0
ENDTAB
  0
TABLE
  2
LAYER
  5
2
102
{ACAD_XDICTIONARY
360
17D
102
}
330
0
100
AcDbSymbolTable
 70
    18
  0
LAYER
  5
10
330
2
100
AcDbSymbolTableRecord
100
AcDbLayerTableRecord
  2
0
 70
     0
 62
     7
  6
Continuous
370
    -3
390
F
  0
LAYER
  5
6F
330
2
100
AcDbSymbolTableRecord
100
AcDbLayerTableRecord
  2
FORMAT
 70
     0
 62
     2
  6
Continuous
370
    -3
390
F
  0
LAYER
  5
70
330
2
100
AcDbSymbolTableRecord
100
AcDbLayerTableRecord
  2
외형선
 70
     0
 62
     4
  6
Continuous
370
    30
390
F
  0
LAYER
  5
71
330
2
100
AcDbSymbolTableRecord
100
AcDbLayerTableRecord
  2
숨은선
 70
     0
 62
     2
  6
HIDDEN
370
    15
390
F
  0
LAYER
  5
72
330
2
100
AcDbSymbolTableRecord
100
AcDbLayerTableRecord
  2
중심선
 70
     0
 62
     1
  6
CENTERX2
370
    -3
390
F
  0
LAYER
  5
73
330
2
100
AcDbSymbolTableRecord
100
AcDbLayerTableRecord
  2
파단선
 70
     0
 62
     4
  6
Continuous
370
    -3
390
F
  0
LAYER
  5
74
330
2
100
AcDbSymbolTableRecord
100
AcDbLayerTableRecord
  2
해칭선
 70
     0
 62
   100
  6
Continuous
370
    -3
390
F
  0
LAYER
  5
75
330
2
100
AcDbSymbolTableRecord
100
AcDbLayerTableRecord
  2
가는실선
 70
     0
 62
     4
  6
Continuous
370
    -3
390
F
  0
LAYER
  5
76
330
2
100
AcDbSymbolTableRecord
100
AcDbLayerTableRecord
  2
치수_보조선
 70
     0
 62
     4
  6
Continuous
370
    -3
390
F
  0
LAYER
  5
77
330
2
100
AcDbSymbolTableRecord
100
AcDbLayerTableRecord
  2
치수문자_일반주서
 70
     0
 62
     7
  6
Continuous
370
    15
390
F
  0
LAYER
  5
78
330
2
100
AcDbSymbolTableRecord
100
AcDbLayerTableRecord
  2
개별주서
 70
     0
 62
   100
  6
Continuous
370
    30
390
F
  0
LAYER
  5
79
330
2
100
AcDbSymbolTableRecord
100
AcDbLayerTableRecord
  2
중간선
 70
     0
 62
     2
  6
Continuous
370
    15
390
F
  0
LAYER
  5
7A
330
2
100
AcDbSymbolTableRecord
100
AcDbLayerTableRecord
  2
윤곽선
 70
     0
 62
     3
  6
Continuous
370
    40
390
F
  0
LAYER
  5
7B
330
2
100
AcDbSymbolTableRecord
100
AcDbLayerTableRecord
  2
중심마크
 70
     0
 62
   100
  6
Continuous
370
    30
390
F
  0
LAYER
  5
7C
330
2
100
AcDbSymbolTableRecord
100
AcDbLayerTableRecord
  2
가상선
 70
     0
 62
     4
  6
PHANTOM
370
    -3
390
F
  0
LAYER
  5
7D
330
2
100
AcDbSymbolTableRecord
100
AcDbLayerTableRecord
  2
특수지정선
 70
     0
 62
     5
  6
CENTERX2
370
    60
390
F
  0
LAYER
  5
7E
330
2
100
AcDbSymbolTableRecord
100
AcDbLayerTableRecord
  2
참조1
 70
     0
 62
    -4
  6
Continuous
370
    -3
390
F
  0
LAYER
  5
138
330
2
100
AcDbSymbolTableRecord
100
AcDbLayerTableRecord
  2
Defpoints
 70
     0
 62
     7
  6
Continuous
290
     0
370
    -3
390
F
  0
ENDTAB
  0
TABLE
  2
STYLE
  5
3
330
0
100
AcDbSymbolTable
 70
     2
  0
STYLE
  5
11
330
3
100
AcDbSymbolTableRecord
100
AcDbTextStyleTableRecord
  2
Standard
 70
     0
 40
0.0
 41
1.0
 50
0.0
 71
     0
 42
3.5
  3
txt
  4

  0
STYLE
  5
94
330
3
100
AcDbSymbolTableRecord
100
AcDbTextStyleTableRecord
  2
SLDTEXTSTYLE0
 70
     0
 40
0.0
 41
0.75
 50
0.0
 71
     0
 42
3.5
  3
TXT
  4

  0
ENDTAB
  0
TABLE
  2
VIEW
  5
6
330
0
100
AcDbSymbolTable
 70
     0
  0
ENDTAB
  0
TABLE
  2
UCS
  5
7
330
0
100
AcDbSymbolTable
 70
     0
  0
ENDTAB
  0
TABLE
  2
APPID
  5
9
330
0
100
AcDbSymbolTable
 70
     3
  0
APPID
  5
12
330
9
100
AcDbSymbolTableRecord
100
AcDbRegAppTableRecord
  2
ACAD
 70
     0
  0
APPID
  5
141
330
9
100
AcDbSymbolTableRecord
100
AcDbRegAppTableRecord
  2
PE_URL
 70
     0
  0
APPID
  5
142
330
9
100
AcDbSymbolTableRecord
100
AcDbRegAppTableRecord
  2
ACAD_DSTYLE_DIMRADIAL_EXTENSION
 70
     0
  0
ENDTAB
  0
TABLE
  2
DIMSTYLE
  5
A
330
0
100
AcDbSymbolTable
 70
     4
100
AcDbDimStyleTable
  0
DIMSTYLE
105
27
330
A
100
AcDbSymbolTableRecord
100
AcDbDimStyleTableRecord
  2
ISO-25
 70
     0
 41
2.5
 42
0.625
 43
3.75
 44
1.25
 73
     0
 74
     0
 77
     1
 78
     8
140
2.5
141
2.5
143
0.03937007874016
147
0.625
171
     3
172
     1
178
     0
271
     2
272
     2
274
     3
278
    44
283
     0
284
     8
340
11
  0
DIMSTYLE
105
D5
102
{ACAD_REACTORS
330
D4
330
161
102
}
330
A
100
AcDbSymbolTableRecord
100
AcDbDimStyleTableRecord
  2
SLDDIMSTYLE0
 70
     0
 41
3.302
 44
0.0
 45
0.000000001
 73
     0
 74
     0
 77
     1
 78
     4
 79
     1
140
3.5
147
0.875
172
     1
173
     1
178
     0
271
     2
272
     2
276
     2
284
    12
289
     0
340
94
  0
DIMSTYLE
105
E3
102
{ACAD_REACTORS
330
E2
330
F0
330
172
330
1BF
102
}
330
A
100
AcDbSymbolTableRecord
100
AcDbDimStyleTableRecord
  2
SLDDIMSTYLE1
 70
     0
 41
3.302
 44
0.0
 45
0.000000001
 73
     0
 74
     0
 77
     1
 78
    12
 79
     3
140
3.5
147
0.875
172
     1
173
     1
178
     0
271
     2
272
     2
276
     2
284
    12
289
     0
340
94
  0
DIMSTYLE
105
FD
102
{ACAD_REACTORS
330
FC
102
}
330
A
100
AcDbSymbolTableRecord
100
AcDbDimStyleTableRecord
  2
SLDDIMSTYLE2
 70
     0
 41
3.302
 44
0.0
 45
0.000000001
 73
     0
 74
     0
 77
     1
 78
    12
 79
     3
140
3.5
147
0.875
173
     1
178
     0
271
     2
272
     2
276
     2
284
    12
340
94
  0
ENDTAB
  0
TABLE
  2
BLOCK_RECORD
  5
1
330
0
100
AcDbSymbolTable
 70
    13
  0
BLOCK_RECORD
  5
1F
330
1
100
AcDbSymbolTableRecord
100
AcDbBlockTableRecord
  2
*Model_Space
340
22
  0
BLOCK_RECORD
  5
1B
330
1
100
AcDbSymbolTableRecord
100
AcDbBlockTableRecord
  2
*Paper_Space
340
1E
  0
BLOCK_RECORD
  5
23
330
1
100
AcDbSymbolTableRecord
100
AcDbBlockTableRecord
  2
*Paper_Space0
340
26
  0
BLOCK_RECORD
  5
7F
330
1
100
AcDbSymbolTableRecord
100
AcDbBlockTableRecord
  2
블럭10
340
0
102
{BLKREFS
331
CD
102
}
  0
BLOCK_RECORD
  5
D6
330
1
100
AcDbSymbolTableRecord
100
AcDbBlockTableRecord
  2
_D
340
0
  0
BLOCK_RECORD
  5
E4
330
1
100
AcDbSymbolTableRecord
100
AcDbBlockTableRecord
  2
_D_1
340
0
  0
BLOCK_RECORD
  5
F1
330
1
100
AcDbSymbolTableRecord
100
AcDbBlockTableRecord
  2
_D_2
340
0
  0
BLOCK_RECORD
  5
FE
330
1
100
AcDbSymbolTableRecord
100
AcDbBlockTableRecord
  2
_D_3
340
0
  0
BLOCK_RECORD
  5
10E
330
1
100
AcDbSymbolTableRecord
100
AcDbBlockTableRecord
  2
SW_DOWELSYMBOL_0
340
0
102
{BLKREFS
331
114
102
}
  0
BLOCK_RECORD
  5
173
330
1
100
AcDbSymbolTableRecord
100
AcDbBlockTableRecord
  2
*D8
340
0
  0
BLOCK_RECORD
  5
181
330
1
100
AcDbSymbolTableRecord
100
AcDbBlockTableRecord
  2
*D9
340
0
  0
BLOCK_RECORD
  5
195
330
1
100
AcDbSymbolTableRecord
100
AcDbBlockTableRecord
  2
*D10
340
0
  0
BLOCK_RECORD
  5
1A4
330
1
100
AcDbSymbolTableRecord
100
AcDbBlockTableRecord
  2
*D11
340
0
  0
BLOCK_RECORD
  5
1C2
330
1
100
AcDbSymbolTableRecord
100
AcDbBlockTableRecord
  2
*D12
340
0
  0
ENDTAB
  0
ENDSEC
  0
SECTION
  2
BLOCKS
  0
BLOCK
  5
20
330
1F
100
AcDbEntity
  8
0
100
AcDbBlockBegin
  2
*Model_Space
 70
     0
 10
0.0
 20
0.0
 30
0.0
  3
*Model_Space
  1

  0
ENDBLK
  5
21
330
1F
100
AcDbEntity
  8
0
100
AcDbBlockEnd
  0
BLOCK
  5
1C
330
1B
100
AcDbEntity
 67
     1
  8
0
100
AcDbBlockBegin
  2
*Paper_Space
 70
     0
 10
0.0
 20
0.0
 30
0.0
  3
*Paper_Space
  1

  0
ENDBLK
  5
1D
330
1B
100
AcDbEntity
 67
     1
  8
0
100
AcDbBlockEnd
  0
BLOCK
  5
24
330
23
100
AcDbEntity
  8
0
100
AcDbBlockBegin
  2
*Paper_Space0
 70
     0
 10
0.0
 20
0.0
 30
0.0
  3
*Paper_Space0
  1

  0
ENDBLK
  5
25
330
23
100
AcDbEntity
  8
0
100
AcDbBlockEnd
  0
BLOCK
  5
80
330
7F
100
AcDbEntity
  8
0
100
AcDbBlockBegin
  2
블럭10
 70
     2
 10
0.0
 20
0.0
 30
0.0
  3
블럭10
  1

  0
ELLIPSE
  5
82
330
7F
100
AcDbEntity
  8
중심선
100
AcDbEllipse
 10
20.54032771741204
 20
12.0471743016438
 30
0.0
 11
6.600054785286829
 21
-1.261213355974178E-13
 31
0.0
210
0.0
220
0.0
230
1.0
 40
0.636358354079598
 41
0.9219305317359503
 42
6.513795318482858
  0
ELLIPSE
  5
83
330
7F
100
AcDbEntity
  8
중심선
100
AcDbEllipse
 10
20.54032771746488
 20
12.04717430159265
 30
0.0
 11
3.960054785062283
 21
1.540847449632565E-10
 31
0.0
210
0.0
220
0.0
230
1.0
 40
0.3939339440162632
 41
1.131841032648279
 42
5.62031148352944
  0
LINE
  5
84
330
7F
100
AcDbEntity
  8
중심선
100
AcDbLine
 10
2.268634060543552
 20
16.24717430164393
 30
0.0
 11
5.714909304380834
 21
16.24717430164393
 31
0.0
  0
LINE
  5
85
330
7F
100
AcDbEntity
  8
중심선
100
AcDbLine
 10
5.245725140726316
 20
7.84717430164391
 30
0.0
 11
8.692000384563599
 21
7.84717430164391
 31
0.0
  0
LINE
  5
86
330
7F
100
AcDbEntity
  8
중심선
100
AcDbLine
 10
15.74043728645272
 20
16.24717430164393
 30
0.0
 11
8.692000384563599
 21
7.84717430164391
 31
0.0
  0
LINE
  5
87
330
7F
100
AcDbEntity
  8
중심선
100
AcDbLine
 10
0.1404042013395286
 20
13.71084872107135
 30
0.0
 11
3.58671253028996
 21
13.71088815037384
 31
0.0
  0
LINE
  5
88
330
7F
100
AcDbEntity
  8
중심선
100
AcDbLine
 10
2.750260043222114
 20
10.84717430164391
 30
0.0
 11
6.196535287059397
 21
10.84717430164391
 31
0.0
  0
LINE
  5
89
330
7F
100
AcDbEntity
  8
중심선
100
AcDbLine
 10
12.29416204261559
 20
16.24717430164393
 30
0.0
 11
5.245725140726316
 21
7.84717430164391
 31
0.0
  0
LINE
  5
8A
330
7F
100
AcDbEntity
  8
중심선
100
AcDbLine
 10
10.72767329541681
 20
16.24717430164393
 30
0.0
 11
6.196535287059397
 21
10.84717430164391
 31
0.0
  0
LINE
  5
8B
330
7F
100
AcDbEntity
  8
중심선
100
AcDbLine
 10
7.28139805157953
 20
16.24717430164393
 30
0.0
 11
2.750260043222114
 21
10.84717430164391
 31
0.0
  0
LINE
  5
8C
330
7F
100
AcDbEntity
  8
중심선
100
AcDbLine
 10
5.714909304380834
 20
16.24717430164393
 30
0.0
 11
3.58671253028996
 21
13.71088815037384
 31
0.0
  0
LINE
  5
8D
330
7F
100
AcDbEntity
  8
중심선
100
AcDbLine
 10
2.268634060543552
 20
16.24717430164393
 30
0.0
 11
0.1404042013395286
 21
13.71084872107135
 31
0.0
  0
LINE
  5
8E
330
7F
100
AcDbEntity
  8
중심선
100
AcDbLine
 10
7.28139805157953
 20
16.24717430164393
 30
0.0
 11
10.72767329541681
 21
16.24717430164393
 31
0.0
  0
LINE
  5
8F
330
7F
100
AcDbEntity
  8
중심선
100
AcDbLine
 10
12.29416204261559
 20
16.24717430164393
 30
0.0
 11
15.74043728645272
 21
16.24717430164393
 31
0.0
  0
LINE
  5
90
330
7F
100
AcDbEntity
  8
중심선
100
AcDbLine
 10
19.22036997980202
 20
11.08717430171403
 30
0.0
 11
23.66174974927406
 21
11.08717430171406
 31
0.0
  0
LINE
  5
91
330
7F
100
AcDbEntity
  8
중심선
100
AcDbLine
 10
19.22039502424796
 20
13.00717430171391
 30
0.0
 11
19.22036997980202
 21
11.08717430171403
 31
0.0
  0
LINE
  5
92
330
7F
100
AcDbEntity
  8
중심선
100
AcDbLine
 10
19.22039502424796
 20
13.00717430171391
 30
0.0
 11
26.96566020931264
 21
13.00717430171391
 31
0.0
  0
LINE
  5
93
330
7F
100
AcDbEntity
  8
중심선
100
AcDbLine
 10
22.22332737316547
 20
13.45928029700563
 30
0.0
 11
24.52862924686651
 21
15.39360700705356
 31
0.0
  0
ATTDEF
  5
95
330
7F
100
AcDbEntity
  8
FORMAT
 62
     2
100
AcDbText
 10
-16.11926103943555
 20
2.075366912832191
 30
0.0
 40
4.233333333333333
  1
SEME0105502E [ 4 FLUTE ]
 41
0.75
  7
SLDTEXTSTYLE0
 11
-16.11926103943555
 21
-0.0412997538344756
 31
0.0
100
AcDbAttributeDefinition
  3

  2
AUTOATTR0
 70
     0
 74
     1
  0
ENDBLK
  5
81
330
7F
100
AcDbEntity
  8
0
100
AcDbBlockEnd
  0
BLOCK
  5
D7
330
D6
100
AcDbEntity
  8
0
100
AcDbBlockBegin
  2
_D
 70
     0
 10
0.0
 20
0.0
 30
0.0
  3
_D
  1

  0
LINE
  5
D9
330
D6
100
AcDbEntity
  8
치수문자_일반주서
 62
     0
370
    -2
100
AcDbLine
 10
16.99551270189225
 20
2.751074928723891
 30
0.0
 11
26.93301270189224
 21
2.751074928723929
 31
0.0
  0
LINE
  5
DA
330
D6
100
AcDbEntity
  8
치수문자_일반주서
 62
     0
370
    -2
100
AcDbLine
 10
16.99551270189225
 20
-2.748925071276109
 30
0.0
 11
26.93301270189226
 21
-2.748925071276073
 31
0.0
  0
LINE
  5
DB
330
D6
100
AcDbEntity
  8
치수문자_일반주서
 62
     0
370
    -2
100
AcDbLine
 10
26.93301270189224
 20
2.751074928723929
 30
0.0
 11
26.93301270189219
 21
20.07382492872396
 31
0.0
  0
LINE
  5
DC
330
D6
100
AcDbEntity
  8
치수문자_일반주서
 62
     0
370
    -2
100
AcDbLine
 10
26.93301270189224
 20
2.751074928723929
 30
0.0
 11
26.93301270189226
 21
-2.748925071276073
 31
0.0
  0
LINE
  5
DD
330
D6
100
AcDbEntity
  8
치수문자_일반주서
 62
     0
370
    -2
100
AcDbLine
 10
26.93301270189223
 20
6.053074928723928
 30
0.0
 11
26.93301270189222
 21
9.355074928723928
 31
0.0
  0
LINE
  5
DE
330
D6
100
AcDbEntity
  8
치수문자_일반주서
 62
     0
370
    -2
100
AcDbLine
 10
26.93301270189227
 20
-6.050925071276072
 30
0.0
 11
26.93301270189228
 21
-9.352925071276072
 31
0.0
  0
SOLID
  5
DF
330
D6
100
AcDbEntity
  8
치수문자_일반주서
 62
     0
100
AcDbTrace
 10
26.3826793685589
 20
6.053074928723927
 30
0.0
 11
27.48334603522557
 21
6.05307492872393
 31
0.0
 12
26.93301270189224
 22
2.751074928723929
 32
0.0
 13
26.93301270189224
 23
2.751074928723929
 33
0.0
  0
SOLID
  5
E0
330
D6
100
AcDbEntity
  8
치수문자_일반주서
 62
     0
100
AcDbTrace
 10
27.4833460352256
 20
-6.050925071276071
 30
0.0
 11
26.38267936855894
 21
-6.050925071276074
 31
0.0
 12
26.93301270189226
 22
-2.748925071276073
 32
0.0
 13
26.93301270189226
 23
-2.748925071276073
 33
0.0
  0
MTEXT
  5
E1
330
D6
100
AcDbEntity
  8
치수문자_일반주서
 62
     0
100
AcDbMText
 10
22.5580127018922
 20
15.26132492872394
 30
0.0
 40
3.5
 41
0.0
 71
     2
 72
     1
  1
\A1;%%c5.5
  7
SLDTEXTSTYLE0
 11
-3.229739708000455E-15
 21
1.0
 31
0.0
 73
     1
 44
1.0
  0
POINT
  5
1B8
330
D6
100
AcDbEntity
  8
Defpoints
 62
     0
100
AcDbPoint
 10
16.93301270189225
 20
2.751074928723891
 30
0.0
  0
POINT
  5
1B9
330
D6
100
AcDbEntity
  8
Defpoints
 62
     0
100
AcDbPoint
 10
16.93301270189225
 20
-2.748925071276109
 30
0.0
  0
POINT
  5
1BA
330
D6
100
AcDbEntity
  8
Defpoints
 62
     0
100
AcDbPoint
 10
26.93301270189227
 20
-2.748925071276072
 30
0.0
  0
ENDBLK
  5
D8
330
D6
100
AcDbEntity
  8
0
100
AcDbBlockEnd
  0
BLOCK
  5
E5
330
E4
100
AcDbEntity
  8
0
100
AcDbBlockBegin
  2
_D_1
 70
     0
 10
0.0
 20
0.0
 30
0.0
  3
_D_1
  1

  0
LINE
  5
E7
330
E4
100
AcDbEntity
  8
치수문자_일반주서
 62
     0
370
    -2
100
AcDbLine
 10
-72.52948729810777
 20
3.001074928723897
 30
0.0
 11
-83.06698729810776
 21
3.001074928723856
 31
0.0
  0
LINE
  5
E8
330
E4
100
AcDbEntity
  8
치수문자_일반주서
 62
     0
370
    -2
100
AcDbLine
 10
-72.52948729810777
 20
-2.998925071276108
 30
0.0
 11
-83.06698729810775
 21
-2.998925071276147
 31
0.0
  0
LINE
  5
E9
330
E4
100
AcDbEntity
  8
치수문자_일반주서
 62
     0
370
    -2
100
AcDbLine
 10
-83.06698729810776
 20
3.001074928723856
 30
0.0
 11
-83.0669872981078
 21
15.73007492872386
 31
0.0
  0
LINE
  5
EA
330
E4
100
AcDbEntity
  8
치수문자_일반주서
 62
     0
370
    -2
100
AcDbLine
 10
-83.06698729810776
 20
3.001074928723856
 30
0.0
 11
-83.06698729810775
 21
-2.998925071276147
 31
0.0
  0
LINE
  5
EB
330
E4
100
AcDbEntity
  8
치수문자_일반주서
 62
     0
370
    -2
100
AcDbLine
 10
-83.06698729810778
 20
6.303074928723856
 30
0.0
 11
-83.06698729810779
 21
9.605074928723855
 31
0.0
  0
LINE
  5
EC
330
E4
100
AcDbEntity
  8
치수문자_일반주서
 62
     0
370
    -2
100
AcDbLine
 10
-83.06698729810773
 20
-6.300925071276147
 30
0.0
 11
-83.06698729810772
 21
-9.602925071276147
 31
0.0
  0
SOLID
  5
ED
330
E4
100
AcDbEntity
  8
치수문자_일반주서
 62
     0
100
AcDbTrace
 10
-83.6173206314411
 20
6.303074928723855
 30
0.0
 11
-82.51665396477445
 21
6.303074928723857
 31
0.0
 12
-83.06698729810776
 22
3.001074928723856
 32
0.0
 13
-83.06698729810776
 23
3.001074928723856
 33
0.0
  0
SOLID
  5
EE
330
E4
100
AcDbEntity
  8
치수문자_일반주서
 62
     0
100
AcDbTrace
 10
-82.5166539647744
 20
-6.300925071276146
 30
0.0
 11
-83.61732063144106
 21
-6.300925071276148
 31
0.0
 12
-83.06698729810775
 22
-2.998925071276147
 32
0.0
 13
-83.06698729810775
 23
-2.998925071276147
 33
0.0
  0
MTEXT
  5
EF
330
E4
100
AcDbEntity
  8
치수문자_일반주서
 62
     0
100
AcDbMText
 10
-87.44198729810779
 20
12.66757492872385
 30
0.0
 40
3.5
 41
0.0
 71
     2
 72
     1
  1
\A1;%%c6
  7
SLDTEXTSTYLE0
 11
-2.368475785866999E-15
 21
1.0
 31
0.0
 73
     1
 44
1.0
  0
POINT
  5
1B1
330
E4
100
AcDbEntity
  8
Defpoints
 62
     0
100
AcDbPoint
 10
-72.46698729810777
 20
3.001074928723898
 30
0.0
  0
POINT
  5
1B2
330
E4
100
AcDbEntity
  8
Defpoints
 62
     0
100
AcDbPoint
 10
-72.46698729810777
 20
-2.998925071276108
 30
0.0
  0
POINT
  5
1B3
330
E4
100
AcDbEntity
  8
Defpoints
 62
     0
100
AcDbPoint
 10
-83.06698729810773
 20
-2.998925071276147
 30
0.0
  0
ENDBLK
  5
E6
330
E4
100
AcDbEntity
  8
0
100
AcDbBlockEnd
  0
BLOCK
  5
F2
330
F1
100
AcDbEntity
  8
0
100
AcDbBlockBegin
  2
_D_2
 70
     0
 10
0.0
 20
0.0
 30
0.0
  3
_D_2
  1

  0
LINE
  5
F4
330
F1
100
AcDbEntity
  8
치수문자_일반주서
 62
     0
370
    -2
100
AcDbLine
 10
16.93301270189225
 20
2.813574928723891
 30
0.0
 11
16.93301270189225
 21
13.0010749287239
 31
0.0
  0
LINE
  5
F5
330
F1
100
AcDbEntity
  8
치수문자_일반주서
 62
     0
370
    -2
100
AcDbLine
 10
3.933012701892245
 20
2.813574928723895
 30
0.0
 11
3.933012701892245
 21
13.0010749287239
 31
0.0
  0
LINE
  5
F6
330
F1
100
AcDbEntity
  8
치수문자_일반주서
 62
     0
370
    -2
100
AcDbLine
 10
13.63101270189225
 20
13.0010749287239
 30
0.0
 11
7.235012701892245
 21
13.0010749287239
 31
0.0
  0
SOLID
  5
F7
330
F1
100
AcDbEntity
  8
치수문자_일반주서
 62
     0
100
AcDbTrace
 10
13.63101270189225
 20
12.45074159539057
 30
0.0
 11
13.63101270189225
 21
13.55140826205723
 31
0.0
 12
16.93301270189225
 22
13.0010749287239
 32
0.0
 13
16.93301270189225
 23
13.0010749287239
 33
0.0
  0
SOLID
  5
F8
330
F1
100
AcDbEntity
  8
치수문자_일반주서
 62
     0
100
AcDbTrace
 10
7.235012701892245
 20
13.55140826205723
 30
0.0
 11
7.235012701892245
 21
12.45074159539057
 31
0.0
 12
3.933012701892245
 22
13.0010749287239
 32
0.0
 13
3.933012701892245
 23
13.0010749287239
 33
0.0
  0
MTEXT
  5
F9
330
F1
100
AcDbEntity
  8
치수문자_일반주서
 62
     0
100
AcDbMText
 10
10.43301270189224
 20
17.3760749287239
 30
0.0
 40
3.5
 41
0.0
 71
     2
 72
     1
  1
\A1;13
  7
SLDTEXTSTYLE0
 73
     1
 44
1.0
  0
POINT
  5
FA
330
F1
100
AcDbEntity
  8
Defpoints
 62
     0
100
AcDbPoint
 10
16.93301270189225
 20
2.751074928723891
 30
0.0
  0
POINT
  5
FB
330
F1
100
AcDbEntity
  8
Defpoints
 62
     0
100
AcDbPoint
 10
3.933012701892245
 20
2.751074928723895
 30
0.0
  0
POINT
  5
1B4
330
F1
100
AcDbEntity
  8
Defpoints
 62
     0
100
AcDbPoint
 10
3.933012701892245
 20
13.0010749287239
 30
0.0
  0
ENDBLK
  5
F3
330
F1
100
AcDbEntity
  8
0
100
AcDbBlockEnd
  0
BLOCK
  5
FF
330
FE
100
AcDbEntity
  8
0
100
AcDbBlockBegin
  2
_D_3
 70
     0
 10
0.0
 20
0.0
 30
0.0
  3
_D_3
  1

  0
LINE
  5
101
330
FE
100
AcDbEntity
  8
치수문자_일반주서
 62
     0
370
    -2
100
AcDbLine
 10
16.93301270189225
 20
2.813574928723891
 30
0.0
 11
16.93301270189224
 21
23.0010749287239
 31
0.0
  0
LINE
  5
102
330
FE
100
AcDbEntity
  8
치수문자_일반주서
 62
     0
370
    -2
100
AcDbLine
 10
-73.06698729810776
 20
2.463574928723897
 30
0.0
 11
-73.06698729810776
 21
23.0010749287239
 31
0.0
  0
LINE
  5
103
330
FE
100
AcDbEntity
  8
치수문자_일반주서
 62
     0
370
    -2
100
AcDbLine
 10
13.63101270189224
 20
23.0010749287239
 30
0.0
 11
-69.76498729810777
 21
23.0010749287239
 31
0.0
  0
SOLID
  5
104
330
FE
100
AcDbEntity
  8
치수문자_일반주서
 62
     0
100
AcDbTrace
 10
13.63101270189224
 20
22.45074159539056
 30
0.0
 11
13.63101270189224
 21
23.55140826205723
 31
0.0
 12
16.93301270189224
 22
23.0010749287239
 32
0.0
 13
16.93301270189224
 23
23.0010749287239
 33
0.0
  0
SOLID
  5
105
330
FE
100
AcDbEntity
  8
치수문자_일반주서
 62
     0
100
AcDbTrace
 10
-69.76498729810777
 20
23.55140826205723
 30
0.0
 11
-69.76498729810777
 21
22.45074159539056
 31
0.0
 12
-73.06698729810776
 22
23.0010749287239
 32
0.0
 13
-73.06698729810776
 23
23.0010749287239
 33
0.0
  0
MTEXT
  5
106
330
FE
100
AcDbEntity
  8
치수문자_일반주서
 62
     0
100
AcDbMText
 10
-28.06698729810775
 20
27.3760749287239
 30
0.0
 40
3.5
 41
0.0
 71
     2
 72
     1
  1
\A1;90
  7
SLDTEXTSTYLE0
 73
     1
 44
1.0
  0
POINT
  5
1B5
330
FE
100
AcDbEntity
  8
Defpoints
 62
     0
100
AcDbPoint
 10
16.93301270189225
 20
2.751074928723891
 30
0.0
  0
POINT
  5
1B6
330
FE
100
AcDbEntity
  8
Defpoints
 62
     0
100
AcDbPoint
 10
-73.06698729810776
 20
2.401074928723897
 30
0.0
  0
POINT
  5
1B7
330
FE
100
AcDbEntity
  8
Defpoints
 62
     0
100
AcDbPoint
 10
-73.06698729810776
 20
23.0010749287239
 30
0.0
  0
ENDBLK
  5
100
330
FE
100
AcDbEntity
  8
0
100
AcDbBlockEnd
  0
BLOCK
  5
10F
330
10E
100
AcDbEntity
  8
0
100
AcDbBlockBegin
  2
SW_DOWELSYMBOL_0
 70
     0
 10
0.0
 20
0.0
 30
0.0
  3
SW_DOWELSYMBOL_0
  1

  0
CIRCLE
  5
111
330
10E
100
AcDbEntity
  8
해칭선
 62
     0
100
AcDbCircle
 10
0.0
 20
0.0
 30
0.0
 40
3.000000000000001
  0
HATCH
  5
112
330
10E
100
AcDbEntity
  8
0
  6
Continuous
 62
     0
370
     0
100
AcDbHatch
 10
0.0
 20
0.0
 30
0.0
210
0.0
220
0.0
230
1.0
  2
SOLID
 70
     1
 71
     0
 91
        1
 92
        0
 93
        3
 72
     2
 10
0.0
 20
0.0
 40
3.000000000000001
 50
0.0
 51
90.0
 73
     1
 72
     1
 10
0.0
 20
3.000000000000001
 11
0.0
 21
0.0
 72
     1
 10
0.0
 20
0.0
 11
3.000000000000003
 21
0.0
 97
        0
 75
     0
 76
     1
 98
        1
 10
0.0
 20
0.0
  0
HATCH
  5
113
330
10E
100
AcDbEntity
  8
0
  6
Continuous
 62
     0
370
     0
100
AcDbHatch
 10
0.0
 20
0.0
 30
0.0
210
0.0
220
0.0
230
1.0
  2
SOLID
 70
     1
 71
     0
 91
        1
 92
        0
 93
        3
 72
     2
 10
0.0
 20
0.0
 40
3.000000000000001
 50
180.0
 51
270.0000000000008
 73
     1
 72
     1
 10
0.0
 20
-3.000000000000001
 11
0.0
 21
0.0
 72
     1
 10
0.0
 20
0.0
 11
-3.000000000000003
 21
0.0
 97
        0
 75
     0
 76
     1
 98
        1
 10
0.0
 20
0.0
  0
ENDBLK
  5
110
330
10E
100
AcDbEntity
  8
0
100
AcDbBlockEnd
  0
BLOCK
  5
174
330
173
100
AcDbEntity
  8
0
100
AcDbBlockBegin
  2
*D8
 70
     1
 10
0.0
 20
0.0
 30
0.0
  3
*D8
  1

  0
LINE
  5
175
330
173
100
AcDbEntity
  8
치수문자_일반주서
 62
     0
370
    -2
100
AcDbLine
 10
11.77456662019984
 20
16.49151495257678
 30
0.0
 11
22.66398241076589
 21
-0.0000000000001465
 31
0.0
  0
MTEXT
  5
176
330
173
100
AcDbEntity
  8
치수문자_일반주서
 62
     0
100
AcDbMText
 10
22.5643530529196
 20
4.914785148259656
 30
0.0
 40
3.5
 41
0.0
 71
     5
 72
     1
  1
\A1;R0.1
  7
SLDTEXTSTYLE0
 11
0.5510189947672727
 21
-0.8344927006305473
 31
0.0
 73
     1
 44
1.0
  0
LINE
  5
177
330
173
100
AcDbEntity
  8
치수문자_일반주서
 62
     0
370
    -2
100
AcDbLine
 10
9.90000000000158
 20
19.3304591201219
 30
0.0
 11
9.955101899478308
 21
19.24700985005884
 31
0.0
  0
SOLID
  5
178
330
173
100
AcDbEntity
  8
치수문자_일반주서
 62
     0
100
AcDbTrace
 10
12.23381576978019
 20
16.79475907269703
 30
0.0
 11
11.3153174706195
 21
16.18827083245652
 31
0.0
 12
9.955101899478308
 22
19.24700985005884
 32
0.0
 13
9.955101899478308
 23
19.24700985005884
 33
0.0
  0
POINT
  5
179
330
173
100
AcDbEntity
  8
Defpoints
 62
     0
100
AcDbPoint
 10
9.955101899478308
 20
19.24700985005884
 30
0.0
  0
POINT
  5
17A
330
173
100
AcDbEntity
  8
Defpoints
 62
     0
100
AcDbPoint
 10
9.90000000000158
 20
19.3304591201219
 30
0.0
  0
ENDBLK
  5
17B
330
173
100
AcDbEntity
  8
0
100
AcDbBlockEnd
  0
BLOCK
  5
182
330
181
100
AcDbEntity
  8
0
100
AcDbBlockBegin
  2
*D9
 70
     1
 10
0.0
 20
0.0
 30
0.0
  3
*D9
  1

  0
LINE
  5
184
330
181
100
AcDbEntity
  8
치수문자_일반주서
 62
     0
370
    -2
100
AcDbLine
 10
10.06250000000158
 20
22.7304591201219
 30
0.0
 11
20.00000000000157
 21
22.73045912012194
 31
0.0
  0
LINE
  5
185
330
181
100
AcDbEntity
  8
치수문자_일반주서
 62
     0
370
    -2
100
AcDbLine
 10
10.06250000000158
 20
19.2304591201219
 30
0.0
 11
20.00000000000158
 21
19.23045912012194
 31
0.0
  0
LINE
  5
186
330
181
100
AcDbEntity
  8
치수문자_일반주서
 62
     0
370
    -2
100
AcDbLine
 10
20.00000000000157
 20
22.73045912012194
 30
0.0
 11
20.00000000000151
 21
40.05320912012195
 31
0.0
  0
LINE
  5
187
330
181
100
AcDbEntity
  8
치수문자_일반주서
 62
     0
370
    -2
100
AcDbLine
 10
20.00000000000157
 20
22.73045912012194
 30
0.0
 11
20.00000000000158
 21
19.23045912012194
 31
0.0
  0
LINE
  5
188
330
181
100
AcDbEntity
  8
치수문자_일반주서
 62
     0
370
    -2
100
AcDbLine
 10
20.00000000000156
 20
26.03245912012193
 30
0.0
 11
20.00000000000155
 21
29.33445912012193
 31
0.0
  0
LINE
  5
189
330
181
100
AcDbEntity
  8
치수문자_일반주서
 62
     0
370
    -2
100
AcDbLine
 10
20.00000000000159
 20
15.92845912012194
 30
0.0
 11
20.0000000000016
 21
12.62645912012194
 31
0.0
  0
SOLID
  5
18A
330
181
100
AcDbEntity
  8
치수문자_일반주서
 62
     0
100
AcDbTrace
 10
19.44966666666822
 20
26.03245912012193
 30
0.0
 11
20.55033333333489
 21
26.03245912012193
 31
0.0
 12
20.00000000000157
 22
22.73045912012194
 32
0.0
 13
20.00000000000157
 23
22.73045912012194
 33
0.0
  0
SOLID
  5
18B
330
181
100
AcDbEntity
  8
치수문자_일반주서
 62
     0
100
AcDbTrace
 10
20.55033333333492
 20
15.92845912012194
 30
0.0
 11
19.44966666666825
 21
15.92845912012193
 31
0.0
 12
20.00000000000158
 22
19.23045912012194
 32
0.0
 13
20.00000000000158
 23
19.23045912012194
 33
0.0
  0
MTEXT
  5
18C
330
181
100
AcDbEntity
  8
치수문자_일반주서
 62
     0
100
AcDbMText
 10
15.62500000000153
 20
35.24070912012193
 30
0.0
 40
3.5
 41
0.0
 71
     2
 72
     1
  1
\A1;%%c3.5
  7
SLDTEXTSTYLE0
 11
-3.045183153257575E-15
 21
1.0
 31
0.0
 73
     1
 44
1.0
  0
POINT
  5
18D
330
181
100
AcDbEntity
  8
Defpoints
 62
     0
100
AcDbPoint
 10
10.00000000000158
 20
22.7304591201219
 30
0.0
  0
POINT
  5
18E
330
181
100
AcDbEntity
  8
Defpoints
 62
     0
100
AcDbPoint
 10
10.00000000000158
 20
19.2304591201219
 30
0.0
  0
POINT
  5
18F
330
181
100
AcDbEntity
  8
Defpoints
 62
     0
100
AcDbPoint
 10
20.00000000000158
 20
19.23045912012194
 30
0.0
  0
ENDBLK
  5
183
330
181
100
AcDbEntity
  8
0
100
AcDbBlockEnd
  0
BLOCK
  5
196
330
195
100
AcDbEntity
  8
0
100
AcDbBlockBegin
  2
*D10
 70
     1
 10
0.0
 20
0.0
 30
0.0
  3
*D10
  1

  0
LINE
  5
198
330
195
100
AcDbEntity
  8
치수문자_일반주서
 62
     0
370
    -2
100
AcDbLine
 10
65.26431094765674
 20
4.78898185255116
 30
0.0
 11
75.20181094765675
 21
4.788981852551197
 31
0.0
  0
LINE
  5
199
330
195
100
AcDbEntity
  8
치수문자_일반주서
 62
     0
370
    -2
100
AcDbLine
 10
65.26431094765674
 20
1.28898185255116
 30
0.0
 11
75.20181094765677
 21
1.288981852551196
 31
0.0
  0
LINE
  5
19A
330
195
100
AcDbEntity
  8
치수문자_일반주서
 62
     0
370
    -2
100
AcDbLine
 10
75.20181094765675
 20
4.788981852551197
 30
0.0
 11
75.20181094765668
 21
22.11173185255121
 31
0.0
  0
LINE
  5
19B
330
195
100
AcDbEntity
  8
치수문자_일반주서
 62
     0
370
    -2
100
AcDbLine
 10
75.20181094765675
 20
4.788981852551197
 30
0.0
 11
75.20181094765677
 21
1.288981852551196
 31
0.0
  0
LINE
  5
19C
330
195
100
AcDbEntity
  8
치수문자_일반주서
 62
     0
370
    -2
100
AcDbLine
 10
75.20181094765674
 20
8.090981852551197
 30
0.0
 11
75.20181094765672
 21
11.3929818525512
 31
0.0
  0
LINE
  5
19D
330
195
100
AcDbEntity
  8
치수문자_일반주서
 62
     0
370
    -2
100
AcDbLine
 10
75.20181094765678
 20
-2.013018147448804
 30
0.0
 11
75.2018109476568
 21
-5.315018147448804
 31
0.0
  0
SOLID
  5
19E
330
195
100
AcDbEntity
  8
치수문자_일반주서
 62
     0
100
AcDbTrace
 10
74.65147761432341
 20
8.090981852551195
 30
0.0
 11
75.75214428099007
 21
8.090981852551199
 31
0.0
 12
75.20181094765675
 22
4.788981852551197
 32
0.0
 13
75.20181094765675
 23
4.788981852551197
 33
0.0
  0
SOLID
  5
19F
330
195
100
AcDbEntity
  8
치수문자_일반주서
 62
     0
100
AcDbTrace
 10
75.75214428099011
 20
-2.013018147448802
 30
0.0
 11
74.65147761432345
 21
-2.013018147448806
 31
0.0
 12
75.20181094765677
 22
1.288981852551196
 32
0.0
 13
75.20181094765677
 23
1.288981852551196
 33
0.0
  0
MTEXT
  5
1A0
330
195
100
AcDbEntity
  8
치수문자_일반주서
 62
     0
100
AcDbMText
 10
70.8268109476567
 20
17.29923185255119
 30
0.0
 40
3.5
 41
0.0
 71
     2
 72
     1
  1
\A1;%%c3.5
  7
SLDTEXTSTYLE0
 11
-4.060244204343429E-15
 21
1.0
 31
0.0
 73
     1
 44
1.0
  0
POINT
  5
1A1
330
195
100
AcDbEntity
  8
Defpoints
 62
     0
100
AcDbPoint
 10
65.20181094765674
 20
4.78898185255116
 30
0.0
  0
POINT
  5
1A2
330
195
100
AcDbEntity
  8
Defpoints
 62
     0
100
AcDbPoint
 10
65.20181094765674
 20
1.28898185255116
 30
0.0
  0
POINT
  5
1A3
330
195
100
AcDbEntity
  8
Defpoints
 62
     0
100
AcDbPoint
 10
75.20181094765674
 20
1.288981852551197
 30
0.0
  0
ENDBLK
  5
197
330
195
100
AcDbEntity
  8
0
100
AcDbBlockEnd
  0
BLOCK
  5
1A5
330
1A4
100
AcDbEntity
  8
0
100
AcDbBlockBegin
  2
*D11
 70
     1
 10
0.0
 20
0.0
 30
0.0
  3
*D11
  1

  0
LINE
  5
1A7
330
1A4
100
AcDbEntity
  8
치수문자_일반주서
 62
     0
370
    -2
100
AcDbLine
 10
66.97637756785493
 20
-1.449962314994016
 30
0.0
 11
77.86579335842049
 21
-17.94147726757127
 31
0.0
  0
MTEXT
  5
1A8
330
1A4
100
AcDbEntity
  8
치수문자_일반주서
 62
     0
100
AcDbMText
 10
77.76616400057434
 20
-13.02669211931146
 30
0.0
 40
3.5
 41
0.0
 71
     5
 72
     1
  1
\A1;R0.1
  7
SLDTEXTSTYLE0
 11
0.551018994767248
 21
-0.8344927006305635
 31
0.0
 73
     1
 44
1.0
  0
LINE
  5
1A9
330
1A4
100
AcDbEntity
  8
치수문자_일반주서
 62
     0
370
    -2
100
AcDbLine
 10
65.10181094765674
 20
1.388981852551161
 30
0.0
 11
65.15691284713347
 21
1.305532582488105
 31
0.0
  0
SOLID
  5
1AA
330
1A4
100
AcDbEntity
  8
치수문자_일반주서
 62
     0
100
AcDbTrace
 10
67.43562671743528
 20
-1.146718194873774
 30
0.0
 11
66.51712841827457
 21
-1.753206435114258
 31
0.0
 12
65.15691284713347
 22
1.305532582488105
 32
0.0
 13
65.15691284713347
 23
1.305532582488105
 33
0.0
  0
POINT
  5
1AB
330
1A4
100
AcDbEntity
  8
Defpoints
 62
     0
100
AcDbPoint
 10
65.15691284713347
 20
1.305532582488105
 30
0.0
  0
POINT
  5
1AC
330
1A4
100
AcDbEntity
  8
Defpoints
 62
     0
100
AcDbPoint
 10
65.10181094765674
 20
1.388981852551161
 30
0.0
  0
ENDBLK
  5
1A6
330
1A4
100
AcDbEntity
  8
0
100
AcDbBlockEnd
  0
BLOCK
  5
1C3
330
1C2
100
AcDbEntity
  8
0
100
AcDbBlockBegin
  2
*D12
 70
     1
 10
0.0
 20
0.0
 30
0.0
  3
*D12
  1

  0
LINE
  5
1C5
330
1C2
100
AcDbEntity
  8
치수문자_일반주서
 62
     0
370
    -2
100
AcDbLine
 10
18.54551883343966
 20
-5.53753867739144
 30
0.0
 11
26.80860481322464
 21
-19.19822608088605
 31
0.0
  0
MTEXT
  5
1C6
330
1C2
100
AcDbEntity
  8
치수문자_일반주서
 62
     0
100
AcDbMText
 10
26.67711728305376
 20
-13.9090035395375
 30
0.0
 40
3.5
 41
0.0
 71
     5
 72
     1
  1
\A1;R0.2
  7
SLDTEXTSTYLE0
 11
0.517563144359627
 21
-0.8556450149452026
 31
0.0
 73
     1
 44
1.0
  0
LINE
  5
1C7
330
1C2
100
AcDbEntity
  8
치수문자_일반주서
 62
     0
370
    -2
100
AcDbLine
 10
16.73301270189224
 20
-2.54106983505334
 30
0.0
 11
16.83652533076417
 21
-2.712198838042381
 31
0.0
  0
SOLID
  5
1C8
330
1C2
100
AcDbEntity
  8
치수문자_일반주서
 62
     0
100
AcDbTrace
 10
19.0164088066645
 20
-5.252706426945526
 30
0.0
 11
18.07462886021482
 21
-5.822370927837355
 31
0.0
 12
16.83652533076417
 22
-2.712198838042381
 32
0.0
 13
16.83652533076417
 23
-2.712198838042381
 33
0.0
  0
POINT
  5
1C9
330
1C2
100
AcDbEntity
  8
Defpoints
 62
     0
100
AcDbPoint
 10
16.83652533076417
 20
-2.712198838042381
 30
0.0
  0
POINT
  5
1CA
330
1C2
100
AcDbEntity
  8
Defpoints
 62
     0
100
AcDbPoint
 10
16.73301270189224
 20
-2.54106983505334
 30
0.0
  0
ENDBLK
  5
1C4
330
1C2
100
AcDbEntity
  8
0
100
AcDbBlockEnd
  0
ENDSEC
  0
SECTION
  2
ENTITIES
  0
LINE
  5
96
330
1F
100
AcDbEntity
  8
0
  6
Continuous
 62
     1
370
    15
100
AcDbLine
 10
9.859354020719351
 20
-2.748925071276108
 30
0.0
 11
11.53673656915753
 21
-2.748925071276108
 31
0.0
1001
PE_URL
1000

  0
LINE
  5
97
330
1F
100
AcDbEntity
  8
0
  6
Continuous
 62
     1
370
    15
100
AcDbLine
 10
4.053769366801042
 20
2.751074928723897
 30
0.0
 11
3.933012701892245
 21
2.751074928723897
 31
0.0
1001
PE_URL
1000

  0
LINE
  5
98
330
1F
100
AcDbEntity
  8
0
  6
Continuous
 62
     1
370
    15
100
AcDbLine
 10
11.53673656915754
 20
2.751074928723897
 30
0.0
 11
9.859354020719394
 21
2.751074928723897
 31
0.0
1001
PE_URL
1000

  0
LINE
  5
99
330
1F
100
AcDbEntity
  8
외형선
  6
Continuous
370
    15
100
AcDbLine
 10
3.933012701892245
 20
-2.748925071276108
 30
0.0
 11
4.053769366801014
 21
-2.748925071276108
 31
0.0
  0
LINE
  5
9A
330
1F
100
AcDbEntity
  8
외형선
  6
Continuous
370
    15
100
AcDbLine
 10
-72.46698729810775
 20
-2.998925071276109
 30
0.0
 11
2.0
 21
-2.998925071276109
 31
0.0
  0
LINE
  5
9B
330
1F
100
AcDbEntity
  8
외형선
  6
Continuous
370
    15
100
AcDbLine
 10
2.0
 20
3.0010749287239
 30
0.0
 11
-72.46698729810775
 21
3.0010749287239
 31
0.0
  0
LINE
  5
9C
330
1F
100
AcDbEntity
  8
외형선
  6
Continuous
370
    15
100
AcDbLine
 10
2.0
 20
-2.998925071276114
 30
0.0
 11
2.933012701892245
 21
-2.748925071276105
 31
0.0
  0
LINE
  5
9D
330
1F
100
AcDbEntity
  8
외형선
  6
Continuous
370
    15
100
AcDbLine
 10
2.933012701892245
 20
2.751074928723895
 30
0.0
 11
2.0
 21
3.001074928723904
 31
0.0
  0
LINE
  5
9E
330
1F
100
AcDbEntity
  8
외형선
  6
Continuous
370
    15
100
AcDbLine
 10
-72.46698729810775
 20
3.001074928723895
 30
0.0
 11
-73.06698729810776
 21
2.401074928723897
 31
0.0
  0
LINE
  5
9F
330
1F
100
AcDbEntity
  8
외형선
  6
Continuous
370
    15
100
AcDbLine
 10
-73.06698729810776
 20
-2.398925071276107
 30
0.0
 11
-72.46698729810775
 21
-2.998925071276105
 31
0.0
  0
LINE
  5
A0
330
1F
100
AcDbEntity
  8
외형선
  6
Continuous
370
    15
100
AcDbLine
 10
3.933012701892245
 20
2.751074928723895
 30
0.0
 11
2.933012701892245
 21
2.751074928723895
 31
0.0
  0
LINE
  5
A1
330
1F
100
AcDbEntity
  8
외형선
  6
Continuous
370
    15
100
AcDbLine
 10
2.933012701892245
 20
-2.748925071276105
 30
0.0
 11
3.933012701892245
 21
-2.748925071276105
 31
0.0
  0
SPLINE
  5
A2
330
1F
100
AcDbEntity
  8
0
  6
Continuous
 62
     1
370
    15
100
AcDbSpline
210
0.0
220
0.0
230
1.0
 70
     8
 71
     3
 72
    16
 73
    12
 74
     0
 42
0.000000001
 43
0.00000001
 40
0.0
 40
0.0
 40
0.0
 40
0.0
 40
0.113582882139537
 40
0.2272008700922247
 40
0.3408777858769134
 40
0.45462461080522
 40
0.5683224816079941
 40
0.6819547392670955
 40
0.7890331101686211
 40
0.8960955790524288
 40
1.0
 40
1.0
 40
1.0
 40
1.0
 10
3.933012701892245
 20
0.0710763236989654
 30
0.0
 10
4.330948034220384
 20
-0.1591174254380709
 30
0.0
 10
5.126941691383635
 20
-0.6195760712177664
 30
0.0
 10
6.321284990759992
 20
-1.272627126305466
 30
0.0
 10
7.516306406033173
 20
-1.845767721972926
 30
0.0
 10
8.711850704870066
 20
-2.303311155254235
 30
0.0
 10
9.907041637524976
 20
-2.616577042157414
 30
0.0
 10
11.07879599588568
 20
-2.763878926531264
 30
0.0
 10
12.22697615298182
 20
-2.743931013296149
 30
0.0
 10
13.34106445683634
 20
-2.582955618765326
 30
0.0
 10
14.0801752940576
 20
-2.359879259175896
 30
0.0
 10
14.44419868947728
 20
-2.250010739102637
 30
0.0
1001
PE_URL
1000

  0
SPLINE
  5
A3
330
1F
100
AcDbEntity
  8
외형선
  6
Continuous
370
    15
100
AcDbSpline
210
0.0
220
0.0
230
1.0
 70
    24
 71
     3
 72
    13
 73
     9
 74
     0
 42
0.000000001
 43
0.00000001
 40
0.0
 40
0.0
 40
0.0
 40
0.0
 40
0.1212653129461937
 40
0.3001755142813137
 40
0.4790857156165236
 40
0.6579959169517317
 40
0.8369061182869412
 40
1.0
 40
1.0
 40
1.0
 40
1.0
 10
3.93301270189226
 20
2.605734444759816
 30
0.0
 10
3.933012701892245
 20
2.499500834082814
 30
0.0
 10
3.933012701892217
 20
2.236534220265726
 30
0.0
 10
3.93301270189226
 20
1.741562266990142
 30
0.0
 10
3.933012701892217
 20
1.180520142625911
 30
0.0
 10
3.933012701892167
 20
0.6726542387648965
 30
0.0
 10
3.933012701892274
 20
0.2702038813635645
 30
0.0
 10
3.933012701892231
 20
0.1353737246019989
 30
0.0
 10
3.933012701892217
 20
0.0710763236989798
 30
0.0
  0
SPLINE
  5
A4
330
1F
100
AcDbEntity
  8
0
  6
Continuous
 62
     1
370
    15
100
AcDbSpline
210
0.0
220
0.0
230
1.0
 70
     8
 71
     3
 72
    38
 73
    34
 74
     0
 42
0.000000001
 43
0.00000001
 40
0.0
 40
0.0
 40
0.0
 40
0.0
 40
0.0625
 40
0.0625
 40
0.125
 40
0.125
 40
0.1875
 40
0.1875
 40
0.25
 40
0.25
 40
0.3125
 40
0.3125
 40
0.375
 40
0.375
 40
0.4375
 40
0.4375
 40
0.5
 40
0.5
 40
0.5625
 40
0.5625
 40
0.625
 40
0.625
 40
0.6875
 40
0.6875
 40
0.75
 40
0.75
 40
0.8125
 40
0.8125
 40
0.875
 40
0.875
 40
0.9375
 40
0.9375
 40
1.0
 40
1.0
 40
1.0
 40
1.0
 10
16.71732642738244
 20
-2.740453738094693
 30
0.0
 10
16.46704638131707
 20
-2.706819636246038
 30
0.0
 10
16.19768981208985
 20
-2.674220921881163
 30
0.0
 10
15.66352406454815
 20
-2.584345181356807
 30
0.0
 10
15.40054285465905
 20
-2.527318734054692
 30
0.0
 10
14.86556778610656
 20
-2.389432804412549
 30
0.0
 10
14.59638755097697
 20
-2.308681283945731
 30
0.0
 10
14.06594524398854
 20
-2.127141998105339
 30
0.0
 10
13.80018209175041
 20
-2.025906119892205
 30
0.0
 10
13.26418832889113
 20
-1.804717877182551
 30
0.0
 10
12.99842330929533
 20
-1.685388354001081
 30
0.0
 10
12.4679828178557
 20
-1.432279329398397
 30
0.0
 10
12.19880285006853
 20
-1.297740945237101
 30
0.0
 10
11.66382699847411
 20
-1.018244209423011
 30
0.0
 10
11.40084551609058
 20
-0.8738472565866324
 30
0.0
 10
10.8666808165225
 20
-0.5767329821904005
 30
0.0
 10
10.5973241156988
 20
-0.4243182825330261
 30
0.0
 10
10.0653899183479
 20
-0.1182049128951987
 30
0.0
 10
9.801039485324175
 20
0.0358204475637754
 30
0.0
 10
9.26516409201355
 20
0.343477345477804
 30
0.0
 10
8.997507726585333
 20
0.4963506125681216
 30
0.0
 10
8.468787742830159
 20
0.7948062610146218
 30
0.0
 10
8.199904336407073
 20
0.9418471132677346
 30
0.0
 10
7.664353357645737
 20
1.225276416691768
 30
0.0
 10
7.40088945699862
 20
1.361145337376324
 30
0.0
 10
6.867768914440781
 20
1.619933730874543
 30
0.0
 10
6.598355972407333
 20
1.742735456071054
 30
0.0
 10
6.065160414969164
 20
1.969984823726983
 30
0.0
 10
5.801742554024962
 20
2.074474266274237
 30
0.0
 10
5.266221828135613
 20
2.264120476002997
 30
0.0
 10
4.997315486818806
 20
2.34878216085002
 30
0.0
 10
4.468476669062134
 20
2.494496133314781
 30
0.0
 10
4.200957844279593
 20
2.556270278626334
 30
0.0
 10
3.933012701892288
 20
2.605734444759811
 30
0.0
1001
PE_URL
1000

  0
LINE
  5
A6
330
1F
100
AcDbEntity
  8
0
  6
Continuous
 62
     1
370
    15
100
AcDbLine
 10
16.93301270189225
 20
-2.328964202158852
 30
0.0
 11
16.93301270189225
 21
0.2702845262961306
 31
0.0
1001
PE_URL
1000

  0
SPLINE
  5
A7
330
1F
100
AcDbEntity
  8
0
  6
Continuous
 62
     1
370
    15
100
AcDbSpline
210
0.0
220
0.0
230
1.0
 70
     8
 71
     3
 72
    10
 73
     6
 74
     0
 42
0.000000001
 43
0.00000001
 40
0.0
 40
0.0
 40
0.0
 40
0.0
 40
0.5
 40
0.5
 40
1.0
 40
1.0
 40
1.0
 40
1.0
 10
16.73301270189224
 20
-2.43819434089585
 30
0.0
 10
16.78513202761707
 20
-2.452112335379776
 30
0.0
 10
16.83287113772951
 20
-2.450081577558238
 30
0.0
 10
16.90717837878452
 20
-2.41374498050768
 30
0.0
 10
16.93301270189223
 20
-2.378290045261504
 30
0.0
 10
16.93301270189222
 20
-2.328964202158852
 30
0.0
1001
PE_URL
1000

  0
SPLINE
  5
A8
330
1F
100
AcDbEntity
  8
0
  6
Continuous
 62
     1
370
    15
100
AcDbSpline
210
0.0
220
0.0
230
1.0
 70
     8
 71
     3
 72
    18
 73
    14
 74
     0
 42
0.000000001
 43
0.00000001
 40
0.0
 40
0.0
 40
0.0
 40
0.0
 40
0.0846388664471944
 40
0.1788316295108863
 40
0.2730732455371904
 40
0.3673728183669829
 40
0.4616318067397723
 40
0.5558363998235097
 40
0.6446076217164172
 40
0.7333656603536234
 40
0.8221666234913584
 40
0.911066131207977
 40
0.9999999999999999
 40
0.9999999999999999
 40
0.9999999999999999
 40
0.9999999999999999
 10
4.053769366801056
 20
2.743245347923986
 30
0.0
 10
4.41145316395631
 20
2.732939198911194
 30
0.0
 10
5.167195519447588
 20
2.711163559665254
 30
0.0
 10
6.321285214464339
 20
2.468375253941096
 30
0.0
 10
7.516306323860562
 20
2.078278863543296
 30
0.0
 10
8.711850809691207
 20
1.554179557829336
 30
0.0
 10
9.907041300664368
 20
0.9338683595255588
 30
0.0
 10
11.07879720745738
 20
0.2678870071697375
 30
0.0
 10
12.22697192422973
 20
-0.3996814623437778
 30
0.0
 10
13.35232404093565
 20
-1.032464143957127
 30
0.0
 10
14.47829325745759
 20
-1.605256340264781
 30
0.0
 10
15.60535010695727
 20
-2.098270223074674
 30
0.0
 10
16.35707675388417
 20
-2.324871706928998
 30
0.0
 10
16.73301270189226
 20
-2.43819434089585
 30
0.0
1001
PE_URL
1000

  0
SPLINE
  5
A9
330
1F
100
AcDbEntity
  8
0
  6
Continuous
 62
     1
370
    15
100
AcDbSpline
210
0.0
220
0.0
230
1.0
 70
     8
 71
     3
 72
    16
 73
    12
 74
     0
 42
0.000000001
 43
0.00000001
 40
0.0
 40
0.0
 40
0.0
 40
0.0
 40
0.1221819549502141
 40
0.2443984676127435
 40
0.3665348221895894
 40
0.4886115522970157
 40
0.6106542954851597
 40
0.7326888845567393
 40
0.84776145347382
 40
0.962941675840849
 40
1.0
 40
1.0
 40
1.0
 40
1.0
 10
16.73301270189221
 20
0.3519730164493169
 30
0.0
 10
16.33455018083712
 20
0.5779073690390671
 30
0.0
 10
15.53751243834354
 20
1.029839977062176
 30
0.0
 10
14.34199653183293
 20
1.637115829563548
 30
0.0
 10
13.14707709245636
 20
2.14374125565912
 30
0.0
 10
11.95281323317323
 20
2.515933020344971
 30
0.0
 10
10.75897155911041
 20
2.730220366566808
 30
0.0
 10
9.587916738915077
 20
2.775432025007654
 30
0.0
 10
8.439434337985325
 20
2.648709257974367
 30
0.0
 10
7.5677736887178
 20
2.463686934667104
 30
0.0
 10
7.071236444359997
 20
2.284061642115184
 30
0.0
 10
6.950367987728086
 20
2.240336761193343
 30
0.0
1001
PE_URL
1000

  0
SPLINE
  5
AA
330
1F
100
AcDbEntity
  8
0
  6
Continuous
 62
     1
370
    15
100
AcDbSpline
210
0.0
220
0.0
230
1.0
 70
     8
 71
     3
 72
    10
 73
     6
 74
     0
 42
0.000000001
 43
0.00000001
 40
0.0
 40
0.0
 40
0.0
 40
0.0
 40
0.5
 40
0.5
 40
1.0
 40
1.0
 40
1.0
 40
1.0
 10
16.93301270189225
 20
0.2688413323339445
 30
0.0
 10
16.93301270189226
 20
0.2636773802897188
 30
0.0
 10
16.90905970501426
 20
0.2681816383520396
 30
0.0
 10
16.8314736925416
 20
0.2991055830132225
 30
0.0
 10
16.78072385937226
 20
0.3246064247309557
 30
0.0
 10
16.73301270189223
 20
0.3519730164493037
 30
0.0
1001
PE_URL
1000

  0
SPLINE
  5
AB
330
1F
100
AcDbEntity
  8
0
  6
Continuous
 62
     1
370
    15
100
AcDbSpline
210
0.0
220
0.0
230
1.0
 70
     8
 71
     3
 72
    13
 73
     9
 74
     0
 42
0.000000001
 43
0.00000001
 40
0.0
 40
0.0
 40
0.0
 40
0.0
 40
0.0496297468057
 40
0.23957197295798
 40
0.4296918951166027
 40
0.6199914165930136
 40
0.8100750916587293
 40
1.0
 40
1.0
 40
1.0
 40
1.0
 10
9.859354020719351
 20
-2.73291274876301
 30
0.0
 10
9.761318596285577
 20
-2.737765301820131
 30
0.0
 10
9.28808345883212
 20
-2.761189473503475
 30
0.0
 10
8.439440394084777
 20
-2.643894449934939
 30
0.0
 10
7.312670046308405
 20
-2.389279290620213
 30
0.0
 10
6.185271712371161
 20
-1.988108974295297
 30
0.0
 10
5.05868421679331
 20
-1.482878465360097
 30
0.0
 10
4.308132013856472
 20
-1.0816430648236
 30
0.0
 10
3.933012701892288
 20
-0.8811091821756063
 30
0.0
1001
PE_URL
1000

  0
LINE
  5
AC
330
1F
100
AcDbEntity
  8
외형선
  6
Continuous
370
    15
100
AcDbLine
 10
3.93301270189226
 20
-0.8811091821755888
 30
0.0
 11
3.933012701892231
 21
0.0710763236989769
 31
0.0
  0
LINE
  5
AD
330
1F
100
AcDbEntity
  8
외형선
  6
Continuous
370
    15
100
AcDbLine
 10
3.93301270189226
 20
2.605734444759816
 30
0.0
 11
3.933012701892245
 21
2.751074928723897
 31
0.0
  0
SPLINE
  5
AE
330
1F
100
AcDbEntity
  8
0
  6
Continuous
 62
     1
370
    15
100
AcDbSpline
210
0.0
220
0.0
230
1.0
 70
     8
 71
     3
 72
    10
 73
     6
 74
     0
 42
0.000000001
 43
0.00000001
 40
0.0
 40
0.0
 40
0.0
 40
0.0
 40
0.5
 40
0.5
 40
1.0
 40
1.0
 40
1.0
 40
1.0
 10
16.73301270189224
 20
1.270903826760443
 30
0.0
 10
16.78513202761704
 20
1.244168148991674
 30
0.0
 10
16.83287113772952
 20
1.204889222497416
 30
0.0
 10
16.90717837878452
 20
1.118770650455275
 30
0.0
 10
16.93301270189223
 20
1.07214494946054
 30
0.0
 10
16.93301270189222
 20
1.037133637753039
 30
0.0
1001
PE_URL
1000

  0
LINE
  5
AF
330
1F
100
AcDbEntity
  8
0
  6
Continuous
 62
     1
370
    15
100
AcDbLine
 10
16.93301270189225
 20
0.2688413323339445
 30
0.0
 11
16.93301270189225
 21
1.037133637753039
 31
0.0
1001
PE_URL
1000

  0
SPLINE
  5
B0
330
1F
100
AcDbEntity
  8
0
  6
Continuous
 62
     1
370
    15
100
AcDbSpline
210
0.0
220
0.0
230
1.0
 70
     8
 71
     3
 72
    12
 73
     8
 74
     0
 42
0.000000001
 43
0.00000001
 40
0.0
 40
0.0
 40
0.0
 40
0.0
 40
0.1328636537599812
 40
0.3494280091775417
 40
0.5660970978331432
 40
0.7830066294225135
 40
1.0
 40
1.0
 40
1.0
 40
1.0
 10
11.53673656915754
 20
2.732879239831676
 30
0.0
 10
11.76683609592596
 20
2.73443833910004
 30
0.0
 10
12.37199196268116
 20
2.738538730275783
 30
0.0
 10
13.35231940444957
 20
2.573529481521752
 30
0.0
 10
14.47829449562282
 20
2.263884002024877
 30
0.0
 10
15.60534979713328
 20
1.826961604315021
 30
0.0
 10
16.3570766505962
 20
1.456280293702947
 30
0.0
 10
16.73301270189226
 20
1.270903826760436
 30
0.0
1001
PE_URL
1000

  0
SPLINE
  5
B1
330
1F
100
AcDbEntity
  8
0
  6
Continuous
 62
     1
370
    15
100
AcDbSpline
210
0.0
220
0.0
230
1.0
 70
     8
 71
     3
 72
    10
 73
     6
 74
     0
 42
0.000000001
 43
0.00000001
 40
0.0
 40
0.0
 40
0.0
 40
0.0
 40
0.3956744956275369
 40
0.7914712849902705
 40
1.0
 40
1.0
 40
1.0
 40
1.0
 10
3.933012701892245
 20
-2.74803398230556
 30
0.0
 10
4.330949722035619
 20
-2.735839838217133
 30
0.0
 10
5.126946755350978
 20
-2.71144778111546
 30
0.0
 10
6.13271077014339
 20
-2.518791180396254
 30
0.0
 10
6.740607116915385
 20
-2.310172811969881
 30
0.0
 10
6.950367987728058
 20
-2.238186903745553
 30
0.0
1001
PE_URL
1000

  0
SPLINE
  5
B2
330
1F
100
AcDbEntity
  8
외형선
  6
Continuous
370
    15
100
AcDbSpline
210
0.0
220
0.0
230
1.0
 70
    24
 71
     3
 72
    15
 73
    11
 74
     0
 42
0.000000001
 43
0.00000001
 40
0.0
 40
0.0
 40
0.0
 40
0.0
 40
0.0719115035930294
 40
0.2129531120985526
 40
0.3500197780071729
 40
0.4910613865127003
 40
0.6281280524212659
 40
0.7691696609268367
 40
0.8834508440262379
 40
1.0
 40
1.0
 40
1.0
 40
1.0
 10
3.933012701892245
 20
-0.9428165781903315
 30
0.0
 10
3.933012701892274
 20
-0.9725262249721544
 30
0.0
 10
3.933012701892331
 20
-1.060506053308704
 30
0.0
 10
3.933012701892203
 20
-1.24276508614196
 30
0.0
 10
3.93301270189226
 20
-1.481827746311913
 30
0.0
 10
3.933012701892189
 20
-1.741157913654517
 30
0.0
 10
3.933012701892302
 20
-2.015880035735475
 30
0.0
 10
3.933012701892245
 20
-2.278365354204006
 30
0.0
 10
3.933012701892189
 20
-2.525780380075982
 30
0.0
 10
3.933012701892217
 20
-2.673465764775949
 30
0.0
 10
3.933012701892231
 20
-2.748033982305561
 30
0.0
  0
SPLINE
  5
B3
330
1F
100
AcDbEntity
  8
0
  6
Continuous
 62
     1
370
    15
100
AcDbSpline
210
0.0
220
0.0
230
1.0
 70
     8
 71
     3
 72
     9
 73
     5
 74
     0
 42
0.000000001
 43
0.00000001
 40
0.0
 40
0.0
 40
0.0
 40
0.0
 40
0.5222998081790717
 40
1.0
 40
1.0
 40
1.0
 40
1.0
 10
16.71732642738244
 20
2.742603595542474
 30
0.0
 10
16.33454691264779
 20
2.685025431677648
 30
0.0
 10
15.57164066032956
 20
2.601605054638862
 30
0.0
 10
14.80866994604482
 20
2.365126464446744
 30
0.0
 10
14.44419868947725
 20
2.252160596550427
 30
0.0
1001
PE_URL
1000

  0
LINE
  5
B5
330
1F
100
AcDbEntity
  8
0
  6
Continuous
 62
     1
370
    15
100
AcDbLine
 10
16.93301270189225
 20
1.024808529681636
 30
0.0
 11
16.93301270189225
 21
2.536977362394749
 31
0.0
1001
PE_URL
1000

  0
LINE
  5
B6
330
1F
100
AcDbEntity
  8
0
  6
Continuous
 62
     1
370
    15
100
AcDbLine
 10
16.93301270189225
 20
-2.53482750494696
 30
0.0
 11
16.93301270189225
 21
-2.328964202158852
 31
0.0
1001
PE_URL
1000

  0
LINE
  5
B7
330
1F
100
AcDbEntity
  8
외형선
  6
Continuous
370
    15
100
AcDbLine
 10
3.933012701892245
 20
-2.748925071276108
 30
0.0
 11
3.933012701892231
 21
-2.748033982305561
 31
0.0
  0
LINE
  5
B8
330
1F
100
AcDbEntity
  8
외형선
  6
Continuous
370
    15
100
AcDbLine
 10
2.0
 20
0.0010749287238949
 30
0.0
 11
2.0
 21
3.0010749287239
 31
0.0
  0
LINE
  5
B9
330
1F
100
AcDbEntity
  8
외형선
  6
Continuous
370
    15
100
AcDbLine
 10
2.0
 20
-2.998925071276109
 30
0.0
 11
2.0
 21
0.0010749287238949
 31
0.0
  0
LINE
  5
BA
330
1F
100
AcDbEntity
  8
외형선
  6
Continuous
370
    15
100
AcDbLine
 10
-72.46698729810775
 20
0.0010749287238949
 30
0.0
 11
-72.46698729810775
 21
3.0010749287239
 31
0.0
  0
LINE
  5
BB
330
1F
100
AcDbEntity
  8
외형선
  6
Continuous
370
    15
100
AcDbLine
 10
-72.46698729810775
 20
-2.998925071276109
 30
0.0
 11
-72.46698729810775
 21
0.0010749287238949
 31
0.0
  0
LINE
  5
BC
330
1F
100
AcDbEntity
  8
외형선
  6
Continuous
370
    15
100
AcDbLine
 10
2.933012701892245
 20
2.732455012072361
 30
0.0
 11
2.933012701892245
 21
2.751074928723895
 31
0.0
  0
SPLINE
  5
BD
330
1F
100
AcDbEntity
  8
외형선
  6
Continuous
370
    15
100
AcDbSpline
210
0.0
220
0.0
230
1.0
 70
    24
 71
     3
 72
    10
 73
     6
 74
     0
 42
0.000000001
 43
0.00000001
 40
0.0
 40
0.0
 40
0.0
 40
0.0
 40
0.5
 40
0.5
 40
1.0
 40
1.0
 40
1.0
 40
1.0
 10
2.933012701892245
 20
0.64297331936188
 30
0.0
 10
2.933012701892231
 20
1.18614599113354
 30
0.0
 10
2.93301270189226
 20
1.687179685693323
 30
0.0
 10
2.933012701892245
 20
2.428724408323311
 30
0.0
 10
2.93301270189226
 20
2.667561011287431
 30
0.0
 10
2.933012701892245
 20
2.732455012072361
 30
0.0
  0
LINE
  5
BE
330
1F
100
AcDbEntity
  8
외형선
  6
Continuous
370
    15
100
AcDbLine
 10
2.933012701892245
 20
-0.3183978248675807
 30
0.0
 11
2.933012701892245
 21
0.64297331936188
 31
0.0
  0
SPLINE
  5
BF
330
1F
100
AcDbEntity
  8
외형선
  6
Continuous
370
    15
100
AcDbSpline
210
0.0
220
0.0
230
1.0
 70
    24
 71
     3
 72
    10
 73
     6
 74
     0
 42
0.000000001
 43
0.00000001
 40
0.0
 40
0.0
 40
0.0
 40
0.0
 40
0.5000000000000002
 40
0.5000000000000002
 40
1.0
 40
1.0
 40
1.0
 40
1.0
 10
2.933012701892245
 20
-2.672960683622424
 30
0.0
 10
2.93301270189226
 20
-2.542572867454624
 30
0.0
 10
2.933012701892245
 20
-2.242045282608885
 30
0.0
 10
2.933012701892245
 20
-1.406424818404051
 30
0.0
 10
2.933012701892245
 20
-0.8732187893477424
 30
0.0
 10
2.933012701892245
 20
-0.3183978248675811
 30
0.0
  0
LINE
  5
C0
330
1F
100
AcDbEntity
  8
외형선
  6
Continuous
370
    15
100
AcDbLine
 10
2.933012701892245
 20
-2.748925071276105
 30
0.0
 11
2.933012701892245
 21
-2.672960683622423
 31
0.0
  0
LINE
  5
C1
330
1F
100
AcDbEntity
  8
외형선
  6
Continuous
370
    15
100
AcDbLine
 10
-73.06698729810776
 20
0.0010749287238949
 30
0.0
 11
-73.06698729810776
 21
2.401074928723897
 31
0.0
  0
LINE
  5
C2
330
1F
100
AcDbEntity
  8
외형선
  6
Continuous
370
    15
100
AcDbLine
 10
-73.06698729810776
 20
-2.398925071276107
 30
0.0
 11
-73.06698729810776
 21
0.0010749287238949
 31
0.0
  0
SPLINE
  5
C3
330
1F
100
AcDbEntity
  8
외형선
  6
Continuous
370
    15
100
AcDbSpline
210
0.0
220
0.0
230
1.0
 70
     8
 71
     3
 72
     8
 73
     4
 74
     0
 42
0.000000001
 43
0.00000001
 40
0.0
 40
0.0
 40
0.0
 40
0.0
 40
1.0
 40
1.0
 40
1.0
 40
1.0
 10
3.93301270189226
 20
-0.8811091821756015
 30
0.0
 10
3.597563451323154
 20
-0.6982724887565398
 30
0.0
 10
3.26779991089473
 20
-0.5099729262764351
 30
0.0
 10
2.933173611581971
 20
-0.3183978248675806
 30
0.0
  0
SPLINE
  5
C4
330
1F
100
AcDbEntity
  8
외형선
  6
Continuous
370
    15
100
AcDbSpline
210
0.0
220
0.0
230
1.0
 70
     8
 71
     3
 72
     8
 73
     4
 74
     0
 42
0.000000001
 43
0.00000001
 40
0.0
 40
0.0
 40
0.0
 40
0.0
 40
1.0
 40
1.0
 40
1.0
 40
1.0
 10
3.933012701892245
 20
0.0710763236989669
 30
0.0
 10
3.597563451323154
 20
0.2640527876271446
 30
0.0
 10
3.26779991089473
 20
0.455420277319446
 30
0.0
 10
2.933173611581985
 20
0.6429733193618801
 30
0.0
  0
SPLINE
  5
C5
330
1F
100
AcDbEntity
  8
외형선
  6
Continuous
370
    15
100
AcDbSpline
210
0.0
220
0.0
230
1.0
 70
     8
 71
     3
 72
     8
 73
     4
 74
     0
 42
0.000000001
 43
0.00000001
 40
0.0
 40
0.0
 40
0.0
 40
0.0
 40
1.0
 40
1.0
 40
1.0
 40
1.0
 10
3.93301270189226
 20
2.60573444475981
 30
0.0
 10
3.597563451323154
 20
2.667660245360873
 30
0.0
 10
3.26779991089473
 20
2.710047649018141
 30
0.0
 10
2.933173611581971
 20
2.732455012072361
 30
0.0
  0
SPLINE
  5
C6
330
1F
100
AcDbEntity
  8
외형선
  6
Continuous
370
    15
100
AcDbSpline
210
0.0
220
0.0
230
1.0
 70
    24
 71
     3
 72
    14
 73
    10
 74
     0
 42
0.000000001
 43
0.00000001
 40
0.0
 40
0.0
 40
0.0
 40
0.0
 40
0.024081087907716
 40
0.2022961797870287
 40
0.3805112716663285
 40
0.5587263635456264
 40
0.7369414554249069
 40
0.9151565473042259
 40
1.0
 40
1.0
 40
1.0
 40
1.0
 10
3.933012701892231
 20
0.0710763236989697
 30
0.0
 10
3.933012701892245
 20
0.0752712505836342
 30
0.0
 10
3.933012701892302
 20
0.1105112566209695
 30
0.0
 10
3.933012701892245
 20
0.3488890419065667
 30
0.0
 10
3.933012701892217
 20
0.7630976084113512
 30
0.0
 10
3.933012701892373
 20
1.293191225722222
 30
0.0
 10
3.933012701892167
 20
1.855158314427251
 30
0.0
 10
3.933012701892331
 20
2.304285161027851
 30
0.0
 10
3.933012701892231
 20
2.532219494443011
 30
0.0
 10
3.933012701892203
 20
2.605734444759827
 30
0.0
  0
SPLINE
  5
C7
330
1F
100
AcDbEntity
  8
외형선
  6
Continuous
370
    15
100
AcDbSpline
210
0.0
220
0.0
230
1.0
 70
     8
 71
     3
 72
     8
 73
     4
 74
     0
 42
0.000000001
 43
0.00000001
 40
0.0
 40
0.0
 40
0.0
 40
0.0
 40
1.0
 40
1.0
 40
1.0
 40
1.0
 10
3.933012701892245
 20
-2.748033982305558
 30
0.0
 10
3.597563451323154
 20
-2.743120164006788
 30
0.0
 10
3.26779991089473
 20
-2.71798252076268
 30
0.0
 10
2.933173611581985
 20
-2.672960683622424
 30
0.0
  0
SPLINE
  5
C8
330
1F
100
AcDbEntity
  8
외형선
  6
Continuous
370
    15
100
AcDbSpline
210
0.0
220
0.0
230
1.0
 70
    24
 71
     3
 72
    11
 73
     7
 74
     0
 42
0.000000001
 43
0.00000001
 40
0.0
 40
0.0
 40
0.0
 40
0.0
 40
0.2839187399836348
 40
0.55927086669566
 40
0.8346229934077333
 40
1.0
 40
1.0
 40
1.0
 40
1.0
 10
3.933012701892245
 20
-2.748033982305558
 30
0.0
 10
3.933012701892217
 20
-2.560362957303334
 30
0.0
 10
3.933012701892153
 20
-2.190683460935088
 30
0.0
 10
3.933012701892274
 20
-1.631499564061086
 30
0.0
 10
3.933012701892231
 20
-1.192367204182658
 30
0.0
 10
3.933012701892231
 20
-1.010899584634621
 30
0.0
 10
3.933012701892245
 20
-0.9428065781903313
 30
0.0
  0
LINE
  5
C9
330
1F
100
AcDbEntity
  8
중심선
100
AcDbLine
 10
-76.06698729810776
 20
0.0010749287238949
 30
0.0
 11
19.93301270189225
 21
0.001074928723891
 31
0.0
  0
LINE
  5
CA
330
1F
100
AcDbEntity
  8
참조1
100
AcDbLine
 10
-48.06750066566399
 20
-2.498925071276079
 30
0.0
 11
-48.06750066566398
 21
-39.9989250712761
 31
0.0
  0
LINE
  5
CB
330
1F
100
AcDbEntity
  8
참조1
100
AcDbLine
 10
-48.06750066566398
 20
-39.9989250712761
 30
0.0
 11
-63.22584411241643
 21
-39.9989250712761
 31
0.0
  0
CIRCLE
  5
CC
330
1F
100
AcDbEntity
  8
해칭선
100
AcDbCircle
 10
0.0
 20
0.0
 30
0.0
 40
2.999999999999997
  0
INSERT
  5
CD
330
1F
100
AcDbEntity
  8
0
  6
Continuous
 62
     7
100
AcDbBlockReference
 66
     1
  2
블럭10
 10
-42.12978418193461
 20
-52.04609937292004
 30
0.0
  0
ATTRIB
  5
CE
330
CD
100
AcDbEntity
  8
FORMAT
 62
     2
100
AcDbText
 10
-58.24904522137015
 20
-49.97073246008785
 30
0.0
 40
4.233333333333333
  1
SEME0105502E [ 4 FLUTE ]
 41
0.75
  7
SLDTEXTSTYLE0
 11
-58.24904522137015
 21
-52.08739912675451
 31
0.0
100
AcDbAttribute
  2
AUTOATTR0
 70
     0
 74
     1
  0
SEQEND
  5
CF
330
CD
100
AcDbEntity
  8
0
  6
Continuous
 62
     7
  0
HATCH
  5
D0
330
1F
100
AcDbEntity
  8
중심선
100
AcDbHatch
 10
0.0
 20
0.0
 30
0.0
210
0.0
220
0.0
230
1.0
  2
SOLID
 70
     1
 71
     0
 91
        1
 92
        0
 93
        4
 72
     1
 10
-36.41487487755376
 20
-35.7989250712761
 11
-39.86115012139103
 21
-35.7989250712761
 72
     1
 10
-39.86115012139103
 20
-35.7989250712761
 11
-41.98937998059506
 21
-38.3352506518487
 72
     1
 10
-41.98937998059506
 20
-38.3352506518487
 11
-38.54307165164463
 21
-38.33521122254621
 72
     1
 10
-38.54307165164463
 20
-38.33521122254621
 11
-36.41487487755376
 21
-35.7989250712761
 97
        0
 75
     0
 76
     1
 98
        1
 10
-12.4138690128496
 20
0.0010749287238949
  0
HATCH
  5
D1
330
1F
100
AcDbEntity
  8
중심선
100
AcDbHatch
 10
0.0
 20
0.0
 30
0.0
210
0.0
220
0.0
230
1.0
  2
SOLID
 70
     1
 71
     0
 91
        1
 92
        0
 93
        4
 72
     1
 10
-31.4021108865178
 20
-35.7989250712761
 11
-34.84838613035509
 21
-35.7989250712761
 72
     1
 10
-34.84838613035509
 20
-35.7989250712761
 11
-39.37952413871248
 21
-41.19892507127612
 72
     1
 10
-39.37952413871248
 20
-41.19892507127612
 11
-35.93324889487519
 21
-41.19892507127612
 72
     1
 10
-35.93324889487519
 20
-41.19892507127612
 11
-31.4021108865178
 21
-35.7989250712761
 97
        0
 75
     0
 76
     1
 98
        1
 10
-12.4138690128496
 20
0.0010749287238949
  0
HATCH
  5
D2
330
1F
100
AcDbEntity
  8
중심선
100
AcDbHatch
 10
0.0
 20
0.0
 30
0.0
210
0.0
220
0.0
230
1.0
  2
SOLID
 70
     1
 71
     0
 91
        1
 92
        0
 93
        4
 72
     1
 10
-26.38934689548191
 20
-35.79892507127613
 11
-29.83562213931902
 21
-35.7989250712761
 72
     1
 10
-29.83562213931903
 20
-35.7989250712761
 11
-36.88405904120827
 21
-44.19892507127612
 72
     1
 10
-36.88405904120827
 20
-44.19892507127612
 11
-33.437783797371
 21
-44.19892507127612
 72
     1
 10
-33.437783797371
 20
-44.19892507127612
 11
-26.38934689548191
 21
-35.79892507127613
 97
        0
 75
     0
 76
     1
 98
        1
 10
-12.4138690128496
 20
0.0010749287238949
  0
HATCH
  5
D3
330
1F
100
AcDbEntity
  8
중심선
100
AcDbHatch
 10
0.0
 20
0.0
 30
0.0
210
0.0
220
0.0
230
1.0
  2
SOLID
 70
     1
 71
     0
 91
        1
 92
        0
 93
        6
 72
     3
 10
-21.58945646446971
 20
-39.99892507132738
 11
3.960054785062283
 21
1.540882976769353E-10
 40
0.3939339440162628
 50
17.09539180608439
 51
320.0019657685082
 73
     0
 72
     1
 10
-19.90645680876911
 20
-38.58681907591441
 11
-17.60115493506808
 21
-36.65249236586649
 72
     3
 10
-21.58945646452256
 20
-39.99892507127625
 11
6.600054785286829
 21
-1.278976924368180E-13
 40
0.636358354079598
 50
39.99873849337413
 51
368.4976242363725
 73
     1
 72
     1
 10
-15.16412397262195
 20
-39.03892507120612
 11
-22.90938915768664
 21
-39.03892507120609
 72
     1
 10
-22.90938915768663
 20
-39.03892507120609
 11
-22.90941420213257
 21
-40.95892507120602
 72
     1
 10
-22.90941420213257
 20
-40.95892507120602
 11
-18.46803443266053
 21
-40.95892507120599
 97
        0
 75
     0
 76
     1
 98
        1
 10
-12.4138690128496
 20
0.0010749287238949
  0
DIMENSION
  5
D4
330
1F
100
AcDbEntity
  8
치수문자_일반주서
100
AcDbDimension
  2
_D
 10
26.93301270189226
 20
-2.748925071276073
 30
0.0
 11
26.9330127018922
 21
15.26132492872396
 31
0.0
 70
   160
  1
%%c<>
 71
     2
 42
5.5
 52
-270.0
  3
SLDDIMSTYLE0
100
AcDbAlignedDimension
 13
16.93301270189225
 23
2.751074928723891
 33
0.0
 14
16.93301270189225
 24
-2.748925071276109
 34
0.0
 50
90.0000000000002
100
AcDbRotatedDimension
1001
PE_URL
1000

1001
ACAD
1000
DSTYLE
1002
{
1070
   271
1070
     1
1002
}
  0
DIMENSION
  5
E2
330
1F
100
AcDbEntity
  8
치수문자_일반주서
100
AcDbDimension
  2
_D_1
 10
-83.06698729810775
 20
-2.998925071276147
 30
0.0
 11
-83.06698729810779
 21
12.66757492872386
 31
0.0
 70
   160
  1
%%c<>
 71
     2
 42
6.000000000000005
 52
-270.0
  3
SLDDIMSTYLE1
100
AcDbAlignedDimension
 13
-72.46698729810777
 23
3.001074928723898
 33
0.0
 14
-72.46698729810777
 24
-2.998925071276108
 34
0.0
 50
90.0000000000002
100
AcDbRotatedDimension
  0
DIMENSION
  5
F0
330
1F
100
AcDbEntity
  8
치수문자_일반주서
100
AcDbDimension
  2
_D_2
 10
3.933012701892245
 20
13.0010749287239
 30
0.0
 11
10.43301270189224
 21
13.0010749287239
 31
0.0
 70
   160
  1
<>
 71
     2
 42
13.0
  3
SLDDIMSTYLE1
100
AcDbAlignedDimension
 13
16.93301270189225
 23
2.751074928723891
 33
0.0
 14
3.933012701892245
 24
2.751074928723895
 34
0.0
100
AcDbRotatedDimension
  0
DIMENSION
  5
FC
330
1F
100
AcDbEntity
  8
치수문자_일반주서
100
AcDbDimension
  2
_D_3
 10
-73.06698729810776
 20
23.0010749287239
 30
0.0
 11
-28.06698729810775
 21
23.0010749287239
 31
0.0
 70
   160
  1
<>
 71
     2
 42
90.0
  3
SLDDIMSTYLE2
100
AcDbAlignedDimension
 13
16.93301270189225
 23
2.751074928723891
 33
0.0
 14
-73.06698729810776
 24
2.401074928723897
 34
0.0
 50
0.0000000000000045
100
AcDbRotatedDimension
  0
LINE
  5
107
330
1F
100
AcDbEntity
  8
참조1
100
AcDbLine
 10
34.74649651723784
 20
7.441074928723897
 30
0.0
 11
34.74649651723784
 21
-7.438925071276107
 31
0.0
  0
LINE
  5
108
330
1F
100
AcDbEntity
  8
참조1
100
AcDbLine
 10
47.44649651723784
 20
5.441074928723897
 30
0.0
 11
34.74649651723784
 21
5.441074928723897
 31
0.0
  0
SOLID
  5
109
330
1F
100
AcDbEntity
  8
참조1
100
AcDbTrace
 10
34.74649651723784
 20
5.441074928723897
 30
0.0
 11
41.09649651723783
 21
4.425074928723897
 31
0.0
 12
41.09649651723783
 22
6.457074928723897
 32
0.0
 13
41.09649651723783
 23
6.457074928723897
 33
0.0
  0
LINE
  5
10A
330
1F
100
AcDbEntity
  8
참조1
100
AcDbLine
 10
47.44649651723784
 20
-5.438925071276107
 30
0.0
 11
34.74649651723784
 21
-5.438925071276107
 31
0.0
  0
SOLID
  5
10B
330
1F
100
AcDbEntity
  8
참조1
100
AcDbTrace
 10
34.74649651723784
 20
-5.438925071276107
 30
0.0
 11
41.09649651723783
 21
-6.454925071276107
 31
0.0
 12
41.09649651723783
 22
-4.422925071276107
 32
0.0
 13
41.09649651723783
 23
-4.422925071276107
 33
0.0
  0
MTEXT
  5
10C
330
1F
100
AcDbEntity
  8
참조1
100
AcDbMText
 10
44.14398660970812
 20
10.98929157337383
 30
0.0
 40
3.5
 41
0.0
 71
     1
 72
     1
  1
A
  7
SLDTEXTSTYLE0
 73
     1
 44
1.0
  0
MTEXT
  5
10D
330
1F
100
AcDbEntity
  8
참조1
100
AcDbMText
 10
44.14398660970812
 20
0.1092915733738277
 30
0.0
 40
3.5
 41
0.0
 71
     1
 72
     1
  1
A
  7
SLDTEXTSTYLE0
 73
     1
 44
1.0
  0
INSERT
  5
114
330
1F
100
AcDbEntity
  8
해칭선
100
AcDbBlockReference
  2
SW_DOWELSYMBOL_0
 10
0.0
 20
0.0
 30
0.0
  0
ARC
  5
1BD
330
1F
100
AcDbEntity
  8
0
  6
Continuous
 62
     1
370
    15
100
AcDbCircle
 10
16.73301270189224
 20
2.543219692501123
 30
0.0
 40
0.2
100
AcDbArc
 50
0.0
 51
94.49840666888855
1001
PE_URL
1000

  0
ARC
  5
1BE
102
{ACAD_REACTORS
102
}
330
1F
100
AcDbEntity
  8
0
  6
Continuous
 62
     1
370
    15
100
AcDbCircle
 10
16.73301270189224
 20
-2.54106983505334
 30
0.0
 40
0.2
100
AcDbArc
 50
265.5015933311115
 51
0.0
1001
PE_URL
1000

  0
DIMENSION
  5
1BF
102
{ACAD_REACTORS
102
}
102
{ACAD_XDICTIONARY
360
1C0
102
}
330
1F
100
AcDbEntity
  8
치수문자_일반주서
100
AcDbDimension
  2
*D12
 10
16.73301270189224
 20
-2.54106983505334
 30
0.0
 11
24.43104911882261
 21
-15.26760679348152
 31
0.0
 70
   164
 71
     5
 42
0.2000000000000001
  3
SLDDIMSTYLE1
100
AcDbRadialDimension
 15
16.83652533076417
 25
-2.712198838042381
 35
0.0
 40
0.0
1001
ACAD
1000
DSTYLE
1002
{
1070
    78
1070
     8
1002
}
1001
ACAD_DSTYLE_DIMRADIAL_EXTENSION
1070
   387
1070
     1
1070
   388
1040
4.633876972918914
1070
   390
1040
0.0
1001
PE_URL
1000

  0
ENDSEC
  0
SECTION
  2
OBJECTS
  0
DICTIONARY
  5
C
330
0
100
AcDbDictionary
281
     1
  3
ACAD_GROUP
350
D
  3
ACAD_LAYOUT
350
1A
  3
ACAD_MLINESTYLE
350
17
  3
ACAD_PLOTSETTINGS
350
19
  3
ACAD_PLOTSTYLENAME
350
E
  3
ACAD_SCALELIST
350
47
  3
APPDATA
350
136
  3
DWGPROPS
350
1CD
  0
DICTIONARY
  5
17D
330
2
100
AcDbDictionary
280
     1
281
     1
  3
ACAD_LAYERSTATES
360
17E
  0
DICTIONARY
  5
1C0
330
1BF
100
AcDbDictionary
280
     1
281
     1
  0
DICTIONARY
  5
D
102
{ACAD_REACTORS
330
C
102
}
330
C
100
AcDbDictionary
281
     1
  0
DICTIONARY
  5
1A
102
{ACAD_REACTORS
330
C
102
}
330
C
100
AcDbDictionary
281
     1
  3
Layout1
350
1E
  3
Layout2
350
26
  3
Model
350
22
  0
DICTIONARY
  5
17
102
{ACAD_REACTORS
330
C
102
}
330
C
100
AcDbDictionary
281
     1
  3
Standard
350
18
  0
DICTIONARY
  5
19
102
{ACAD_REACTORS
330
C
102
}
330
C
100
AcDbDictionary
281
     1
  0
ACDBDICTIONARYWDFLT
  5
E
102
{ACAD_REACTORS
330
C
102
}
330
C
100
AcDbDictionary
281
     1
  3
Normal
350
F
100
AcDbDictionaryWithDefault
340
F
  0
DICTIONARY
  5
47
102
{ACAD_REACTORS
330
C
102
}
330
C
100
AcDbDictionary
281
     1
  3
A0
350
48
  3
A1
350
49
  3
A2
350
4A
  3
A3
350
4B
  3
A4
350
4C
  3
A5
350
4D
  3
A6
350
4E
  3
A7
350
4F
  3
A8
350
50
  3
A9
350
51
  3
B0
350
52
  3
B1
350
53
  3
B2
350
54
  3
B3
350
55
  3
B4
350
56
  3
B5
350
57
  3
B6
350
58
  3
B7
350
59
  3
B8
350
5A
  3
B9
350
5B
  3
C0
350
5C
  3
C1
350
5D
  3
C2
350
5E
  3
C3
350
5F
  3
C4
350
60
  3
C5
350
61
  3
C6
350
62
  3
C7
350
63
  3
C8
350
64
  3
C9
350
65
  3
D0
350
66
  3
D1
350
67
  3
D2
350
68
  0
DICTIONARY
  5
136
102
{ACAD_REACTORS
330
C
102
}
330
C
100
AcDbDictionary
281
     1
  0
XRECORD
  5
1CD
102
{ACAD_REACTORS
330
C
102
}
330
C
100
AcDbXrecord
280
     1
  1
DWGPROPS COOKIE
  2

  3

  4

  6

  7

  8
12017044
  9

300
=
301
=
302
=
303
=
304
=
305
=
306
=
307
=
308
=
309
=
 40
0.0
 41
2458269.433698495
 42
2458270.403215625
  1

 90
        0
  0
DICTIONARY
  5
17E
102
{ACAD_REACTORS
330
17D
102
}
330
17D
100
AcDbDictionary
281
     1
  0
LAYOUT
  5
1E
102
{ACAD_REACTORS
330
1A
102
}
330
1A
100
AcDbPlotSettings
  1

  2
none_device
  4

  6

 40
0.0
 41
0.0
 42
0.0
 43
0.0
 44
0.0
 45
0.0
 46
0.0
 47
0.0
 48
0.0
 49
0.0
140
0.0
141
0.0
142
1.0
143
1.0
 70
   688
 72
     1
 73
     0
 74
     5
  7

 75
    16
147
1.0
148
0.0
149
0.0
100
AcDbLayout
  1
Layout1
 70
     1
 71
     1
 10
0.0
 20
0.0
 11
420.0
 21
297.0
 12
0.0
 22
0.0
 32
0.0
 14
1.000000000000000E+20
 24
1.000000000000000E+20
 34
1.000000000000000E+20
 15
-1.000000000000000E+20
 25
-1.000000000000000E+20
 35
-1.000000000000000E+20
146
0.0
 13
0.0
 23
0.0
 33
0.0
 16
1.0
 26
0.0
 36
0.0
 17
0.0
 27
1.0
 37
0.0
 76
     0
330
1B
  0
LAYOUT
  5
26
102
{ACAD_REACTORS
330
1A
102
}
330
1A
100
AcDbPlotSettings
  1

  2
none_device
  4

  6

 40
0.0
 41
0.0
 42
0.0
 43
0.0
 44
0.0
 45
0.0
 46
0.0
 47
0.0
 48
0.0
 49
0.0
140
0.0
141
0.0
142
1.0
143
1.0
 70
   688
 72
     1
 73
     0
 74
     5
  7

 75
    16
147
1.0
148
0.0
149
0.0
100
AcDbLayout
  1
Layout2
 70
     1
 71
     2
 10
0.0
 20
0.0
 11
0.0
 21
0.0
 12
0.0
 22
0.0
 32
0.0
 14
0.0
 24
0.0
 34
0.0
 15
0.0
 25
0.0
 35
0.0
146
0.0
 13
0.0
 23
0.0
 33
0.0
 16
1.0
 26
0.0
 36
0.0
 17
0.0
 27
1.0
 37
0.0
 76
     0
330
23
  0
LAYOUT
  5
22
102
{ACAD_REACTORS
330
1A
102
}
330
1A
100
AcDbPlotSettings
  1

  2
none_device
  4
ANSI_A_(11.00_x_8.50_Inches)
  6

 40
6.35
 41
19.05
 42
6.35000508
 43
19.05000254
 44
279.4
 45
215.9
 46
111.6855150645388
 47
107.7564500449888
 48
0.0
 49
0.0
140
0.0
141
0.0
142
0.0789824718862547
143
1.0
 70
  1696
 72
     0
 73
     0
 74
     0
  7

 75
     0
147
0.0235690232323232
148
0.0
149
0.0
100
AcDbLayout
  1
Model
 70
     1
 71
     0
 10
0.0
 20
0.0
 11
420.0
 21
297.0
 12
0.0
 22
0.0
 32
0.0
 14
-87.4419872981078
 24
-49.97073246008785
 34
0.0
 15
47.44649651723785
 25
27.37607492872389
 35
0.0
146
0.0
 13
0.0
 23
0.0
 33
0.0
 16
1.0
 26
0.0
 36
0.0
 17
0.0
 27
1.0
 37
0.0
 76
     0
330
1F
331
29
  0
MLINESTYLE
  5
18
102
{ACAD_REACTORS
330
17
102
}
330
17
100
AcDbMlineStyle
  2
Standard
 70
     0
  3

 62
   256
 51
90.0
 52
90.0
 71
     2
 49
0.5
 62
   256
  6
BYLAYER
 49
-0.5
 62
   256
  6
BYLAYER
  0
ACDBPLACEHOLDER
  5
F
102
{ACAD_REACTORS
330
E
102
}
330
E
  0
SCALE
  5
48
102
{ACAD_REACTORS
330
47
102
}
330
47
100
AcDbScale
 70
     0
300
1:1
140
1.0
141
1.0
290
     1
  0
SCALE
  5
49
102
{ACAD_REACTORS
330
47
102
}
330
47
100
AcDbScale
 70
     0
300
1:2
140
1.0
141
2.0
290
     0
  0
SCALE
  5
4A
102
{ACAD_REACTORS
330
47
102
}
330
47
100
AcDbScale
 70
     0
300
1:4
140
1.0
141
4.0
290
     0
  0
SCALE
  5
4B
102
{ACAD_REACTORS
330
47
102
}
330
47
100
AcDbScale
 70
     0
300
1:5
140
1.0
141
5.0
290
     0
  0
SCALE
  5
4C
102
{ACAD_REACTORS
330
47
102
}
330
47
100
AcDbScale
 70
     0
300
1:8
140
1.0
141
8.0
290
     0
  0
SCALE
  5
4D
102
{ACAD_REACTORS
330
47
102
}
330
47
100
AcDbScale
 70
     0
300
1:10
140
1.0
141
10.0
290
     0
  0
SCALE
  5
4E
102
{ACAD_REACTORS
330
47
102
}
330
47
100
AcDbScale
 70
     0
300
1:16
140
1.0
141
16.0
290
     0
  0
SCALE
  5
4F
102
{ACAD_REACTORS
330
47
102
}
330
47
100
AcDbScale
 70
     0
300
1:20
140
1.0
141
20.0
290
     0
  0
SCALE
  5
50
102
{ACAD_REACTORS
330
47
102
}
330
47
100
AcDbScale
 70
     0
300
1:30
140
1.0
141
30.0
290
     0
  0
SCALE
  5
51
102
{ACAD_REACTORS
330
47
102
}
330
47
100
AcDbScale
 70
     0
300
1:40
140
1.0
141
40.0
290
     0
  0
SCALE
  5
52
102
{ACAD_REACTORS
330
47
102
}
330
47
100
AcDbScale
 70
     0
300
1:50
140
1.0
141
50.0
290
     0
  0
SCALE
  5
53
102
{ACAD_REACTORS
330
47
102
}
330
47
100
AcDbScale
 70
     0
300
1:100
140
1.0
141
100.0
290
     0
  0
SCALE
  5
54
102
{ACAD_REACTORS
330
47
102
}
330
47
100
AcDbScale
 70
     0
300
2:1
140
2.0
141
1.0
290
     0
  0
SCALE
  5
55
102
{ACAD_REACTORS
330
47
102
}
330
47
100
AcDbScale
 70
     0
300
4:1
140
4.0
141
1.0
290
     0
  0
SCALE
  5
56
102
{ACAD_REACTORS
330
47
102
}
330
47
100
AcDbScale
 70
     0
300
8:1
140
8.0
141
1.0
290
     0
  0
SCALE
  5
57
102
{ACAD_REACTORS
330
47
102
}
330
47
100
AcDbScale
 70
     0
300
10:1
140
10.0
141
1.0
290
     0
  0
SCALE
  5
58
102
{ACAD_REACTORS
330
47
102
}
330
47
100
AcDbScale
 70
     0
300
100:1
140
100.0
141
1.0
290
     0
  0
SCALE
  5
59
102
{ACAD_REACTORS
330
47
102
}
330
47
100
AcDbScale
 70
     0
300
1/128" = 1'-0"
140
0.0078125
141
12.0
290
     0
  0
SCALE
  5
5A
102
{ACAD_REACTORS
330
47
102
}
330
47
100
AcDbScale
 70
     0
300
1/64" = 1'-0"
140
0.015625
141
12.0
290
     0
  0
SCALE
  5
5B
102
{ACAD_REACTORS
330
47
102
}
330
47
100
AcDbScale
 70
     0
300
1/32" = 1'-0"
140
0.03125
141
12.0
290
     0
  0
SCALE
  5
5C
102
{ACAD_REACTORS
330
47
102
}
330
47
100
AcDbScale
 70
     0
300
1/16" = 1'-0"
140
0.0625
141
12.0
290
     0
  0
SCALE
  5
5D
102
{ACAD_REACTORS
330
47
102
}
330
47
100
AcDbScale
 70
     0
300
3/32" = 1'-0"
140
0.09375
141
12.0
290
     0
  0
SCALE
  5
5E
102
{ACAD_REACTORS
330
47
102
}
330
47
100
AcDbScale
 70
     0
300
1/8" = 1'-0"
140
0.125
141
12.0
290
     0
  0
SCALE
  5
5F
102
{ACAD_REACTORS
330
47
102
}
330
47
100
AcDbScale
 70
     0
300
3/16" = 1'-0"
140
0.1875
141
12.0
290
     0
  0
SCALE
  5
60
102
{ACAD_REACTORS
330
47
102
}
330
47
100
AcDbScale
 70
     0
300
1/4" = 1'-0"
140
0.25
141
12.0
290
     0
  0
SCALE
  5
61
102
{ACAD_REACTORS
330
47
102
}
330
47
100
AcDbScale
 70
     0
300
3/8" = 1'-0"
140
0.375
141
12.0
290
     0
  0
SCALE
  5
62
102
{ACAD_REACTORS
330
47
102
}
330
47
100
AcDbScale
 70
     0
300
1/2" = 1'-0"
140
0.5
141
12.0
290
     0
  0
SCALE
  5
63
102
{ACAD_REACTORS
330
47
102
}
330
47
100
AcDbScale
 70
     0
300
3/4" = 1'-0"
140
0.75
141
12.0
290
     0
  0
SCALE
  5
64
102
{ACAD_REACTORS
330
47
102
}
330
47
100
AcDbScale
 70
     0
300
1" = 1'-0"
140
1.0
141
12.0
290
     0
  0
SCALE
  5
65
102
{ACAD_REACTORS
330
47
102
}
330
47
100
AcDbScale
 70
     0
300
1-1/2" = 1'-0"
140
1.5
141
12.0
290
     0
  0
SCALE
  5
66
102
{ACAD_REACTORS
330
47
102
}
330
47
100
AcDbScale
 70
     0
300
3" = 1'-0"
140
3.0
141
12.0
290
     0
  0
SCALE
  5
67
102
{ACAD_REACTORS
330
47
102
}
330
47
100
AcDbScale
 70
     0
300
6" = 1'-0"
140
6.0
141
12.0
290
     0
  0
SCALE
  5
68
102
{ACAD_REACTORS
330
47
102
}
330
47
100
AcDbScale
 70
     0
300
1'-0" = 1'-0"
140
12.0
141
12.0
290
     0
  0
ENDSEC
  0
EOF
