  0
SECTION
  2
HEADER
  9
$ACADVER
  1
AC1015
  9
$ACADMAINTVER
 70
     6
  9
$DWGCODEPAGE
  3
ANSI_949
  9
$INSBASE
 10
0.0
 20
0.0
 30
0.0
  9
$EXTMIN
 10
-77.57596189432338
 20
-49.97073246008785
 30
0.0
  9
$EXTMAX
 10
57.31252192102227
 20
27.37607492872389
 30
0.0
  9
$LIMMIN
 10
0.0
 20
0.0
  9
$LIMMAX
 10
420.0
 20
297.0
  9
$ORTHOMODE
 70
     1
  9
$REGENMODE
 70
     1
  9
$FILLMODE
 70
     1
  9
$QTEXTMODE
 70
     0
  9
$MIRRTEXT
 70
     1
  9
$LTSCALE
 40
1.0
  9
$ATTMODE
 70
     1
  9
$TEXTSIZE
 40
3.5
  9
$TRACEWID
 40
1.0
  9
$TEXTSTYLE
  7
Standard
  9
$CLAYER
  8
0
  9
$CELTYPE
  6
ByLayer
  9
$CECOLOR
 62
   256
  9
$CELTSCALE
 40
1.0
  9
$DISPSILH
 70
     0
  9
$DIMSCALE
 40
1.0
  9
$DIMASZ
 40
3.302
  9
$DIMEXO
 40
1.0
  9
$DIMDLI
 40
3.75
  9
$DIMRND
 40
0.0
  9
$DIMDLE
 40
0.0
  9
$DIMEXE
 40
1.0
  9
$DIMTP
 40
0.0
  9
$DIMTM
 40
0.0
  9
$DIMTXT
 40
3.5
  9
$DIMCEN
 40
2.5
  9
$DIMTSZ
 40
0.0
  9
$DIMTOL
 70
     0
  9
$DIMLIM
 70
     0
  9
$DIMTIH
 70
     1
  9
$DIMTOH
 70
     1
  9
$DIMSE1
 70
     0
  9
$DIMSE2
 70
     0
  9
$DIMTAD
 70
     1
  9
$DIMZIN
 70
     0
  9
$DIMBLK
  1

  9
$DIMASO
 70
     1
  9
$DIMSHO
 70
     1
  9
$DIMPOST
  1

  9
$DIMAPOST
  1

  9
$DIMALT
 70
     0
  9
$DIMALTD
 70
     3
  9
$DIMALTF
 40
0.0393700787401575
  9
$DIMLFAC
 40
1.0
  9
$DIMTOFL
 70
     1
  9
$DIMTVP
 40
0.0
  9
$DIMTIX
 70
     0
  9
$DIMSOXD
 70
     0
  9
$DIMSAH
 70
     0
  9
$DIMBLK1
  1

  9
$DIMBLK2
  1

  9
$DIMSTYLE
  2
ISO-25
  9
$DIMCLRD
 70
     0
  9
$DIMCLRE
 70
     0
  9
$DIMCLRT
 70
     0
  9
$DIMTFAC
 40
1.0
  9
$DIMGAP
 40
1.524
  9
$DIMJUST
 70
     0
  9
$DIMSD1
 70
     0
  9
$DIMSD2
 70
     0
  9
$DIMTOLJ
 70
     0
  9
$DIMTZIN
 70
     0
  9
$DIMALTZ
 70
     0
  9
$DIMALTTZ
 70
     0
  9
$DIMUPT
 70
     0
  9
$DIMDEC
 70
     2
  9
$DIMTDEC
 70
     2
  9
$DIMALTU
 70
     2
  9
$DIMALTTD
 70
     3
  9
$DIMTXSTY
  7
Standard
  9
$DIMAUNIT
 70
     0
  9
$DIMADEC
 70
     2
  9
$DIMALTRND
 40
0.0
  9
$DIMAZIN
 70
     0
  9
$DIMDSEP
 70
    44
  9
$DIMATFIT
 70
     3
  9
$DIMFRAC
 70
     0
  9
$DIMLDRBLK
  1

  9
$DIMLUNIT
 70
     2
  9
$DIMLWD
 70
    -2
  9
$DIMLWE
 70
    -2
  9
$DIMTMOVE
 70
     0
  9
$LUNITS
 70
     2
  9
$LUPREC
 70
     2
  9
$SKETCHINC
 40
1.0
  9
$FILLETRAD
 40
10.0
  9
$AUNITS
 70
     0
  9
$AUPREC
 70
     2
  9
$MENU
  1
.
  9
$ELEVATION
 40
0.0
  9
$PELEVATION
 40
0.0
  9
$THICKNESS
 40
0.0
  9
$LIMCHECK
 70
     0
  9
$CHAMFERA
 40
0.0
  9
$CHAMFERB
 40
0.0
  9
$CHAMFERC
 40
0.0
  9
$CHAMFERD
 40
0.0
  9
$SKPOLY
 70
     0
  9
$TDCREATE
 40
2458269.807185984
  9
$TDUCREATE
 40
2458269.432185984
  9
$TDUPDATE
 40
2458270.759984907
  9
$TDUUPDATE
 40
2458270.384984907
  9
$TDINDWG
 40
0.0015518519
  9
$TDUSRTIMER
 40
0.0015518403
  9
$USRTIMER
 70
     1
  9
$ANGBASE
 50
0.0
  9
$ANGDIR
 70
     0
  9
$PDMODE
 70
     0
  9
$PDSIZE
 40
-1.0
  9
$PLINEWID
 40
0.0
  9
$SPLFRAME
 70
     0
  9
$SPLINETYPE
 70
     6
  9
$SPLINESEGS
 70
     8
  9
$HANDSEED
  5
1D8
  9
$SURFTAB1
 70
     6
  9
$SURFTAB2
 70
     6
  9
$SURFTYPE
 70
     6
  9
$SURFU
 70
     6
  9
$SURFV
 70
     6
  9
$UCSBASE
  2

  9
$UCSNAME
  2

  9
$UCSORG
 10
0.0
 20
0.0
 30
0.0
  9
$UCSXDIR
 10
1.0
 20
0.0
 30
0.0
  9
$UCSYDIR
 10
0.0
 20
1.0
 30
0.0
  9
$UCSORTHOREF
  2

  9
$UCSORTHOVIEW
 70
     0
  9
$UCSORGTOP
 10
0.0
 20
0.0
 30
0.0
  9
$UCSORGBOTTOM
 10
0.0
 20
0.0
 30
0.0
  9
$UCSORGLEFT
 10
0.0
 20
0.0
 30
0.0
  9
$UCSORGRIGHT
 10
0.0
 20
0.0
 30
0.0
  9
$UCSORGFRONT
 10
0.0
 20
0.0
 30
0.0
  9
$UCSORGBACK
 10
0.0
 20
0.0
 30
0.0
  9
$PUCSBASE
  2

  9
$PUCSNAME
  2

  9
$PUCSORG
 10
0.0
 20
0.0
 30
0.0
  9
$PUCSXDIR
 10
1.0
 20
0.0
 30
0.0
  9
$PUCSYDIR
 10
0.0
 20
1.0
 30
0.0
  9
$PUCSORTHOREF
  2

  9
$PUCSORTHOVIEW
 70
     0
  9
$PUCSORGTOP
 10
0.0
 20
0.0
 30
0.0
  9
$PUCSORGBOTTOM
 10
0.0
 20
0.0
 30
0.0
  9
$PUCSORGLEFT
 10
0.0
 20
0.0
 30
0.0
  9
$PUCSORGRIGHT
 10
0.0
 20
0.0
 30
0.0
  9
$PUCSORGFRONT
 10
0.0
 20
0.0
 30
0.0
  9
$PUCSORGBACK
 10
0.0
 20
0.0
 30
0.0
  9
$USERI1
 70
     0
  9
$USERI2
 70
     0
  9
$USERI3
 70
     0
  9
$USERI4
 70
     0
  9
$USERI5
 70
     0
  9
$USERR1
 40
0.0
  9
$USERR2
 40
0.0
  9
$USERR3
 40
0.0
  9
$USERR4
 40
0.0
  9
$USERR5
 40
0.0
  9
$WORLDVIEW
 70
     1
  9
$SHADEDGE
 70
     3
  9
$SHADEDIF
 70
    70
  9
$TILEMODE
 70
     1
  9
$MAXACTVP
 70
    64
  9
$PINSBASE
 10
0.0
 20
0.0
 30
0.0
  9
$PLIMCHECK
 70
     0
  9
$PEXTMIN
 10
1.000000000000000E+20
 20
1.000000000000000E+20
 30
1.000000000000000E+20
  9
$PEXTMAX
 10
-1.000000000000000E+20
 20
-1.000000000000000E+20
 30
-1.000000000000000E+20
  9
$PLIMMIN
 10
0.0
 20
0.0
  9
$PLIMMAX
 10
0.0
 20
0.0
  9
$UNITMODE
 70
     0
  9
$VISRETAIN
 70
     1
  9
$PLINEGEN
 70
     0
  9
$PSLTSCALE
 70
     1
  9
$TREEDEPTH
 70
  3020
  9
$CMLSTYLE
  2
Standard
  9
$CMLJUST
 70
     0
  9
$CMLSCALE
 40
20.0
  9
$PROXYGRAPHICS
 70
     1
  9
$MEASUREMENT
 70
     1
  9
$CELWEIGHT
370
    -1
  9
$ENDCAPS
280
     0
  9
$JOINSTYLE
280
     0
  9
$LWDISPLAY
290
     1
  9
$INSUNITS
 70
     4
  9
$HYPERLINKBASE
  1

  9
$STYLESHEET
  1

  9
$XEDIT
290
     1
  9
$CEPSNTYPE
380
     0
  9
$PSTYLEMODE
290
     1
  9
$FINGERPRINTGUID
  2
{2EE3FEB1-3169-4C6B-B693-B93B6BCA72DD}
  9
$VERSIONGUID
  2
{FAEB1C32-E019-11D5-929B-00C0DF256EC4}
  9
$EXTNAMES
290
     1
  9
$PSVPSCALE
 40
0.0
  9
$OLESTARTUP
290
     0
  0
ENDSEC
  0
SECTION
  2
CLASSES
  0
CLASS
  1
ACDBDICTIONARYWDFLT
  2
AcDbDictionaryWithDefault
  3
ObjectDBX Classes
 90
        0
280
     0
281
     0
  0
CLASS
  1
VISUALSTYLE
  2
AcDbVisualStyle
  3
ObjectDBX Classes
 90
     4095
280
     0
281
     0
  0
CLASS
  1
MATERIAL
  2
AcDbMaterial
  3
ObjectDBX Classes
 90
     1153
280
     0
281
     0
  0
CLASS
  1
SCALE
  2
AcDbScale
  3
ObjectDBX Classes
 90
     1153
280
     0
281
     0
  0
CLASS
  1
SUN
  2
AcDbSun
  3
SCENEOE
 90
     1153
280
     0
281
     0
  0
CLASS
  1
ACDBPLACEHOLDER
  2
AcDbPlaceHolder
  3
ObjectDBX Classes
 90
        0
280
     0
281
     0
  0
CLASS
  1
LAYOUT
  2
AcDbLayout
  3
ObjectDBX Classes
 90
        0
280
     0
281
     0
  0
CLASS
  1
TABLESTYLE
  2
AcDbTableStyle
  3
ObjectDBX Classes
 90
     4095
280
     0
281
     0
  0
CLASS
  1
MLEADERSTYLE
  2
AcDbMLeaderStyle
  3
ACDB_MLEADERSTYLE_CLASS
 90
     4095
280
     0
281
     0
  0
CLASS
  1
DICTIONARYVAR
  2
AcDbDictionaryVar
  3
ObjectDBX Classes
 90
        0
280
     0
281
     0
  0
CLASS
  1
DIMASSOC
  2
AcDbDimAssoc
  3
"AcDbDimAssoc|Product Desc:     AcDim ARX App For Dimension|Company:          Autodesk, Inc.|WEB Address:      www.autodesk.com"
 90
        0
280
     0
281
     0
  0
ENDSEC
  0
SECTION
  2
TABLES
  0
TABLE
  2
VPORT
  5
8
330
0
100
AcDbSymbolTable
 70
     1
  0
VPORT
  5
29
330
8
100
AcDbSymbolTableRecord
100
AcDbViewportTableRecord
  2
*Active
 70
     0
 10
0.0
 20
0.0
 11
1.0
 21
1.0
 12
-10.13171998665057
 22
-11.29732876568197
 13
0.0
 23
0.0
 14
10.0
 24
10.0
 15
10.0
 25
10.0
 16
0.0
 26
0.0
 36
1.0
 17
0.0
 27
0.0
 37
0.0
 40
78.89374353658798
 41
2.003901170351105
 42
50.0
 43
0.0
 44
0.0
 50
0.0
 51
0.0
 71
    16
 72
  2000
 73
     1
 74
     3
 75
     0
 76
     0
 77
     0
 78
     0
281
     0
 65
     1
110
0.0
120
0.0
130
0.0
111
1.0
121
0.0
131
0.0
112
0.0
122
1.0
132
0.0
 79
     0
146
0.0
  0
ENDTAB
  0
TABLE
  2
LTYPE
  5
5
330
0
100
AcDbSymbolTable
 70
     6
  0
LTYPE
  5
14
330
5
100
AcDbSymbolTableRecord
100
AcDbLinetypeTableRecord
  2
ByBlock
 70
     0
  3

 72
    65
 73
     0
 40
0.0
  0
LTYPE
  5
15
330
5
100
AcDbSymbolTableRecord
100
AcDbLinetypeTableRecord
  2
ByLayer
 70
     0
  3

 72
    65
 73
     0
 40
0.0
  0
LTYPE
  5
16
330
5
100
AcDbSymbolTableRecord
100
AcDbLinetypeTableRecord
  2
Continuous
 70
     0
  3
Solid line
 72
    65
 73
     0
 40
0.0
  0
LTYPE
  5
6A
330
5
100
AcDbSymbolTableRecord
100
AcDbLinetypeTableRecord
  2
HIDDEN
 70
     0
  3
Hidden __ __ __ __ __ __ __ __ __ __ __ __ __ __
 72
    65
 73
     2
 40
1.905
 49
1.27
 74
     0
 49
-0.635
 74
     0
  0
LTYPE
  5
6B
330
5
100
AcDbSymbolTableRecord
100
AcDbLinetypeTableRecord
  2
PHANTOM
 70
     0
  3
Phantom ______  __  __  ______  __  __  ______
 72
    65
 73
     6
 40
12.7
 49
6.35
 74
     0
 49
-1.27
 74
     0
 49
1.27
 74
     0
 49
-1.27
 74
     0
 49
1.27
 74
     0
 49
-1.27
 74
     0
  0
LTYPE
  5
6C
330
5
100
AcDbSymbolTableRecord
100
AcDbLinetypeTableRecord
  2
CENTER
 70
     0
  3
Center ____ _ ____ _ ____ _ ____ _ ____ _ ____
 72
    65
 73
     4
 40
10.16
 49
6.35
 74
     0
 49
-1.27
 74
     0
 49
1.27
 74
     0
 49
-1.27
 74
     0
  0
LTYPE
  5
6D
330
5
100
AcDbSymbolTableRecord
100
AcDbLinetypeTableRecord
  2
CENTERX2
 70
     0
  3
Center (2x) ________  __  ________  __  _____
 72
    65
 73
     4
 40
20.32
 49
12.7
 74
     0
 49
-2.54
 74
     0
 49
2.54
 74
     0
 49
-2.54
 74
     0
  0
LTYPE
  5
6E
330
5
100
AcDbSymbolTableRecord
100
AcDbLinetypeTableRecord
  2
DOT2
 70
     0
  3
Dot (.5x) ........................................
 72
    65
 73
     2
 40
0.635
 49
0.0
 74
     0
 49
-0.635
 74
     0
  0
ENDTAB
  0
TABLE
  2
LAYER
  5
2
102
{ACAD_XDICTIONARY
360
17E
102
}
330
0
100
AcDbSymbolTable
 70
    18
  0
LAYER
  5
10
330
2
100
AcDbSymbolTableRecord
100
AcDbLayerTableRecord
  2
0
 70
     0
 62
     7
  6
Continuous
370
    -3
390
F
  0
LAYER
  5
6F
330
2
100
AcDbSymbolTableRecord
100
AcDbLayerTableRecord
  2
FORMAT
 70
     0
 62
     2
  6
Continuous
370
    -3
390
F
  0
LAYER
  5
70
330
2
100
AcDbSymbolTableRecord
100
AcDbLayerTableRecord
  2
외형선
 70
     0
 62
     4
  6
Continuous
370
    30
390
F
  0
LAYER
  5
71
330
2
100
AcDbSymbolTableRecord
100
AcDbLayerTableRecord
  2
숨은선
 70
     0
 62
     2
  6
HIDDEN
370
    15
390
F
  0
LAYER
  5
72
330
2
100
AcDbSymbolTableRecord
100
AcDbLayerTableRecord
  2
중심선
 70
     0
 62
     1
  6
CENTERX2
370
    -3
390
F
  0
LAYER
  5
73
330
2
100
AcDbSymbolTableRecord
100
AcDbLayerTableRecord
  2
파단선
 70
     0
 62
     4
  6
Continuous
370
    -3
390
F
  0
LAYER
  5
74
330
2
100
AcDbSymbolTableRecord
100
AcDbLayerTableRecord
  2
해칭선
 70
     0
 62
   100
  6
Continuous
370
    -3
390
F
  0
LAYER
  5
75
330
2
100
AcDbSymbolTableRecord
100
AcDbLayerTableRecord
  2
가는실선
 70
     0
 62
     4
  6
Continuous
370
    -3
390
F
  0
LAYER
  5
76
330
2
100
AcDbSymbolTableRecord
100
AcDbLayerTableRecord
  2
치수_보조선
 70
     0
 62
     4
  6
Continuous
370
    -3
390
F
  0
LAYER
  5
77
330
2
100
AcDbSymbolTableRecord
100
AcDbLayerTableRecord
  2
치수문자_일반주서
 70
     0
 62
     7
  6
Continuous
370
    15
390
F
  0
LAYER
  5
78
330
2
100
AcDbSymbolTableRecord
100
AcDbLayerTableRecord
  2
개별주서
 70
     0
 62
   100
  6
Continuous
370
    30
390
F
  0
LAYER
  5
79
330
2
100
AcDbSymbolTableRecord
100
AcDbLayerTableRecord
  2
중간선
 70
     0
 62
     2
  6
Continuous
370
    15
390
F
  0
LAYER
  5
7A
330
2
100
AcDbSymbolTableRecord
100
AcDbLayerTableRecord
  2
윤곽선
 70
     0
 62
     3
  6
Continuous
370
    40
390
F
  0
LAYER
  5
7B
330
2
100
AcDbSymbolTableRecord
100
AcDbLayerTableRecord
  2
중심마크
 70
     0
 62
   100
  6
Continuous
370
    30
390
F
  0
LAYER
  5
7C
330
2
100
AcDbSymbolTableRecord
100
AcDbLayerTableRecord
  2
가상선
 70
     0
 62
     4
  6
PHANTOM
370
    -3
390
F
  0
LAYER
  5
7D
330
2
100
AcDbSymbolTableRecord
100
AcDbLayerTableRecord
  2
특수지정선
 70
     0
 62
     5
  6
CENTERX2
370
    60
390
F
  0
LAYER
  5
7E
330
2
100
AcDbSymbolTableRecord
100
AcDbLayerTableRecord
  2
참조1
 70
     0
 62
    -4
  6
Continuous
370
    -3
390
F
  0
LAYER
  5
139
330
2
100
AcDbSymbolTableRecord
100
AcDbLayerTableRecord
  2
Defpoints
 70
     0
 62
     7
  6
Continuous
290
     0
370
    -3
390
F
  0
ENDTAB
  0
TABLE
  2
STYLE
  5
3
330
0
100
AcDbSymbolTable
 70
     2
  0
STYLE
  5
11
330
3
100
AcDbSymbolTableRecord
100
AcDbTextStyleTableRecord
  2
Standard
 70
     0
 40
0.0
 41
1.0
 50
0.0
 71
     0
 42
3.5
  3
txt
  4

  0
STYLE
  5
94
330
3
100
AcDbSymbolTableRecord
100
AcDbTextStyleTableRecord
  2
SLDTEXTSTYLE0
 70
     0
 40
0.0
 41
0.75
 50
0.0
 71
     0
 42
3.5
  3
TXT
  4

  0
ENDTAB
  0
TABLE
  2
VIEW
  5
6
330
0
100
AcDbSymbolTable
 70
     0
  0
ENDTAB
  0
TABLE
  2
UCS
  5
7
330
0
100
AcDbSymbolTable
 70
     0
  0
ENDTAB
  0
TABLE
  2
APPID
  5
9
330
0
100
AcDbSymbolTable
 70
     3
  0
APPID
  5
12
330
9
100
AcDbSymbolTableRecord
100
AcDbRegAppTableRecord
  2
ACAD
 70
     0
  0
APPID
  5
142
330
9
100
AcDbSymbolTableRecord
100
AcDbRegAppTableRecord
  2
PE_URL
 70
     0
  0
APPID
  5
143
330
9
100
AcDbSymbolTableRecord
100
AcDbRegAppTableRecord
  2
ACAD_DSTYLE_DIMRADIAL_EXTENSION
 70
     0
  0
ENDTAB
  0
TABLE
  2
DIMSTYLE
  5
A
330
0
100
AcDbSymbolTable
 70
     4
100
AcDbDimStyleTable
  0
DIMSTYLE
105
27
330
A
100
AcDbSymbolTableRecord
100
AcDbDimStyleTableRecord
  2
ISO-25
 70
     0
 41
2.5
 42
0.625
 43
3.75
 44
1.25
 73
     0
 74
     0
 77
     1
 78
     8
140
2.5
141
2.5
143
0.03937007874016
147
0.625
171
     3
172
     1
178
     0
271
     2
272
     2
274
     3
278
    44
283
     0
284
     8
340
11
  0
DIMSTYLE
105
D6
102
{ACAD_REACTORS
330
D5
330
162
102
}
330
A
100
AcDbSymbolTableRecord
100
AcDbDimStyleTableRecord
  2
SLDDIMSTYLE0
 70
     0
 41
3.302
 44
0.0
 45
0.000000001
 73
     0
 74
     0
 77
     1
 78
     4
 79
     1
140
3.5
147
0.875
172
     1
173
     1
178
     0
271
     2
272
     2
276
     2
284
    12
289
     0
340
94
  0
DIMSTYLE
105
E4
102
{ACAD_REACTORS
330
E3
330
F1
330
173
330
1C9
102
}
330
A
100
AcDbSymbolTableRecord
100
AcDbDimStyleTableRecord
  2
SLDDIMSTYLE1
 70
     0
 41
3.302
 44
0.0
 45
0.000000001
 73
     0
 74
     0
 77
     1
 78
    12
 79
     3
140
3.5
147
0.875
172
     1
173
     1
178
     0
271
     2
272
     2
276
     2
284
    12
289
     0
340
94
  0
DIMSTYLE
105
FE
102
{ACAD_REACTORS
330
FD
102
}
330
A
100
AcDbSymbolTableRecord
100
AcDbDimStyleTableRecord
  2
SLDDIMSTYLE2
 70
     0
 41
3.302
 44
0.0
 45
0.000000001
 73
     0
 74
     0
 77
     1
 78
    12
 79
     3
140
3.5
147
0.875
173
     1
178
     0
271
     2
272
     2
276
     2
284
    12
340
94
  0
ENDTAB
  0
TABLE
  2
BLOCK_RECORD
  5
1
330
0
100
AcDbSymbolTable
 70
    13
  0
BLOCK_RECORD
  5
1F
330
1
100
AcDbSymbolTableRecord
100
AcDbBlockTableRecord
  2
*Model_Space
340
22
  0
BLOCK_RECORD
  5
1B
330
1
100
AcDbSymbolTableRecord
100
AcDbBlockTableRecord
  2
*Paper_Space
340
1E
  0
BLOCK_RECORD
  5
23
330
1
100
AcDbSymbolTableRecord
100
AcDbBlockTableRecord
  2
*Paper_Space0
340
26
  0
BLOCK_RECORD
  5
7F
330
1
100
AcDbSymbolTableRecord
100
AcDbBlockTableRecord
  2
블럭10
340
0
102
{BLKREFS
331
CE
102
}
  0
BLOCK_RECORD
  5
D7
330
1
100
AcDbSymbolTableRecord
100
AcDbBlockTableRecord
  2
_D
340
0
  0
BLOCK_RECORD
  5
E5
330
1
100
AcDbSymbolTableRecord
100
AcDbBlockTableRecord
  2
_D_1
340
0
  0
BLOCK_RECORD
  5
F2
330
1
100
AcDbSymbolTableRecord
100
AcDbBlockTableRecord
  2
_D_2
340
0
  0
BLOCK_RECORD
  5
FF
330
1
100
AcDbSymbolTableRecord
100
AcDbBlockTableRecord
  2
_D_3
340
0
  0
BLOCK_RECORD
  5
10F
330
1
100
AcDbSymbolTableRecord
100
AcDbBlockTableRecord
  2
SW_DOWELSYMBOL_0
340
0
102
{BLKREFS
331
115
102
}
  0
BLOCK_RECORD
  5
174
330
1
100
AcDbSymbolTableRecord
100
AcDbBlockTableRecord
  2
*D8
340
0
  0
BLOCK_RECORD
  5
182
330
1
100
AcDbSymbolTableRecord
100
AcDbBlockTableRecord
  2
*D9
340
0
  0
BLOCK_RECORD
  5
196
330
1
100
AcDbSymbolTableRecord
100
AcDbBlockTableRecord
  2
*D10
340
0
  0
BLOCK_RECORD
  5
1A5
330
1
100
AcDbSymbolTableRecord
100
AcDbBlockTableRecord
  2
*D11
340
0
  0
BLOCK_RECORD
  5
1CC
330
1
100
AcDbSymbolTableRecord
100
AcDbBlockTableRecord
  2
*D12
340
0
  0
ENDTAB
  0
ENDSEC
  0
SECTION
  2
BLOCKS
  0
BLOCK
  5
20
330
1F
100
AcDbEntity
  8
0
100
AcDbBlockBegin
  2
*Model_Space
 70
     0
 10
0.0
 20
0.0
 30
0.0
  3
*Model_Space
  1

  0
ENDBLK
  5
21
330
1F
100
AcDbEntity
  8
0
100
AcDbBlockEnd
  0
BLOCK
  5
1C
330
1B
100
AcDbEntity
 67
     1
  8
0
100
AcDbBlockBegin
  2
*Paper_Space
 70
     0
 10
0.0
 20
0.0
 30
0.0
  3
*Paper_Space
  1

  0
ENDBLK
  5
1D
330
1B
100
AcDbEntity
 67
     1
  8
0
100
AcDbBlockEnd
  0
BLOCK
  5
24
330
23
100
AcDbEntity
  8
0
100
AcDbBlockBegin
  2
*Paper_Space0
 70
     0
 10
0.0
 20
0.0
 30
0.0
  3
*Paper_Space0
  1

  0
ENDBLK
  5
25
330
23
100
AcDbEntity
  8
0
100
AcDbBlockEnd
  0
BLOCK
  5
80
330
7F
100
AcDbEntity
  8
0
100
AcDbBlockBegin
  2
블럭10
 70
     2
 10
0.0
 20
0.0
 30
0.0
  3
블럭10
  1

  0
ELLIPSE
  5
82
330
7F
100
AcDbEntity
  8
중심선
100
AcDbEllipse
 10
20.54032771741204
 20
12.0471743016438
 30
0.0
 11
6.600054785286829
 21
-1.261213355974178E-13
 31
0.0
210
0.0
220
0.0
230
1.0
 40
0.636358354079598
 41
0.9219305317359503
 42
6.513795318482858
  0
ELLIPSE
  5
83
330
7F
100
AcDbEntity
  8
중심선
100
AcDbEllipse
 10
20.54032771746488
 20
12.04717430159265
 30
0.0
 11
3.960054785062283
 21
1.540847449632565E-10
 31
0.0
210
0.0
220
0.0
230
1.0
 40
0.3939339440162632
 41
1.131841032648279
 42
5.62031148352944
  0
LINE
  5
84
330
7F
100
AcDbEntity
  8
중심선
100
AcDbLine
 10
2.268634060543552
 20
16.24717430164393
 30
0.0
 11
5.714909304380834
 21
16.24717430164393
 31
0.0
  0
LINE
  5
85
330
7F
100
AcDbEntity
  8
중심선
100
AcDbLine
 10
5.245725140726316
 20
7.84717430164391
 30
0.0
 11
8.692000384563599
 21
7.84717430164391
 31
0.0
  0
LINE
  5
86
330
7F
100
AcDbEntity
  8
중심선
100
AcDbLine
 10
15.74043728645272
 20
16.24717430164393
 30
0.0
 11
8.692000384563599
 21
7.84717430164391
 31
0.0
  0
LINE
  5
87
330
7F
100
AcDbEntity
  8
중심선
100
AcDbLine
 10
0.1404042013395286
 20
13.71084872107135
 30
0.0
 11
3.58671253028996
 21
13.71088815037384
 31
0.0
  0
LINE
  5
88
330
7F
100
AcDbEntity
  8
중심선
100
AcDbLine
 10
2.750260043222114
 20
10.84717430164391
 30
0.0
 11
6.196535287059397
 21
10.84717430164391
 31
0.0
  0
LINE
  5
89
330
7F
100
AcDbEntity
  8
중심선
100
AcDbLine
 10
12.29416204261559
 20
16.24717430164393
 30
0.0
 11
5.245725140726316
 21
7.84717430164391
 31
0.0
  0
LINE
  5
8A
330
7F
100
AcDbEntity
  8
중심선
100
AcDbLine
 10
10.72767329541681
 20
16.24717430164393
 30
0.0
 11
6.196535287059397
 21
10.84717430164391
 31
0.0
  0
LINE
  5
8B
330
7F
100
AcDbEntity
  8
중심선
100
AcDbLine
 10
7.28139805157953
 20
16.24717430164393
 30
0.0
 11
2.750260043222114
 21
10.84717430164391
 31
0.0
  0
LINE
  5
8C
330
7F
100
AcDbEntity
  8
중심선
100
AcDbLine
 10
5.714909304380834
 20
16.24717430164393
 30
0.0
 11
3.58671253028996
 21
13.71088815037384
 31
0.0
  0
LINE
  5
8D
330
7F
100
AcDbEntity
  8
중심선
100
AcDbLine
 10
2.268634060543552
 20
16.24717430164393
 30
0.0
 11
0.1404042013395286
 21
13.71084872107135
 31
0.0
  0
LINE
  5
8E
330
7F
100
AcDbEntity
  8
중심선
100
AcDbLine
 10
7.28139805157953
 20
16.24717430164393
 30
0.0
 11
10.72767329541681
 21
16.24717430164393
 31
0.0
  0
LINE
  5
8F
330
7F
100
AcDbEntity
  8
중심선
100
AcDbLine
 10
12.29416204261559
 20
16.24717430164393
 30
0.0
 11
15.74043728645272
 21
16.24717430164393
 31
0.0
  0
LINE
  5
90
330
7F
100
AcDbEntity
  8
중심선
100
AcDbLine
 10
19.22036997980202
 20
11.08717430171403
 30
0.0
 11
23.66174974927406
 21
11.08717430171406
 31
0.0
  0
LINE
  5
91
330
7F
100
AcDbEntity
  8
중심선
100
AcDbLine
 10
19.22039502424796
 20
13.00717430171391
 30
0.0
 11
19.22036997980202
 21
11.08717430171403
 31
0.0
  0
LINE
  5
92
330
7F
100
AcDbEntity
  8
중심선
100
AcDbLine
 10
19.22039502424796
 20
13.00717430171391
 30
0.0
 11
26.96566020931264
 21
13.00717430171391
 31
0.0
  0
LINE
  5
93
330
7F
100
AcDbEntity
  8
중심선
100
AcDbLine
 10
22.22332737316547
 20
13.45928029700563
 30
0.0
 11
24.52862924686651
 21
15.39360700705356
 31
0.0
  0
ATTDEF
  5
95
330
7F
100
AcDbEntity
  8
FORMAT
 62
     2
100
AcDbText
 10
-16.11926103943555
 20
2.075366912832191
 30
0.0
 40
4.233333333333333
  1
SEME0104503E [ 4 FLUTE ]
 41
0.75
  7
SLDTEXTSTYLE0
 11
-16.11926103943555
 21
-0.0412997538344756
 31
0.0
100
AcDbAttributeDefinition
  3

  2
AUTOATTR0
 70
     0
 74
     1
  0
ENDBLK
  5
81
330
7F
100
AcDbEntity
  8
0
100
AcDbBlockEnd
  0
BLOCK
  5
D8
330
D7
100
AcDbEntity
  8
0
100
AcDbBlockBegin
  2
_D
 70
     0
 10
0.0
 20
0.0
 30
0.0
  3
_D
  1

  0
LINE
  5
DA
330
D7
100
AcDbEntity
  8
치수문자_일반주서
 62
     0
370
    -2
100
AcDbLine
 10
16.86153810567667
 20
2.251074928723889
 30
0.0
 11
26.79903810567665
 21
2.251074928723927
 31
0.0
  0
LINE
  5
DB
330
D7
100
AcDbEntity
  8
치수문자_일반주서
 62
     0
370
    -2
100
AcDbLine
 10
16.86153810567667
 20
-2.248925071276111
 30
0.0
 11
26.79903810567667
 21
-2.248925071276075
 31
0.0
  0
LINE
  5
DC
330
D7
100
AcDbEntity
  8
치수문자_일반주서
 62
     0
370
    -2
100
AcDbLine
 10
26.79903810567665
 20
2.251074928723927
 30
0.0
 11
26.7990381056766
 21
19.57382492872394
 31
0.0
  0
LINE
  5
DD
330
D7
100
AcDbEntity
  8
치수문자_일반주서
 62
     0
370
    -2
100
AcDbLine
 10
26.79903810567665
 20
2.251074928723927
 30
0.0
 11
26.79903810567667
 21
-2.248925071276075
 31
0.0
  0
LINE
  5
DE
330
D7
100
AcDbEntity
  8
치수문자_일반주서
 62
     0
370
    -2
100
AcDbLine
 10
26.79903810567664
 20
5.553074928723927
 30
0.0
 11
26.79903810567663
 21
8.855074928723926
 31
0.0
  0
LINE
  5
DF
330
D7
100
AcDbEntity
  8
치수문자_일반주서
 62
     0
370
    -2
100
AcDbLine
 10
26.79903810567668
 20
-5.550925071276074
 30
0.0
 11
26.79903810567669
 21
-8.852925071276074
 31
0.0
  0
SOLID
  5
E0
330
D7
100
AcDbEntity
  8
치수문자_일반주서
 62
     0
100
AcDbTrace
 10
26.24870477234331
 20
5.553074928723925
 30
0.0
 11
27.34937143900998
 21
5.553074928723928
 31
0.0
 12
26.79903810567665
 22
2.251074928723927
 32
0.0
 13
26.79903810567665
 23
2.251074928723927
 33
0.0
  0
SOLID
  5
E1
330
D7
100
AcDbEntity
  8
치수문자_일반주서
 62
     0
100
AcDbTrace
 10
27.34937143901001
 20
-5.550925071276072
 30
0.0
 11
26.24870477234334
 21
-5.550925071276076
 31
0.0
 12
26.79903810567667
 22
-2.248925071276075
 32
0.0
 13
26.79903810567667
 23
-2.248925071276075
 33
0.0
  0
MTEXT
  5
E2
330
D7
100
AcDbEntity
  8
치수문자_일반주서
 62
     0
100
AcDbMText
 10
22.42403810567662
 20
14.76132492872392
 30
0.0
 40
3.5
 41
0.0
 71
     2
 72
     1
  1
\A1;%%c4.5
  7
SLDTEXTSTYLE0
 11
-3.157967714489334E-15
 21
1.0
 31
0.0
 73
     1
 44
1.0
  0
POINT
  5
1BC
330
D7
100
AcDbEntity
  8
Defpoints
 62
     0
100
AcDbPoint
 10
16.79903810567667
 20
2.251074928723889
 30
0.0
  0
POINT
  5
1BD
330
D7
100
AcDbEntity
  8
Defpoints
 62
     0
100
AcDbPoint
 10
16.79903810567667
 20
-2.248925071276111
 30
0.0
  0
POINT
  5
1BE
330
D7
100
AcDbEntity
  8
Defpoints
 62
     0
100
AcDbPoint
 10
26.79903810567667
 20
-2.248925071276074
 30
0.0
  0
ENDBLK
  5
D9
330
D7
100
AcDbEntity
  8
0
100
AcDbBlockEnd
  0
BLOCK
  5
E6
330
E5
100
AcDbEntity
  8
0
100
AcDbBlockBegin
  2
_D_1
 70
     0
 10
0.0
 20
0.0
 30
0.0
  3
_D_1
  1

  0
LINE
  5
E8
330
E5
100
AcDbEntity
  8
치수문자_일반주서
 62
     0
370
    -2
100
AcDbLine
 10
-62.66346189432333
 20
3.001074928723896
 30
0.0
 11
-73.20096189432334
 21
3.001074928723854
 31
0.0
  0
LINE
  5
E9
330
E5
100
AcDbEntity
  8
치수문자_일반주서
 62
     0
370
    -2
100
AcDbLine
 10
-62.66346189432333
 20
-2.99892507127611
 30
0.0
 11
-73.20096189432333
 21
-2.998925071276149
 31
0.0
  0
LINE
  5
EA
330
E5
100
AcDbEntity
  8
치수문자_일반주서
 62
     0
370
    -2
100
AcDbLine
 10
-73.20096189432334
 20
3.001074928723854
 30
0.0
 11
-73.20096189432338
 21
15.73007492872386
 31
0.0
  0
LINE
  5
EB
330
E5
100
AcDbEntity
  8
치수문자_일반주서
 62
     0
370
    -2
100
AcDbLine
 10
-73.20096189432334
 20
3.001074928723854
 30
0.0
 11
-73.20096189432333
 21
-2.998925071276149
 31
0.0
  0
LINE
  5
EC
330
E5
100
AcDbEntity
  8
치수문자_일반주서
 62
     0
370
    -2
100
AcDbLine
 10
-73.20096189432336
 20
6.303074928723854
 30
0.0
 11
-73.20096189432337
 21
9.605074928723853
 31
0.0
  0
LINE
  5
ED
330
E5
100
AcDbEntity
  8
치수문자_일반주서
 62
     0
370
    -2
100
AcDbLine
 10
-73.20096189432331
 20
-6.300925071276149
 30
0.0
 11
-73.2009618943233
 21
-9.602925071276148
 31
0.0
  0
SOLID
  5
EE
330
E5
100
AcDbEntity
  8
치수문자_일반주서
 62
     0
100
AcDbTrace
 10
-73.75129522765668
 20
6.303074928723853
 30
0.0
 11
-72.65062856099003
 21
6.303074928723855
 31
0.0
 12
-73.20096189432334
 22
3.001074928723854
 32
0.0
 13
-73.20096189432334
 23
3.001074928723854
 33
0.0
  0
SOLID
  5
EF
330
E5
100
AcDbEntity
  8
치수문자_일반주서
 62
     0
100
AcDbTrace
 10
-72.65062856098999
 20
-6.300925071276148
 30
0.0
 11
-73.75129522765664
 21
-6.30092507127615
 31
0.0
 12
-73.20096189432333
 22
-2.998925071276149
 32
0.0
 13
-73.20096189432333
 23
-2.998925071276149
 33
0.0
  0
MTEXT
  5
F0
330
E5
100
AcDbEntity
  8
치수문자_일반주서
 62
     0
100
AcDbMText
 10
-77.57596189432337
 20
12.66757492872385
 30
0.0
 40
3.5
 41
0.0
 71
     2
 72
     1
  1
\A1;%%c6
  7
SLDTEXTSTYLE0
 11
-2.368475785866999E-15
 21
1.0
 31
0.0
 73
     1
 44
1.0
  0
POINT
  5
1B9
330
E5
100
AcDbEntity
  8
Defpoints
 62
     0
100
AcDbPoint
 10
-62.60096189432333
 20
3.001074928723896
 30
0.0
  0
POINT
  5
1BA
330
E5
100
AcDbEntity
  8
Defpoints
 62
     0
100
AcDbPoint
 10
-62.60096189432333
 20
-2.998925071276109
 30
0.0
  0
POINT
  5
1BB
330
E5
100
AcDbEntity
  8
Defpoints
 62
     0
100
AcDbPoint
 10
-73.20096189432331
 20
-2.998925071276149
 30
0.0
  0
ENDBLK
  5
E7
330
E5
100
AcDbEntity
  8
0
100
AcDbBlockEnd
  0
BLOCK
  5
F3
330
F2
100
AcDbEntity
  8
0
100
AcDbBlockBegin
  2
_D_2
 70
     0
 10
0.0
 20
0.0
 30
0.0
  3
_D_2
  1

  0
LINE
  5
F5
330
F2
100
AcDbEntity
  8
치수문자_일반주서
 62
     0
370
    -2
100
AcDbLine
 10
16.79903810567667
 20
2.313574928723889
 30
0.0
 11
16.79903810567667
 21
13.0010749287239
 31
0.0
  0
LINE
  5
F6
330
F2
100
AcDbEntity
  8
치수문자_일반주서
 62
     0
370
    -2
100
AcDbLine
 10
5.799038105676654
 20
2.252588941599999
 30
0.0
 11
5.799038105676654
 21
13.0010749287239
 31
0.0
  0
LINE
  5
F7
330
F2
100
AcDbEntity
  8
치수문자_일반주서
 62
     0
370
    -2
100
AcDbLine
 10
13.49703810567667
 20
13.0010749287239
 30
0.0
 11
9.101038105676654
 21
13.0010749287239
 31
0.0
  0
SOLID
  5
F8
330
F2
100
AcDbEntity
  8
치수문자_일반주서
 62
     0
100
AcDbTrace
 10
13.49703810567667
 20
12.45074159539057
 30
0.0
 11
13.49703810567667
 21
13.55140826205723
 31
0.0
 12
16.79903810567667
 22
13.0010749287239
 32
0.0
 13
16.79903810567667
 23
13.0010749287239
 33
0.0
  0
SOLID
  5
F9
330
F2
100
AcDbEntity
  8
치수문자_일반주서
 62
     0
100
AcDbTrace
 10
9.101038105676654
 20
13.55140826205723
 30
0.0
 11
9.101038105676654
 21
12.45074159539057
 31
0.0
 12
5.799038105676654
 22
13.0010749287239
 32
0.0
 13
5.799038105676654
 23
13.0010749287239
 33
0.0
  0
MTEXT
  5
FA
330
F2
100
AcDbEntity
  8
치수문자_일반주서
 62
     0
100
AcDbMText
 10
11.29903810567647
 20
17.3760749287239
 30
0.0
 40
3.5
 41
0.0
 71
     2
 72
     1
  1
\A1;11
  7
SLDTEXTSTYLE0
 73
     1
 44
1.0
  0
POINT
  5
FB
330
F2
100
AcDbEntity
  8
Defpoints
 62
     0
100
AcDbPoint
 10
16.79903810567667
 20
2.251074928723889
 30
0.0
  0
POINT
  5
FC
330
F2
100
AcDbEntity
  8
Defpoints
 62
     0
100
AcDbPoint
 10
5.799038105676654
 20
2.190088941599999
 30
0.0
  0
POINT
  5
1BF
330
F2
100
AcDbEntity
  8
Defpoints
 62
     0
100
AcDbPoint
 10
5.799038105676654
 20
13.0010749287239
 30
0.0
  0
ENDBLK
  5
F4
330
F2
100
AcDbEntity
  8
0
100
AcDbBlockEnd
  0
BLOCK
  5
100
330
FF
100
AcDbEntity
  8
0
100
AcDbBlockBegin
  2
_D_3
 70
     0
 10
0.0
 20
0.0
 30
0.0
  3
_D_3
  1

  0
LINE
  5
102
330
FF
100
AcDbEntity
  8
치수문자_일반주서
 62
     0
370
    -2
100
AcDbLine
 10
16.79903810567667
 20
2.313574928723889
 30
0.0
 11
16.79903810567667
 21
23.0010749287239
 31
0.0
  0
LINE
  5
103
330
FF
100
AcDbEntity
  8
치수문자_일반주서
 62
     0
370
    -2
100
AcDbLine
 10
-63.20096189432333
 20
2.463574928723895
 30
0.0
 11
-63.20096189432333
 21
23.0010749287239
 31
0.0
  0
LINE
  5
104
330
FF
100
AcDbEntity
  8
치수문자_일반주서
 62
     0
370
    -2
100
AcDbLine
 10
13.49703810567667
 20
23.0010749287239
 30
0.0
 11
-59.89896189432333
 21
23.0010749287239
 31
0.0
  0
SOLID
  5
105
330
FF
100
AcDbEntity
  8
치수문자_일반주서
 62
     0
100
AcDbTrace
 10
13.49703810567667
 20
22.45074159539056
 30
0.0
 11
13.49703810567667
 21
23.55140826205723
 31
0.0
 12
16.79903810567667
 22
23.0010749287239
 32
0.0
 13
16.79903810567667
 23
23.0010749287239
 33
0.0
  0
SOLID
  5
106
330
FF
100
AcDbEntity
  8
치수문자_일반주서
 62
     0
100
AcDbTrace
 10
-59.89896189432333
 20
23.55140826205723
 30
0.0
 11
-59.89896189432333
 21
22.45074159539056
 31
0.0
 12
-63.20096189432333
 22
23.0010749287239
 32
0.0
 13
-63.20096189432333
 23
23.0010749287239
 33
0.0
  0
MTEXT
  5
107
330
FF
100
AcDbEntity
  8
치수문자_일반주서
 62
     0
100
AcDbMText
 10
-23.20096189432333
 20
27.3760749287239
 30
0.0
 40
3.5
 41
0.0
 71
     2
 72
     1
  1
\A1;80
  7
SLDTEXTSTYLE0
 73
     1
 44
1.0
  0
POINT
  5
1C0
330
FF
100
AcDbEntity
  8
Defpoints
 62
     0
100
AcDbPoint
 10
16.79903810567667
 20
2.251074928723889
 30
0.0
  0
POINT
  5
1C1
330
FF
100
AcDbEntity
  8
Defpoints
 62
     0
100
AcDbPoint
 10
-63.20096189432333
 20
2.401074928723895
 30
0.0
  0
POINT
  5
1C2
330
FF
100
AcDbEntity
  8
Defpoints
 62
     0
100
AcDbPoint
 10
-63.20096189432333
 20
23.0010749287239
 30
0.0
  0
ENDBLK
  5
101
330
FF
100
AcDbEntity
  8
0
100
AcDbBlockEnd
  0
BLOCK
  5
110
330
10F
100
AcDbEntity
  8
0
100
AcDbBlockBegin
  2
SW_DOWELSYMBOL_0
 70
     0
 10
0.0
 20
0.0
 30
0.0
  3
SW_DOWELSYMBOL_0
  1

  0
CIRCLE
  5
112
330
10F
100
AcDbEntity
  8
해칭선
 62
     0
100
AcDbCircle
 10
0.0
 20
0.0
 30
0.0
 40
3.000000000000001
  0
HATCH
  5
113
330
10F
100
AcDbEntity
  8
0
  6
Continuous
 62
     0
370
     0
100
AcDbHatch
 10
0.0
 20
0.0
 30
0.0
210
0.0
220
0.0
230
1.0
  2
SOLID
 70
     1
 71
     0
 91
        1
 92
        0
 93
        3
 72
     2
 10
0.0
 20
0.0
 40
3.000000000000001
 50
0.0
 51
90.0
 73
     1
 72
     1
 10
0.0
 20
3.000000000000001
 11
0.0
 21
0.0
 72
     1
 10
0.0
 20
0.0
 11
3.000000000000003
 21
0.0
 97
        0
 75
     0
 76
     1
 98
        1
 10
0.0
 20
0.0
  0
HATCH
  5
114
330
10F
100
AcDbEntity
  8
0
  6
Continuous
 62
     0
370
     0
100
AcDbHatch
 10
0.0
 20
0.0
 30
0.0
210
0.0
220
0.0
230
1.0
  2
SOLID
 70
     1
 71
     0
 91
        1
 92
        0
 93
        3
 72
     2
 10
0.0
 20
0.0
 40
3.000000000000001
 50
180.0
 51
270.0000000000008
 73
     1
 72
     1
 10
0.0
 20
-3.000000000000001
 11
0.0
 21
0.0
 72
     1
 10
0.0
 20
0.0
 11
-3.000000000000003
 21
0.0
 97
        0
 75
     0
 76
     1
 98
        1
 10
0.0
 20
0.0
  0
ENDBLK
  5
111
330
10F
100
AcDbEntity
  8
0
100
AcDbBlockEnd
  0
BLOCK
  5
175
330
174
100
AcDbEntity
  8
0
100
AcDbBlockBegin
  2
*D8
 70
     1
 10
0.0
 20
0.0
 30
0.0
  3
*D8
  1

  0
LINE
  5
176
330
174
100
AcDbEntity
  8
치수문자_일반주서
 62
     0
370
    -2
100
AcDbLine
 10
11.77456662019984
 20
16.49151495257678
 30
0.0
 11
22.66398241076589
 21
-0.0000000000001465
 31
0.0
  0
MTEXT
  5
177
330
174
100
AcDbEntity
  8
치수문자_일반주서
 62
     0
100
AcDbMText
 10
22.5643530529196
 20
4.914785148259656
 30
0.0
 40
3.5
 41
0.0
 71
     5
 72
     1
  1
\A1;R0.1
  7
SLDTEXTSTYLE0
 11
0.5510189947672727
 21
-0.8344927006305473
 31
0.0
 73
     1
 44
1.0
  0
LINE
  5
178
330
174
100
AcDbEntity
  8
치수문자_일반주서
 62
     0
370
    -2
100
AcDbLine
 10
9.90000000000158
 20
19.3304591201219
 30
0.0
 11
9.955101899478308
 21
19.24700985005884
 31
0.0
  0
SOLID
  5
179
330
174
100
AcDbEntity
  8
치수문자_일반주서
 62
     0
100
AcDbTrace
 10
12.23381576978019
 20
16.79475907269703
 30
0.0
 11
11.3153174706195
 21
16.18827083245652
 31
0.0
 12
9.955101899478308
 22
19.24700985005884
 32
0.0
 13
9.955101899478308
 23
19.24700985005884
 33
0.0
  0
POINT
  5
17A
330
174
100
AcDbEntity
  8
Defpoints
 62
     0
100
AcDbPoint
 10
9.955101899478308
 20
19.24700985005884
 30
0.0
  0
POINT
  5
17B
330
174
100
AcDbEntity
  8
Defpoints
 62
     0
100
AcDbPoint
 10
9.90000000000158
 20
19.3304591201219
 30
0.0
  0
ENDBLK
  5
17C
330
174
100
AcDbEntity
  8
0
100
AcDbBlockEnd
  0
BLOCK
  5
183
330
182
100
AcDbEntity
  8
0
100
AcDbBlockBegin
  2
*D9
 70
     1
 10
0.0
 20
0.0
 30
0.0
  3
*D9
  1

  0
LINE
  5
185
330
182
100
AcDbEntity
  8
치수문자_일반주서
 62
     0
370
    -2
100
AcDbLine
 10
10.06250000000158
 20
22.7304591201219
 30
0.0
 11
20.00000000000157
 21
22.73045912012194
 31
0.0
  0
LINE
  5
186
330
182
100
AcDbEntity
  8
치수문자_일반주서
 62
     0
370
    -2
100
AcDbLine
 10
10.06250000000158
 20
19.2304591201219
 30
0.0
 11
20.00000000000158
 21
19.23045912012194
 31
0.0
  0
LINE
  5
187
330
182
100
AcDbEntity
  8
치수문자_일반주서
 62
     0
370
    -2
100
AcDbLine
 10
20.00000000000157
 20
22.73045912012194
 30
0.0
 11
20.00000000000151
 21
40.05320912012195
 31
0.0
  0
LINE
  5
188
330
182
100
AcDbEntity
  8
치수문자_일반주서
 62
     0
370
    -2
100
AcDbLine
 10
20.00000000000157
 20
22.73045912012194
 30
0.0
 11
20.00000000000158
 21
19.23045912012194
 31
0.0
  0
LINE
  5
189
330
182
100
AcDbEntity
  8
치수문자_일반주서
 62
     0
370
    -2
100
AcDbLine
 10
20.00000000000156
 20
26.03245912012193
 30
0.0
 11
20.00000000000155
 21
29.33445912012193
 31
0.0
  0
LINE
  5
18A
330
182
100
AcDbEntity
  8
치수문자_일반주서
 62
     0
370
    -2
100
AcDbLine
 10
20.00000000000159
 20
15.92845912012194
 30
0.0
 11
20.0000000000016
 21
12.62645912012194
 31
0.0
  0
SOLID
  5
18B
330
182
100
AcDbEntity
  8
치수문자_일반주서
 62
     0
100
AcDbTrace
 10
19.44966666666822
 20
26.03245912012193
 30
0.0
 11
20.55033333333489
 21
26.03245912012193
 31
0.0
 12
20.00000000000157
 22
22.73045912012194
 32
0.0
 13
20.00000000000157
 23
22.73045912012194
 33
0.0
  0
SOLID
  5
18C
330
182
100
AcDbEntity
  8
치수문자_일반주서
 62
     0
100
AcDbTrace
 10
20.55033333333492
 20
15.92845912012194
 30
0.0
 11
19.44966666666825
 21
15.92845912012193
 31
0.0
 12
20.00000000000158
 22
19.23045912012194
 32
0.0
 13
20.00000000000158
 23
19.23045912012194
 33
0.0
  0
MTEXT
  5
18D
330
182
100
AcDbEntity
  8
치수문자_일반주서
 62
     0
100
AcDbMText
 10
15.62500000000153
 20
35.24070912012193
 30
0.0
 40
3.5
 41
0.0
 71
     2
 72
     1
  1
\A1;%%c3.5
  7
SLDTEXTSTYLE0
 11
-3.045183153257575E-15
 21
1.0
 31
0.0
 73
     1
 44
1.0
  0
POINT
  5
18E
330
182
100
AcDbEntity
  8
Defpoints
 62
     0
100
AcDbPoint
 10
10.00000000000158
 20
22.7304591201219
 30
0.0
  0
POINT
  5
18F
330
182
100
AcDbEntity
  8
Defpoints
 62
     0
100
AcDbPoint
 10
10.00000000000158
 20
19.2304591201219
 30
0.0
  0
POINT
  5
190
330
182
100
AcDbEntity
  8
Defpoints
 62
     0
100
AcDbPoint
 10
20.00000000000158
 20
19.23045912012194
 30
0.0
  0
ENDBLK
  5
184
330
182
100
AcDbEntity
  8
0
100
AcDbBlockEnd
  0
BLOCK
  5
197
330
196
100
AcDbEntity
  8
0
100
AcDbBlockBegin
  2
*D10
 70
     1
 10
0.0
 20
0.0
 30
0.0
  3
*D10
  1

  0
LINE
  5
199
330
196
100
AcDbEntity
  8
치수문자_일반주서
 62
     0
370
    -2
100
AcDbLine
 10
57.31431786614591
 20
4.988044313027409
 30
0.0
 11
67.25181786614593
 21
4.988044313027446
 31
0.0
  0
LINE
  5
19A
330
196
100
AcDbEntity
  8
치수문자_일반주서
 62
     0
370
    -2
100
AcDbLine
 10
57.31431786614591
 20
1.488044313027409
 30
0.0
 11
67.25181786614594
 21
1.488044313027444
 31
0.0
  0
LINE
  5
19B
330
196
100
AcDbEntity
  8
치수문자_일반주서
 62
     0
370
    -2
100
AcDbLine
 10
67.25181786614593
 20
4.988044313027446
 30
0.0
 11
67.25181786614586
 21
22.31079431302746
 31
0.0
  0
LINE
  5
19C
330
196
100
AcDbEntity
  8
치수문자_일반주서
 62
     0
370
    -2
100
AcDbLine
 10
67.25181786614593
 20
4.988044313027446
 30
0.0
 11
67.25181786614594
 21
1.488044313027444
 31
0.0
  0
LINE
  5
19D
330
196
100
AcDbEntity
  8
치수문자_일반주서
 62
     0
370
    -2
100
AcDbLine
 10
67.25181786614591
 20
8.290044313027446
 30
0.0
 11
67.2518178661459
 21
11.59204431302745
 31
0.0
  0
LINE
  5
19E
330
196
100
AcDbEntity
  8
치수문자_일반주서
 62
     0
370
    -2
100
AcDbLine
 10
67.25181786614596
 20
-1.813955686972555
 30
0.0
 11
67.25181786614597
 21
-5.115955686972555
 31
0.0
  0
SOLID
  5
19F
330
196
100
AcDbEntity
  8
치수문자_일반주서
 62
     0
100
AcDbTrace
 10
66.70148453281259
 20
8.290044313027444
 30
0.0
 11
67.80215119947924
 21
8.290044313027447
 31
0.0
 12
67.25181786614593
 22
4.988044313027446
 32
0.0
 13
67.25181786614593
 23
4.988044313027446
 33
0.0
  0
SOLID
  5
1A0
330
196
100
AcDbEntity
  8
치수문자_일반주서
 62
     0
100
AcDbTrace
 10
67.80215119947928
 20
-1.813955686972553
 30
0.0
 11
66.70148453281263
 21
-1.813955686972557
 31
0.0
 12
67.25181786614594
 22
1.488044313027444
 32
0.0
 13
67.25181786614594
 23
1.488044313027444
 33
0.0
  0
MTEXT
  5
1A1
330
196
100
AcDbEntity
  8
치수문자_일반주서
 62
     0
100
AcDbMText
 10
62.87681786614587
 20
17.49829431302744
 30
0.0
 40
3.5
 41
0.0
 71
     2
 72
     1
  1
\A1;%%c3.5
  7
SLDTEXTSTYLE0
 11
-4.060244204343429E-15
 21
1.0
 31
0.0
 73
     1
 44
1.0
  0
POINT
  5
1A2
330
196
100
AcDbEntity
  8
Defpoints
 62
     0
100
AcDbPoint
 10
57.25181786614591
 20
4.988044313027409
 30
0.0
  0
POINT
  5
1A3
330
196
100
AcDbEntity
  8
Defpoints
 62
     0
100
AcDbPoint
 10
57.25181786614591
 20
1.488044313027409
 30
0.0
  0
POINT
  5
1A4
330
196
100
AcDbEntity
  8
Defpoints
 62
     0
100
AcDbPoint
 10
67.25181786614591
 20
1.488044313027446
 30
0.0
  0
ENDBLK
  5
198
330
196
100
AcDbEntity
  8
0
100
AcDbBlockEnd
  0
BLOCK
  5
1A6
330
1A5
100
AcDbEntity
  8
0
100
AcDbBlockBegin
  2
*D11
 70
     1
 10
0.0
 20
0.0
 30
0.0
  3
*D11
  1

  0
LINE
  5
1A8
330
1A5
100
AcDbEntity
  8
치수문자_일반주서
 62
     0
370
    -2
100
AcDbLine
 10
59.0263844863441
 20
-1.250899854517767
 30
0.0
 11
69.91580027690966
 21
-17.74241480709502
 31
0.0
  0
MTEXT
  5
1A9
330
1A5
100
AcDbEntity
  8
치수문자_일반주서
 62
     0
100
AcDbMText
 10
69.81617091906351
 20
-12.82762965883521
 30
0.0
 40
3.5
 41
0.0
 71
     5
 72
     1
  1
\A1;R0.1
  7
SLDTEXTSTYLE0
 11
0.551018994767248
 21
-0.8344927006305635
 31
0.0
 73
     1
 44
1.0
  0
LINE
  5
1AA
330
1A5
100
AcDbEntity
  8
치수문자_일반주서
 62
     0
370
    -2
100
AcDbLine
 10
57.15181786614592
 20
1.58804431302741
 30
0.0
 11
57.20691976562264
 21
1.504595042964354
 31
0.0
  0
SOLID
  5
1AB
330
1A5
100
AcDbEntity
  8
치수문자_일반주서
 62
     0
100
AcDbTrace
 10
59.48563363592445
 20
-0.9476557343975252
 30
0.0
 11
58.56713533676375
 21
-1.554143974638009
 31
0.0
 12
57.20691976562264
 22
1.504595042964354
 32
0.0
 13
57.20691976562264
 23
1.504595042964354
 33
0.0
  0
POINT
  5
1AC
330
1A5
100
AcDbEntity
  8
Defpoints
 62
     0
100
AcDbPoint
 10
57.20691976562264
 20
1.504595042964354
 30
0.0
  0
POINT
  5
1AD
330
1A5
100
AcDbEntity
  8
Defpoints
 62
     0
100
AcDbPoint
 10
57.15181786614592
 20
1.58804431302741
 30
0.0
  0
ENDBLK
  5
1A7
330
1A5
100
AcDbEntity
  8
0
100
AcDbBlockEnd
  0
BLOCK
  5
1CD
330
1CC
100
AcDbEntity
  8
0
100
AcDbBlockBegin
  2
*D12
 70
     1
 10
0.0
 20
0.0
 30
0.0
  3
*D12
  1

  0
LINE
  5
1CF
330
1CC
100
AcDbEntity
  8
치수문자_일반주서
 62
     0
370
    -2
100
AcDbLine
 10
18.6128143051502
 20
-4.865490547746548
 30
0.0
 11
28.41971690338802
 21
-18.39694839851264
 31
0.0
  0
MTEXT
  5
1D0
330
1CC
100
AcDbEntity
  8
치수문자_일반주서
 62
     0
100
AcDbMText
 10
27.84942955175097
 20
-13.13691642151261
 30
0.0
 40
3.5
 41
0.0
 71
     5
 72
     1
  1
\A1;R0.3
  7
SLDTEXTSTYLE0
 11
0.5868340365001482
 21
-0.8097072394420978
 31
0.0
 73
     1
 44
1.0
  0
LINE
  5
1D1
330
1CC
100
AcDbEntity
  8
치수문자_일반주서
 62
     0
370
    -2
100
AcDbLine
 10
16.49903810567667
 20
-1.948925071276111
 30
0.0
 11
16.67508831662671
 21
-2.191837243108741
 31
0.0
  0
SOLID
  5
1D2
330
1CC
100
AcDbEntity
  8
치수문자_일반주서
 62
     0
100
AcDbTrace
 10
19.0584231892565
 20
-4.542536216325965
 30
0.0
 11
18.1672054210439
 21
-5.188444879167129
 31
0.0
 12
16.67508831662671
 22
-2.191837243108741
 32
0.0
 13
16.67508831662671
 23
-2.191837243108741
 33
0.0
  0
POINT
  5
1D3
330
1CC
100
AcDbEntity
  8
Defpoints
 62
     0
100
AcDbPoint
 10
16.67508831662671
 20
-2.191837243108741
 30
0.0
  0
POINT
  5
1D4
330
1CC
100
AcDbEntity
  8
Defpoints
 62
     0
100
AcDbPoint
 10
16.49903810567667
 20
-1.948925071276111
 30
0.0
  0
ENDBLK
  5
1CE
330
1CC
100
AcDbEntity
  8
0
100
AcDbBlockEnd
  0
ENDSEC
  0
SECTION
  2
ENTITIES
  0
LINE
  5
96
330
1F
100
AcDbEntity
  8
외형선
  6
Continuous
370
    15
100
AcDbLine
 10
9.886682064633362
 20
0.6432010255090741
 30
0.0
 11
9.825081422474916
 21
0.6760605163543673
 31
0.0
  0
LINE
  5
97
330
1F
100
AcDbEntity
  8
0
  6
Continuous
 62
     1
370
    15
100
AcDbLine
 10
11.01117842229951
 20
-2.248925071276103
 30
0.0
 11
12.38379568382904
 21
-2.248925071276103
 31
0.0
1001
PE_URL
1000

  0
LINE
  5
98
330
1F
100
AcDbEntity
  8
0
  6
Continuous
 62
     1
370
    15
100
AcDbLine
 10
6.261623724590311
 20
2.251074928723889
 30
0.0
 11
5.799038105676679
 21
2.251074928723889
 31
0.0
1001
PE_URL
1000

  0
LINE
  5
99
330
1F
100
AcDbEntity
  8
0
  6
Continuous
 62
     1
370
    15
100
AcDbLine
 10
12.38379568382902
 20
2.251074928723889
 30
0.0
 11
11.01117842229952
 21
2.251074928723889
 31
0.0
1001
PE_URL
1000

  0
LINE
  5
9A
330
1F
100
AcDbEntity
  8
0
  6
Continuous
 62
     1
370
    15
100
AcDbLine
 10
5.799038105676679
 20
-2.248925071276103
 30
0.0
 11
6.261623724590297
 21
-2.248925071276103
 31
0.0
1001
PE_URL
1000

  0
LINE
  5
9B
330
1F
100
AcDbEntity
  8
외형선
  6
Continuous
370
    15
100
AcDbLine
 10
-62.60096189432333
 20
-2.998925071276111
 30
0.0
 11
2.0
 21
-2.998925071276111
 31
0.0
  0
LINE
  5
9C
330
1F
100
AcDbEntity
  8
외형선
  6
Continuous
370
    15
100
AcDbLine
 10
2.0
 20
3.001074928723897
 30
0.0
 11
-62.60096189432333
 21
3.001074928723897
 31
0.0
  0
LINE
  5
9D
330
1F
100
AcDbEntity
  8
외형선
  6
Continuous
370
    15
100
AcDbLine
 10
2.0
 20
-2.998925071276115
 30
0.0
 11
4.802325169850544
 21
-2.24804430508525
 31
0.0
  0
LINE
  5
9E
330
1F
100
AcDbEntity
  8
외형선
  6
Continuous
370
    15
100
AcDbLine
 10
4.802325169850544
 20
2.250194162533036
 30
0.0
 11
2.0
 21
3.001074928723901
 31
0.0
  0
LINE
  5
9F
330
1F
100
AcDbEntity
  8
외형선
  6
Continuous
370
    15
100
AcDbLine
 10
-62.60096189432333
 20
3.001074928723893
 30
0.0
 11
-63.20096189432333
 21
2.401074928723895
 31
0.0
  0
LINE
  5
A0
330
1F
100
AcDbEntity
  8
외형선
  6
Continuous
370
    15
100
AcDbLine
 10
-63.20096189432333
 20
-2.398925071276109
 30
0.0
 11
-62.60096189432333
 21
-2.998925071276107
 31
0.0
  0
LINE
  5
A1
330
1F
100
AcDbEntity
  8
외형선
  6
Continuous
370
    15
100
AcDbLine
 10
4.88967298698757
 20
-2.248925071276107
 30
0.0
 11
5.799038105676679
 21
-2.248925071276107
 31
0.0
  0
LINE
  5
A2
330
1F
100
AcDbEntity
  8
외형선
  6
Continuous
370
    15
100
AcDbLine
 10
5.799038105676679
 20
2.251074928723893
 30
0.0
 11
4.88967298698757
 21
2.251074928723893
 31
0.0
  0
SPLINE
  5
A3
330
1F
100
AcDbEntity
  8
0
  6
Continuous
 62
     1
370
    15
100
AcDbSpline
210
0.0
220
0.0
230
1.0
 70
     8
 71
     3
 72
    16
 73
    12
 74
     0
 42
0.000000001
 43
0.00000001
 40
0.0
 40
0.0
 40
0.0
 40
0.0
 40
0.1117025732577522
 40
0.2234210484798929
 40
0.3350857330856304
 40
0.4467088260091027
 40
0.558304080544832
 40
0.6698853641084895
 40
0.8014485647893481
 40
0.933009345239938
 40
1.0
 40
1.0
 40
1.0
 40
1.0
 10
5.799038105676669
 20
0.2674487302505554
 30
0.0
 10
6.132109478122466
 20
0.0748993825112999
 30
0.0
 10
6.79829963901307
 20
-0.310226724268325
 30
0.0
 10
7.797526992511791
 20
-0.8720473516517143
 30
0.0
 10
8.796372188067267
 20
-1.375676882260137
 30
0.0
 10
9.794776527772342
 20
-1.789784765742732
 30
0.0
 10
10.79292542537122
 20
-2.086371819978624
 30
0.0
 10
11.85031246604126
 20
-2.258240373255976
 30
0.0
 10
12.96800326939974
 20
-2.252336463261725
 30
0.0
 10
13.95247901465485
 20
-2.103437626479562
 30
0.0
 10
14.54462857562353
 20
-1.897238631740267
 30
0.0
 10
14.7444180496361
 20
-1.827667713485273
 30
0.0
1001
PE_URL
1000

  0
SPLINE
  5
A4
330
1F
100
AcDbEntity
  8
외형선
  6
Continuous
370
    15
100
AcDbSpline
210
0.0
220
0.0
230
1.0
 70
    24
 71
     3
 72
    13
 73
     9
 74
     0
 42
0.000000001
 43
0.00000001
 40
0.0
 40
0.0
 40
0.0
 40
0.0
 40
0.1712995262326731
 40
0.3689887702684881
 40
0.5666780143043211
 40
0.7643672583401541
 40
0.9620565023759915
 40
1.0
 40
1.0
 40
1.0
 40
1.0
 10
5.799038105676654
 20
2.190088941599999
 30
0.0
 10
5.799038105676626
 20
2.071492395444331
 30
0.0
 10
5.799038105676612
 20
1.816028795010138
 30
0.0
 10
5.799038105676654
 20
1.372471274577446
 30
0.0
 10
5.799038105676654
 20
0.9244833486615395
 30
0.0
 10
5.799038105676832
 20
0.5523022089013585
 30
0.0
 10
5.799038105676626
 20
0.3243080415770964
 30
0.0
 10
5.799038105676626
 20
0.2753347994131181
 30
0.0
 10
5.79903810567664
 20
0.2674487302505762
 30
0.0
  0
SPLINE
  5
A5
330
1F
100
AcDbEntity
  8
0
  6
Continuous
 62
     1
370
    15
100
AcDbSpline
210
0.0
220
0.0
230
1.0
 70
     8
 71
     3
 72
    38
 73
    34
 74
     0
 42
0.000000001
 43
0.00000001
 40
0.0
 40
0.0
 40
0.0
 40
0.0
 40
0.0625
 40
0.0625
 40
0.125
 40
0.125
 40
0.1875
 40
0.1875
 40
0.25
 40
0.25
 40
0.3125
 40
0.3125
 40
0.375
 40
0.375
 40
0.4375
 40
0.4375
 40
0.5
 40
0.5
 40
0.5625
 40
0.5625
 40
0.625
 40
0.625
 40
0.6875
 40
0.6875
 40
0.75
 40
0.75
 40
0.8125
 40
0.8125
 40
0.875
 40
0.875
 40
0.9375
 40
0.9375
 40
1.0
 40
1.0
 40
1.0
 40
1.0
 10
16.49903810567667
 20
-2.24892507127611
 30
0.0
 10
16.27574479682178
 20
-2.198234413483209
 30
0.0
 10
16.05056323334973
 20
-2.166302853395377
 30
0.0
 10
15.60630201527132
 20
-2.081863665618712
 30
0.0
 10
15.38491419783772
 20
-2.029296566480785
 30
0.0
 10
14.93690284757206
 20
-1.90431486236423
 30
0.0
 10
14.7142945211685
 20
-1.832249168217329
 30
0.0
 10
14.27125237491369
 20
-1.6712161941404
 30
0.0
 10
14.04622612157642
 20
-1.581649883882118
 30
0.0
 10
13.59901933892582
 20
-1.388197950973577
 30
0.0
 10
13.37920025371751
 20
-1.284746383416077
 30
0.0
 10
12.93256759116809
 20
-1.065200163338526
 30
0.0
 10
12.70739353453391
 20
-0.9493080147733673
 30
0.0
 10
12.26320730874514
 20
-0.7104253640076397
 30
0.0
 10
12.0417497366104
 20
-0.5870314274758571
 30
0.0
 10
11.59373306646996
 20
-0.3347327619728224
 30
0.0
 10
11.37121545551405
 20
-0.2065904329553988
 30
0.0
 10
10.92808802031173
 20
0.0501004812385995
 30
0.0
 10
10.70304885398676
 20
0.1795031069465582
 30
0.0
 10
10.25587756453647
 20
0.4347371269128421
 30
0.0
 10
10.03606830163242
 20
0.5601383533828505
 30
0.0
 10
9.589390335224486
 20
0.8055645490354585
 30
0.0
 10
9.364224166219444
 20
0.9252324049163003
 30
0.0
 10
8.920113660170397
 20
1.153274553952838
 30
0.0
 10
8.698584855483524
 20
1.262129514543284
 30
0.0
 10
8.250563614144681
 20
1.46718628503043
 30
0.0
 10
8.028135246637508
 20
1.562745207150319
 30
0.0
 10
7.584923244110154
 20
1.737498392847369
 30
0.0
 10
7.359871544823218
 20
1.817205634345884
 30
0.0
 10
6.912736492545729
 20
1.957633365841461
 30
0.0
 10
6.692935564978004
 20
2.018224223132476
 30
0.0
 10
6.246213035944191
 20
2.119722566836069
 30
0.0
 10
6.021055135314825
 20
2.160370808005132
 30
0.0
 10
5.799038105676654
 20
2.1900889416
 30
0.0
1001
PE_URL
1000

  0
LINE
  5
A7
330
1F
100
AcDbEntity
  8
0
  6
Continuous
 62
     1
370
    15
100
AcDbLine
 10
16.79903810567667
 20
-1.788875442260344
 30
0.0
 11
16.79903810567667
 21
0.221113213307589
 31
0.0
1001
PE_URL
1000

  0
SPLINE
  5
A8
330
1F
100
AcDbEntity
  8
0
  6
Continuous
 62
     1
370
    15
100
AcDbSpline
210
0.0
220
0.0
230
1.0
 70
     8
 71
     3
 72
    10
 73
     6
 74
     0
 42
0.000000001
 43
0.00000001
 40
0.0
 40
0.0
 40
0.0
 40
0.0
 40
0.5000000000000002
 40
0.5000000000000002
 40
1.0
 40
1.0
 40
1.0
 40
1.0
 10
16.4990381056767
 20
-1.957118477398809
 30
0.0
 10
16.57626070900214
 20
-1.979049356992721
 30
0.0
 10
16.64701830497871
 20
-1.977916915457098
 30
0.0
 10
16.75885107631785
 20
-1.923752027703829
 30
0.0
 10
16.7990381056773
 20
-1.866713105286174
 30
0.0
 10
16.79903810567667
 20
-1.788875442260263
 30
0.0
1001
PE_URL
1000

  0
SPLINE
  5
A9
330
1F
100
AcDbEntity
  8
0
  6
Continuous
 62
     1
370
    15
100
AcDbSpline
210
0.0
220
0.0
230
1.0
 70
     8
 71
     3
 72
    17
 73
    13
 74
     0
 42
0.000000001
 43
0.00000001
 40
0.0
 40
0.0
 40
0.0
 40
0.0
 40
0.0524209192671213
 40
0.1500426184485277
 40
0.2476173143803544
 40
0.345155666720069
 40
0.4426696933544059
 40
0.5401715118912882
 40
0.6551339044111617
 40
0.7700941820884296
 40
0.8850502453293314
 40
1.0
 40
1.0
 40
1.0
 40
1.0
 10
6.261623724590326
 20
2.232730289302022
 30
0.0
 10
6.440502589051459
 20
2.235733131996539
 30
0.0
 10
6.952501493002067
 20
2.244328066747271
 30
0.0
 10
7.797528153586917
 20
2.097169570904914
 30
0.0
 10
8.796371875803356
 20
1.813043570639673
 30
0.0
 10
9.794776616422183
 20
1.40348766733397
 30
0.0
 10
10.79292538291305
 20
0.9043078324617938
 30
0.0
 10
11.85031255461708
 20
0.3125042139746955
 30
0.0
 10
12.96800290222884
 20
-0.3405853506920359
 30
0.0
 10
14.14502855690018
 20
-0.9942618848791562
 30
0.0
 10
15.32206809387561
 20
-1.570545610190006
 30
0.0
 10
16.10672194532518
 20
-1.828263212235926
 30
0.0
 10
16.49903810567661
 20
-1.957118477398837
 30
0.0
1001
PE_URL
1000

  0
SPLINE
  5
AA
330
1F
100
AcDbEntity
  8
0
  6
Continuous
 62
     1
370
    15
100
AcDbSpline
210
0.0
220
0.0
230
1.0
 70
     8
 71
     3
 72
    15
 73
    11
 74
     0
 42
0.000000001
 43
0.00000001
 40
0.0
 40
0.0
 40
0.0
 40
0.0
 40
0.1273371765540663
 40
0.2547253391870463
 40
0.3821694362741109
 40
0.5095732023303617
 40
0.6369219923938126
 40
0.7642314087714265
 40
0.9142912844449425
 40
1.0
 40
1.0
 40
1.0
 40
1.0
 10
16.49903810567661
 20
0.366076289597504
 30
0.0
 10
16.16622180646665
 20
0.5533748345890922
 30
0.0
 10
15.5004559476859
 20
0.9280469193118552
 30
0.0
 10
14.50150945970867
 20
1.423070020939878
 30
0.0
 10
13.50224938401414
 20
1.826969957269692
 30
0.0
 10
12.50321086111404
 20
2.110830170615658
 30
0.0
 10
11.5045673532145
 20
2.258627521603266
 30
0.0
 10
10.44694363677026
 20
2.252632611302743
 30
0.0
 10
9.497540182536568
 20
2.118287476756446
 30
0.0
 10
8.881151781083062
 20
1.908392495684715
 30
0.0
 10
8.657076734036607
 20
1.832089587246541
 30
0.0
1001
PE_URL
1000

  0
SPLINE
  5
AB
330
1F
100
AcDbEntity
  8
0
  6
Continuous
 62
     1
370
    15
100
AcDbSpline
210
0.0
220
0.0
230
1.0
 70
     8
 71
     3
 72
    10
 73
     6
 74
     0
 42
0.000000001
 43
0.00000001
 40
0.0
 40
0.0
 40
0.0
 40
0.0
 40
0.5
 40
0.5
 40
1.0
 40
1.0
 40
1.0
 40
1.0
 10
16.79903810567667
 20
0.2260252997099911
 30
0.0
 10
16.79903810567668
 20
0.2267350977291426
 30
0.0
 10
16.76269602564895
 20
0.2373816617366965
 30
0.0
 10
16.64675522258418
 20
0.2868477994559299
 30
0.0
 10
16.57063033534529
 20
0.3253407396309839
 30
0.0
 10
16.49903810567667
 20
0.3660762895974768
 30
0.0
1001
PE_URL
1000

  0
SPLINE
  5
AC
330
1F
100
AcDbEntity
  8
0
  6
Continuous
 62
     1
370
    15
100
AcDbSpline
210
0.0
220
0.0
230
1.0
 70
     8
 71
     3
 72
    12
 73
     8
 74
     0
 42
0.000000001
 43
0.00000001
 40
0.0
 40
0.0
 40
0.0
 40
0.0
 40
0.0968935067718654
 40
0.3226968900571769
 40
0.5484851518510012
 40
0.7742542082196523
 40
1.0
 40
1.0
 40
1.0
 40
1.0
 10
11.01117842229951
 20
-2.230493784282464
 30
0.0
 10
10.84289523420484
 20
-2.233805774392714
 30
0.0
 10
10.28244011955083
 20
-2.244836120430183
 30
0.0
 10
9.329298657421173
 20
-2.068160563587796
 30
0.0
 10
8.152470665565652
 20
-1.696888268221855
 30
0.0
 10
6.975693137946756
 20
-1.166007080821896
 30
0.0
 10
6.191242976669674
 20
-0.73481523159373
 30
0.0
 10
5.799038105676654
 20
-0.5192304156961085
 30
0.0
1001
PE_URL
1000

  0
LINE
  5
AD
330
1F
100
AcDbEntity
  8
외형선
  6
Continuous
370
    15
100
AcDbLine
 10
5.799038105676654
 20
-0.5192304156961298
 30
0.0
 11
5.799038105676669
 21
0.2674487302505578
 31
0.0
  0
SPLINE
  5
AE
330
1F
100
AcDbEntity
  8
0
  6
Continuous
 62
     1
370
    15
100
AcDbSpline
210
0.0
220
0.0
230
1.0
 70
     8
 71
     3
 72
    10
 73
     6
 74
     0
 42
0.000000001
 43
0.00000001
 40
0.0
 40
0.0
 40
0.0
 40
0.0
 40
0.4999999999999998
 40
0.4999999999999998
 40
1.0
 40
1.0
 40
1.0
 40
1.0
 10
16.4990381056767
 20
1.109216880017519
 30
0.0
 10
16.57626070900213
 20
1.070462906520575
 30
0.0
 10
16.64701830497867
 20
1.012157553358022
 30
0.0
 10
16.75885107631779
 20
0.8865237882846773
 30
0.0
 10
16.79903810567733
 20
0.8188069913403752
 30
0.0
 10
16.79903810567667
 20
0.7747529427614455
 30
0.0
1001
PE_URL
1000

  0
LINE
  5
AF
330
1F
100
AcDbEntity
  8
0
  6
Continuous
 62
     1
370
    15
100
AcDbLine
 10
16.79903810567667
 20
0.2260252997099952
 30
0.0
 11
16.79903810567667
 21
0.7747529427614909
 31
0.0
1001
PE_URL
1000

  0
SPLINE
  5
B0
330
1F
100
AcDbEntity
  8
0
  6
Continuous
 62
     1
370
    15
100
AcDbSpline
210
0.0
220
0.0
230
1.0
 70
     8
 71
     3
 72
    11
 73
     7
 74
     0
 42
0.000000001
 43
0.00000001
 40
0.0
 40
0.0
 40
0.0
 40
0.0
 40
0.1419520947647845
 40
0.4279802857292053
 40
0.7139979909185907
 40
1.0
 40
1.0
 40
1.0
 40
1.0
 10
12.38379568382902
 20
2.225475404350195
 30
0.0
 10
12.57852023906634
 20
2.230492052783172
 30
0.0
 10
13.16560753021939
 20
2.245617061211586
 30
0.0
 10
14.14503921561818
 20
2.048324848263412
 30
0.0
 10
15.3220654294074
 20
1.672818554366782
 30
0.0
 10
16.10672105718537
 20
1.297080668076311
 30
0.0
 10
16.4990381056766
 20
1.109216880017768
 30
0.0
1001
PE_URL
1000

  0
SPLINE
  5
B1
330
1F
100
AcDbEntity
  8
0
  6
Continuous
 62
     1
370
    15
100
AcDbSpline
210
0.0
220
0.0
230
1.0
 70
     8
 71
     3
 72
    10
 73
     6
 74
     0
 42
0.000000001
 43
0.00000001
 40
0.0
 40
0.0
 40
0.0
 40
0.0
 40
0.3496162794108013
 40
0.6992823301515144
 40
1.0
 40
1.0
 40
1.0
 40
1.0
 10
5.799038105676694
 20
-2.233101652896329
 30
0.0
 10
6.132109021676435
 20
-2.241029531404878
 30
0.0
 10
6.798298269609912
 20
-2.25688641703377
 30
0.0
 10
7.751056883398721
 20
-2.112340259452522
 30
0.0
 10
8.370612871130334
 20
-1.91922866376023
 30
0.0
 10
8.657076734036579
 20
-1.829939729798752
 30
0.0
1001
PE_URL
1000

  0
SPLINE
  5
B2
330
1F
100
AcDbEntity
  8
외형선
  6
Continuous
370
    15
100
AcDbSpline
210
0.0
220
0.0
230
1.0
 70
    24
 71
     3
 72
    17
 73
    13
 74
     0
 42
0.000000001
 43
0.00000001
 40
0.0
 40
0.0
 40
0.0
 40
0.0
 40
0.0426907698049398
 40
0.1597378893888993
 40
0.2734862974339516
 40
0.3905334170181761
 40
0.5042818250632175
 40
0.6213289446474302
 40
0.7350773526923574
 40
0.8521244722766981
 40
0.9256301702633437
 40
1.0
 40
1.0
 40
1.0
 40
1.0
 10
5.799038105676679
 20
-0.5192304156961233
 30
0.0
 10
5.799038105676679
 20
-0.5324994917383783
 30
0.0
 10
5.799038105676694
 20
-0.5821489642312679
 30
0.0
 10
5.799038105676832
 20
-0.7007874428183996
 30
0.0
 10
5.799038105676654
 20
-0.8714641802327224
 30
0.0
 10
5.799038105676612
 20
-1.065510755864506
 30
0.0
 10
5.799038105676654
 20
-1.278230208553442
 30
0.0
 10
5.799038105676654
 20
-1.500481078270531
 30
0.0
 10
5.799038105676679
 20
-1.729831379779195
 30
0.0
 10
5.799038105676679
 20
-1.929157405623748
 30
0.0
 10
5.799038105676708
 20
-2.098015524045802
 30
0.0
 10
5.799038105676694
 20
-2.187897863187438
 30
0.0
 10
5.799038105676679
 20
-2.233101652896331
 30
0.0
  0
LINE
  5
B3
330
1F
100
AcDbEntity
  8
0
  6
Continuous
 62
     1
370
    15
100
AcDbLine
 10
16.79903810567667
 20
0.7747529427614909
 30
0.0
 11
16.79903810567667
 21
1.938056428530546
 31
0.0
1001
PE_URL
1000

  0
SPLINE
  5
B4
330
1F
100
AcDbEntity
  8
0
  6
Continuous
 62
     1
370
    15
100
AcDbSpline
210
0.0
220
0.0
230
1.0
 70
     8
 71
     3
 72
     9
 73
     5
 74
     0
 42
0.000000001
 43
0.00000001
 40
0.0
 40
0.0
 40
0.0
 40
0.0
 40
0.5690675987397755
 40
1.0
 40
1.0
 40
1.0
 40
1.0
 10
16.49903810567667
 20
2.251074928723889
 30
0.0
 10
16.16622466233339
 20
2.179001723861576
 30
0.0
 10
15.58138475213597
 20
2.104722245371133
 30
0.0
 10
14.99647472999743
 20
1.912606479318198
 30
0.0
 10
14.7444180496361
 20
1.829817570933059
 30
0.0
1001
PE_URL
1000

  0
LINE
  5
B6
330
1F
100
AcDbEntity
  8
0
  6
Continuous
 62
     1
370
    15
100
AcDbLine
 10
16.79903810567667
 20
-1.93590657108276
 30
0.0
 11
16.79903810567667
 21
-1.788875442260344
 31
0.0
1001
PE_URL
1000

  0
LINE
  5
B7
330
1F
100
AcDbEntity
  8
외형선
  6
Continuous
370
    15
100
AcDbLine
 10
5.799038105676679
 20
-2.248925071276103
 30
0.0
 11
5.799038105676679
 21
-2.233101652896331
 31
0.0
  0
LINE
  5
B8
330
1F
100
AcDbEntity
  8
외형선
  6
Continuous
370
    15
100
AcDbLine
 10
2.0
 20
0.0010749287238931
 30
0.0
 11
2.0
 21
3.001074928723897
 31
0.0
  0
LINE
  5
B9
330
1F
100
AcDbEntity
  8
외형선
  6
Continuous
370
    15
100
AcDbLine
 10
2.0
 20
-2.998925071276111
 30
0.0
 11
2.0
 21
0.0010749287238931
 31
0.0
  0
LINE
  5
BA
330
1F
100
AcDbEntity
  8
외형선
  6
Continuous
370
    15
100
AcDbLine
 10
-62.60096189432333
 20
0.0010749287238931
 30
0.0
 11
-62.60096189432333
 21
3.001074928723897
 31
0.0
  0
LINE
  5
BB
330
1F
100
AcDbEntity
  8
외형선
  6
Continuous
370
    15
100
AcDbLine
 10
-62.60096189432333
 20
-2.998925071276111
 30
0.0
 11
-62.60096189432333
 21
0.0010749287238931
 31
0.0
  0
LINE
  5
BC
330
1F
100
AcDbEntity
  8
외형선
  6
Continuous
370
    15
100
AcDbLine
 10
4.798890831945027
 20
-2.241681478917484
 30
0.0
 11
4.798890831945027
 21
-2.248356629037236
 31
0.0
  0
SPLINE
  5
BD
330
1F
100
AcDbEntity
  8
외형선
  6
Continuous
370
    15
100
AcDbSpline
210
0.0
220
0.0
230
1.0
 70
    24
 71
     3
 72
    11
 73
     7
 74
     0
 42
0.000000001
 43
0.00000001
 40
0.0
 40
0.0
 40
0.0
 40
0.0
 40
0.2548332031207571
 40
0.5096664062415139
 40
0.7644996093622709
 40
1.0
 40
1.0
 40
1.0
 40
1.0
 10
4.799038105676679
 20
0.8257128037302867
 30
0.0
 10
4.799038105676679
 20
1.031146486773459
 30
0.0
 10
4.799038105676679
 20
1.442013852859803
 30
0.0
 10
4.799038105676694
 20
1.90080086204353
 30
0.0
 10
4.799038105676665
 20
2.199939529920242
 30
0.0
 10
4.799038105676694
 20
2.229567267857453
 30
0.0
 10
4.799038105676694
 20
2.243797057426719
 30
0.0
  0
LINE
  5
BE
330
1F
100
AcDbEntity
  8
외형선
  6
Continuous
370
    15
100
AcDbLine
 10
4.799038105676679
 20
0.0533341220296421
 30
0.0
 11
4.799038105676679
 21
0.8257128037302869
 31
0.0
  0
SPLINE
  5
BF
330
1F
100
AcDbEntity
  8
외형선
  6
Continuous
370
    15
100
AcDbSpline
210
0.0
220
0.0
230
1.0
 70
    24
 71
     3
 72
    10
 73
     6
 74
     0
 42
0.000000001
 43
0.00000001
 40
0.0
 40
0.0
 40
0.0
 40
0.0
 40
0.5
 40
0.5
 40
1.0
 40
1.0
 40
1.0
 40
1.0
 10
4.799038105676679
 20
-2.092360614851532
 30
0.0
 10
4.799038105676679
 20
-1.924852733805766
 30
0.0
 10
4.799038105676679
 20
-1.624293650061877
 30
0.0
 10
4.799038105676679
 20
-0.8627989731801896
 30
0.0
 10
4.799038105676679
 20
-0.4035828721084624
 30
0.0
 10
4.799038105676679
 20
0.0533341220296419
 30
0.0
  0
LINE
  5
C0
330
1F
100
AcDbEntity
  8
외형선
  6
Continuous
370
    15
100
AcDbLine
 10
4.799038105676679
 20
-2.248318161061566
 30
0.0
 11
4.799038105676679
 21
-2.092360614851532
 31
0.0
  0
LINE
  5
C1
330
1F
100
AcDbEntity
  8
외형선
  6
Continuous
370
    15
100
AcDbLine
 10
-63.20096189432333
 20
0.0010749287238931
 30
0.0
 11
-63.20096189432333
 21
2.401074928723895
 31
0.0
  0
LINE
  5
C2
330
1F
100
AcDbEntity
  8
외형선
  6
Continuous
370
    15
100
AcDbLine
 10
-63.20096189432333
 20
-2.398925071276109
 30
0.0
 11
-63.20096189432333
 21
0.0010749287238931
 31
0.0
  0
SPLINE
  5
C3
330
1F
100
AcDbEntity
  8
외형선
  6
Continuous
370
    15
100
AcDbSpline
210
0.0
220
0.0
230
1.0
 70
    24
 71
     3
 72
    12
 73
     8
 74
     0
 42
0.000000001
 43
0.00000001
 40
0.0
 40
0.0
 40
0.0
 40
0.0
 40
0.226165858122042
 40
0.454125421070655
 40
0.6820849840193671
 40
0.910044546968028
 40
1.0
 40
1.0
 40
1.0
 40
1.0
 10
5.799038105676708
 20
-2.233101652896334
 30
0.0
 10
5.799038105676694
 20
-2.089879285582151
 30
0.0
 10
5.799038105676679
 20
-1.802298664867098
 30
0.0
 10
5.799038105676708
 20
-1.337661896397617
 30
0.0
 10
5.799038105676765
 20
-0.9229953204095619
 30
0.0
 10
5.799038105676708
 20
-0.6342529411462561
 30
0.0
 10
5.799038105676694
 20
-0.5445985268290507
 30
0.0
 10
5.799038105676694
 20
-0.5192304156961323
 30
0.0
  0
SPLINE
  5
C4
330
1F
100
AcDbEntity
  8
외형선
  6
Continuous
370
    15
100
AcDbSpline
210
0.0
220
0.0
230
1.0
 70
     8
 71
     3
 72
    10
 73
     6
 74
     0
 42
0.000000001
 43
0.00000001
 40
0.0
 40
0.0
 40
0.0
 40
0.0
 40
0.5
 40
0.5
 40
1.0
 40
1.0
 40
1.0
 40
1.0
 10
5.799038105676722
 20
-2.233101652896337
 30
0.0
 10
5.633021371319476
 20
-2.221724847447122
 30
0.0
 10
5.468031702275958
 20
-2.204276280856948
 30
0.0
 10
5.133591405341917
 20
-2.157207534961454
 30
0.0
 10
4.965594728650171
 20
-2.127613701628635
 30
0.0
 10
4.798890831945013
 20
-2.09234312810084
 30
0.0
  0
SPLINE
  5
C5
330
1F
100
AcDbEntity
  8
외형선
  6
Continuous
370
    15
100
AcDbSpline
210
0.0
220
0.0
230
1.0
 70
     8
 71
     3
 72
    10
 73
     6
 74
     0
 42
0.000000001
 43
0.00000001
 40
0.0
 40
0.0
 40
0.0
 40
0.0
 40
0.5
 40
0.5
 40
1.0
 40
1.0
 40
1.0
 40
1.0
 10
5.799038105676679
 20
-0.5192304156961314
 30
0.0
 10
5.633021371319433
 20
-0.4257377883905753
 30
0.0
 10
5.468031702275901
 20
-0.3310167868719727
 30
0.0
 10
5.133591405341917
 20
-0.1394247783875047
 30
0.0
 10
4.965594728650142
 20
-0.0428295583768139
 30
0.0
 10
4.798890831945013
 20
0.053373976823913
 30
0.0
  0
SPLINE
  5
C6
330
1F
100
AcDbEntity
  8
외형선
  6
Continuous
370
    15
100
AcDbSpline
210
0.0
220
0.0
230
1.0
 70
     8
 71
     3
 72
    10
 73
     6
 74
     0
 42
0.000000001
 43
0.00000001
 40
0.0
 40
0.0
 40
0.0
 40
0.0
 40
0.5
 40
0.5
 40
1.0
 40
1.0
 40
1.0
 40
1.0
 10
5.799038105676722
 20
0.2674487302505245
 30
0.0
 10
5.633021371319476
 20
0.3628702475416755
 30
0.0
 10
5.468031702275958
 20
0.4573700742092209
 30
0.0
 10
5.133591405341917
 20
0.6441892454215231
 30
0.0
 10
4.965594728650171
 20
0.7362244633726919
 30
0.0
 10
4.798890831945013
 20
0.8257571944239357
 30
0.0
  0
SPLINE
  5
C7
330
1F
100
AcDbEntity
  8
외형선
  6
Continuous
370
    15
100
AcDbSpline
210
0.0
220
0.0
230
1.0
 70
    24
 71
     3
 72
    13
 73
     9
 74
     0
 42
0.000000001
 43
0.00000001
 40
0.0
 40
0.0
 40
0.0
 40
0.0
 40
0.1133753833801
 40
0.3097271576995518
 40
0.5060789320190036
 40
0.7024307063384476
 40
0.8987824806579149
 40
1.0
 40
1.0
 40
1.0
 40
1.0
 10
5.799038105676722
 20
0.2674487302505247
 30
0.0
 10
5.799038105676722
 20
0.2987581210515527
 30
0.0
 10
5.79903810567675
 20
0.3842914029068887
 30
0.0
 10
5.799038105676694
 20
0.6724693346199516
 30
0.0
 10
5.799038105676694
 20
1.077691958815462
 30
0.0
 10
5.799038105676669
 20
1.535439143614143
 30
0.0
 10
5.799038105676679
 20
1.918153358547699
 30
0.0
 10
5.799038105676679
 20
2.12106799045552
 30
0.0
 10
5.799038105676679
 20
2.190088941600036
 30
0.0
  0
SPLINE
  5
C8
330
1F
100
AcDbEntity
  8
외형선
  6
Continuous
370
    15
100
AcDbSpline
210
0.0
220
0.0
230
1.0
 70
     8
 71
     3
 72
    10
 73
     6
 74
     0
 42
0.000000001
 43
0.00000001
 40
0.0
 40
0.0
 40
0.0
 40
0.0
 40
0.5000000000000001
 40
0.5000000000000001
 40
1.0
 40
1.0
 40
1.0
 40
1.0
 10
5.799038105676679
 20
2.190088941599999
 30
0.0
 10
5.633021371319419
 20
2.212311144548366
 30
0.0
 10
5.46803170227593
 20
2.228516131051296
 30
0.0
 10
5.133591405341917
 20
2.248749070963992
 30
0.0
 10
4.965594728650142
 20
2.252703787860962
 30
0.0
 10
4.798890831945013
 20
2.250467026506721
 30
0.0
  0
LINE
  5
C9
330
1F
100
AcDbEntity
  8
외형선
  6
Continuous
370
    15
100
AcDbLine
 10
4.88967298698757
 20
-2.246578795424701
 30
0.0
 11
4.798890831945013
 21
-2.248317169058934
 31
0.0
  0
LINE
  5
CA
330
1F
100
AcDbEntity
  8
중심선
100
AcDbLine
 10
-66.20096189432333
 20
0.0010749287238931
 30
0.0
 11
19.79903810567667
 21
0.0010749287238892
 31
0.0
  0
LINE
  5
CB
330
1F
100
AcDbEntity
  8
참조1
100
AcDbLine
 10
-38.20147526187956
 20
-2.498925071276081
 30
0.0
 11
-38.20147526187955
 21
-39.9989250712761
 31
0.0
  0
LINE
  5
CC
330
1F
100
AcDbEntity
  8
참조1
100
AcDbLine
 10
-38.20147526187955
 20
-39.9989250712761
 30
0.0
 11
-53.35981870863201
 21
-39.9989250712761
 31
0.0
  0
CIRCLE
  5
CD
330
1F
100
AcDbEntity
  8
해칭선
100
AcDbCircle
 10
0.0
 20
0.0
 30
0.0
 40
3.000000000000001
  0
INSERT
  5
CE
330
1F
100
AcDbEntity
  8
0
  6
Continuous
 62
     7
100
AcDbBlockReference
 66
     1
  2
블럭10
 10
-36.95803682415429
 20
-52.04609937292004
 30
0.0
  0
ATTRIB
  5
CF
330
CE
100
AcDbEntity
  8
FORMAT
 62
     2
100
AcDbText
 10
-53.07729786358985
 20
-49.97073246008785
 30
0.0
 40
4.233333333333333
  1
SEME0104503E [ 4 FLUTE ]
 41
0.75
  7
SLDTEXTSTYLE0
 11
-53.07729786358985
 21
-52.08739912675451
 31
0.0
100
AcDbAttribute
  2
AUTOATTR0
 70
     0
 74
     1
  0
SEQEND
  5
D0
330
CE
100
AcDbEntity
  8
0
  6
Continuous
 62
     7
  0
HATCH
  5
D1
330
1F
100
AcDbEntity
  8
중심선
100
AcDbHatch
 10
0.0
 20
0.0
 30
0.0
210
0.0
220
0.0
230
1.0
  2
SOLID
 70
     1
 71
     0
 91
        1
 92
        0
 93
        4
 72
     1
 10
-31.24312751977345
 20
-35.7989250712761
 11
-34.68940276361073
 21
-35.7989250712761
 72
     1
 10
-34.68940276361073
 20
-35.7989250712761
 11
-36.81763262281476
 21
-38.3352506518487
 72
     1
 10
-36.81763262281475
 20
-38.3352506518487
 11
-33.37132429386432
 21
-38.33521122254621
 72
     1
 10
-33.37132429386432
 20
-38.33521122254621
 11
-31.24312751977345
 21
-35.7989250712761
 97
        0
 75
     0
 76
     1
 98
        1
 10
-7.242121655069283
 20
0.0010749287238931
  0
HATCH
  5
D2
330
1F
100
AcDbEntity
  8
중심선
100
AcDbHatch
 10
0.0
 20
0.0
 30
0.0
210
0.0
220
0.0
230
1.0
  2
SOLID
 70
     1
 71
     0
 91
        1
 92
        0
 93
        4
 72
     1
 10
-26.23036352873749
 20
-35.7989250712761
 11
-29.67663877257478
 21
-35.7989250712761
 72
     1
 10
-29.67663877257478
 20
-35.7989250712761
 11
-34.20777678093216
 21
-41.19892507127612
 72
     1
 10
-34.20777678093216
 20
-41.19892507127612
 11
-30.76150153709488
 21
-41.19892507127612
 72
     1
 10
-30.76150153709489
 20
-41.19892507127612
 11
-26.2303635287375
 21
-35.7989250712761
 97
        0
 75
     0
 76
     1
 98
        1
 10
-7.242121655069283
 20
0.0010749287238931
  0
HATCH
  5
D3
330
1F
100
AcDbEntity
  8
중심선
100
AcDbHatch
 10
0.0
 20
0.0
 30
0.0
210
0.0
220
0.0
230
1.0
  2
SOLID
 70
     1
 71
     0
 91
        1
 92
        0
 93
        4
 72
     1
 10
-21.2175995377016
 20
-35.79892507127613
 11
-24.66387478153872
 21
-35.7989250712761
 72
     1
 10
-24.66387478153871
 20
-35.7989250712761
 11
-31.71231168342796
 21
-44.19892507127612
 72
     1
 10
-31.71231168342796
 20
-44.19892507127612
 11
-28.26603643959068
 21
-44.19892507127612
 72
     1
 10
-28.26603643959068
 20
-44.19892507127612
 11
-21.2175995377016
 21
-35.79892507127613
 97
        0
 75
     0
 76
     1
 98
        1
 10
-7.242121655069283
 20
0.0010749287238931
  0
HATCH
  5
D4
330
1F
100
AcDbEntity
  8
중심선
100
AcDbHatch
 10
0.0
 20
0.0
 30
0.0
210
0.0
220
0.0
230
1.0
  2
SOLID
 70
     1
 71
     0
 91
        1
 92
        0
 93
        6
 72
     3
 10
-16.4177091066894
 20
-39.99892507132738
 11
3.960054785062283
 21
1.540882976769353E-10
 40
0.3939339440162628
 50
17.09539180608439
 51
320.0019657685081
 73
     0
 72
     1
 10
-14.7347094509888
 20
-38.58681907591441
 11
-12.42940757728777
 21
-36.65249236586649
 72
     3
 10
-16.41770910674224
 20
-39.99892507127625
 11
6.600054785286829
 21
-1.278976924368180E-13
 40
0.636358354079598
 50
39.99873849337413
 51
368.4976242363725
 73
     1
 72
     1
 10
-9.992376614841636
 20
-39.03892507120612
 11
-17.73764179990632
 21
-39.03892507120609
 72
     1
 10
-17.73764179990632
 20
-39.03892507120609
 11
-17.73766684435225
 21
-40.95892507120602
 72
     1
 10
-17.73766684435225
 20
-40.95892507120602
 11
-13.29628707488022
 21
-40.95892507120599
 97
        0
 75
     0
 76
     1
 98
        1
 10
-7.242121655069283
 20
0.0010749287238931
  0
DIMENSION
  5
D5
330
1F
100
AcDbEntity
  8
치수문자_일반주서
100
AcDbDimension
  2
_D
 10
26.79903810567667
 20
-2.248925071276075
 30
0.0
 11
26.79903810567662
 21
14.76132492872394
 31
0.0
 70
   160
  1
%%c<>
 71
     2
 42
4.5
 52
-270.0
  3
SLDDIMSTYLE0
100
AcDbAlignedDimension
 13
16.79903810567667
 23
2.251074928723889
 33
0.0
 14
16.79903810567667
 24
-2.248925071276111
 34
0.0
 50
90.0000000000002
100
AcDbRotatedDimension
1001
PE_URL
1000

1001
ACAD
1000
DSTYLE
1002
{
1070
   271
1070
     1
1002
}
  0
DIMENSION
  5
E3
330
1F
100
AcDbEntity
  8
치수문자_일반주서
100
AcDbDimension
  2
_D_1
 10
-73.20096189432333
 20
-2.998925071276149
 30
0.0
 11
-73.20096189432337
 21
12.66757492872386
 31
0.0
 70
   160
  1
%%c<>
 71
     2
 42
6.000000000000005
 52
-270.0
  3
SLDDIMSTYLE1
100
AcDbAlignedDimension
 13
-62.60096189432333
 23
3.001074928723896
 33
0.0
 14
-62.60096189432333
 24
-2.998925071276109
 34
0.0
 50
90.0000000000002
100
AcDbRotatedDimension
  0
DIMENSION
  5
F1
330
1F
100
AcDbEntity
  8
치수문자_일반주서
100
AcDbDimension
  2
_D_2
 10
5.799038105676654
 20
13.0010749287239
 30
0.0
 11
11.29903810567647
 21
13.0010749287239
 31
0.0
 70
   160
  1
<>
 71
     2
 42
11.00000000000002
  3
SLDDIMSTYLE1
100
AcDbAlignedDimension
 13
16.79903810567667
 23
2.251074928723889
 33
0.0
 14
5.799038105676654
 24
2.190088941599999
 34
0.0
 50
0.0000000000007402
100
AcDbRotatedDimension
  0
DIMENSION
  5
FD
330
1F
100
AcDbEntity
  8
치수문자_일반주서
100
AcDbDimension
  2
_D_3
 10
-63.20096189432333
 20
23.0010749287239
 30
0.0
 11
-23.20096189432333
 21
23.0010749287239
 31
0.0
 70
   160
  1
<>
 71
     2
 42
80.0
  3
SLDDIMSTYLE2
100
AcDbAlignedDimension
 13
16.79903810567667
 23
2.251074928723889
 33
0.0
 14
-63.20096189432333
 24
2.401074928723895
 34
0.0
 50
0.0000000000000051
100
AcDbRotatedDimension
  0
LINE
  5
108
330
1F
100
AcDbEntity
  8
참조1
100
AcDbLine
 10
44.61252192102226
 20
7.441074928723896
 30
0.0
 11
44.61252192102226
 21
-7.438925071276109
 31
0.0
  0
LINE
  5
109
330
1F
100
AcDbEntity
  8
참조1
100
AcDbLine
 10
57.31252192102227
 20
5.441074928723896
 30
0.0
 11
44.61252192102226
 21
5.441074928723896
 31
0.0
  0
SOLID
  5
10A
330
1F
100
AcDbEntity
  8
참조1
100
AcDbTrace
 10
44.61252192102226
 20
5.441074928723896
 30
0.0
 11
50.96252192102226
 21
4.425074928723896
 31
0.0
 12
50.96252192102226
 22
6.457074928723896
 32
0.0
 13
50.96252192102226
 23
6.457074928723896
 33
0.0
  0
LINE
  5
10B
330
1F
100
AcDbEntity
  8
참조1
100
AcDbLine
 10
57.31252192102227
 20
-5.438925071276109
 30
0.0
 11
44.61252192102226
 21
-5.438925071276109
 31
0.0
  0
SOLID
  5
10C
330
1F
100
AcDbEntity
  8
참조1
100
AcDbTrace
 10
44.61252192102226
 20
-5.438925071276109
 30
0.0
 11
50.96252192102226
 21
-6.454925071276109
 31
0.0
 12
50.96252192102226
 22
-4.422925071276109
 32
0.0
 13
50.96252192102226
 23
-4.422925071276109
 33
0.0
  0
MTEXT
  5
10D
330
1F
100
AcDbEntity
  8
참조1
100
AcDbMText
 10
54.01001201349254
 20
10.98929157337383
 30
0.0
 40
3.5
 41
0.0
 71
     1
 72
     1
  1
A
  7
SLDTEXTSTYLE0
 73
     1
 44
1.0
  0
MTEXT
  5
10E
330
1F
100
AcDbEntity
  8
참조1
100
AcDbMText
 10
54.01001201349254
 20
0.1092915733738259
 30
0.0
 40
3.5
 41
0.0
 71
     1
 72
     1
  1
A
  7
SLDTEXTSTYLE0
 73
     1
 44
1.0
  0
INSERT
  5
115
330
1F
100
AcDbEntity
  8
해칭선
100
AcDbBlockReference
  2
SW_DOWELSYMBOL_0
 10
0.0
 20
0.0
 30
0.0
  0
ARC
  5
1C6
330
1F
100
AcDbEntity
  8
0
  6
Continuous
 62
     1
370
    15
100
AcDbCircle
 10
16.49903810567667
 20
1.951074928723889
 30
0.0
 40
0.2999999999999998
100
AcDbArc
 50
0.0
 51
90.0
1001
PE_URL
1000

  0
ARC
  5
1C7
330
1F
100
AcDbEntity
  8
0
  6
Continuous
 62
     1
370
    15
100
AcDbCircle
 10
16.49903810567667
 20
-1.948925071276111
 30
0.0
 40
0.2999999999999998
100
AcDbArc
 50
270.0
 51
0.0
1001
PE_URL
1000

  0
ARC
  5
1C8
102
{ACAD_REACTORS
102
}
330
1F
100
AcDbEntity
  8
0
  6
Continuous
 62
     1
370
    15
100
AcDbCircle
 10
16.49903810567667
 20
-1.948925071276111
 30
0.0
 40
0.2999999999999998
100
AcDbArc
 50
270.0
 51
0.0
1001
PE_URL
1000

  0
DIMENSION
  5
1C9
102
{ACAD_REACTORS
102
}
102
{ACAD_XDICTIONARY
360
1CA
102
}
330
1F
100
AcDbEntity
  8
치수문자_일반주서
100
AcDbDimension
  2
*D12
 10
16.49903810567667
 20
-1.948925071276111
 30
0.0
 11
25.72394804821547
 21
-14.6773557673255
 31
0.0
 70
   164
 71
     5
 42
0.300000000000001
  3
SLDDIMSTYLE1
100
AcDbRadialDimension
 15
16.67508831662671
 25
-2.191837243108741
 35
0.0
 40
0.0
1001
ACAD
1000
DSTYLE
1002
{
1070
    78
1070
     8
1002
}
1001
ACAD_DSTYLE_DIMRADIAL_EXTENSION
1070
   387
1070
     1
1070
   388
1040
4.71238898038469
1070
   390
1040
0.0
1001
PE_URL
1000

  0
ENDSEC
  0
SECTION
  2
OBJECTS
  0
DICTIONARY
  5
C
330
0
100
AcDbDictionary
281
     1
  3
ACAD_DETAILVIEWSTYLE
350
1B3
  3
ACAD_GROUP
350
D
  3
ACAD_LAYOUT
350
1A
  3
ACAD_MLINESTYLE
350
17
  3
ACAD_PLOTSETTINGS
350
19
  3
ACAD_PLOTSTYLENAME
350
E
  3
ACAD_SCALELIST
350
47
  3
ACAD_SECTIONVIEWSTYLE
350
1B4
  3
AcDbVariableDictionary
350
1AE
  3
APPDATA
350
137
  3
DWGPROPS
350
1D7
  0
DICTIONARY
  5
17E
330
2
100
AcDbDictionary
280
     1
281
     1
  3
ACAD_LAYERSTATES
360
17F
  0
DICTIONARY
  5
1CA
330
1C9
100
AcDbDictionary
280
     1
281
     1
  0
DICTIONARY
  5
1B3
102
{ACAD_REACTORS
330
C
102
}
330
C
100
AcDbDictionary
281
     1
  0
DICTIONARY
  5
D
102
{ACAD_REACTORS
330
C
102
}
330
C
100
AcDbDictionary
281
     1
  0
DICTIONARY
  5
1A
102
{ACAD_REACTORS
330
C
102
}
330
C
100
AcDbDictionary
281
     1
  3
Layout1
350
1E
  3
Layout2
350
26
  3
Model
350
22
  0
DICTIONARY
  5
17
102
{ACAD_REACTORS
330
C
102
}
330
C
100
AcDbDictionary
281
     1
  3
Standard
350
18
  0
DICTIONARY
  5
19
102
{ACAD_REACTORS
330
C
102
}
330
C
100
AcDbDictionary
281
     1
  0
ACDBDICTIONARYWDFLT
  5
E
102
{ACAD_REACTORS
330
C
102
}
330
C
100
AcDbDictionary
281
     1
  3
Normal
350
F
100
AcDbDictionaryWithDefault
340
F
  0
DICTIONARY
  5
47
102
{ACAD_REACTORS
330
C
102
}
330
C
100
AcDbDictionary
281
     1
  3
A0
350
48
  3
A1
350
49
  3
A2
350
4A
  3
A3
350
4B
  3
A4
350
4C
  3
A5
350
4D
  3
A6
350
4E
  3
A7
350
4F
  3
A8
350
50
  3
A9
350
51
  3
B0
350
52
  3
B1
350
53
  3
B2
350
54
  3
B3
350
55
  3
B4
350
56
  3
B5
350
57
  3
B6
350
58
  3
B7
350
59
  3
B8
350
5A
  3
B9
350
5B
  3
C0
350
5C
  3
C1
350
5D
  3
C2
350
5E
  3
C3
350
5F
  3
C4
350
60
  3
C5
350
61
  3
C6
350
62
  3
C7
350
63
  3
C8
350
64
  3
C9
350
65
  3
D0
350
66
  3
D1
350
67
  3
D2
350
68
  0
DICTIONARY
  5
1B4
102
{ACAD_REACTORS
330
C
102
}
330
C
100
AcDbDictionary
281
     1
  0
DICTIONARY
  5
1AE
102
{ACAD_REACTORS
330
C
102
}
330
C
100
AcDbDictionary
281
     1
  0
DICTIONARY
  5
137
102
{ACAD_REACTORS
330
C
102
}
330
C
100
AcDbDictionary
281
     1
  0
XRECORD
  5
1D7
102
{ACAD_REACTORS
330
C
102
}
330
C
100
AcDbXrecord
280
     1
  1
DWGPROPS COOKIE
  2

  3

  4

  6

  7

  8
12017044
  9

300
=
301
=
302
=
303
=
304
=
305
=
306
=
307
=
308
=
309
=
 40
0.0
 41
2458269.432185984
 42
2458270.384984907
  1

 90
        0
  0
DICTIONARY
  5
17F
102
{ACAD_REACTORS
330
17E
102
}
330
17E
100
AcDbDictionary
281
     1
  0
LAYOUT
  5
1E
102
{ACAD_REACTORS
330
1A
102
}
330
1A
100
AcDbPlotSettings
  1

  2
none_device
  4

  6

 40
0.0
 41
0.0
 42
0.0
 43
0.0
 44
0.0
 45
0.0
 46
0.0
 47
0.0
 48
0.0
 49
0.0
140
0.0
141
0.0
142
1.0
143
1.0
 70
   688
 72
     1
 73
     0
 74
     5
  7

 75
    16
147
1.0
148
0.0
149
0.0
100
AcDbLayout
  1
Layout1
 70
     1
 71
     1
 10
0.0
 20
0.0
 11
420.0
 21
297.0
 12
0.0
 22
0.0
 32
0.0
 14
1.000000000000000E+20
 24
1.000000000000000E+20
 34
1.000000000000000E+20
 15
-1.000000000000000E+20
 25
-1.000000000000000E+20
 35
-1.000000000000000E+20
146
0.0
 13
0.0
 23
0.0
 33
0.0
 16
1.0
 26
0.0
 36
0.0
 17
0.0
 27
1.0
 37
0.0
 76
     0
330
1B
  0
LAYOUT
  5
26
102
{ACAD_REACTORS
330
1A
102
}
330
1A
100
AcDbPlotSettings
  1

  2
none_device
  4

  6

 40
0.0
 41
0.0
 42
0.0
 43
0.0
 44
0.0
 45
0.0
 46
0.0
 47
0.0
 48
0.0
 49
0.0
140
0.0
141
0.0
142
1.0
143
1.0
 70
   688
 72
     1
 73
     0
 74
     5
  7

 75
    16
147
1.0
148
0.0
149
0.0
100
AcDbLayout
  1
Layout2
 70
     1
 71
     2
 10
0.0
 20
0.0
 11
0.0
 21
0.0
 12
0.0
 22
0.0
 32
0.0
 14
0.0
 24
0.0
 34
0.0
 15
0.0
 25
0.0
 35
0.0
146
0.0
 13
0.0
 23
0.0
 33
0.0
 16
1.0
 26
0.0
 36
0.0
 17
0.0
 27
1.0
 37
0.0
 76
     0
330
23
  0
LAYOUT
  5
22
102
{ACAD_REACTORS
330
1A
102
}
330
1A
100
AcDbPlotSettings
  1

  2
none_device
  4
ANSI_A_(11.00_x_8.50_Inches)
  6

 40
6.35
 41
19.05
 42
6.35000508
 43
19.05000254
 44
279.4
 45
215.9
 46
111.6855150645388
 47
108.3572140939158
 48
0.0
 49
0.0
140
0.0
141
0.0
142
0.0789824718862547
143
1.0
 70
  1696
 72
     0
 73
     0
 74
     0
  7

 75
     0
147
0.0235690232323232
148
0.0
149
0.0
100
AcDbLayout
  1
Model
 70
     1
 71
     0
 10
0.0
 20
0.0
 11
420.0
 21
297.0
 12
0.0
 22
0.0
 32
0.0
 14
-77.57596189432338
 24
-49.97073246008785
 34
0.0
 15
57.31252192102227
 25
27.37607492872389
 35
0.0
146
0.0
 13
0.0
 23
0.0
 33
0.0
 16
1.0
 26
0.0
 36
0.0
 17
0.0
 27
1.0
 37
0.0
 76
     0
330
1F
331
29
  0
MLINESTYLE
  5
18
102
{ACAD_REACTORS
330
17
102
}
330
17
100
AcDbMlineStyle
  2
Standard
 70
     0
  3

 62
   256
 51
90.0
 52
90.0
 71
     2
 49
0.5
 62
   256
  6
BYLAYER
 49
-0.5
 62
   256
  6
BYLAYER
  0
ACDBPLACEHOLDER
  5
F
102
{ACAD_REACTORS
330
E
102
}
330
E
  0
SCALE
  5
48
102
{ACAD_REACTORS
330
47
102
}
330
47
100
AcDbScale
 70
     0
300
1:1
140
1.0
141
1.0
290
     1
  0
SCALE
  5
49
102
{ACAD_REACTORS
330
47
102
}
330
47
100
AcDbScale
 70
     0
300
1:2
140
1.0
141
2.0
290
     0
  0
SCALE
  5
4A
102
{ACAD_REACTORS
330
47
102
}
330
47
100
AcDbScale
 70
     0
300
1:4
140
1.0
141
4.0
290
     0
  0
SCALE
  5
4B
102
{ACAD_REACTORS
330
47
102
}
330
47
100
AcDbScale
 70
     0
300
1:5
140
1.0
141
5.0
290
     0
  0
SCALE
  5
4C
102
{ACAD_REACTORS
330
47
102
}
330
47
100
AcDbScale
 70
     0
300
1:8
140
1.0
141
8.0
290
     0
  0
SCALE
  5
4D
102
{ACAD_REACTORS
330
47
102
}
330
47
100
AcDbScale
 70
     0
300
1:10
140
1.0
141
10.0
290
     0
  0
SCALE
  5
4E
102
{ACAD_REACTORS
330
47
102
}
330
47
100
AcDbScale
 70
     0
300
1:16
140
1.0
141
16.0
290
     0
  0
SCALE
  5
4F
102
{ACAD_REACTORS
330
47
102
}
330
47
100
AcDbScale
 70
     0
300
1:20
140
1.0
141
20.0
290
     0
  0
SCALE
  5
50
102
{ACAD_REACTORS
330
47
102
}
330
47
100
AcDbScale
 70
     0
300
1:30
140
1.0
141
30.0
290
     0
  0
SCALE
  5
51
102
{ACAD_REACTORS
330
47
102
}
330
47
100
AcDbScale
 70
     0
300
1:40
140
1.0
141
40.0
290
     0
  0
SCALE
  5
52
102
{ACAD_REACTORS
330
47
102
}
330
47
100
AcDbScale
 70
     0
300
1:50
140
1.0
141
50.0
290
     0
  0
SCALE
  5
53
102
{ACAD_REACTORS
330
47
102
}
330
47
100
AcDbScale
 70
     0
300
1:100
140
1.0
141
100.0
290
     0
  0
SCALE
  5
54
102
{ACAD_REACTORS
330
47
102
}
330
47
100
AcDbScale
 70
     0
300
2:1
140
2.0
141
1.0
290
     0
  0
SCALE
  5
55
102
{ACAD_REACTORS
330
47
102
}
330
47
100
AcDbScale
 70
     0
300
4:1
140
4.0
141
1.0
290
     0
  0
SCALE
  5
56
102
{ACAD_REACTORS
330
47
102
}
330
47
100
AcDbScale
 70
     0
300
8:1
140
8.0
141
1.0
290
     0
  0
SCALE
  5
57
102
{ACAD_REACTORS
330
47
102
}
330
47
100
AcDbScale
 70
     0
300
10:1
140
10.0
141
1.0
290
     0
  0
SCALE
  5
58
102
{ACAD_REACTORS
330
47
102
}
330
47
100
AcDbScale
 70
     0
300
100:1
140
100.0
141
1.0
290
     0
  0
SCALE
  5
59
102
{ACAD_REACTORS
330
47
102
}
330
47
100
AcDbScale
 70
     0
300
1/128" = 1'-0"
140
0.0078125
141
12.0
290
     0
  0
SCALE
  5
5A
102
{ACAD_REACTORS
330
47
102
}
330
47
100
AcDbScale
 70
     0
300
1/64" = 1'-0"
140
0.015625
141
12.0
290
     0
  0
SCALE
  5
5B
102
{ACAD_REACTORS
330
47
102
}
330
47
100
AcDbScale
 70
     0
300
1/32" = 1'-0"
140
0.03125
141
12.0
290
     0
  0
SCALE
  5
5C
102
{ACAD_REACTORS
330
47
102
}
330
47
100
AcDbScale
 70
     0
300
1/16" = 1'-0"
140
0.0625
141
12.0
290
     0
  0
SCALE
  5
5D
102
{ACAD_REACTORS
330
47
102
}
330
47
100
AcDbScale
 70
     0
300
3/32" = 1'-0"
140
0.09375
141
12.0
290
     0
  0
SCALE
  5
5E
102
{ACAD_REACTORS
330
47
102
}
330
47
100
AcDbScale
 70
     0
300
1/8" = 1'-0"
140
0.125
141
12.0
290
     0
  0
SCALE
  5
5F
102
{ACAD_REACTORS
330
47
102
}
330
47
100
AcDbScale
 70
     0
300
3/16" = 1'-0"
140
0.1875
141
12.0
290
     0
  0
SCALE
  5
60
102
{ACAD_REACTORS
330
47
102
}
330
47
100
AcDbScale
 70
     0
300
1/4" = 1'-0"
140
0.25
141
12.0
290
     0
  0
SCALE
  5
61
102
{ACAD_REACTORS
330
47
102
}
330
47
100
AcDbScale
 70
     0
300
3/8" = 1'-0"
140
0.375
141
12.0
290
     0
  0
SCALE
  5
62
102
{ACAD_REACTORS
330
47
102
}
330
47
100
AcDbScale
 70
     0
300
1/2" = 1'-0"
140
0.5
141
12.0
290
     0
  0
SCALE
  5
63
102
{ACAD_REACTORS
330
47
102
}
330
47
100
AcDbScale
 70
     0
300
3/4" = 1'-0"
140
0.75
141
12.0
290
     0
  0
SCALE
  5
64
102
{ACAD_REACTORS
330
47
102
}
330
47
100
AcDbScale
 70
     0
300
1" = 1'-0"
140
1.0
141
12.0
290
     0
  0
SCALE
  5
65
102
{ACAD_REACTORS
330
47
102
}
330
47
100
AcDbScale
 70
     0
300
1-1/2" = 1'-0"
140
1.5
141
12.0
290
     0
  0
SCALE
  5
66
102
{ACAD_REACTORS
330
47
102
}
330
47
100
AcDbScale
 70
     0
300
3" = 1'-0"
140
3.0
141
12.0
290
     0
  0
SCALE
  5
67
102
{ACAD_REACTORS
330
47
102
}
330
47
100
AcDbScale
 70
     0
300
6" = 1'-0"
140
6.0
141
12.0
290
     0
  0
SCALE
  5
68
102
{ACAD_REACTORS
330
47
102
}
330
47
100
AcDbScale
 70
     0
300
1'-0" = 1'-0"
140
12.0
141
12.0
290
     0
  0
ENDSEC
  0
EOF
