  0
SECTION
  2
HEADER
  9
$ACADVER
  1
AC1015
  9
$ACADMAINTVER
 70
     6
  9
$DWGCODEPAGE
  3
ANSI_949
  9
$INSBASE
 10
0.0
 20
0.0
 30
0.0
  9
$EXTMIN
 10
-97.64294919243115
 20
-49.97180738881174
 30
0.0
  9
$EXTMAX
 10
79.73835494594202
 20
27.37607492872392
 30
0.0
  9
$LIMMIN
 10
0.0
 20
0.0
  9
$LIMMAX
 10
420.0
 20
297.0
  9
$ORTHOMODE
 70
     1
  9
$REGENMODE
 70
     1
  9
$FILLMODE
 70
     1
  9
$QTEXTMODE
 70
     0
  9
$MIRRTEXT
 70
     1
  9
$LTSCALE
 40
1.0
  9
$ATTMODE
 70
     1
  9
$TEXTSIZE
 40
3.5
  9
$TRACEWID
 40
1.0
  9
$TEXTSTYLE
  7
Standard
  9
$CLAYER
  8
0
  9
$CELTYPE
  6
ByLayer
  9
$CECOLOR
 62
   256
  9
$CELTSCALE
 40
1.0
  9
$DISPSILH
 70
     0
  9
$DIMSCALE
 40
1.0
  9
$DIMASZ
 40
3.302
  9
$DIMEXO
 40
1.0
  9
$DIMDLI
 40
3.75
  9
$DIMRND
 40
0.0
  9
$DIMDLE
 40
0.0
  9
$DIMEXE
 40
1.0
  9
$DIMTP
 40
0.0
  9
$DIMTM
 40
0.0
  9
$DIMTXT
 40
3.5
  9
$DIMCEN
 40
2.5
  9
$DIMTSZ
 40
0.0
  9
$DIMTOL
 70
     0
  9
$DIMLIM
 70
     0
  9
$DIMTIH
 70
     1
  9
$DIMTOH
 70
     1
  9
$DIMSE1
 70
     0
  9
$DIMSE2
 70
     0
  9
$DIMTAD
 70
     1
  9
$DIMZIN
 70
     0
  9
$DIMBLK
  1

  9
$DIMASO
 70
     1
  9
$DIMSHO
 70
     1
  9
$DIMPOST
  1

  9
$DIMAPOST
  1

  9
$DIMALT
 70
     0
  9
$DIMALTD
 70
     3
  9
$DIMALTF
 40
0.0393700787401575
  9
$DIMLFAC
 40
1.0
  9
$DIMTOFL
 70
     1
  9
$DIMTVP
 40
0.0
  9
$DIMTIX
 70
     0
  9
$DIMSOXD
 70
     0
  9
$DIMSAH
 70
     0
  9
$DIMBLK1
  1

  9
$DIMBLK2
  1

  9
$DIMSTYLE
  2
ISO-25
  9
$DIMCLRD
 70
     0
  9
$DIMCLRE
 70
     0
  9
$DIMCLRT
 70
     0
  9
$DIMTFAC
 40
1.0
  9
$DIMGAP
 40
1.524
  9
$DIMJUST
 70
     0
  9
$DIMSD1
 70
     0
  9
$DIMSD2
 70
     0
  9
$DIMTOLJ
 70
     0
  9
$DIMTZIN
 70
     0
  9
$DIMALTZ
 70
     0
  9
$DIMALTTZ
 70
     0
  9
$DIMUPT
 70
     0
  9
$DIMDEC
 70
     2
  9
$DIMTDEC
 70
     2
  9
$DIMALTU
 70
     2
  9
$DIMALTTD
 70
     3
  9
$DIMTXSTY
  7
Standard
  9
$DIMAUNIT
 70
     0
  9
$DIMADEC
 70
     2
  9
$DIMALTRND
 40
0.0
  9
$DIMAZIN
 70
     0
  9
$DIMDSEP
 70
    44
  9
$DIMATFIT
 70
     3
  9
$DIMFRAC
 70
     0
  9
$DIMLDRBLK
  1

  9
$DIMLUNIT
 70
     2
  9
$DIMLWD
 70
    -2
  9
$DIMLWE
 70
    -2
  9
$DIMTMOVE
 70
     0
  9
$LUNITS
 70
     2
  9
$LUPREC
 70
     2
  9
$SKETCHINC
 40
1.0
  9
$FILLETRAD
 40
10.0
  9
$AUNITS
 70
     0
  9
$AUPREC
 70
     2
  9
$MENU
  1
.
  9
$ELEVATION
 40
0.0
  9
$PELEVATION
 40
0.0
  9
$THICKNESS
 40
0.0
  9
$LIMCHECK
 70
     0
  9
$CHAMFERA
 40
0.0
  9
$CHAMFERB
 40
0.0
  9
$CHAMFERC
 40
0.0
  9
$CHAMFERD
 40
0.0
  9
$SKPOLY
 70
     0
  9
$TDCREATE
 40
2458269.805106516
  9
$TDUCREATE
 40
2458269.430106516
  9
$TDUPDATE
 40
2459702.449986863
  9
$TDUUPDATE
 40
2459702.074986863
  9
$TDINDWG
 40
0.0008919444
  9
$TDUSRTIMER
 40
0.0008919329
  9
$USRTIMER
 70
     1
  9
$ANGBASE
 50
0.0
  9
$ANGDIR
 70
     0
  9
$PDMODE
 70
     0
  9
$PDSIZE
 40
-1.0
  9
$PLINEWID
 40
0.0
  9
$SPLFRAME
 70
     0
  9
$SPLINETYPE
 70
     6
  9
$SPLINESEGS
 70
     8
  9
$HANDSEED
  5
252
  9
$SURFTAB1
 70
     6
  9
$SURFTAB2
 70
     6
  9
$SURFTYPE
 70
     6
  9
$SURFU
 70
     6
  9
$SURFV
 70
     6
  9
$UCSBASE
  2

  9
$UCSNAME
  2

  9
$UCSORG
 10
0.0
 20
0.0
 30
0.0
  9
$UCSXDIR
 10
1.0
 20
0.0
 30
0.0
  9
$UCSYDIR
 10
0.0
 20
1.0
 30
0.0
  9
$UCSORTHOREF
  2

  9
$UCSORTHOVIEW
 70
     0
  9
$UCSORGTOP
 10
0.0
 20
0.0
 30
0.0
  9
$UCSORGBOTTOM
 10
0.0
 20
0.0
 30
0.0
  9
$UCSORGLEFT
 10
0.0
 20
0.0
 30
0.0
  9
$UCSORGRIGHT
 10
0.0
 20
0.0
 30
0.0
  9
$UCSORGFRONT
 10
0.0
 20
0.0
 30
0.0
  9
$UCSORGBACK
 10
0.0
 20
0.0
 30
0.0
  9
$PUCSBASE
  2

  9
$PUCSNAME
  2

  9
$PUCSORG
 10
0.0
 20
0.0
 30
0.0
  9
$PUCSXDIR
 10
1.0
 20
0.0
 30
0.0
  9
$PUCSYDIR
 10
0.0
 20
1.0
 30
0.0
  9
$PUCSORTHOREF
  2

  9
$PUCSORTHOVIEW
 70
     0
  9
$PUCSORGTOP
 10
0.0
 20
0.0
 30
0.0
  9
$PUCSORGBOTTOM
 10
0.0
 20
0.0
 30
0.0
  9
$PUCSORGLEFT
 10
0.0
 20
0.0
 30
0.0
  9
$PUCSORGRIGHT
 10
0.0
 20
0.0
 30
0.0
  9
$PUCSORGFRONT
 10
0.0
 20
0.0
 30
0.0
  9
$PUCSORGBACK
 10
0.0
 20
0.0
 30
0.0
  9
$USERI1
 70
     0
  9
$USERI2
 70
     0
  9
$USERI3
 70
     0
  9
$USERI4
 70
     0
  9
$USERI5
 70
     0
  9
$USERR1
 40
0.0
  9
$USERR2
 40
0.0
  9
$USERR3
 40
0.0
  9
$USERR4
 40
0.0
  9
$USERR5
 40
0.0
  9
$WORLDVIEW
 70
     1
  9
$SHADEDGE
 70
     3
  9
$SHADEDIF
 70
    70
  9
$TILEMODE
 70
     1
  9
$MAXACTVP
 70
    64
  9
$PINSBASE
 10
0.0
 20
0.0
 30
0.0
  9
$PLIMCHECK
 70
     0
  9
$PEXTMIN
 10
1.000000000000000E+20
 20
1.000000000000000E+20
 30
1.000000000000000E+20
  9
$PEXTMAX
 10
-1.000000000000000E+20
 20
-1.000000000000000E+20
 30
-1.000000000000000E+20
  9
$PLIMMIN
 10
0.0
 20
0.0
  9
$PLIMMAX
 10
0.0
 20
0.0
  9
$UNITMODE
 70
     0
  9
$VISRETAIN
 70
     1
  9
$PLINEGEN
 70
     0
  9
$PSLTSCALE
 70
     1
  9
$TREEDEPTH
 70
  3020
  9
$CMLSTYLE
  2
Standard
  9
$CMLJUST
 70
     0
  9
$CMLSCALE
 40
20.0
  9
$PROXYGRAPHICS
 70
     1
  9
$MEASUREMENT
 70
     1
  9
$CELWEIGHT
370
    -1
  9
$ENDCAPS
280
     0
  9
$JOINSTYLE
280
     0
  9
$LWDISPLAY
290
     1
  9
$INSUNITS
 70
     4
  9
$HYPERLINKBASE
  1

  9
$STYLESHEET
  1

  9
$XEDIT
290
     1
  9
$CEPSNTYPE
380
     0
  9
$PSTYLEMODE
290
     1
  9
$FINGERPRINTGUID
  2
{9BE1DDBF-CF43-41C7-B738-C0903D932F38}
  9
$VERSIONGUID
  2
{FAEB1C32-E019-11D5-929B-00C0DF256EC4}
  9
$EXTNAMES
290
     1
  9
$PSVPSCALE
 40
0.0
  9
$OLESTARTUP
290
     0
  0
ENDSEC
  0
SECTION
  2
CLASSES
  0
CLASS
  1
ACDBDICTIONARYWDFLT
  2
AcDbDictionaryWithDefault
  3
ObjectDBX Classes
 90
        0
280
     0
281
     0
  0
CLASS
  1
VISUALSTYLE
  2
AcDbVisualStyle
  3
ObjectDBX Classes
 90
     4095
280
     0
281
     0
  0
CLASS
  1
MATERIAL
  2
AcDbMaterial
  3
ObjectDBX Classes
 90
     1153
280
     0
281
     0
  0
CLASS
  1
SCALE
  2
AcDbScale
  3
ObjectDBX Classes
 90
     1153
280
     0
281
     0
  0
CLASS
  1
SUN
  2
AcDbSun
  3
SCENEOE
 90
     1153
280
     0
281
     0
  0
CLASS
  1
ACDBPLACEHOLDER
  2
AcDbPlaceHolder
  3
ObjectDBX Classes
 90
        0
280
     0
281
     0
  0
CLASS
  1
LAYOUT
  2
AcDbLayout
  3
ObjectDBX Classes
 90
        0
280
     0
281
     0
  0
CLASS
  1
TABLESTYLE
  2
AcDbTableStyle
  3
ObjectDBX Classes
 90
     4095
280
     0
281
     0
  0
CLASS
  1
MLEADERSTYLE
  2
AcDbMLeaderStyle
  3
ACDB_MLEADERSTYLE_CLASS
 90
     4095
280
     0
281
     0
  0
CLASS
  1
BREAKDATA
  2
AcDbBreakData
  3
ObjectDBX Classes
 90
     1024
280
     0
281
     0
  0
ENDSEC
  0
SECTION
  2
TABLES
  0
TABLE
  2
VPORT
  5
8
330
0
100
AcDbSymbolTable
 70
     1
  0
VPORT
  5
29
330
8
100
AcDbSymbolTableRecord
100
AcDbViewportTableRecord
  2
*Active
 70
     0
 10
0.0
 20
0.0
 11
1.0
 21
1.0
 12
-86.59081450712573
 22
7.03414893274593
 13
0.0
 23
0.0
 14
10.0
 24
10.0
 15
10.0
 25
10.0
 16
0.0
 26
0.0
 36
1.0
 17
0.0
 27
0.0
 37
0.0
 40
191.7171022885238
 41
1.531481481481481
 42
50.0
 43
0.0
 44
0.0
 50
0.0
 51
0.0
 71
    16
 72
  2000
 73
     1
 74
     3
 75
     0
 76
     0
 77
     0
 78
     0
281
     0
 65
     1
110
0.0
120
0.0
130
0.0
111
1.0
121
0.0
131
0.0
112
0.0
122
1.0
132
0.0
 79
     0
146
0.0
  0
ENDTAB
  0
TABLE
  2
LTYPE
  5
5
330
0
100
AcDbSymbolTable
 70
     6
  0
LTYPE
  5
14
330
5
100
AcDbSymbolTableRecord
100
AcDbLinetypeTableRecord
  2
ByBlock
 70
     0
  3

 72
    65
 73
     0
 40
0.0
  0
LTYPE
  5
15
330
5
100
AcDbSymbolTableRecord
100
AcDbLinetypeTableRecord
  2
ByLayer
 70
     0
  3

 72
    65
 73
     0
 40
0.0
  0
LTYPE
  5
16
330
5
100
AcDbSymbolTableRecord
100
AcDbLinetypeTableRecord
  2
Continuous
 70
     0
  3
Solid line
 72
    65
 73
     0
 40
0.0
  0
LTYPE
  5
6A
330
5
100
AcDbSymbolTableRecord
100
AcDbLinetypeTableRecord
  2
HIDDEN
 70
     0
  3
Hidden __ __ __ __ __ __ __ __ __ __ __ __ __ __
 72
    65
 73
     2
 40
1.905
 49
1.27
 74
     0
 49
-0.635
 74
     0
  0
LTYPE
  5
6B
330
5
100
AcDbSymbolTableRecord
100
AcDbLinetypeTableRecord
  2
PHANTOM
 70
     0
  3
Phantom ______  __  __  ______  __  __  ______
 72
    65
 73
     6
 40
12.7
 49
6.35
 74
     0
 49
-1.27
 74
     0
 49
1.27
 74
     0
 49
-1.27
 74
     0
 49
1.27
 74
     0
 49
-1.27
 74
     0
  0
LTYPE
  5
6C
330
5
100
AcDbSymbolTableRecord
100
AcDbLinetypeTableRecord
  2
CENTER
 70
     0
  3
Center ____ _ ____ _ ____ _ ____ _ ____ _ ____
 72
    65
 73
     4
 40
10.16
 49
6.35
 74
     0
 49
-1.27
 74
     0
 49
1.27
 74
     0
 49
-1.27
 74
     0
  0
LTYPE
  5
6D
330
5
100
AcDbSymbolTableRecord
100
AcDbLinetypeTableRecord
  2
CENTERX2
 70
     0
  3
Center (2x) ________  __  ________  __  _____
 72
    65
 73
     4
 40
20.32
 49
12.7
 74
     0
 49
-2.54
 74
     0
 49
2.54
 74
     0
 49
-2.54
 74
     0
  0
LTYPE
  5
6E
330
5
100
AcDbSymbolTableRecord
100
AcDbLinetypeTableRecord
  2
DOT2
 70
     0
  3
Dot (.5x) ........................................
 72
    65
 73
     2
 40
0.635
 49
0.0
 74
     0
 49
-0.635
 74
     0
  0
ENDTAB
  0
TABLE
  2
LAYER
  5
2
102
{ACAD_XDICTIONARY
360
1CB
102
}
330
0
100
AcDbSymbolTable
 70
    18
  0
LAYER
  5
10
330
2
100
AcDbSymbolTableRecord
100
AcDbLayerTableRecord
  2
0
 70
     0
 62
     7
  6
Continuous
370
    -3
390
F
  0
LAYER
  5
6F
330
2
100
AcDbSymbolTableRecord
100
AcDbLayerTableRecord
  2
FORMAT
 70
     0
 62
     2
  6
Continuous
370
    -3
390
F
  0
LAYER
  5
70
330
2
100
AcDbSymbolTableRecord
100
AcDbLayerTableRecord
  2
외형선
 70
     0
 62
     4
  6
Continuous
370
    30
390
F
  0
LAYER
  5
71
330
2
100
AcDbSymbolTableRecord
100
AcDbLayerTableRecord
  2
숨은선
 70
     0
 62
     2
  6
HIDDEN
370
    15
390
F
  0
LAYER
  5
72
330
2
100
AcDbSymbolTableRecord
100
AcDbLayerTableRecord
  2
중심선
 70
     0
 62
     1
  6
CENTERX2
370
    -3
390
F
  0
LAYER
  5
73
330
2
100
AcDbSymbolTableRecord
100
AcDbLayerTableRecord
  2
파단선
 70
     0
 62
     4
  6
Continuous
370
    -3
390
F
  0
LAYER
  5
74
330
2
100
AcDbSymbolTableRecord
100
AcDbLayerTableRecord
  2
해칭선
 70
     0
 62
   100
  6
Continuous
370
    -3
390
F
  0
LAYER
  5
75
330
2
100
AcDbSymbolTableRecord
100
AcDbLayerTableRecord
  2
가는실선
 70
     0
 62
     4
  6
Continuous
370
    -3
390
F
  0
LAYER
  5
76
330
2
100
AcDbSymbolTableRecord
100
AcDbLayerTableRecord
  2
치수_보조선
 70
     0
 62
     4
  6
Continuous
370
    -3
390
F
  0
LAYER
  5
77
330
2
100
AcDbSymbolTableRecord
100
AcDbLayerTableRecord
  2
치수문자_일반주서
 70
     0
 62
     7
  6
Continuous
370
    15
390
F
  0
LAYER
  5
78
330
2
100
AcDbSymbolTableRecord
100
AcDbLayerTableRecord
  2
개별주서
 70
     0
 62
   100
  6
Continuous
370
    30
390
F
  0
LAYER
  5
79
330
2
100
AcDbSymbolTableRecord
100
AcDbLayerTableRecord
  2
중간선
 70
     0
 62
     2
  6
Continuous
370
    15
390
F
  0
LAYER
  5
7A
330
2
100
AcDbSymbolTableRecord
100
AcDbLayerTableRecord
  2
윤곽선
 70
     0
 62
     3
  6
Continuous
370
    40
390
F
  0
LAYER
  5
7B
330
2
100
AcDbSymbolTableRecord
100
AcDbLayerTableRecord
  2
중심마크
 70
     0
 62
   100
  6
Continuous
370
    30
390
F
  0
LAYER
  5
7C
330
2
100
AcDbSymbolTableRecord
100
AcDbLayerTableRecord
  2
가상선
 70
     0
 62
     4
  6
PHANTOM
370
    -3
390
F
  0
LAYER
  5
7D
330
2
100
AcDbSymbolTableRecord
100
AcDbLayerTableRecord
  2
특수지정선
 70
     0
 62
     5
  6
CENTERX2
370
    60
390
F
  0
LAYER
  5
7E
330
2
100
AcDbSymbolTableRecord
100
AcDbLayerTableRecord
  2
참조1
 70
     0
 62
    -4
  6
Continuous
370
    -3
390
F
  0
LAYER
  5
134
330
2
100
AcDbSymbolTableRecord
100
AcDbLayerTableRecord
  2
Defpoints
 70
     0
 62
     7
  6
Continuous
290
     0
370
    -3
390
F
  0
ENDTAB
  0
TABLE
  2
STYLE
  5
3
330
0
100
AcDbSymbolTable
 70
     2
  0
STYLE
  5
11
330
3
100
AcDbSymbolTableRecord
100
AcDbTextStyleTableRecord
  2
Standard
 70
     0
 40
0.0
 41
1.0
 50
0.0
 71
     0
 42
3.5
  3
txt
  4

  0
STYLE
  5
94
330
3
100
AcDbSymbolTableRecord
100
AcDbTextStyleTableRecord
  2
SLDTEXTSTYLE0
 70
     0
 40
0.0
 41
0.75
 50
0.0
 71
     0
 42
3.5
  3
TXT
  4

  0
ENDTAB
  0
TABLE
  2
VIEW
  5
6
330
0
100
AcDbSymbolTable
 70
     0
  0
ENDTAB
  0
TABLE
  2
UCS
  5
7
330
0
100
AcDbSymbolTable
 70
     0
  0
ENDTAB
  0
TABLE
  2
APPID
  5
9
330
0
100
AcDbSymbolTable
 70
     4
  0
APPID
  5
12
330
9
100
AcDbSymbolTableRecord
100
AcDbRegAppTableRecord
  2
ACAD
 70
     0
  0
APPID
  5
140
330
9
100
AcDbSymbolTableRecord
100
AcDbRegAppTableRecord
  2
PE_URL
 70
     0
  0
APPID
  5
141
330
9
100
AcDbSymbolTableRecord
100
AcDbRegAppTableRecord
  2
ACAD_DSTYLE_DIMRADIAL_EXTENSION
 70
     0
  0
APPID
  5
142
330
9
100
AcDbSymbolTableRecord
100
AcDbRegAppTableRecord
  2
ENABLE_CUSTOM_SPLIT
 70
     0
  0
ENDTAB
  0
TABLE
  2
DIMSTYLE
  5
A
330
0
100
AcDbSymbolTable
 70
     3
100
AcDbDimStyleTable
  0
DIMSTYLE
105
27
330
A
100
AcDbSymbolTableRecord
100
AcDbDimStyleTableRecord
  2
ISO-25
 70
     0
 41
2.5
 42
0.625
 43
3.75
 44
1.25
 73
     0
 74
     0
 77
     1
 78
     8
140
2.5
141
2.5
143
0.03937007874016
147
0.625
171
     3
172
     1
178
     0
271
     2
272
     2
274
     3
278
    44
283
     0
284
     8
340
11
  0
DIMSTYLE
105
D2
102
{ACAD_REACTORS
330
177
330
187
330
199
330
1FD
330
1FE
330
201
102
}
330
A
100
AcDbSymbolTableRecord
100
AcDbDimStyleTableRecord
  2
SLDDIMSTYLE0
 70
     0
 41
3.302
 44
0.0
 45
0.000000001
 73
     0
 74
     0
 77
     1
 78
    12
 79
     3
140
3.5
147
0.875
172
     1
173
     1
178
     0
271
     2
272
     2
276
     2
284
    12
289
     0
340
94
  0
DIMSTYLE
105
F9
102
{ACAD_REACTORS
330
1A6
330
1BC
330
202
330
206
102
}
330
A
100
AcDbSymbolTableRecord
100
AcDbDimStyleTableRecord
  2
SLDDIMSTYLE1
 70
     0
 41
3.302
 44
0.0
 45
0.000000001
 73
     0
 74
     0
 77
     1
 78
    12
 79
     3
140
3.5
147
0.875
173
     1
178
     0
271
     2
272
     2
276
     2
284
    12
340
94
  0
ENDTAB
  0
TABLE
  2
BLOCK_RECORD
  5
1
330
0
100
AcDbSymbolTable
 70
    17
  0
BLOCK_RECORD
  5
1F
102
{ACAD_XDICTIONARY
360
24F
102
}
330
1
100
AcDbSymbolTableRecord
100
AcDbBlockTableRecord
  2
*Model_Space
340
22
  0
BLOCK_RECORD
  5
1B
330
1
100
AcDbSymbolTableRecord
100
AcDbBlockTableRecord
  2
*Paper_Space
340
1E
  0
BLOCK_RECORD
  5
23
330
1
100
AcDbSymbolTableRecord
100
AcDbBlockTableRecord
  2
*Paper_Space0
340
26
  0
BLOCK_RECORD
  5
7F
330
1
100
AcDbSymbolTableRecord
100
AcDbBlockTableRecord
  2
블럭10
340
0
102
{BLKREFS
331
CA
102
}
  0
BLOCK_RECORD
  5
D3
330
1
100
AcDbSymbolTableRecord
100
AcDbBlockTableRecord
  2
_D
340
0
  0
BLOCK_RECORD
  5
E0
330
1
100
AcDbSymbolTableRecord
100
AcDbBlockTableRecord
  2
_D_1
340
0
  0
BLOCK_RECORD
  5
ED
330
1
100
AcDbSymbolTableRecord
100
AcDbBlockTableRecord
  2
_D_2
340
0
  0
BLOCK_RECORD
  5
FA
330
1
100
AcDbSymbolTableRecord
100
AcDbBlockTableRecord
  2
_D_3
340
0
  0
BLOCK_RECORD
  5
10A
330
1
100
AcDbSymbolTableRecord
100
AcDbBlockTableRecord
  2
SW_DOWELSYMBOL_0
340
0
102
{BLKREFS
331
0
331
1B3
331
203
102
}
  0
BLOCK_RECORD
  5
178
330
1
100
AcDbSymbolTableRecord
100
AcDbBlockTableRecord
  2
*D8
340
0
  0
BLOCK_RECORD
  5
18A
330
1
100
AcDbSymbolTableRecord
100
AcDbBlockTableRecord
  2
*D9
340
0
  0
BLOCK_RECORD
  5
19A
330
1
100
AcDbSymbolTableRecord
100
AcDbBlockTableRecord
  2
*D10
340
0
  0
BLOCK_RECORD
  5
1A7
330
1
100
AcDbSymbolTableRecord
100
AcDbBlockTableRecord
  2
*D11
340
0
  0
BLOCK_RECORD
  5
1BD
330
1
100
AcDbSymbolTableRecord
100
AcDbBlockTableRecord
  2
*D12
340
0
  0
BLOCK_RECORD
  5
20B
330
1
100
AcDbSymbolTableRecord
100
AcDbBlockTableRecord
  2
*D13
340
0
  0
BLOCK_RECORD
  5
21A
330
1
100
AcDbSymbolTableRecord
100
AcDbBlockTableRecord
  2
*D14
340
0
  0
BLOCK_RECORD
  5
229
330
1
100
AcDbSymbolTableRecord
100
AcDbBlockTableRecord
  2
*D15
340
0
  0
BLOCK_RECORD
  5
235
330
1
100
AcDbSymbolTableRecord
100
AcDbBlockTableRecord
  2
*D16
340
0
  0
BLOCK_RECORD
  5
241
330
1
100
AcDbSymbolTableRecord
100
AcDbBlockTableRecord
  2
*D17
340
0
  0
ENDTAB
  0
ENDSEC
  0
SECTION
  2
BLOCKS
  0
BLOCK
  5
20
330
1F
100
AcDbEntity
  8
0
100
AcDbBlockBegin
  2
*Model_Space
 70
     0
 10
0.0
 20
0.0
 30
0.0
  3
*Model_Space
  1

  0
ENDBLK
  5
21
330
1F
100
AcDbEntity
  8
0
100
AcDbBlockEnd
  0
BLOCK
  5
1C
330
1B
100
AcDbEntity
 67
     1
  8
0
100
AcDbBlockBegin
  2
*Paper_Space
 70
     0
 10
0.0
 20
0.0
 30
0.0
  3
*Paper_Space
  1

  0
ENDBLK
  5
1D
330
1B
100
AcDbEntity
 67
     1
  8
0
100
AcDbBlockEnd
  0
BLOCK
  5
24
330
23
100
AcDbEntity
  8
0
100
AcDbBlockBegin
  2
*Paper_Space0
 70
     0
 10
0.0
 20
0.0
 30
0.0
  3
*Paper_Space0
  1

  0
ENDBLK
  5
25
330
23
100
AcDbEntity
  8
0
100
AcDbBlockEnd
  0
BLOCK
  5
80
330
7F
100
AcDbEntity
  8
0
100
AcDbBlockBegin
  2
블럭10
 70
     2
 10
0.0
 20
0.0
 30
0.0
  3
블럭10
  1

  0
ELLIPSE
  5
82
330
7F
100
AcDbEntity
  8
중심선
100
AcDbEllipse
 10
20.54032771741204
 20
12.0471743016438
 30
0.0
 11
6.600054785286829
 21
-1.261213355974178E-13
 31
0.0
210
0.0
220
0.0
230
1.0
 40
0.636358354079598
 41
0.9219305317359503
 42
6.513795318482858
  0
ELLIPSE
  5
83
330
7F
100
AcDbEntity
  8
중심선
100
AcDbEllipse
 10
20.54032771746488
 20
12.04717430159265
 30
0.0
 11
3.960054785062283
 21
1.540847449632565E-10
 31
0.0
210
0.0
220
0.0
230
1.0
 40
0.3939339440162632
 41
1.131841032648279
 42
5.62031148352944
  0
LINE
  5
84
330
7F
100
AcDbEntity
  8
중심선
100
AcDbLine
 10
2.268634060543552
 20
16.24717430164393
 30
0.0
 11
5.714909304380834
 21
16.24717430164393
 31
0.0
  0
LINE
  5
85
330
7F
100
AcDbEntity
  8
중심선
100
AcDbLine
 10
5.245725140726316
 20
7.84717430164391
 30
0.0
 11
8.692000384563599
 21
7.84717430164391
 31
0.0
  0
LINE
  5
86
330
7F
100
AcDbEntity
  8
중심선
100
AcDbLine
 10
15.74043728645272
 20
16.24717430164393
 30
0.0
 11
8.692000384563599
 21
7.84717430164391
 31
0.0
  0
LINE
  5
87
330
7F
100
AcDbEntity
  8
중심선
100
AcDbLine
 10
0.1404042013395286
 20
13.71084872107135
 30
0.0
 11
3.58671253028996
 21
13.71088815037384
 31
0.0
  0
LINE
  5
88
330
7F
100
AcDbEntity
  8
중심선
100
AcDbLine
 10
2.750260043222114
 20
10.84717430164391
 30
0.0
 11
6.196535287059397
 21
10.84717430164391
 31
0.0
  0
LINE
  5
89
330
7F
100
AcDbEntity
  8
중심선
100
AcDbLine
 10
12.29416204261559
 20
16.24717430164393
 30
0.0
 11
5.245725140726316
 21
7.84717430164391
 31
0.0
  0
LINE
  5
8A
330
7F
100
AcDbEntity
  8
중심선
100
AcDbLine
 10
10.72767329541681
 20
16.24717430164393
 30
0.0
 11
6.196535287059397
 21
10.84717430164391
 31
0.0
  0
LINE
  5
8B
330
7F
100
AcDbEntity
  8
중심선
100
AcDbLine
 10
7.28139805157953
 20
16.24717430164393
 30
0.0
 11
2.750260043222114
 21
10.84717430164391
 31
0.0
  0
LINE
  5
8C
330
7F
100
AcDbEntity
  8
중심선
100
AcDbLine
 10
5.714909304380834
 20
16.24717430164393
 30
0.0
 11
3.58671253028996
 21
13.71088815037384
 31
0.0
  0
LINE
  5
8D
330
7F
100
AcDbEntity
  8
중심선
100
AcDbLine
 10
2.268634060543552
 20
16.24717430164393
 30
0.0
 11
0.1404042013395286
 21
13.71084872107135
 31
0.0
  0
LINE
  5
8E
330
7F
100
AcDbEntity
  8
중심선
100
AcDbLine
 10
7.28139805157953
 20
16.24717430164393
 30
0.0
 11
10.72767329541681
 21
16.24717430164393
 31
0.0
  0
LINE
  5
8F
330
7F
100
AcDbEntity
  8
중심선
100
AcDbLine
 10
12.29416204261559
 20
16.24717430164393
 30
0.0
 11
15.74043728645272
 21
16.24717430164393
 31
0.0
  0
LINE
  5
90
330
7F
100
AcDbEntity
  8
중심선
100
AcDbLine
 10
19.22036997980202
 20
11.08717430171403
 30
0.0
 11
23.66174974927406
 21
11.08717430171406
 31
0.0
  0
LINE
  5
91
330
7F
100
AcDbEntity
  8
중심선
100
AcDbLine
 10
19.22039502424796
 20
13.00717430171391
 30
0.0
 11
19.22036997980202
 21
11.08717430171403
 31
0.0
  0
LINE
  5
92
330
7F
100
AcDbEntity
  8
중심선
100
AcDbLine
 10
19.22039502424796
 20
13.00717430171391
 30
0.0
 11
26.96566020931264
 21
13.00717430171391
 31
0.0
  0
LINE
  5
93
330
7F
100
AcDbEntity
  8
중심선
100
AcDbLine
 10
22.22332737316547
 20
13.45928029700563
 30
0.0
 11
24.52862924686651
 21
15.39360700705356
 31
0.0
  0
ATTDEF
  5
95
330
7F
100
AcDbEntity
  8
FORMAT
 62
     2
100
AcDbText
 10
-23.90389214271276
 20
2.075366912832191
 30
0.0
 40
4.233333333333333
  1
SEME01040031004SE [ 4 FLUTE ]
 41
0.75
  7
SLDTEXTSTYLE0
 11
-23.90389214271276
 21
-0.0412997538344756
 31
0.0
100
AcDbAttributeDefinition
  3

  2
AUTOATTR0
 70
     0
 74
     1
  0
ENDBLK
  5
81
330
7F
100
AcDbEntity
  8
0
100
AcDbBlockEnd
  0
BLOCK
  5
D4
330
D3
100
AcDbEntity
  8
0
100
AcDbBlockBegin
  2
_D
 70
     0
 10
0.0
 20
0.0
 30
0.0
  3
_D
  1

  0
SOLID
  5
D6
330
D3
100
AcDbEntity
  8
치수문자_일반주서
100
AcDbTrace
 10
39.96782447567787
 20
2.0
 30
0.0
 11
40.47582447567788
 21
5.302
 31
0.0
 12
39.45982447567787
 22
5.302
 32
0.0
 13
39.45982447567787
 23
5.302
 33
0.0
  0
SOLID
  5
D7
330
D3
100
AcDbEntity
  8
치수문자_일반주서
100
AcDbTrace
 10
39.96782447567787
 20
-1.999999999999999
 30
0.0
 11
39.45982447567787
 21
-5.301999999999998
 31
0.0
 12
40.47582447567788
 22
-5.301999999999998
 32
0.0
 13
40.47582447567788
 23
-5.301999999999998
 33
0.0
  0
LINE
  5
D8
330
D3
100
AcDbEntity
  8
치수문자_일반주서
100
AcDbLine
 10
53.07983778222548
 20
2.0
 30
0.0
 11
38.96782447567787
 21
2.0
 31
0.0
  0
LINE
  5
D9
330
D3
100
AcDbEntity
  8
치수문자_일반주서
100
AcDbLine
 10
53.07983778222545
 20
-2.0
 30
0.0
 11
38.96782447567787
 21
-1.999999999999999
 31
0.0
  0
LINE
  5
DA
330
D3
100
AcDbEntity
  8
치수문자_일반주서
100
AcDbLine
 10
39.96782447567787
 20
2.0
 30
0.0
 11
39.96782447567787
 21
8.35
 31
0.0
  0
LINE
  5
DB
330
D3
100
AcDbEntity
  8
치수문자_일반주서
100
AcDbLine
 10
39.96782447567787
 20
2.0
 30
0.0
 11
39.96782447567787
 21
-1.999999999999999
 31
0.0
  0
LINE
  5
DC
330
D3
100
AcDbEntity
  8
치수문자_일반주서
100
AcDbLine
 10
39.96782447567787
 20
-1.999999999999999
 30
0.0
 11
39.96782447567787
 21
-8.349999999999998
 31
0.0
  0
MTEXT
  5
DD
330
D3
100
AcDbEntity
  8
치수문자_일반주서
100
AcDbMText
 10
35.45608738647602
 20
-3.932274412363802
 30
0.0
 40
3.5
 41
0.0
 71
     1
 72
     1
  1
%%c
  7
SLDTEXTSTYLE0
 11
-7.044195017643634E-15
 21
1.0
 31
0.0
 73
     1
 44
1.0
  0
MTEXT
  5
DE
330
D3
100
AcDbEntity
  8
치수문자_일반주서
100
AcDbMText
 10
35.40261520981613
 20
1.346162986010279
 30
0.0
 40
3.5
 41
0.0
 71
     1
 72
     1
  1
4
  7
SLDTEXTSTYLE0
 11
-7.044195017643634E-15
 21
1.0
 31
0.0
 73
     1
 44
1.0
  0
ENDBLK
  5
D5
330
D3
100
AcDbEntity
  8
0
100
AcDbBlockEnd
  0
BLOCK
  5
E1
330
E0
100
AcDbEntity
  8
0
100
AcDbBlockBegin
  2
_D_1
 70
     0
 10
0.0
 20
0.0
 30
0.0
  3
_D_1
  1

  0
SOLID
  5
E3
330
E0
100
AcDbEntity
  8
치수문자_일반주서
100
AcDbTrace
 10
-53.77512886940357
 20
2.000000000000001
 30
0.0
 11
-53.26712886940356
 21
5.302
 31
0.0
 12
-54.28312886940357
 22
5.302
 32
0.0
 13
-54.28312886940357
 23
5.302
 33
0.0
  0
SOLID
  5
E4
330
E0
100
AcDbEntity
  8
치수문자_일반주서
100
AcDbTrace
 10
-53.77512886940357
 20
-2.000000000000003
 30
0.0
 11
-54.28312886940357
 21
-5.302000000000002
 31
0.0
 12
-53.26712886940356
 22
-5.302000000000002
 32
0.0
 13
-53.26712886940356
 23
-5.302000000000002
 33
0.0
  0
LINE
  5
E5
330
E0
100
AcDbEntity
  8
치수문자_일반주서
100
AcDbLine
 10
-41.37512886940356
 20
2.000000000000002
 30
0.0
 11
-54.77512886940357
 21
2.000000000000001
 31
0.0
  0
LINE
  5
E6
330
E0
100
AcDbEntity
  8
치수문자_일반주서
100
AcDbLine
 10
-41.37512886940356
 20
-2.000000000000002
 30
0.0
 11
-54.77512886940357
 21
-2.000000000000003
 31
0.0
  0
LINE
  5
E7
330
E0
100
AcDbEntity
  8
치수문자_일반주서
100
AcDbLine
 10
-53.77512886940357
 20
2.000000000000001
 30
0.0
 11
-53.77512886940357
 21
8.35
 31
0.0
  0
LINE
  5
E8
330
E0
100
AcDbEntity
  8
치수문자_일반주서
100
AcDbLine
 10
-53.77512886940357
 20
2.000000000000001
 30
0.0
 11
-53.77512886940357
 21
-2.000000000000003
 31
0.0
  0
LINE
  5
E9
330
E0
100
AcDbEntity
  8
치수문자_일반주서
100
AcDbLine
 10
-53.77512886940357
 20
-2.000000000000003
 30
0.0
 11
-53.77512886940357
 21
-8.350000000000003
 31
0.0
  0
MTEXT
  5
EA
330
E0
100
AcDbEntity
  8
치수문자_일반주서
100
AcDbMText
 10
-58.28686595860542
 20
-3.932274412363788
 30
0.0
 40
3.5
 41
0.0
 71
     1
 72
     1
  1
%%c
  7
SLDTEXTSTYLE0
 11
-7.044195017643634E-15
 21
1.0
 31
0.0
 73
     1
 44
1.0
  0
MTEXT
  5
EB
330
E0
100
AcDbEntity
  8
치수문자_일반주서
100
AcDbMText
 10
-58.34033813526531
 20
1.346162986010292
 30
0.0
 40
3.5
 41
0.0
 71
     1
 72
     1
  1
4
  7
SLDTEXTSTYLE0
 11
-7.044195017643634E-15
 21
1.0
 31
0.0
 73
     1
 44
1.0
  0
ENDBLK
  5
E2
330
E0
100
AcDbEntity
  8
0
100
AcDbBlockEnd
  0
BLOCK
  5
EE
330
ED
100
AcDbEntity
  8
0
100
AcDbBlockBegin
  2
_D_2
 70
     0
 10
0.0
 20
0.0
 30
0.0
  3
_D_2
  1

  0
SOLID
  5
F0
330
ED
100
AcDbEntity
  8
치수문자_일반주서
100
AcDbTrace
 10
59.22487113059641
 20
19.14145913108888
 30
0.0
 11
62.5268711305964
 21
18.63345913108888
 31
0.0
 12
62.5268711305964
 22
19.64945913108888
 32
0.0
 13
62.5268711305964
 23
19.64945913108888
 33
0.0
  0
SOLID
  5
F1
330
ED
100
AcDbEntity
  8
치수문자_일반주서
100
AcDbTrace
 10
49.22487113059643
 20
19.14145913108888
 30
0.0
 11
45.92287113059643
 21
19.64945913108888
 31
0.0
 12
45.92287113059643
 22
18.63345913108888
 32
0.0
 13
45.92287113059643
 23
18.63345913108888
 33
0.0
  0
LINE
  5
F2
330
ED
100
AcDbEntity
  8
치수문자_일반주서
100
AcDbLine
 10
59.22487113059641
 20
2.688288676846021
 30
0.0
 11
59.22487113059641
 21
20.14145913108888
 31
0.0
  0
LINE
  5
F3
330
ED
100
AcDbEntity
  8
치수문자_일반주서
100
AcDbLine
 10
49.22487113059643
 20
2.971571559929801
 30
0.0
 11
49.22487113059643
 21
20.14145913108888
 31
0.0
  0
LINE
  5
F4
330
ED
100
AcDbEntity
  8
치수문자_일반주서
100
AcDbLine
 10
59.22487113059641
 20
19.14145913108888
 30
0.0
 11
65.5748711305964
 21
19.14145913108888
 31
0.0
  0
LINE
  5
F5
330
ED
100
AcDbEntity
  8
치수문자_일반주서
100
AcDbLine
 10
59.22487113059641
 20
19.14145913108888
 30
0.0
 11
49.22487113059643
 21
19.14145913108888
 31
0.0
  0
LINE
  5
F6
330
ED
100
AcDbEntity
  8
치수문자_일반주서
100
AcDbLine
 10
49.22487113059643
 20
19.14145913108888
 30
0.0
 11
42.87487113059642
 21
19.14145913108888
 31
0.0
  0
MTEXT
  5
F7
330
ED
100
AcDbEntity
  8
치수문자_일반주서
100
AcDbMText
 10
51.6387599370736
 20
23.65319604566778
 30
0.0
 40
3.5
 41
0.0
 71
     1
 72
     1
  1
10
  7
SLDTEXTSTYLE0
 73
     1
 44
1.0
  0
ENDBLK
  5
EF
330
ED
100
AcDbEntity
  8
0
100
AcDbBlockEnd
  0
BLOCK
  5
FB
330
FA
100
AcDbEntity
  8
0
100
AcDbBlockBegin
  2
_D_3
 70
     0
 10
0.0
 20
0.0
 30
0.0
  3
_D_3
  1

  0
SOLID
  5
FD
330
FA
100
AcDbEntity
  8
치수문자_일반주서
100
AcDbTrace
 10
59.22487113059641
 20
26.55782182145582
 30
0.0
 11
55.92287113059641
 21
27.06582182145582
 31
0.0
 12
55.92287113059641
 22
26.04982182145582
 32
0.0
 13
55.92287113059641
 23
26.04982182145582
 33
0.0
  0
SOLID
  5
FE
330
FA
100
AcDbEntity
  8
치수문자_일반주서
100
AcDbTrace
 10
-40.77512886940357
 20
26.55782182145581
 30
0.0
 11
-37.47312886940357
 21
26.04982182145581
 31
0.0
 12
-37.47312886940357
 22
27.06582182145581
 32
0.0
 13
-37.47312886940357
 23
27.06582182145581
 33
0.0
  0
LINE
  5
FF
330
FA
100
AcDbEntity
  8
치수문자_일반주서
100
AcDbLine
 10
59.22487113059641
 20
2.688288676846021
 30
0.0
 11
59.22487113059641
 21
27.55782182145582
 31
0.0
  0
LINE
  5
100
330
FA
100
AcDbEntity
  8
치수문자_일반주서
100
AcDbLine
 10
-40.77512886940357
 20
2.600000000000001
 30
0.0
 11
-40.77512886940357
 21
27.55782182145581
 31
0.0
  0
LINE
  5
101
330
FA
100
AcDbEntity
  8
치수문자_일반주서
100
AcDbLine
 10
59.22487113059641
 20
26.55782182145582
 30
0.0
 11
-40.77512886940357
 21
26.55782182145581
 31
0.0
  0
MTEXT
  5
102
330
FA
100
AcDbEntity
  8
치수문자_일반주서
100
AcDbMText
 10
5.345704456727516
 20
31.06955873603471
 30
0.0
 40
3.5
 41
0.0
 71
     1
 72
     1
  1
100
  7
SLDTEXTSTYLE0
 73
     1
 44
1.0
  0
ENDBLK
  5
FC
330
FA
100
AcDbEntity
  8
0
100
AcDbBlockEnd
  0
BLOCK
  5
10B
330
10A
100
AcDbEntity
  8
0
100
AcDbBlockBegin
  2
SW_DOWELSYMBOL_0
 70
     0
 10
0.0
 20
0.0
 30
0.0
  3
SW_DOWELSYMBOL_0
  1

  0
CIRCLE
  5
10D
330
10A
100
AcDbEntity
  8
해칭선
 62
     0
100
AcDbCircle
 10
0.0
 20
0.0
 30
0.0
 40
3.000000000000001
  0
HATCH
  5
10E
330
10A
100
AcDbEntity
  8
0
  6
Continuous
 62
     0
370
     0
100
AcDbHatch
 10
0.0
 20
0.0
 30
0.0
210
0.0
220
0.0
230
1.0
  2
SOLID
 70
     1
 71
     0
 91
        1
 92
        0
 93
        3
 72
     2
 10
0.0
 20
0.0
 40
3.000000000000001
 50
0.0
 51
90.0
 73
     1
 72
     1
 10
0.0
 20
3.000000000000001
 11
0.0
 21
0.0
 72
     1
 10
0.0
 20
0.0
 11
3.000000000000003
 21
0.0
 97
        0
 75
     0
 76
     1
 98
        1
 10
0.0
 20
0.0
  0
HATCH
  5
10F
330
10A
100
AcDbEntity
  8
0
  6
Continuous
 62
     0
370
     0
100
AcDbHatch
 10
0.0
 20
0.0
 30
0.0
210
0.0
220
0.0
230
1.0
  2
SOLID
 70
     1
 71
     0
 91
        1
 92
        0
 93
        3
 72
     2
 10
0.0
 20
0.0
 40
3.000000000000001
 50
180.0
 51
270.0000000000008
 73
     1
 72
     1
 10
0.0
 20
-3.000000000000001
 11
0.0
 21
0.0
 72
     1
 10
0.0
 20
0.0
 11
-3.000000000000001
 21
0.0
 97
        0
 75
     0
 76
     1
 98
        1
 10
0.0
 20
0.0
  0
ENDBLK
  5
10C
330
10A
100
AcDbEntity
  8
0
100
AcDbBlockEnd
  0
BLOCK
  5
179
330
178
100
AcDbEntity
  8
0
100
AcDbBlockBegin
  2
*D8
 70
     1
 10
0.0
 20
0.0
 30
0.0
  3
*D8
  1

  0
LINE
  5
17A
330
178
100
AcDbEntity
  8
치수문자_일반주서
 62
     0
370
    -2
100
AcDbLine
 10
84.43750000000001
 20
20.91024405813247
 30
0.0
 11
94.37500000000001
 21
20.91024405813251
 31
0.0
  0
LINE
  5
17B
330
178
100
AcDbEntity
  8
치수문자_일반주서
 62
     0
370
    -2
100
AcDbLine
 10
84.43750000000001
 20
16.91024405813247
 30
0.0
 11
94.37500000000003
 21
16.91024405813251
 31
0.0
  0
LINE
  5
17C
330
178
100
AcDbEntity
  8
치수문자_일반주서
 62
     0
370
    -2
100
AcDbLine
 10
94.37500000000001
 20
20.91024405813251
 30
0.0
 11
94.37499999999997
 21
33.63924405813252
 31
0.0
  0
LINE
  5
17D
330
178
100
AcDbEntity
  8
치수문자_일반주서
 62
     0
370
    -2
100
AcDbLine
 10
94.37500000000001
 20
20.91024405813251
 30
0.0
 11
94.37500000000003
 21
16.91024405813251
 31
0.0
  0
LINE
  5
17E
330
178
100
AcDbEntity
  8
치수문자_일반주서
 62
     0
370
    -2
100
AcDbLine
 10
94.375
 20
24.21224405813251
 30
0.0
 11
94.37499999999999
 21
27.51424405813251
 31
0.0
  0
LINE
  5
17F
330
178
100
AcDbEntity
  8
치수문자_일반주서
 62
     0
370
    -2
100
AcDbLine
 10
94.37500000000004
 20
13.60824405813251
 30
0.0
 11
94.37500000000006
 21
10.30624405813251
 31
0.0
  0
SOLID
  5
180
330
178
100
AcDbEntity
  8
치수문자_일반주서
 62
     0
100
AcDbTrace
 10
93.82466666666667
 20
24.21224405813251
 30
0.0
 11
94.92533333333333
 21
24.21224405813252
 31
0.0
 12
94.37500000000001
 22
20.91024405813251
 32
0.0
 13
94.37500000000001
 23
20.91024405813251
 33
0.0
  0
SOLID
  5
181
330
178
100
AcDbEntity
  8
치수문자_일반주서
 62
     0
100
AcDbTrace
 10
94.92533333333337
 20
13.60824405813251
 30
0.0
 11
93.82466666666672
 21
13.60824405813251
 31
0.0
 12
94.37500000000003
 22
16.91024405813251
 32
0.0
 13
94.37500000000003
 23
16.91024405813251
 33
0.0
  0
MTEXT
  5
182
330
178
100
AcDbEntity
  8
치수문자_일반주서
 62
     0
100
AcDbMText
 10
89.99999999999999
 20
30.5767440581325
 30
0.0
 40
3.5
 41
0.0
 71
     2
 72
     1
  1
\A1;%%c4
  7
SLDTEXTSTYLE0
 11
-3.552713678800501E-15
 21
1.0
 31
0.0
 73
     1
 44
1.0
  0
POINT
  5
183
330
178
100
AcDbEntity
  8
Defpoints
 62
     0
100
AcDbPoint
 10
84.37500000000001
 20
20.91024405813247
 30
0.0
  0
POINT
  5
184
330
178
100
AcDbEntity
  8
Defpoints
 62
     0
100
AcDbPoint
 10
84.37500000000001
 20
16.91024405813247
 30
0.0
  0
POINT
  5
185
330
178
100
AcDbEntity
  8
Defpoints
 62
     0
100
AcDbPoint
 10
94.37500000000003
 20
16.91024405813251
 30
0.0
  0
ENDBLK
  5
186
330
178
100
AcDbEntity
  8
0
100
AcDbBlockEnd
  0
BLOCK
  5
18B
330
18A
100
AcDbEntity
  8
0
100
AcDbBlockBegin
  2
*D9
 70
     1
 10
0.0
 20
0.0
 30
0.0
  3
*D9
  1

  0
LINE
  5
18C
330
18A
100
AcDbEntity
  8
치수문자_일반주서
 62
     0
370
    -2
100
AcDbLine
 10
14.91250000000004
 20
20.91024405813248
 30
0.0
 11
4.375000000000038
 21
20.91024405813244
 31
0.0
  0
LINE
  5
18D
330
18A
100
AcDbEntity
  8
치수문자_일반주서
 62
     0
370
    -2
100
AcDbLine
 10
14.91250000000004
 20
16.91024405813248
 30
0.0
 11
4.375000000000052
 21
16.91024405813244
 31
0.0
  0
LINE
  5
18E
330
18A
100
AcDbEntity
  8
치수문자_일반주서
 62
     0
370
    -2
100
AcDbLine
 10
4.375000000000038
 20
20.91024405813244
 30
0.0
 11
4.374999999999989
 21
34.63924405813244
 31
0.0
  0
LINE
  5
18F
330
18A
100
AcDbEntity
  8
치수문자_일반주서
 62
     0
370
    -2
100
AcDbLine
 10
4.375000000000038
 20
20.91024405813244
 30
0.0
 11
4.375000000000052
 21
16.91024405813244
 31
0.0
  0
LINE
  5
190
330
18A
100
AcDbEntity
  8
치수문자_일반주서
 62
     0
370
    -2
100
AcDbLine
 10
4.375000000000027
 20
24.21224405813244
 30
0.0
 11
4.375000000000015
 21
27.51424405813244
 31
0.0
  0
LINE
  5
191
330
18A
100
AcDbEntity
  8
치수문자_일반주서
 62
     0
370
    -2
100
AcDbLine
 10
4.375000000000064
 20
13.60824405813244
 30
0.0
 11
4.375000000000075
 21
10.30624405813244
 31
0.0
  0
SOLID
  5
192
330
18A
100
AcDbEntity
  8
치수문자_일반주서
 62
     0
100
AcDbTrace
 10
3.824666666666694
 20
24.21224405813244
 30
0.0
 11
4.92533333333336
 21
24.21224405813244
 31
0.0
 12
4.375000000000038
 22
20.91024405813244
 32
0.0
 13
4.375000000000038
 23
20.91024405813244
 33
0.0
  0
SOLID
  5
193
330
18A
100
AcDbEntity
  8
치수문자_일반주서
 62
     0
100
AcDbTrace
 10
4.925333333333398
 20
13.60824405813244
 30
0.0
 11
3.824666666666731
 21
13.60824405813244
 31
0.0
 12
4.375000000000052
 22
16.91024405813244
 32
0.0
 13
4.375000000000052
 23
16.91024405813244
 33
0.0
  0
MTEXT
  5
194
330
18A
100
AcDbEntity
  8
치수문자_일반주서
 62
     0
100
AcDbMText
 10
0.0
 20
31.57674405813242
 30
0.0
 40
3.5
 41
0.0
 71
     2
 72
     1
  1
\A1;%%c4
  7
SLDTEXTSTYLE0
 11
-3.552713678800498E-15
 21
1.0
 31
0.0
 73
     1
 44
1.0
  0
POINT
  5
195
330
18A
100
AcDbEntity
  8
Defpoints
 62
     0
100
AcDbPoint
 10
14.97500000000004
 20
20.91024405813248
 30
0.0
  0
POINT
  5
196
330
18A
100
AcDbEntity
  8
Defpoints
 62
     0
100
AcDbPoint
 10
14.97500000000004
 20
16.91024405813248
 30
0.0
  0
POINT
  5
197
330
18A
100
AcDbEntity
  8
Defpoints
 62
     0
100
AcDbPoint
 10
4.37500000000005
 20
16.91024405813244
 30
0.0
  0
ENDBLK
  5
198
330
18A
100
AcDbEntity
  8
0
100
AcDbBlockEnd
  0
BLOCK
  5
19B
330
19A
100
AcDbEntity
  8
0
100
AcDbBlockBegin
  2
*D10
 70
     1
 10
0.0
 20
0.0
 30
0.0
  3
*D10
  1

  0
LINE
  5
19C
330
19A
100
AcDbEntity
  8
치수문자_일반주서
 62
     0
370
    -2
100
AcDbLine
 10
84.37500000000001
 20
20.97274405813247
 30
0.0
 11
84.37500000000001
 21
31.91024405813249
 31
0.0
  0
LINE
  5
19D
330
19A
100
AcDbEntity
  8
치수문자_일반주서
 62
     0
370
    -2
100
AcDbLine
 10
74.37500000000004
 20
20.94431561806228
 30
0.0
 11
74.37500000000004
 21
31.91024405813249
 31
0.0
  0
LINE
  5
19E
330
19A
100
AcDbEntity
  8
치수문자_일반주서
 62
     0
370
    -2
100
AcDbLine
 10
81.07300000000001
 20
31.91024405813249
 30
0.0
 11
77.67700000000005
 21
31.91024405813249
 31
0.0
  0
SOLID
  5
19F
330
19A
100
AcDbEntity
  8
치수문자_일반주서
 62
     0
100
AcDbTrace
 10
81.07300000000001
 20
31.35991072479916
 30
0.0
 11
81.07300000000001
 21
32.46057739146583
 31
0.0
 12
84.37500000000001
 22
31.91024405813249
 32
0.0
 13
84.37500000000001
 23
31.91024405813249
 33
0.0
  0
SOLID
  5
1A0
330
19A
100
AcDbEntity
  8
치수문자_일반주서
 62
     0
100
AcDbTrace
 10
77.67700000000005
 20
32.46057739146583
 30
0.0
 11
77.67700000000005
 21
31.35991072479916
 31
0.0
 12
74.37500000000004
 22
31.91024405813249
 32
0.0
 13
74.37500000000004
 23
31.91024405813249
 33
0.0
  0
MTEXT
  5
1A1
330
19A
100
AcDbEntity
  8
치수문자_일반주서
 62
     0
100
AcDbMText
 10
79.37500000000013
 20
36.28524405813249
 30
0.0
 40
3.5
 41
0.0
 71
     2
 72
     1
  1
\A1;10
  7
SLDTEXTSTYLE0
 73
     1
 44
1.0
  0
POINT
  5
1A2
330
19A
100
AcDbEntity
  8
Defpoints
 62
     0
100
AcDbPoint
 10
84.37500000000001
 20
20.91024405813247
 30
0.0
  0
POINT
  5
1A3
330
19A
100
AcDbEntity
  8
Defpoints
 62
     0
100
AcDbPoint
 10
74.37500000000004
 20
20.88181561806228
 30
0.0
  0
POINT
  5
1A4
330
19A
100
AcDbEntity
  8
Defpoints
 62
     0
100
AcDbPoint
 10
74.37500000000004
 20
31.91024405813249
 30
0.0
  0
ENDBLK
  5
1A5
330
19A
100
AcDbEntity
  8
0
100
AcDbBlockEnd
  0
BLOCK
  5
1A8
330
1A7
100
AcDbEntity
  8
0
100
AcDbBlockBegin
  2
*D11
 70
     1
 10
0.0
 20
0.0
 30
0.0
  3
*D11
  1

  0
LINE
  5
1A9
330
1A7
100
AcDbEntity
  8
치수문자_일반주서
 62
     0
370
    -2
100
AcDbLine
 10
84.37500000000001
 20
20.97274405813247
 30
0.0
 11
84.37500000000001
 21
41.91024405813249
 31
0.0
  0
LINE
  5
1AA
330
1A7
100
AcDbEntity
  8
치수문자_일반주서
 62
     0
370
    -2
100
AcDbLine
 10
14.37500000000004
 20
21.37274405813248
 30
0.0
 11
14.37500000000004
 21
41.91024405813249
 31
0.0
  0
LINE
  5
1AB
330
1A7
100
AcDbEntity
  8
치수문자_일반주서
 62
     0
370
    -2
100
AcDbLine
 10
81.07300000000001
 20
41.91024405813249
 30
0.0
 11
17.67700000000004
 21
41.91024405813249
 31
0.0
  0
SOLID
  5
1AC
330
1A7
100
AcDbEntity
  8
치수문자_일반주서
 62
     0
100
AcDbTrace
 10
81.07300000000001
 20
41.35991072479916
 30
0.0
 11
81.07300000000001
 21
42.46057739146583
 31
0.0
 12
84.37500000000001
 22
41.91024405813249
 32
0.0
 13
84.37500000000001
 23
41.91024405813249
 33
0.0
  0
SOLID
  5
1AD
330
1A7
100
AcDbEntity
  8
치수문자_일반주서
 62
     0
100
AcDbTrace
 10
17.67700000000004
 20
42.46057739146583
 30
0.0
 11
17.67700000000004
 21
41.35991072479916
 31
0.0
 12
14.37500000000004
 22
41.91024405813249
 32
0.0
 13
14.37500000000004
 23
41.91024405813249
 33
0.0
  0
MTEXT
  5
1AE
330
1A7
100
AcDbEntity
  8
치수문자_일반주서
 62
     0
100
AcDbMText
 10
49.37500000000001
 20
46.28524405813249
 30
0.0
 40
3.5
 41
0.0
 71
     2
 72
     1
  1
\A1;70
  7
SLDTEXTSTYLE0
 73
     1
 44
1.0
  0
POINT
  5
1AF
330
1A7
100
AcDbEntity
  8
Defpoints
 62
     0
100
AcDbPoint
 10
84.37500000000001
 20
20.91024405813247
 30
0.0
  0
POINT
  5
1B0
330
1A7
100
AcDbEntity
  8
Defpoints
 62
     0
100
AcDbPoint
 10
14.37500000000004
 20
21.31024405813248
 30
0.0
  0
POINT
  5
1B1
330
1A7
100
AcDbEntity
  8
Defpoints
 62
     0
100
AcDbPoint
 10
14.37500000000004
 20
41.91024405813249
 30
0.0
  0
ENDBLK
  5
1B2
330
1A7
100
AcDbEntity
  8
0
100
AcDbBlockEnd
  0
BLOCK
  5
1BE
330
1BD
100
AcDbEntity
  8
0
100
AcDbBlockBegin
  2
*D12
 70
     1
 10
0.0
 20
0.0
 30
0.0
  3
*D12
  1

  0
LINE
  5
1BF
330
1BD
100
AcDbEntity
  8
치수문자_일반주서
 62
     0
370
    -2
100
AcDbLine
 10
86.17818002505695
 20
14.28602830306214
 30
0.0
 11
96.45310221993968
 21
0.0000000000000004
 31
0.0
  0
MTEXT
  5
1C0
330
1BD
100
AcDbEntity
  8
치수문자_일반주서
 62
     0
100
AcDbMText
 10
95.90190375157611
 20
5.262066543761458
 30
0.0
 40
3.5
 41
0.0
 71
     5
 72
     1
  1
\A1;R0.3
  7
SLDTEXTSTYLE0
 11
0.5838922890219086
 21
-0.8118311368879343
 31
0.0
 73
     1
 44
1.0
  0
SOLID
  5
1C1
330
1BD
100
AcDbEntity
  8
치수문자_일반주서
 62
     0
100
AcDbTrace
 10
86.62495776072427
 20
14.60736369278719
 30
0.0
 11
85.73140228938962
 21
13.96469291333708
 31
0.0
 12
84.2501676867066
 22
16.96669471706609
 32
0.0
 13
84.2501676867066
 23
16.96669471706609
 33
0.0
  0
LINE
  5
1C2
330
1BD
100
AcDbEntity
  8
치수문자_일반주서
 62
     0
100
AcDbLine
 10
83.98500000000003
 20
17.21024405813247
 30
0.0
 11
84.16500000000003
 21
17.21024405813247
 31
0.0
  0
LINE
  5
1C3
330
1BD
100
AcDbEntity
  8
치수문자_일반주서
 62
     0
100
AcDbLine
 10
84.07500000000003
 20
17.12024405813247
 30
0.0
 11
84.07500000000003
 21
17.30024405813247
 31
0.0
  0
POINT
  5
1C4
330
1BD
100
AcDbEntity
  8
Defpoints
 62
     0
100
AcDbPoint
 10
84.2501676867066
 20
16.96669471706609
 30
0.0
  0
POINT
  5
1C5
330
1BD
100
AcDbEntity
  8
Defpoints
 62
     0
100
AcDbPoint
 10
84.07500000000003
 20
17.21024405813247
 30
0.0
  0
ENDBLK
  5
1C6
330
1BD
100
AcDbEntity
  8
0
100
AcDbBlockEnd
  0
BLOCK
  5
20C
330
20B
100
AcDbEntity
  8
0
100
AcDbBlockBegin
  2
*D13
 70
     1
 10
0.0
 20
0.0
 30
0.0
  3
*D13
  1

  0
LINE
  5
20E
330
20B
100
AcDbEntity
  8
치수문자_일반주서
 62
     0
370
    -2
100
AcDbLine
 10
16.79455080756887
 20
2.001074928723892
 30
0.0
 11
26.73205080756887
 21
2.001074928723929
 31
0.0
  0
LINE
  5
20F
330
20B
100
AcDbEntity
  8
치수문자_일반주서
 62
     0
370
    -2
100
AcDbLine
 10
16.79455080756887
 20
-1.998925071276108
 30
0.0
 11
26.73205080756889
 21
-1.998925071276071
 31
0.0
  0
LINE
  5
210
330
20B
100
AcDbEntity
  8
치수문자_일반주서
 62
     0
370
    -2
100
AcDbLine
 10
26.73205080756887
 20
2.001074928723929
 30
0.0
 11
26.73205080756883
 21
14.73007492872394
 31
0.0
  0
LINE
  5
211
330
20B
100
AcDbEntity
  8
치수문자_일반주서
 62
     0
370
    -2
100
AcDbLine
 10
26.73205080756887
 20
2.001074928723929
 30
0.0
 11
26.73205080756889
 21
-1.998925071276071
 31
0.0
  0
LINE
  5
212
330
20B
100
AcDbEntity
  8
치수문자_일반주서
 62
     0
370
    -2
100
AcDbLine
 10
26.73205080756886
 20
5.303074928723928
 30
0.0
 11
26.73205080756885
 21
8.605074928723928
 31
0.0
  0
LINE
  5
213
330
20B
100
AcDbEntity
  8
치수문자_일반주서
 62
     0
370
    -2
100
AcDbLine
 10
26.7320508075689
 20
-5.300925071276071
 30
0.0
 11
26.73205080756891
 21
-8.60292507127607
 31
0.0
  0
SOLID
  5
214
330
20B
100
AcDbEntity
  8
치수문자_일반주서
 62
     0
100
AcDbTrace
 10
26.18171747423553
 20
5.303074928723927
 30
0.0
 11
27.2823841409022
 21
5.30307492872393
 31
0.0
 12
26.73205080756887
 22
2.001074928723929
 32
0.0
 13
26.73205080756887
 23
2.001074928723929
 33
0.0
  0
SOLID
  5
215
330
20B
100
AcDbEntity
  8
치수문자_일반주서
 62
     0
100
AcDbTrace
 10
27.28238414090223
 20
-5.300925071276069
 30
0.0
 11
26.18171747423557
 21
-5.300925071276072
 31
0.0
 12
26.73205080756889
 22
-1.998925071276071
 32
0.0
 13
26.73205080756889
 23
-1.998925071276071
 33
0.0
  0
MTEXT
  5
216
330
20B
100
AcDbEntity
  8
치수문자_일반주서
 62
     0
100
AcDbMText
 10
22.35705080756884
 20
11.66757492872393
 30
0.0
 40
3.5
 41
0.0
 71
     2
 72
     1
  1
\A1;%%c4
  7
SLDTEXTSTYLE0
 11
-3.552713678800501E-15
 21
1.0
 31
0.0
 73
     1
 44
1.0
  0
POINT
  5
217
330
20B
100
AcDbEntity
  8
Defpoints
 62
     0
100
AcDbPoint
 10
16.73205080756887
 20
2.001074928723892
 30
0.0
  0
POINT
  5
218
330
20B
100
AcDbEntity
  8
Defpoints
 62
     0
100
AcDbPoint
 10
16.73205080756887
 20
-1.998925071276108
 30
0.0
  0
POINT
  5
219
330
20B
100
AcDbEntity
  8
Defpoints
 62
     0
100
AcDbPoint
 10
26.73205080756884
 20
-1.998925071276071
 30
0.0
  0
ENDBLK
  5
20D
330
20B
100
AcDbEntity
  8
0
100
AcDbBlockEnd
  0
BLOCK
  5
21B
330
21A
100
AcDbEntity
  8
0
100
AcDbBlockBegin
  2
*D14
 70
     1
 10
0.0
 20
0.0
 30
0.0
  3
*D14
  1

  0
LINE
  5
21D
330
21A
100
AcDbEntity
  8
치수문자_일반주서
 62
     0
370
    -2
100
AcDbLine
 10
-82.73044919243111
 20
2.001074928723895
 30
0.0
 11
-93.2679491924311
 21
2.001074928723854
 31
0.0
  0
LINE
  5
21E
330
21A
100
AcDbEntity
  8
치수문자_일반주서
 62
     0
370
    -2
100
AcDbLine
 10
-82.73044919243111
 20
-1.998925071276109
 30
0.0
 11
-93.26794919243109
 21
-1.998925071276149
 31
0.0
  0
LINE
  5
21F
330
21A
100
AcDbEntity
  8
치수문자_일반주서
 62
     0
370
    -2
100
AcDbLine
 10
-93.2679491924311
 20
2.001074928723854
 30
0.0
 11
-93.26794919243116
 21
15.73007492872386
 31
0.0
  0
LINE
  5
220
330
21A
100
AcDbEntity
  8
치수문자_일반주서
 62
     0
370
    -2
100
AcDbLine
 10
-93.2679491924311
 20
2.001074928723854
 30
0.0
 11
-93.26794919243109
 21
-1.998925071276149
 31
0.0
  0
LINE
  5
221
330
21A
100
AcDbEntity
  8
치수문자_일반주서
 62
     0
370
    -2
100
AcDbLine
 10
-93.26794919243112
 20
5.303074928723854
 30
0.0
 11
-93.26794919243113
 21
8.605074928723853
 31
0.0
  0
LINE
  5
222
330
21A
100
AcDbEntity
  8
치수문자_일반주서
 62
     0
370
    -2
100
AcDbLine
 10
-93.26794919243108
 20
-5.300925071276149
 30
0.0
 11
-93.26794919243106
 21
-8.602925071276148
 31
0.0
  0
SOLID
  5
223
330
21A
100
AcDbEntity
  8
치수문자_일반주서
 62
     0
100
AcDbTrace
 10
-93.81828252576445
 20
5.303074928723852
 30
0.0
 11
-92.71761585909779
 21
5.303074928723856
 31
0.0
 12
-93.2679491924311
 22
2.001074928723854
 32
0.0
 13
-93.2679491924311
 23
2.001074928723854
 33
0.0
  0
SOLID
  5
224
330
21A
100
AcDbEntity
  8
치수문자_일반주서
 62
     0
100
AcDbTrace
 10
-92.71761585909775
 20
-5.300925071276147
 30
0.0
 11
-93.8182825257644
 21
-5.300925071276151
 31
0.0
 12
-93.26794919243109
 22
-1.998925071276149
 32
0.0
 13
-93.26794919243109
 23
-1.998925071276149
 33
0.0
  0
MTEXT
  5
225
330
21A
100
AcDbEntity
  8
치수문자_일반주서
 62
     0
100
AcDbMText
 10
-97.64294919243115
 20
12.66757492872384
 30
0.0
 40
3.5
 41
0.0
 71
     2
 72
     1
  1
\A1;%%c4
  7
SLDTEXTSTYLE0
 11
-3.552713678800499E-15
 21
1.0
 31
0.0
 73
     1
 44
1.0
  0
POINT
  5
226
330
21A
100
AcDbEntity
  8
Defpoints
 62
     0
100
AcDbPoint
 10
-82.66794919243111
 20
2.001074928723895
 30
0.0
  0
POINT
  5
227
330
21A
100
AcDbEntity
  8
Defpoints
 62
     0
100
AcDbPoint
 10
-82.66794919243111
 20
-1.998925071276108
 30
0.0
  0
POINT
  5
228
330
21A
100
AcDbEntity
  8
Defpoints
 62
     0
100
AcDbPoint
 10
-93.2679491924311
 20
-1.998925071276148
 30
0.0
  0
ENDBLK
  5
21C
330
21A
100
AcDbEntity
  8
0
100
AcDbBlockEnd
  0
BLOCK
  5
22A
330
229
100
AcDbEntity
  8
0
100
AcDbBlockBegin
  2
*D15
 70
     1
 10
0.0
 20
0.0
 30
0.0
  3
*D15
  1

  0
LINE
  5
22C
330
229
100
AcDbEntity
  8
치수문자_일반주서
 62
     0
370
    -2
100
AcDbLine
 10
16.73205080756887
 20
2.063574928723892
 30
0.0
 11
16.73205080756887
 21
13.00107492872391
 31
0.0
  0
LINE
  5
22D
330
229
100
AcDbEntity
  8
치수문자_일반주서
 62
     0
370
    -2
100
AcDbLine
 10
6.732050807568896
 20
2.035146488653702
 30
0.0
 11
6.732050807568896
 21
13.00107492872391
 31
0.0
  0
LINE
  5
22E
330
229
100
AcDbEntity
  8
치수문자_일반주서
 62
     0
370
    -2
100
AcDbLine
 10
13.43005080756887
 20
13.00107492872391
 30
0.0
 11
10.0340508075689
 21
13.00107492872391
 31
0.0
  0
SOLID
  5
22F
330
229
100
AcDbEntity
  8
치수문자_일반주서
 62
     0
100
AcDbTrace
 10
13.43005080756887
 20
12.45074159539058
 30
0.0
 11
13.43005080756887
 21
13.55140826205724
 31
0.0
 12
16.73205080756887
 22
13.00107492872391
 32
0.0
 13
16.73205080756887
 23
13.00107492872391
 33
0.0
  0
SOLID
  5
230
330
229
100
AcDbEntity
  8
치수문자_일반주서
 62
     0
100
AcDbTrace
 10
10.0340508075689
 20
13.55140826205724
 30
0.0
 11
10.0340508075689
 21
12.45074159539058
 31
0.0
 12
6.732050807568896
 22
13.00107492872391
 32
0.0
 13
6.732050807568896
 23
13.00107492872391
 33
0.0
  0
MTEXT
  5
231
330
229
100
AcDbEntity
  8
치수문자_일반주서
 62
     0
100
AcDbMText
 10
11.73205080756898
 20
17.37607492872391
 30
0.0
 40
3.5
 41
0.0
 71
     2
 72
     1
  1
\A1;10
  7
SLDTEXTSTYLE0
 73
     1
 44
1.0
  0
POINT
  5
232
330
229
100
AcDbEntity
  8
Defpoints
 62
     0
100
AcDbPoint
 10
16.73205080756887
 20
2.001074928723892
 30
0.0
  0
POINT
  5
233
330
229
100
AcDbEntity
  8
Defpoints
 62
     0
100
AcDbPoint
 10
6.732050807568896
 20
1.972646488653702
 30
0.0
  0
POINT
  5
234
330
229
100
AcDbEntity
  8
Defpoints
 62
     0
100
AcDbPoint
 10
6.732050807568896
 20
13.00107492872391
 30
0.0
  0
ENDBLK
  5
22B
330
229
100
AcDbEntity
  8
0
100
AcDbBlockEnd
  0
BLOCK
  5
236
330
235
100
AcDbEntity
  8
0
100
AcDbBlockBegin
  2
*D16
 70
     1
 10
0.0
 20
0.0
 30
0.0
  3
*D16
  1

  0
LINE
  5
238
330
235
100
AcDbEntity
  8
치수문자_일반주서
 62
     0
370
    -2
100
AcDbLine
 10
16.73205080756887
 20
2.063574928723892
 30
0.0
 11
16.73205080756887
 21
23.00107492872391
 31
0.0
  0
LINE
  5
239
330
235
100
AcDbEntity
  8
치수문자_일반주서
 62
     0
370
    -2
100
AcDbLine
 10
-83.2679491924311
 20
1.463574928723901
 30
0.0
 11
-83.2679491924311
 21
23.00107492872391
 31
0.0
  0
LINE
  5
23A
330
235
100
AcDbEntity
  8
치수문자_일반주서
 62
     0
370
    -2
100
AcDbLine
 10
13.43005080756887
 20
23.00107492872391
 30
0.0
 11
-79.96594919243111
 21
23.00107492872391
 31
0.0
  0
SOLID
  5
23B
330
235
100
AcDbEntity
  8
치수문자_일반주서
 62
     0
100
AcDbTrace
 10
13.43005080756887
 20
22.45074159539057
 30
0.0
 11
13.43005080756887
 21
23.55140826205724
 31
0.0
 12
16.73205080756887
 22
23.00107492872391
 32
0.0
 13
16.73205080756887
 23
23.00107492872391
 33
0.0
  0
SOLID
  5
23C
330
235
100
AcDbEntity
  8
치수문자_일반주서
 62
     0
100
AcDbTrace
 10
-79.96594919243111
 20
23.55140826205724
 30
0.0
 11
-79.96594919243111
 21
22.45074159539057
 31
0.0
 12
-83.2679491924311
 22
23.00107492872391
 32
0.0
 13
-83.2679491924311
 23
23.00107492872391
 33
0.0
  0
MTEXT
  5
23D
330
235
100
AcDbEntity
  8
치수문자_일반주서
 62
     0
100
AcDbMText
 10
-33.26794919243113
 20
27.37607492872391
 30
0.0
 40
3.5
 41
0.0
 71
     2
 72
     1
  1
\A1;100
  7
SLDTEXTSTYLE0
 73
     1
 44
1.0
  0
POINT
  5
23E
330
235
100
AcDbEntity
  8
Defpoints
 62
     0
100
AcDbPoint
 10
16.73205080756887
 20
2.001074928723892
 30
0.0
  0
POINT
  5
23F
330
235
100
AcDbEntity
  8
Defpoints
 62
     0
100
AcDbPoint
 10
-83.2679491924311
 20
1.401074928723901
 30
0.0
  0
POINT
  5
240
330
235
100
AcDbEntity
  8
Defpoints
 62
     0
100
AcDbPoint
 10
-83.2679491924311
 20
23.00107492872391
 30
0.0
  0
ENDBLK
  5
237
330
235
100
AcDbEntity
  8
0
100
AcDbBlockEnd
  0
BLOCK
  5
242
330
241
100
AcDbEntity
  8
0
100
AcDbBlockBegin
  2
*D17
 70
     1
 10
0.0
 20
0.0
 30
0.0
  3
*D17
  1

  0
LINE
  5
244
330
241
100
AcDbEntity
  8
치수문자_일반주서
 62
     0
370
    -2
100
AcDbLine
 10
18.5352308326258
 20
-4.623140826346447
 30
0.0
 11
28.81015302750854
 21
-18.90916912940858
 31
0.0
  0
MTEXT
  5
245
330
241
100
AcDbEntity
  8
치수문자_일반주서
 62
     0
100
AcDbMText
 10
28.25895455914497
 20
-13.64710258564712
 30
0.0
 40
3.5
 41
0.0
 71
     5
 72
     1
  1
\A1;R0.3
  7
SLDTEXTSTYLE0
 11
0.5838922890219086
 21
-0.8118311368879343
 31
0.0
 73
     1
 44
1.0
  0
SOLID
  5
246
330
241
100
AcDbEntity
  8
치수문자_일반주서
 62
     0
100
AcDbTrace
 10
18.98200856829312
 20
-4.30180543662139
 30
0.0
 11
18.08845309695847
 21
-4.944476216071504
 31
0.0
 12
16.60721849427546
 22
-1.942474412342488
 32
0.0
 13
16.60721849427546
 23
-1.942474412342488
 33
0.0
  0
LINE
  5
247
330
241
100
AcDbEntity
  8
치수문자_일반주서
 62
     0
100
AcDbLine
 10
16.34205080756889
 20
-1.698925071276108
 30
0.0
 11
16.52205080756888
 21
-1.698925071276108
 31
0.0
  0
LINE
  5
248
330
241
100
AcDbEntity
  8
치수문자_일반주서
 62
     0
100
AcDbLine
 10
16.43205080756888
 20
-1.788925071276108
 30
0.0
 11
16.43205080756888
 21
-1.608925071276108
 31
0.0
  0
POINT
  5
249
330
241
100
AcDbEntity
  8
Defpoints
 62
     0
100
AcDbPoint
 10
16.60721849427546
 20
-1.942474412342488
 30
0.0
  0
POINT
  5
24A
330
241
100
AcDbEntity
  8
Defpoints
 62
     0
100
AcDbPoint
 10
16.43205080756888
 20
-1.698925071276108
 30
0.0
  0
ENDBLK
  5
243
330
241
100
AcDbEntity
  8
0
100
AcDbBlockEnd
  0
ENDSEC
  0
SECTION
  2
ENTITIES
  0
LINE
  5
C7
330
1F
100
AcDbEntity
  8
참조1
100
AcDbLine
 10
-15.77564223695981
 20
-2.499999999999974
 30
0.0
 11
-15.7756422369598
 21
-40.0
 31
0.0
  0
LINE
  5
C8
330
1F
100
AcDbEntity
  8
참조1
100
AcDbLine
 10
-15.7756422369598
 20
-40.0
 30
0.0
 11
-30.93398568371225
 21
-40.0
 31
0.0
  0
INSERT
  5
CA
330
1F
100
AcDbEntity
  8
0
  6
Continuous
 62
     7
100
AcDbBlockReference
 66
     1
  2
블럭10
 10
-29.71591516908501
 20
-52.04717430164393
 30
0.0
  0
ATTRIB
  5
CB
330
CA
100
AcDbEntity
  8
FORMAT
 62
     2
100
AcDbText
 10
-53.61980731179777
 20
-49.97180738881174
 30
0.0
 40
4.233333333333333
  1
SEME01040031004SE [ 4 FLUTE ]
 41
0.75
  7
SLDTEXTSTYLE0
 11
-53.61980731179777
 21
-52.08847405547841
 31
0.0
100
AcDbAttribute
  2
AUTOATTR0
 70
     0
 74
     1
  0
SEQEND
  5
CC
330
CA
100
AcDbEntity
  8
0
  6
Continuous
 62
     7
  0
HATCH
  5
CD
330
1F
100
AcDbEntity
  8
중심선
100
AcDbHatch
 10
0.0
 20
0.0
 30
0.0
210
0.0
220
0.0
230
1.0
  2
SOLID
 70
     1
 71
     0
 91
        1
 92
        0
 93
        4
 72
     1
 10
-24.00100586470416
 20
-35.8
 11
-27.44728110854144
 21
-35.8
 72
     1
 10
-27.44728110854144
 20
-35.8
 11
-29.57551096774547
 21
-38.33632558057259
 72
     1
 10
-29.57551096774547
 20
-38.33632558057259
 11
-26.12920263879504
 21
-38.3362861512701
 72
     1
 10
-26.12920263879504
 20
-38.3362861512701
 11
-24.00100586470416
 21
-35.8
 97
        0
 75
     0
 76
     1
 98
        1
 10
0.0
 20
0.0
  0
HATCH
  5
CE
330
1F
100
AcDbEntity
  8
중심선
100
AcDbHatch
 10
0.0
 20
0.0
 30
0.0
210
0.0
220
0.0
230
1.0
  2
SOLID
 70
     1
 71
     0
 91
        1
 92
        0
 93
        4
 72
     1
 10
-18.98824187366821
 20
-35.8
 11
-22.43451711750549
 21
-35.8
 72
     1
 10
-22.43451711750549
 20
-35.8
 11
-26.96565512586288
 21
-41.20000000000002
 72
     1
 10
-26.96565512586288
 20
-41.20000000000002
 11
-23.5193798820256
 21
-41.20000000000002
 72
     1
 10
-23.5193798820256
 20
-41.20000000000002
 11
-18.98824187366821
 21
-35.8
 97
        0
 75
     0
 76
     1
 98
        1
 10
0.0
 20
0.0
  0
HATCH
  5
CF
330
1F
100
AcDbEntity
  8
중심선
100
AcDbHatch
 10
0.0
 20
0.0
 30
0.0
210
0.0
220
0.0
230
1.0
  2
SOLID
 70
     1
 71
     0
 91
        1
 92
        0
 93
        4
 72
     1
 10
-13.97547788263232
 20
-35.80000000000003
 11
-17.42175312646943
 21
-35.8
 72
     1
 10
-17.42175312646943
 20
-35.8
 11
-24.47019002835868
 21
-44.20000000000002
 72
     1
 10
-24.47019002835868
 20
-44.20000000000002
 11
-21.0239147845214
 21
-44.20000000000002
 72
     1
 10
-21.0239147845214
 20
-44.20000000000002
 11
-13.97547788263232
 21
-35.80000000000003
 97
        0
 75
     0
 76
     1
 98
        1
 10
0.0
 20
0.0
  0
HATCH
  5
D0
330
1F
100
AcDbEntity
  8
중심선
100
AcDbHatch
 10
0.0
 20
0.0
 30
0.0
210
0.0
220
0.0
230
1.0
  2
SOLID
 70
     1
 71
     0
 91
        1
 92
        0
 93
        6
 72
     3
 10
-9.175587451620116
 20
-40.00000000005127
 11
3.960054785062284
 21
1.540850780301639E-10
 40
0.3939339440162633
 50
17.09539180608433
 51
320.0019657685079
 73
     0
 72
     1
 10
-7.49258779591952
 20
-38.5878940046383
 11
-5.187285922218482
 21
-36.65356729459038
 72
     3
 10
-9.175587451672962
 20
-40.00000000000015
 11
6.600054785286829
 21
-1.249000902703301E-13
 40
0.6363583540795982
 50
39.99873849337408
 51
368.4976242363725
 73
     1
 72
     1
 10
-2.750254959772352
 20
-39.03999999993002
 11
-10.49552014483704
 21
-39.03999999992999
 72
     1
 10
-10.49552014483704
 20
-39.03999999992999
 11
-10.49554518928297
 21
-40.95999999992991
 72
     1
 10
-10.49554518928297
 20
-40.95999999992991
 11
-6.054165419810936
 21
-40.95999999992988
 97
        0
 75
     0
 76
     1
 98
        1
 10
0.0
 20
0.0
  0
LINE
  5
103
330
1F
100
AcDbEntity
  8
참조1
100
AcDbLine
 10
67.03835494594202
 20
7.440000000000002
 30
0.0
 11
67.03835494594202
 21
-7.440000000000002
 31
0.0
  0
LINE
  5
104
330
1F
100
AcDbEntity
  8
참조1
100
AcDbLine
 10
79.73835494594202
 20
5.440000000000002
 30
0.0
 11
67.03835494594202
 21
5.440000000000002
 31
0.0
  0
SOLID
  5
105
330
1F
100
AcDbEntity
  8
참조1
100
AcDbTrace
 10
67.03835494594202
 20
5.440000000000002
 30
0.0
 11
73.38835494594201
 21
4.424000000000002
 31
0.0
 12
73.38835494594201
 22
6.456000000000002
 32
0.0
 13
73.38835494594201
 23
6.456000000000002
 33
0.0
  0
LINE
  5
106
330
1F
100
AcDbEntity
  8
참조1
100
AcDbLine
 10
79.73835494594202
 20
-5.440000000000002
 30
0.0
 11
67.03835494594202
 21
-5.440000000000002
 31
0.0
  0
SOLID
  5
107
330
1F
100
AcDbEntity
  8
참조1
100
AcDbTrace
 10
67.03835494594202
 20
-5.440000000000002
 30
0.0
 11
73.38835494594201
 21
-6.456000000000002
 31
0.0
 12
73.38835494594201
 22
-4.424000000000002
 32
0.0
 13
73.38835494594201
 23
-4.424000000000002
 33
0.0
  0
MTEXT
  5
108
330
1F
100
AcDbEntity
  8
참조1
100
AcDbMText
 10
76.4358450384123
 20
10.98821664464994
 30
0.0
 40
3.5
 41
0.0
 71
     1
 72
     1
  1
A
  7
SLDTEXTSTYLE0
 73
     1
 44
1.0
  0
MTEXT
  5
109
330
1F
100
AcDbEntity
  8
참조1
100
AcDbMText
 10
76.4358450384123
 20
0.1082166446499328
 30
0.0
 40
3.5
 41
0.0
 71
     1
 72
     1
  1
A
  7
SLDTEXTSTYLE0
 73
     1
 44
1.0
  0
LINE
  5
1D0
330
1F
100
AcDbEntity
  8
0
  6
Continuous
 62
     1
370
    15
100
AcDbLine
 10
16.01193363409146
 20
0.5799104765751757
 30
0.0
 11
15.98093589557601
 21
0.5967078359314009
 31
0.0
1001
PE_URL
1000

  0
LINE
  5
1D1
330
1F
100
AcDbEntity
  8
0
  6
Continuous
 62
     1
370
    15
100
AcDbLine
 10
16.73205080756887
 20
0.1963108507837781
 30
0.0
 11
16.6885000136848
 21
0.2191393168289508
 31
0.0
1001
PE_URL
1000

  0
LINE
  5
1D2
330
1F
100
AcDbEntity
  8
0
  6
Continuous
 62
     1
370
    15
100
AcDbLine
 10
11.58864757508869
 20
-1.998925071276101
 30
0.0
 11
12.808179836611
 21
-1.998925071276101
 31
0.0
1001
PE_URL
1000

  0
LINE
  5
1D3
330
1F
100
AcDbEntity
  8
0
  6
Continuous
 62
     1
370
    15
100
AcDbLine
 10
7.366982574768628
 20
2.001074928723892
 30
0.0
 11
6.732050807568896
 21
2.001074928723892
 31
0.0
1001
PE_URL
1000

  0
LINE
  5
1D4
330
1F
100
AcDbEntity
  8
0
  6
Continuous
 62
     1
370
    15
100
AcDbLine
 10
12.80817983661098
 20
2.001074928723892
 30
0.0
 11
11.58864757508871
 21
2.001074928723892
 31
0.0
1001
PE_URL
1000

  0
LINE
  5
1D5
330
1F
100
AcDbEntity
  8
0
  6
Continuous
 62
     1
370
    15
100
AcDbLine
 10
6.732050807568896
 20
-1.998925071276101
 30
0.0
 11
7.366982574768599
 21
-1.998925071276101
 31
0.0
1001
PE_URL
1000

  0
LINE
  5
1D6
330
1F
100
AcDbEntity
  8
외형선
  6
Continuous
370
    15
100
AcDbLine
 10
-82.66794919243111
 20
2.001074928723895
 30
0.0
 11
-83.2679491924311
 21
1.401074928723901
 31
0.0
  0
LINE
  5
1D7
330
1F
100
AcDbEntity
  8
외형선
  6
Continuous
370
    15
100
AcDbLine
 10
6.145769871548424
 20
-1.998925071276105
 30
0.0
 11
6.732050807568896
 21
-1.998925071276105
 31
0.0
  0
LINE
  5
1D8
330
1F
100
AcDbEntity
  8
외형선
  6
Continuous
370
    15
100
AcDbLine
 10
6.732050807568896
 20
2.001074928723895
 30
0.0
 11
6.145769871548424
 21
2.001074928723895
 31
0.0
  0
LINE
  5
1D9
330
1F
100
AcDbEntity
  8
0
  6
Continuous
 62
     1
370
    15
100
AcDbLine
 10
16.73205080756887
 20
-1.560626837416642
 30
0.0
 11
16.73205080756887
 21
0.2002766948644528
 31
0.0
1001
PE_URL
1000

  0
SPLINE
  5
1DA
330
1F
100
AcDbEntity
  8
0
  6
Continuous
 62
     1
370
    15
100
AcDbSpline
210
0.0
220
0.0
230
1.0
 70
     8
 71
     3
 72
    10
 73
     6
 74
     0
 42
0.000000001
 43
0.00000001
 40
0.0
 40
0.0
 40
0.0
 40
0.0
 40
0.5
 40
0.5
 40
1.0
 40
1.0
 40
1.0
 40
1.0
 10
16.43205080756888
 20
-1.729927208067689
 30
0.0
 10
16.5090766429056
 20
-1.752166343457066
 30
0.0
 10
16.57964564713501
 20
-1.751551003514354
 30
0.0
 10
16.69160625531185
 20
-1.697417896440204
 30
0.0
 10
16.73205080756887
 20
-1.6394649981168
 30
0.0
 10
16.73205080756887
 20
-1.560626837416649
 30
0.0
1001
PE_URL
1000

  0
SPLINE
  5
1DB
330
1F
100
AcDbEntity
  8
0
  6
Continuous
 62
     1
370
    15
100
AcDbSpline
210
0.0
220
0.0
230
1.0
 70
     8
 71
     3
 72
    18
 73
    14
 74
     0
 42
0.000000001
 43
0.00000001
 40
0.0
 40
0.0
 40
0.0
 40
0.0
 40
0.029786409252207
 40
0.129557443923924
 40
0.2293395379378051
 40
0.3292034329114144
 40
0.4292119794989067
 40
0.5291644508662393
 40
0.6232660856350736
 40
0.7173081953216616
 40
0.811440358535538
 40
0.9057828116301727
 40
1.0
 40
1.0
 40
1.0
 40
1.0
 10
7.366982574768628
 20
1.986810349846262
 30
0.0
 10
7.456985552316866
 20
1.990906359190113
 30
0.0
 10
7.848457905293628
 20
2.008722152170879
 30
0.0
 10
8.541294137309563
 20
1.902324508379937
 30
0.0
 10
9.445908701388163
 20
1.67154350334177
 30
0.0
 10
10.35134571633122
 20
1.317172559095106
 30
0.0
 10
11.25769558640084
 20
0.8764059678929925
 30
0.0
 10
12.14650056232281
 20
0.384825921249611
 30
0.0
 10
13.01681350899884
 20
-0.1206965485226519
 30
0.0
 10
13.86946628054062
 20
-0.6094429435963562
 30
0.0
 10
14.72294345441873
 20
-1.059452045496979
 30
0.0
 10
15.5776224243657
 20
-1.452263844576624
 30
0.0
 10
16.14736751164261
 20
-1.637413753423118
 30
0.0
 10
16.43205080756871
 20
-1.729927208067839
 30
0.0
1001
PE_URL
1000

  0
SPLINE
  5
1DC
330
1F
100
AcDbEntity
  8
0
  6
Continuous
 62
     1
370
    15
100
AcDbSpline
210
0.0
220
0.0
230
1.0
 70
     8
 71
     3
 72
    15
 73
    11
 74
     0
 42
0.000000001
 43
0.00000001
 40
0.0
 40
0.0
 40
0.0
 40
0.0
 40
0.1303750976210084
 40
0.2609295180359868
 40
0.3913577729128307
 40
0.5216367167397239
 40
0.6518581832822774
 40
0.7821147611670977
 40
0.9051038945531991
 40
1.0
 40
1.0
 40
1.0
 40
1.0
 10
16.43205080756869
 20
0.3446044708194087
 30
0.0
 10
16.13023394793601
 20
0.5140210696042189
 30
0.0
 10
15.52618509845394
 20
0.853087289111258
 30
0.0
 10
14.61974349869632
 20
1.296787742581145
 30
0.0
 10
13.7138468243206
 20
1.654595219981768
 30
0.0
 10
12.80893129735804
 20
1.89929991365074
 30
0.0
 10
11.90449305284022
 20
2.01613107133392
 30
0.0
 10
11.01687879800588
 20
1.993037147356088
 30
0.0
 10
10.21088177435303
 20
1.86644181065752
 30
0.0
 10
9.70629247618848
 20
1.705470936406712
 30
0.0
 10
9.486527431514332
 20
1.635362887148347
 30
0.0
1001
PE_URL
1000

  0
SPLINE
  5
1DD
330
1F
100
AcDbEntity
  8
0
  6
Continuous
 62
     1
370
    15
100
AcDbSpline
210
0.0
220
0.0
230
1.0
 70
     8
 71
     3
 72
    10
 73
     6
 74
     0
 42
0.000000001
 43
0.00000001
 40
0.0
 40
0.0
 40
0.0
 40
0.0
 40
0.5
 40
0.5
 40
1.0
 40
1.0
 40
1.0
 40
1.0
 10
16.73205080756887
 20
0.2002766948644563
 30
0.0
 10
16.7320508075689
 20
0.2032976599988707
 30
0.0
 10
16.69560323490956
 20
0.2149811844546718
 30
0.0
 10
16.57965142303209
 20
0.2654084228085125
 30
0.0
 10
16.5036802158204
 20
0.3039308584842857
 30
0.0
 10
16.43205080756888
 20
0.3446044708192986
 30
0.0
1001
PE_URL
1000

  0
SPLINE
  5
1DE
330
1F
100
AcDbEntity
  8
0
  6
Continuous
 62
     1
370
    15
100
AcDbSpline
210
0.0
220
0.0
230
1.0
 70
     8
 71
     3
 72
    17
 73
    13
 74
     0
 42
0.000000001
 43
0.00000001
 40
0.0
 40
0.0
 40
0.0
 40
0.0
 40
0.1104656346658563
 40
0.2208650683726507
 40
0.3312767395501284
 40
0.4417789257719837
 40
0.5524411730407125
 40
0.6630413715137075
 40
0.7671674560385946
 40
0.87122767439909
 40
0.9753875395002344
 40
1.0
 40
1.0
 40
1.0
 40
1.0
 10
6.732050807568868
 20
0.3654642209072492
 30
0.0
 10
7.033706014466816
 20
0.1917861126494884
 30
0.0
 10
7.636835649289566
 20
-0.1554660202985936
 30
0.0
 10
8.541298832000734
 20
-0.6726008400329739
 30
0.0
 10
9.445907427516431
 20
-1.142216202209578
 30
0.0
 10
10.35134611360135
 20
-1.534766381616823
 30
0.0
 10
11.2576952734066
 20
-1.822792539221062
 30
0.0
 10
12.14650139362067
 20
-1.983394884550211
 30
0.0
 10
13.01681068207017
 20
-2.016894445457517
 30
0.0
 10
13.86947682829009
 20
-1.920011534873499
 30
0.0
 10
14.50510570615134
 20
-1.783082252946983
 30
0.0
 10
14.85688323217707
 20
-1.652997776972423
 30
0.0
 10
14.92411903322056
 20
-1.628134523073609
 30
0.0
1001
PE_URL
1000

  0
SPLINE
  5
1DF
330
1F
100
AcDbEntity
  8
외형선
  6
Continuous
370
    15
100
AcDbSpline
210
0.0
220
0.0
230
1.0
 70
    24
 71
     3
 72
    12
 73
     8
 74
     0
 42
0.000000001
 43
0.00000001
 40
0.0
 40
0.0
 40
0.0
 40
0.0
 40
0.2026911574960827
 40
0.4165187150990306
 40
0.6303462727019773
 40
0.8441738303049291
 40
1.0
 40
1.0
 40
1.0
 40
1.0
 10
6.732050807568896
 20
1.972646488653702
 30
0.0
 10
6.732050807568868
 20
1.853486197643562
 30
0.0
 10
6.732050807568839
 20
1.608618627121505
 30
0.0
 10
6.732050807568925
 20
1.200830717769424
 30
0.0
 10
6.732050807568811
 20
0.8196212596193355
 30
0.0
 10
6.732050807568896
 20
0.5200704411553829
 30
0.0
 10
6.732050807568896
 20
0.4113112556846943
 30
0.0
 10
6.732050807568896
 20
0.3654642209072279
 30
0.0
  0
SPLINE
  5
1E0
330
1F
100
AcDbEntity
  8
0
  6
Continuous
 62
     1
370
    15
100
AcDbSpline
210
0.0
220
0.0
230
1.0
 70
     8
 71
     3
 72
    38
 73
    34
 74
     0
 42
0.000000001
 43
0.00000001
 40
0.0
 40
0.0
 40
0.0
 40
0.0
 40
0.0625
 40
0.0625
 40
0.125
 40
0.125
 40
0.1875
 40
0.1875
 40
0.25
 40
0.25
 40
0.3125
 40
0.3125
 40
0.375
 40
0.375
 40
0.4375
 40
0.4375
 40
0.5
 40
0.5
 40
0.5625
 40
0.5625
 40
0.625
 40
0.625
 40
0.6875
 40
0.6875
 40
0.75
 40
0.75
 40
0.8125
 40
0.8125
 40
0.875
 40
0.875
 40
0.9375
 40
0.9375
 40
1.0
 40
1.0
 40
1.0
 40
1.0
 10
16.43205080756888
 20
-1.998925071276108
 30
0.0
 10
16.2294656842455
 20
-1.949144056160353
 30
0.0
 10
16.02500876833602
 20
-1.918874705202175
 30
0.0
 10
15.62168882105937
 20
-1.839383623505938
 30
0.0
 10
15.42219452876921
 20
-1.790231263636183
 30
0.0
 10
15.01588057371595
 20
-1.673535280816559
 30
0.0
 10
14.81181829812087
 20
-1.606159221663418
 30
0.0
 10
14.41116162944832
 20
-1.456655305547326
 30
0.0
 10
14.20912959195687
 20
-1.373889761327145
 30
0.0
 10
13.80245695860708
 20
-1.194748994094461
 30
0.0
 10
13.60071946196308
 20
-1.098815440303476
 30
0.0
 10
13.1997953103305
 20
-0.8972099250209382
 30
0.0
 10
12.99568174561256
 20
-0.7906868155480922
 30
0.0
 10
12.58943777620857
 20
-0.5709458697378018
 30
0.0
 10
12.39008664195273
 20
-0.4582798601741764
 30
0.0
 10
11.98656670411665
 20
-0.2285422918629259
 30
0.0
 10
11.78209408308513
 20
-0.1113932270698292
 30
0.0
 10
11.37706335688222
 20
0.1221197633953359
 30
0.0
 10
11.17838992934185
 20
0.2381176196474293
 30
0.0
 10
10.77304130971444
 20
0.4680459700281432
 30
0.0
 10
10.56861059128616
 20
0.5815221945327309
 30
0.0
 10
10.1655698867643
 20
0.8003456331769847
 30
0.0
 10
9.965861178424177
 20
0.9059294606689257
 30
0.0
 10
9.559462696686438
 20
1.107986779476072
 30
0.0
 10
9.355474564129395
 20
1.203946850059214
 30
0.0
 10
8.955187926245259
 20
1.381532326148367
 30
0.0
 10
8.75273756540605
 20
1.464087220097706
 30
0.0
 10
8.346074796324757
 20
1.613593572302403
 30
0.0
 10
8.144713214411013
 20
1.680210206089509
 30
0.0
 10
7.743437817751186
 20
1.795633402769305
 30
0.0
 10
7.539260093595772
 20
1.844790384279467
 30
0.0
 10
7.13312031579224
 20
1.923531163402686
 30
0.0
 10
6.933940795298838
 20
1.953050707093958
 30
0.0
 10
6.732050807569351
 20
1.972646488650408
 30
0.0
1001
PE_URL
1000

  0
SPLINE
  5
1E1
330
1F
100
AcDbEntity
  8
0
  6
Continuous
 62
     1
370
    15
100
AcDbSpline
210
0.0
220
0.0
230
1.0
 70
     8
 71
     3
 72
    13
 73
     9
 74
     0
 42
0.000000001
 43
0.00000001
 40
0.0
 40
0.0
 40
0.0
 40
0.0
 40
0.1212071507992316
 40
0.2970753824657277
 40
0.4731507441730327
 40
0.648831078169211
 40
0.8243544302183896
 40
0.9999999999999999
 40
0.9999999999999999
 40
0.9999999999999999
 40
0.9999999999999999
 10
11.58864757508869
 20
-1.983438409050578
 30
0.0
 10
11.39244535567343
 20
-1.984032584380913
 30
0.0
 10
10.91155912916727
 20
-1.985488891722078
 30
0.0
 10
10.14552813126667
 20
-1.84334682779166
 30
0.0
 10
9.290883518844197
 20
-1.592519271496855
 30
0.0
 10
8.437446705606078
 20
-1.239614571610623
 30
0.0
 10
7.584824744441988
 20
-0.8146016990214768
 30
0.0
 10
7.016374732635427
 20
-0.4948638812569577
 30
0.0
 10
6.732050807569379
 20
-0.3349393330105208
 30
0.0
1001
PE_URL
1000

  0
LINE
  5
1E2
330
1F
100
AcDbEntity
  8
외형선
  6
Continuous
370
    15
100
AcDbLine
 10
6.732050807568896
 20
-0.3349393330119099
 30
0.0
 11
6.732050807568868
 21
0.3654642209072385
 31
0.0
  0
LINE
  5
1E3
330
1F
100
AcDbEntity
  8
외형선
  6
Continuous
370
    15
100
AcDbLine
 10
6.732050807568896
 20
1.972646488653702
 30
0.0
 11
6.732050807568896
 21
2.001074928723892
 31
0.0
  0
SPLINE
  5
1E4
330
1F
100
AcDbEntity
  8
0
  6
Continuous
 62
     1
370
    15
100
AcDbSpline
210
0.0
220
0.0
230
1.0
 70
     8
 71
     3
 72
    10
 73
     6
 74
     0
 42
0.000000001
 43
0.00000001
 40
0.0
 40
0.0
 40
0.0
 40
0.0
 40
0.5
 40
0.5
 40
1.0
 40
1.0
 40
1.0
 40
1.0
 10
16.43205080756888
 20
1.002889084354003
 30
0.0
 10
16.5090766429056
 20
0.9644628047261214
 30
0.0
 10
16.57964564713501
 20
0.9062450349613727
 30
0.0
 10
16.69160625531185
 20
0.7813904287617
 30
0.0
 10
16.73205080756887
 20
0.7144658393906802
 30
0.0
 10
16.73205080756887
 20
0.6727054771904726
 30
0.0
1001
PE_URL
1000

  0
LINE
  5
1E5
330
1F
100
AcDbEntity
  8
0
  6
Continuous
 62
     1
370
    15
100
AcDbLine
 10
16.73205080756887
 20
0.2002766948644528
 30
0.0
 11
16.73205080756887
 21
0.672705477190469
 31
0.0
1001
PE_URL
1000

  0
SPLINE
  5
1E6
330
1F
100
AcDbEntity
  8
0
  6
Continuous
 62
     1
370
    15
100
AcDbSpline
210
0.0
220
0.0
230
1.0
 70
     8
 71
     3
 72
    11
 73
     7
 74
     0
 42
0.000000001
 43
0.00000001
 40
0.0
 40
0.0
 40
0.0
 40
0.0
 40
0.3285098501607802
 40
0.6568228276270885
 40
0.9851721976753427
 40
1.0
 40
1.0
 40
1.0
 40
1.0
 10
6.732050807568868
 20
-1.965450037744137
 30
0.0
 10
7.033704775773685
 20
-1.984826771102259
 30
0.0
 10
7.636831933952436
 20
-2.023568625534413
 30
0.0
 10
8.541313683645171
 20
-1.89729692543694
 30
0.0
 10
9.157775825921732
 20
-1.76039165569264
 30
0.0
 10
9.472911241332156
 20
-1.638480497080653
 30
0.0
 10
9.486527431514304
 20
-1.633213029700556
 30
0.0
1001
PE_URL
1000

  0
SPLINE
  5
1E7
330
1F
100
AcDbEntity
  8
외형선
  6
Continuous
370
    15
100
AcDbSpline
210
0.0
220
0.0
230
1.0
 70
    24
 71
     3
 72
    17
 73
    13
 74
     0
 42
0.000000001
 43
0.00000001
 40
0.0
 40
0.0
 40
0.0
 40
0.0
 40
0.033709753055567
 40
0.1381911620100619
 40
0.2457025389020087
 40
0.3501839478561961
 40
0.4576953247481184
 40
0.5621767337026202
 40
0.6696881105948861
 40
0.7741695195490608
 40
0.881680896441322
 40
1.0
 40
1.0
 40
1.0
 40
1.0
 10
6.732050807568839
 20
-0.3349393330102295
 30
0.0
 10
6.732050807568868
 20
-0.3436341162541794
 30
0.0
 10
6.732050807568868
 20
-0.3792778718737004
 30
0.0
 10
6.732050807568839
 20
-0.4734658416596851
 30
0.0
 10
6.732050807568896
 20
-0.6128434314191225
 30
0.0
 10
6.732050807568868
 20
-0.7782789554820333
 30
0.0
 10
6.732050807568925
 20
-0.9592860518485935
 30
0.0
 10
6.732050807568925
 20
-1.15473108661218
 30
0.0
 10
6.732050807568868
 20
-1.355468286915055
 30
0.0
 10
6.732050807568925
 20
-1.55908178490284
 30
0.0
 10
6.73205080756901
 20
-1.766305978477341
 30
0.0
 10
6.732050807568925
 20
-1.896984034394777
 30
0.0
 10
6.732050807568868
 20
-1.965450037744137
 30
0.0
  0
SPLINE
  5
1E8
330
1F
100
AcDbEntity
  8
0
  6
Continuous
 62
     1
370
    15
100
AcDbSpline
210
0.0
220
0.0
230
1.0
 70
     8
 71
     3
 72
    12
 73
     8
 74
     0
 42
0.000000001
 43
0.00000001
 40
0.0
 40
0.0
 40
0.0
 40
0.0
 40
0.057627529072842
 40
0.2928670227774281
 40
0.5283317788271147
 40
0.7643225597101984
 40
1.0
 40
1.0
 40
1.0
 40
1.0
 10
12.80817983661098
 20
1.989880345757452
 30
0.0
 10
12.87778111152096
 20
1.99325470091626
 30
0.0
 10
13.23149952513955
 20
2.010403403368958
 30
0.0
 10
13.8694551698151
 20
1.921183647051087
 30
0.0
 10
14.72294642600238
 20
1.720795543719866
 30
0.0
 10
15.57762168193082
 20
1.411711912711418
 30
0.0
 10
16.14736726427395
 20
1.139102993576881
 30
0.0
 10
16.43205080756874
 20
1.002889084354774
 30
0.0
1001
PE_URL
1000

  0
LINE
  5
1E9
330
1F
100
AcDbEntity
  8
0
  6
Continuous
 62
     1
370
    15
100
AcDbLine
 10
16.73205080756887
 20
0.672705477190469
 30
0.0
 11
16.73205080756887
 21
1.689363605569916
 31
0.0
1001
PE_URL
1000

  0
SPLINE
  5
1EA
330
1F
100
AcDbEntity
  8
0
  6
Continuous
 62
     1
370
    15
100
AcDbSpline
210
0.0
220
0.0
230
1.0
 70
     8
 71
     3
 72
     9
 73
     5
 74
     0
 42
0.000000001
 43
0.00000001
 40
0.0
 40
0.0
 40
0.0
 40
0.0
 40
0.6005742611156177
 40
1.0
 40
1.0
 40
1.0
 40
1.0
 10
16.43205080756888
 20
2.001074928723892
 30
0.0
 10
16.13023364638715
 20
1.931773767245893
 30
0.0
 10
15.62768603367246
 20
1.86587492977025
 30
0.0
 10
15.12493195326462
 20
1.697526911934975
 30
0.0
 10
14.92411903322056
 20
1.630284380521399
 30
0.0
1001
PE_URL
1000

  0
LINE
  5
1EB
330
1F
100
AcDbEntity
  8
0
  6
Continuous
 62
     1
370
    15
100
AcDbLine
 10
16.73205080756887
 20
-1.687213748122126
 30
0.0
 11
16.73205080756887
 21
-1.560626837416642
 31
0.0
1001
PE_URL
1000

  0
LINE
  5
1EC
330
1F
100
AcDbEntity
  8
외형선
  6
Continuous
370
    15
100
AcDbLine
 10
-82.66794919243111
 20
0.0010749287238916
 30
0.0
 11
-82.66794919243111
 21
2.001074928723895
 31
0.0
  0
LINE
  5
1ED
330
1F
100
AcDbEntity
  8
외형선
  6
Continuous
370
    15
100
AcDbLine
 10
-82.66794919243111
 20
-1.998925071276108
 30
0.0
 11
-82.66794919243111
 21
0.0010749287238916
 31
0.0
  0
SPLINE
  5
1EE
330
1F
100
AcDbEntity
  8
외형선
  6
Continuous
370
    15
100
AcDbSpline
210
0.0
220
0.0
230
1.0
 70
    24
 71
     3
 72
    11
 73
     7
 74
     0
 42
0.000000001
 43
0.00000001
 40
0.0
 40
0.0
 40
0.0
 40
0.0
 40
0.2772150325308019
 40
0.554430065061604
 40
0.8316450975924059
 40
1.0
 40
1.0
 40
1.0
 40
1.0
 10
5.732050807568896
 20
0.9100595350959182
 30
0.0
 10
5.732050807568896
 20
1.08322026560506
 30
0.0
 10
5.732050807568868
 20
1.429541726623345
 30
0.0
 10
5.732050807568896
 20
1.787621820046759
 30
0.0
 10
5.732050807568868
 20
1.986647413552571
 30
0.0
 10
5.732050807568896
 20
1.981084910515207
 30
0.0
 10
5.732050807568896
 20
1.978983164902306
 30
0.0
  0
LINE
  5
1EF
330
1F
100
AcDbEntity
  8
외형선
  6
Continuous
370
    15
100
AcDbLine
 10
5.732050807568896
 20
0.240055463180969
 30
0.0
 11
5.732050807568896
 21
0.9100595350959182
 31
0.0
  0
SPLINE
  5
1F0
330
1F
100
AcDbEntity
  8
외형선
  6
Continuous
370
    15
100
AcDbSpline
210
0.0
220
0.0
230
1.0
 70
    24
 71
     3
 72
    10
 73
     6
 74
     0
 42
0.000000001
 43
0.00000001
 40
0.0
 40
0.0
 40
0.0
 40
0.0
 40
0.5000000000000001
 40
0.5000000000000001
 40
1.0
 40
1.0
 40
1.0
 40
1.0
 10
5.732050807568896
 20
-1.780426400318181
 30
0.0
 10
5.732050807568896
 20
-1.595785778868429
 30
0.0
 10
5.732050807568896
 20
-1.298015076595696
 30
0.0
 10
5.732050807568896
 20
-0.5809579861821277
 30
0.0
 10
5.732050807568868
 20
-0.1632907295084038
 30
0.0
 10
5.732050807568896
 20
0.240055463180969
 30
0.0
  0
LINE
  5
1F1
330
1F
100
AcDbEntity
  8
외형선
  6
Continuous
370
    15
100
AcDbLine
 10
5.732050807568896
 20
-1.984595075626906
 30
0.0
 11
5.732050807568896
 21
-1.780426400318181
 31
0.0
  0
LINE
  5
1F2
330
1F
100
AcDbEntity
  8
외형선
  6
Continuous
370
    15
100
AcDbLine
 10
5.732050807568896
 20
-1.976833071529352
 30
0.0
 11
5.732050807568896
 21
-1.984595075626906
 31
0.0
  0
SPLINE
  5
1F4
330
1F
100
AcDbEntity
  8
외형선
  6
Continuous
370
    15
100
AcDbSpline
210
0.0
220
0.0
230
1.0
 70
    24
 71
     3
 72
    12
 73
     8
 74
     0
 42
0.000000001
 43
0.00000001
 40
0.0
 40
0.0
 40
0.0
 40
0.0
 40
0.1963573540295623
 40
0.4069720833322974
 40
0.6175868126352609
 40
0.8282015419381139
 40
1.0
 40
1.0
 40
1.0
 40
1.0
 10
6.732050807568896
 20
-1.965450037744141
 30
0.0
 10
6.732050807568868
 20
-1.849038891527695
 30
0.0
 10
6.732050807568868
 20
-1.607764064144991
 30
0.0
 10
6.732050807568896
 20
-1.202142997456573
 30
0.0
 10
6.732050807568839
 20
-0.8177342983132441
 30
0.0
 10
6.732050807568953
 20
-0.5056224247114933
 30
0.0
 10
6.732050807568925
 20
-0.3878488887972686
 30
0.0
 10
6.732050807568925
 20
-0.334939333010265
 30
0.0
  0
SPLINE
  5
1F5
330
1F
100
AcDbEntity
  8
외형선
  6
Continuous
370
    15
100
AcDbSpline
210
0.0
220
0.0
230
1.0
 70
     8
 71
     3
 72
    10
 73
     6
 74
     0
 42
0.000000001
 43
0.00000001
 40
0.0
 40
0.0
 40
0.0
 40
0.0
 40
0.5
 40
0.5
 40
1.0
 40
1.0
 40
1.0
 40
1.0
 10
6.732050807568925
 20
-1.965450037744141
 30
0.0
 10
6.565612168641081
 20
-1.947931015700753
 30
0.0
 10
6.397407388446567
 20
-1.923496330712158
 30
0.0
 10
6.062699329586565
 20
-1.86148313770871
 30
0.0
 10
5.897921942865338
 20
-1.824066685613822
 30
0.0
 10
5.732188269918936
 20
-1.780426400318184
 30
0.0
  0
SPLINE
  5
1F6
330
1F
100
AcDbEntity
  8
외형선
  6
Continuous
370
    15
100
AcDbSpline
210
0.0
220
0.0
230
1.0
 70
     8
 71
     3
 72
    10
 73
     6
 74
     0
 42
0.000000001
 43
0.00000001
 40
0.0
 40
0.0
 40
0.0
 40
0.0
 40
0.5
 40
0.5
 40
1.0
 40
1.0
 40
1.0
 40
1.0
 10
6.732050807568896
 20
-0.3349393330102579
 30
0.0
 10
6.565612168641053
 20
-0.2401505827385009
 30
0.0
 10
6.397407388446567
 20
-0.1438570841128595
 30
0.0
 10
6.062699329586536
 20
0.0487485814889368
 30
0.0
 10
5.897921942865281
 20
0.144723554180306
 30
0.0
 10
5.732188269918936
 20
0.240055463180969
 30
0.0
  0
SPLINE
  5
1F7
330
1F
100
AcDbEntity
  8
외형선
  6
Continuous
370
    15
100
AcDbSpline
210
0.0
220
0.0
230
1.0
 70
     8
 71
     3
 72
    10
 73
     6
 74
     0
 42
0.000000001
 43
0.00000001
 40
0.0
 40
0.0
 40
0.0
 40
0.0
 40
0.5
 40
0.5
 40
1.0
 40
1.0
 40
1.0
 40
1.0
 10
6.732050807568925
 20
0.3654642209072492
 30
0.0
 10
6.565612168641081
 20
0.4600103422545523
 30
0.0
 10
6.397407388446567
 20
0.5536192157481139
 30
0.0
 10
6.062699329586565
 20
0.7360287850558436
 30
0.0
 10
5.897921942865338
 20
0.8245297849670834
 30
0.0
 10
5.732188269918936
 20
0.9100595350959182
 30
0.0
  0
SPLINE
  5
1F8
330
1F
100
AcDbEntity
  8
외형선
  6
Continuous
370
    15
100
AcDbSpline
210
0.0
220
0.0
230
1.0
 70
     8
 71
     3
 72
    10
 73
     6
 74
     0
 42
0.000000001
 43
0.00000001
 40
0.0
 40
0.0
 40
0.0
 40
0.0
 40
0.5
 40
0.5
 40
1.0
 40
1.0
 40
1.0
 40
1.0
 10
6.732050807568896
 20
1.972646488650454
 30
0.0
 10
6.565612168641053
 20
1.988801302703695
 30
0.0
 10
6.397407388446567
 20
1.998141385661537
 30
0.0
 10
6.062699329586536
 20
2.0028258984008
 30
0.0
 10
5.897921942865281
 20
1.998219111065843
 30
0.0
 10
5.732188269918936
 20
1.986745672868206
 30
0.0
  0
SPLINE
  5
1F9
330
1F
100
AcDbEntity
  8
외형선
  6
Continuous
370
    15
100
AcDbSpline
210
0.0
220
0.0
230
1.0
 70
    24
 71
     3
 72
    13
 73
     9
 74
     0
 42
0.000000001
 43
0.00000001
 40
0.0
 40
0.0
 40
0.0
 40
0.0
 40
0.0123860157436919
 40
0.2282174652140221
 40
0.4440489146843412
 40
0.6598803641546568
 40
0.8757118136249988
 40
0.9999999999999999
 40
0.9999999999999999
 40
0.9999999999999999
 40
0.9999999999999999
 10
6.732050807568868
 20
0.3654642209072421
 30
0.0
 10
6.732050807568868
 20
0.3679217161891835
 30
0.0
 10
6.732050807568726
 20
0.4132020836314361
 30
0.0
 10
6.73205080756901
 20
0.6165627612172493
 30
0.0
 10
6.732050807568896
 20
0.9527611038267452
 30
0.0
 10
6.732050807568896
 20
1.355108193237854
 30
0.0
 10
6.732050807568925
 20
1.707464075395404
 30
0.0
 10
6.732050807568896
 20
1.90167644976432
 30
0.0
 10
6.732050807568868
 20
1.972646488650494
 30
0.0
  0
LINE
  5
1FA
330
1F
100
AcDbEntity
  8
외형선
  6
Continuous
370
    15
100
AcDbLine
 10
6.145769871548424
 20
-1.998090704226307
 30
0.0
 11
5.732188269918936
 21
-1.984595815420413
 31
0.0
  0
LINE
  5
1FB
330
1F
100
AcDbEntity
  8
중심선
100
AcDbLine
 10
-85.71364474484481
 20
0.0010749287238934
 30
0.0
 11
19.73205080756887
 21
0.0010749287238916
 31
0.0
  0
CIRCLE
  5
1FC
330
1F
100
AcDbEntity
  8
해칭선
100
AcDbCircle
 10
0.0
 20
0.0
 30
0.0
 40
3.000000000000003
  0
DIMENSION
  5
1FD
330
1F
100
AcDbEntity
  8
치수문자_일반주서
100
AcDbDimension
  2
*D13
 10
26.73205080756889
 20
-1.998925071276071
 30
0.0
 11
26.73205080756884
 21
11.66757492872394
 31
0.0
 70
   160
  1
%%c<>
 71
     2
 42
4.0
 52
-270.0
  3
SLDDIMSTYLE0
100
AcDbAlignedDimension
 13
16.73205080756887
 23
2.001074928723892
 33
0.0
 14
16.73205080756887
 24
-1.998925071276108
 34
0.0
 50
90.0000000000002
100
AcDbRotatedDimension
  0
DIMENSION
  5
1FE
102
{ACAD_XDICTIONARY
360
1FF
102
}
330
1F
100
AcDbEntity
  8
치수문자_일반주서
100
AcDbDimension
  2
*D14
 10
-93.26794919243109
 20
-1.998925071276149
 30
0.0
 11
-93.26794919243115
 21
12.66757492872386
 31
0.0
 70
   160
  1
%%c<>
 71
     2
 42
4.000000000000004
 52
-270.0
  3
SLDDIMSTYLE0
100
AcDbAlignedDimension
 13
-82.66794919243111
 23
2.001074928723895
 33
0.0
 14
-82.66794919243111
 24
-1.998925071276108
 34
0.0
 50
90.0000000000002
100
AcDbRotatedDimension
1001
ENABLE_CUSTOM_SPLIT
1070
     1
  0
DIMENSION
  5
201
330
1F
100
AcDbEntity
  8
치수문자_일반주서
100
AcDbDimension
  2
*D15
 10
6.732050807568896
 20
13.00107492872391
 30
0.0
 11
11.73205080756898
 21
13.00107492872391
 31
0.0
 70
   160
  1
<>
 71
     2
 42
9.999999999999972
  3
SLDDIMSTYLE0
100
AcDbAlignedDimension
 13
16.73205080756887
 23
2.001074928723892
 33
0.0
 14
6.732050807568896
 24
1.972646488653702
 34
0.0
 50
-0.0000000000002036
100
AcDbRotatedDimension
  0
DIMENSION
  5
202
102
{ACAD_XDICTIONARY
360
24C
102
}
330
1F
100
AcDbEntity
  8
치수문자_일반주서
100
AcDbDimension
  2
*D16
 10
-83.2679491924311
 20
23.00107492872391
 30
0.0
 11
-33.26794919243113
 21
23.00107492872391
 31
0.0
 70
   160
  1
<>
 71
     2
 42
99.99999999999997
  3
SLDDIMSTYLE1
100
AcDbAlignedDimension
 13
16.73205080756887
 23
2.001074928723892
 33
0.0
 14
-83.2679491924311
 24
1.401074928723901
 34
0.0
 50
0.0000000000000058
100
AcDbRotatedDimension
1001
ENABLE_CUSTOM_SPLIT
1070
     1
  0
INSERT
  5
203
330
1F
100
AcDbEntity
  8
해칭선
100
AcDbBlockReference
  2
SW_DOWELSYMBOL_0
 10
0.0
 20
0.0
 30
0.0
  0
ARC
  5
204
330
1F
100
AcDbEntity
  8
0
  6
Continuous
 62
     1
370
    15
100
AcDbCircle
 10
16.43205080756888
 20
1.701074928723894
 30
0.0
 40
0.3000000000000001
100
AcDbArc
 50
359.9999999999993
 51
90.0
1001
PE_URL
1000

  0
ARC
  5
205
330
1F
100
AcDbEntity
  8
0
  6
Continuous
 62
     1
370
    15
100
AcDbCircle
 10
16.43205080756888
 20
-1.698925071276108
 30
0.0
 40
0.3000000000000001
100
AcDbArc
 50
270.0
 51
0.0
1001
PE_URL
1000

  0
DIMENSION
  5
206
330
1F
100
AcDbEntity
  8
치수문자_일반주서
100
AcDbDimension
  2
*D17
 10
16.43205080756888
 20
-1.698925071276108
 30
0.0
 11
26.12789782481414
 21
-15.17981984432963
 31
0.0
 70
   164
 71
     5
 42
0.2999999999999999
  3
SLDDIMSTYLE1
100
AcDbRadialDimension
 15
16.60721849427546
 25
-1.942474412342488
 35
0.0
 40
0.0
1001
ACAD
1000
DSTYLE
1002
{
1070
    78
1070
     8
1002
}
1001
ACAD_DSTYLE_DIMRADIAL_EXTENSION
1070
   387
1070
     1
1070
   388
1040
4.71238898038469
1070
   390
1040
0.0000000000000007
1001
PE_URL
1000

  0
LINE
  5
207
330
1F
100
AcDbEntity
  8
외형선
  6
Continuous
370
    15
100
AcDbLine
 10
5.732050807568868
 20
2.001074928723899
 30
0.0
 11
-82.66794919243111
 21
2.001074928723895
 31
0.0
  0
LINE
  5
208
330
1F
100
AcDbEntity
  8
외형선
  6
Continuous
370
    15
100
AcDbLine
 10
-82.66794919243111
 20
-1.998925071276105
 30
0.0
 11
5.732050807568868
 21
-1.998925071276105
 31
0.0
  0
LINE
  5
209
330
1F
100
AcDbEntity
  8
외형선
  6
Continuous
370
    15
100
AcDbLine
 10
-82.66794919243111
 20
-1.998925071276112
 30
0.0
 11
-83.2679491924311
 21
-1.398925071276118
 31
0.0
  0
LINE
  5
20A
330
1F
100
AcDbEntity
  8
외형선
  6
Continuous
370
    15
100
AcDbLine
 10
-83.2679491924311
 20
0.0010749287238916
 30
0.0
 11
-83.2679491924311
 21
-1.398925071276114
 31
0.0
  0
LINE
  5
24B
330
1F
100
AcDbEntity
  8
외형선
  6
Continuous
370
    15
100
AcDbLine
 10
-83.2679491924311
 20
0.0010749287238951
 30
0.0
 11
-83.2679491924311
 21
1.401074928723901
 31
0.0
  0
ENDSEC
  0
SECTION
  2
OBJECTS
  0
DICTIONARY
  5
C
330
0
100
AcDbDictionary
281
     1
  3
ACAD_GROUP
350
D
  3
ACAD_LAYOUT
350
1A
  3
ACAD_MLINESTYLE
350
17
  3
ACAD_PLOTSETTINGS
350
19
  3
ACAD_PLOTSTYLENAME
350
E
  3
ACAD_SCALELIST
350
47
  3
APPDATA
350
132
  3
DWGPROPS
350
251
  0
DICTIONARY
  5
1CB
330
2
100
AcDbDictionary
280
     1
281
     1
  3
ACAD_LAYERSTATES
360
1CC
  0
DICTIONARY
  5
24F
330
1F
100
AcDbDictionary
280
     1
281
     1
  3
DIM_BOUNDING_BOXES_V1
360
250
  0
DICTIONARY
  5
1FF
330
1FE
100
AcDbDictionary
280
     1
281
     1
  3
ACAD_CUSTOM_BREAKDATA
360
200
  0
DICTIONARY
  5
24C
330
202
100
AcDbDictionary
280
     1
281
     1
  3
ACAD_CUSTOM_BREAKDATA
360
24E
  0
DICTIONARY
  5
D
102
{ACAD_REACTORS
330
C
102
}
330
C
100
AcDbDictionary
281
     1
  0
DICTIONARY
  5
1A
102
{ACAD_REACTORS
330
C
102
}
330
C
100
AcDbDictionary
281
     1
  3
Layout1
350
1E
  3
Layout2
350
26
  3
Model
350
22
  0
DICTIONARY
  5
17
102
{ACAD_REACTORS
330
C
102
}
330
C
100
AcDbDictionary
281
     1
  3
Standard
350
18
  0
DICTIONARY
  5
19
102
{ACAD_REACTORS
330
C
102
}
330
C
100
AcDbDictionary
281
     1
  0
ACDBDICTIONARYWDFLT
  5
E
102
{ACAD_REACTORS
330
C
102
}
330
C
100
AcDbDictionary
281
     1
  3
Normal
350
F
100
AcDbDictionaryWithDefault
340
F
  0
DICTIONARY
  5
47
102
{ACAD_REACTORS
330
C
102
}
330
C
100
AcDbDictionary
281
     1
  3
A0
350
48
  3
A1
350
49
  3
A2
350
4A
  3
A3
350
4B
  3
A4
350
4C
  3
A5
350
4D
  3
A6
350
4E
  3
A7
350
4F
  3
A8
350
50
  3
A9
350
51
  3
B0
350
52
  3
B1
350
53
  3
B2
350
54
  3
B3
350
55
  3
B4
350
56
  3
B5
350
57
  3
B6
350
58
  3
B7
350
59
  3
B8
350
5A
  3
B9
350
5B
  3
C0
350
5C
  3
C1
350
5D
  3
C2
350
5E
  3
C3
350
5F
  3
C4
350
60
  3
C5
350
61
  3
C6
350
62
  3
C7
350
63
  3
C8
350
64
  3
C9
350
65
  3
D0
350
66
  3
D1
350
67
  3
D2
350
68
  0
DICTIONARY
  5
132
102
{ACAD_REACTORS
330
C
102
}
330
C
100
AcDbDictionary
281
     1
  0
XRECORD
  5
251
102
{ACAD_REACTORS
330
C
102
}
330
C
100
AcDbXrecord
280
     1
  1
DWGPROPS COOKIE
  2

  3

  4

  6

  7

  8
12016016
  9

300
=
301
=
302
=
303
=
304
=
305
=
306
=
307
=
308
=
309
=
 40
0.0
 41
2458269.430106516
 42
2459702.074986863
  1

 90
        0
  0
DICTIONARY
  5
1CC
102
{ACAD_REACTORS
330
1CB
102
}
330
1CB
100
AcDbDictionary
281
     1
  0
DICTIONARY
  5
250
102
{ACAD_REACTORS
330
24F
102
}
330
24F
100
AcDbDictionary
281
     1
  0
BREAKDATA
  5
200
102
{ACAD_REACTORS
330
1FF
102
}
330
1FF
100
AcDbBreakData
 70
     0
330
1FE
 90
        0
  0
BREAKDATA
  5
24E
102
{ACAD_REACTORS
330
24C
102
}
330
24C
100
AcDbBreakData
 70
     0
330
202
 90
        0
  0
LAYOUT
  5
1E
102
{ACAD_REACTORS
330
1A
102
}
330
1A
100
AcDbPlotSettings
  1

  2
none_device
  4

  6

 40
0.0
 41
0.0
 42
0.0
 43
0.0
 44
0.0
 45
0.0
 46
0.0
 47
0.0
 48
0.0
 49
0.0
140
0.0
141
0.0
142
1.0
143
1.0
 70
   688
 72
     1
 73
     0
 74
     5
  7

 75
    16
147
1.0
148
0.0
149
0.0
100
AcDbLayout
  1
Layout1
 70
     1
 71
     1
 10
0.0
 20
0.0
 11
420.0
 21
297.0
 12
0.0
 22
0.0
 32
0.0
 14
1.000000000000000E+20
 24
1.000000000000000E+20
 34
1.000000000000000E+20
 15
-1.000000000000000E+20
 25
-1.000000000000000E+20
 35
-1.000000000000000E+20
146
0.0
 13
0.0
 23
0.0
 33
0.0
 16
1.0
 26
0.0
 36
0.0
 17
0.0
 27
1.0
 37
0.0
 76
     0
330
1B
  0
LAYOUT
  5
26
102
{ACAD_REACTORS
330
1A
102
}
330
1A
100
AcDbPlotSettings
  1

  2
none_device
  4

  6

 40
0.0
 41
0.0
 42
0.0
 43
0.0
 44
0.0
 45
0.0
 46
0.0
 47
0.0
 48
0.0
 49
0.0
140
0.0
141
0.0
142
1.0
143
1.0
 70
   688
 72
     1
 73
     0
 74
     5
  7

 75
    16
147
1.0
148
0.0
149
0.0
100
AcDbLayout
  1
Layout2
 70
     1
 71
     2
 10
0.0
 20
0.0
 11
0.0
 21
0.0
 12
0.0
 22
0.0
 32
0.0
 14
0.0
 24
0.0
 34
0.0
 15
0.0
 25
0.0
 35
0.0
146
0.0
 13
0.0
 23
0.0
 33
0.0
 16
1.0
 26
0.0
 36
0.0
 17
0.0
 27
1.0
 37
0.0
 76
     0
330
23
  0
LAYOUT
  5
22
102
{ACAD_REACTORS
330
1A
102
}
330
1A
100
AcDbPlotSettings
  1

  2
none_device
  4
ANSI_A_(11.00_x_8.50_Inches)
  6

 40
6.35
 41
19.05
 42
6.35000508
 43
19.05000254
 44
279.4
 45
215.9
 46
111.9131708047861
 47
108.5786269342146
 48
0.0
 49
0.0
140
0.0
141
0.0
142
0.0788700689601438
143
1.0
 70
  1696
 72
     0
 73
     0
 74
     0
  7

 75
     0
147
0.0235690232323232
148
0.0
149
0.0
100
AcDbLayout
  1
Model
 70
     1
 71
     0
 10
0.0
 20
0.0
 11
420.0
 21
297.0
 12
0.0
 22
0.0
 32
0.0
 14
-97.64294919243115
 24
-49.97180738881174
 34
0.0
 15
79.73835494594202
 25
27.37607492872392
 35
0.0
146
0.0
 13
0.0
 23
0.0
 33
0.0
 16
1.0
 26
0.0
 36
0.0
 17
0.0
 27
1.0
 37
0.0
 76
     0
330
1F
331
29
  0
MLINESTYLE
  5
18
102
{ACAD_REACTORS
330
17
102
}
330
17
100
AcDbMlineStyle
  2
Standard
 70
     0
  3

 62
   256
 51
90.0
 52
90.0
 71
     2
 49
0.5
 62
   256
  6
BYLAYER
 49
-0.5
 62
   256
  6
BYLAYER
  0
ACDBPLACEHOLDER
  5
F
102
{ACAD_REACTORS
330
E
102
}
330
E
  0
SCALE
  5
48
102
{ACAD_REACTORS
330
47
102
}
330
47
100
AcDbScale
 70
     0
300
1:1
140
1.0
141
1.0
290
     1
  0
SCALE
  5
49
102
{ACAD_REACTORS
330
47
102
}
330
47
100
AcDbScale
 70
     0
300
1:2
140
1.0
141
2.0
290
     0
  0
SCALE
  5
4A
102
{ACAD_REACTORS
330
47
102
}
330
47
100
AcDbScale
 70
     0
300
1:4
140
1.0
141
4.0
290
     0
  0
SCALE
  5
4B
102
{ACAD_REACTORS
330
47
102
}
330
47
100
AcDbScale
 70
     0
300
1:5
140
1.0
141
5.0
290
     0
  0
SCALE
  5
4C
102
{ACAD_REACTORS
330
47
102
}
330
47
100
AcDbScale
 70
     0
300
1:8
140
1.0
141
8.0
290
     0
  0
SCALE
  5
4D
102
{ACAD_REACTORS
330
47
102
}
330
47
100
AcDbScale
 70
     0
300
1:10
140
1.0
141
10.0
290
     0
  0
SCALE
  5
4E
102
{ACAD_REACTORS
330
47
102
}
330
47
100
AcDbScale
 70
     0
300
1:16
140
1.0
141
16.0
290
     0
  0
SCALE
  5
4F
102
{ACAD_REACTORS
330
47
102
}
330
47
100
AcDbScale
 70
     0
300
1:20
140
1.0
141
20.0
290
     0
  0
SCALE
  5
50
102
{ACAD_REACTORS
330
47
102
}
330
47
100
AcDbScale
 70
     0
300
1:30
140
1.0
141
30.0
290
     0
  0
SCALE
  5
51
102
{ACAD_REACTORS
330
47
102
}
330
47
100
AcDbScale
 70
     0
300
1:40
140
1.0
141
40.0
290
     0
  0
SCALE
  5
52
102
{ACAD_REACTORS
330
47
102
}
330
47
100
AcDbScale
 70
     0
300
1:50
140
1.0
141
50.0
290
     0
  0
SCALE
  5
53
102
{ACAD_REACTORS
330
47
102
}
330
47
100
AcDbScale
 70
     0
300
1:100
140
1.0
141
100.0
290
     0
  0
SCALE
  5
54
102
{ACAD_REACTORS
330
47
102
}
330
47
100
AcDbScale
 70
     0
300
2:1
140
2.0
141
1.0
290
     0
  0
SCALE
  5
55
102
{ACAD_REACTORS
330
47
102
}
330
47
100
AcDbScale
 70
     0
300
4:1
140
4.0
141
1.0
290
     0
  0
SCALE
  5
56
102
{ACAD_REACTORS
330
47
102
}
330
47
100
AcDbScale
 70
     0
300
8:1
140
8.0
141
1.0
290
     0
  0
SCALE
  5
57
102
{ACAD_REACTORS
330
47
102
}
330
47
100
AcDbScale
 70
     0
300
10:1
140
10.0
141
1.0
290
     0
  0
SCALE
  5
58
102
{ACAD_REACTORS
330
47
102
}
330
47
100
AcDbScale
 70
     0
300
100:1
140
100.0
141
1.0
290
     0
  0
SCALE
  5
59
102
{ACAD_REACTORS
330
47
102
}
330
47
100
AcDbScale
 70
     0
300
1/128" = 1'-0"
140
0.0078125
141
12.0
290
     0
  0
SCALE
  5
5A
102
{ACAD_REACTORS
330
47
102
}
330
47
100
AcDbScale
 70
     0
300
1/64" = 1'-0"
140
0.015625
141
12.0
290
     0
  0
SCALE
  5
5B
102
{ACAD_REACTORS
330
47
102
}
330
47
100
AcDbScale
 70
     0
300
1/32" = 1'-0"
140
0.03125
141
12.0
290
     0
  0
SCALE
  5
5C
102
{ACAD_REACTORS
330
47
102
}
330
47
100
AcDbScale
 70
     0
300
1/16" = 1'-0"
140
0.0625
141
12.0
290
     0
  0
SCALE
  5
5D
102
{ACAD_REACTORS
330
47
102
}
330
47
100
AcDbScale
 70
     0
300
3/32" = 1'-0"
140
0.09375
141
12.0
290
     0
  0
SCALE
  5
5E
102
{ACAD_REACTORS
330
47
102
}
330
47
100
AcDbScale
 70
     0
300
1/8" = 1'-0"
140
0.125
141
12.0
290
     0
  0
SCALE
  5
5F
102
{ACAD_REACTORS
330
47
102
}
330
47
100
AcDbScale
 70
     0
300
3/16" = 1'-0"
140
0.1875
141
12.0
290
     0
  0
SCALE
  5
60
102
{ACAD_REACTORS
330
47
102
}
330
47
100
AcDbScale
 70
     0
300
1/4" = 1'-0"
140
0.25
141
12.0
290
     0
  0
SCALE
  5
61
102
{ACAD_REACTORS
330
47
102
}
330
47
100
AcDbScale
 70
     0
300
3/8" = 1'-0"
140
0.375
141
12.0
290
     0
  0
SCALE
  5
62
102
{ACAD_REACTORS
330
47
102
}
330
47
100
AcDbScale
 70
     0
300
1/2" = 1'-0"
140
0.5
141
12.0
290
     0
  0
SCALE
  5
63
102
{ACAD_REACTORS
330
47
102
}
330
47
100
AcDbScale
 70
     0
300
3/4" = 1'-0"
140
0.75
141
12.0
290
     0
  0
SCALE
  5
64
102
{ACAD_REACTORS
330
47
102
}
330
47
100
AcDbScale
 70
     0
300
1" = 1'-0"
140
1.0
141
12.0
290
     0
  0
SCALE
  5
65
102
{ACAD_REACTORS
330
47
102
}
330
47
100
AcDbScale
 70
     0
300
1-1/2" = 1'-0"
140
1.5
141
12.0
290
     0
  0
SCALE
  5
66
102
{ACAD_REACTORS
330
47
102
}
330
47
100
AcDbScale
 70
     0
300
3" = 1'-0"
140
3.0
141
12.0
290
     0
  0
SCALE
  5
67
102
{ACAD_REACTORS
330
47
102
}
330
47
100
AcDbScale
 70
     0
300
6" = 1'-0"
140
6.0
141
12.0
290
     0
  0
SCALE
  5
68
102
{ACAD_REACTORS
330
47
102
}
330
47
100
AcDbScale
 70
     0
300
1'-0" = 1'-0"
140
12.0
141
12.0
290
     0
  0
ENDSEC
  0
EOF
