  0
SECTION
  2
HEADER
  9
$ACADVER
  1
AC1015
  9
$ACADMAINTVER
 70
     6
  9
$DWGCODEPAGE
  3
ANSI_949
  9
$INSBASE
 10
0.0
 20
0.0
 30
0.0
  9
$EXTMIN
 10
-97.64294919243113
 20
-49.97180738881174
 30
0.0
  9
$EXTMAX
 10
79.73835494594202
 20
27.3760749287239
 30
0.0
  9
$LIMMIN
 10
0.0
 20
0.0
  9
$LIMMAX
 10
420.0
 20
297.0
  9
$ORTHOMODE
 70
     1
  9
$REGENMODE
 70
     1
  9
$FILLMODE
 70
     1
  9
$QTEXTMODE
 70
     0
  9
$MIRRTEXT
 70
     1
  9
$LTSCALE
 40
1.0
  9
$ATTMODE
 70
     1
  9
$TEXTSIZE
 40
3.5
  9
$TRACEWID
 40
1.0
  9
$TEXTSTYLE
  7
Standard
  9
$CLAYER
  8
0
  9
$CELTYPE
  6
ByLayer
  9
$CECOLOR
 62
   256
  9
$CELTSCALE
 40
1.0
  9
$DISPSILH
 70
     0
  9
$DIMSCALE
 40
1.0
  9
$DIMASZ
 40
3.302
  9
$DIMEXO
 40
1.0
  9
$DIMDLI
 40
3.75
  9
$DIMRND
 40
0.0
  9
$DIMDLE
 40
0.0
  9
$DIMEXE
 40
1.0
  9
$DIMTP
 40
0.0
  9
$DIMTM
 40
0.0
  9
$DIMTXT
 40
3.5
  9
$DIMCEN
 40
2.5
  9
$DIMTSZ
 40
0.0
  9
$DIMTOL
 70
     0
  9
$DIMLIM
 70
     0
  9
$DIMTIH
 70
     1
  9
$DIMTOH
 70
     1
  9
$DIMSE1
 70
     0
  9
$DIMSE2
 70
     0
  9
$DIMTAD
 70
     1
  9
$DIMZIN
 70
     0
  9
$DIMBLK
  1

  9
$DIMASO
 70
     1
  9
$DIMSHO
 70
     1
  9
$DIMPOST
  1

  9
$DIMAPOST
  1

  9
$DIMALT
 70
     0
  9
$DIMALTD
 70
     3
  9
$DIMALTF
 40
0.0393700787401575
  9
$DIMLFAC
 40
1.0
  9
$DIMTOFL
 70
     1
  9
$DIMTVP
 40
0.0
  9
$DIMTIX
 70
     0
  9
$DIMSOXD
 70
     0
  9
$DIMSAH
 70
     0
  9
$DIMBLK1
  1

  9
$DIMBLK2
  1

  9
$DIMSTYLE
  2
ISO-25
  9
$DIMCLRD
 70
     0
  9
$DIMCLRE
 70
     0
  9
$DIMCLRT
 70
     0
  9
$DIMTFAC
 40
1.0
  9
$DIMGAP
 40
1.524
  9
$DIMJUST
 70
     0
  9
$DIMSD1
 70
     0
  9
$DIMSD2
 70
     0
  9
$DIMTOLJ
 70
     0
  9
$DIMTZIN
 70
     0
  9
$DIMALTZ
 70
     0
  9
$DIMALTTZ
 70
     0
  9
$DIMUPT
 70
     0
  9
$DIMDEC
 70
     2
  9
$DIMTDEC
 70
     2
  9
$DIMALTU
 70
     2
  9
$DIMALTTD
 70
     3
  9
$DIMTXSTY
  7
Standard
  9
$DIMAUNIT
 70
     0
  9
$DIMADEC
 70
     2
  9
$DIMALTRND
 40
0.0
  9
$DIMAZIN
 70
     0
  9
$DIMDSEP
 70
    44
  9
$DIMATFIT
 70
     3
  9
$DIMFRAC
 70
     0
  9
$DIMLDRBLK
  1

  9
$DIMLUNIT
 70
     2
  9
$DIMLWD
 70
    -2
  9
$DIMLWE
 70
    -2
  9
$DIMTMOVE
 70
     0
  9
$LUNITS
 70
     2
  9
$LUPREC
 70
     2
  9
$SKETCHINC
 40
1.0
  9
$FILLETRAD
 40
10.0
  9
$AUNITS
 70
     0
  9
$AUPREC
 70
     2
  9
$MENU
  1
.
  9
$ELEVATION
 40
0.0
  9
$PELEVATION
 40
0.0
  9
$THICKNESS
 40
0.0
  9
$LIMCHECK
 70
     0
  9
$CHAMFERA
 40
0.0
  9
$CHAMFERB
 40
0.0
  9
$CHAMFERC
 40
0.0
  9
$CHAMFERD
 40
0.0
  9
$SKPOLY
 70
     0
  9
$TDCREATE
 40
2458269.804539387
  9
$TDUCREATE
 40
2458269.429539387
  9
$TDUPDATE
 40
2459702.447272326
  9
$TDUUPDATE
 40
2459702.072272326
  9
$TDINDWG
 40
0.0007760764
  9
$TDUSRTIMER
 40
0.0032107639
  9
$USRTIMER
 70
     1
  9
$ANGBASE
 50
0.0
  9
$ANGDIR
 70
     0
  9
$PDMODE
 70
     0
  9
$PDSIZE
 40
-1.0
  9
$PLINEWID
 40
0.0
  9
$SPLFRAME
 70
     0
  9
$SPLINETYPE
 70
     6
  9
$SPLINESEGS
 70
     8
  9
$HANDSEED
  5
258
  9
$SURFTAB1
 70
     6
  9
$SURFTAB2
 70
     6
  9
$SURFTYPE
 70
     6
  9
$SURFU
 70
     6
  9
$SURFV
 70
     6
  9
$UCSBASE
  2

  9
$UCSNAME
  2

  9
$UCSORG
 10
0.0
 20
0.0
 30
0.0
  9
$UCSXDIR
 10
1.0
 20
0.0
 30
0.0
  9
$UCSYDIR
 10
0.0
 20
1.0
 30
0.0
  9
$UCSORTHOREF
  2

  9
$UCSORTHOVIEW
 70
     0
  9
$UCSORGTOP
 10
0.0
 20
0.0
 30
0.0
  9
$UCSORGBOTTOM
 10
0.0
 20
0.0
 30
0.0
  9
$UCSORGLEFT
 10
0.0
 20
0.0
 30
0.0
  9
$UCSORGRIGHT
 10
0.0
 20
0.0
 30
0.0
  9
$UCSORGFRONT
 10
0.0
 20
0.0
 30
0.0
  9
$UCSORGBACK
 10
0.0
 20
0.0
 30
0.0
  9
$PUCSBASE
  2

  9
$PUCSNAME
  2

  9
$PUCSORG
 10
0.0
 20
0.0
 30
0.0
  9
$PUCSXDIR
 10
1.0
 20
0.0
 30
0.0
  9
$PUCSYDIR
 10
0.0
 20
1.0
 30
0.0
  9
$PUCSORTHOREF
  2

  9
$PUCSORTHOVIEW
 70
     0
  9
$PUCSORGTOP
 10
0.0
 20
0.0
 30
0.0
  9
$PUCSORGBOTTOM
 10
0.0
 20
0.0
 30
0.0
  9
$PUCSORGLEFT
 10
0.0
 20
0.0
 30
0.0
  9
$PUCSORGRIGHT
 10
0.0
 20
0.0
 30
0.0
  9
$PUCSORGFRONT
 10
0.0
 20
0.0
 30
0.0
  9
$PUCSORGBACK
 10
0.0
 20
0.0
 30
0.0
  9
$USERI1
 70
     0
  9
$USERI2
 70
     0
  9
$USERI3
 70
     0
  9
$USERI4
 70
     0
  9
$USERI5
 70
     0
  9
$USERR1
 40
0.0
  9
$USERR2
 40
0.0
  9
$USERR3
 40
0.0
  9
$USERR4
 40
0.0
  9
$USERR5
 40
0.0
  9
$WORLDVIEW
 70
     1
  9
$SHADEDGE
 70
     3
  9
$SHADEDIF
 70
    70
  9
$TILEMODE
 70
     1
  9
$MAXACTVP
 70
    64
  9
$PINSBASE
 10
0.0
 20
0.0
 30
0.0
  9
$PLIMCHECK
 70
     0
  9
$PEXTMIN
 10
1.000000000000000E+20
 20
1.000000000000000E+20
 30
1.000000000000000E+20
  9
$PEXTMAX
 10
-1.000000000000000E+20
 20
-1.000000000000000E+20
 30
-1.000000000000000E+20
  9
$PLIMMIN
 10
0.0
 20
0.0
  9
$PLIMMAX
 10
0.0
 20
0.0
  9
$UNITMODE
 70
     0
  9
$VISRETAIN
 70
     1
  9
$PLINEGEN
 70
     0
  9
$PSLTSCALE
 70
     1
  9
$TREEDEPTH
 70
  3020
  9
$CMLSTYLE
  2
Standard
  9
$CMLJUST
 70
     0
  9
$CMLSCALE
 40
20.0
  9
$PROXYGRAPHICS
 70
     1
  9
$MEASUREMENT
 70
     1
  9
$CELWEIGHT
370
    -1
  9
$ENDCAPS
280
     0
  9
$JOINSTYLE
280
     0
  9
$LWDISPLAY
290
     1
  9
$INSUNITS
 70
     4
  9
$HYPERLINKBASE
  1

  9
$STYLESHEET
  1

  9
$XEDIT
290
     1
  9
$CEPSNTYPE
380
     0
  9
$PSTYLEMODE
290
     1
  9
$FINGERPRINTGUID
  2
{09B5042E-637F-4450-A579-E94BCDE18063}
  9
$VERSIONGUID
  2
{FAEB1C32-E019-11D5-929B-00C0DF256EC4}
  9
$EXTNAMES
290
     1
  9
$PSVPSCALE
 40
0.0
  9
$OLESTARTUP
290
     0
  0
ENDSEC
  0
SECTION
  2
CLASSES
  0
CLASS
  1
ACDBDICTIONARYWDFLT
  2
AcDbDictionaryWithDefault
  3
ObjectDBX Classes
 90
        0
280
     0
281
     0
  0
CLASS
  1
VISUALSTYLE
  2
AcDbVisualStyle
  3
ObjectDBX Classes
 90
     4095
280
     0
281
     0
  0
CLASS
  1
MATERIAL
  2
AcDbMaterial
  3
ObjectDBX Classes
 90
     1153
280
     0
281
     0
  0
CLASS
  1
SCALE
  2
AcDbScale
  3
ObjectDBX Classes
 90
     1153
280
     0
281
     0
  0
CLASS
  1
SUN
  2
AcDbSun
  3
SCENEOE
 90
     1153
280
     0
281
     0
  0
CLASS
  1
ACDBPLACEHOLDER
  2
AcDbPlaceHolder
  3
ObjectDBX Classes
 90
        0
280
     0
281
     0
  0
CLASS
  1
LAYOUT
  2
AcDbLayout
  3
ObjectDBX Classes
 90
        0
280
     0
281
     0
  0
CLASS
  1
TABLESTYLE
  2
AcDbTableStyle
  3
ObjectDBX Classes
 90
     4095
280
     0
281
     0
  0
CLASS
  1
MLEADERSTYLE
  2
AcDbMLeaderStyle
  3
ACDB_MLEADERSTYLE_CLASS
 90
     4095
280
     0
281
     0
  0
CLASS
  1
BREAKDATA
  2
AcDbBreakData
  3
ObjectDBX Classes
 90
     1024
280
     0
281
     0
  0
CLASS
  1
DICTIONARYVAR
  2
AcDbDictionaryVar
  3
ObjectDBX Classes
 90
        0
280
     0
281
     0
  0
ENDSEC
  0
SECTION
  2
TABLES
  0
TABLE
  2
VPORT
  5
8
330
0
100
AcDbSymbolTable
 70
     1
  0
VPORT
  5
29
330
8
100
AcDbSymbolTableRecord
100
AcDbViewportTableRecord
  2
*Active
 70
     0
 10
0.0
 20
0.0
 11
1.0
 21
1.0
 12
-54.13889964467586
 22
-13.17322497611823
 13
0.0
 23
0.0
 14
10.0
 24
10.0
 15
10.0
 25
10.0
 16
0.0
 26
0.0
 36
1.0
 17
0.0
 27
0.0
 37
0.0
 40
143.6918886067121
 41
1.531481481481481
 42
50.0
 43
0.0
 44
0.0
 50
0.0
 51
0.0
 71
    16
 72
  2000
 73
     1
 74
     3
 75
     0
 76
     0
 77
     0
 78
     0
281
     0
 65
     1
110
0.0
120
0.0
130
0.0
111
1.0
121
0.0
131
0.0
112
0.0
122
1.0
132
0.0
 79
     0
146
0.0
  0
ENDTAB
  0
TABLE
  2
LTYPE
  5
5
330
0
100
AcDbSymbolTable
 70
     6
  0
LTYPE
  5
14
330
5
100
AcDbSymbolTableRecord
100
AcDbLinetypeTableRecord
  2
ByBlock
 70
     0
  3

 72
    65
 73
     0
 40
0.0
  0
LTYPE
  5
15
330
5
100
AcDbSymbolTableRecord
100
AcDbLinetypeTableRecord
  2
ByLayer
 70
     0
  3

 72
    65
 73
     0
 40
0.0
  0
LTYPE
  5
16
330
5
100
AcDbSymbolTableRecord
100
AcDbLinetypeTableRecord
  2
Continuous
 70
     0
  3
Solid line
 72
    65
 73
     0
 40
0.0
  0
LTYPE
  5
6A
330
5
100
AcDbSymbolTableRecord
100
AcDbLinetypeTableRecord
  2
HIDDEN
 70
     0
  3
Hidden __ __ __ __ __ __ __ __ __ __ __ __ __ __
 72
    65
 73
     2
 40
1.905
 49
1.27
 74
     0
 49
-0.635
 74
     0
  0
LTYPE
  5
6B
330
5
100
AcDbSymbolTableRecord
100
AcDbLinetypeTableRecord
  2
PHANTOM
 70
     0
  3
Phantom ______  __  __  ______  __  __  ______
 72
    65
 73
     6
 40
12.7
 49
6.35
 74
     0
 49
-1.27
 74
     0
 49
1.27
 74
     0
 49
-1.27
 74
     0
 49
1.27
 74
     0
 49
-1.27
 74
     0
  0
LTYPE
  5
6C
330
5
100
AcDbSymbolTableRecord
100
AcDbLinetypeTableRecord
  2
CENTER
 70
     0
  3
Center ____ _ ____ _ ____ _ ____ _ ____ _ ____
 72
    65
 73
     4
 40
10.16
 49
6.35
 74
     0
 49
-1.27
 74
     0
 49
1.27
 74
     0
 49
-1.27
 74
     0
  0
LTYPE
  5
6D
330
5
100
AcDbSymbolTableRecord
100
AcDbLinetypeTableRecord
  2
CENTERX2
 70
     0
  3
Center (2x) ________  __  ________  __  _____
 72
    65
 73
     4
 40
20.32
 49
12.7
 74
     0
 49
-2.54
 74
     0
 49
2.54
 74
     0
 49
-2.54
 74
     0
  0
LTYPE
  5
6E
330
5
100
AcDbSymbolTableRecord
100
AcDbLinetypeTableRecord
  2
DOT2
 70
     0
  3
Dot (.5x) ........................................
 72
    65
 73
     2
 40
0.635
 49
0.0
 74
     0
 49
-0.635
 74
     0
  0
ENDTAB
  0
TABLE
  2
LAYER
  5
2
102
{ACAD_XDICTIONARY
360
1C9
102
}
330
0
100
AcDbSymbolTable
 70
    18
  0
LAYER
  5
10
330
2
100
AcDbSymbolTableRecord
100
AcDbLayerTableRecord
  2
0
 70
     0
 62
     7
  6
Continuous
370
    -3
390
F
  0
LAYER
  5
6F
330
2
100
AcDbSymbolTableRecord
100
AcDbLayerTableRecord
  2
FORMAT
 70
     0
 62
     2
  6
Continuous
370
    -3
390
F
  0
LAYER
  5
70
330
2
100
AcDbSymbolTableRecord
100
AcDbLayerTableRecord
  2
외형선
 70
     0
 62
     4
  6
Continuous
370
    30
390
F
  0
LAYER
  5
71
330
2
100
AcDbSymbolTableRecord
100
AcDbLayerTableRecord
  2
숨은선
 70
     0
 62
     2
  6
HIDDEN
370
    15
390
F
  0
LAYER
  5
72
330
2
100
AcDbSymbolTableRecord
100
AcDbLayerTableRecord
  2
중심선
 70
     0
 62
     1
  6
CENTERX2
370
    -3
390
F
  0
LAYER
  5
73
330
2
100
AcDbSymbolTableRecord
100
AcDbLayerTableRecord
  2
파단선
 70
     0
 62
     4
  6
Continuous
370
    -3
390
F
  0
LAYER
  5
74
330
2
100
AcDbSymbolTableRecord
100
AcDbLayerTableRecord
  2
해칭선
 70
     0
 62
   100
  6
Continuous
370
    -3
390
F
  0
LAYER
  5
75
330
2
100
AcDbSymbolTableRecord
100
AcDbLayerTableRecord
  2
가는실선
 70
     0
 62
     4
  6
Continuous
370
    -3
390
F
  0
LAYER
  5
76
330
2
100
AcDbSymbolTableRecord
100
AcDbLayerTableRecord
  2
치수_보조선
 70
     0
 62
     4
  6
Continuous
370
    -3
390
F
  0
LAYER
  5
77
330
2
100
AcDbSymbolTableRecord
100
AcDbLayerTableRecord
  2
치수문자_일반주서
 70
     0
 62
     7
  6
Continuous
370
    15
390
F
  0
LAYER
  5
78
330
2
100
AcDbSymbolTableRecord
100
AcDbLayerTableRecord
  2
개별주서
 70
     0
 62
   100
  6
Continuous
370
    30
390
F
  0
LAYER
  5
79
330
2
100
AcDbSymbolTableRecord
100
AcDbLayerTableRecord
  2
중간선
 70
     0
 62
     2
  6
Continuous
370
    15
390
F
  0
LAYER
  5
7A
330
2
100
AcDbSymbolTableRecord
100
AcDbLayerTableRecord
  2
윤곽선
 70
     0
 62
     3
  6
Continuous
370
    40
390
F
  0
LAYER
  5
7B
330
2
100
AcDbSymbolTableRecord
100
AcDbLayerTableRecord
  2
중심마크
 70
     0
 62
   100
  6
Continuous
370
    30
390
F
  0
LAYER
  5
7C
330
2
100
AcDbSymbolTableRecord
100
AcDbLayerTableRecord
  2
가상선
 70
     0
 62
     4
  6
PHANTOM
370
    -3
390
F
  0
LAYER
  5
7D
330
2
100
AcDbSymbolTableRecord
100
AcDbLayerTableRecord
  2
특수지정선
 70
     0
 62
     5
  6
CENTERX2
370
    60
390
F
  0
LAYER
  5
7E
330
2
100
AcDbSymbolTableRecord
100
AcDbLayerTableRecord
  2
참조1
 70
     0
 62
    -4
  6
Continuous
370
    -3
390
F
  0
LAYER
  5
133
330
2
100
AcDbSymbolTableRecord
100
AcDbLayerTableRecord
  2
Defpoints
 70
     0
 62
     7
  6
Continuous
290
     0
370
    -3
390
F
  0
ENDTAB
  0
TABLE
  2
STYLE
  5
3
330
0
100
AcDbSymbolTable
 70
     2
  0
STYLE
  5
11
330
3
100
AcDbSymbolTableRecord
100
AcDbTextStyleTableRecord
  2
Standard
 70
     0
 40
0.0
 41
1.0
 50
0.0
 71
     0
 42
3.5
  3
txt
  4

  0
STYLE
  5
94
330
3
100
AcDbSymbolTableRecord
100
AcDbTextStyleTableRecord
  2
SLDTEXTSTYLE0
 70
     0
 40
0.0
 41
0.75
 50
0.0
 71
     0
 42
3.5
  3
TXT
  4

  0
ENDTAB
  0
TABLE
  2
VIEW
  5
6
330
0
100
AcDbSymbolTable
 70
     0
  0
ENDTAB
  0
TABLE
  2
UCS
  5
7
330
0
100
AcDbSymbolTable
 70
     0
  0
ENDTAB
  0
TABLE
  2
APPID
  5
9
330
0
100
AcDbSymbolTable
 70
     4
  0
APPID
  5
12
330
9
100
AcDbSymbolTableRecord
100
AcDbRegAppTableRecord
  2
ACAD
 70
     0
  0
APPID
  5
13F
330
9
100
AcDbSymbolTableRecord
100
AcDbRegAppTableRecord
  2
PE_URL
 70
     0
  0
APPID
  5
140
330
9
100
AcDbSymbolTableRecord
100
AcDbRegAppTableRecord
  2
ACAD_DSTYLE_DIMRADIAL_EXTENSION
 70
     0
  0
APPID
  5
141
330
9
100
AcDbSymbolTableRecord
100
AcDbRegAppTableRecord
  2
ENABLE_CUSTOM_SPLIT
 70
     0
  0
ENDTAB
  0
TABLE
  2
DIMSTYLE
  5
A
330
0
100
AcDbSymbolTable
 70
     3
100
AcDbDimStyleTable
  0
DIMSTYLE
105
27
330
A
100
AcDbSymbolTableRecord
100
AcDbDimStyleTableRecord
  2
ISO-25
 70
     0
 41
2.5
 42
0.625
 43
3.75
 44
1.25
 73
     0
 74
     0
 77
     1
 78
     8
140
2.5
141
2.5
143
0.03937007874016
147
0.625
171
     3
172
     1
178
     0
271
     2
272
     2
274
     3
278
    44
283
     0
284
     8
340
11
  0
DIMSTYLE
105
D1
102
{ACAD_REACTORS
330
175
330
185
330
1FA
330
1FB
102
}
330
A
100
AcDbSymbolTableRecord
100
AcDbDimStyleTableRecord
  2
SLDDIMSTYLE0
 70
     0
 41
3.302
 44
0.0
 45
0.000000001
 73
     0
 74
     0
 77
     1
 78
    12
 79
     3
140
3.5
147
0.875
172
     1
173
     1
178
     0
271
     2
272
     2
276
     2
284
    12
289
     0
340
94
  0
DIMSTYLE
105
F8
102
{ACAD_REACTORS
330
197
330
1A4
330
1BA
330
1FE
330
1FF
330
203
102
}
330
A
100
AcDbSymbolTableRecord
100
AcDbDimStyleTableRecord
  2
SLDDIMSTYLE1
 70
     0
 41
3.302
 44
0.0
 45
0.000000001
 73
     0
 74
     0
 77
     1
 78
    12
 79
     3
140
3.5
147
0.875
173
     1
178
     0
271
     2
272
     2
276
     2
284
    12
340
94
  0
ENDTAB
  0
TABLE
  2
BLOCK_RECORD
  5
1
330
0
100
AcDbSymbolTable
 70
    17
  0
BLOCK_RECORD
  5
1F
102
{ACAD_XDICTIONARY
360
255
102
}
330
1
100
AcDbSymbolTableRecord
100
AcDbBlockTableRecord
  2
*Model_Space
340
22
  0
BLOCK_RECORD
  5
1B
330
1
100
AcDbSymbolTableRecord
100
AcDbBlockTableRecord
  2
*Paper_Space
340
1E
  0
BLOCK_RECORD
  5
23
330
1
100
AcDbSymbolTableRecord
100
AcDbBlockTableRecord
  2
*Paper_Space0
340
26
  0
BLOCK_RECORD
  5
7F
330
1
100
AcDbSymbolTableRecord
100
AcDbBlockTableRecord
  2
블럭10
340
0
102
{BLKREFS
331
C9
102
}
  0
BLOCK_RECORD
  5
D2
330
1
100
AcDbSymbolTableRecord
100
AcDbBlockTableRecord
  2
_D
340
0
  0
BLOCK_RECORD
  5
DF
330
1
100
AcDbSymbolTableRecord
100
AcDbBlockTableRecord
  2
_D_1
340
0
  0
BLOCK_RECORD
  5
EC
330
1
100
AcDbSymbolTableRecord
100
AcDbBlockTableRecord
  2
_D_2
340
0
  0
BLOCK_RECORD
  5
F9
330
1
100
AcDbSymbolTableRecord
100
AcDbBlockTableRecord
  2
_D_3
340
0
  0
BLOCK_RECORD
  5
109
330
1
100
AcDbSymbolTableRecord
100
AcDbBlockTableRecord
  2
SW_DOWELSYMBOL_0
340
0
102
{BLKREFS
331
0
331
1B1
331
200
102
}
  0
BLOCK_RECORD
  5
176
330
1
100
AcDbSymbolTableRecord
100
AcDbBlockTableRecord
  2
*D8
340
0
  0
BLOCK_RECORD
  5
188
330
1
100
AcDbSymbolTableRecord
100
AcDbBlockTableRecord
  2
*D9
340
0
  0
BLOCK_RECORD
  5
198
330
1
100
AcDbSymbolTableRecord
100
AcDbBlockTableRecord
  2
*D10
340
0
  0
BLOCK_RECORD
  5
1A5
330
1
100
AcDbSymbolTableRecord
100
AcDbBlockTableRecord
  2
*D11
340
0
  0
BLOCK_RECORD
  5
1BB
330
1
100
AcDbSymbolTableRecord
100
AcDbBlockTableRecord
  2
*D12
340
0
  0
BLOCK_RECORD
  5
208
330
1
100
AcDbSymbolTableRecord
100
AcDbBlockTableRecord
  2
*D13
340
0
  0
BLOCK_RECORD
  5
217
330
1
100
AcDbSymbolTableRecord
100
AcDbBlockTableRecord
  2
*D14
340
0
  0
BLOCK_RECORD
  5
226
330
1
100
AcDbSymbolTableRecord
100
AcDbBlockTableRecord
  2
*D15
340
0
  0
BLOCK_RECORD
  5
232
330
1
100
AcDbSymbolTableRecord
100
AcDbBlockTableRecord
  2
*D16
340
0
  0
BLOCK_RECORD
  5
23E
330
1
100
AcDbSymbolTableRecord
100
AcDbBlockTableRecord
  2
*D17
340
0
  0
ENDTAB
  0
ENDSEC
  0
SECTION
  2
BLOCKS
  0
BLOCK
  5
20
330
1F
100
AcDbEntity
  8
0
100
AcDbBlockBegin
  2
*Model_Space
 70
     0
 10
0.0
 20
0.0
 30
0.0
  3
*Model_Space
  1

  0
ENDBLK
  5
21
330
1F
100
AcDbEntity
  8
0
100
AcDbBlockEnd
  0
BLOCK
  5
1C
330
1B
100
AcDbEntity
 67
     1
  8
0
100
AcDbBlockBegin
  2
*Paper_Space
 70
     0
 10
0.0
 20
0.0
 30
0.0
  3
*Paper_Space
  1

  0
ENDBLK
  5
1D
330
1B
100
AcDbEntity
 67
     1
  8
0
100
AcDbBlockEnd
  0
BLOCK
  5
24
330
23
100
AcDbEntity
  8
0
100
AcDbBlockBegin
  2
*Paper_Space0
 70
     0
 10
0.0
 20
0.0
 30
0.0
  3
*Paper_Space0
  1

  0
ENDBLK
  5
25
330
23
100
AcDbEntity
  8
0
100
AcDbBlockEnd
  0
BLOCK
  5
80
330
7F
100
AcDbEntity
  8
0
100
AcDbBlockBegin
  2
블럭10
 70
     2
 10
0.0
 20
0.0
 30
0.0
  3
블럭10
  1

  0
ELLIPSE
  5
82
330
7F
100
AcDbEntity
  8
중심선
100
AcDbEllipse
 10
20.54032771741204
 20
12.0471743016438
 30
0.0
 11
6.600054785286829
 21
-1.261213355974178E-13
 31
0.0
210
0.0
220
0.0
230
1.0
 40
0.636358354079598
 41
0.9219305317359503
 42
6.513795318482858
  0
ELLIPSE
  5
83
330
7F
100
AcDbEntity
  8
중심선
100
AcDbEllipse
 10
20.54032771746488
 20
12.04717430159265
 30
0.0
 11
3.960054785062283
 21
1.540847449632565E-10
 31
0.0
210
0.0
220
0.0
230
1.0
 40
0.3939339440162632
 41
1.131841032648279
 42
5.62031148352944
  0
LINE
  5
84
330
7F
100
AcDbEntity
  8
중심선
100
AcDbLine
 10
2.268634060543552
 20
16.24717430164393
 30
0.0
 11
5.714909304380834
 21
16.24717430164393
 31
0.0
  0
LINE
  5
85
330
7F
100
AcDbEntity
  8
중심선
100
AcDbLine
 10
5.245725140726316
 20
7.84717430164391
 30
0.0
 11
8.692000384563599
 21
7.84717430164391
 31
0.0
  0
LINE
  5
86
330
7F
100
AcDbEntity
  8
중심선
100
AcDbLine
 10
15.74043728645272
 20
16.24717430164393
 30
0.0
 11
8.692000384563599
 21
7.84717430164391
 31
0.0
  0
LINE
  5
87
330
7F
100
AcDbEntity
  8
중심선
100
AcDbLine
 10
0.1404042013395286
 20
13.71084872107135
 30
0.0
 11
3.58671253028996
 21
13.71088815037384
 31
0.0
  0
LINE
  5
88
330
7F
100
AcDbEntity
  8
중심선
100
AcDbLine
 10
2.750260043222114
 20
10.84717430164391
 30
0.0
 11
6.196535287059397
 21
10.84717430164391
 31
0.0
  0
LINE
  5
89
330
7F
100
AcDbEntity
  8
중심선
100
AcDbLine
 10
12.29416204261559
 20
16.24717430164393
 30
0.0
 11
5.245725140726316
 21
7.84717430164391
 31
0.0
  0
LINE
  5
8A
330
7F
100
AcDbEntity
  8
중심선
100
AcDbLine
 10
10.72767329541681
 20
16.24717430164393
 30
0.0
 11
6.196535287059397
 21
10.84717430164391
 31
0.0
  0
LINE
  5
8B
330
7F
100
AcDbEntity
  8
중심선
100
AcDbLine
 10
7.28139805157953
 20
16.24717430164393
 30
0.0
 11
2.750260043222114
 21
10.84717430164391
 31
0.0
  0
LINE
  5
8C
330
7F
100
AcDbEntity
  8
중심선
100
AcDbLine
 10
5.714909304380834
 20
16.24717430164393
 30
0.0
 11
3.58671253028996
 21
13.71088815037384
 31
0.0
  0
LINE
  5
8D
330
7F
100
AcDbEntity
  8
중심선
100
AcDbLine
 10
2.268634060543552
 20
16.24717430164393
 30
0.0
 11
0.1404042013395286
 21
13.71084872107135
 31
0.0
  0
LINE
  5
8E
330
7F
100
AcDbEntity
  8
중심선
100
AcDbLine
 10
7.28139805157953
 20
16.24717430164393
 30
0.0
 11
10.72767329541681
 21
16.24717430164393
 31
0.0
  0
LINE
  5
8F
330
7F
100
AcDbEntity
  8
중심선
100
AcDbLine
 10
12.29416204261559
 20
16.24717430164393
 30
0.0
 11
15.74043728645272
 21
16.24717430164393
 31
0.0
  0
LINE
  5
90
330
7F
100
AcDbEntity
  8
중심선
100
AcDbLine
 10
19.22036997980202
 20
11.08717430171403
 30
0.0
 11
23.66174974927406
 21
11.08717430171406
 31
0.0
  0
LINE
  5
91
330
7F
100
AcDbEntity
  8
중심선
100
AcDbLine
 10
19.22039502424796
 20
13.00717430171391
 30
0.0
 11
19.22036997980202
 21
11.08717430171403
 31
0.0
  0
LINE
  5
92
330
7F
100
AcDbEntity
  8
중심선
100
AcDbLine
 10
19.22039502424796
 20
13.00717430171391
 30
0.0
 11
26.96566020931264
 21
13.00717430171391
 31
0.0
  0
LINE
  5
93
330
7F
100
AcDbEntity
  8
중심선
100
AcDbLine
 10
22.22332737316547
 20
13.45928029700563
 30
0.0
 11
24.52862924686651
 21
15.39360700705356
 31
0.0
  0
ATTDEF
  5
95
330
7F
100
AcDbEntity
  8
FORMAT
 62
     2
100
AcDbText
 10
-23.90389214271276
 20
2.075366912832191
 30
0.0
 40
4.233333333333333
  1
SEME01040021004SE [ 4 FLUTE ]
 41
0.75
  7
SLDTEXTSTYLE0
 11
-23.90389214271276
 21
-0.0412997538344756
 31
0.0
100
AcDbAttributeDefinition
  3

  2
AUTOATTR0
 70
     0
 74
     1
  0
ENDBLK
  5
81
330
7F
100
AcDbEntity
  8
0
100
AcDbBlockEnd
  0
BLOCK
  5
D3
330
D2
100
AcDbEntity
  8
0
100
AcDbBlockBegin
  2
_D
 70
     0
 10
0.0
 20
0.0
 30
0.0
  3
_D
  1

  0
SOLID
  5
D5
330
D2
100
AcDbEntity
  8
치수문자_일반주서
100
AcDbTrace
 10
39.96782447567787
 20
2.000000000000003
 30
0.0
 11
40.47582447567788
 21
5.302000000000003
 31
0.0
 12
39.45982447567787
 22
5.302000000000003
 32
0.0
 13
39.45982447567787
 23
5.302000000000003
 33
0.0
  0
SOLID
  5
D6
330
D2
100
AcDbEntity
  8
치수문자_일반주서
100
AcDbTrace
 10
39.96782447567787
 20
-2.000000000000001
 30
0.0
 11
39.45982447567787
 21
-5.302000000000001
 31
0.0
 12
40.47582447567788
 22
-5.302000000000001
 32
0.0
 13
40.47582447567788
 23
-5.302000000000001
 33
0.0
  0
LINE
  5
D7
330
D2
100
AcDbEntity
  8
치수문자_일반주서
100
AcDbLine
 10
53.07983778222551
 20
2.000000000000002
 30
0.0
 11
38.96782447567787
 21
2.000000000000003
 31
0.0
  0
LINE
  5
D8
330
D2
100
AcDbEntity
  8
치수문자_일반주서
100
AcDbLine
 10
53.0798377822255
 20
-2.000000000000002
 30
0.0
 11
38.96782447567787
 21
-2.000000000000001
 31
0.0
  0
LINE
  5
D9
330
D2
100
AcDbEntity
  8
치수문자_일반주서
100
AcDbLine
 10
39.96782447567787
 20
2.000000000000003
 30
0.0
 11
39.96782447567787
 21
8.350000000000003
 31
0.0
  0
LINE
  5
DA
330
D2
100
AcDbEntity
  8
치수문자_일반주서
100
AcDbLine
 10
39.96782447567787
 20
2.000000000000003
 30
0.0
 11
39.96782447567787
 21
-2.000000000000001
 31
0.0
  0
LINE
  5
DB
330
D2
100
AcDbEntity
  8
치수문자_일반주서
100
AcDbLine
 10
39.96782447567787
 20
-2.000000000000001
 30
0.0
 11
39.96782447567787
 21
-8.350000000000001
 31
0.0
  0
MTEXT
  5
DC
330
D2
100
AcDbEntity
  8
치수문자_일반주서
100
AcDbMText
 10
35.45608738647602
 20
-3.932274412363802
 30
0.0
 40
3.5
 41
0.0
 71
     1
 72
     1
  1
%%c
  7
SLDTEXTSTYLE0
 11
-7.044195017643634E-15
 21
1.0
 31
0.0
 73
     1
 44
1.0
  0
MTEXT
  5
DD
330
D2
100
AcDbEntity
  8
치수문자_일반주서
100
AcDbMText
 10
35.40261520981613
 20
1.346162986010279
 30
0.0
 40
3.5
 41
0.0
 71
     1
 72
     1
  1
4
  7
SLDTEXTSTYLE0
 11
-7.044195017643634E-15
 21
1.0
 31
0.0
 73
     1
 44
1.0
  0
ENDBLK
  5
D4
330
D2
100
AcDbEntity
  8
0
100
AcDbBlockEnd
  0
BLOCK
  5
E0
330
DF
100
AcDbEntity
  8
0
100
AcDbBlockBegin
  2
_D_1
 70
     0
 10
0.0
 20
0.0
 30
0.0
  3
_D_1
  1

  0
SOLID
  5
E2
330
DF
100
AcDbEntity
  8
치수문자_일반주서
100
AcDbTrace
 10
-53.77512886940357
 20
2.000000000000001
 30
0.0
 11
-53.26712886940356
 21
5.302
 31
0.0
 12
-54.28312886940357
 22
5.302
 32
0.0
 13
-54.28312886940357
 23
5.302
 33
0.0
  0
SOLID
  5
E3
330
DF
100
AcDbEntity
  8
치수문자_일반주서
100
AcDbTrace
 10
-53.77512886940357
 20
-2.000000000000003
 30
0.0
 11
-54.28312886940357
 21
-5.302000000000002
 31
0.0
 12
-53.26712886940356
 22
-5.302000000000002
 32
0.0
 13
-53.26712886940356
 23
-5.302000000000002
 33
0.0
  0
LINE
  5
E4
330
DF
100
AcDbEntity
  8
치수문자_일반주서
100
AcDbLine
 10
-41.37512886940356
 20
2.000000000000002
 30
0.0
 11
-54.77512886940357
 21
2.000000000000001
 31
0.0
  0
LINE
  5
E5
330
DF
100
AcDbEntity
  8
치수문자_일반주서
100
AcDbLine
 10
-41.37512886940356
 20
-2.000000000000002
 30
0.0
 11
-54.77512886940357
 21
-2.000000000000003
 31
0.0
  0
LINE
  5
E6
330
DF
100
AcDbEntity
  8
치수문자_일반주서
100
AcDbLine
 10
-53.77512886940357
 20
2.000000000000001
 30
0.0
 11
-53.77512886940357
 21
8.35
 31
0.0
  0
LINE
  5
E7
330
DF
100
AcDbEntity
  8
치수문자_일반주서
100
AcDbLine
 10
-53.77512886940357
 20
2.000000000000001
 30
0.0
 11
-53.77512886940357
 21
-2.000000000000003
 31
0.0
  0
LINE
  5
E8
330
DF
100
AcDbEntity
  8
치수문자_일반주서
100
AcDbLine
 10
-53.77512886940357
 20
-2.000000000000003
 30
0.0
 11
-53.77512886940357
 21
-8.350000000000003
 31
0.0
  0
MTEXT
  5
E9
330
DF
100
AcDbEntity
  8
치수문자_일반주서
100
AcDbMText
 10
-58.28686595860542
 20
-3.932274412363788
 30
0.0
 40
3.5
 41
0.0
 71
     1
 72
     1
  1
%%c
  7
SLDTEXTSTYLE0
 11
-7.044195017643634E-15
 21
1.0
 31
0.0
 73
     1
 44
1.0
  0
MTEXT
  5
EA
330
DF
100
AcDbEntity
  8
치수문자_일반주서
100
AcDbMText
 10
-58.34033813526531
 20
1.346162986010292
 30
0.0
 40
3.5
 41
0.0
 71
     1
 72
     1
  1
4
  7
SLDTEXTSTYLE0
 11
-7.044195017643634E-15
 21
1.0
 31
0.0
 73
     1
 44
1.0
  0
ENDBLK
  5
E1
330
DF
100
AcDbEntity
  8
0
100
AcDbBlockEnd
  0
BLOCK
  5
ED
330
EC
100
AcDbEntity
  8
0
100
AcDbBlockBegin
  2
_D_2
 70
     0
 10
0.0
 20
0.0
 30
0.0
  3
_D_2
  1

  0
SOLID
  5
EF
330
EC
100
AcDbEntity
  8
치수문자_일반주서
100
AcDbTrace
 10
59.22487113059641
 20
19.24217551492284
 30
0.0
 11
62.5268711305964
 21
18.73417551492284
 31
0.0
 12
62.5268711305964
 22
19.75017551492284
 32
0.0
 13
62.5268711305964
 23
19.75017551492284
 33
0.0
  0
SOLID
  5
F0
330
EC
100
AcDbEntity
  8
치수문자_일반주서
100
AcDbTrace
 10
49.22487113059643
 20
19.24217551492284
 30
0.0
 11
45.92287113059643
 21
19.75017551492284
 31
0.0
 12
45.92287113059643
 22
18.73417551492284
 32
0.0
 13
45.92287113059643
 23
18.73417551492284
 33
0.0
  0
LINE
  5
F1
330
EC
100
AcDbEntity
  8
치수문자_일반주서
100
AcDbLine
 10
59.22487113059641
 20
2.789005060679974
 30
0.0
 11
59.22487113059641
 21
20.24217551492284
 31
0.0
  0
LINE
  5
F2
330
EC
100
AcDbEntity
  8
치수문자_일반주서
100
AcDbLine
 10
49.22487113059643
 20
2.971571559929801
 30
0.0
 11
49.22487113059643
 21
20.24217551492284
 31
0.0
  0
LINE
  5
F3
330
EC
100
AcDbEntity
  8
치수문자_일반주서
100
AcDbLine
 10
59.22487113059641
 20
19.24217551492284
 30
0.0
 11
65.5748711305964
 21
19.24217551492284
 31
0.0
  0
LINE
  5
F4
330
EC
100
AcDbEntity
  8
치수문자_일반주서
100
AcDbLine
 10
59.22487113059641
 20
19.24217551492284
 30
0.0
 11
49.22487113059643
 21
19.24217551492284
 31
0.0
  0
LINE
  5
F5
330
EC
100
AcDbEntity
  8
치수문자_일반주서
100
AcDbLine
 10
49.22487113059643
 20
19.24217551492284
 30
0.0
 11
42.87487113059642
 21
19.24217551492284
 31
0.0
  0
MTEXT
  5
F6
330
EC
100
AcDbEntity
  8
치수문자_일반주서
100
AcDbMText
 10
51.6387599370736
 20
23.75391242950174
 30
0.0
 40
3.5
 41
0.0
 71
     1
 72
     1
  1
10
  7
SLDTEXTSTYLE0
 73
     1
 44
1.0
  0
ENDBLK
  5
EE
330
EC
100
AcDbEntity
  8
0
100
AcDbBlockEnd
  0
BLOCK
  5
FA
330
F9
100
AcDbEntity
  8
0
100
AcDbBlockBegin
  2
_D_3
 70
     0
 10
0.0
 20
0.0
 30
0.0
  3
_D_3
  1

  0
SOLID
  5
FC
330
F9
100
AcDbEntity
  8
치수문자_일반주서
100
AcDbTrace
 10
59.22487113059641
 20
26.65853820528977
 30
0.0
 11
55.92287113059641
 21
27.16653820528977
 31
0.0
 12
55.92287113059641
 22
26.15053820528977
 32
0.0
 13
55.92287113059641
 23
26.15053820528977
 33
0.0
  0
SOLID
  5
FD
330
F9
100
AcDbEntity
  8
치수문자_일반주서
100
AcDbTrace
 10
-40.77512886940357
 20
26.65853820528976
 30
0.0
 11
-37.47312886940357
 21
26.15053820528976
 31
0.0
 12
-37.47312886940357
 22
27.16653820528976
 32
0.0
 13
-37.47312886940357
 23
27.16653820528976
 33
0.0
  0
LINE
  5
FE
330
F9
100
AcDbEntity
  8
치수문자_일반주서
100
AcDbLine
 10
59.22487113059641
 20
2.789005060679974
 30
0.0
 11
59.22487113059641
 21
27.65853820528977
 31
0.0
  0
LINE
  5
FF
330
F9
100
AcDbEntity
  8
치수문자_일반주서
100
AcDbLine
 10
-40.77512886940357
 20
2.600000000000001
 30
0.0
 11
-40.77512886940357
 21
27.65853820528977
 31
0.0
  0
LINE
  5
100
330
F9
100
AcDbEntity
  8
치수문자_일반주서
100
AcDbLine
 10
59.22487113059641
 20
26.65853820528977
 30
0.0
 11
-40.77512886940357
 21
26.65853820528976
 31
0.0
  0
MTEXT
  5
101
330
F9
100
AcDbEntity
  8
치수문자_일반주서
100
AcDbMText
 10
5.345704456727516
 20
31.17027511986866
 30
0.0
 40
3.5
 41
0.0
 71
     1
 72
     1
  1
100
  7
SLDTEXTSTYLE0
 73
     1
 44
1.0
  0
ENDBLK
  5
FB
330
F9
100
AcDbEntity
  8
0
100
AcDbBlockEnd
  0
BLOCK
  5
10A
330
109
100
AcDbEntity
  8
0
100
AcDbBlockBegin
  2
SW_DOWELSYMBOL_0
 70
     0
 10
0.0
 20
0.0
 30
0.0
  3
SW_DOWELSYMBOL_0
  1

  0
CIRCLE
  5
10C
330
109
100
AcDbEntity
  8
해칭선
 62
     0
100
AcDbCircle
 10
0.0
 20
0.0
 30
0.0
 40
3.000000000000001
  0
HATCH
  5
10D
330
109
100
AcDbEntity
  8
0
  6
Continuous
 62
     0
370
     0
100
AcDbHatch
 10
0.0
 20
0.0
 30
0.0
210
0.0
220
0.0
230
1.0
  2
SOLID
 70
     1
 71
     0
 91
        1
 92
        0
 93
        3
 72
     2
 10
0.0
 20
0.0
 40
3.000000000000001
 50
0.0
 51
90.0
 73
     1
 72
     1
 10
0.0
 20
3.000000000000001
 11
0.0
 21
0.0
 72
     1
 10
0.0
 20
0.0
 11
3.000000000000003
 21
0.0
 97
        0
 75
     0
 76
     1
 98
        1
 10
0.0
 20
0.0
  0
HATCH
  5
10E
330
109
100
AcDbEntity
  8
0
  6
Continuous
 62
     0
370
     0
100
AcDbHatch
 10
0.0
 20
0.0
 30
0.0
210
0.0
220
0.0
230
1.0
  2
SOLID
 70
     1
 71
     0
 91
        1
 92
        0
 93
        3
 72
     2
 10
0.0
 20
0.0
 40
3.000000000000001
 50
180.0
 51
270.0000000000008
 73
     1
 72
     1
 10
0.0
 20
-3.000000000000001
 11
0.0
 21
0.0
 72
     1
 10
0.0
 20
0.0
 11
-3.000000000000001
 21
0.0
 97
        0
 75
     0
 76
     1
 98
        1
 10
0.0
 20
0.0
  0
ENDBLK
  5
10B
330
109
100
AcDbEntity
  8
0
100
AcDbBlockEnd
  0
BLOCK
  5
177
330
176
100
AcDbEntity
  8
0
100
AcDbBlockBegin
  2
*D8
 70
     1
 10
0.0
 20
0.0
 30
0.0
  3
*D8
  1

  0
LINE
  5
178
330
176
100
AcDbEntity
  8
치수문자_일반주서
 62
     0
370
    -2
100
AcDbLine
 10
84.43750000000003
 20
21.9005735105314
 30
0.0
 11
94.37500000000003
 21
21.90057351053144
 31
0.0
  0
LINE
  5
179
330
176
100
AcDbEntity
  8
치수문자_일반주서
 62
     0
370
    -2
100
AcDbLine
 10
84.43750000000003
 20
17.9005735105314
 30
0.0
 11
94.37500000000004
 21
17.90057351053144
 31
0.0
  0
LINE
  5
17A
330
176
100
AcDbEntity
  8
치수문자_일반주서
 62
     0
370
    -2
100
AcDbLine
 10
94.37500000000003
 20
21.90057351053144
 30
0.0
 11
94.37499999999999
 21
34.62957351053144
 31
0.0
  0
LINE
  5
17B
330
176
100
AcDbEntity
  8
치수문자_일반주서
 62
     0
370
    -2
100
AcDbLine
 10
94.37500000000003
 20
21.90057351053144
 30
0.0
 11
94.37500000000004
 21
17.90057351053144
 31
0.0
  0
LINE
  5
17C
330
176
100
AcDbEntity
  8
치수문자_일반주서
 62
     0
370
    -2
100
AcDbLine
 10
94.37500000000001
 20
25.20257351053144
 30
0.0
 11
94.375
 21
28.50457351053144
 31
0.0
  0
LINE
  5
17D
330
176
100
AcDbEntity
  8
치수문자_일반주서
 62
     0
370
    -2
100
AcDbLine
 10
94.37500000000006
 20
14.59857351053144
 30
0.0
 11
94.37500000000007
 21
11.29657351053144
 31
0.0
  0
SOLID
  5
17E
330
176
100
AcDbEntity
  8
치수문자_일반주서
 62
     0
100
AcDbTrace
 10
93.82466666666669
 20
25.20257351053143
 30
0.0
 11
94.92533333333334
 21
25.20257351053144
 31
0.0
 12
94.37500000000003
 22
21.90057351053144
 32
0.0
 13
94.37500000000003
 23
21.90057351053144
 33
0.0
  0
SOLID
  5
17F
330
176
100
AcDbEntity
  8
치수문자_일반주서
 62
     0
100
AcDbTrace
 10
94.92533333333338
 20
14.59857351053144
 30
0.0
 11
93.82466666666673
 21
14.59857351053144
 31
0.0
 12
94.37500000000004
 22
17.90057351053144
 32
0.0
 13
94.37500000000004
 23
17.90057351053144
 33
0.0
  0
MTEXT
  5
180
330
176
100
AcDbEntity
  8
치수문자_일반주서
 62
     0
100
AcDbMText
 10
90.0
 20
31.56707351053143
 30
0.0
 40
3.5
 41
0.0
 71
     2
 72
     1
  1
\A1;%%c4
  7
SLDTEXTSTYLE0
 11
-3.552713678800501E-15
 21
1.0
 31
0.0
 73
     1
 44
1.0
  0
POINT
  5
181
330
176
100
AcDbEntity
  8
Defpoints
 62
     0
100
AcDbPoint
 10
84.37500000000003
 20
21.9005735105314
 30
0.0
  0
POINT
  5
182
330
176
100
AcDbEntity
  8
Defpoints
 62
     0
100
AcDbPoint
 10
84.37500000000003
 20
17.9005735105314
 30
0.0
  0
POINT
  5
183
330
176
100
AcDbEntity
  8
Defpoints
 62
     0
100
AcDbPoint
 10
94.37500000000006
 20
17.90057351053144
 30
0.0
  0
ENDBLK
  5
184
330
176
100
AcDbEntity
  8
0
100
AcDbBlockEnd
  0
BLOCK
  5
189
330
188
100
AcDbEntity
  8
0
100
AcDbBlockBegin
  2
*D9
 70
     1
 10
0.0
 20
0.0
 30
0.0
  3
*D9
  1

  0
LINE
  5
18A
330
188
100
AcDbEntity
  8
치수문자_일반주서
 62
     0
370
    -2
100
AcDbLine
 10
14.91250000000005
 20
21.90057351053141
 30
0.0
 11
4.375000000000038
 21
21.90057351053137
 31
0.0
  0
LINE
  5
18B
330
188
100
AcDbEntity
  8
치수문자_일반주서
 62
     0
370
    -2
100
AcDbLine
 10
14.91250000000005
 20
17.9005735105314
 30
0.0
 11
4.375000000000052
 21
17.90057351053136
 31
0.0
  0
LINE
  5
18C
330
188
100
AcDbEntity
  8
치수문자_일반주서
 62
     0
370
    -2
100
AcDbLine
 10
4.375000000000038
 20
21.90057351053137
 30
0.0
 11
4.374999999999989
 21
35.62957351053137
 31
0.0
  0
LINE
  5
18D
330
188
100
AcDbEntity
  8
치수문자_일반주서
 62
     0
370
    -2
100
AcDbLine
 10
4.375000000000038
 20
21.90057351053137
 30
0.0
 11
4.375000000000052
 21
17.90057351053136
 31
0.0
  0
LINE
  5
18E
330
188
100
AcDbEntity
  8
치수문자_일반주서
 62
     0
370
    -2
100
AcDbLine
 10
4.375000000000027
 20
25.20257351053137
 30
0.0
 11
4.375000000000015
 21
28.50457351053137
 31
0.0
  0
LINE
  5
18F
330
188
100
AcDbEntity
  8
치수문자_일반주서
 62
     0
370
    -2
100
AcDbLine
 10
4.375000000000064
 20
14.59857351053136
 30
0.0
 11
4.375000000000075
 21
11.29657351053136
 31
0.0
  0
SOLID
  5
190
330
188
100
AcDbEntity
  8
치수문자_일반주서
 62
     0
100
AcDbTrace
 10
3.824666666666694
 20
25.20257351053136
 30
0.0
 11
4.92533333333336
 21
25.20257351053137
 31
0.0
 12
4.375000000000038
 22
21.90057351053137
 32
0.0
 13
4.375000000000038
 23
21.90057351053137
 33
0.0
  0
SOLID
  5
191
330
188
100
AcDbEntity
  8
치수문자_일반주서
 62
     0
100
AcDbTrace
 10
4.925333333333398
 20
14.59857351053136
 30
0.0
 11
3.824666666666731
 21
14.59857351053136
 31
0.0
 12
4.375000000000052
 22
17.90057351053136
 32
0.0
 13
4.375000000000052
 23
17.90057351053136
 33
0.0
  0
MTEXT
  5
192
330
188
100
AcDbEntity
  8
치수문자_일반주서
 62
     0
100
AcDbMText
 10
0.0
 20
32.56707351053136
 30
0.0
 40
3.5
 41
0.0
 71
     2
 72
     1
  1
\A1;%%c4
  7
SLDTEXTSTYLE0
 11
-3.552713678800495E-15
 21
1.0
 31
0.0
 73
     1
 44
1.0
  0
POINT
  5
193
330
188
100
AcDbEntity
  8
Defpoints
 62
     0
100
AcDbPoint
 10
14.97500000000005
 20
21.90057351053141
 30
0.0
  0
POINT
  5
194
330
188
100
AcDbEntity
  8
Defpoints
 62
     0
100
AcDbPoint
 10
14.97500000000005
 20
17.9005735105314
 30
0.0
  0
POINT
  5
195
330
188
100
AcDbEntity
  8
Defpoints
 62
     0
100
AcDbPoint
 10
4.37500000000005
 20
17.90057351053136
 30
0.0
  0
ENDBLK
  5
196
330
188
100
AcDbEntity
  8
0
100
AcDbBlockEnd
  0
BLOCK
  5
199
330
198
100
AcDbEntity
  8
0
100
AcDbBlockBegin
  2
*D10
 70
     1
 10
0.0
 20
0.0
 30
0.0
  3
*D10
  1

  0
LINE
  5
19A
330
198
100
AcDbEntity
  8
치수문자_일반주서
 62
     0
370
    -2
100
AcDbLine
 10
84.37500000000003
 20
21.9630735105314
 30
0.0
 11
84.37500000000003
 21
32.9005735105314
 31
0.0
  0
LINE
  5
19B
330
198
100
AcDbEntity
  8
치수문자_일반주서
 62
     0
370
    -2
100
AcDbLine
 10
74.37500000000003
 20
21.9346450704612
 30
0.0
 11
74.37500000000003
 21
32.9005735105314
 31
0.0
  0
LINE
  5
19C
330
198
100
AcDbEntity
  8
치수문자_일반주서
 62
     0
370
    -2
100
AcDbLine
 10
81.07300000000004
 20
32.9005735105314
 30
0.0
 11
77.67700000000002
 21
32.9005735105314
 31
0.0
  0
SOLID
  5
19D
330
198
100
AcDbEntity
  8
치수문자_일반주서
 62
     0
100
AcDbTrace
 10
81.07300000000004
 20
32.35024017719807
 30
0.0
 11
81.07300000000004
 21
33.45090684386474
 31
0.0
 12
84.37500000000003
 22
32.9005735105314
 32
0.0
 13
84.37500000000003
 23
32.9005735105314
 33
0.0
  0
SOLID
  5
19E
330
198
100
AcDbEntity
  8
치수문자_일반주서
 62
     0
100
AcDbTrace
 10
77.67700000000002
 20
33.45090684386474
 30
0.0
 11
77.67700000000002
 21
32.35024017719807
 31
0.0
 12
74.37500000000003
 22
32.9005735105314
 32
0.0
 13
74.37500000000003
 23
32.9005735105314
 33
0.0
  0
MTEXT
  5
19F
330
198
100
AcDbEntity
  8
치수문자_일반주서
 62
     0
100
AcDbMText
 10
79.37500000000009
 20
37.2755735105314
 30
0.0
 40
3.5
 41
0.0
 71
     2
 72
     1
  1
\A1;10
  7
SLDTEXTSTYLE0
 73
     1
 44
1.0
  0
POINT
  5
1A0
330
198
100
AcDbEntity
  8
Defpoints
 62
     0
100
AcDbPoint
 10
84.37500000000003
 20
21.9005735105314
 30
0.0
  0
POINT
  5
1A1
330
198
100
AcDbEntity
  8
Defpoints
 62
     0
100
AcDbPoint
 10
74.37500000000003
 20
21.8721450704612
 30
0.0
  0
POINT
  5
1A2
330
198
100
AcDbEntity
  8
Defpoints
 62
     0
100
AcDbPoint
 10
74.37500000000003
 20
32.9005735105314
 30
0.0
  0
ENDBLK
  5
1A3
330
198
100
AcDbEntity
  8
0
100
AcDbBlockEnd
  0
BLOCK
  5
1A6
330
1A5
100
AcDbEntity
  8
0
100
AcDbBlockBegin
  2
*D11
 70
     1
 10
0.0
 20
0.0
 30
0.0
  3
*D11
  1

  0
LINE
  5
1A7
330
1A5
100
AcDbEntity
  8
치수문자_일반주서
 62
     0
370
    -2
100
AcDbLine
 10
84.37500000000003
 20
21.9630735105314
 30
0.0
 11
84.37500000000003
 21
42.9005735105314
 31
0.0
  0
LINE
  5
1A8
330
1A5
100
AcDbEntity
  8
치수문자_일반주서
 62
     0
370
    -2
100
AcDbLine
 10
14.37500000000006
 20
22.3630735105314
 30
0.0
 11
14.37500000000006
 21
42.9005735105314
 31
0.0
  0
LINE
  5
1A9
330
1A5
100
AcDbEntity
  8
치수문자_일반주서
 62
     0
370
    -2
100
AcDbLine
 10
81.07300000000004
 20
42.9005735105314
 30
0.0
 11
17.67700000000006
 21
42.9005735105314
 31
0.0
  0
SOLID
  5
1AA
330
1A5
100
AcDbEntity
  8
치수문자_일반주서
 62
     0
100
AcDbTrace
 10
81.07300000000004
 20
42.35024017719807
 30
0.0
 11
81.07300000000004
 21
43.45090684386474
 31
0.0
 12
84.37500000000003
 22
42.9005735105314
 32
0.0
 13
84.37500000000003
 23
42.9005735105314
 33
0.0
  0
SOLID
  5
1AB
330
1A5
100
AcDbEntity
  8
치수문자_일반주서
 62
     0
100
AcDbTrace
 10
17.67700000000006
 20
43.45090684386474
 30
0.0
 11
17.67700000000006
 21
42.35024017719807
 31
0.0
 12
14.37500000000006
 22
42.9005735105314
 32
0.0
 13
14.37500000000006
 23
42.9005735105314
 33
0.0
  0
MTEXT
  5
1AC
330
1A5
100
AcDbEntity
  8
치수문자_일반주서
 62
     0
100
AcDbMText
 10
49.37500000000004
 20
47.2755735105314
 30
0.0
 40
3.5
 41
0.0
 71
     2
 72
     1
  1
\A1;70
  7
SLDTEXTSTYLE0
 73
     1
 44
1.0
  0
POINT
  5
1AD
330
1A5
100
AcDbEntity
  8
Defpoints
 62
     0
100
AcDbPoint
 10
84.37500000000003
 20
21.9005735105314
 30
0.0
  0
POINT
  5
1AE
330
1A5
100
AcDbEntity
  8
Defpoints
 62
     0
100
AcDbPoint
 10
14.37500000000006
 20
22.3005735105314
 30
0.0
  0
POINT
  5
1AF
330
1A5
100
AcDbEntity
  8
Defpoints
 62
     0
100
AcDbPoint
 10
14.37500000000006
 20
42.9005735105314
 30
0.0
  0
ENDBLK
  5
1B0
330
1A5
100
AcDbEntity
  8
0
100
AcDbBlockEnd
  0
BLOCK
  5
1BC
330
1BB
100
AcDbEntity
  8
0
100
AcDbBlockBegin
  2
*D12
 70
     1
 10
0.0
 20
0.0
 30
0.0
  3
*D12
  1

  0
LINE
  5
1BD
330
1BB
100
AcDbEntity
  8
치수문자_일반주서
 62
     0
370
    -2
100
AcDbLine
 10
86.00070639413404
 20
15.11212907196172
 30
0.0
 11
95.23303821184189
 21
-0.0000000000000004
 31
0.0
  0
MTEXT
  5
1BE
330
1BB
100
AcDbEntity
  8
치수문자_일반주서
 62
     0
100
AcDbMText
 10
95.07822036580886
 20
5.288591069183709
 30
0.0
 40
3.5
 41
0.0
 71
     5
 72
     1
  1
\A1;R0.2
  7
SLDTEXTSTYLE0
 11
0.5213324940416957
 21
-0.8533536375127637
 31
0.0
 73
     1
 44
1.0
  0
SOLID
  5
1BF
330
1BB
100
AcDbEntity
  8
치수문자_일반주서
 62
     0
100
AcDbTrace
 10
86.47033534597857
 20
15.39903572118266
 30
0.0
 11
85.53107744228952
 21
14.82522242274077
 31
0.0
 12
84.27926649880837
 22
17.92990278302886
 32
0.0
 13
84.27926649880837
 23
17.92990278302886
 33
0.0
  0
LINE
  5
1C0
330
1BB
100
AcDbEntity
  8
치수문자_일반주서
 62
     0
100
AcDbLine
 10
84.08500000000004
 20
18.1005735105314
 30
0.0
 11
84.26500000000004
 21
18.1005735105314
 31
0.0
  0
LINE
  5
1C1
330
1BB
100
AcDbEntity
  8
치수문자_일반주서
 62
     0
100
AcDbLine
 10
84.17500000000004
 20
18.0105735105314
 30
0.0
 11
84.17500000000004
 21
18.1905735105314
 31
0.0
  0
POINT
  5
1C2
330
1BB
100
AcDbEntity
  8
Defpoints
 62
     0
100
AcDbPoint
 10
84.27926649880837
 20
17.92990278302886
 30
0.0
  0
POINT
  5
1C3
330
1BB
100
AcDbEntity
  8
Defpoints
 62
     0
100
AcDbPoint
 10
84.17500000000004
 20
18.1005735105314
 30
0.0
  0
ENDBLK
  5
1C4
330
1BB
100
AcDbEntity
  8
0
100
AcDbBlockEnd
  0
BLOCK
  5
209
330
208
100
AcDbEntity
  8
0
100
AcDbBlockBegin
  2
*D13
 70
     1
 10
0.0
 20
0.0
 30
0.0
  3
*D13
  1

  0
LINE
  5
20B
330
208
100
AcDbEntity
  8
치수문자_일반주서
 62
     0
370
    -2
100
AcDbLine
 10
16.7945508075689
 20
2.001074928723896
 30
0.0
 11
26.7320508075689
 21
2.001074928723932
 31
0.0
  0
LINE
  5
20C
330
208
100
AcDbEntity
  8
치수문자_일반주서
 62
     0
370
    -2
100
AcDbLine
 10
16.7945508075689
 20
-1.998925071276105
 30
0.0
 11
26.73205080756892
 21
-1.998925071276068
 31
0.0
  0
LINE
  5
20D
330
208
100
AcDbEntity
  8
치수문자_일반주서
 62
     0
370
    -2
100
AcDbLine
 10
26.7320508075689
 20
2.001074928723932
 30
0.0
 11
26.73205080756886
 21
14.73007492872394
 31
0.0
  0
LINE
  5
20E
330
208
100
AcDbEntity
  8
치수문자_일반주서
 62
     0
370
    -2
100
AcDbLine
 10
26.7320508075689
 20
2.001074928723932
 30
0.0
 11
26.73205080756892
 21
-1.998925071276068
 31
0.0
  0
LINE
  5
20F
330
208
100
AcDbEntity
  8
치수문자_일반주서
 62
     0
370
    -2
100
AcDbLine
 10
26.73205080756889
 20
5.303074928723932
 30
0.0
 11
26.73205080756888
 21
8.605074928723932
 31
0.0
  0
LINE
  5
210
330
208
100
AcDbEntity
  8
치수문자_일반주서
 62
     0
370
    -2
100
AcDbLine
 10
26.73205080756893
 20
-5.300925071276067
 30
0.0
 11
26.73205080756894
 21
-8.602925071276067
 31
0.0
  0
SOLID
  5
211
330
208
100
AcDbEntity
  8
치수문자_일반주서
 62
     0
100
AcDbTrace
 10
26.18171747423556
 20
5.30307492872393
 30
0.0
 11
27.28238414090223
 21
5.303074928723934
 31
0.0
 12
26.7320508075689
 22
2.001074928723932
 32
0.0
 13
26.7320508075689
 23
2.001074928723932
 33
0.0
  0
SOLID
  5
212
330
208
100
AcDbEntity
  8
치수문자_일반주서
 62
     0
100
AcDbTrace
 10
27.28238414090226
 20
-5.300925071276065
 30
0.0
 11
26.18171747423559
 21
-5.300925071276069
 31
0.0
 12
26.73205080756892
 22
-1.998925071276068
 32
0.0
 13
26.73205080756892
 23
-1.998925071276068
 33
0.0
  0
MTEXT
  5
213
330
208
100
AcDbEntity
  8
치수문자_일반주서
 62
     0
100
AcDbMText
 10
22.35705080756887
 20
11.66757492872393
 30
0.0
 40
3.5
 41
0.0
 71
     2
 72
     1
  1
\A1;%%c4
  7
SLDTEXTSTYLE0
 11
-3.552713678800501E-15
 21
1.0
 31
0.0
 73
     1
 44
1.0
  0
POINT
  5
214
330
208
100
AcDbEntity
  8
Defpoints
 62
     0
100
AcDbPoint
 10
16.7320508075689
 20
2.001074928723895
 30
0.0
  0
POINT
  5
215
330
208
100
AcDbEntity
  8
Defpoints
 62
     0
100
AcDbPoint
 10
16.7320508075689
 20
-1.998925071276105
 30
0.0
  0
POINT
  5
216
330
208
100
AcDbEntity
  8
Defpoints
 62
     0
100
AcDbPoint
 10
26.73205080756891
 20
-1.998925071276068
 30
0.0
  0
ENDBLK
  5
20A
330
208
100
AcDbEntity
  8
0
100
AcDbBlockEnd
  0
BLOCK
  5
218
330
217
100
AcDbEntity
  8
0
100
AcDbBlockBegin
  2
*D14
 70
     1
 10
0.0
 20
0.0
 30
0.0
  3
*D14
  1

  0
LINE
  5
21A
330
217
100
AcDbEntity
  8
치수문자_일반주서
 62
     0
370
    -2
100
AcDbLine
 10
-82.73044919243108
 20
2.001074928723895
 30
0.0
 11
-93.26794919243109
 21
2.001074928723854
 31
0.0
  0
LINE
  5
21B
330
217
100
AcDbEntity
  8
치수문자_일반주서
 62
     0
370
    -2
100
AcDbLine
 10
-82.73044919243108
 20
-1.998925071276105
 30
0.0
 11
-93.26794919243108
 21
-1.998925071276146
 31
0.0
  0
LINE
  5
21C
330
217
100
AcDbEntity
  8
치수문자_일반주서
 62
     0
370
    -2
100
AcDbLine
 10
-93.26794919243109
 20
2.001074928723854
 30
0.0
 11
-93.26794919243115
 21
15.73007492872387
 31
0.0
  0
LINE
  5
21D
330
217
100
AcDbEntity
  8
치수문자_일반주서
 62
     0
370
    -2
100
AcDbLine
 10
-93.26794919243109
 20
2.001074928723854
 30
0.0
 11
-93.26794919243108
 21
-1.998925071276146
 31
0.0
  0
LINE
  5
21E
330
217
100
AcDbEntity
  8
치수문자_일반주서
 62
     0
370
    -2
100
AcDbLine
 10
-93.2679491924311
 20
5.303074928723854
 30
0.0
 11
-93.26794919243112
 21
8.605074928723853
 31
0.0
  0
LINE
  5
21F
330
217
100
AcDbEntity
  8
치수문자_일반주서
 62
     0
370
    -2
100
AcDbLine
 10
-93.26794919243106
 20
-5.300925071276145
 30
0.0
 11
-93.26794919243105
 21
-8.602925071276145
 31
0.0
  0
SOLID
  5
220
330
217
100
AcDbEntity
  8
치수문자_일반주서
 62
     0
100
AcDbTrace
 10
-93.81828252576443
 20
5.303074928723852
 30
0.0
 11
-92.71761585909778
 21
5.303074928723856
 31
0.0
 12
-93.26794919243109
 22
2.001074928723854
 32
0.0
 13
-93.26794919243109
 23
2.001074928723854
 33
0.0
  0
SOLID
  5
221
330
217
100
AcDbEntity
  8
치수문자_일반주서
 62
     0
100
AcDbTrace
 10
-92.71761585909773
 20
-5.300925071276144
 30
0.0
 11
-93.81828252576439
 21
-5.300925071276147
 31
0.0
 12
-93.26794919243108
 22
-1.998925071276146
 32
0.0
 13
-93.26794919243108
 23
-1.998925071276146
 33
0.0
  0
MTEXT
  5
222
330
217
100
AcDbEntity
  8
치수문자_일반주서
 62
     0
100
AcDbMText
 10
-97.64294919243113
 20
12.66757492872385
 30
0.0
 40
3.5
 41
0.0
 71
     2
 72
     1
  1
\A1;%%c4
  7
SLDTEXTSTYLE0
 11
-3.552713678800502E-15
 21
1.0
 31
0.0
 73
     1
 44
1.0
  0
POINT
  5
223
330
217
100
AcDbEntity
  8
Defpoints
 62
     0
100
AcDbPoint
 10
-82.66794919243108
 20
2.001074928723895
 30
0.0
  0
POINT
  5
224
330
217
100
AcDbEntity
  8
Defpoints
 62
     0
100
AcDbPoint
 10
-82.66794919243108
 20
-1.998925071276105
 30
0.0
  0
POINT
  5
225
330
217
100
AcDbEntity
  8
Defpoints
 62
     0
100
AcDbPoint
 10
-93.26794919243108
 20
-1.998925071276144
 30
0.0
  0
ENDBLK
  5
219
330
217
100
AcDbEntity
  8
0
100
AcDbBlockEnd
  0
BLOCK
  5
227
330
226
100
AcDbEntity
  8
0
100
AcDbBlockBegin
  2
*D15
 70
     1
 10
0.0
 20
0.0
 30
0.0
  3
*D15
  1

  0
LINE
  5
229
330
226
100
AcDbEntity
  8
치수문자_일반주서
 62
     0
370
    -2
100
AcDbLine
 10
16.7320508075689
 20
2.063574928723895
 30
0.0
 11
16.7320508075689
 21
13.0010749287239
 31
0.0
  0
LINE
  5
22A
330
226
100
AcDbEntity
  8
치수문자_일반주서
 62
     0
370
    -2
100
AcDbLine
 10
6.732050807568896
 20
2.035146488653695
 30
0.0
 11
6.732050807568896
 21
13.0010749287239
 31
0.0
  0
LINE
  5
22B
330
226
100
AcDbEntity
  8
치수문자_일반주서
 62
     0
370
    -2
100
AcDbLine
 10
13.4300508075689
 20
13.0010749287239
 30
0.0
 11
10.0340508075689
 21
13.0010749287239
 31
0.0
  0
SOLID
  5
22C
330
226
100
AcDbEntity
  8
치수문자_일반주서
 62
     0
100
AcDbTrace
 10
13.4300508075689
 20
12.45074159539056
 30
0.0
 11
13.4300508075689
 21
13.55140826205723
 31
0.0
 12
16.7320508075689
 22
13.0010749287239
 32
0.0
 13
16.7320508075689
 23
13.0010749287239
 33
0.0
  0
SOLID
  5
22D
330
226
100
AcDbEntity
  8
치수문자_일반주서
 62
     0
100
AcDbTrace
 10
10.0340508075689
 20
13.55140826205723
 30
0.0
 11
10.0340508075689
 21
12.45074159539056
 31
0.0
 12
6.732050807568896
 22
13.0010749287239
 32
0.0
 13
6.732050807568896
 23
13.0010749287239
 33
0.0
  0
MTEXT
  5
22E
330
226
100
AcDbEntity
  8
치수문자_일반주서
 62
     0
100
AcDbMText
 10
11.73205080756895
 20
17.3760749287239
 30
0.0
 40
3.5
 41
0.0
 71
     2
 72
     1
  1
\A1;10
  7
SLDTEXTSTYLE0
 73
     1
 44
1.0
  0
POINT
  5
22F
330
226
100
AcDbEntity
  8
Defpoints
 62
     0
100
AcDbPoint
 10
16.7320508075689
 20
2.001074928723895
 30
0.0
  0
POINT
  5
230
330
226
100
AcDbEntity
  8
Defpoints
 62
     0
100
AcDbPoint
 10
6.732050807568896
 20
1.972646488653695
 30
0.0
  0
POINT
  5
231
330
226
100
AcDbEntity
  8
Defpoints
 62
     0
100
AcDbPoint
 10
6.732050807568896
 20
13.0010749287239
 30
0.0
  0
ENDBLK
  5
228
330
226
100
AcDbEntity
  8
0
100
AcDbBlockEnd
  0
BLOCK
  5
233
330
232
100
AcDbEntity
  8
0
100
AcDbBlockBegin
  2
*D16
 70
     1
 10
0.0
 20
0.0
 30
0.0
  3
*D16
  1

  0
LINE
  5
235
330
232
100
AcDbEntity
  8
치수문자_일반주서
 62
     0
370
    -2
100
AcDbLine
 10
16.7320508075689
 20
2.063574928723895
 30
0.0
 11
16.7320508075689
 21
23.0010749287239
 31
0.0
  0
LINE
  5
236
330
232
100
AcDbEntity
  8
치수문자_일반주서
 62
     0
370
    -2
100
AcDbLine
 10
-83.26794919243108
 20
1.463574928723901
 30
0.0
 11
-83.26794919243108
 21
23.0010749287239
 31
0.0
  0
LINE
  5
237
330
232
100
AcDbEntity
  8
치수문자_일반주서
 62
     0
370
    -2
100
AcDbLine
 10
13.4300508075689
 20
23.0010749287239
 30
0.0
 11
-79.96594919243108
 21
23.0010749287239
 31
0.0
  0
SOLID
  5
238
330
232
100
AcDbEntity
  8
치수문자_일반주서
 62
     0
100
AcDbTrace
 10
13.4300508075689
 20
22.45074159539056
 30
0.0
 11
13.4300508075689
 21
23.55140826205723
 31
0.0
 12
16.7320508075689
 22
23.0010749287239
 32
0.0
 13
16.7320508075689
 23
23.0010749287239
 33
0.0
  0
SOLID
  5
239
330
232
100
AcDbEntity
  8
치수문자_일반주서
 62
     0
100
AcDbTrace
 10
-79.96594919243108
 20
23.55140826205723
 30
0.0
 11
-79.96594919243108
 21
22.45074159539056
 31
0.0
 12
-83.26794919243108
 22
23.0010749287239
 32
0.0
 13
-83.26794919243108
 23
23.0010749287239
 33
0.0
  0
MTEXT
  5
23A
330
232
100
AcDbEntity
  8
치수문자_일반주서
 62
     0
100
AcDbMText
 10
-33.2679491924311
 20
27.3760749287239
 30
0.0
 40
3.5
 41
0.0
 71
     2
 72
     1
  1
\A1;100
  7
SLDTEXTSTYLE0
 73
     1
 44
1.0
  0
POINT
  5
23B
330
232
100
AcDbEntity
  8
Defpoints
 62
     0
100
AcDbPoint
 10
16.7320508075689
 20
2.001074928723895
 30
0.0
  0
POINT
  5
23C
330
232
100
AcDbEntity
  8
Defpoints
 62
     0
100
AcDbPoint
 10
-83.26794919243108
 20
1.401074928723901
 30
0.0
  0
POINT
  5
23D
330
232
100
AcDbEntity
  8
Defpoints
 62
     0
100
AcDbPoint
 10
-83.26794919243108
 20
23.0010749287239
 30
0.0
  0
ENDBLK
  5
234
330
232
100
AcDbEntity
  8
0
100
AcDbBlockEnd
  0
BLOCK
  5
23F
330
23E
100
AcDbEntity
  8
0
100
AcDbBlockBegin
  2
*D17
 70
     1
 10
0.0
 20
0.0
 30
0.0
  3
*D17
  1

  0
LINE
  5
241
330
23E
100
AcDbEntity
  8
치수문자_일반주서
 62
     0
370
    -2
100
AcDbLine
 10
18.35775720170294
 20
-4.787369509845771
 30
0.0
 11
27.59008901941093
 21
-19.8994985818074
 31
0.0
  0
MTEXT
  5
242
330
23E
100
AcDbEntity
  8
치수문자_일반주서
 62
     0
100
AcDbMText
 10
27.43527117337785
 20
-14.61090751262369
 30
0.0
 40
3.5
 41
0.0
 71
     5
 72
     1
  1
\A1;R0.2
  7
SLDTEXTSTYLE0
 11
0.5213324940417037
 21
-0.8533536375127589
 31
0.0
 73
     1
 44
1.0
  0
SOLID
  5
243
330
23E
100
AcDbEntity
  8
치수문자_일반주서
 62
     0
100
AcDbTrace
 10
18.82738615354747
 20
-4.50046286062482
 30
0.0
 11
17.88812824985842
 21
-5.074276159066722
 31
0.0
 12
16.63631730637724
 22
-1.969595798778641
 32
0.0
 13
16.63631730637724
 23
-1.969595798778641
 33
0.0
  0
LINE
  5
244
330
23E
100
AcDbEntity
  8
치수문자_일반주서
 62
     0
100
AcDbLine
 10
16.44205080756891
 20
-1.798925071276109
 30
0.0
 11
16.62205080756891
 21
-1.798925071276109
 31
0.0
  0
LINE
  5
245
330
23E
100
AcDbEntity
  8
치수문자_일반주서
 62
     0
100
AcDbLine
 10
16.53205080756891
 20
-1.888925071276109
 30
0.0
 11
16.53205080756891
 21
-1.708925071276109
 31
0.0
  0
POINT
  5
246
330
23E
100
AcDbEntity
  8
Defpoints
 62
     0
100
AcDbPoint
 10
16.63631730637724
 20
-1.969595798778641
 30
0.0
  0
POINT
  5
247
330
23E
100
AcDbEntity
  8
Defpoints
 62
     0
100
AcDbPoint
 10
16.53205080756891
 20
-1.798925071276109
 30
0.0
  0
ENDBLK
  5
240
330
23E
100
AcDbEntity
  8
0
100
AcDbBlockEnd
  0
ENDSEC
  0
SECTION
  2
ENTITIES
  0
LINE
  5
C6
330
1F
100
AcDbEntity
  8
참조1
100
AcDbLine
 10
-15.77564223695981
 20
-2.499999999999974
 30
0.0
 11
-15.7756422369598
 21
-40.0
 31
0.0
  0
LINE
  5
C7
330
1F
100
AcDbEntity
  8
참조1
100
AcDbLine
 10
-15.7756422369598
 20
-40.0
 30
0.0
 11
-30.93398568371225
 21
-40.0
 31
0.0
  0
INSERT
  5
C9
330
1F
100
AcDbEntity
  8
0
  6
Continuous
 62
     7
100
AcDbBlockReference
 66
     1
  2
블럭10
 10
-29.71591516908501
 20
-52.04717430164393
 30
0.0
  0
ATTRIB
  5
CA
330
C9
100
AcDbEntity
  8
FORMAT
 62
     2
100
AcDbText
 10
-53.61980731179777
 20
-49.97180738881174
 30
0.0
 40
4.233333333333333
  1
SEME01040021004SE [ 4 FLUTE ]
 41
0.75
  7
SLDTEXTSTYLE0
 11
-53.61980731179777
 21
-52.08847405547841
 31
0.0
100
AcDbAttribute
  2
AUTOATTR0
 70
     0
 74
     1
  0
SEQEND
  5
CB
330
C9
100
AcDbEntity
  8
0
  6
Continuous
 62
     7
  0
HATCH
  5
CC
330
1F
100
AcDbEntity
  8
중심선
100
AcDbHatch
 10
0.0
 20
0.0
 30
0.0
210
0.0
220
0.0
230
1.0
  2
SOLID
 70
     1
 71
     0
 91
        1
 92
        0
 93
        4
 72
     1
 10
-24.00100586470416
 20
-35.8
 11
-27.44728110854144
 21
-35.8
 72
     1
 10
-27.44728110854144
 20
-35.8
 11
-29.57551096774547
 21
-38.33632558057259
 72
     1
 10
-29.57551096774547
 20
-38.33632558057259
 11
-26.12920263879504
 21
-38.3362861512701
 72
     1
 10
-26.12920263879504
 20
-38.3362861512701
 11
-24.00100586470416
 21
-35.8
 97
        0
 75
     0
 76
     1
 98
        1
 10
0.0
 20
0.0
  0
HATCH
  5
CD
330
1F
100
AcDbEntity
  8
중심선
100
AcDbHatch
 10
0.0
 20
0.0
 30
0.0
210
0.0
220
0.0
230
1.0
  2
SOLID
 70
     1
 71
     0
 91
        1
 92
        0
 93
        4
 72
     1
 10
-18.98824187366821
 20
-35.8
 11
-22.43451711750549
 21
-35.8
 72
     1
 10
-22.43451711750549
 20
-35.8
 11
-26.96565512586288
 21
-41.20000000000002
 72
     1
 10
-26.96565512586288
 20
-41.20000000000002
 11
-23.5193798820256
 21
-41.20000000000002
 72
     1
 10
-23.5193798820256
 20
-41.20000000000002
 11
-18.98824187366821
 21
-35.8
 97
        0
 75
     0
 76
     1
 98
        1
 10
0.0
 20
0.0
  0
HATCH
  5
CE
330
1F
100
AcDbEntity
  8
중심선
100
AcDbHatch
 10
0.0
 20
0.0
 30
0.0
210
0.0
220
0.0
230
1.0
  2
SOLID
 70
     1
 71
     0
 91
        1
 92
        0
 93
        4
 72
     1
 10
-13.97547788263232
 20
-35.80000000000003
 11
-17.42175312646943
 21
-35.8
 72
     1
 10
-17.42175312646943
 20
-35.8
 11
-24.47019002835868
 21
-44.20000000000002
 72
     1
 10
-24.47019002835868
 20
-44.20000000000002
 11
-21.0239147845214
 21
-44.20000000000002
 72
     1
 10
-21.0239147845214
 20
-44.20000000000002
 11
-13.97547788263232
 21
-35.80000000000003
 97
        0
 75
     0
 76
     1
 98
        1
 10
0.0
 20
0.0
  0
HATCH
  5
CF
330
1F
100
AcDbEntity
  8
중심선
100
AcDbHatch
 10
0.0
 20
0.0
 30
0.0
210
0.0
220
0.0
230
1.0
  2
SOLID
 70
     1
 71
     0
 91
        1
 92
        0
 93
        6
 72
     3
 10
-9.175587451620116
 20
-40.00000000005127
 11
3.960054785062284
 21
1.540850780301639E-10
 40
0.3939339440162633
 50
17.09539180608433
 51
320.0019657685079
 73
     0
 72
     1
 10
-7.49258779591952
 20
-38.5878940046383
 11
-5.187285922218482
 21
-36.65356729459038
 72
     3
 10
-9.175587451672962
 20
-40.00000000000015
 11
6.600054785286829
 21
-1.249000902703301E-13
 40
0.6363583540795982
 50
39.99873849337408
 51
368.4976242363725
 73
     1
 72
     1
 10
-2.750254959772352
 20
-39.03999999993002
 11
-10.49552014483704
 21
-39.03999999992999
 72
     1
 10
-10.49552014483704
 20
-39.03999999992999
 11
-10.49554518928297
 21
-40.95999999992991
 72
     1
 10
-10.49554518928297
 20
-40.95999999992991
 11
-6.054165419810936
 21
-40.95999999992988
 97
        0
 75
     0
 76
     1
 98
        1
 10
0.0
 20
0.0
  0
LINE
  5
102
330
1F
100
AcDbEntity
  8
참조1
100
AcDbLine
 10
67.03835494594202
 20
7.440000000000002
 30
0.0
 11
67.03835494594202
 21
-7.440000000000002
 31
0.0
  0
LINE
  5
103
330
1F
100
AcDbEntity
  8
참조1
100
AcDbLine
 10
79.73835494594202
 20
5.440000000000002
 30
0.0
 11
67.03835494594202
 21
5.440000000000002
 31
0.0
  0
SOLID
  5
104
330
1F
100
AcDbEntity
  8
참조1
100
AcDbTrace
 10
67.03835494594202
 20
5.440000000000002
 30
0.0
 11
73.38835494594201
 21
4.424000000000002
 31
0.0
 12
73.38835494594201
 22
6.456000000000002
 32
0.0
 13
73.38835494594201
 23
6.456000000000002
 33
0.0
  0
LINE
  5
105
330
1F
100
AcDbEntity
  8
참조1
100
AcDbLine
 10
79.73835494594202
 20
-5.440000000000002
 30
0.0
 11
67.03835494594202
 21
-5.440000000000002
 31
0.0
  0
SOLID
  5
106
330
1F
100
AcDbEntity
  8
참조1
100
AcDbTrace
 10
67.03835494594202
 20
-5.440000000000002
 30
0.0
 11
73.38835494594201
 21
-6.456000000000002
 31
0.0
 12
73.38835494594201
 22
-4.424000000000002
 32
0.0
 13
73.38835494594201
 23
-4.424000000000002
 33
0.0
  0
MTEXT
  5
107
330
1F
100
AcDbEntity
  8
참조1
100
AcDbMText
 10
76.4358450384123
 20
10.98821664464994
 30
0.0
 40
3.5
 41
0.0
 71
     1
 72
     1
  1
A
  7
SLDTEXTSTYLE0
 73
     1
 44
1.0
  0
MTEXT
  5
108
330
1F
100
AcDbEntity
  8
참조1
100
AcDbMText
 10
76.4358450384123
 20
0.1082166446499328
 30
0.0
 40
3.5
 41
0.0
 71
     1
 72
     1
  1
A
  7
SLDTEXTSTYLE0
 73
     1
 44
1.0
  0
LINE
  5
1CE
330
1F
100
AcDbEntity
  8
0
  6
Continuous
 62
     1
370
    15
100
AcDbLine
 10
16.01213663365314
 20
0.5798004731764337
 30
0.0
 11
15.98093589558636
 21
0.596707835925713
 31
0.0
1001
PE_URL
1000

  0
LINE
  5
1CF
330
1F
100
AcDbEntity
  8
0
  6
Continuous
 62
     1
370
    15
100
AcDbLine
 10
11.58870489365489
 20
-1.998925071276105
 30
0.0
 11
12.80829100365219
 21
-1.998925071276105
 31
0.0
1001
PE_URL
1000

  0
LINE
  5
1D0
330
1F
100
AcDbEntity
  8
0
  6
Continuous
 62
     1
370
    15
100
AcDbLine
 10
7.367007859197713
 20
2.001074928723895
 30
0.0
 11
6.732050807568896
 21
2.001074928723895
 31
0.0
1001
PE_URL
1000

  0
LINE
  5
1D1
330
1F
100
AcDbEntity
  8
0
  6
Continuous
 62
     1
370
    15
100
AcDbLine
 10
12.80829100365216
 20
2.001074928723895
 30
0.0
 11
11.58870489365492
 21
2.001074928723895
 31
0.0
1001
PE_URL
1000

  0
LINE
  5
1D2
330
1F
100
AcDbEntity
  8
0
  6
Continuous
 62
     1
370
    15
100
AcDbLine
 10
6.732050807568896
 20
-1.998925071276105
 30
0.0
 11
7.367007859197713
 21
-1.998925071276105
 31
0.0
1001
PE_URL
1000

  0
LINE
  5
1D3
330
1F
100
AcDbEntity
  8
외형선
  6
Continuous
370
    15
100
AcDbLine
 10
-82.66794919243108
 20
2.001074928723895
 30
0.0
 11
-83.26794919243108
 21
1.401074928723901
 31
0.0
  0
LINE
  5
1D4
330
1F
100
AcDbEntity
  8
외형선
  6
Continuous
370
    15
100
AcDbLine
 10
6.145769871548453
 20
-1.998925071276105
 30
0.0
 11
6.732050807568896
 21
-1.998925071276105
 31
0.0
  0
LINE
  5
1D5
330
1F
100
AcDbEntity
  8
외형선
  6
Continuous
370
    15
100
AcDbLine
 10
6.732050807568896
 20
2.001074928723895
 30
0.0
 11
6.145769871548453
 21
2.001074928723895
 31
0.0
  0
LINE
  5
1D6
330
1F
100
AcDbEntity
  8
0
  6
Continuous
 62
     1
370
    15
100
AcDbLine
 10
16.7320508075689
 20
-1.647572731371142
 30
0.0
 11
16.7320508075689
 21
0.1997225888194691
 31
0.0
1001
PE_URL
1000

  0
SPLINE
  5
1D7
330
1F
100
AcDbEntity
  8
0
  6
Continuous
 62
     1
370
    15
100
AcDbSpline
210
0.0
220
0.0
230
1.0
 70
     8
 71
     3
 72
    10
 73
     6
 74
     0
 42
0.000000001
 43
0.00000001
 40
0.0
 40
0.0
 40
0.0
 40
0.0
 40
0.5
 40
0.5
 40
1.0
 40
1.0
 40
1.0
 40
1.0
 10
16.53205080756888
 20
-1.758108362691594
 30
0.0
 10
16.58382031334565
 20
-1.772338923791906
 30
0.0
 10
16.63124658025342
 20
-1.770918633087931
 30
0.0
 10
16.70562734343031
 20
-1.734828186466082
 30
0.0
 10
16.7320508075691
 20
-1.698029720164577
 30
0.0
 10
16.7320508075689
 20
-1.647572731371142
 30
0.0
1001
PE_URL
1000

  0
SPLINE
  5
1D8
330
1F
100
AcDbEntity
  8
0
  6
Continuous
 62
     1
370
    15
100
AcDbSpline
210
0.0
220
0.0
230
1.0
 70
     8
 71
     3
 72
    18
 73
    14
 74
     0
 42
0.000000001
 43
0.00000001
 40
0.0
 40
0.0
 40
0.0
 40
0.0
 40
0.030480797461727
 40
0.130187638023304
 40
0.2298978841363193
 40
0.3296714105342719
 40
0.4295673434239484
 40
0.5294863425723972
 40
0.6235607171014934
 40
0.7175427930713387
 40
0.8115644917040264
 40
0.9057569464517226
 40
0.9999999999999999
 40
0.9999999999999999
 40
0.9999999999999999
 40
0.9999999999999999
 10
7.367007859197741
 20
1.986317043255454
 30
0.0
 10
7.46012546082261
 20
1.990522263489282
 30
0.0
 10
7.857843421750545
 20
2.008483331938919
 30
0.0
 10
8.560042823857458
 20
1.899066581940929
 30
0.0
 10
9.473940790802601
 20
1.662663638704572
 30
0.0
 10
10.38850751661067
 20
1.300929519489898
 30
0.0
 10
11.30399348852012
 20
0.8518813326349317
 30
0.0
 10
12.20218768216316
 20
0.3529136990649278
 30
0.0
 10
13.08180950293712
 20
-0.1583857991534074
 30
0.0
 10
13.94327433719897
 20
-0.6503093151311958
 30
0.0
 10
14.8051313691748
 20
-1.100076029667463
 30
0.0
 10
15.66824062467373
 20
-1.489476998395403
 30
0.0
 10
16.2440625399372
 20
-1.668548546464493
 30
0.0
 10
16.53205080756885
 20
-1.758108362691587
 30
0.0
1001
PE_URL
1000

  0
SPLINE
  5
1D9
330
1F
100
AcDbEntity
  8
0
  6
Continuous
 62
     1
370
    15
100
AcDbSpline
210
0.0
220
0.0
230
1.0
 70
     8
 71
     3
 72
    15
 73
    11
 74
     0
 42
0.000000001
 43
0.00000001
 40
0.0
 40
0.0
 40
0.0
 40
0.0
 40
0.129961152032065
 40
0.2599808943466891
 40
0.3898294933111084
 40
0.5195774156172713
 40
0.6493024178343476
 40
0.7790825282531848
 40
0.9016421711301384
 40
1.0
 40
1.0
 40
1.0
 40
1.0
 10
16.53205080756885
 20
0.2876203836756588
 30
0.0
 10
16.2268532750962
 20
0.4599714627354672
 30
0.0
 10
15.61632061819063
 20
0.8047513217546651
 30
0.0
 10
14.70063425971949
 20
1.260343495847849
 30
0.0
 10
13.78583745834419
 20
1.630440969534888
 30
0.0
 10
12.87183949956878
 20
1.886805403778141
 30
0.0
 10
11.95803801889866
 20
2.013507421050392
 30
0.0
 10
11.06105720817592
 20
1.997631793822706
 30
0.0
 10
10.23747192885429
 20
1.873120981912749
 30
0.0
 10
9.718627493258708
 20
1.70938642417137
 30
0.0
 10
9.487625337553823
 20
1.63648781871899
 30
0.0
1001
PE_URL
1000

  0
SPLINE
  5
1DA
330
1F
100
AcDbEntity
  8
0
  6
Continuous
 62
     1
370
    15
100
AcDbSpline
210
0.0
220
0.0
230
1.0
 70
     8
 71
     3
 72
    10
 73
     6
 74
     0
 42
0.000000001
 43
0.00000001
 40
0.0
 40
0.0
 40
0.0
 40
0.0
 40
0.5
 40
0.5
 40
1.0
 40
1.0
 40
1.0
 40
1.0
 10
16.7320508075689
 20
0.1997225888194691
 30
0.0
 10
16.7320508075689
 20
0.1971029611332966
 30
0.0
 10
16.70794291169773
 20
0.2028346109795649
 30
0.0
 10
16.63049969215248
 20
0.2347428843803527
 30
0.0
 10
16.5797599261299
 20
0.2603377964189875
 30
0.0
 10
16.53205080756888
 20
0.2876203836756446
 30
0.0
1001
PE_URL
1000

  0
SPLINE
  5
1DB
330
1F
100
AcDbEntity
  8
0
  6
Continuous
 62
     1
370
    15
100
AcDbSpline
210
0.0
220
0.0
230
1.0
 70
     8
 71
     3
 72
    17
 73
    13
 74
     0
 42
0.000000001
 43
0.00000001
 40
0.0
 40
0.0
 40
0.0
 40
0.0
 40
0.1115912230650141
 40
0.2231192368331129
 40
0.3346510599124422
 40
0.4462536657429874
 40
0.5579931904932102
 40
0.6697585162216955
 40
0.7749862827281121
 40
0.8801108078227191
 40
0.9852796532153306
 40
1.0
 40
1.0
 40
1.0
 40
1.0
 10
6.732050807568896
 20
0.3654642209072421
 30
0.0
 10
7.036828419439303
 20
0.1899674448899304
 30
0.0
 10
7.646211006138913
 20
-0.1609266994357483
 30
0.0
 10
8.560047115798852
 20
-0.683032939803141
 30
0.0
 10
9.473939614904879
 20
-1.155912893603187
 30
0.0
 10
10.38850792597037
 20
-1.549161663572455
 30
0.0
 10
11.30399302827306
 20
-1.834908702213241
 30
0.0
 10
12.20218907682261
 20
-1.989683352263796
 30
0.0
 10
13.08180470481406
 20
-2.014938692433958
 30
0.0
 10
13.94329224484378
 20
-1.906110105977127
 30
0.0
 10
14.55760743783424
 20
-1.76936626890101
 30
0.0
 10
14.88510497350944
 20
-1.645690894967231
 30
0.0
 10
14.92531608185635
 20
-1.63050566967739
 30
0.0
1001
PE_URL
1000

  0
SPLINE
  5
1DC
330
1F
100
AcDbEntity
  8
외형선
  6
Continuous
370
    15
100
AcDbSpline
210
0.0
220
0.0
230
1.0
 70
    24
 71
     3
 72
    12
 73
     8
 74
     0
 42
0.000000001
 43
0.00000001
 40
0.0
 40
0.0
 40
0.0
 40
0.0
 40
0.2026911574960852
 40
0.4165187150990358
 40
0.6303462727019853
 40
0.8441738303049399
 40
1.0
 40
1.0
 40
1.0
 40
1.0
 10
6.732050807568896
 20
1.972646488653695
 30
0.0
 10
6.732050807568896
 20
1.853486197643562
 30
0.0
 10
6.732050807568896
 20
1.608618627121501
 30
0.0
 10
6.732050807568953
 20
1.200830717769421
 30
0.0
 10
6.732050807568839
 20
0.8196212596193391
 30
0.0
 10
6.732050807568896
 20
0.5200704411553829
 30
0.0
 10
6.732050807568925
 20
0.4113112556847014
 30
0.0
 10
6.732050807568925
 20
0.365464220907235
 30
0.0
  0
SPLINE
  5
1DD
330
1F
100
AcDbEntity
  8
0
  6
Continuous
 62
     1
370
    15
100
AcDbSpline
210
0.0
220
0.0
230
1.0
 70
     8
 71
     3
 72
    34
 73
    30
 74
     0
 42
0.000000001
 43
0.00000001
 40
0.0
 40
0.0
 40
0.0
 40
0.0
 40
0.0624999999999995
 40
0.0624999999999995
 40
0.124999999999999
 40
0.124999999999999
 40
0.1874999999999984
 40
0.1874999999999984
 40
0.2499999999999979
 40
0.2499999999999979
 40
0.3750000000000001
 40
0.3750000000000001
 40
0.4374999999999996
 40
0.4374999999999996
 40
0.4999999999999991
 40
0.4999999999999991
 40
0.5624999999999986
 40
0.5624999999999986
 40
0.6249999999999981
 40
0.6249999999999981
 40
0.6874999999999976
 40
0.6874999999999976
 40
0.749999999999997
 40
0.749999999999997
 40
0.8749999999999992
 40
0.8749999999999992
 40
0.9374999999999997
 40
0.9374999999999997
 40
1.0
 40
1.0
 40
1.0
 40
1.0
 10
16.53205080756891
 20
-1.998925071276105
 30
0.0
 10
16.32812879322034
 20
-1.961409884540387
 30
0.0
 10
16.1215113655187
 20
-1.934068416054728
 30
0.0
 10
15.71251852242511
 20
-1.859684200517862
 30
0.0
 10
15.51174964224305
 20
-1.812875960645798
 30
0.0
 10
15.10198094826768
 20
-1.700254611330415
 30
0.0
 10
14.89547757299948
 20
-1.634547529069557
 30
0.0
 10
14.48884819578629
 20
-1.487534906699125
 30
0.0
 10
14.28656415821325
 20
-1.406048808784902
 30
0.0
 10
13.67045634618921
 20
-1.139596752141514
 30
0.0
 10
13.26610676725298
 20
-0.9352341720954911
 30
0.0
 10
12.64998775232047
 20
-0.604377731880831
 30
0.0
 10
12.44766398168525
 20
-0.4909051561290596
 30
0.0
 10
12.04107861910666
 20
-0.2596955752390002
 30
0.0
 10
11.83458087545182
 20
-0.1415169431564323
 30
0.0
 10
11.42478983396904
 20
0.0944971413293629
 30
0.0
 10
11.22401324976738
 20
0.2118410115787768
 30
0.0
 10
10.81504984018852
 20
0.4445377480790285
 30
0.0
 10
10.60843043216198
 20
0.5595663155987154
 30
0.0
 10
10.20054935102974
 20
0.7816340785900309
 30
0.0
 10
9.999250393160736
 20
0.8887216141115175
 30
0.0
 10
9.588857493119463
 20
1.093892775390891
 30
0.0
 10
9.382607324021222
 20
1.191430285974505
 30
0.0
 10
8.775060889972792
 20
1.462320518183468
 30
0.0
 10
8.361584634307462
 20
1.617026360939249
 30
0.0
 10
7.753916105339272
 20
1.793002659932682
 30
0.0
 10
7.547650948833677
 20
1.842962826735601
 30
0.0
 10
7.137281779553462
 20
1.922919077931766
 30
0.0
 10
6.9360205767602
 20
1.952848840009516
 30
0.0
 10
6.732050807569351
 20
1.972646488650412
 30
0.0
1001
PE_URL
1000

  0
SPLINE
  5
1DE
330
1F
100
AcDbEntity
  8
0
  6
Continuous
 62
     1
370
    15
100
AcDbSpline
210
0.0
220
0.0
230
1.0
 70
     8
 71
     3
 72
    13
 73
     9
 74
     0
 42
0.000000001
 43
0.00000001
 40
0.0
 40
0.0
 40
0.0
 40
0.0
 40
0.1121466115661568
 40
0.2898945266031406
 40
0.4677285003146335
 40
0.6451954308088875
 40
0.822536251787632
 40
1.0
 40
1.0
 40
1.0
 40
1.0
 10
11.58870489365489
 20
-1.98216974440399
 30
0.0
 10
11.40716271402559
 20
-1.984011663481496
 30
0.0
 10
10.93788340645511
 20
-1.988772950974365
 30
0.0
 10
10.18051680859364
 20
-1.851581872303029
 30
0.0
 10
9.317190106294504
 20
-1.602350860216404
 30
0.0
 10
8.455079643342685
 20
-1.247902286815531
 30
0.0
 10
7.593664373621635
 20
-0.8194998713539476
 30
0.0
 10
7.019321659398713
 20
-0.496496815503022
 30
0.0
 10
6.732050807569408
 20
-0.3349393330105244
 30
0.0
1001
PE_URL
1000

  0
LINE
  5
1DF
330
1F
100
AcDbEntity
  8
외형선
  6
Continuous
370
    15
100
AcDbLine
 10
6.732050807568896
 20
-0.334939333011917
 30
0.0
 11
6.732050807568896
 21
0.3654642209072421
 31
0.0
  0
LINE
  5
1E0
330
1F
100
AcDbEntity
  8
외형선
  6
Continuous
370
    15
100
AcDbLine
 10
6.732050807568896
 20
1.972646488653695
 30
0.0
 11
6.732050807568896
 21
2.001074928723895
 31
0.0
  0
SPLINE
  5
1E1
330
1F
100
AcDbEntity
  8
0
  6
Continuous
 62
     1
370
    15
100
AcDbSpline
210
0.0
220
0.0
230
1.0
 70
     8
 71
     3
 72
    10
 73
     6
 74
     0
 42
0.000000001
 43
0.00000001
 40
0.0
 40
0.0
 40
0.0
 40
0.0
 40
0.5
 40
0.5
 40
1.0
 40
1.0
 40
1.0
 40
1.0
 10
16.53205080756888
 20
0.9525338859073003
 30
0.0
 10
16.58382031334565
 20
0.9262225404455364
 30
0.0
 10
16.63124658025342
 20
0.8871670384528301
 30
0.0
 10
16.70562734343031
 20
0.8022102293230802
 30
0.0
 10
16.7320508075691
 20
0.7559617094304869
 30
0.0
 10
16.7320508075689
 20
0.7235435390184506
 30
0.0
1001
PE_URL
1000

  0
LINE
  5
1E2
330
1F
100
AcDbEntity
  8
0
  6
Continuous
 62
     1
370
    15
100
AcDbLine
 10
16.7320508075689
 20
0.1997225888194691
 30
0.0
 11
16.7320508075689
 21
0.7235435390184506
 31
0.0
1001
PE_URL
1000

  0
SPLINE
  5
1E3
330
1F
100
AcDbEntity
  8
0
  6
Continuous
 62
     1
370
    15
100
AcDbSpline
210
0.0
220
0.0
230
1.0
 70
     8
 71
     3
 72
    12
 73
     8
 74
     0
 42
0.000000001
 43
0.00000001
 40
0.0
 40
0.0
 40
0.0
 40
0.0
 40
0.0735266250792814
 40
0.3048305698626272
 40
0.5362320319451304
 40
0.7680537503647115
 40
1.0
 40
1.0
 40
1.0
 40
1.0
 10
12.80829100365216
 20
1.987670442199089
 30
0.0
 10
12.89955221492181
 20
1.991437586972395
 30
0.0
 10
13.27790776990179
 20
2.007055614955647
 30
0.0
 10
13.94326171560277
 20
1.908786920030522
 30
0.0
 10
14.80513474230005
 20
1.695376158842535
 30
0.0
 10
15.66823978022612
 20
1.373157713711549
 30
0.0
 10
16.24406225840426
 20
1.092766925402103
 30
0.0
 10
16.53205080756885
 20
0.9525338859073145
 30
0.0
1001
PE_URL
1000

  0
SPLINE
  5
1E4
330
1F
100
AcDbEntity
  8
0
  6
Continuous
 62
     1
370
    15
100
AcDbSpline
210
0.0
220
0.0
230
1.0
 70
     8
 71
     3
 72
    11
 73
     7
 74
     0
 42
0.000000001
 43
0.00000001
 40
0.0
 40
0.0
 40
0.0
 40
0.0
 40
0.3317780782507785
 40
0.6633682254216483
 40
0.9949696982678263
 40
0.9999999999999999
 40
0.9999999999999999
 40
0.9999999999999999
 40
0.9999999999999999
 10
6.732050807568896
 20
-1.965450037744148
 30
0.0
 10
7.036827427802848
 20
-1.984927909103277
 30
0.0
 10
7.646208031791332
 20
-2.02387261885211
 30
0.0
 10
8.560059005496498
 20
-1.893516250076033
 30
0.0
 10
9.173770644334553
 20
-1.75654180594406
 30
0.0
 10
9.483004444816714
 20
-1.636137172404531
 30
0.0
 10
9.487625337553794
 20
-1.6343379612712
 30
0.0
1001
PE_URL
1000

  0
SPLINE
  5
1E5
330
1F
100
AcDbEntity
  8
외형선
  6
Continuous
370
    15
100
AcDbSpline
210
0.0
220
0.0
230
1.0
 70
    24
 71
     3
 72
    17
 73
    13
 74
     0
 42
0.000000001
 43
0.00000001
 40
0.0
 40
0.0
 40
0.0
 40
0.0
 40
0.0337097530555591
 40
0.1381911620100546
 40
0.2457025389020021
 40
0.35018394785619
 40
0.457695324748113
 40
0.5621767337026154
 40
0.669688110594882
 40
0.7741695195490572
 40
0.8816808964413191
 40
1.0
 40
1.0
 40
1.0
 40
1.0
 10
6.732050807568868
 20
-0.3349393330102401
 30
0.0
 10
6.732050807568896
 20
-0.3436341162541936
 30
0.0
 10
6.732050807568896
 20
-0.3792778718737111
 30
0.0
 10
6.732050807568839
 20
-0.4734658416596886
 30
0.0
 10
6.732050807568896
 20
-0.6128434314191225
 30
0.0
 10
6.732050807568896
 20
-0.7782789554820368
 30
0.0
 10
6.732050807568953
 20
-0.9592860518485935
 30
0.0
 10
6.732050807568925
 20
-1.154731086612188
 30
0.0
 10
6.732050807568896
 20
-1.355468286915055
 30
0.0
 10
6.732050807568953
 20
-1.559081784902844
 30
0.0
 10
6.73205080756901
 20
-1.766305978477348
 30
0.0
 10
6.732050807568925
 20
-1.896984034394777
 30
0.0
 10
6.732050807568896
 20
-1.965450037744148
 30
0.0
  0
LINE
  5
1E6
330
1F
100
AcDbEntity
  8
0
  6
Continuous
 62
     1
370
    15
100
AcDbLine
 10
16.7320508075689
 20
0.7235435390184506
 30
0.0
 11
16.7320508075689
 21
1.790079989403864
 31
0.0
1001
PE_URL
1000

  0
SPLINE
  5
1E7
330
1F
100
AcDbEntity
  8
0
  6
Continuous
 62
     1
370
    15
100
AcDbSpline
210
0.0
220
0.0
230
1.0
 70
     8
 71
     3
 72
     9
 73
     5
 74
     0
 42
0.000000001
 43
0.00000001
 40
0.0
 40
0.0
 40
0.0
 40
0.0
 40
0.5698916299202589
 40
0.9999999999999999
 40
0.9999999999999999
 40
0.9999999999999999
 40
0.9999999999999999
 10
16.53205080756891
 20
2.001074928723895
 30
0.0
 10
16.22684882891724
 20
1.944712053447866
 30
0.0
 10
15.69130494192541
 20
1.882017036484285
 30
0.0
 10
15.15568898715247
 20
1.707651572596248
 30
0.0
 10
14.92531608185635
 20
1.632655527125173
 30
0.0
1001
PE_URL
1000

  0
LINE
  5
1E8
330
1F
100
AcDbEntity
  8
0
  6
Continuous
 62
     1
370
    15
100
AcDbLine
 10
16.7320508075689
 20
-1.787930131956088
 30
0.0
 11
16.7320508075689
 21
-1.647572731371142
 31
0.0
1001
PE_URL
1000

  0
LINE
  5
1E9
330
1F
100
AcDbEntity
  8
외형선
  6
Continuous
370
    15
100
AcDbLine
 10
-82.66794919243108
 20
0.0010749287238951
 30
0.0
 11
-82.66794919243108
 21
2.001074928723895
 31
0.0
  0
LINE
  5
1EA
330
1F
100
AcDbEntity
  8
외형선
  6
Continuous
370
    15
100
AcDbLine
 10
-82.66794919243108
 20
-1.998925071276105
 30
0.0
 11
-82.66794919243108
 21
0.0010749287238951
 31
0.0
  0
SPLINE
  5
1EB
330
1F
100
AcDbEntity
  8
외형선
  6
Continuous
370
    15
100
AcDbSpline
210
0.0
220
0.0
230
1.0
 70
    24
 71
     3
 72
    11
 73
     7
 74
     0
 42
0.000000001
 43
0.00000001
 40
0.0
 40
0.0
 40
0.0
 40
0.0
 40
0.2772150325308019
 40
0.554430065061604
 40
0.8316450975924059
 40
1.0
 40
1.0
 40
1.0
 40
1.0
 10
5.732050807568896
 20
0.9100595350959111
 30
0.0
 10
5.732050807568896
 20
1.083220265605057
 30
0.0
 10
5.732050807568896
 20
1.429541726623341
 30
0.0
 10
5.732050807568925
 20
1.787621820046752
 30
0.0
 10
5.732050807568896
 20
1.986647413552575
 30
0.0
 10
5.732050807568896
 20
1.981084910515207
 30
0.0
 10
5.732050807568896
 20
1.978983164902303
 30
0.0
  0
LINE
  5
1EC
330
1F
100
AcDbEntity
  8
외형선
  6
Continuous
370
    15
100
AcDbLine
 10
5.732050807568896
 20
0.2400554631809655
 30
0.0
 11
5.732050807568896
 21
0.9100595350959111
 31
0.0
  0
SPLINE
  5
1ED
330
1F
100
AcDbEntity
  8
외형선
  6
Continuous
370
    15
100
AcDbSpline
210
0.0
220
0.0
230
1.0
 70
    24
 71
     3
 72
    10
 73
     6
 74
     0
 42
0.000000001
 43
0.00000001
 40
0.0
 40
0.0
 40
0.0
 40
0.0
 40
0.5000000000000001
 40
0.5000000000000001
 40
1.0
 40
1.0
 40
1.0
 40
1.0
 10
5.732050807568896
 20
-1.780426400318191
 30
0.0
 10
5.732050807568925
 20
-1.595785778868432
 30
0.0
 10
5.732050807568896
 20
-1.298015076595703
 30
0.0
 10
5.732050807568896
 20
-0.5809579861821277
 30
0.0
 10
5.732050807568896
 20
-0.1632907295084038
 30
0.0
 10
5.732050807568896
 20
0.2400554631809655
 30
0.0
  0
LINE
  5
1EE
330
1F
100
AcDbEntity
  8
외형선
  6
Continuous
370
    15
100
AcDbLine
 10
5.732050807568896
 20
-1.984595075626913
 30
0.0
 11
5.732050807568896
 21
-1.780426400318191
 31
0.0
  0
LINE
  5
1EF
330
1F
100
AcDbEntity
  8
외형선
  6
Continuous
370
    15
100
AcDbLine
 10
5.732050807568896
 20
-1.976833071529356
 30
0.0
 11
5.732050807568896
 21
-1.984595075626913
 31
0.0
  0
SPLINE
  5
1F1
330
1F
100
AcDbEntity
  8
외형선
  6
Continuous
370
    15
100
AcDbSpline
210
0.0
220
0.0
230
1.0
 70
    24
 71
     3
 72
    12
 73
     8
 74
     0
 42
0.000000001
 43
0.00000001
 40
0.0
 40
0.0
 40
0.0
 40
0.0
 40
0.1963573540295635
 40
0.4069720833323
 40
0.6175868126352648
 40
0.8282015419381192
 40
1.0
 40
1.0
 40
1.0
 40
1.0
 10
6.732050807568896
 20
-1.965450037744148
 30
0.0
 10
6.732050807568896
 20
-1.849038891527698
 30
0.0
 10
6.732050807568896
 20
-1.607764064144995
 30
0.0
 10
6.732050807568925
 20
-1.202142997456576
 30
0.0
 10
6.732050807568896
 20
-0.8177342983132476
 30
0.0
 10
6.732050807568953
 20
-0.505622424711504
 30
0.0
 10
6.732050807568953
 20
-0.3878488887972793
 30
0.0
 10
6.732050807568953
 20
-0.3349393330102757
 30
0.0
  0
SPLINE
  5
1F2
330
1F
100
AcDbEntity
  8
외형선
  6
Continuous
370
    15
100
AcDbSpline
210
0.0
220
0.0
230
1.0
 70
     8
 71
     3
 72
    10
 73
     6
 74
     0
 42
0.000000001
 43
0.00000001
 40
0.0
 40
0.0
 40
0.0
 40
0.0
 40
0.5
 40
0.5
 40
1.0
 40
1.0
 40
1.0
 40
1.0
 10
6.732050807568953
 20
-1.965450037744148
 30
0.0
 10
6.56561216864111
 20
-1.94793101570076
 30
0.0
 10
6.397407388446595
 20
-1.923496330712155
 30
0.0
 10
6.062699329586565
 20
-1.861483137708717
 30
0.0
 10
5.897921942865366
 20
-1.824066685613829
 30
0.0
 10
5.732188269918936
 20
-1.780426400318191
 30
0.0
  0
SPLINE
  5
1F3
330
1F
100
AcDbEntity
  8
외형선
  6
Continuous
370
    15
100
AcDbSpline
210
0.0
220
0.0
230
1.0
 70
     8
 71
     3
 72
    10
 73
     6
 74
     0
 42
0.000000001
 43
0.00000001
 40
0.0
 40
0.0
 40
0.0
 40
0.0
 40
0.5
 40
0.5
 40
1.0
 40
1.0
 40
1.0
 40
1.0
 10
6.732050807568896
 20
-0.3349393330102615
 30
0.0
 10
6.565612168641081
 20
-0.240150582738508
 30
0.0
 10
6.397407388446595
 20
-0.1438570841128666
 30
0.0
 10
6.062699329586565
 20
0.0487485814889368
 30
0.0
 10
5.89792194286531
 20
0.1447235541803025
 30
0.0
 10
5.732188269918936
 20
0.2400554631809655
 30
0.0
  0
SPLINE
  5
1F4
330
1F
100
AcDbEntity
  8
외형선
  6
Continuous
370
    15
100
AcDbSpline
210
0.0
220
0.0
230
1.0
 70
     8
 71
     3
 72
    10
 73
     6
 74
     0
 42
0.000000001
 43
0.00000001
 40
0.0
 40
0.0
 40
0.0
 40
0.0
 40
0.5
 40
0.5
 40
1.0
 40
1.0
 40
1.0
 40
1.0
 10
6.732050807568953
 20
0.3654642209072421
 30
0.0
 10
6.56561216864111
 20
0.4600103422545487
 30
0.0
 10
6.397407388446595
 20
0.5536192157481139
 30
0.0
 10
6.062699329586565
 20
0.7360287850558365
 30
0.0
 10
5.897921942865366
 20
0.8245297849670834
 30
0.0
 10
5.732188269918936
 20
0.9100595350959111
 30
0.0
  0
SPLINE
  5
1F5
330
1F
100
AcDbEntity
  8
외형선
  6
Continuous
370
    15
100
AcDbSpline
210
0.0
220
0.0
230
1.0
 70
     8
 71
     3
 72
    10
 73
     6
 74
     0
 42
0.000000001
 43
0.00000001
 40
0.0
 40
0.0
 40
0.0
 40
0.0
 40
0.5
 40
0.5
 40
1.0
 40
1.0
 40
1.0
 40
1.0
 10
6.732050807568896
 20
1.972646488650454
 30
0.0
 10
6.565612168641081
 20
1.988801302703692
 30
0.0
 10
6.397407388446595
 20
1.998141385661533
 30
0.0
 10
6.062699329586565
 20
2.0028258984008
 30
0.0
 10
5.89792194286531
 20
1.998219111065836
 30
0.0
 10
5.732188269918936
 20
1.986745672868203
 30
0.0
  0
SPLINE
  5
1F6
330
1F
100
AcDbEntity
  8
외형선
  6
Continuous
370
    15
100
AcDbSpline
210
0.0
220
0.0
230
1.0
 70
    24
 71
     3
 72
    13
 73
     9
 74
     0
 42
0.000000001
 43
0.00000001
 40
0.0
 40
0.0
 40
0.0
 40
0.0
 40
0.0123860157436718
 40
0.2282174652140065
 40
0.44404891468433
 40
0.65988036415465
 40
0.8757118136249965
 40
1.0
 40
1.0
 40
1.0
 40
1.0
 10
6.732050807568896
 20
0.3654642209072563
 30
0.0
 10
6.732050807568896
 20
0.367921716189187
 30
0.0
 10
6.732050807568896
 20
0.4132020836314396
 30
0.0
 10
6.732050807568953
 20
0.6165627612172457
 30
0.0
 10
6.732050807568925
 20
0.9527611038267381
 30
0.0
 10
6.732050807568896
 20
1.355108193237854
 30
0.0
 10
6.732050807568953
 20
1.7074640753954
 30
0.0
 10
6.732050807568896
 20
1.901676449764317
 30
0.0
 10
6.732050807568896
 20
1.97264648865049
 30
0.0
  0
LINE
  5
1F7
330
1F
100
AcDbEntity
  8
외형선
  6
Continuous
370
    15
100
AcDbLine
 10
6.145769871548453
 20
-1.998090704226314
 30
0.0
 11
5.732188269918936
 21
-1.98459581542042
 31
0.0
  0
LINE
  5
1F8
330
1F
100
AcDbEntity
  8
중심선
100
AcDbLine
 10
-85.08349086245644
 20
0.0010749287238943
 30
0.0
 11
19.7320508075689
 21
0.001074928723888
 31
0.0
  0
CIRCLE
  5
1F9
330
1F
100
AcDbEntity
  8
해칭선
100
AcDbCircle
 10
0.0
 20
0.0
 30
0.0
 40
3.000000000000003
  0
DIMENSION
  5
1FA
330
1F
100
AcDbEntity
  8
치수문자_일반주서
100
AcDbDimension
  2
*D13
 10
26.73205080756892
 20
-1.998925071276068
 30
0.0
 11
26.73205080756887
 21
11.66757492872394
 31
0.0
 70
   160
  1
%%c<>
 71
     2
 42
4.0
 52
-270.0
  3
SLDDIMSTYLE0
100
AcDbAlignedDimension
 13
16.7320508075689
 23
2.001074928723895
 33
0.0
 14
16.7320508075689
 24
-1.998925071276105
 34
0.0
 50
90.0000000000002
100
AcDbRotatedDimension
  0
DIMENSION
  5
1FB
102
{ACAD_XDICTIONARY
360
1FC
102
}
330
1F
100
AcDbEntity
  8
치수문자_일반주서
100
AcDbDimension
  2
*D14
 10
-93.26794919243108
 20
-1.998925071276146
 30
0.0
 11
-93.26794919243113
 21
12.66757492872387
 31
0.0
 70
   160
  1
%%c<>
 71
     2
 42
4.0
 52
-270.0
  3
SLDDIMSTYLE0
100
AcDbAlignedDimension
 13
-82.66794919243108
 23
2.001074928723895
 33
0.0
 14
-82.66794919243108
 24
-1.998925071276105
 34
0.0
 50
90.0000000000002
100
AcDbRotatedDimension
1001
ENABLE_CUSTOM_SPLIT
1070
     1
  0
DIMENSION
  5
1FE
330
1F
100
AcDbEntity
  8
치수문자_일반주서
100
AcDbDimension
  2
*D15
 10
6.732050807568896
 20
13.0010749287239
 30
0.0
 11
11.73205080756895
 21
13.0010749287239
 31
0.0
 70
   160
  1
<>
 71
     2
 42
10.0
  3
SLDDIMSTYLE1
100
AcDbAlignedDimension
 13
16.7320508075689
 23
2.001074928723895
 33
0.0
 14
6.732050807568896
 24
1.972646488653695
 34
0.0
 50
-0.0000000000002036
100
AcDbRotatedDimension
1001
PE_URL
1000

  0
DIMENSION
  5
1FF
102
{ACAD_XDICTIONARY
360
252
102
}
330
1F
100
AcDbEntity
  8
치수문자_일반주서
100
AcDbDimension
  2
*D16
 10
-83.26794919243108
 20
23.0010749287239
 30
0.0
 11
-33.2679491924311
 21
23.0010749287239
 31
0.0
 70
   160
  1
<>
 71
     2
 42
99.99999999999997
  3
SLDDIMSTYLE1
100
AcDbAlignedDimension
 13
16.7320508075689
 23
2.001074928723895
 33
0.0
 14
-83.26794919243108
 24
1.401074928723901
 34
0.0
 50
0.0000000000000058
100
AcDbRotatedDimension
1001
PE_URL
1000

1001
ENABLE_CUSTOM_SPLIT
1070
     1
  0
INSERT
  5
200
330
1F
100
AcDbEntity
  8
해칭선
100
AcDbBlockReference
  2
SW_DOWELSYMBOL_0
 10
0.0
 20
0.0
 30
0.0
  0
ARC
  5
201
330
1F
100
AcDbEntity
  8
0
  6
Continuous
 62
     1
370
    15
100
AcDbCircle
 10
16.53205080756891
 20
1.801074928723892
 30
0.0
 40
0.1999999999999999
100
AcDbArc
 50
0.0
 51
90.0
1001
PE_URL
1000

  0
ARC
  5
202
330
1F
100
AcDbEntity
  8
0
  6
Continuous
 62
     1
370
    15
100
AcDbCircle
 10
16.53205080756891
 20
-1.798925071276109
 30
0.0
 40
0.1999999999999999
100
AcDbArc
 50
270.0
 51
0.0
1001
PE_URL
1000

  0
DIMENSION
  5
203
330
1F
100
AcDbEntity
  8
치수문자_일반주서
100
AcDbDimension
  2
*D17
 10
16.53205080756891
 20
-1.798925071276109
 30
0.0
 11
25.19521787490685
 21
-15.97940530948317
 31
0.0
 70
   164
 71
     5
 42
0.1999999999999772
  3
SLDDIMSTYLE1
100
AcDbRadialDimension
 15
16.63631730637724
 25
-1.969595798778641
 35
0.0
 40
0.0
1001
ACAD
1000
DSTYLE
1002
{
1070
    78
1070
     8
1002
}
1001
ACAD_DSTYLE_DIMRADIAL_EXTENSION
1070
   387
1070
     1
1070
   388
1040
4.71238898038469
1070
   390
1040
6.283185307179585
1001
PE_URL
1000

  0
LINE
  5
204
330
1F
100
AcDbEntity
  8
외형선
  6
Continuous
370
    15
100
AcDbLine
 10
6.141729051030495
 20
2.001074928723895
 30
0.0
 11
-82.66794919243108
 21
2.001074928723895
 31
0.0
  0
LINE
  5
205
330
1F
100
AcDbEntity
  8
외형선
  6
Continuous
370
    15
100
AcDbLine
 10
-82.66794919243108
 20
-1.998925071276119
 30
0.0
 11
5.732188269918936
 21
-1.98459581542042
 31
0.0
  0
LINE
  5
206
330
1F
100
AcDbEntity
  8
외형선
  6
Continuous
370
    15
100
AcDbLine
 10
-82.66794919243108
 20
-1.998925071276119
 30
0.0
 11
-83.26794919243108
 21
-1.398925071276118
 31
0.0
  0
LINE
  5
207
330
1F
100
AcDbEntity
  8
외형선
  6
Continuous
370
    15
100
AcDbLine
 10
-83.26794919243108
 20
0.0010749287238951
 30
0.0
 11
-83.26794919243108
 21
-1.398925071276118
 31
0.0
  0
LINE
  5
251
330
1F
100
AcDbEntity
  8
외형선
  6
Continuous
370
    15
100
AcDbLine
 10
-83.26794919243108
 20
0.0010749287238951
 30
0.0
 11
-83.26794919243108
 21
1.401074928723901
 31
0.0
  0
ENDSEC
  0
SECTION
  2
OBJECTS
  0
DICTIONARY
  5
C
330
0
100
AcDbDictionary
281
     1
  3
ACAD_DETAILVIEWSTYLE
350
24F
  3
ACAD_GROUP
350
D
  3
ACAD_LAYOUT
350
1A
  3
ACAD_MLINESTYLE
350
17
  3
ACAD_PLOTSETTINGS
350
19
  3
ACAD_PLOTSTYLENAME
350
E
  3
ACAD_SCALELIST
350
47
  3
ACAD_SECTIONVIEWSTYLE
350
250
  3
AcDbVariableDictionary
350
24A
  3
APPDATA
350
131
  3
DWGPROPS
350
257
  0
DICTIONARY
  5
1C9
330
2
100
AcDbDictionary
280
     1
281
     1
  3
ACAD_LAYERSTATES
360
1CA
  0
DICTIONARY
  5
255
330
1F
100
AcDbDictionary
280
     1
281
     1
  3
DIM_BOUNDING_BOXES_V1
360
256
  0
DICTIONARY
  5
1FC
330
1FB
100
AcDbDictionary
280
     1
281
     1
  3
ACAD_CUSTOM_BREAKDATA
360
1FD
  0
DICTIONARY
  5
252
330
1FF
100
AcDbDictionary
280
     1
281
     1
  3
ACAD_CUSTOM_BREAKDATA
360
254
  0
DICTIONARY
  5
24F
102
{ACAD_REACTORS
330
C
102
}
330
C
100
AcDbDictionary
281
     1
  0
DICTIONARY
  5
D
102
{ACAD_REACTORS
330
C
102
}
330
C
100
AcDbDictionary
281
     1
  0
DICTIONARY
  5
1A
102
{ACAD_REACTORS
330
C
102
}
330
C
100
AcDbDictionary
281
     1
  3
Layout1
350
1E
  3
Layout2
350
26
  3
Model
350
22
  0
DICTIONARY
  5
17
102
{ACAD_REACTORS
330
C
102
}
330
C
100
AcDbDictionary
281
     1
  3
Standard
350
18
  0
DICTIONARY
  5
19
102
{ACAD_REACTORS
330
C
102
}
330
C
100
AcDbDictionary
281
     1
  0
ACDBDICTIONARYWDFLT
  5
E
102
{ACAD_REACTORS
330
C
102
}
330
C
100
AcDbDictionary
281
     1
  3
Normal
350
F
100
AcDbDictionaryWithDefault
340
F
  0
DICTIONARY
  5
47
102
{ACAD_REACTORS
330
C
102
}
330
C
100
AcDbDictionary
281
     1
  3
A0
350
48
  3
A1
350
49
  3
A2
350
4A
  3
A3
350
4B
  3
A4
350
4C
  3
A5
350
4D
  3
A6
350
4E
  3
A7
350
4F
  3
A8
350
50
  3
A9
350
51
  3
B0
350
52
  3
B1
350
53
  3
B2
350
54
  3
B3
350
55
  3
B4
350
56
  3
B5
350
57
  3
B6
350
58
  3
B7
350
59
  3
B8
350
5A
  3
B9
350
5B
  3
C0
350
5C
  3
C1
350
5D
  3
C2
350
5E
  3
C3
350
5F
  3
C4
350
60
  3
C5
350
61
  3
C6
350
62
  3
C7
350
63
  3
C8
350
64
  3
C9
350
65
  3
D0
350
66
  3
D1
350
67
  3
D2
350
68
  0
DICTIONARY
  5
250
102
{ACAD_REACTORS
330
C
102
}
330
C
100
AcDbDictionary
281
     1
  0
DICTIONARY
  5
24A
102
{ACAD_REACTORS
330
C
102
}
330
C
100
AcDbDictionary
281
     1
  0
DICTIONARY
  5
131
102
{ACAD_REACTORS
330
C
102
}
330
C
100
AcDbDictionary
281
     1
  0
XRECORD
  5
257
102
{ACAD_REACTORS
330
C
102
}
330
C
100
AcDbXrecord
280
     1
  1
DWGPROPS COOKIE
  2

  3

  4

  6

  7

  8
12016016
  9

300
=
301
=
302
=
303
=
304
=
305
=
306
=
307
=
308
=
309
=
 40
0.0
 41
2458269.429539387
 42
2459702.072272326
  1

 90
        0
  0
DICTIONARY
  5
1CA
102
{ACAD_REACTORS
330
1C9
102
}
330
1C9
100
AcDbDictionary
281
     1
  0
DICTIONARY
  5
256
102
{ACAD_REACTORS
330
255
102
}
330
255
100
AcDbDictionary
281
     1
  0
BREAKDATA
  5
1FD
102
{ACAD_REACTORS
330
1FC
102
}
330
1FC
100
AcDbBreakData
 70
     0
330
1FB
 90
        0
  0
BREAKDATA
  5
254
102
{ACAD_REACTORS
330
252
102
}
330
252
100
AcDbBreakData
 70
     0
330
1FF
 90
        0
  0
LAYOUT
  5
1E
102
{ACAD_REACTORS
330
1A
102
}
330
1A
100
AcDbPlotSettings
  1

  2
none_device
  4

  6

 40
0.0
 41
0.0
 42
0.0
 43
0.0
 44
0.0
 45
0.0
 46
0.0
 47
0.0
 48
0.0
 49
0.0
140
0.0
141
0.0
142
1.0
143
1.0
 70
   688
 72
     1
 73
     0
 74
     5
  7

 75
    16
147
1.0
148
0.0
149
0.0
100
AcDbLayout
  1
Layout1
 70
     1
 71
     1
 10
0.0
 20
0.0
 11
420.0
 21
297.0
 12
0.0
 22
0.0
 32
0.0
 14
1.000000000000000E+20
 24
1.000000000000000E+20
 34
1.000000000000000E+20
 15
-1.000000000000000E+20
 25
-1.000000000000000E+20
 35
-1.000000000000000E+20
146
0.0
 13
0.0
 23
0.0
 33
0.0
 16
1.0
 26
0.0
 36
0.0
 17
0.0
 27
1.0
 37
0.0
 76
     0
330
1B
  0
LAYOUT
  5
26
102
{ACAD_REACTORS
330
1A
102
}
330
1A
100
AcDbPlotSettings
  1

  2
none_device
  4

  6

 40
0.0
 41
0.0
 42
0.0
 43
0.0
 44
0.0
 45
0.0
 46
0.0
 47
0.0
 48
0.0
 49
0.0
140
0.0
141
0.0
142
1.0
143
1.0
 70
   688
 72
     1
 73
     0
 74
     5
  7

 75
    16
147
1.0
148
0.0
149
0.0
100
AcDbLayout
  1
Layout2
 70
     1
 71
     2
 10
0.0
 20
0.0
 11
0.0
 21
0.0
 12
0.0
 22
0.0
 32
0.0
 14
0.0
 24
0.0
 34
0.0
 15
0.0
 25
0.0
 35
0.0
146
0.0
 13
0.0
 23
0.0
 33
0.0
 16
1.0
 26
0.0
 36
0.0
 17
0.0
 27
1.0
 37
0.0
 76
     0
330
23
  0
LAYOUT
  5
22
102
{ACAD_REACTORS
330
1A
102
}
330
1A
100
AcDbPlotSettings
  1

  2
none_device
  4
ANSI_A_(11.00_x_8.50_Inches)
  6

 40
6.35
 41
19.05
 42
6.35000508
 43
19.05000254
 44
279.4
 45
215.9
 46
111.9131708047861
 47
108.4777443808569
 48
0.0
 49
0.0
140
0.0
141
0.0
142
0.0788700689601438
143
1.0
 70
  1696
 72
     0
 73
     0
 74
     0
  7

 75
     0
147
0.0235690232323232
148
0.0
149
0.0
100
AcDbLayout
  1
Model
 70
     1
 71
     0
 10
0.0
 20
0.0
 11
420.0
 21
297.0
 12
0.0
 22
0.0
 32
0.0
 14
-97.64294919243113
 24
-49.97180738881174
 34
0.0
 15
79.73835494594202
 25
27.3760749287239
 35
0.0
146
0.0
 13
0.0
 23
0.0
 33
0.0
 16
1.0
 26
0.0
 36
0.0
 17
0.0
 27
1.0
 37
0.0
 76
     0
330
1F
331
29
  0
MLINESTYLE
  5
18
102
{ACAD_REACTORS
330
17
102
}
330
17
100
AcDbMlineStyle
  2
Standard
 70
     0
  3

 62
   256
 51
90.0
 52
90.0
 71
     2
 49
0.5
 62
   256
  6
BYLAYER
 49
-0.5
 62
   256
  6
BYLAYER
  0
ACDBPLACEHOLDER
  5
F
102
{ACAD_REACTORS
330
E
102
}
330
E
  0
SCALE
  5
48
102
{ACAD_REACTORS
330
47
102
}
330
47
100
AcDbScale
 70
     0
300
1:1
140
1.0
141
1.0
290
     1
  0
SCALE
  5
49
102
{ACAD_REACTORS
330
47
102
}
330
47
100
AcDbScale
 70
     0
300
1:2
140
1.0
141
2.0
290
     0
  0
SCALE
  5
4A
102
{ACAD_REACTORS
330
47
102
}
330
47
100
AcDbScale
 70
     0
300
1:4
140
1.0
141
4.0
290
     0
  0
SCALE
  5
4B
102
{ACAD_REACTORS
330
47
102
}
330
47
100
AcDbScale
 70
     0
300
1:5
140
1.0
141
5.0
290
     0
  0
SCALE
  5
4C
102
{ACAD_REACTORS
330
47
102
}
330
47
100
AcDbScale
 70
     0
300
1:8
140
1.0
141
8.0
290
     0
  0
SCALE
  5
4D
102
{ACAD_REACTORS
330
47
102
}
330
47
100
AcDbScale
 70
     0
300
1:10
140
1.0
141
10.0
290
     0
  0
SCALE
  5
4E
102
{ACAD_REACTORS
330
47
102
}
330
47
100
AcDbScale
 70
     0
300
1:16
140
1.0
141
16.0
290
     0
  0
SCALE
  5
4F
102
{ACAD_REACTORS
330
47
102
}
330
47
100
AcDbScale
 70
     0
300
1:20
140
1.0
141
20.0
290
     0
  0
SCALE
  5
50
102
{ACAD_REACTORS
330
47
102
}
330
47
100
AcDbScale
 70
     0
300
1:30
140
1.0
141
30.0
290
     0
  0
SCALE
  5
51
102
{ACAD_REACTORS
330
47
102
}
330
47
100
AcDbScale
 70
     0
300
1:40
140
1.0
141
40.0
290
     0
  0
SCALE
  5
52
102
{ACAD_REACTORS
330
47
102
}
330
47
100
AcDbScale
 70
     0
300
1:50
140
1.0
141
50.0
290
     0
  0
SCALE
  5
53
102
{ACAD_REACTORS
330
47
102
}
330
47
100
AcDbScale
 70
     0
300
1:100
140
1.0
141
100.0
290
     0
  0
SCALE
  5
54
102
{ACAD_REACTORS
330
47
102
}
330
47
100
AcDbScale
 70
     0
300
2:1
140
2.0
141
1.0
290
     0
  0
SCALE
  5
55
102
{ACAD_REACTORS
330
47
102
}
330
47
100
AcDbScale
 70
     0
300
4:1
140
4.0
141
1.0
290
     0
  0
SCALE
  5
56
102
{ACAD_REACTORS
330
47
102
}
330
47
100
AcDbScale
 70
     0
300
8:1
140
8.0
141
1.0
290
     0
  0
SCALE
  5
57
102
{ACAD_REACTORS
330
47
102
}
330
47
100
AcDbScale
 70
     0
300
10:1
140
10.0
141
1.0
290
     0
  0
SCALE
  5
58
102
{ACAD_REACTORS
330
47
102
}
330
47
100
AcDbScale
 70
     0
300
100:1
140
100.0
141
1.0
290
     0
  0
SCALE
  5
59
102
{ACAD_REACTORS
330
47
102
}
330
47
100
AcDbScale
 70
     0
300
1/128" = 1'-0"
140
0.0078125
141
12.0
290
     0
  0
SCALE
  5
5A
102
{ACAD_REACTORS
330
47
102
}
330
47
100
AcDbScale
 70
     0
300
1/64" = 1'-0"
140
0.015625
141
12.0
290
     0
  0
SCALE
  5
5B
102
{ACAD_REACTORS
330
47
102
}
330
47
100
AcDbScale
 70
     0
300
1/32" = 1'-0"
140
0.03125
141
12.0
290
     0
  0
SCALE
  5
5C
102
{ACAD_REACTORS
330
47
102
}
330
47
100
AcDbScale
 70
     0
300
1/16" = 1'-0"
140
0.0625
141
12.0
290
     0
  0
SCALE
  5
5D
102
{ACAD_REACTORS
330
47
102
}
330
47
100
AcDbScale
 70
     0
300
3/32" = 1'-0"
140
0.09375
141
12.0
290
     0
  0
SCALE
  5
5E
102
{ACAD_REACTORS
330
47
102
}
330
47
100
AcDbScale
 70
     0
300
1/8" = 1'-0"
140
0.125
141
12.0
290
     0
  0
SCALE
  5
5F
102
{ACAD_REACTORS
330
47
102
}
330
47
100
AcDbScale
 70
     0
300
3/16" = 1'-0"
140
0.1875
141
12.0
290
     0
  0
SCALE
  5
60
102
{ACAD_REACTORS
330
47
102
}
330
47
100
AcDbScale
 70
     0
300
1/4" = 1'-0"
140
0.25
141
12.0
290
     0
  0
SCALE
  5
61
102
{ACAD_REACTORS
330
47
102
}
330
47
100
AcDbScale
 70
     0
300
3/8" = 1'-0"
140
0.375
141
12.0
290
     0
  0
SCALE
  5
62
102
{ACAD_REACTORS
330
47
102
}
330
47
100
AcDbScale
 70
     0
300
1/2" = 1'-0"
140
0.5
141
12.0
290
     0
  0
SCALE
  5
63
102
{ACAD_REACTORS
330
47
102
}
330
47
100
AcDbScale
 70
     0
300
3/4" = 1'-0"
140
0.75
141
12.0
290
     0
  0
SCALE
  5
64
102
{ACAD_REACTORS
330
47
102
}
330
47
100
AcDbScale
 70
     0
300
1" = 1'-0"
140
1.0
141
12.0
290
     0
  0
SCALE
  5
65
102
{ACAD_REACTORS
330
47
102
}
330
47
100
AcDbScale
 70
     0
300
1-1/2" = 1'-0"
140
1.5
141
12.0
290
     0
  0
SCALE
  5
66
102
{ACAD_REACTORS
330
47
102
}
330
47
100
AcDbScale
 70
     0
300
3" = 1'-0"
140
3.0
141
12.0
290
     0
  0
SCALE
  5
67
102
{ACAD_REACTORS
330
47
102
}
330
47
100
AcDbScale
 70
     0
300
6" = 1'-0"
140
6.0
141
12.0
290
     0
  0
SCALE
  5
68
102
{ACAD_REACTORS
330
47
102
}
330
47
100
AcDbScale
 70
     0
300
1'-0" = 1'-0"
140
12.0
141
12.0
290
     0
  0
ENDSEC
  0
EOF
