  0
SECTION
  2
HEADER
  9
$ACADVER
  1
AC1015
  9
$ACADMAINTVER
 70
     6
  9
$DWGCODEPAGE
  3
ANSI_949
  9
$INSBASE
 10
0.0
 20
0.0
 30
0.0
  9
$EXTMIN
 10
-97.64294919243115
 20
-49.97180738881174
 30
0.0
  9
$EXTMAX
 10
79.73835494594202
 20
27.3760749287239
 30
0.0
  9
$LIMMIN
 10
0.0
 20
0.0
  9
$LIMMAX
 10
420.0
 20
297.0
  9
$ORTHOMODE
 70
     1
  9
$REGENMODE
 70
     1
  9
$FILLMODE
 70
     1
  9
$QTEXTMODE
 70
     0
  9
$MIRRTEXT
 70
     1
  9
$LTSCALE
 40
1.0
  9
$ATTMODE
 70
     1
  9
$TEXTSIZE
 40
3.5
  9
$TRACEWID
 40
1.0
  9
$TEXTSTYLE
  7
Standard
  9
$CLAYER
  8
0
  9
$CELTYPE
  6
ByLayer
  9
$CECOLOR
 62
   256
  9
$CELTSCALE
 40
1.0
  9
$DISPSILH
 70
     0
  9
$DIMSCALE
 40
1.0
  9
$DIMASZ
 40
3.302
  9
$DIMEXO
 40
1.0
  9
$DIMDLI
 40
3.75
  9
$DIMRND
 40
0.0
  9
$DIMDLE
 40
0.0
  9
$DIMEXE
 40
1.0
  9
$DIMTP
 40
0.0
  9
$DIMTM
 40
0.0
  9
$DIMTXT
 40
3.5
  9
$DIMCEN
 40
2.5
  9
$DIMTSZ
 40
0.0
  9
$DIMTOL
 70
     0
  9
$DIMLIM
 70
     0
  9
$DIMTIH
 70
     1
  9
$DIMTOH
 70
     1
  9
$DIMSE1
 70
     0
  9
$DIMSE2
 70
     0
  9
$DIMTAD
 70
     1
  9
$DIMZIN
 70
     0
  9
$DIMBLK
  1

  9
$DIMASO
 70
     1
  9
$DIMSHO
 70
     1
  9
$DIMPOST
  1

  9
$DIMAPOST
  1

  9
$DIMALT
 70
     0
  9
$DIMALTD
 70
     3
  9
$DIMALTF
 40
0.0393700787401575
  9
$DIMLFAC
 40
1.0
  9
$DIMTOFL
 70
     1
  9
$DIMTVP
 40
0.0
  9
$DIMTIX
 70
     0
  9
$DIMSOXD
 70
     0
  9
$DIMSAH
 70
     0
  9
$DIMBLK1
  1

  9
$DIMBLK2
  1

  9
$DIMSTYLE
  2
ISO-25
  9
$DIMCLRD
 70
     0
  9
$DIMCLRE
 70
     0
  9
$DIMCLRT
 70
     0
  9
$DIMTFAC
 40
1.0
  9
$DIMGAP
 40
1.524
  9
$DIMJUST
 70
     0
  9
$DIMSD1
 70
     0
  9
$DIMSD2
 70
     0
  9
$DIMTOLJ
 70
     0
  9
$DIMTZIN
 70
     0
  9
$DIMALTZ
 70
     0
  9
$DIMALTTZ
 70
     0
  9
$DIMUPT
 70
     0
  9
$DIMDEC
 70
     2
  9
$DIMTDEC
 70
     2
  9
$DIMALTU
 70
     2
  9
$DIMALTTD
 70
     3
  9
$DIMTXSTY
  7
Standard
  9
$DIMAUNIT
 70
     0
  9
$DIMADEC
 70
     2
  9
$DIMALTRND
 40
0.0
  9
$DIMAZIN
 70
     0
  9
$DIMDSEP
 70
    44
  9
$DIMATFIT
 70
     3
  9
$DIMFRAC
 70
     0
  9
$DIMLDRBLK
  1

  9
$DIMLUNIT
 70
     2
  9
$DIMLWD
 70
    -2
  9
$DIMLWE
 70
    -2
  9
$DIMTMOVE
 70
     0
  9
$LUNITS
 70
     2
  9
$LUPREC
 70
     2
  9
$SKETCHINC
 40
1.0
  9
$FILLETRAD
 40
10.0
  9
$AUNITS
 70
     0
  9
$AUPREC
 70
     2
  9
$MENU
  1
.
  9
$ELEVATION
 40
0.0
  9
$PELEVATION
 40
0.0
  9
$THICKNESS
 40
0.0
  9
$LIMCHECK
 70
     0
  9
$CHAMFERA
 40
0.0
  9
$CHAMFERB
 40
0.0
  9
$CHAMFERC
 40
0.0
  9
$CHAMFERD
 40
0.0
  9
$SKPOLY
 70
     0
  9
$TDCREATE
 40
2458269.803972268
  9
$TDUCREATE
 40
2458269.428972268
  9
$TDUPDATE
 40
2459702.44265066
  9
$TDUUPDATE
 40
2459702.06765066
  9
$TDINDWG
 40
0.0023619097
  9
$TDUSRTIMER
 40
0.0023618981
  9
$USRTIMER
 70
     1
  9
$ANGBASE
 50
0.0
  9
$ANGDIR
 70
     0
  9
$PDMODE
 70
     0
  9
$PDSIZE
 40
-1.0
  9
$PLINEWID
 40
0.0
  9
$SPLFRAME
 70
     0
  9
$SPLINETYPE
 70
     6
  9
$SPLINESEGS
 70
     8
  9
$HANDSEED
  5
3A1
  9
$SURFTAB1
 70
     6
  9
$SURFTAB2
 70
     6
  9
$SURFTYPE
 70
     6
  9
$SURFU
 70
     6
  9
$SURFV
 70
     6
  9
$UCSBASE
  2

  9
$UCSNAME
  2

  9
$UCSORG
 10
0.0
 20
0.0
 30
0.0
  9
$UCSXDIR
 10
1.0
 20
0.0
 30
0.0
  9
$UCSYDIR
 10
0.0
 20
1.0
 30
0.0
  9
$UCSORTHOREF
  2

  9
$UCSORTHOVIEW
 70
     0
  9
$UCSORGTOP
 10
0.0
 20
0.0
 30
0.0
  9
$UCSORGBOTTOM
 10
0.0
 20
0.0
 30
0.0
  9
$UCSORGLEFT
 10
0.0
 20
0.0
 30
0.0
  9
$UCSORGRIGHT
 10
0.0
 20
0.0
 30
0.0
  9
$UCSORGFRONT
 10
0.0
 20
0.0
 30
0.0
  9
$UCSORGBACK
 10
0.0
 20
0.0
 30
0.0
  9
$PUCSBASE
  2

  9
$PUCSNAME
  2

  9
$PUCSORG
 10
0.0
 20
0.0
 30
0.0
  9
$PUCSXDIR
 10
1.0
 20
0.0
 30
0.0
  9
$PUCSYDIR
 10
0.0
 20
1.0
 30
0.0
  9
$PUCSORTHOREF
  2

  9
$PUCSORTHOVIEW
 70
     0
  9
$PUCSORGTOP
 10
0.0
 20
0.0
 30
0.0
  9
$PUCSORGBOTTOM
 10
0.0
 20
0.0
 30
0.0
  9
$PUCSORGLEFT
 10
0.0
 20
0.0
 30
0.0
  9
$PUCSORGRIGHT
 10
0.0
 20
0.0
 30
0.0
  9
$PUCSORGFRONT
 10
0.0
 20
0.0
 30
0.0
  9
$PUCSORGBACK
 10
0.0
 20
0.0
 30
0.0
  9
$USERI1
 70
     0
  9
$USERI2
 70
     0
  9
$USERI3
 70
     0
  9
$USERI4
 70
     0
  9
$USERI5
 70
     0
  9
$USERR1
 40
0.0
  9
$USERR2
 40
0.0
  9
$USERR3
 40
0.0
  9
$USERR4
 40
0.0
  9
$USERR5
 40
0.0
  9
$WORLDVIEW
 70
     1
  9
$SHADEDGE
 70
     3
  9
$SHADEDIF
 70
    70
  9
$TILEMODE
 70
     1
  9
$MAXACTVP
 70
    64
  9
$PINSBASE
 10
0.0
 20
0.0
 30
0.0
  9
$PLIMCHECK
 70
     0
  9
$PEXTMIN
 10
1.000000000000000E+20
 20
1.000000000000000E+20
 30
1.000000000000000E+20
  9
$PEXTMAX
 10
-1.000000000000000E+20
 20
-1.000000000000000E+20
 30
-1.000000000000000E+20
  9
$PLIMMIN
 10
0.0
 20
0.0
  9
$PLIMMAX
 10
0.0
 20
0.0
  9
$UNITMODE
 70
     0
  9
$VISRETAIN
 70
     1
  9
$PLINEGEN
 70
     0
  9
$PSLTSCALE
 70
     1
  9
$TREEDEPTH
 70
  3020
  9
$CMLSTYLE
  2
Standard
  9
$CMLJUST
 70
     0
  9
$CMLSCALE
 40
20.0
  9
$PROXYGRAPHICS
 70
     1
  9
$MEASUREMENT
 70
     1
  9
$CELWEIGHT
370
    -1
  9
$ENDCAPS
280
     0
  9
$JOINSTYLE
280
     0
  9
$LWDISPLAY
290
     1
  9
$INSUNITS
 70
     4
  9
$HYPERLINKBASE
  1

  9
$STYLESHEET
  1

  9
$XEDIT
290
     1
  9
$CEPSNTYPE
380
     0
  9
$PSTYLEMODE
290
     1
  9
$FINGERPRINTGUID
  2
{0D00511F-C441-4F2D-BA3E-12E2D700A7A2}
  9
$VERSIONGUID
  2
{FAEB1C32-E019-11D5-929B-00C0DF256EC4}
  9
$EXTNAMES
290
     1
  9
$PSVPSCALE
 40
0.0
  9
$OLESTARTUP
290
     0
  0
ENDSEC
  0
SECTION
  2
CLASSES
  0
CLASS
  1
ACDBDICTIONARYWDFLT
  2
AcDbDictionaryWithDefault
  3
ObjectDBX Classes
 90
        0
280
     0
281
     0
  0
CLASS
  1
VISUALSTYLE
  2
AcDbVisualStyle
  3
ObjectDBX Classes
 90
     4095
280
     0
281
     0
  0
CLASS
  1
MATERIAL
  2
AcDbMaterial
  3
ObjectDBX Classes
 90
     1153
280
     0
281
     0
  0
CLASS
  1
SCALE
  2
AcDbScale
  3
ObjectDBX Classes
 90
     1153
280
     0
281
     0
  0
CLASS
  1
SUN
  2
AcDbSun
  3
SCENEOE
 90
     1153
280
     0
281
     0
  0
CLASS
  1
ACDBPLACEHOLDER
  2
AcDbPlaceHolder
  3
ObjectDBX Classes
 90
        0
280
     0
281
     0
  0
CLASS
  1
LAYOUT
  2
AcDbLayout
  3
ObjectDBX Classes
 90
        0
280
     0
281
     0
  0
CLASS
  1
TABLESTYLE
  2
AcDbTableStyle
  3
ObjectDBX Classes
 90
     4095
280
     0
281
     0
  0
CLASS
  1
MLEADERSTYLE
  2
AcDbMLeaderStyle
  3
ACDB_MLEADERSTYLE_CLASS
 90
     4095
280
     0
281
     0
  0
CLASS
  1
DICTIONARYVAR
  2
AcDbDictionaryVar
  3
ObjectDBX Classes
 90
        0
280
     0
281
     0
  0
CLASS
  1
BREAKDATA
  2
AcDbBreakData
  3
ObjectDBX Classes
 90
     1024
280
     0
281
     0
  0
ENDSEC
  0
SECTION
  2
TABLES
  0
TABLE
  2
VPORT
  5
8
330
0
100
AcDbSymbolTable
 70
     1
  0
VPORT
  5
29
330
8
100
AcDbSymbolTableRecord
100
AcDbViewportTableRecord
  2
*Active
 70
     0
 10
0.0
 20
0.0
 11
1.0
 21
1.0
 12
-62.28486298911324
 22
11.082529864524
 13
0.0
 23
0.0
 14
10.0
 24
10.0
 15
10.0
 25
10.0
 16
0.0
 26
0.0
 36
1.0
 17
0.0
 27
0.0
 37
0.0
 40
143.691888606712
 41
1.531481481481481
 42
50.0
 43
0.0
 44
0.0
 50
0.0
 51
0.0
 71
    16
 72
  2000
 73
     1
 74
     3
 75
     0
 76
     0
 77
     0
 78
     0
281
     0
 65
     1
110
0.0
120
0.0
130
0.0
111
1.0
121
0.0
131
0.0
112
0.0
122
1.0
132
0.0
 79
     0
146
0.0
  0
ENDTAB
  0
TABLE
  2
LTYPE
  5
5
330
0
100
AcDbSymbolTable
 70
     6
  0
LTYPE
  5
14
330
5
100
AcDbSymbolTableRecord
100
AcDbLinetypeTableRecord
  2
ByBlock
 70
     0
  3

 72
    65
 73
     0
 40
0.0
  0
LTYPE
  5
15
330
5
100
AcDbSymbolTableRecord
100
AcDbLinetypeTableRecord
  2
ByLayer
 70
     0
  3

 72
    65
 73
     0
 40
0.0
  0
LTYPE
  5
16
330
5
100
AcDbSymbolTableRecord
100
AcDbLinetypeTableRecord
  2
Continuous
 70
     0
  3
Solid line
 72
    65
 73
     0
 40
0.0
  0
LTYPE
  5
6A
330
5
100
AcDbSymbolTableRecord
100
AcDbLinetypeTableRecord
  2
HIDDEN
 70
     0
  3
Hidden __ __ __ __ __ __ __ __ __ __ __ __ __ __
 72
    65
 73
     2
 40
1.905
 49
1.27
 74
     0
 49
-0.635
 74
     0
  0
LTYPE
  5
6B
330
5
100
AcDbSymbolTableRecord
100
AcDbLinetypeTableRecord
  2
PHANTOM
 70
     0
  3
Phantom ______  __  __  ______  __  __  ______
 72
    65
 73
     6
 40
12.7
 49
6.35
 74
     0
 49
-1.27
 74
     0
 49
1.27
 74
     0
 49
-1.27
 74
     0
 49
1.27
 74
     0
 49
-1.27
 74
     0
  0
LTYPE
  5
6C
330
5
100
AcDbSymbolTableRecord
100
AcDbLinetypeTableRecord
  2
CENTER
 70
     0
  3
Center ____ _ ____ _ ____ _ ____ _ ____ _ ____
 72
    65
 73
     4
 40
10.16
 49
6.35
 74
     0
 49
-1.27
 74
     0
 49
1.27
 74
     0
 49
-1.27
 74
     0
  0
LTYPE
  5
6D
330
5
100
AcDbSymbolTableRecord
100
AcDbLinetypeTableRecord
  2
CENTERX2
 70
     0
  3
Center (2x) ________  __  ________  __  _____
 72
    65
 73
     4
 40
20.32
 49
12.7
 74
     0
 49
-2.54
 74
     0
 49
2.54
 74
     0
 49
-2.54
 74
     0
  0
LTYPE
  5
6E
330
5
100
AcDbSymbolTableRecord
100
AcDbLinetypeTableRecord
  2
DOT2
 70
     0
  3
Dot (.5x) ........................................
 72
    65
 73
     2
 40
0.635
 49
0.0
 74
     0
 49
-0.635
 74
     0
  0
ENDTAB
  0
TABLE
  2
LAYER
  5
2
102
{ACAD_XDICTIONARY
360
1CA
102
}
330
0
100
AcDbSymbolTable
 70
    18
  0
LAYER
  5
10
330
2
100
AcDbSymbolTableRecord
100
AcDbLayerTableRecord
  2
0
 70
     0
 62
     7
  6
Continuous
370
    -3
390
F
  0
LAYER
  5
6F
330
2
100
AcDbSymbolTableRecord
100
AcDbLayerTableRecord
  2
FORMAT
 70
     0
 62
     2
  6
Continuous
370
    -3
390
F
  0
LAYER
  5
70
330
2
100
AcDbSymbolTableRecord
100
AcDbLayerTableRecord
  2
외형선
 70
     0
 62
     4
  6
Continuous
370
    30
390
F
  0
LAYER
  5
71
330
2
100
AcDbSymbolTableRecord
100
AcDbLayerTableRecord
  2
숨은선
 70
     0
 62
     2
  6
HIDDEN
370
    15
390
F
  0
LAYER
  5
72
330
2
100
AcDbSymbolTableRecord
100
AcDbLayerTableRecord
  2
중심선
 70
     0
 62
     1
  6
CENTERX2
370
    -3
390
F
  0
LAYER
  5
73
330
2
100
AcDbSymbolTableRecord
100
AcDbLayerTableRecord
  2
파단선
 70
     0
 62
     4
  6
Continuous
370
    -3
390
F
  0
LAYER
  5
74
330
2
100
AcDbSymbolTableRecord
100
AcDbLayerTableRecord
  2
해칭선
 70
     0
 62
   100
  6
Continuous
370
    -3
390
F
  0
LAYER
  5
75
330
2
100
AcDbSymbolTableRecord
100
AcDbLayerTableRecord
  2
가는실선
 70
     0
 62
     4
  6
Continuous
370
    -3
390
F
  0
LAYER
  5
76
330
2
100
AcDbSymbolTableRecord
100
AcDbLayerTableRecord
  2
치수_보조선
 70
     0
 62
     4
  6
Continuous
370
    -3
390
F
  0
LAYER
  5
77
330
2
100
AcDbSymbolTableRecord
100
AcDbLayerTableRecord
  2
치수문자_일반주서
 70
     0
 62
     7
  6
Continuous
370
    15
390
F
  0
LAYER
  5
78
330
2
100
AcDbSymbolTableRecord
100
AcDbLayerTableRecord
  2
개별주서
 70
     0
 62
   100
  6
Continuous
370
    30
390
F
  0
LAYER
  5
79
330
2
100
AcDbSymbolTableRecord
100
AcDbLayerTableRecord
  2
중간선
 70
     0
 62
     2
  6
Continuous
370
    15
390
F
  0
LAYER
  5
7A
330
2
100
AcDbSymbolTableRecord
100
AcDbLayerTableRecord
  2
윤곽선
 70
     0
 62
     3
  6
Continuous
370
    40
390
F
  0
LAYER
  5
7B
330
2
100
AcDbSymbolTableRecord
100
AcDbLayerTableRecord
  2
중심마크
 70
     0
 62
   100
  6
Continuous
370
    30
390
F
  0
LAYER
  5
7C
330
2
100
AcDbSymbolTableRecord
100
AcDbLayerTableRecord
  2
가상선
 70
     0
 62
     4
  6
PHANTOM
370
    -3
390
F
  0
LAYER
  5
7D
330
2
100
AcDbSymbolTableRecord
100
AcDbLayerTableRecord
  2
특수지정선
 70
     0
 62
     5
  6
CENTERX2
370
    60
390
F
  0
LAYER
  5
7E
330
2
100
AcDbSymbolTableRecord
100
AcDbLayerTableRecord
  2
참조1
 70
     0
 62
    -4
  6
Continuous
370
    -3
390
F
  0
LAYER
  5
134
330
2
100
AcDbSymbolTableRecord
100
AcDbLayerTableRecord
  2
Defpoints
 70
     0
 62
     7
  6
Continuous
290
     0
370
    -3
390
F
  0
ENDTAB
  0
TABLE
  2
STYLE
  5
3
330
0
100
AcDbSymbolTable
 70
     2
  0
STYLE
  5
11
330
3
100
AcDbSymbolTableRecord
100
AcDbTextStyleTableRecord
  2
Standard
 70
     0
 40
0.0
 41
1.0
 50
0.0
 71
     0
 42
3.5
  3
txt
  4

  0
STYLE
  5
94
330
3
100
AcDbSymbolTableRecord
100
AcDbTextStyleTableRecord
  2
SLDTEXTSTYLE0
 70
     0
 40
0.0
 41
0.75
 50
0.0
 71
     0
 42
3.5
  3
TXT
  4

  0
ENDTAB
  0
TABLE
  2
VIEW
  5
6
330
0
100
AcDbSymbolTable
 70
     0
  0
ENDTAB
  0
TABLE
  2
UCS
  5
7
330
0
100
AcDbSymbolTable
 70
     0
  0
ENDTAB
  0
TABLE
  2
APPID
  5
9
330
0
100
AcDbSymbolTable
 70
     4
  0
APPID
  5
12
330
9
100
AcDbSymbolTableRecord
100
AcDbRegAppTableRecord
  2
ACAD
 70
     0
  0
APPID
  5
140
330
9
100
AcDbSymbolTableRecord
100
AcDbRegAppTableRecord
  2
PE_URL
 70
     0
  0
APPID
  5
141
330
9
100
AcDbSymbolTableRecord
100
AcDbRegAppTableRecord
  2
ACAD_DSTYLE_DIMRADIAL_EXTENSION
 70
     0
  0
APPID
  5
297
330
9
100
AcDbSymbolTableRecord
100
AcDbRegAppTableRecord
  2
ENABLE_CUSTOM_SPLIT
 70
     0
  0
ENDTAB
  0
TABLE
  2
DIMSTYLE
  5
A
330
0
100
AcDbSymbolTable
 70
     3
100
AcDbDimStyleTable
  0
DIMSTYLE
105
27
330
A
100
AcDbSymbolTableRecord
100
AcDbDimStyleTableRecord
  2
ISO-25
 70
     0
 41
2.5
 42
0.625
 43
3.75
 44
1.25
 73
     0
 74
     0
 77
     1
 78
     8
140
2.5
141
2.5
143
0.03937007874016
147
0.625
171
     3
172
     1
178
     0
271
     2
272
     2
274
     3
278
    44
283
     0
284
     8
340
11
  0
DIMSTYLE
105
D2
102
{ACAD_REACTORS
330
17C
330
18C
330
19C
330
2CA
330
2DA
330
2EC
330
34C
330
34D
330
350
102
}
330
A
100
AcDbSymbolTableRecord
100
AcDbDimStyleTableRecord
  2
SLDDIMSTYLE0
 70
     0
 41
3.302
 44
0.0
 45
0.000000001
 73
     0
 74
     0
 77
     1
 78
    12
 79
     3
140
3.5
147
0.875
172
     1
173
     1
178
     0
271
     2
272
     2
276
     2
284
    12
289
     0
340
94
  0
DIMSTYLE
105
F9
102
{ACAD_REACTORS
330
1A9
330
1BF
330
2F9
330
30F
330
351
330
355
102
}
330
A
100
AcDbSymbolTableRecord
100
AcDbDimStyleTableRecord
  2
SLDDIMSTYLE1
 70
     0
 41
3.302
 44
0.0
 45
0.000000001
 73
     0
 74
     0
 77
     1
 78
    12
 79
     3
140
3.5
147
0.875
173
     1
178
     0
271
     2
272
     2
276
     2
284
    12
340
94
  0
ENDTAB
  0
TABLE
  2
BLOCK_RECORD
  5
1
330
0
100
AcDbSymbolTable
 70
    27
  0
BLOCK_RECORD
  5
1F
102
{ACAD_XDICTIONARY
360
39D
102
}
330
1
100
AcDbSymbolTableRecord
100
AcDbBlockTableRecord
  2
*Model_Space
340
22
  0
BLOCK_RECORD
  5
1B
330
1
100
AcDbSymbolTableRecord
100
AcDbBlockTableRecord
  2
*Paper_Space
340
1E
  0
BLOCK_RECORD
  5
23
330
1
100
AcDbSymbolTableRecord
100
AcDbBlockTableRecord
  2
*Paper_Space0
340
26
  0
BLOCK_RECORD
  5
7F
330
1
100
AcDbSymbolTableRecord
100
AcDbBlockTableRecord
  2
블럭10
340
0
102
{BLKREFS
331
CA
102
}
  0
BLOCK_RECORD
  5
D3
330
1
100
AcDbSymbolTableRecord
100
AcDbBlockTableRecord
  2
_D
340
0
  0
BLOCK_RECORD
  5
E0
330
1
100
AcDbSymbolTableRecord
100
AcDbBlockTableRecord
  2
_D_1
340
0
  0
BLOCK_RECORD
  5
ED
330
1
100
AcDbSymbolTableRecord
100
AcDbBlockTableRecord
  2
_D_2
340
0
  0
BLOCK_RECORD
  5
FA
330
1
100
AcDbSymbolTableRecord
100
AcDbBlockTableRecord
  2
_D_3
340
0
  0
BLOCK_RECORD
  5
10A
330
1
100
AcDbSymbolTableRecord
100
AcDbBlockTableRecord
  2
SW_DOWELSYMBOL_0
340
0
102
{BLKREFS
331
0
331
1B6
331
0
331
306
331
352
102
}
  0
BLOCK_RECORD
  5
1C0
330
1
100
AcDbSymbolTableRecord
100
AcDbBlockTableRecord
  2
*D8
340
0
  0
BLOCK_RECORD
  5
1CE
330
1
100
AcDbSymbolTableRecord
100
AcDbBlockTableRecord
  2
*D9
340
0
  0
BLOCK_RECORD
  5
1DD
330
1
100
AcDbSymbolTableRecord
100
AcDbBlockTableRecord
  2
*D10
340
0
  0
BLOCK_RECORD
  5
1EC
330
1
100
AcDbSymbolTableRecord
100
AcDbBlockTableRecord
  2
*D11
340
0
  0
BLOCK_RECORD
  5
1F8
330
1
100
AcDbSymbolTableRecord
100
AcDbBlockTableRecord
  2
*D12
340
0
  0
BLOCK_RECORD
  5
240
330
1
100
AcDbSymbolTableRecord
100
AcDbBlockTableRecord
  2
*D13
340
0
  0
BLOCK_RECORD
  5
24F
330
1
100
AcDbSymbolTableRecord
100
AcDbBlockTableRecord
  2
*D14
340
0
  0
BLOCK_RECORD
  5
25E
330
1
100
AcDbSymbolTableRecord
100
AcDbBlockTableRecord
  2
*D15
340
0
  0
BLOCK_RECORD
  5
26A
330
1
100
AcDbSymbolTableRecord
100
AcDbBlockTableRecord
  2
*D16
340
0
  0
BLOCK_RECORD
  5
276
330
1
100
AcDbSymbolTableRecord
100
AcDbBlockTableRecord
  2
*D17
340
0
  0
BLOCK_RECORD
  5
2CB
330
1
100
AcDbSymbolTableRecord
100
AcDbBlockTableRecord
  2
*D19
340
0
  0
BLOCK_RECORD
  5
2DD
330
1
100
AcDbSymbolTableRecord
100
AcDbBlockTableRecord
  2
*D20
340
0
  0
BLOCK_RECORD
  5
2ED
330
1
100
AcDbSymbolTableRecord
100
AcDbBlockTableRecord
  2
*D21
340
0
  0
BLOCK_RECORD
  5
2FA
330
1
100
AcDbSymbolTableRecord
100
AcDbBlockTableRecord
  2
*D22
340
0
  0
BLOCK_RECORD
  5
310
330
1
100
AcDbSymbolTableRecord
100
AcDbBlockTableRecord
  2
*D23
340
0
  0
BLOCK_RECORD
  5
35A
330
1
100
AcDbSymbolTableRecord
100
AcDbBlockTableRecord
  2
*D24
340
0
  0
BLOCK_RECORD
  5
369
330
1
100
AcDbSymbolTableRecord
100
AcDbBlockTableRecord
  2
*D25
340
0
  0
BLOCK_RECORD
  5
378
330
1
100
AcDbSymbolTableRecord
100
AcDbBlockTableRecord
  2
*D26
340
0
  0
BLOCK_RECORD
  5
384
330
1
100
AcDbSymbolTableRecord
100
AcDbBlockTableRecord
  2
*D27
340
0
  0
BLOCK_RECORD
  5
390
330
1
100
AcDbSymbolTableRecord
100
AcDbBlockTableRecord
  2
*D28
340
0
  0
ENDTAB
  0
ENDSEC
  0
SECTION
  2
BLOCKS
  0
BLOCK
  5
20
330
1F
100
AcDbEntity
  8
0
100
AcDbBlockBegin
  2
*Model_Space
 70
     0
 10
0.0
 20
0.0
 30
0.0
  3
*Model_Space
  1

  0
ENDBLK
  5
21
330
1F
100
AcDbEntity
  8
0
100
AcDbBlockEnd
  0
BLOCK
  5
1C
330
1B
100
AcDbEntity
 67
     1
  8
0
100
AcDbBlockBegin
  2
*Paper_Space
 70
     0
 10
0.0
 20
0.0
 30
0.0
  3
*Paper_Space
  1

  0
ENDBLK
  5
1D
330
1B
100
AcDbEntity
 67
     1
  8
0
100
AcDbBlockEnd
  0
BLOCK
  5
24
330
23
100
AcDbEntity
  8
0
100
AcDbBlockBegin
  2
*Paper_Space0
 70
     0
 10
0.0
 20
0.0
 30
0.0
  3
*Paper_Space0
  1

  0
ENDBLK
  5
25
330
23
100
AcDbEntity
  8
0
100
AcDbBlockEnd
  0
BLOCK
  5
80
330
7F
100
AcDbEntity
  8
0
100
AcDbBlockBegin
  2
블럭10
 70
     2
 10
0.0
 20
0.0
 30
0.0
  3
블럭10
  1

  0
ELLIPSE
  5
82
330
7F
100
AcDbEntity
  8
중심선
100
AcDbEllipse
 10
20.54032771741204
 20
12.0471743016438
 30
0.0
 11
6.600054785286829
 21
-1.261213355974178E-13
 31
0.0
210
0.0
220
0.0
230
1.0
 40
0.636358354079598
 41
0.9219305317359503
 42
6.513795318482858
  0
ELLIPSE
  5
83
330
7F
100
AcDbEntity
  8
중심선
100
AcDbEllipse
 10
20.54032771746488
 20
12.04717430159265
 30
0.0
 11
3.960054785062283
 21
1.540847449632565E-10
 31
0.0
210
0.0
220
0.0
230
1.0
 40
0.3939339440162632
 41
1.131841032648279
 42
5.62031148352944
  0
LINE
  5
84
330
7F
100
AcDbEntity
  8
중심선
100
AcDbLine
 10
2.268634060543552
 20
16.24717430164393
 30
0.0
 11
5.714909304380834
 21
16.24717430164393
 31
0.0
  0
LINE
  5
85
330
7F
100
AcDbEntity
  8
중심선
100
AcDbLine
 10
5.245725140726316
 20
7.84717430164391
 30
0.0
 11
8.692000384563599
 21
7.84717430164391
 31
0.0
  0
LINE
  5
86
330
7F
100
AcDbEntity
  8
중심선
100
AcDbLine
 10
15.74043728645272
 20
16.24717430164393
 30
0.0
 11
8.692000384563599
 21
7.84717430164391
 31
0.0
  0
LINE
  5
87
330
7F
100
AcDbEntity
  8
중심선
100
AcDbLine
 10
0.1404042013395286
 20
13.71084872107135
 30
0.0
 11
3.58671253028996
 21
13.71088815037384
 31
0.0
  0
LINE
  5
88
330
7F
100
AcDbEntity
  8
중심선
100
AcDbLine
 10
2.750260043222114
 20
10.84717430164391
 30
0.0
 11
6.196535287059397
 21
10.84717430164391
 31
0.0
  0
LINE
  5
89
330
7F
100
AcDbEntity
  8
중심선
100
AcDbLine
 10
12.29416204261559
 20
16.24717430164393
 30
0.0
 11
5.245725140726316
 21
7.84717430164391
 31
0.0
  0
LINE
  5
8A
330
7F
100
AcDbEntity
  8
중심선
100
AcDbLine
 10
10.72767329541681
 20
16.24717430164393
 30
0.0
 11
6.196535287059397
 21
10.84717430164391
 31
0.0
  0
LINE
  5
8B
330
7F
100
AcDbEntity
  8
중심선
100
AcDbLine
 10
7.28139805157953
 20
16.24717430164393
 30
0.0
 11
2.750260043222114
 21
10.84717430164391
 31
0.0
  0
LINE
  5
8C
330
7F
100
AcDbEntity
  8
중심선
100
AcDbLine
 10
5.714909304380834
 20
16.24717430164393
 30
0.0
 11
3.58671253028996
 21
13.71088815037384
 31
0.0
  0
LINE
  5
8D
330
7F
100
AcDbEntity
  8
중심선
100
AcDbLine
 10
2.268634060543552
 20
16.24717430164393
 30
0.0
 11
0.1404042013395286
 21
13.71084872107135
 31
0.0
  0
LINE
  5
8E
330
7F
100
AcDbEntity
  8
중심선
100
AcDbLine
 10
7.28139805157953
 20
16.24717430164393
 30
0.0
 11
10.72767329541681
 21
16.24717430164393
 31
0.0
  0
LINE
  5
8F
330
7F
100
AcDbEntity
  8
중심선
100
AcDbLine
 10
12.29416204261559
 20
16.24717430164393
 30
0.0
 11
15.74043728645272
 21
16.24717430164393
 31
0.0
  0
LINE
  5
90
330
7F
100
AcDbEntity
  8
중심선
100
AcDbLine
 10
19.22036997980202
 20
11.08717430171403
 30
0.0
 11
23.66174974927406
 21
11.08717430171406
 31
0.0
  0
LINE
  5
91
330
7F
100
AcDbEntity
  8
중심선
100
AcDbLine
 10
19.22039502424796
 20
13.00717430171391
 30
0.0
 11
19.22036997980202
 21
11.08717430171403
 31
0.0
  0
LINE
  5
92
330
7F
100
AcDbEntity
  8
중심선
100
AcDbLine
 10
19.22039502424796
 20
13.00717430171391
 30
0.0
 11
26.96566020931264
 21
13.00717430171391
 31
0.0
  0
LINE
  5
93
330
7F
100
AcDbEntity
  8
중심선
100
AcDbLine
 10
22.22332737316547
 20
13.45928029700563
 30
0.0
 11
24.52862924686651
 21
15.39360700705356
 31
0.0
  0
ATTDEF
  5
95
330
7F
100
AcDbEntity
  8
FORMAT
 62
     2
100
AcDbText
 10
-23.90389214271276
 20
2.075366912832191
 30
0.0
 40
4.233333333333333
  1
SEME01040011004SE [ 4 FLUTE ]
 41
0.75
  7
SLDTEXTSTYLE0
 11
-23.90389214271276
 21
-0.0412997538344756
 31
0.0
100
AcDbAttributeDefinition
  3

  2
AUTOATTR0
 70
     0
 74
     1
  0
ENDBLK
  5
81
330
7F
100
AcDbEntity
  8
0
100
AcDbBlockEnd
  0
BLOCK
  5
D4
330
D3
100
AcDbEntity
  8
0
100
AcDbBlockBegin
  2
_D
 70
     0
 10
0.0
 20
0.0
 30
0.0
  3
_D
  1

  0
SOLID
  5
D6
330
D3
100
AcDbEntity
  8
치수문자_일반주서
100
AcDbTrace
 10
39.96782447567787
 20
2.000000000000003
 30
0.0
 11
40.47582447567788
 21
5.302000000000002
 31
0.0
 12
39.45982447567787
 22
5.302000000000002
 32
0.0
 13
39.45982447567787
 23
5.302000000000002
 33
0.0
  0
SOLID
  5
D7
330
D3
100
AcDbEntity
  8
치수문자_일반주서
100
AcDbTrace
 10
39.96782447567787
 20
-2.000000000000001
 30
0.0
 11
39.45982447567787
 21
-5.302
 31
0.0
 12
40.47582447567788
 22
-5.302
 32
0.0
 13
40.47582447567788
 23
-5.302
 33
0.0
  0
LINE
  5
D8
330
D3
100
AcDbEntity
  8
치수문자_일반주서
100
AcDbLine
 10
53.07983778222551
 20
2.000000000000002
 30
0.0
 11
38.96782447567787
 21
2.000000000000003
 31
0.0
  0
LINE
  5
D9
330
D3
100
AcDbEntity
  8
치수문자_일반주서
100
AcDbLine
 10
53.07983778222547
 20
-2.000000000000002
 30
0.0
 11
38.96782447567787
 21
-2.000000000000001
 31
0.0
  0
LINE
  5
DA
330
D3
100
AcDbEntity
  8
치수문자_일반주서
100
AcDbLine
 10
39.96782447567787
 20
2.000000000000003
 30
0.0
 11
39.96782447567787
 21
8.350000000000003
 31
0.0
  0
LINE
  5
DB
330
D3
100
AcDbEntity
  8
치수문자_일반주서
100
AcDbLine
 10
39.96782447567787
 20
2.000000000000003
 30
0.0
 11
39.96782447567787
 21
-2.000000000000001
 31
0.0
  0
LINE
  5
DC
330
D3
100
AcDbEntity
  8
치수문자_일반주서
100
AcDbLine
 10
39.96782447567787
 20
-2.000000000000001
 30
0.0
 11
39.96782447567787
 21
-8.35
 31
0.0
  0
MTEXT
  5
DD
330
D3
100
AcDbEntity
  8
치수문자_일반주서
100
AcDbMText
 10
35.45608738647602
 20
-3.932274412363802
 30
0.0
 40
3.5
 41
0.0
 71
     1
 72
     1
  1
%%c
  7
SLDTEXTSTYLE0
 11
-7.044195017643634E-15
 21
1.0
 31
0.0
 73
     1
 44
1.0
  0
MTEXT
  5
DE
330
D3
100
AcDbEntity
  8
치수문자_일반주서
100
AcDbMText
 10
35.40261520981613
 20
1.346162986010279
 30
0.0
 40
3.5
 41
0.0
 71
     1
 72
     1
  1
4
  7
SLDTEXTSTYLE0
 11
-7.044195017643634E-15
 21
1.0
 31
0.0
 73
     1
 44
1.0
  0
ENDBLK
  5
D5
330
D3
100
AcDbEntity
  8
0
100
AcDbBlockEnd
  0
BLOCK
  5
E1
330
E0
100
AcDbEntity
  8
0
100
AcDbBlockBegin
  2
_D_1
 70
     0
 10
0.0
 20
0.0
 30
0.0
  3
_D_1
  1

  0
SOLID
  5
E3
330
E0
100
AcDbEntity
  8
치수문자_일반주서
100
AcDbTrace
 10
-53.77512886940357
 20
2.000000000000001
 30
0.0
 11
-53.26712886940356
 21
5.302
 31
0.0
 12
-54.28312886940357
 22
5.302
 32
0.0
 13
-54.28312886940357
 23
5.302
 33
0.0
  0
SOLID
  5
E4
330
E0
100
AcDbEntity
  8
치수문자_일반주서
100
AcDbTrace
 10
-53.77512886940357
 20
-2.000000000000003
 30
0.0
 11
-54.28312886940357
 21
-5.302000000000002
 31
0.0
 12
-53.26712886940356
 22
-5.302000000000002
 32
0.0
 13
-53.26712886940356
 23
-5.302000000000002
 33
0.0
  0
LINE
  5
E5
330
E0
100
AcDbEntity
  8
치수문자_일반주서
100
AcDbLine
 10
-41.37512886940356
 20
2.000000000000002
 30
0.0
 11
-54.77512886940357
 21
2.000000000000001
 31
0.0
  0
LINE
  5
E6
330
E0
100
AcDbEntity
  8
치수문자_일반주서
100
AcDbLine
 10
-41.37512886940356
 20
-2.000000000000002
 30
0.0
 11
-54.77512886940357
 21
-2.000000000000003
 31
0.0
  0
LINE
  5
E7
330
E0
100
AcDbEntity
  8
치수문자_일반주서
100
AcDbLine
 10
-53.77512886940357
 20
2.000000000000001
 30
0.0
 11
-53.77512886940357
 21
8.35
 31
0.0
  0
LINE
  5
E8
330
E0
100
AcDbEntity
  8
치수문자_일반주서
100
AcDbLine
 10
-53.77512886940357
 20
2.000000000000001
 30
0.0
 11
-53.77512886940357
 21
-2.000000000000003
 31
0.0
  0
LINE
  5
E9
330
E0
100
AcDbEntity
  8
치수문자_일반주서
100
AcDbLine
 10
-53.77512886940357
 20
-2.000000000000003
 30
0.0
 11
-53.77512886940357
 21
-8.350000000000003
 31
0.0
  0
MTEXT
  5
EA
330
E0
100
AcDbEntity
  8
치수문자_일반주서
100
AcDbMText
 10
-58.28686595860542
 20
-3.932274412363788
 30
0.0
 40
3.5
 41
0.0
 71
     1
 72
     1
  1
%%c
  7
SLDTEXTSTYLE0
 11
-7.044195017643634E-15
 21
1.0
 31
0.0
 73
     1
 44
1.0
  0
MTEXT
  5
EB
330
E0
100
AcDbEntity
  8
치수문자_일반주서
100
AcDbMText
 10
-58.34033813526531
 20
1.346162986010292
 30
0.0
 40
3.5
 41
0.0
 71
     1
 72
     1
  1
4
  7
SLDTEXTSTYLE0
 11
-7.044195017643634E-15
 21
1.0
 31
0.0
 73
     1
 44
1.0
  0
ENDBLK
  5
E2
330
E0
100
AcDbEntity
  8
0
100
AcDbBlockEnd
  0
BLOCK
  5
EE
330
ED
100
AcDbEntity
  8
0
100
AcDbBlockBegin
  2
_D_2
 70
     0
 10
0.0
 20
0.0
 30
0.0
  3
_D_2
  1

  0
SOLID
  5
F0
330
ED
100
AcDbEntity
  8
치수문자_일반주서
100
AcDbTrace
 10
59.22487113059641
 20
19.34369782618399
 30
0.0
 11
62.5268711305964
 21
18.83569782618399
 31
0.0
 12
62.5268711305964
 22
19.85169782618399
 32
0.0
 13
62.5268711305964
 23
19.85169782618399
 33
0.0
  0
SOLID
  5
F1
330
ED
100
AcDbEntity
  8
치수문자_일반주서
100
AcDbTrace
 10
49.22487113059643
 20
19.34369782618399
 30
0.0
 11
45.92287113059643
 21
19.85169782618399
 31
0.0
 12
45.92287113059643
 22
18.83569782618399
 32
0.0
 13
45.92287113059643
 23
18.83569782618399
 33
0.0
  0
LINE
  5
F2
330
ED
100
AcDbEntity
  8
치수문자_일반주서
100
AcDbLine
 10
59.22487113059641
 20
2.890527371941123
 30
0.0
 11
59.22487113059641
 21
20.34369782618399
 31
0.0
  0
LINE
  5
F3
330
ED
100
AcDbEntity
  8
치수문자_일반주서
100
AcDbLine
 10
49.22487113059643
 20
2.971571559929801
 30
0.0
 11
49.22487113059643
 21
20.34369782618399
 31
0.0
  0
LINE
  5
F4
330
ED
100
AcDbEntity
  8
치수문자_일반주서
100
AcDbLine
 10
59.22487113059641
 20
19.34369782618399
 30
0.0
 11
65.5748711305964
 21
19.34369782618399
 31
0.0
  0
LINE
  5
F5
330
ED
100
AcDbEntity
  8
치수문자_일반주서
100
AcDbLine
 10
59.22487113059641
 20
19.34369782618399
 30
0.0
 11
49.22487113059643
 21
19.34369782618399
 31
0.0
  0
LINE
  5
F6
330
ED
100
AcDbEntity
  8
치수문자_일반주서
100
AcDbLine
 10
49.22487113059643
 20
19.34369782618399
 30
0.0
 11
42.87487113059642
 21
19.34369782618399
 31
0.0
  0
MTEXT
  5
F7
330
ED
100
AcDbEntity
  8
치수문자_일반주서
100
AcDbMText
 10
51.6387599370736
 20
23.85543474076288
 30
0.0
 40
3.5
 41
0.0
 71
     1
 72
     1
  1
10
  7
SLDTEXTSTYLE0
 73
     1
 44
1.0
  0
ENDBLK
  5
EF
330
ED
100
AcDbEntity
  8
0
100
AcDbBlockEnd
  0
BLOCK
  5
FB
330
FA
100
AcDbEntity
  8
0
100
AcDbBlockBegin
  2
_D_3
 70
     0
 10
0.0
 20
0.0
 30
0.0
  3
_D_3
  1

  0
SOLID
  5
FD
330
FA
100
AcDbEntity
  8
치수문자_일반주서
100
AcDbTrace
 10
59.22487113059641
 20
26.76006051655092
 30
0.0
 11
55.92287113059641
 21
27.26806051655092
 31
0.0
 12
55.92287113059641
 22
26.25206051655092
 32
0.0
 13
55.92287113059641
 23
26.25206051655092
 33
0.0
  0
SOLID
  5
FE
330
FA
100
AcDbEntity
  8
치수문자_일반주서
100
AcDbTrace
 10
-40.77512886940357
 20
26.76006051655091
 30
0.0
 11
-37.47312886940357
 21
26.25206051655091
 31
0.0
 12
-37.47312886940357
 22
27.26806051655091
 32
0.0
 13
-37.47312886940357
 23
27.26806051655091
 33
0.0
  0
LINE
  5
FF
330
FA
100
AcDbEntity
  8
치수문자_일반주서
100
AcDbLine
 10
59.22487113059641
 20
2.890527371941123
 30
0.0
 11
59.22487113059641
 21
27.76006051655092
 31
0.0
  0
LINE
  5
100
330
FA
100
AcDbEntity
  8
치수문자_일반주서
100
AcDbLine
 10
-40.77512886940357
 20
2.600000000000001
 30
0.0
 11
-40.77512886940357
 21
27.76006051655091
 31
0.0
  0
LINE
  5
101
330
FA
100
AcDbEntity
  8
치수문자_일반주서
100
AcDbLine
 10
59.22487113059641
 20
26.76006051655092
 30
0.0
 11
-40.77512886940357
 21
26.76006051655091
 31
0.0
  0
MTEXT
  5
102
330
FA
100
AcDbEntity
  8
치수문자_일반주서
100
AcDbMText
 10
5.345704456727516
 20
31.27179743112981
 30
0.0
 40
3.5
 41
0.0
 71
     1
 72
     1
  1
100
  7
SLDTEXTSTYLE0
 73
     1
 44
1.0
  0
ENDBLK
  5
FC
330
FA
100
AcDbEntity
  8
0
100
AcDbBlockEnd
  0
BLOCK
  5
10B
330
10A
100
AcDbEntity
  8
0
100
AcDbBlockBegin
  2
SW_DOWELSYMBOL_0
 70
     0
 10
0.0
 20
0.0
 30
0.0
  3
SW_DOWELSYMBOL_0
  1

  0
CIRCLE
  5
10D
330
10A
100
AcDbEntity
  8
해칭선
 62
     0
100
AcDbCircle
 10
0.0
 20
0.0
 30
0.0
 40
3.000000000000001
  0
HATCH
  5
10E
330
10A
100
AcDbEntity
  8
0
  6
Continuous
 62
     0
370
     0
100
AcDbHatch
 10
0.0
 20
0.0
 30
0.0
210
0.0
220
0.0
230
1.0
  2
SOLID
 70
     1
 71
     0
 91
        1
 92
        0
 93
        3
 72
     2
 10
0.0
 20
0.0
 40
3.000000000000001
 50
0.0
 51
90.0
 73
     1
 72
     1
 10
0.0
 20
3.000000000000001
 11
0.0
 21
0.0
 72
     1
 10
0.0
 20
0.0
 11
3.000000000000003
 21
0.0
 97
        0
 75
     0
 76
     1
 98
        1
 10
0.0
 20
0.0
  0
HATCH
  5
10F
330
10A
100
AcDbEntity
  8
0
  6
Continuous
 62
     0
370
     0
100
AcDbHatch
 10
0.0
 20
0.0
 30
0.0
210
0.0
220
0.0
230
1.0
  2
SOLID
 70
     1
 71
     0
 91
        1
 92
        0
 93
        3
 72
     2
 10
0.0
 20
0.0
 40
3.000000000000001
 50
180.0
 51
270.0000000000008
 73
     1
 72
     1
 10
0.0
 20
-3.000000000000001
 11
0.0
 21
0.0
 72
     1
 10
0.0
 20
0.0
 11
-3.000000000000001
 21
0.0
 97
        0
 75
     0
 76
     1
 98
        1
 10
0.0
 20
0.0
  0
ENDBLK
  5
10C
330
10A
100
AcDbEntity
  8
0
100
AcDbBlockEnd
  0
BLOCK
  5
1C1
330
1C0
100
AcDbEntity
  8
0
100
AcDbBlockBegin
  2
*D8
 70
     1
 10
0.0
 20
0.0
 30
0.0
  3
*D8
  1

  0
LINE
  5
1C2
330
1C0
100
AcDbEntity
  8
치수문자_일반주서
 62
     0
370
    -2
100
AcDbLine
 10
86.13968264493003
 20
15.87766090613641
 30
0.0
 11
96.54465933111764
 21
-0.0000000000000031
 31
0.0
  0
MTEXT
  5
1C3
330
1C0
100
AcDbEntity
  8
치수문자_일반주서
 62
     0
100
AcDbMText
 10
96.46212210778525
 20
4.915101898156797
 30
0.0
 40
3.5
 41
0.0
 71
     5
 72
     1
  1
\A1;R0.1
  7
SLDTEXTSTYLE0
 11
0.5481136522428035
 21
-0.8364038643054293
 31
0.0
 73
     1
 44
1.0
  0
SOLID
  5
1C4
330
1C0
100
AcDbEntity
  8
치수문자_일반주서
 62
     0
100
AcDbTrace
 10
86.59998357158612
 20
16.1793061194207
 30
0.0
 11
85.67938171827394
 21
15.57601569285213
 31
0.0
 12
84.3298113652243
 22
18.63946646607294
 32
0.0
 13
84.3298113652243
 23
18.63946646607294
 33
0.0
  0
LINE
  5
1C5
330
1C0
100
AcDbEntity
  8
치수문자_일반주서
 62
     0
100
AcDbLine
 10
84.18500000000002
 20
18.72310685250349
 30
0.0
 11
84.36500000000002
 21
18.72310685250349
 31
0.0
  0
LINE
  5
1C6
330
1C0
100
AcDbEntity
  8
치수문자_일반주서
 62
     0
100
AcDbLine
 10
84.27500000000002
 20
18.63310685250349
 30
0.0
 11
84.27500000000002
 21
18.81310685250349
 31
0.0
  0
POINT
  5
1C7
330
1C0
100
AcDbEntity
  8
Defpoints
 62
     0
100
AcDbPoint
 10
84.3298113652243
 20
18.63946646607294
 30
0.0
  0
POINT
  5
1C8
330
1C0
100
AcDbEntity
  8
Defpoints
 62
     0
100
AcDbPoint
 10
84.27500000000002
 20
18.72310685250349
 30
0.0
  0
ENDBLK
  5
1C9
330
1C0
100
AcDbEntity
  8
0
100
AcDbBlockEnd
  0
BLOCK
  5
1CF
330
1CE
100
AcDbEntity
  8
0
100
AcDbBlockBegin
  2
*D9
 70
     1
 10
0.0
 20
0.0
 30
0.0
  3
*D9
  1

  0
LINE
  5
1D1
330
1CE
100
AcDbEntity
  8
치수문자_일반주서
 62
     0
370
    -2
100
AcDbLine
 10
84.43750000000003
 20
22.62310685250349
 30
0.0
 11
94.37500000000003
 21
22.62310685250353
 31
0.0
  0
LINE
  5
1D2
330
1CE
100
AcDbEntity
  8
치수문자_일반주서
 62
     0
370
    -2
100
AcDbLine
 10
84.43750000000003
 20
18.62310685250349
 30
0.0
 11
94.37500000000004
 21
18.62310685250353
 31
0.0
  0
LINE
  5
1D3
330
1CE
100
AcDbEntity
  8
치수문자_일반주서
 62
     0
370
    -2
100
AcDbLine
 10
94.37500000000003
 20
22.62310685250353
 30
0.0
 11
94.37499999999999
 21
35.35210685250355
 31
0.0
  0
LINE
  5
1D4
330
1CE
100
AcDbEntity
  8
치수문자_일반주서
 62
     0
370
    -2
100
AcDbLine
 10
94.37500000000003
 20
22.62310685250353
 30
0.0
 11
94.37500000000004
 21
18.62310685250353
 31
0.0
  0
LINE
  5
1D5
330
1CE
100
AcDbEntity
  8
치수문자_일반주서
 62
     0
370
    -2
100
AcDbLine
 10
94.37500000000001
 20
25.92510685250353
 30
0.0
 11
94.375
 21
29.22710685250352
 31
0.0
  0
LINE
  5
1D6
330
1CE
100
AcDbEntity
  8
치수문자_일반주서
 62
     0
370
    -2
100
AcDbLine
 10
94.37500000000006
 20
15.32110685250353
 30
0.0
 11
94.37500000000007
 21
12.01910685250353
 31
0.0
  0
SOLID
  5
1D7
330
1CE
100
AcDbEntity
  8
치수문자_일반주서
 62
     0
100
AcDbTrace
 10
93.82466666666669
 20
25.92510685250352
 30
0.0
 11
94.92533333333334
 21
25.92510685250353
 31
0.0
 12
94.37500000000003
 22
22.62310685250353
 32
0.0
 13
94.37500000000003
 23
22.62310685250353
 33
0.0
  0
SOLID
  5
1D8
330
1CE
100
AcDbEntity
  8
치수문자_일반주서
 62
     0
100
AcDbTrace
 10
94.92533333333338
 20
15.32110685250353
 30
0.0
 11
93.82466666666673
 21
15.32110685250352
 31
0.0
 12
94.37500000000004
 22
18.62310685250353
 32
0.0
 13
94.37500000000004
 23
18.62310685250353
 33
0.0
  0
MTEXT
  5
1D9
330
1CE
100
AcDbEntity
  8
치수문자_일반주서
 62
     0
100
AcDbMText
 10
90.0
 20
32.28960685250353
 30
0.0
 40
3.5
 41
0.0
 71
     2
 72
     1
  1
\A1;%%c4
  7
SLDTEXTSTYLE0
 11
-3.552713678800501E-15
 21
1.0
 31
0.0
 73
     1
 44
1.0
  0
POINT
  5
1DA
330
1CE
100
AcDbEntity
  8
Defpoints
 62
     0
100
AcDbPoint
 10
84.37500000000003
 20
22.62310685250349
 30
0.0
  0
POINT
  5
1DB
330
1CE
100
AcDbEntity
  8
Defpoints
 62
     0
100
AcDbPoint
 10
84.37500000000003
 20
18.62310685250349
 30
0.0
  0
POINT
  5
1DC
330
1CE
100
AcDbEntity
  8
Defpoints
 62
     0
100
AcDbPoint
 10
94.37500000000004
 20
18.62310685250353
 30
0.0
  0
ENDBLK
  5
1D0
330
1CE
100
AcDbEntity
  8
0
100
AcDbBlockEnd
  0
BLOCK
  5
1DE
330
1DD
100
AcDbEntity
  8
0
100
AcDbBlockBegin
  2
*D10
 70
     1
 10
0.0
 20
0.0
 30
0.0
  3
*D10
  1

  0
LINE
  5
1E0
330
1DD
100
AcDbEntity
  8
치수문자_일반주서
 62
     0
370
    -2
100
AcDbLine
 10
14.91250000000004
 20
23.62310685250349
 30
0.0
 11
4.375000000000042
 21
23.62310685250345
 31
0.0
  0
LINE
  5
1E1
330
1DD
100
AcDbEntity
  8
치수문자_일반주서
 62
     0
370
    -2
100
AcDbLine
 10
14.91250000000004
 20
17.62310685250349
 30
0.0
 11
4.375000000000063
 21
17.62310685250345
 31
0.0
  0
LINE
  5
1E2
330
1DD
100
AcDbEntity
  8
치수문자_일반주서
 62
     0
370
    -2
100
AcDbLine
 10
4.375000000000042
 20
23.62310685250345
 30
0.0
 11
4.374999999999996
 21
36.35210685250346
 31
0.0
  0
LINE
  5
1E3
330
1DD
100
AcDbEntity
  8
치수문자_일반주서
 62
     0
370
    -2
100
AcDbLine
 10
4.375000000000042
 20
23.62310685250345
 30
0.0
 11
4.375000000000063
 21
17.62310685250345
 31
0.0
  0
LINE
  5
1E4
330
1DD
100
AcDbEntity
  8
치수문자_일반주서
 62
     0
370
    -2
100
AcDbLine
 10
4.37500000000003
 20
26.92510685250345
 30
0.0
 11
4.375000000000019
 21
30.22710685250345
 31
0.0
  0
LINE
  5
1E5
330
1DD
100
AcDbEntity
  8
치수문자_일반주서
 62
     0
370
    -2
100
AcDbLine
 10
4.375000000000075
 20
14.32110685250345
 30
0.0
 11
4.375000000000086
 21
11.01910685250345
 31
0.0
  0
SOLID
  5
1E6
330
1DD
100
AcDbEntity
  8
치수문자_일반주서
 62
     0
100
AcDbTrace
 10
3.824666666666697
 20
26.92510685250345
 30
0.0
 11
4.925333333333364
 21
26.92510685250346
 31
0.0
 12
4.375000000000042
 22
23.62310685250345
 32
0.0
 13
4.375000000000042
 23
23.62310685250345
 33
0.0
  0
SOLID
  5
1E7
330
1DD
100
AcDbEntity
  8
치수문자_일반주서
 62
     0
100
AcDbTrace
 10
4.925333333333408
 20
14.32110685250345
 30
0.0
 11
3.824666666666741
 21
14.32110685250345
 31
0.0
 12
4.375000000000063
 22
17.62310685250345
 32
0.0
 13
4.375000000000063
 23
17.62310685250345
 33
0.0
  0
MTEXT
  5
1E8
330
1DD
100
AcDbEntity
  8
치수문자_일반주서
 62
     0
100
AcDbMText
 10
0.0000000000000071
 20
33.28960685250345
 30
0.0
 40
3.5
 41
0.0
 71
     2
 72
     1
  1
\A1;%%c6
  7
SLDTEXTSTYLE0
 11
-3.552713678800499E-15
 21
1.0
 31
0.0
 73
     1
 44
1.0
  0
POINT
  5
1E9
330
1DD
100
AcDbEntity
  8
Defpoints
 62
     0
100
AcDbPoint
 10
14.97500000000004
 20
23.62310685250349
 30
0.0
  0
POINT
  5
1EA
330
1DD
100
AcDbEntity
  8
Defpoints
 62
     0
100
AcDbPoint
 10
14.97500000000004
 20
17.62310685250349
 30
0.0
  0
POINT
  5
1EB
330
1DD
100
AcDbEntity
  8
Defpoints
 62
     0
100
AcDbPoint
 10
4.375000000000064
 20
17.62310685250345
 30
0.0
  0
ENDBLK
  5
1DF
330
1DD
100
AcDbEntity
  8
0
100
AcDbBlockEnd
  0
BLOCK
  5
1ED
330
1EC
100
AcDbEntity
  8
0
100
AcDbBlockBegin
  2
*D11
 70
     1
 10
0.0
 20
0.0
 30
0.0
  3
*D11
  1

  0
LINE
  5
1EF
330
1EC
100
AcDbEntity
  8
치수문자_일반주서
 62
     0
370
    -2
100
AcDbLine
 10
84.37500000000003
 20
22.68560685250349
 30
0.0
 11
84.37500000000003
 21
33.6231068525035
 31
0.0
  0
LINE
  5
1F0
330
1EC
100
AcDbEntity
  8
치수문자_일반주서
 62
     0
370
    -2
100
AcDbLine
 10
74.37500000000004
 20
22.65717841243329
 30
0.0
 11
74.37500000000004
 21
33.6231068525035
 31
0.0
  0
LINE
  5
1F1
330
1EC
100
AcDbEntity
  8
치수문자_일반주서
 62
     0
370
    -2
100
AcDbLine
 10
81.07300000000004
 20
33.6231068525035
 30
0.0
 11
77.67700000000005
 21
33.6231068525035
 31
0.0
  0
SOLID
  5
1F2
330
1EC
100
AcDbEntity
  8
치수문자_일반주서
 62
     0
100
AcDbTrace
 10
81.07300000000004
 20
33.07277351917016
 30
0.0
 11
81.07300000000004
 21
34.17344018583683
 31
0.0
 12
84.37500000000003
 22
33.6231068525035
 32
0.0
 13
84.37500000000003
 23
33.6231068525035
 33
0.0
  0
SOLID
  5
1F3
330
1EC
100
AcDbEntity
  8
치수문자_일반주서
 62
     0
100
AcDbTrace
 10
77.67700000000005
 20
34.17344018583683
 30
0.0
 11
77.67700000000005
 21
33.07277351917016
 31
0.0
 12
74.37500000000004
 22
33.6231068525035
 32
0.0
 13
74.37500000000004
 23
33.6231068525035
 33
0.0
  0
MTEXT
  5
1F4
330
1EC
100
AcDbEntity
  8
치수문자_일반주서
 62
     0
100
AcDbMText
 10
79.37500000000014
 20
37.9981068525035
 30
0.0
 40
3.5
 41
0.0
 71
     2
 72
     1
  1
\A1;10
  7
SLDTEXTSTYLE0
 73
     1
 44
1.0
  0
POINT
  5
1F5
330
1EC
100
AcDbEntity
  8
Defpoints
 62
     0
100
AcDbPoint
 10
84.37500000000003
 20
22.62310685250349
 30
0.0
  0
POINT
  5
1F6
330
1EC
100
AcDbEntity
  8
Defpoints
 62
     0
100
AcDbPoint
 10
74.37500000000004
 20
22.59467841243329
 30
0.0
  0
POINT
  5
1F7
330
1EC
100
AcDbEntity
  8
Defpoints
 62
     0
100
AcDbPoint
 10
74.37500000000004
 20
33.6231068525035
 30
0.0
  0
ENDBLK
  5
1EE
330
1EC
100
AcDbEntity
  8
0
100
AcDbBlockEnd
  0
BLOCK
  5
1F9
330
1F8
100
AcDbEntity
  8
0
100
AcDbBlockBegin
  2
*D12
 70
     1
 10
0.0
 20
0.0
 30
0.0
  3
*D12
  1

  0
LINE
  5
1FB
330
1F8
100
AcDbEntity
  8
치수문자_일반주서
 62
     0
370
    -2
100
AcDbLine
 10
84.37500000000003
 20
22.68560685250349
 30
0.0
 11
84.37500000000003
 21
43.6231068525035
 31
0.0
  0
LINE
  5
1FC
330
1F8
100
AcDbEntity
  8
치수문자_일반주서
 62
     0
370
    -2
100
AcDbLine
 10
14.37500000000005
 20
23.08560685250349
 30
0.0
 11
14.37500000000005
 21
43.6231068525035
 31
0.0
  0
LINE
  5
1FD
330
1F8
100
AcDbEntity
  8
치수문자_일반주서
 62
     0
370
    -2
100
AcDbLine
 10
81.07300000000004
 20
43.6231068525035
 30
0.0
 11
17.67700000000005
 21
43.6231068525035
 31
0.0
  0
SOLID
  5
1FE
330
1F8
100
AcDbEntity
  8
치수문자_일반주서
 62
     0
100
AcDbTrace
 10
81.07300000000004
 20
43.07277351917016
 30
0.0
 11
81.07300000000004
 21
44.17344018583683
 31
0.0
 12
84.37500000000003
 22
43.6231068525035
 32
0.0
 13
84.37500000000003
 23
43.6231068525035
 33
0.0
  0
SOLID
  5
1FF
330
1F8
100
AcDbEntity
  8
치수문자_일반주서
 62
     0
100
AcDbTrace
 10
17.67700000000005
 20
44.17344018583683
 30
0.0
 11
17.67700000000005
 21
43.07277351917016
 31
0.0
 12
14.37500000000005
 22
43.6231068525035
 32
0.0
 13
14.37500000000005
 23
43.6231068525035
 33
0.0
  0
MTEXT
  5
200
330
1F8
100
AcDbEntity
  8
치수문자_일반주서
 62
     0
100
AcDbMText
 10
49.37500000000003
 20
47.9981068525035
 30
0.0
 40
3.5
 41
0.0
 71
     2
 72
     1
  1
\A1;70
  7
SLDTEXTSTYLE0
 73
     1
 44
1.0
  0
POINT
  5
201
330
1F8
100
AcDbEntity
  8
Defpoints
 62
     0
100
AcDbPoint
 10
84.37500000000003
 20
22.62310685250349
 30
0.0
  0
POINT
  5
202
330
1F8
100
AcDbEntity
  8
Defpoints
 62
     0
100
AcDbPoint
 10
14.37500000000005
 20
23.02310685250349
 30
0.0
  0
POINT
  5
203
330
1F8
100
AcDbEntity
  8
Defpoints
 62
     0
100
AcDbPoint
 10
14.37500000000005
 20
43.6231068525035
 30
0.0
  0
ENDBLK
  5
1FA
330
1F8
100
AcDbEntity
  8
0
100
AcDbBlockEnd
  0
BLOCK
  5
241
330
240
100
AcDbEntity
  8
0
100
AcDbBlockBegin
  2
*D13
 70
     1
 10
0.0
 20
0.0
 30
0.0
  3
*D13
  1

  0
LINE
  5
243
330
240
100
AcDbEntity
  8
치수문자_일반주서
 62
     0
370
    -2
100
AcDbLine
 10
159.5189124922049
 20
-26.71953597819861
 30
0.0
 11
169.4564124922049
 21
-26.71953597819857
 31
0.0
  0
LINE
  5
244
330
240
100
AcDbEntity
  8
치수문자_일반주서
 62
     0
370
    -2
100
AcDbLine
 10
159.5189124922049
 20
-30.71953597819861
 30
0.0
 11
169.4564124922049
 21
-30.71953597819857
 31
0.0
  0
LINE
  5
245
330
240
100
AcDbEntity
  8
치수문자_일반주서
 62
     0
370
    -2
100
AcDbLine
 10
169.4564124922049
 20
-26.71953597819857
 30
0.0
 11
169.4564124922049
 21
-13.99053597819855
 31
0.0
  0
LINE
  5
246
330
240
100
AcDbEntity
  8
치수문자_일반주서
 62
     0
370
    -2
100
AcDbLine
 10
169.4564124922049
 20
-26.71953597819857
 30
0.0
 11
169.4564124922049
 21
-30.71953597819857
 31
0.0
  0
LINE
  5
247
330
240
100
AcDbEntity
  8
치수문자_일반주서
 62
     0
370
    -2
100
AcDbLine
 10
169.4564124922049
 20
-23.41753597819857
 30
0.0
 11
169.4564124922049
 21
-20.11553597819857
 31
0.0
  0
LINE
  5
248
330
240
100
AcDbEntity
  8
치수문자_일반주서
 62
     0
370
    -2
100
AcDbLine
 10
169.4564124922049
 20
-34.02153597819857
 30
0.0
 11
169.4564124922049
 21
-37.32353597819857
 31
0.0
  0
SOLID
  5
249
330
240
100
AcDbEntity
  8
치수문자_일반주서
 62
     0
100
AcDbTrace
 10
168.9060791588716
 20
-23.41753597819857
 30
0.0
 11
170.0067458255383
 21
-23.41753597819857
 31
0.0
 12
169.4564124922049
 22
-26.71953597819857
 32
0.0
 13
169.4564124922049
 23
-26.71953597819857
 33
0.0
  0
SOLID
  5
24A
330
240
100
AcDbEntity
  8
치수문자_일반주서
 62
     0
100
AcDbTrace
 10
170.0067458255383
 20
-34.02153597819857
 30
0.0
 11
168.9060791588716
 21
-34.02153597819857
 31
0.0
 12
169.4564124922049
 22
-30.71953597819857
 32
0.0
 13
169.4564124922049
 23
-30.71953597819857
 33
0.0
  0
MTEXT
  5
24B
330
240
100
AcDbEntity
  8
치수문자_일반주서
 62
     0
100
AcDbMText
 10
165.0814124922049
 20
-17.05303597819855
 30
0.0
 40
3.5
 41
0.0
 71
     2
 72
     1
  1
\A1;%%c4
  7
SLDTEXTSTYLE0
 11
0.0
 21
1.0
 31
0.0
 73
     1
 44
1.0
  0
POINT
  5
24C
330
240
100
AcDbEntity
  8
Defpoints
 62
     0
100
AcDbPoint
 10
159.4564124922049
 20
-26.71953597819861
 30
0.0
  0
POINT
  5
24D
330
240
100
AcDbEntity
  8
Defpoints
 62
     0
100
AcDbPoint
 10
159.4564124922049
 20
-30.71953597819861
 30
0.0
  0
POINT
  5
24E
330
240
100
AcDbEntity
  8
Defpoints
 62
     0
100
AcDbPoint
 10
169.456412492205
 20
-30.71953597819857
 30
0.0
  0
ENDBLK
  5
242
330
240
100
AcDbEntity
  8
0
100
AcDbBlockEnd
  0
BLOCK
  5
250
330
24F
100
AcDbEntity
  8
0
100
AcDbBlockBegin
  2
*D14
 70
     1
 10
0.0
 20
0.0
 30
0.0
  3
*D14
  1

  0
LINE
  5
252
330
24F
100
AcDbEntity
  8
치수문자_일반주서
 62
     0
370
    -2
100
AcDbLine
 10
89.99391249220497
 20
-25.7195359781986
 30
0.0
 11
79.45641249220498
 21
-25.71953597819864
 31
0.0
  0
LINE
  5
253
330
24F
100
AcDbEntity
  8
치수문자_일반주서
 62
     0
370
    -2
100
AcDbLine
 10
89.99391249220497
 20
-31.71953597819861
 30
0.0
 11
79.45641249220499
 21
-31.71953597819865
 31
0.0
  0
LINE
  5
254
330
24F
100
AcDbEntity
  8
치수문자_일반주서
 62
     0
370
    -2
100
AcDbLine
 10
79.45641249220498
 20
-25.71953597819864
 30
0.0
 11
79.45641249220493
 21
-12.99053597819864
 31
0.0
  0
LINE
  5
255
330
24F
100
AcDbEntity
  8
치수문자_일반주서
 62
     0
370
    -2
100
AcDbLine
 10
79.45641249220498
 20
-25.71953597819864
 30
0.0
 11
79.45641249220499
 21
-31.71953597819865
 31
0.0
  0
LINE
  5
256
330
24F
100
AcDbEntity
  8
치수문자_일반주서
 62
     0
370
    -2
100
AcDbLine
 10
79.45641249220496
 20
-22.41753597819864
 30
0.0
 11
79.45641249220495
 21
-19.11553597819864
 31
0.0
  0
LINE
  5
257
330
24F
100
AcDbEntity
  8
치수문자_일반주서
 62
     0
370
    -2
100
AcDbLine
 10
79.456412492205
 20
-35.02153597819864
 30
0.0
 11
79.45641249220502
 21
-38.32353597819864
 31
0.0
  0
SOLID
  5
258
330
24F
100
AcDbEntity
  8
치수문자_일반주서
 62
     0
100
AcDbTrace
 10
78.90607915887163
 20
-22.41753597819864
 30
0.0
 11
80.00674582553829
 21
-22.41753597819864
 31
0.0
 12
79.45641249220498
 22
-25.71953597819864
 32
0.0
 13
79.45641249220498
 23
-25.71953597819864
 33
0.0
  0
SOLID
  5
259
330
24F
100
AcDbEntity
  8
치수문자_일반주서
 62
     0
100
AcDbTrace
 10
80.00674582553833
 20
-35.02153597819864
 30
0.0
 11
78.90607915887168
 21
-35.02153597819864
 31
0.0
 12
79.45641249220499
 22
-31.71953597819865
 32
0.0
 13
79.45641249220499
 23
-31.71953597819865
 33
0.0
  0
MTEXT
  5
25A
330
24F
100
AcDbEntity
  8
치수문자_일반주서
 62
     0
100
AcDbMText
 10
75.08141249220495
 20
-16.05303597819865
 30
0.0
 40
3.5
 41
0.0
 71
     2
 72
     1
  1
\A1;%%c6
  7
SLDTEXTSTYLE0
 11
-2.368475785866999E-15
 21
1.0
 31
0.0
 73
     1
 44
1.0
  0
POINT
  5
25B
330
24F
100
AcDbEntity
  8
Defpoints
 62
     0
100
AcDbPoint
 10
90.05641249220497
 20
-25.7195359781986
 30
0.0
  0
POINT
  5
25C
330
24F
100
AcDbEntity
  8
Defpoints
 62
     0
100
AcDbPoint
 10
90.05641249220497
 20
-31.71953597819861
 30
0.0
  0
POINT
  5
25D
330
24F
100
AcDbEntity
  8
Defpoints
 62
     0
100
AcDbPoint
 10
79.45641249220499
 20
-31.71953597819865
 30
0.0
  0
ENDBLK
  5
251
330
24F
100
AcDbEntity
  8
0
100
AcDbBlockEnd
  0
BLOCK
  5
25F
330
25E
100
AcDbEntity
  8
0
100
AcDbBlockBegin
  2
*D15
 70
     1
 10
0.0
 20
0.0
 30
0.0
  3
*D15
  1

  0
LINE
  5
261
330
25E
100
AcDbEntity
  8
치수문자_일반주서
 62
     0
370
    -2
100
AcDbLine
 10
159.4564124922049
 20
-26.65703597819861
 30
0.0
 11
159.4564124922049
 21
-15.7195359781986
 31
0.0
  0
LINE
  5
262
330
25E
100
AcDbEntity
  8
치수문자_일반주서
 62
     0
370
    -2
100
AcDbLine
 10
149.456412492205
 20
-26.6854644182688
 30
0.0
 11
149.456412492205
 21
-15.7195359781986
 31
0.0
  0
LINE
  5
263
330
25E
100
AcDbEntity
  8
치수문자_일반주서
 62
     0
370
    -2
100
AcDbLine
 10
156.154412492205
 20
-15.7195359781986
 30
0.0
 11
152.758412492205
 21
-15.7195359781986
 31
0.0
  0
SOLID
  5
264
330
25E
100
AcDbEntity
  8
치수문자_일반주서
 62
     0
100
AcDbTrace
 10
156.154412492205
 20
-16.26986931153193
 30
0.0
 11
156.154412492205
 21
-15.16920264486527
 31
0.0
 12
159.4564124922049
 22
-15.7195359781986
 32
0.0
 13
159.4564124922049
 23
-15.7195359781986
 33
0.0
  0
SOLID
  5
265
330
25E
100
AcDbEntity
  8
치수문자_일반주서
 62
     0
100
AcDbTrace
 10
152.758412492205
 20
-15.16920264486527
 30
0.0
 11
152.758412492205
 21
-16.26986931153193
 31
0.0
 12
149.456412492205
 22
-15.7195359781986
 32
0.0
 13
149.456412492205
 23
-15.7195359781986
 33
0.0
  0
MTEXT
  5
266
330
25E
100
AcDbEntity
  8
치수문자_일반주서
 62
     0
100
AcDbMText
 10
154.4564124922051
 20
-11.3445359781986
 30
0.0
 40
3.5
 41
0.0
 71
     2
 72
     1
  1
\A1;10
  7
SLDTEXTSTYLE0
 73
     1
 44
1.0
  0
POINT
  5
267
330
25E
100
AcDbEntity
  8
Defpoints
 62
     0
100
AcDbPoint
 10
159.4564124922049
 20
-26.71953597819861
 30
0.0
  0
POINT
  5
268
330
25E
100
AcDbEntity
  8
Defpoints
 62
     0
100
AcDbPoint
 10
149.456412492205
 20
-26.7479644182688
 30
0.0
  0
POINT
  5
269
330
25E
100
AcDbEntity
  8
Defpoints
 62
     0
100
AcDbPoint
 10
149.456412492205
 20
-15.7195359781986
 30
0.0
  0
ENDBLK
  5
260
330
25E
100
AcDbEntity
  8
0
100
AcDbBlockEnd
  0
BLOCK
  5
26B
330
26A
100
AcDbEntity
  8
0
100
AcDbBlockBegin
  2
*D16
 70
     1
 10
0.0
 20
0.0
 30
0.0
  3
*D16
  1

  0
LINE
  5
26D
330
26A
100
AcDbEntity
  8
치수문자_일반주서
 62
     0
370
    -2
100
AcDbLine
 10
159.4564124922049
 20
-26.65703597819861
 30
0.0
 11
159.4564124922049
 21
-5.7195359781986
 31
0.0
  0
LINE
  5
26E
330
26A
100
AcDbEntity
  8
치수문자_일반주서
 62
     0
370
    -2
100
AcDbLine
 10
89.45641249220498
 20
-26.2570359781986
 30
0.0
 11
89.45641249220498
 21
-5.7195359781986
 31
0.0
  0
LINE
  5
26F
330
26A
100
AcDbEntity
  8
치수문자_일반주서
 62
     0
370
    -2
100
AcDbLine
 10
156.154412492205
 20
-5.7195359781986
 30
0.0
 11
92.75841249220497
 21
-5.7195359781986
 31
0.0
  0
SOLID
  5
270
330
26A
100
AcDbEntity
  8
치수문자_일반주서
 62
     0
100
AcDbTrace
 10
156.154412492205
 20
-6.269869311531933
 30
0.0
 11
156.154412492205
 21
-5.169202644865266
 31
0.0
 12
159.4564124922049
 22
-5.7195359781986
 32
0.0
 13
159.4564124922049
 23
-5.7195359781986
 33
0.0
  0
SOLID
  5
271
330
26A
100
AcDbEntity
  8
치수문자_일반주서
 62
     0
100
AcDbTrace
 10
92.75841249220497
 20
-5.169202644865266
 30
0.0
 11
92.75841249220497
 21
-6.269869311531933
 31
0.0
 12
89.45641249220498
 22
-5.7195359781986
 32
0.0
 13
89.45641249220498
 23
-5.7195359781986
 33
0.0
  0
MTEXT
  5
272
330
26A
100
AcDbEntity
  8
치수문자_일반주서
 62
     0
100
AcDbMText
 10
124.456412492205
 20
-1.3445359781986
 30
0.0
 40
3.5
 41
0.0
 71
     2
 72
     1
  1
\A1;70
  7
SLDTEXTSTYLE0
 73
     1
 44
1.0
  0
POINT
  5
273
330
26A
100
AcDbEntity
  8
Defpoints
 62
     0
100
AcDbPoint
 10
159.4564124922049
 20
-26.71953597819861
 30
0.0
  0
POINT
  5
274
330
26A
100
AcDbEntity
  8
Defpoints
 62
     0
100
AcDbPoint
 10
89.45641249220498
 20
-26.3195359781986
 30
0.0
  0
POINT
  5
275
330
26A
100
AcDbEntity
  8
Defpoints
 62
     0
100
AcDbPoint
 10
89.45641249220498
 20
-5.7195359781986
 30
0.0
  0
ENDBLK
  5
26C
330
26A
100
AcDbEntity
  8
0
100
AcDbBlockEnd
  0
BLOCK
  5
277
330
276
100
AcDbEntity
  8
0
100
AcDbBlockBegin
  2
*D17
 70
     1
 10
0.0
 20
0.0
 30
0.0
  3
*D17
  1

  0
LINE
  5
279
330
276
100
AcDbEntity
  8
치수문자_일반주서
 62
     0
370
    -2
100
AcDbLine
 10
161.221095137135
 20
-33.46498192456568
 30
0.0
 11
171.6260718233226
 21
-49.3426428307021
 31
0.0
  0
MTEXT
  5
27A
330
276
100
AcDbEntity
  8
치수문자_일반주서
 62
     0
100
AcDbMText
 10
171.5435345999902
 20
-44.42754093254531
 30
0.0
 40
3.5
 41
0.0
 71
     5
 72
     1
  1
\A1;R0.1
  7
SLDTEXTSTYLE0
 11
0.5481136522428035
 21
-0.8364038643054293
 31
0.0
 73
     1
 44
1.0
  0
SOLID
  5
27B
330
276
100
AcDbEntity
  8
치수문자_일반주서
 62
     0
100
AcDbTrace
 10
161.6813960637911
 20
-33.1633367112814
 30
0.0
 11
160.7607942104789
 21
-33.76662713784997
 31
0.0
 12
159.4112238574292
 22
-30.70317636462915
 32
0.0
 13
159.4112238574292
 23
-30.70317636462915
 33
0.0
  0
LINE
  5
27C
330
276
100
AcDbEntity
  8
치수문자_일반주서
 62
     0
100
AcDbLine
 10
159.2664124922049
 20
-30.61953597819861
 30
0.0
 11
159.446412492205
 21
-30.61953597819861
 31
0.0
  0
LINE
  5
27D
330
276
100
AcDbEntity
  8
치수문자_일반주서
 62
     0
100
AcDbLine
 10
159.356412492205
 20
-30.70953597819861
 30
0.0
 11
159.356412492205
 21
-30.52953597819861
 31
0.0
  0
POINT
  5
27E
330
276
100
AcDbEntity
  8
Defpoints
 62
     0
100
AcDbPoint
 10
159.4112238574292
 20
-30.70317636462915
 30
0.0
  0
POINT
  5
27F
330
276
100
AcDbEntity
  8
Defpoints
 62
     0
100
AcDbPoint
 10
159.356412492205
 20
-30.61953597819861
 30
0.0
  0
ENDBLK
  5
278
330
276
100
AcDbEntity
  8
0
100
AcDbBlockEnd
  0
BLOCK
  5
2CC
330
2CB
100
AcDbEntity
  8
0
100
AcDbBlockBegin
  2
*D19
 70
     1
 10
0.0
 20
0.0
 30
0.0
  3
*D19
  1

  0
LINE
  5
2CD
330
2CB
100
AcDbEntity
  8
치수문자_일반주서
 62
     0
370
    -2
100
AcDbLine
 10
84.43749999999999
 20
22.62310685250348
 30
0.0
 11
94.37500000000001
 21
22.62310685250352
 31
0.0
  0
LINE
  5
2CE
330
2CB
100
AcDbEntity
  8
치수문자_일반주서
 62
     0
370
    -2
100
AcDbLine
 10
84.43749999999999
 20
18.62310685250348
 30
0.0
 11
94.37500000000003
 21
18.62310685250352
 31
0.0
  0
LINE
  5
2CF
330
2CB
100
AcDbEntity
  8
치수문자_일반주서
 62
     0
370
    -2
100
AcDbLine
 10
94.37500000000001
 20
22.62310685250352
 30
0.0
 11
94.37499999999997
 21
35.35210685250354
 31
0.0
  0
LINE
  5
2D0
330
2CB
100
AcDbEntity
  8
치수문자_일반주서
 62
     0
370
    -2
100
AcDbLine
 10
94.37500000000001
 20
22.62310685250352
 30
0.0
 11
94.37500000000003
 21
18.62310685250352
 31
0.0
  0
LINE
  5
2D1
330
2CB
100
AcDbEntity
  8
치수문자_일반주서
 62
     0
370
    -2
100
AcDbLine
 10
94.375
 20
25.92510685250352
 30
0.0
 11
94.37499999999999
 21
29.22710685250352
 31
0.0
  0
LINE
  5
2D2
330
2CB
100
AcDbEntity
  8
치수문자_일반주서
 62
     0
370
    -2
100
AcDbLine
 10
94.37500000000004
 20
15.32110685250352
 30
0.0
 11
94.37500000000006
 21
12.01910685250352
 31
0.0
  0
SOLID
  5
2D3
330
2CB
100
AcDbEntity
  8
치수문자_일반주서
 62
     0
100
AcDbTrace
 10
93.82466666666667
 20
25.92510685250351
 30
0.0
 11
94.92533333333333
 21
25.92510685250352
 31
0.0
 12
94.37500000000001
 22
22.62310685250352
 32
0.0
 13
94.37500000000001
 23
22.62310685250352
 33
0.0
  0
SOLID
  5
2D4
330
2CB
100
AcDbEntity
  8
치수문자_일반주서
 62
     0
100
AcDbTrace
 10
94.92533333333337
 20
15.32110685250352
 30
0.0
 11
93.82466666666672
 21
15.32110685250352
 31
0.0
 12
94.37500000000003
 22
18.62310685250352
 32
0.0
 13
94.37500000000003
 23
18.62310685250352
 33
0.0
  0
MTEXT
  5
2D5
330
2CB
100
AcDbEntity
  8
치수문자_일반주서
 62
     0
100
AcDbMText
 10
89.99999999999999
 20
32.28960685250352
 30
0.0
 40
3.5
 41
0.0
 71
     2
 72
     1
  1
\A1;%%c4
  7
SLDTEXTSTYLE0
 11
-3.552713678800504E-15
 21
1.0
 31
0.0
 73
     1
 44
1.0
  0
POINT
  5
2D6
330
2CB
100
AcDbEntity
  8
Defpoints
 62
     0
100
AcDbPoint
 10
84.37499999999999
 20
22.62310685250348
 30
0.0
  0
POINT
  5
2D7
330
2CB
100
AcDbEntity
  8
Defpoints
 62
     0
100
AcDbPoint
 10
84.37499999999999
 20
18.62310685250348
 30
0.0
  0
POINT
  5
2D8
330
2CB
100
AcDbEntity
  8
Defpoints
 62
     0
100
AcDbPoint
 10
94.37500000000003
 20
18.62310685250352
 30
0.0
  0
ENDBLK
  5
2D9
330
2CB
100
AcDbEntity
  8
0
100
AcDbBlockEnd
  0
BLOCK
  5
2DE
330
2DD
100
AcDbEntity
  8
0
100
AcDbBlockBegin
  2
*D20
 70
     1
 10
0.0
 20
0.0
 30
0.0
  3
*D20
  1

  0
LINE
  5
2DF
330
2DD
100
AcDbEntity
  8
치수문자_일반주서
 62
     0
370
    -2
100
AcDbLine
 10
14.91250000000002
 20
22.62310685250349
 30
0.0
 11
4.375000000000038
 21
22.62310685250345
 31
0.0
  0
LINE
  5
2E0
330
2DD
100
AcDbEntity
  8
치수문자_일반주서
 62
     0
370
    -2
100
AcDbLine
 10
14.91250000000002
 20
18.62310685250348
 30
0.0
 11
4.375000000000052
 21
18.62310685250344
 31
0.0
  0
LINE
  5
2E1
330
2DD
100
AcDbEntity
  8
치수문자_일반주서
 62
     0
370
    -2
100
AcDbLine
 10
4.375000000000038
 20
22.62310685250345
 30
0.0
 11
4.374999999999989
 21
36.35210685250345
 31
0.0
  0
LINE
  5
2E2
330
2DD
100
AcDbEntity
  8
치수문자_일반주서
 62
     0
370
    -2
100
AcDbLine
 10
4.375000000000038
 20
22.62310685250345
 30
0.0
 11
4.375000000000052
 21
18.62310685250344
 31
0.0
  0
LINE
  5
2E3
330
2DD
100
AcDbEntity
  8
치수문자_일반주서
 62
     0
370
    -2
100
AcDbLine
 10
4.375000000000027
 20
25.92510685250345
 30
0.0
 11
4.375000000000015
 21
29.22710685250345
 31
0.0
  0
LINE
  5
2E4
330
2DD
100
AcDbEntity
  8
치수문자_일반주서
 62
     0
370
    -2
100
AcDbLine
 10
4.375000000000064
 20
15.32110685250344
 30
0.0
 11
4.375000000000075
 21
12.01910685250344
 31
0.0
  0
SOLID
  5
2E5
330
2DD
100
AcDbEntity
  8
치수문자_일반주서
 62
     0
100
AcDbTrace
 10
3.824666666666694
 20
25.92510685250345
 30
0.0
 11
4.92533333333336
 21
25.92510685250346
 31
0.0
 12
4.375000000000038
 22
22.62310685250345
 32
0.0
 13
4.375000000000038
 23
22.62310685250345
 33
0.0
  0
SOLID
  5
2E6
330
2DD
100
AcDbEntity
  8
치수문자_일반주서
 62
     0
100
AcDbTrace
 10
4.925333333333398
 20
15.32110685250344
 30
0.0
 11
3.824666666666731
 21
15.32110685250344
 31
0.0
 12
4.375000000000052
 22
18.62310685250344
 32
0.0
 13
4.375000000000052
 23
18.62310685250344
 33
0.0
  0
MTEXT
  5
2E7
330
2DD
100
AcDbEntity
  8
치수문자_일반주서
 62
     0
100
AcDbMText
 10
0.0
 20
33.28960685250344
 30
0.0
 40
3.5
 41
0.0
 71
     2
 72
     1
  1
\A1;%%c4
  7
SLDTEXTSTYLE0
 11
-3.552713678800488E-15
 21
1.0
 31
0.0
 73
     1
 44
1.0
  0
POINT
  5
2E8
330
2DD
100
AcDbEntity
  8
Defpoints
 62
     0
100
AcDbPoint
 10
14.97500000000002
 20
22.62310685250349
 30
0.0
  0
POINT
  5
2E9
330
2DD
100
AcDbEntity
  8
Defpoints
 62
     0
100
AcDbPoint
 10
14.97500000000002
 20
18.62310685250348
 30
0.0
  0
POINT
  5
2EA
330
2DD
100
AcDbEntity
  8
Defpoints
 62
     0
100
AcDbPoint
 10
4.37500000000005
 20
18.62310685250344
 30
0.0
  0
ENDBLK
  5
2EB
330
2DD
100
AcDbEntity
  8
0
100
AcDbBlockEnd
  0
BLOCK
  5
2EE
330
2ED
100
AcDbEntity
  8
0
100
AcDbBlockBegin
  2
*D21
 70
     1
 10
0.0
 20
0.0
 30
0.0
  3
*D21
  1

  0
LINE
  5
2EF
330
2ED
100
AcDbEntity
  8
치수문자_일반주서
 62
     0
370
    -2
100
AcDbLine
 10
84.37499999999999
 20
22.68560685250348
 30
0.0
 11
84.37499999999999
 21
33.6231068525035
 31
0.0
  0
LINE
  5
2F0
330
2ED
100
AcDbEntity
  8
치수문자_일반주서
 62
     0
370
    -2
100
AcDbLine
 10
74.37500000000004
 20
22.65717841243329
 30
0.0
 11
74.37500000000004
 21
33.6231068525035
 31
0.0
  0
LINE
  5
2F1
330
2ED
100
AcDbEntity
  8
치수문자_일반주서
 62
     0
370
    -2
100
AcDbLine
 10
81.07299999999998
 20
33.6231068525035
 30
0.0
 11
77.67700000000005
 21
33.6231068525035
 31
0.0
  0
SOLID
  5
2F2
330
2ED
100
AcDbEntity
  8
치수문자_일반주서
 62
     0
100
AcDbTrace
 10
81.07299999999998
 20
33.07277351917016
 30
0.0
 11
81.07299999999998
 21
34.17344018583683
 31
0.0
 12
84.37499999999999
 22
33.6231068525035
 32
0.0
 13
84.37499999999999
 23
33.6231068525035
 33
0.0
  0
SOLID
  5
2F3
330
2ED
100
AcDbEntity
  8
치수문자_일반주서
 62
     0
100
AcDbTrace
 10
77.67700000000005
 20
34.17344018583683
 30
0.0
 11
77.67700000000005
 21
33.07277351917016
 31
0.0
 12
74.37500000000004
 22
33.6231068525035
 32
0.0
 13
74.37500000000004
 23
33.6231068525035
 33
0.0
  0
MTEXT
  5
2F4
330
2ED
100
AcDbEntity
  8
치수문자_일반주서
 62
     0
100
AcDbMText
 10
79.3750000000001
 20
37.9981068525035
 30
0.0
 40
3.5
 41
0.0
 71
     2
 72
     1
  1
\A1;10
  7
SLDTEXTSTYLE0
 73
     1
 44
1.0
  0
POINT
  5
2F5
330
2ED
100
AcDbEntity
  8
Defpoints
 62
     0
100
AcDbPoint
 10
84.37499999999999
 20
22.62310685250348
 30
0.0
  0
POINT
  5
2F6
330
2ED
100
AcDbEntity
  8
Defpoints
 62
     0
100
AcDbPoint
 10
74.37500000000004
 20
22.59467841243329
 30
0.0
  0
POINT
  5
2F7
330
2ED
100
AcDbEntity
  8
Defpoints
 62
     0
100
AcDbPoint
 10
74.37500000000004
 20
33.6231068525035
 30
0.0
  0
ENDBLK
  5
2F8
330
2ED
100
AcDbEntity
  8
0
100
AcDbBlockEnd
  0
BLOCK
  5
2FB
330
2FA
100
AcDbEntity
  8
0
100
AcDbBlockBegin
  2
*D22
 70
     1
 10
0.0
 20
0.0
 30
0.0
  3
*D22
  1

  0
LINE
  5
2FC
330
2FA
100
AcDbEntity
  8
치수문자_일반주서
 62
     0
370
    -2
100
AcDbLine
 10
84.37499999999999
 20
22.68560685250348
 30
0.0
 11
84.37499999999999
 21
43.6231068525035
 31
0.0
  0
LINE
  5
2FD
330
2FA
100
AcDbEntity
  8
치수문자_일반주서
 62
     0
370
    -2
100
AcDbLine
 10
14.37500000000003
 20
23.08560685250349
 30
0.0
 11
14.37500000000003
 21
43.6231068525035
 31
0.0
  0
LINE
  5
2FE
330
2FA
100
AcDbEntity
  8
치수문자_일반주서
 62
     0
370
    -2
100
AcDbLine
 10
81.07299999999998
 20
43.6231068525035
 30
0.0
 11
17.67700000000003
 21
43.6231068525035
 31
0.0
  0
SOLID
  5
2FF
330
2FA
100
AcDbEntity
  8
치수문자_일반주서
 62
     0
100
AcDbTrace
 10
81.07299999999998
 20
43.07277351917016
 30
0.0
 11
81.07299999999998
 21
44.17344018583683
 31
0.0
 12
84.37499999999999
 22
43.6231068525035
 32
0.0
 13
84.37499999999999
 23
43.6231068525035
 33
0.0
  0
SOLID
  5
300
330
2FA
100
AcDbEntity
  8
치수문자_일반주서
 62
     0
100
AcDbTrace
 10
17.67700000000003
 20
44.17344018583683
 30
0.0
 11
17.67700000000003
 21
43.07277351917016
 31
0.0
 12
14.37500000000003
 22
43.6231068525035
 32
0.0
 13
14.37500000000003
 23
43.6231068525035
 33
0.0
  0
MTEXT
  5
301
330
2FA
100
AcDbEntity
  8
치수문자_일반주서
 62
     0
100
AcDbMText
 10
49.37500000000001
 20
47.9981068525035
 30
0.0
 40
3.5
 41
0.0
 71
     2
 72
     1
  1
\A1;70
  7
SLDTEXTSTYLE0
 73
     1
 44
1.0
  0
POINT
  5
302
330
2FA
100
AcDbEntity
  8
Defpoints
 62
     0
100
AcDbPoint
 10
84.37499999999999
 20
22.62310685250348
 30
0.0
  0
POINT
  5
303
330
2FA
100
AcDbEntity
  8
Defpoints
 62
     0
100
AcDbPoint
 10
14.37500000000003
 20
23.02310685250349
 30
0.0
  0
POINT
  5
304
330
2FA
100
AcDbEntity
  8
Defpoints
 62
     0
100
AcDbPoint
 10
14.37500000000003
 20
43.6231068525035
 30
0.0
  0
ENDBLK
  5
305
330
2FA
100
AcDbEntity
  8
0
100
AcDbBlockEnd
  0
BLOCK
  5
311
330
310
100
AcDbEntity
  8
0
100
AcDbBlockBegin
  2
*D23
 70
     1
 10
0.0
 20
0.0
 30
0.0
  3
*D23
  1

  0
LINE
  5
312
330
310
100
AcDbEntity
  8
치수문자_일반주서
 62
     0
370
    -2
100
AcDbLine
 10
86.13968264493003
 20
15.87766090613641
 30
0.0
 11
96.54465933111764
 21
0.0
 31
0.0
  0
MTEXT
  5
313
330
310
100
AcDbEntity
  8
치수문자_일반주서
 62
     0
100
AcDbMText
 10
96.46212210778525
 20
4.9151018981568
 30
0.0
 40
3.5
 41
0.0
 71
     5
 72
     1
  1
\A1;R0.1
  7
SLDTEXTSTYLE0
 11
0.5481136522428035
 21
-0.8364038643054293
 31
0.0
 73
     1
 44
1.0
  0
SOLID
  5
314
330
310
100
AcDbEntity
  8
치수문자_일반주서
 62
     0
100
AcDbTrace
 10
86.59998357158612
 20
16.1793061194207
 30
0.0
 11
85.67938171827394
 21
15.57601569285212
 31
0.0
 12
84.3298113652243
 22
18.63946646607294
 32
0.0
 13
84.3298113652243
 23
18.63946646607294
 33
0.0
  0
LINE
  5
315
330
310
100
AcDbEntity
  8
치수문자_일반주서
 62
     0
100
AcDbLine
 10
84.18500000000002
 20
18.72310685250348
 30
0.0
 11
84.36500000000002
 21
18.72310685250348
 31
0.0
  0
LINE
  5
316
330
310
100
AcDbEntity
  8
치수문자_일반주서
 62
     0
100
AcDbLine
 10
84.27500000000002
 20
18.63310685250348
 30
0.0
 11
84.27500000000002
 21
18.81310685250348
 31
0.0
  0
POINT
  5
317
330
310
100
AcDbEntity
  8
Defpoints
 62
     0
100
AcDbPoint
 10
84.3298113652243
 20
18.63946646607294
 30
0.0
  0
POINT
  5
318
330
310
100
AcDbEntity
  8
Defpoints
 62
     0
100
AcDbPoint
 10
84.27500000000002
 20
18.72310685250348
 30
0.0
  0
ENDBLK
  5
319
330
310
100
AcDbEntity
  8
0
100
AcDbBlockEnd
  0
BLOCK
  5
35B
330
35A
100
AcDbEntity
  8
0
100
AcDbBlockBegin
  2
*D24
 70
     1
 10
0.0
 20
0.0
 30
0.0
  3
*D24
  1

  0
LINE
  5
35D
330
35A
100
AcDbEntity
  8
치수문자_일반주서
 62
     0
370
    -2
100
AcDbLine
 10
16.79455080756885
 20
2.001074928723888
 30
0.0
 11
26.73205080756889
 21
2.001074928723925
 31
0.0
  0
LINE
  5
35E
330
35A
100
AcDbEntity
  8
치수문자_일반주서
 62
     0
370
    -2
100
AcDbLine
 10
16.79455080756885
 20
-1.998925071276112
 30
0.0
 11
26.7320508075689
 21
-1.998925071276075
 31
0.0
  0
LINE
  5
35F
330
35A
100
AcDbEntity
  8
치수문자_일반주서
 62
     0
370
    -2
100
AcDbLine
 10
26.73205080756889
 20
2.001074928723925
 30
0.0
 11
26.73205080756884
 21
14.73007492872394
 31
0.0
  0
LINE
  5
360
330
35A
100
AcDbEntity
  8
치수문자_일반주서
 62
     0
370
    -2
100
AcDbLine
 10
26.73205080756889
 20
2.001074928723925
 30
0.0
 11
26.7320508075689
 21
-1.998925071276075
 31
0.0
  0
LINE
  5
361
330
35A
100
AcDbEntity
  8
치수문자_일반주서
 62
     0
370
    -2
100
AcDbLine
 10
26.73205080756888
 20
5.303074928723925
 30
0.0
 11
26.73205080756887
 21
8.605074928723925
 31
0.0
  0
LINE
  5
362
330
35A
100
AcDbEntity
  8
치수문자_일반주서
 62
     0
370
    -2
100
AcDbLine
 10
26.73205080756891
 20
-5.300925071276074
 30
0.0
 11
26.73205080756892
 21
-8.602925071276074
 31
0.0
  0
SOLID
  5
363
330
35A
100
AcDbEntity
  8
치수문자_일반주서
 62
     0
100
AcDbTrace
 10
26.18171747423554
 20
5.303074928723923
 30
0.0
 11
27.28238414090221
 21
5.303074928723927
 31
0.0
 12
26.73205080756889
 22
2.001074928723925
 32
0.0
 13
26.73205080756889
 23
2.001074928723925
 33
0.0
  0
SOLID
  5
364
330
35A
100
AcDbEntity
  8
치수문자_일반주서
 62
     0
100
AcDbTrace
 10
27.28238414090225
 20
-5.300925071276072
 30
0.0
 11
26.18171747423558
 21
-5.300925071276076
 31
0.0
 12
26.7320508075689
 22
-1.998925071276075
 32
0.0
 13
26.7320508075689
 23
-1.998925071276075
 33
0.0
  0
MTEXT
  5
365
330
35A
100
AcDbEntity
  8
치수문자_일반주서
 62
     0
100
AcDbMText
 10
22.35705080756885
 20
11.66757492872393
 30
0.0
 40
3.5
 41
0.0
 71
     2
 72
     1
  1
\A1;%%c4
  7
SLDTEXTSTYLE0
 11
-3.552713678800501E-15
 21
1.0
 31
0.0
 73
     1
 44
1.0
  0
POINT
  5
366
330
35A
100
AcDbEntity
  8
Defpoints
 62
     0
100
AcDbPoint
 10
16.73205080756885
 20
2.001074928723888
 30
0.0
  0
POINT
  5
367
330
35A
100
AcDbEntity
  8
Defpoints
 62
     0
100
AcDbPoint
 10
16.73205080756885
 20
-1.998925071276112
 30
0.0
  0
POINT
  5
368
330
35A
100
AcDbEntity
  8
Defpoints
 62
     0
100
AcDbPoint
 10
26.7320508075689
 20
-1.998925071276075
 30
0.0
  0
ENDBLK
  5
35C
330
35A
100
AcDbEntity
  8
0
100
AcDbBlockEnd
  0
BLOCK
  5
36A
330
369
100
AcDbEntity
  8
0
100
AcDbBlockBegin
  2
*D25
 70
     1
 10
0.0
 20
0.0
 30
0.0
  3
*D25
  1

  0
LINE
  5
36C
330
369
100
AcDbEntity
  8
치수문자_일반주서
 62
     0
370
    -2
100
AcDbLine
 10
-82.73044919243111
 20
2.001074928723898
 30
0.0
 11
-93.26794919243109
 21
2.001074928723858
 31
0.0
  0
LINE
  5
36D
330
369
100
AcDbEntity
  8
치수문자_일반주서
 62
     0
370
    -2
100
AcDbLine
 10
-82.73044919243111
 20
-1.998925071276116
 30
0.0
 11
-93.26794919243108
 21
-1.998925071276156
 31
0.0
  0
LINE
  5
36E
330
369
100
AcDbEntity
  8
치수문자_일반주서
 62
     0
370
    -2
100
AcDbLine
 10
-93.26794919243109
 20
2.001074928723858
 30
0.0
 11
-93.26794919243115
 21
15.73007492872386
 31
0.0
  0
LINE
  5
36F
330
369
100
AcDbEntity
  8
치수문자_일반주서
 62
     0
370
    -2
100
AcDbLine
 10
-93.26794919243109
 20
2.001074928723858
 30
0.0
 11
-93.26794919243108
 21
-1.998925071276156
 31
0.0
  0
LINE
  5
370
330
369
100
AcDbEntity
  8
치수문자_일반주서
 62
     0
370
    -2
100
AcDbLine
 10
-93.2679491924311
 20
5.303074928723857
 30
0.0
 11
-93.26794919243112
 21
8.605074928723857
 31
0.0
  0
LINE
  5
371
330
369
100
AcDbEntity
  8
치수문자_일반주서
 62
     0
370
    -2
100
AcDbLine
 10
-93.26794919243106
 20
-5.300925071276156
 30
0.0
 11
-93.26794919243105
 21
-8.602925071276156
 31
0.0
  0
SOLID
  5
372
330
369
100
AcDbEntity
  8
치수문자_일반주서
 62
     0
100
AcDbTrace
 10
-93.81828252576443
 20
5.303074928723856
 30
0.0
 11
-92.71761585909778
 21
5.303074928723859
 31
0.0
 12
-93.26794919243109
 22
2.001074928723858
 32
0.0
 13
-93.26794919243109
 23
2.001074928723858
 33
0.0
  0
SOLID
  5
373
330
369
100
AcDbEntity
  8
치수문자_일반주서
 62
     0
100
AcDbTrace
 10
-92.71761585909773
 20
-5.300925071276154
 30
0.0
 11
-93.81828252576439
 21
-5.300925071276158
 31
0.0
 12
-93.26794919243108
 22
-1.998925071276156
 32
0.0
 13
-93.26794919243108
 23
-1.998925071276156
 33
0.0
  0
MTEXT
  5
374
330
369
100
AcDbEntity
  8
치수문자_일반주서
 62
     0
100
AcDbMText
 10
-97.64294919243113
 20
12.66757492872384
 30
0.0
 40
3.5
 41
0.0
 71
     2
 72
     1
  1
\A1;%%c4
  7
SLDTEXTSTYLE0
 11
-3.552713678800489E-15
 21
1.0
 31
0.0
 73
     1
 44
1.0
  0
POINT
  5
375
330
369
100
AcDbEntity
  8
Defpoints
 62
     0
100
AcDbPoint
 10
-82.66794919243111
 20
2.001074928723899
 30
0.0
  0
POINT
  5
376
330
369
100
AcDbEntity
  8
Defpoints
 62
     0
100
AcDbPoint
 10
-82.66794919243111
 20
-1.998925071276116
 30
0.0
  0
POINT
  5
377
330
369
100
AcDbEntity
  8
Defpoints
 62
     0
100
AcDbPoint
 10
-93.26794919243108
 20
-1.998925071276155
 30
0.0
  0
ENDBLK
  5
36B
330
369
100
AcDbEntity
  8
0
100
AcDbBlockEnd
  0
BLOCK
  5
379
330
378
100
AcDbEntity
  8
0
100
AcDbBlockBegin
  2
*D26
 70
     1
 10
0.0
 20
0.0
 30
0.0
  3
*D26
  1

  0
LINE
  5
37B
330
378
100
AcDbEntity
  8
치수문자_일반주서
 62
     0
370
    -2
100
AcDbLine
 10
16.73205080756885
 20
2.063574928723888
 30
0.0
 11
16.73205080756885
 21
13.0010749287239
 31
0.0
  0
LINE
  5
37C
330
378
100
AcDbEntity
  8
치수문자_일반주서
 62
     0
370
    -2
100
AcDbLine
 10
6.73205080756891
 20
2.035146488653695
 30
0.0
 11
6.73205080756891
 21
13.0010749287239
 31
0.0
  0
LINE
  5
37D
330
378
100
AcDbEntity
  8
치수문자_일반주서
 62
     0
370
    -2
100
AcDbLine
 10
13.43005080756885
 20
13.0010749287239
 30
0.0
 11
10.03405080756891
 21
13.0010749287239
 31
0.0
  0
SOLID
  5
37E
330
378
100
AcDbEntity
  8
치수문자_일반주서
 62
     0
100
AcDbTrace
 10
13.43005080756885
 20
12.45074159539057
 30
0.0
 11
13.43005080756885
 21
13.55140826205723
 31
0.0
 12
16.73205080756885
 22
13.0010749287239
 32
0.0
 13
16.73205080756885
 23
13.0010749287239
 33
0.0
  0
SOLID
  5
37F
330
378
100
AcDbEntity
  8
치수문자_일반주서
 62
     0
100
AcDbTrace
 10
10.03405080756891
 20
13.55140826205723
 30
0.0
 11
10.03405080756891
 21
12.45074159539057
 31
0.0
 12
6.73205080756891
 22
13.0010749287239
 32
0.0
 13
6.73205080756891
 23
13.0010749287239
 33
0.0
  0
MTEXT
  5
380
330
378
100
AcDbEntity
  8
치수문자_일반주서
 62
     0
100
AcDbMText
 10
11.73205080756897
 20
17.3760749287239
 30
0.0
 40
3.5
 41
0.0
 71
     2
 72
     1
  1
\A1;10
  7
SLDTEXTSTYLE0
 73
     1
 44
1.0
  0
POINT
  5
381
330
378
100
AcDbEntity
  8
Defpoints
 62
     0
100
AcDbPoint
 10
16.73205080756885
 20
2.001074928723888
 30
0.0
  0
POINT
  5
382
330
378
100
AcDbEntity
  8
Defpoints
 62
     0
100
AcDbPoint
 10
6.73205080756891
 20
1.972646488653695
 30
0.0
  0
POINT
  5
383
330
378
100
AcDbEntity
  8
Defpoints
 62
     0
100
AcDbPoint
 10
6.73205080756891
 20
13.0010749287239
 30
0.0
  0
ENDBLK
  5
37A
330
378
100
AcDbEntity
  8
0
100
AcDbBlockEnd
  0
BLOCK
  5
385
330
384
100
AcDbEntity
  8
0
100
AcDbBlockBegin
  2
*D27
 70
     1
 10
0.0
 20
0.0
 30
0.0
  3
*D27
  1

  0
LINE
  5
387
330
384
100
AcDbEntity
  8
치수문자_일반주서
 62
     0
370
    -2
100
AcDbLine
 10
16.73205080756885
 20
2.063574928723888
 30
0.0
 11
16.73205080756885
 21
23.0010749287239
 31
0.0
  0
LINE
  5
388
330
384
100
AcDbEntity
  8
치수문자_일반주서
 62
     0
370
    -2
100
AcDbLine
 10
-83.2679491924311
 20
1.463574928723901
 30
0.0
 11
-83.2679491924311
 21
23.0010749287239
 31
0.0
  0
LINE
  5
389
330
384
100
AcDbEntity
  8
치수문자_일반주서
 62
     0
370
    -2
100
AcDbLine
 10
13.43005080756885
 20
23.0010749287239
 30
0.0
 11
-79.96594919243111
 21
23.0010749287239
 31
0.0
  0
SOLID
  5
38A
330
384
100
AcDbEntity
  8
치수문자_일반주서
 62
     0
100
AcDbTrace
 10
13.43005080756885
 20
22.45074159539057
 30
0.0
 11
13.43005080756885
 21
23.55140826205724
 31
0.0
 12
16.73205080756885
 22
23.0010749287239
 32
0.0
 13
16.73205080756885
 23
23.0010749287239
 33
0.0
  0
SOLID
  5
38B
330
384
100
AcDbEntity
  8
치수문자_일반주서
 62
     0
100
AcDbTrace
 10
-79.96594919243111
 20
23.55140826205724
 30
0.0
 11
-79.96594919243111
 21
22.45074159539057
 31
0.0
 12
-83.2679491924311
 22
23.0010749287239
 32
0.0
 13
-83.2679491924311
 23
23.0010749287239
 33
0.0
  0
MTEXT
  5
38C
330
384
100
AcDbEntity
  8
치수문자_일반주서
 62
     0
100
AcDbMText
 10
-33.26794919243113
 20
27.3760749287239
 30
0.0
 40
3.5
 41
0.0
 71
     2
 72
     1
  1
\A1;100
  7
SLDTEXTSTYLE0
 73
     1
 44
1.0
  0
POINT
  5
38D
330
384
100
AcDbEntity
  8
Defpoints
 62
     0
100
AcDbPoint
 10
16.73205080756885
 20
2.001074928723888
 30
0.0
  0
POINT
  5
38E
330
384
100
AcDbEntity
  8
Defpoints
 62
     0
100
AcDbPoint
 10
-83.2679491924311
 20
1.401074928723901
 30
0.0
  0
POINT
  5
38F
330
384
100
AcDbEntity
  8
Defpoints
 62
     0
100
AcDbPoint
 10
-83.2679491924311
 20
23.0010749287239
 30
0.0
  0
ENDBLK
  5
386
330
384
100
AcDbEntity
  8
0
100
AcDbBlockEnd
  0
BLOCK
  5
391
330
390
100
AcDbEntity
  8
0
100
AcDbBlockBegin
  2
*D28
 70
     1
 10
0.0
 20
0.0
 30
0.0
  3
*D28
  1

  0
LINE
  5
393
330
390
100
AcDbEntity
  8
치수문자_일반주서
 62
     0
370
    -2
100
AcDbLine
 10
18.49673345249891
 20
-4.744371017643184
 30
0.0
 11
28.90171013868651
 21
-20.6220319237796
 31
0.0
  0
MTEXT
  5
394
330
390
100
AcDbEntity
  8
치수문자_일반주서
 62
     0
100
AcDbMText
 10
28.81917291535411
 20
-15.7069300256228
 30
0.0
 40
3.5
 41
0.0
 71
     5
 72
     1
  1
\A1;R0.1
  7
SLDTEXTSTYLE0
 11
0.5481136522428035
 21
-0.8364038643054293
 31
0.0
 73
     1
 44
1.0
  0
SOLID
  5
395
330
390
100
AcDbEntity
  8
치수문자_일반주서
 62
     0
100
AcDbTrace
 10
18.95703437915499
 20
-4.442725804358894
 30
0.0
 11
18.03643252584282
 21
-5.046016230927473
 31
0.0
 12
16.68686217279317
 22
-1.982565457706656
 32
0.0
 13
16.68686217279317
 23
-1.982565457706656
 33
0.0
  0
LINE
  5
396
330
390
100
AcDbEntity
  8
치수문자_일반주서
 62
     0
100
AcDbLine
 10
16.54205080756889
 20
-1.898925071276111
 30
0.0
 11
16.72205080756889
 21
-1.898925071276111
 31
0.0
  0
LINE
  5
397
330
390
100
AcDbEntity
  8
치수문자_일반주서
 62
     0
100
AcDbLine
 10
16.63205080756889
 20
-1.988925071276111
 30
0.0
 11
16.63205080756889
 21
-1.80892507127611
 31
0.0
  0
POINT
  5
398
330
390
100
AcDbEntity
  8
Defpoints
 62
     0
100
AcDbPoint
 10
16.68686217279317
 20
-1.982565457706656
 30
0.0
  0
POINT
  5
399
330
390
100
AcDbEntity
  8
Defpoints
 62
     0
100
AcDbPoint
 10
16.63205080756889
 20
-1.898925071276111
 30
0.0
  0
ENDBLK
  5
392
330
390
100
AcDbEntity
  8
0
100
AcDbBlockEnd
  0
ENDSEC
  0
SECTION
  2
ENTITIES
  0
LINE
  5
C7
330
1F
100
AcDbEntity
  8
참조1
100
AcDbLine
 10
-15.77564223695981
 20
-2.499999999999974
 30
0.0
 11
-15.7756422369598
 21
-40.0
 31
0.0
  0
LINE
  5
C8
330
1F
100
AcDbEntity
  8
참조1
100
AcDbLine
 10
-15.7756422369598
 20
-40.0
 30
0.0
 11
-30.93398568371225
 21
-40.0
 31
0.0
  0
INSERT
  5
CA
330
1F
100
AcDbEntity
  8
0
  6
Continuous
 62
     7
100
AcDbBlockReference
 66
     1
  2
블럭10
 10
-29.71591516908501
 20
-52.04717430164393
 30
0.0
  0
ATTRIB
  5
CB
330
CA
100
AcDbEntity
  8
FORMAT
 62
     2
100
AcDbText
 10
-53.61980731179777
 20
-49.97180738881174
 30
0.0
 40
4.233333333333333
  1
SEME01040011004SE [ 4 FLUTE ]
 41
0.75
  7
SLDTEXTSTYLE0
 11
-53.61980731179777
 21
-52.08847405547841
 31
0.0
100
AcDbAttribute
  2
AUTOATTR0
 70
     0
 74
     1
  0
SEQEND
  5
CC
330
CA
100
AcDbEntity
  8
0
  6
Continuous
 62
     7
  0
HATCH
  5
CD
330
1F
100
AcDbEntity
  8
중심선
100
AcDbHatch
 10
0.0
 20
0.0
 30
0.0
210
0.0
220
0.0
230
1.0
  2
SOLID
 70
     1
 71
     0
 91
        1
 92
        0
 93
        4
 72
     1
 10
-24.00100586470416
 20
-35.8
 11
-27.44728110854144
 21
-35.8
 72
     1
 10
-27.44728110854144
 20
-35.8
 11
-29.57551096774547
 21
-38.33632558057259
 72
     1
 10
-29.57551096774547
 20
-38.33632558057259
 11
-26.12920263879504
 21
-38.3362861512701
 72
     1
 10
-26.12920263879504
 20
-38.3362861512701
 11
-24.00100586470416
 21
-35.8
 97
        0
 75
     0
 76
     1
 98
        1
 10
0.0
 20
0.0
  0
HATCH
  5
CE
330
1F
100
AcDbEntity
  8
중심선
100
AcDbHatch
 10
0.0
 20
0.0
 30
0.0
210
0.0
220
0.0
230
1.0
  2
SOLID
 70
     1
 71
     0
 91
        1
 92
        0
 93
        4
 72
     1
 10
-18.98824187366821
 20
-35.8
 11
-22.43451711750549
 21
-35.8
 72
     1
 10
-22.43451711750549
 20
-35.8
 11
-26.96565512586288
 21
-41.20000000000002
 72
     1
 10
-26.96565512586288
 20
-41.20000000000002
 11
-23.5193798820256
 21
-41.20000000000002
 72
     1
 10
-23.5193798820256
 20
-41.20000000000002
 11
-18.98824187366821
 21
-35.8
 97
        0
 75
     0
 76
     1
 98
        1
 10
0.0
 20
0.0
  0
HATCH
  5
CF
330
1F
100
AcDbEntity
  8
중심선
100
AcDbHatch
 10
0.0
 20
0.0
 30
0.0
210
0.0
220
0.0
230
1.0
  2
SOLID
 70
     1
 71
     0
 91
        1
 92
        0
 93
        4
 72
     1
 10
-13.97547788263232
 20
-35.80000000000003
 11
-17.42175312646943
 21
-35.8
 72
     1
 10
-17.42175312646943
 20
-35.8
 11
-24.47019002835868
 21
-44.20000000000002
 72
     1
 10
-24.47019002835868
 20
-44.20000000000002
 11
-21.0239147845214
 21
-44.20000000000002
 72
     1
 10
-21.0239147845214
 20
-44.20000000000002
 11
-13.97547788263232
 21
-35.80000000000003
 97
        0
 75
     0
 76
     1
 98
        1
 10
0.0
 20
0.0
  0
HATCH
  5
D0
330
1F
100
AcDbEntity
  8
중심선
100
AcDbHatch
 10
0.0
 20
0.0
 30
0.0
210
0.0
220
0.0
230
1.0
  2
SOLID
 70
     1
 71
     0
 91
        1
 92
        0
 93
        6
 72
     3
 10
-9.175587451620116
 20
-40.00000000005127
 11
3.960054785062284
 21
1.540850780301639E-10
 40
0.3939339440162633
 50
17.09539180608433
 51
320.0019657685079
 73
     0
 72
     1
 10
-7.49258779591952
 20
-38.5878940046383
 11
-5.187285922218482
 21
-36.65356729459038
 72
     3
 10
-9.175587451672962
 20
-40.00000000000015
 11
6.600054785286829
 21
-1.249000902703301E-13
 40
0.6363583540795982
 50
39.99873849337408
 51
368.4976242363725
 73
     1
 72
     1
 10
-2.750254959772352
 20
-39.03999999993002
 11
-10.49552014483704
 21
-39.03999999992999
 72
     1
 10
-10.49552014483704
 20
-39.03999999992999
 11
-10.49554518928297
 21
-40.95999999992991
 72
     1
 10
-10.49554518928297
 20
-40.95999999992991
 11
-6.054165419810936
 21
-40.95999999992988
 97
        0
 75
     0
 76
     1
 98
        1
 10
0.0
 20
0.0
  0
LINE
  5
103
330
1F
100
AcDbEntity
  8
참조1
100
AcDbLine
 10
67.03835494594202
 20
7.440000000000002
 30
0.0
 11
67.03835494594202
 21
-7.440000000000002
 31
0.0
  0
LINE
  5
104
330
1F
100
AcDbEntity
  8
참조1
100
AcDbLine
 10
79.73835494594202
 20
5.440000000000002
 30
0.0
 11
67.03835494594202
 21
5.440000000000002
 31
0.0
  0
SOLID
  5
105
330
1F
100
AcDbEntity
  8
참조1
100
AcDbTrace
 10
67.03835494594202
 20
5.440000000000002
 30
0.0
 11
73.38835494594201
 21
4.424000000000002
 31
0.0
 12
73.38835494594201
 22
6.456000000000002
 32
0.0
 13
73.38835494594201
 23
6.456000000000002
 33
0.0
  0
LINE
  5
106
330
1F
100
AcDbEntity
  8
참조1
100
AcDbLine
 10
79.73835494594202
 20
-5.440000000000002
 30
0.0
 11
67.03835494594202
 21
-5.440000000000002
 31
0.0
  0
SOLID
  5
107
330
1F
100
AcDbEntity
  8
참조1
100
AcDbTrace
 10
67.03835494594202
 20
-5.440000000000002
 30
0.0
 11
73.38835494594201
 21
-6.456000000000002
 31
0.0
 12
73.38835494594201
 22
-4.424000000000002
 32
0.0
 13
73.38835494594201
 23
-4.424000000000002
 33
0.0
  0
MTEXT
  5
108
330
1F
100
AcDbEntity
  8
참조1
100
AcDbMText
 10
76.4358450384123
 20
10.98821664464994
 30
0.0
 40
3.5
 41
0.0
 71
     1
 72
     1
  1
A
  7
SLDTEXTSTYLE0
 73
     1
 44
1.0
  0
MTEXT
  5
109
330
1F
100
AcDbEntity
  8
참조1
100
AcDbMText
 10
76.4358450384123
 20
0.1082166446499328
 30
0.0
 40
3.5
 41
0.0
 71
     1
 72
     1
  1
A
  7
SLDTEXTSTYLE0
 73
     1
 44
1.0
  0
LINE
  5
321
330
1F
100
AcDbEntity
  8
0
  6
Continuous
 62
     1
370
    15
100
AcDbLine
 10
11.58868358188717
 20
-1.998925071276108
 30
0.0
 11
12.80823225489276
 21
-1.998925071276108
 31
0.0
1001
PE_URL
1000

  0
LINE
  5
322
330
1F
100
AcDbEntity
  8
0
  6
Continuous
 62
     1
370
    15
100
AcDbLine
 10
7.36703120472653
 20
2.001074928723895
 30
0.0
 11
6.73205080756891
 21
2.001074928723895
 31
0.0
1001
PE_URL
1000

  0
LINE
  5
323
330
1F
100
AcDbEntity
  8
0
  6
Continuous
 62
     1
370
    15
100
AcDbLine
 10
12.80823225489276
 20
2.001074928723895
 30
0.0
 11
11.58868358188717
 21
2.001074928723895
 31
0.0
1001
PE_URL
1000

  0
LINE
  5
324
330
1F
100
AcDbEntity
  8
0
  6
Continuous
 62
     1
370
    15
100
AcDbLine
 10
6.73205080756891
 20
-1.998925071276108
 30
0.0
 11
7.367031204726473
 21
-1.998925071276108
 31
0.0
1001
PE_URL
1000

  0
LINE
  5
325
330
1F
100
AcDbEntity
  8
외형선
  6
Continuous
370
    15
100
AcDbLine
 10
-82.66794919243111
 20
2.001074928723899
 30
0.0
 11
-83.2679491924311
 21
1.401074928723901
 31
0.0
  0
LINE
  5
326
330
1F
100
AcDbEntity
  8
외형선
  6
Continuous
370
    15
100
AcDbLine
 10
6.14576987154841
 20
-1.998925071276108
 30
0.0
 11
6.73205080756891
 21
-1.998925071276108
 31
0.0
  0
LINE
  5
327
330
1F
100
AcDbEntity
  8
외형선
  6
Continuous
370
    15
100
AcDbLine
 10
6.73205080756891
 20
2.001074928723892
 30
0.0
 11
6.14576987154841
 21
2.001074928723892
 31
0.0
  0
LINE
  5
328
330
1F
100
AcDbEntity
  8
0
  6
Continuous
 62
     1
370
    15
100
AcDbLine
 10
16.73205080756885
 20
-1.730914532576612
 30
0.0
 11
16.73205080756885
 21
0.1905643900243312
 31
0.0
1001
PE_URL
1000

  0
SPLINE
  5
329
330
1F
100
AcDbEntity
  8
0
  6
Continuous
 62
     1
370
    15
100
AcDbSpline
210
0.0
220
0.0
230
1.0
 70
     8
 71
     3
 72
    17
 73
    13
 74
     0
 42
0.000000001
 43
0.00000001
 40
0.0
 40
0.0
 40
0.0
 40
0.0
 40
0.0000509431557505
 40
0.0000509431557505
 40
0.0000509431557505
 40
0.0000960973346529
 40
0.0000960973346529
 40
0.0000960973346529
 40
0.0001422100540981
 40
0.0001422100540981
 40
0.0001422100540981
 40
0.0001780801897353
 40
0.0001780801897353
 40
0.0001780801897353
 40
0.0001780801897353
 10
16.63205080756889
 20
-1.784899830215675
 30
0.0
 10
16.64674170556209
 20
-1.788733026832528
 30
0.0
 10
16.66120436684385
 20
-1.789985082362417
 30
0.0
 10
16.67410093682334
 20
-1.788679146257387
 30
0.0
 10
16.68557653124221
 20
-1.787517101380178
 30
0.0
 10
16.6961808745324
 20
-1.784303259707141
 30
0.0
 10
16.70502883637597
 20
-1.77908976843316
 30
0.0
 10
16.71403073200436
 20
-1.7737855746383
 30
0.0
 10
16.72150434376142
 20
-1.766187612179174
 30
0.0
 10
16.72623805811226
 20
-1.756685695705798
 30
0.0
 10
16.72993565884686
 20
-1.74926355513546
 30
0.0
 10
16.73205080756885
 20
-1.740429848392182
 30
0.0
 10
16.73205080756885
 20
-1.730914532576612
 30
0.0
1001
PE_URL
1000

  0
SPLINE
  5
32A
330
1F
100
AcDbEntity
  8
0
  6
Continuous
 62
     1
370
    15
100
AcDbSpline
210
0.0
220
0.0
230
1.0
 70
     8
 71
     3
 72
    18
 73
    14
 74
     0
 42
0.000000001
 43
0.00000001
 40
0.0
 40
0.0
 40
0.0
 40
0.0
 40
0.0311643285550774
 40
0.1308121421038258
 40
0.2304572371493612
 40
0.330149811139228
 40
0.429939557773788
 40
0.529809668356785
 40
0.623866939611097
 40
0.7178054082745454
 40
0.8117406275766557
 40
0.9057882105143285
 40
1.0
 40
1.0
 40
1.0
 40
1.0
 10
7.36703120472653
 20
1.98582162451639
 30
0.0
 10
7.463276944223097
 20
1.990134028016577
 30
0.0
 10
7.867268043523282
 20
2.00823532413397
 30
0.0
 10
8.578876673618552
 20
1.89574012187942
 30
0.0
 10
9.502118962203511
 20
1.653632381931882
 30
0.0
 10
10.42588009570598
 20
1.284452509052493
 30
0.0
 10
11.35051141175963
 20
0.8271280876856721
 30
0.0
 10
12.2580285696197
 20
0.3207158588880965
 30
0.0
 10
13.14702162851479
 20
-0.1961889042959548
 30
0.0
 10
14.01746360128296
 20
-0.6911038496361499
 30
0.0
 10
14.88786877716093
 20
-1.140274222499571
 30
0.0
 10
15.75933214518234
 20
-1.52575308262438
 30
0.0
 10
16.34097547674465
 20
-1.698467365163435
 30
0.0
 10
16.63205080756889
 20
-1.784899830215679
 30
0.0
1001
PE_URL
1000

  0
SPLINE
  5
32B
330
1F
100
AcDbEntity
  8
0
  6
Continuous
 62
     1
370
    15
100
AcDbSpline
210
0.0
220
0.0
230
1.0
 70
     8
 71
     3
 72
    15
 73
    11
 74
     0
 42
0.000000001
 43
0.00000001
 40
0.0
 40
0.0
 40
0.0
 40
0.0
 40
0.1294890135405891
 40
0.2588700893826116
 40
0.388126357525644
 40
0.5173222674351612
 40
0.6465229090151786
 40
0.7757933218800431
 40
0.8978880826349522
 40
1.0
 40
1.0
 40
1.0
 40
1.0
 10
16.63205080756889
 20
0.2302327754625679
 30
0.0
 10
16.32350622962208
 20
0.4053919067208902
 30
0.0
 10
15.70667426614007
 20
0.7555641624606437
 30
0.0
 10
14.78203223527812
 20
1.22313724544329
 30
0.0
 10
13.85828961513251
 20
1.605427221727179
 30
0.0
 10
12.93506084385628
 20
1.87363625869456
 30
0.0
 10
12.01177920424705
 20
2.010391958229985
 30
0.0
 10
11.10536277827869
 20
2.001939593362916
 30
0.0
 10
10.2631216698281
 20
1.879551172846011
 30
0.0
 10
9.728996207678293
 20
1.712817751440998
 30
0.0
 10
9.485735946605999
 20
1.636881256189096
 30
0.0
1001
PE_URL
1000

  0
SPLINE
  5
32C
330
1F
100
AcDbEntity
  8
0
  6
Continuous
 62
     1
370
    15
100
AcDbSpline
210
0.0
220
0.0
230
1.0
 70
     8
 71
     3
 72
    23
 73
    19
 74
     0
 42
0.000000001
 43
0.00000001
 40
0.0
 40
0.0
 40
0.0
 40
0.0
 40
0.0000301707749598
 40
0.0000301707749598
 40
0.0000301707749598
 40
0.0000604362493559
 40
0.0000604362493559
 40
0.0000604362493559
 40
0.0000896329796977
 40
0.0000896329796977
 40
0.0000896329796977
 40
0.00011946514618
 40
0.00011946514618
 40
0.00011946514618
 40
0.0001523619266972
 40
0.0001523619266972
 40
0.0001523619266972
 40
0.0001635447213168
 40
0.0001635447213168
 40
0.0001635447213168
 40
0.0001635447213168
 10
16.73205080756885
 20
0.1905643900245124
 30
0.0
 10
16.7320508075688
 20
0.1892362342578515
 30
0.0
 10
16.73056781188184
 20
0.188548435892784
 30
0.0
 10
16.72761615235159
 20
0.1886561514436238
 30
0.0
 10
16.72465870102697
 20
0.1887640783556748
 30
0.0
 10
16.72013527373009
 20
0.1896830642935186
 30
0.0
 10
16.7144493624548
 20
0.191398887444322
 30
0.0
 10
16.70895586562143
 20
0.1930566461727388
 30
0.0
 10
16.70224079082739
 20
0.1955001621068071
 30
0.0
 10
16.69491335396147
 20
0.1985311925916875
 30
0.0
 10
16.6874178779628
 20
0.2016317332945583
 30
0.0
 10
16.67910887519726
 20
0.2054161268230281
 30
0.0
 10
16.67062127022218
 20
0.2095810545026211
 30
0.0
 10
16.66126235781788
 20
0.214173538888776
 30
0.0
 10
16.65147540013864
 20
0.2193286410875217
 30
0.0
 10
16.64188432111094
 20
0.2246648185256639
 30
0.0
 10
16.63859409528455
 20
0.2264953976263406
 30
0.0
 10
16.63530988518063
 20
0.228355852541366
 30
0.0
 10
16.63205080756889
 20
0.2302327754625786
 30
0.0
1001
PE_URL
1000

  0
SPLINE
  5
32D
330
1F
100
AcDbEntity
  8
0
  6
Continuous
 62
     1
370
    15
100
AcDbSpline
210
0.0
220
0.0
230
1.0
 70
     8
 71
     3
 72
    17
 73
    13
 74
     0
 42
0.000000001
 43
0.00000001
 40
0.0
 40
0.0
 40
0.0
 40
0.0
 40
0.1127227913981895
 40
0.2253857880635796
 40
0.3380457111570818
 40
0.4507593145066402
 40
0.5635827823976801
 40
0.6764971107193943
 40
0.7828393741399181
 40
0.8890473179459755
 40
0.9952515879856692
 40
1.0
 40
1.0
 40
1.0
 40
1.0
 10
6.73205080756891
 20
0.3654642209072492
 30
0.0
 10
7.039963686139814
 20
0.1881404762597043
 30
0.0
 10
7.655626108360039
 20
-0.166412950195042
 30
0.0
 10
8.578880565481953
 20
-0.6934998893894644
 30
0.0
 10
9.502117891086883
 20
-1.169610444540268
 30
0.0
 10
10.42588048688295
 20
-1.563452404383874
 30
0.0
 10
11.35051091882208
 20
-1.846735445707431
 30
0.0
 10
12.25803011076682
 20
-1.995480578785472
 30
0.0
 10
13.14701631205328
 20
-2.012318803763666
 30
0.0
 10
14.01748343696359
 20
-1.891092139546767
 30
0.0
 10
14.6104283153435
 20
-1.755457550768909
 30
0.0
 10
14.91349808940215
 20
-1.638869482765308
 30
0.0
 10
14.92646848479667
 20
-1.633879894658133
 30
0.0
1001
PE_URL
1000

  0
SPLINE
  5
32E
330
1F
100
AcDbEntity
  8
외형선
  6
Continuous
370
    15
100
AcDbSpline
210
0.0
220
0.0
230
1.0
 70
    24
 71
     3
 72
    12
 73
     8
 74
     0
 42
0.000000001
 43
0.00000001
 40
0.0
 40
0.0
 40
0.0
 40
0.0
 40
0.2026911574960862
 40
0.4165187150990378
 40
0.6303462727019883
 40
0.8441738303049438
 40
1.0
 40
1.0
 40
1.0
 40
1.0
 10
6.73205080756891
 20
1.972646488653698
 30
0.0
 10
6.73205080756891
 20
1.853486197643559
 30
0.0
 10
6.732050807568854
 20
1.608618627121505
 30
0.0
 10
6.73205080756891
 20
1.200830717769421
 30
0.0
 10
6.732050807568854
 20
0.8196212596193355
 30
0.0
 10
6.732050807568854
 20
0.5200704411553865
 30
0.0
 10
6.73205080756891
 20
0.4113112556847049
 30
0.0
 10
6.73205080756891
 20
0.3654642209072385
 30
0.0
  0
SPLINE
  5
32F
330
1F
100
AcDbEntity
  8
0
  6
Continuous
 62
     1
370
    15
100
AcDbSpline
210
0.0
220
0.0
230
1.0
 70
     8
 71
     3
 72
    38
 73
    34
 74
     0
 42
0.000000001
 43
0.00000001
 40
0.0
 40
0.0
 40
0.0
 40
0.0
 40
0.0625
 40
0.0625
 40
0.125
 40
0.125
 40
0.1875
 40
0.1875
 40
0.25
 40
0.25
 40
0.3125
 40
0.3125
 40
0.375
 40
0.375
 40
0.4375
 40
0.4375
 40
0.5
 40
0.5
 40
0.5625
 40
0.5625
 40
0.625
 40
0.625
 40
0.6875
 40
0.6875
 40
0.75
 40
0.75
 40
0.8125
 40
0.8125
 40
0.875
 40
0.875
 40
0.9375
 40
0.9375
 40
1.0
 40
1.0
 40
1.0
 40
1.0
 10
16.63205080756889
 20
-1.998925071276112
 30
0.0
 10
16.42705684184018
 20
-1.972136814289325
 30
0.0
 10
16.21851858951386
 20
-1.947835497109384
 30
0.0
 10
15.80425029088634
 20
-1.878804192516643
 30
0.0
 10
15.60128542511036
 20
-1.834367718594716
 30
0.0
 10
15.18845928652441
 20
-1.726044402534765
 30
0.0
 10
14.97968643739115
 20
-1.662126063466712
 30
0.0
 10
14.56735447545158
 20
-1.517838651059829
 30
0.0
 10
14.36413501492383
 20
-1.437619188504698
 30
0.0
 10
13.94960970740529
 20
-1.261690859363135
 30
0.0
 10
13.74119364791041
 20
-1.166306003268751
 30
0.0
 10
13.33193249543088
 20
-0.9653890213743814
 30
0.0
 10
13.12600098962794
 20
-0.8590593551233212
 30
0.0
 10
12.71093130001061
 20
-0.6377947929207295
 30
0.0
 10
12.50523652699282
 20
-0.5234869043024055
 30
0.0
 10
12.09575484264208
 20
-0.2909074680216541
 30
0.0
 10
11.88729991056711
 20
-0.1717413594384531
 30
0.0
 10
11.47284568795409
 20
0.0667115334301229
 30
0.0
 10
11.26971272120893
 20
0.1854354547085499
 30
0.0
 10
10.85722910103705
 20
0.4208635023677942
 30
0.0
 10
10.64845361188846
 20
0.537434845128125
 30
0.0
 10
10.23576898268534
 20
0.7627431399928533
 30
0.0
 10
10.03273957373456
 20
0.8713634596692863
 30
0.0
 10
9.61838989088973
 20
1.079657022210409
 30
0.0
 10
9.409885256199473
 20
1.178781673734594
 30
0.0
 10
9.00010795059309
 20
1.362407810210943
 30
0.0
 10
8.794722895454314
 20
1.447569610972455
 30
0.0
 10
8.379660305345865
 20
1.602147590572226
 30
0.0
 10
8.173389290113917
 20
1.671113033487106
 30
0.0
 10
7.764437313596218
 20
1.790344700970468
 30
0.0
 10
7.55607815742151
 20
1.841117186333349
 30
0.0
 10
7.14146244308138
 20
1.922302101707288
 30
0.0
 10
6.938109335685468
 20
1.952646101557328
 30
0.0
 10
6.732050807569365
 20
1.972646488650412
 30
0.0
1001
PE_URL
1000

  0
SPLINE
  5
330
330
1F
100
AcDbEntity
  8
0
  6
Continuous
 62
     1
370
    15
100
AcDbSpline
210
0.0
220
0.0
230
1.0
 70
     8
 71
     3
 72
    13
 73
     9
 74
     0
 42
0.000000001
 43
0.00000001
 40
0.0
 40
0.0
 40
0.0
 40
0.0
 40
0.1030474769889931
 40
0.2826849401844266
 40
0.462270593429391
 40
0.6415385634464212
 40
0.820708034142095
 40
1.0
 40
1.0
 40
1.0
 40
1.0
 10
11.58868358188717
 20
-1.981291662998231
 30
0.0
 10
11.42186618805643
 20
-1.984158171251359
 30
0.0
 10
10.9642444550973
 20
-1.992021718596238
 30
0.0
 10
10.21560800089476
 20
-1.859636351498342
 30
0.0
 10
9.343613076247166
 20
-1.612132838678413
 30
0.0
 10
8.472795910072321
 20
-1.256202953636588
 30
0.0
 10
7.602543332874248
 20
-0.8244191151304925
 30
0.0
 10
7.022281079338214
 20
-0.4981364266791779
 30
0.0
 10
6.732050807569365
 20
-0.3349393330105137
 30
0.0
1001
PE_URL
1000

  0
LINE
  5
331
330
1F
100
AcDbEntity
  8
외형선
  6
Continuous
370
    15
100
AcDbLine
 10
6.73205080756891
 20
-0.3349393330119135
 30
0.0
 11
6.73205080756891
 21
0.3654642209072598
 31
0.0
  0
LINE
  5
332
330
1F
100
AcDbEntity
  8
외형선
  6
Continuous
370
    15
100
AcDbLine
 10
6.73205080756891
 20
1.972646488653695
 30
0.0
 11
6.73205080756891
 21
2.001074928723895
 31
0.0
  0
SPLINE
  5
333
330
1F
100
AcDbEntity
  8
0
  6
Continuous
 62
     1
370
    15
100
AcDbSpline
210
0.0
220
0.0
230
1.0
 70
     8
 71
     3
 72
    17
 73
    13
 74
     0
 42
0.000000001
 43
0.00000001
 40
0.0
 40
0.0
 40
0.0
 40
0.0
 40
0.0000509431557505
 40
0.0000509431557505
 40
0.0000509431557505
 40
0.0000960973346529
 40
0.0000960973346529
 40
0.0000960973346529
 40
0.0001422100540981
 40
0.0001422100540981
 40
0.0001422100540981
 40
0.0001780801897353
 40
0.0001780801897353
 40
0.0001780801897353
 40
0.0001780801897353
 10
16.63205080756889
 20
0.9012383363509358
 30
0.0
 10
16.64674170556209
 20
0.8936330589693569
 30
0.0
 10
16.66120436684385
 20
0.8836997571965775
 30
0.0
 10
16.67410093682334
 20
0.8727302933147492
 30
0.0
 10
16.68557653124221
 20
0.8629694717396923
 30
0.0
 10
16.6961808745324
 20
0.8520912242997056
 30
0.0
 10
16.70502883637597
 20
0.8410076177867438
 30
0.0
 10
16.71403073200436
 20
0.8297311825150189
 30
0.0
 10
16.72150434376142
 20
0.8178459254878234
 30
0.0
 10
16.72623805811226
 20
0.8067269272895885
 30
0.0
 10
16.72993565884686
 20
0.798041651233973
 30
0.0
 10
16.73205080756885
 20
0.7895607624006509
 30
0.0
 10
16.73205080756885
 20
0.7822359274584407
 30
0.0
1001
PE_URL
1000

  0
LINE
  5
334
330
1F
100
AcDbEntity
  8
0
  6
Continuous
 62
     1
370
    15
100
AcDbLine
 10
16.73205080756885
 20
0.1905643900243312
 30
0.0
 11
16.73205080756885
 21
0.7822359274584407
 31
0.0
1001
PE_URL
1000

  0
SPLINE
  5
335
330
1F
100
AcDbEntity
  8
0
  6
Continuous
 62
     1
370
    15
100
AcDbSpline
210
0.0
220
0.0
230
1.0
 70
     8
 71
     3
 72
    12
 73
     8
 74
     0
 42
0.000000001
 43
0.00000001
 40
0.0
 40
0.0
 40
0.0
 40
0.0
 40
0.0886818294826316
 40
0.3162816935176154
 40
0.543873684801326
 40
0.7717379175697008
 40
1.0
 40
1.0
 40
1.0
 40
1.0
 10
12.80823225489276
 20
1.986059077750213
 30
0.0
 10
12.92127615537034
 20
1.989872437493435
 30
0.0
 10
13.32444461156327
 20
2.003472696809407
 30
0.0
 10
14.01745124968711
 20
1.895390704813366
 30
0.0
 10
14.88787207507995
 20
1.668894723518736
 30
0.0
 10
15.7593313186115
 20
1.33352599132002
 30
0.0
 10
16.34097520106083
 20
1.045417987370744
 30
0.0
 10
16.63205080756889
 20
0.9012383363509322
 30
0.0
1001
PE_URL
1000

  0
SPLINE
  5
336
330
1F
100
AcDbEntity
  8
0
  6
Continuous
 62
     1
370
    15
100
AcDbSpline
210
0.0
220
0.0
230
1.0
 70
     8
 71
     3
 72
    10
 73
     6
 74
     0
 42
0.000000001
 43
0.00000001
 40
0.0
 40
0.0
 40
0.0
 40
0.0
 40
0.3354221168277583
 40
0.6706663062319458
 40
0.9999999999999999
 40
0.9999999999999999
 40
0.9999999999999999
 40
0.9999999999999999
 10
6.732050807568854
 20
-1.965450037744141
 30
0.0
 10
7.039964012426097
 20
-1.983844880719765
 30
0.0
 10
7.655627087045858
 20
-2.020624808975104
 30
0.0
 10
8.573460198952446
 20
-1.904519594572008
 30
0.0
 10
9.183452374625986
 20
-1.72412601404649
 30
0.0
 10
9.485735946605942
 20
-1.634731398741309
 30
0.0
1001
PE_URL
1000

  0
SPLINE
  5
337
330
1F
100
AcDbEntity
  8
외형선
  6
Continuous
370
    15
100
AcDbSpline
210
0.0
220
0.0
230
1.0
 70
    24
 71
     3
 72
    17
 73
    13
 74
     0
 42
0.000000001
 43
0.00000001
 40
0.0
 40
0.0
 40
0.0
 40
0.0
 40
0.0337097530555681
 40
0.1381911620100623
 40
0.2457025389020085
 40
0.3501839478561952
 40
0.4576953247481169
 40
0.5621767337026181
 40
0.6696881105948833
 40
0.7741695195490573
 40
0.8816808964413179
 40
1.0
 40
1.0
 40
1.0
 40
1.0
 10
6.732050807568854
 20
-0.334939333010233
 30
0.0
 10
6.732050807568854
 20
-0.3436341162541829
 30
0.0
 10
6.732050807568854
 20
-0.379277871873704
 30
0.0
 10
6.732050807568854
 20
-0.4734658416596886
 30
0.0
 10
6.732050807568854
 20
-0.612843431419126
 30
0.0
 10
6.73205080756891
 20
-0.7782789554820368
 30
0.0
 10
6.73205080756891
 20
-0.959286051848597
 30
0.0
 10
6.73205080756891
 20
-1.154731086612184
 30
0.0
 10
6.73205080756891
 20
-1.355468286915059
 30
0.0
 10
6.73205080756891
 20
-1.559081784902844
 30
0.0
 10
6.732050807568967
 20
-1.766305978477348
 30
0.0
 10
6.73205080756891
 20
-1.89698403439478
 30
0.0
 10
6.732050807568854
 20
-1.965450037744144
 30
0.0
  0
SPLINE
  5
338
330
1F
100
AcDbEntity
  8
0
  6
Continuous
 62
     1
370
    15
100
AcDbSpline
210
0.0
220
0.0
230
1.0
 70
     8
 71
     3
 72
     9
 73
     5
 74
     0
 42
0.000000001
 43
0.00000001
 40
0.0
 40
0.0
 40
0.0
 40
0.0
 40
0.5426495230850952
 40
1.0
 40
1.0
 40
1.0
 40
1.0
 10
16.63205080756889
 20
2.001074928723892
 30
0.0
 10
16.32350234201984
 20
1.956205500822321
 30
0.0
 10
15.75490612581957
 20
1.89779261472945
 30
0.0
 10
15.18645148560383
 20
1.718177026873285
 30
0.0
 10
14.92646848479667
 20
1.636029752105919
 30
0.0
1001
PE_URL
1000

  0
LINE
  5
339
330
1F
100
AcDbEntity
  8
0
  6
Continuous
 62
     1
370
    15
100
AcDbLine
 10
16.73205080756885
 20
0.7693385471141418
 30
0.0
 11
16.73205080756885
 21
1.891602300665017
 31
0.0
1001
PE_URL
1000

  0
LINE
  5
33A
330
1F
100
AcDbEntity
  8
0
  6
Continuous
 62
     1
370
    15
100
AcDbLine
 10
16.73205080756885
 20
-1.88945244321723
 30
0.0
 11
16.73205080756885
 21
-1.730914532576612
 31
0.0
1001
PE_URL
1000

  0
LINE
  5
33B
330
1F
100
AcDbEntity
  8
외형선
  6
Continuous
370
    15
100
AcDbLine
 10
-82.66794919243111
 20
0.0010749287238916
 30
0.0
 11
-82.66794919243111
 21
2.001074928723899
 31
0.0
  0
LINE
  5
33C
330
1F
100
AcDbEntity
  8
외형선
  6
Continuous
370
    15
100
AcDbLine
 10
-82.66794919243111
 20
-1.998925071276108
 30
0.0
 11
-82.66794919243111
 21
0.0010749287238916
 31
0.0
  0
SPLINE
  5
33D
330
1F
100
AcDbEntity
  8
외형선
  6
Continuous
370
    15
100
AcDbSpline
210
0.0
220
0.0
230
1.0
 70
    24
 71
     3
 72
    11
 73
     7
 74
     0
 42
0.000000001
 43
0.00000001
 40
0.0
 40
0.0
 40
0.0
 40
0.0
 40
0.2772150325308019
 40
0.554430065061604
 40
0.8316450975924059
 40
1.0
 40
1.0
 40
1.0
 40
1.0
 10
5.73205080756891
 20
0.9100595350959146
 30
0.0
 10
5.73205080756891
 20
1.083220265605057
 30
0.0
 10
5.732050807568854
 20
1.429541726623341
 30
0.0
 10
5.73205080756891
 20
1.787621820046756
 30
0.0
 10
5.732050807568854
 20
1.986647413552571
 30
0.0
 10
5.73205080756891
 20
1.981084910515204
 30
0.0
 10
5.73205080756891
 20
1.978983164902303
 30
0.0
  0
LINE
  5
33E
330
1F
100
AcDbEntity
  8
외형선
  6
Continuous
370
    15
100
AcDbLine
 10
5.73205080756891
 20
0.2400554631809655
 30
0.0
 11
5.73205080756891
 21
0.9100595350959146
 31
0.0
  0
SPLINE
  5
33F
330
1F
100
AcDbEntity
  8
외형선
  6
Continuous
370
    15
100
AcDbSpline
210
0.0
220
0.0
230
1.0
 70
    24
 71
     3
 72
    10
 73
     6
 74
     0
 42
0.000000001
 43
0.00000001
 40
0.0
 40
0.0
 40
0.0
 40
0.0
 40
0.5000000000000001
 40
0.5000000000000001
 40
1.0
 40
1.0
 40
1.0
 40
1.0
 10
5.73205080756891
 20
-1.780426400318188
 30
0.0
 10
5.73205080756891
 20
-1.595785778868429
 30
0.0
 10
5.73205080756891
 20
-1.298015076595703
 30
0.0
 10
5.73205080756891
 20
-0.5809579861821312
 30
0.0
 10
5.732050807568854
 20
-0.1632907295084074
 30
0.0
 10
5.73205080756891
 20
0.2400554631809655
 30
0.0
  0
LINE
  5
340
330
1F
100
AcDbEntity
  8
외형선
  6
Continuous
370
    15
100
AcDbLine
 10
5.73205080756891
 20
-1.98459507562691
 30
0.0
 11
5.73205080756891
 21
-1.780426400318188
 31
0.0
  0
LINE
  5
341
330
1F
100
AcDbEntity
  8
외형선
  6
Continuous
370
    15
100
AcDbLine
 10
5.73205080756891
 20
-1.976833071529356
 30
0.0
 11
5.73205080756891
 21
-1.98459507562691
 31
0.0
  0
SPLINE
  5
343
330
1F
100
AcDbEntity
  8
외형선
  6
Continuous
370
    15
100
AcDbSpline
210
0.0
220
0.0
230
1.0
 70
    24
 71
     3
 72
    12
 73
     8
 74
     0
 42
0.000000001
 43
0.00000001
 40
0.0
 40
0.0
 40
0.0
 40
0.0
 40
0.1963573540295621
 40
0.406972083332297
 40
0.6175868126352602
 40
0.828201541938113
 40
1.0
 40
1.0
 40
1.0
 40
1.0
 10
6.73205080756891
 20
-1.965450037744144
 30
0.0
 10
6.732050807568854
 20
-1.849038891527698
 30
0.0
 10
6.732050807568854
 20
-1.607764064144995
 30
0.0
 10
6.73205080756891
 20
-1.202142997456576
 30
0.0
 10
6.732050807568854
 20
-0.8177342983132476
 30
0.0
 10
6.732050807568967
 20
-0.5056224247114969
 30
0.0
 10
6.73205080756891
 20
-0.3878488887972722
 30
0.0
 10
6.73205080756891
 20
-0.3349393330102686
 30
0.0
  0
SPLINE
  5
344
330
1F
100
AcDbEntity
  8
외형선
  6
Continuous
370
    15
100
AcDbSpline
210
0.0
220
0.0
230
1.0
 70
     8
 71
     3
 72
    10
 73
     6
 74
     0
 42
0.000000001
 43
0.00000001
 40
0.0
 40
0.0
 40
0.0
 40
0.0
 40
0.5
 40
0.5
 40
1.0
 40
1.0
 40
1.0
 40
1.0
 10
6.73205080756891
 20
-1.965450037744144
 30
0.0
 10
6.565612168641067
 20
-1.947931015700757
 30
0.0
 10
6.397407388446553
 20
-1.923496330712158
 30
0.0
 10
6.062699329586579
 20
-1.861483137708714
 30
0.0
 10
5.897921942865324
 20
-1.824066685613825
 30
0.0
 10
5.73218826991895
 20
-1.780426400318188
 30
0.0
  0
SPLINE
  5
345
330
1F
100
AcDbEntity
  8
외형선
  6
Continuous
370
    15
100
AcDbSpline
210
0.0
220
0.0
230
1.0
 70
     8
 71
     3
 72
    10
 73
     6
 74
     0
 42
0.000000001
 43
0.00000001
 40
0.0
 40
0.0
 40
0.0
 40
0.0
 40
0.5
 40
0.5
 40
1.0
 40
1.0
 40
1.0
 40
1.0
 10
6.73205080756891
 20
-0.3349393330102615
 30
0.0
 10
6.565612168641067
 20
-0.2401505827385044
 30
0.0
 10
6.397407388446553
 20
-0.143857084112863
 30
0.0
 10
6.062699329586522
 20
0.0487485814889332
 30
0.0
 10
5.897921942865267
 20
0.1447235541803025
 30
0.0
 10
5.73218826991895
 20
0.2400554631809655
 30
0.0
  0
SPLINE
  5
346
330
1F
100
AcDbEntity
  8
외형선
  6
Continuous
370
    15
100
AcDbSpline
210
0.0
220
0.0
230
1.0
 70
     8
 71
     3
 72
    10
 73
     6
 74
     0
 42
0.000000001
 43
0.00000001
 40
0.0
 40
0.0
 40
0.0
 40
0.0
 40
0.5
 40
0.5
 40
1.0
 40
1.0
 40
1.0
 40
1.0
 10
6.73205080756891
 20
0.3654642209072456
 30
0.0
 10
6.565612168641067
 20
0.4600103422545487
 30
0.0
 10
6.397407388446553
 20
0.5536192157481103
 30
0.0
 10
6.062699329586579
 20
0.73602878505584
 30
0.0
 10
5.897921942865324
 20
0.8245297849670798
 30
0.0
 10
5.73218826991895
 20
0.9100595350959146
 30
0.0
  0
SPLINE
  5
347
330
1F
100
AcDbEntity
  8
외형선
  6
Continuous
370
    15
100
AcDbSpline
210
0.0
220
0.0
230
1.0
 70
     8
 71
     3
 72
    10
 73
     6
 74
     0
 42
0.000000001
 43
0.00000001
 40
0.0
 40
0.0
 40
0.0
 40
0.0
 40
0.5
 40
0.5
 40
1.0
 40
1.0
 40
1.0
 40
1.0
 10
6.73205080756891
 20
1.972646488650451
 30
0.0
 10
6.565612168641067
 20
1.988801302703692
 30
0.0
 10
6.397407388446553
 20
1.998141385661533
 30
0.0
 10
6.062699329586522
 20
2.002825898400797
 30
0.0
 10
5.897921942865267
 20
1.99821911106584
 30
0.0
 10
5.73218826991895
 20
1.986745672868203
 30
0.0
  0
SPLINE
  5
348
330
1F
100
AcDbEntity
  8
외형선
  6
Continuous
370
    15
100
AcDbSpline
210
0.0
220
0.0
230
1.0
 70
    24
 71
     3
 72
    13
 73
     9
 74
     0
 42
0.000000001
 43
0.00000001
 40
0.0
 40
0.0
 40
0.0
 40
0.0
 40
0.0123860157436643
 40
0.2282174652140007
 40
0.4440489146843257
 40
0.6598803641546473
 40
0.8757118136249955
 40
1.0
 40
1.0
 40
1.0
 40
1.0
 10
6.732050807568854
 20
0.3654642209072563
 30
0.0
 10
6.732050807568854
 20
0.3679217161891906
 30
0.0
 10
6.732050807568797
 20
0.4132020836314432
 30
0.0
 10
6.732050807569024
 20
0.6165627612172457
 30
0.0
 10
6.73205080756891
 20
0.9527611038267381
 30
0.0
 10
6.73205080756891
 20
1.35510819323785
 30
0.0
 10
6.73205080756891
 20
1.707464075395396
 30
0.0
 10
6.732050807568854
 20
1.901676449764317
 30
0.0
 10
6.732050807568854
 20
1.97264648865049
 30
0.0
  0
LINE
  5
349
330
1F
100
AcDbEntity
  8
외형선
  6
Continuous
370
    15
100
AcDbLine
 10
6.14576987154841
 20
-1.998090704226311
 30
0.0
 11
5.73218826991895
 21
-1.984595815420416
 31
0.0
  0
LINE
  5
34A
330
1F
100
AcDbEntity
  8
중심선
100
AcDbLine
 10
-85.54536531377256
 20
0.0010749287238898
 30
0.0
 11
19.73205080756885
 21
0.001074928723888
 31
0.0
  0
CIRCLE
  5
34B
330
1F
100
AcDbEntity
  8
해칭선
100
AcDbCircle
 10
0.0
 20
0.0
 30
0.0
 40
3.000000000000003
  0
DIMENSION
  5
34C
330
1F
100
AcDbEntity
  8
치수문자_일반주서
100
AcDbDimension
  2
*D24
 10
26.7320508075689
 20
-1.998925071276075
 30
0.0
 11
26.73205080756885
 21
11.66757492872394
 31
0.0
 70
   160
  1
%%c<>
 71
     2
 42
4.0
 52
-270.0
  3
SLDDIMSTYLE0
100
AcDbAlignedDimension
 13
16.73205080756885
 23
2.001074928723888
 33
0.0
 14
16.73205080756885
 24
-1.998925071276112
 34
0.0
 50
90.0000000000002
100
AcDbRotatedDimension
1001
PE_URL
1000

1001
ACAD
1000
DSTYLE
1002
{
1070
   271
1070
     1
1002
}
  0
DIMENSION
  5
34D
102
{ACAD_XDICTIONARY
360
34E
102
}
330
1F
100
AcDbEntity
  8
치수문자_일반주서
100
AcDbDimension
  2
*D25
 10
-93.26794919243108
 20
-1.998925071276156
 30
0.0
 11
-93.26794919243113
 21
12.66757492872386
 31
0.0
 70
   160
  1
%%c<>
 71
     2
 42
4.000000000000014
 52
-270.0
  3
SLDDIMSTYLE0
100
AcDbAlignedDimension
 13
-82.66794919243111
 23
2.001074928723899
 33
0.0
 14
-82.66794919243111
 24
-1.998925071276116
 34
0.0
 50
90.0000000000002
100
AcDbRotatedDimension
1001
ENABLE_CUSTOM_SPLIT
1070
     1
  0
DIMENSION
  5
350
330
1F
100
AcDbEntity
  8
치수문자_일반주서
100
AcDbDimension
  2
*D26
 10
6.73205080756891
 20
13.0010749287239
 30
0.0
 11
11.73205080756897
 21
13.0010749287239
 31
0.0
 70
   160
  1
<>
 71
     2
 42
9.999999999999943
  3
SLDDIMSTYLE0
100
AcDbAlignedDimension
 13
16.73205080756885
 23
2.001074928723888
 33
0.0
 14
6.73205080756891
 24
1.972646488653695
 34
0.0
 50
-0.0000000000004071
100
AcDbRotatedDimension
  0
DIMENSION
  5
351
102
{ACAD_XDICTIONARY
360
39B
102
}
330
1F
100
AcDbEntity
  8
치수문자_일반주서
100
AcDbDimension
  2
*D27
 10
-83.2679491924311
 20
23.0010749287239
 30
0.0
 11
-33.26794919243113
 21
23.0010749287239
 31
0.0
 70
   160
  1
<>
 71
     2
 42
99.99999999999996
  3
SLDDIMSTYLE1
100
AcDbAlignedDimension
 13
16.73205080756885
 23
2.001074928723888
 33
0.0
 14
-83.2679491924311
 24
1.401074928723901
 34
0.0
 50
0.0000000000000058
100
AcDbRotatedDimension
1001
ENABLE_CUSTOM_SPLIT
1070
     1
  0
INSERT
  5
352
330
1F
100
AcDbEntity
  8
해칭선
100
AcDbBlockReference
  2
SW_DOWELSYMBOL_0
 10
0.0
 20
0.0
 30
0.0
  0
ARC
  5
353
330
1F
100
AcDbEntity
  8
0
  6
Continuous
 62
     1
370
    15
100
AcDbCircle
 10
16.63205080756889
 20
1.90107492872389
 30
0.0
 40
0.1
100
AcDbArc
 50
0.0
 51
90.0
1001
PE_URL
1000

  0
ARC
  5
354
330
1F
100
AcDbEntity
  8
0
  6
Continuous
 62
     1
370
    15
100
AcDbCircle
 10
16.63205080756889
 20
-1.898925071276111
 30
0.0
 40
0.1
100
AcDbArc
 50
270.0
 51
0.0
1001
PE_URL
1000

  0
DIMENSION
  5
355
330
1F
100
AcDbEntity
  8
치수문자_일반주서
100
AcDbDimension
  2
*D28
 10
16.63205080756889
 20
-1.898925071276111
 30
0.0
 11
26.62361277155236
 21
-17.14572836276016
 31
0.0
 70
   164
 71
     5
 42
0.1000000000000028
  3
SLDDIMSTYLE1
100
AcDbRadialDimension
 15
16.68686217279317
 25
-1.982565457706656
 35
0.0
 40
0.0
1001
ACAD
1000
DSTYLE
1002
{
1070
    78
1070
     8
1002
}
1001
ACAD_DSTYLE_DIMRADIAL_EXTENSION
1070
   387
1070
     1
1070
   388
1040
4.71238898038469
1070
   390
1040
0.0000000000000022
1001
PE_URL
1000

  0
LINE
  5
356
330
1F
100
AcDbEntity
  8
외형선
  6
Continuous
370
    15
100
AcDbLine
 10
6.141729051030552
 20
2.001074928723899
 30
0.0
 11
-82.66794919243111
 21
2.001074928723899
 31
0.0
  0
LINE
  5
357
330
1F
100
AcDbEntity
  8
외형선
  6
Continuous
370
    15
100
AcDbLine
 10
-82.66794919243111
 20
-1.998925071276108
 30
0.0
 11
6.14576987154841
 21
-1.998925071276108
 31
0.0
  0
LINE
  5
358
330
1F
100
AcDbEntity
  8
외형선
  6
Continuous
370
    15
100
AcDbLine
 10
-82.66794919243111
 20
-1.998925071276116
 30
0.0
 11
-83.2679491924311
 21
-1.398925071276118
 31
0.0
  0
LINE
  5
359
330
1F
100
AcDbEntity
  8
외형선
  6
Continuous
370
    15
100
AcDbLine
 10
-83.2679491924311
 20
0.0010749287238916
 30
0.0
 11
-83.2679491924311
 21
-1.398925071276118
 31
0.0
  0
LINE
  5
39A
330
1F
100
AcDbEntity
  8
외형선
  6
Continuous
370
    15
100
AcDbLine
 10
-83.2679491924311
 20
0.0010749287238916
 30
0.0
 11
-83.2679491924311
 21
1.401074928723901
 31
0.0
  0
ENDSEC
  0
SECTION
  2
OBJECTS
  0
DICTIONARY
  5
C
330
0
100
AcDbDictionary
281
     1
  3
ACAD_DETAILVIEWSTYLE
350
287
  3
ACAD_GROUP
350
D
  3
ACAD_LAYOUT
350
1A
  3
ACAD_MLINESTYLE
350
17
  3
ACAD_PLOTSETTINGS
350
19
  3
ACAD_PLOTSTYLENAME
350
E
  3
ACAD_SCALELIST
350
47
  3
ACAD_SECTIONVIEWSTYLE
350
288
  3
AcDbVariableDictionary
350
282
  3
APPDATA
350
132
  3
DWGPROPS
350
3A0
  0
DICTIONARY
  5
1CA
330
2
100
AcDbDictionary
280
     1
281
     1
  3
ACAD_LAYERSTATES
360
1CB
  0
DICTIONARY
  5
39D
330
1F
100
AcDbDictionary
280
     1
281
     1
  3
DIM_BOUNDING_BOXES_V1
360
39E
  0
DICTIONARY
  5
34E
330
34D
100
AcDbDictionary
280
     1
281
     1
  3
ACAD_CUSTOM_BREAKDATA
360
34F
  0
DICTIONARY
  5
39B
330
351
100
AcDbDictionary
280
     1
281
     1
  3
ACAD_CUSTOM_BREAKDATA
360
39C
  0
DICTIONARY
  5
287
102
{ACAD_REACTORS
330
C
102
}
330
C
100
AcDbDictionary
281
     1
  0
DICTIONARY
  5
D
102
{ACAD_REACTORS
330
C
102
}
330
C
100
AcDbDictionary
281
     1
  0
DICTIONARY
  5
1A
102
{ACAD_REACTORS
330
C
102
}
330
C
100
AcDbDictionary
281
     1
  3
Layout1
350
1E
  3
Layout2
350
26
  3
Model
350
22
  0
DICTIONARY
  5
17
102
{ACAD_REACTORS
330
C
102
}
330
C
100
AcDbDictionary
281
     1
  3
Standard
350
18
  0
DICTIONARY
  5
19
102
{ACAD_REACTORS
330
C
102
}
330
C
100
AcDbDictionary
281
     1
  0
ACDBDICTIONARYWDFLT
  5
E
102
{ACAD_REACTORS
330
C
102
}
330
C
100
AcDbDictionary
281
     1
  3
Normal
350
F
100
AcDbDictionaryWithDefault
340
F
  0
DICTIONARY
  5
47
102
{ACAD_REACTORS
330
C
102
}
330
C
100
AcDbDictionary
281
     1
  3
A0
350
48
  3
A1
350
49
  3
A2
350
4A
  3
A3
350
4B
  3
A4
350
4C
  3
A5
350
4D
  3
A6
350
4E
  3
A7
350
4F
  3
A8
350
50
  3
A9
350
51
  3
B0
350
52
  3
B1
350
53
  3
B2
350
54
  3
B3
350
55
  3
B4
350
56
  3
B5
350
57
  3
B6
350
58
  3
B7
350
59
  3
B8
350
5A
  3
B9
350
5B
  3
C0
350
5C
  3
C1
350
5D
  3
C2
350
5E
  3
C3
350
5F
  3
C4
350
60
  3
C5
350
61
  3
C6
350
62
  3
C7
350
63
  3
C8
350
64
  3
C9
350
65
  3
D0
350
66
  3
D1
350
67
  3
D2
350
68
  0
DICTIONARY
  5
288
102
{ACAD_REACTORS
330
C
102
}
330
C
100
AcDbDictionary
281
     1
  0
DICTIONARY
  5
282
102
{ACAD_REACTORS
330
C
102
}
330
C
100
AcDbDictionary
281
     1
  0
DICTIONARY
  5
132
102
{ACAD_REACTORS
330
C
102
}
330
C
100
AcDbDictionary
281
     1
  0
XRECORD
  5
3A0
102
{ACAD_REACTORS
330
C
102
}
330
C
100
AcDbXrecord
280
     1
  1
DWGPROPS COOKIE
  2

  3

  4

  6

  7

  8
12016016
  9

300
=
301
=
302
=
303
=
304
=
305
=
306
=
307
=
308
=
309
=
 40
0.0
 41
2458269.428972268
 42
2459702.06765066
  1

 90
        0
  0
DICTIONARY
  5
1CB
102
{ACAD_REACTORS
330
1CA
102
}
330
1CA
100
AcDbDictionary
281
     1
  0
DICTIONARY
  5
39E
102
{ACAD_REACTORS
330
39D
102
}
330
39D
100
AcDbDictionary
281
     1
  0
BREAKDATA
  5
34F
102
{ACAD_REACTORS
330
34E
102
}
330
34E
100
AcDbBreakData
 70
     0
330
34D
 90
        0
  0
BREAKDATA
  5
39C
102
{ACAD_REACTORS
330
39B
102
}
330
39B
100
AcDbBreakData
 70
     0
330
351
 90
        0
  0
LAYOUT
  5
1E
102
{ACAD_REACTORS
330
1A
102
}
330
1A
100
AcDbPlotSettings
  1

  2
none_device
  4

  6

 40
0.0
 41
0.0
 42
0.0
 43
0.0
 44
0.0
 45
0.0
 46
0.0
 47
0.0
 48
0.0
 49
0.0
140
0.0
141
0.0
142
1.0
143
1.0
 70
   688
 72
     1
 73
     0
 74
     5
  7

 75
    16
147
1.0
148
0.0
149
0.0
100
AcDbLayout
  1
Layout1
 70
     1
 71
     1
 10
0.0
 20
0.0
 11
420.0
 21
297.0
 12
0.0
 22
0.0
 32
0.0
 14
1.000000000000000E+20
 24
1.000000000000000E+20
 34
1.000000000000000E+20
 15
-1.000000000000000E+20
 25
-1.000000000000000E+20
 35
-1.000000000000000E+20
146
0.0
 13
0.0
 23
0.0
 33
0.0
 16
1.0
 26
0.0
 36
0.0
 17
0.0
 27
1.0
 37
0.0
 76
     0
330
1B
  0
LAYOUT
  5
26
102
{ACAD_REACTORS
330
1A
102
}
330
1A
100
AcDbPlotSettings
  1

  2
none_device
  4

  6

 40
0.0
 41
0.0
 42
0.0
 43
0.0
 44
0.0
 45
0.0
 46
0.0
 47
0.0
 48
0.0
 49
0.0
140
0.0
141
0.0
142
1.0
143
1.0
 70
   688
 72
     1
 73
     0
 74
     5
  7

 75
    16
147
1.0
148
0.0
149
0.0
100
AcDbLayout
  1
Layout2
 70
     1
 71
     2
 10
0.0
 20
0.0
 11
0.0
 21
0.0
 12
0.0
 22
0.0
 32
0.0
 14
0.0
 24
0.0
 34
0.0
 15
0.0
 25
0.0
 35
0.0
146
0.0
 13
0.0
 23
0.0
 33
0.0
 16
1.0
 26
0.0
 36
0.0
 17
0.0
 27
1.0
 37
0.0
 76
     0
330
23
  0
LAYOUT
  5
22
102
{ACAD_REACTORS
330
1A
102
}
330
1A
100
AcDbPlotSettings
  1

  2
none_device
  4
ANSI_A_(11.00_x_8.50_Inches)
  6

 40
6.35
 41
19.05
 42
6.35000508
 43
19.05000254
 44
279.4
 45
215.9
 46
111.9131708047861
 47
108.3760545703919
 48
0.0
 49
0.0
140
0.0
141
0.0
142
0.0788700689601438
143
1.0
 70
  1696
 72
     0
 73
     0
 74
     0
  7

 75
     0
147
0.0235690232323232
148
0.0
149
0.0
100
AcDbLayout
  1
Model
 70
     1
 71
     0
 10
0.0
 20
0.0
 11
420.0
 21
297.0
 12
0.0
 22
0.0
 32
0.0
 14
-97.64294919243115
 24
-49.97180738881174
 34
0.0
 15
79.73835494594202
 25
27.3760749287239
 35
0.0
146
0.0
 13
0.0
 23
0.0
 33
0.0
 16
1.0
 26
0.0
 36
0.0
 17
0.0
 27
1.0
 37
0.0
 76
     0
330
1F
331
29
  0
MLINESTYLE
  5
18
102
{ACAD_REACTORS
330
17
102
}
330
17
100
AcDbMlineStyle
  2
Standard
 70
     0
  3

 62
   256
 51
90.0
 52
90.0
 71
     2
 49
0.5
 62
   256
  6
BYLAYER
 49
-0.5
 62
   256
  6
BYLAYER
  0
ACDBPLACEHOLDER
  5
F
102
{ACAD_REACTORS
330
E
102
}
330
E
  0
SCALE
  5
48
102
{ACAD_REACTORS
330
47
102
}
330
47
100
AcDbScale
 70
     0
300
1:1
140
1.0
141
1.0
290
     1
  0
SCALE
  5
49
102
{ACAD_REACTORS
330
47
102
}
330
47
100
AcDbScale
 70
     0
300
1:2
140
1.0
141
2.0
290
     0
  0
SCALE
  5
4A
102
{ACAD_REACTORS
330
47
102
}
330
47
100
AcDbScale
 70
     0
300
1:4
140
1.0
141
4.0
290
     0
  0
SCALE
  5
4B
102
{ACAD_REACTORS
330
47
102
}
330
47
100
AcDbScale
 70
     0
300
1:5
140
1.0
141
5.0
290
     0
  0
SCALE
  5
4C
102
{ACAD_REACTORS
330
47
102
}
330
47
100
AcDbScale
 70
     0
300
1:8
140
1.0
141
8.0
290
     0
  0
SCALE
  5
4D
102
{ACAD_REACTORS
330
47
102
}
330
47
100
AcDbScale
 70
     0
300
1:10
140
1.0
141
10.0
290
     0
  0
SCALE
  5
4E
102
{ACAD_REACTORS
330
47
102
}
330
47
100
AcDbScale
 70
     0
300
1:16
140
1.0
141
16.0
290
     0
  0
SCALE
  5
4F
102
{ACAD_REACTORS
330
47
102
}
330
47
100
AcDbScale
 70
     0
300
1:20
140
1.0
141
20.0
290
     0
  0
SCALE
  5
50
102
{ACAD_REACTORS
330
47
102
}
330
47
100
AcDbScale
 70
     0
300
1:30
140
1.0
141
30.0
290
     0
  0
SCALE
  5
51
102
{ACAD_REACTORS
330
47
102
}
330
47
100
AcDbScale
 70
     0
300
1:40
140
1.0
141
40.0
290
     0
  0
SCALE
  5
52
102
{ACAD_REACTORS
330
47
102
}
330
47
100
AcDbScale
 70
     0
300
1:50
140
1.0
141
50.0
290
     0
  0
SCALE
  5
53
102
{ACAD_REACTORS
330
47
102
}
330
47
100
AcDbScale
 70
     0
300
1:100
140
1.0
141
100.0
290
     0
  0
SCALE
  5
54
102
{ACAD_REACTORS
330
47
102
}
330
47
100
AcDbScale
 70
     0
300
2:1
140
2.0
141
1.0
290
     0
  0
SCALE
  5
55
102
{ACAD_REACTORS
330
47
102
}
330
47
100
AcDbScale
 70
     0
300
4:1
140
4.0
141
1.0
290
     0
  0
SCALE
  5
56
102
{ACAD_REACTORS
330
47
102
}
330
47
100
AcDbScale
 70
     0
300
8:1
140
8.0
141
1.0
290
     0
  0
SCALE
  5
57
102
{ACAD_REACTORS
330
47
102
}
330
47
100
AcDbScale
 70
     0
300
10:1
140
10.0
141
1.0
290
     0
  0
SCALE
  5
58
102
{ACAD_REACTORS
330
47
102
}
330
47
100
AcDbScale
 70
     0
300
100:1
140
100.0
141
1.0
290
     0
  0
SCALE
  5
59
102
{ACAD_REACTORS
330
47
102
}
330
47
100
AcDbScale
 70
     0
300
1/128" = 1'-0"
140
0.0078125
141
12.0
290
     0
  0
SCALE
  5
5A
102
{ACAD_REACTORS
330
47
102
}
330
47
100
AcDbScale
 70
     0
300
1/64" = 1'-0"
140
0.015625
141
12.0
290
     0
  0
SCALE
  5
5B
102
{ACAD_REACTORS
330
47
102
}
330
47
100
AcDbScale
 70
     0
300
1/32" = 1'-0"
140
0.03125
141
12.0
290
     0
  0
SCALE
  5
5C
102
{ACAD_REACTORS
330
47
102
}
330
47
100
AcDbScale
 70
     0
300
1/16" = 1'-0"
140
0.0625
141
12.0
290
     0
  0
SCALE
  5
5D
102
{ACAD_REACTORS
330
47
102
}
330
47
100
AcDbScale
 70
     0
300
3/32" = 1'-0"
140
0.09375
141
12.0
290
     0
  0
SCALE
  5
5E
102
{ACAD_REACTORS
330
47
102
}
330
47
100
AcDbScale
 70
     0
300
1/8" = 1'-0"
140
0.125
141
12.0
290
     0
  0
SCALE
  5
5F
102
{ACAD_REACTORS
330
47
102
}
330
47
100
AcDbScale
 70
     0
300
3/16" = 1'-0"
140
0.1875
141
12.0
290
     0
  0
SCALE
  5
60
102
{ACAD_REACTORS
330
47
102
}
330
47
100
AcDbScale
 70
     0
300
1/4" = 1'-0"
140
0.25
141
12.0
290
     0
  0
SCALE
  5
61
102
{ACAD_REACTORS
330
47
102
}
330
47
100
AcDbScale
 70
     0
300
3/8" = 1'-0"
140
0.375
141
12.0
290
     0
  0
SCALE
  5
62
102
{ACAD_REACTORS
330
47
102
}
330
47
100
AcDbScale
 70
     0
300
1/2" = 1'-0"
140
0.5
141
12.0
290
     0
  0
SCALE
  5
63
102
{ACAD_REACTORS
330
47
102
}
330
47
100
AcDbScale
 70
     0
300
3/4" = 1'-0"
140
0.75
141
12.0
290
     0
  0
SCALE
  5
64
102
{ACAD_REACTORS
330
47
102
}
330
47
100
AcDbScale
 70
     0
300
1" = 1'-0"
140
1.0
141
12.0
290
     0
  0
SCALE
  5
65
102
{ACAD_REACTORS
330
47
102
}
330
47
100
AcDbScale
 70
     0
300
1-1/2" = 1'-0"
140
1.5
141
12.0
290
     0
  0
SCALE
  5
66
102
{ACAD_REACTORS
330
47
102
}
330
47
100
AcDbScale
 70
     0
300
3" = 1'-0"
140
3.0
141
12.0
290
     0
  0
SCALE
  5
67
102
{ACAD_REACTORS
330
47
102
}
330
47
100
AcDbScale
 70
     0
300
6" = 1'-0"
140
6.0
141
12.0
290
     0
  0
SCALE
  5
68
102
{ACAD_REACTORS
330
47
102
}
330
47
100
AcDbScale
 70
     0
300
1'-0" = 1'-0"
140
12.0
141
12.0
290
     0
  0
ENDSEC
  0
EOF
