  0
SECTION
  2
HEADER
  9
$ACADVER
  1
AC1015
  9
$ACADMAINTVER
 70
     6
  9
$DWGCODEPAGE
  3
ANSI_949
  9
$INSBASE
 10
0.0
 20
0.0
 30
0.0
  9
$EXTMIN
 10
-66.70993649053892
 20
-49.97073246008785
 30
0.0
  9
$EXTMAX
 10
68.17854732480671
 20
27.3760749287239
 30
0.0
  9
$LIMMIN
 10
0.0
 20
0.0
  9
$LIMMAX
 10
420.0
 20
297.0
  9
$ORTHOMODE
 70
     1
  9
$REGENMODE
 70
     1
  9
$FILLMODE
 70
     1
  9
$QTEXTMODE
 70
     0
  9
$MIRRTEXT
 70
     1
  9
$LTSCALE
 40
1.0
  9
$ATTMODE
 70
     1
  9
$TEXTSIZE
 40
3.5
  9
$TRACEWID
 40
1.0
  9
$TEXTSTYLE
  7
Standard
  9
$CLAYER
  8
0
  9
$CELTYPE
  6
ByLayer
  9
$CECOLOR
 62
   256
  9
$CELTSCALE
 40
1.0
  9
$DISPSILH
 70
     0
  9
$DIMSCALE
 40
1.0
  9
$DIMASZ
 40
3.302
  9
$DIMEXO
 40
1.0
  9
$DIMDLI
 40
3.75
  9
$DIMRND
 40
0.0
  9
$DIMDLE
 40
0.0
  9
$DIMEXE
 40
1.0
  9
$DIMTP
 40
0.0
  9
$DIMTM
 40
0.0
  9
$DIMTXT
 40
3.5
  9
$DIMCEN
 40
2.5
  9
$DIMTSZ
 40
0.0
  9
$DIMTOL
 70
     0
  9
$DIMLIM
 70
     0
  9
$DIMTIH
 70
     1
  9
$DIMTOH
 70
     1
  9
$DIMSE1
 70
     0
  9
$DIMSE2
 70
     0
  9
$DIMTAD
 70
     1
  9
$DIMZIN
 70
     0
  9
$DIMBLK
  1

  9
$DIMASO
 70
     1
  9
$DIMSHO
 70
     1
  9
$DIMPOST
  1

  9
$DIMAPOST
  1

  9
$DIMALT
 70
     0
  9
$DIMALTD
 70
     3
  9
$DIMALTF
 40
0.0393700787401575
  9
$DIMLFAC
 40
1.0
  9
$DIMTOFL
 70
     1
  9
$DIMTVP
 40
0.0
  9
$DIMTIX
 70
     0
  9
$DIMSOXD
 70
     0
  9
$DIMSAH
 70
     0
  9
$DIMBLK1
  1

  9
$DIMBLK2
  1

  9
$DIMSTYLE
  2
ISO-25
  9
$DIMCLRD
 70
     0
  9
$DIMCLRE
 70
     0
  9
$DIMCLRT
 70
     0
  9
$DIMTFAC
 40
1.0
  9
$DIMGAP
 40
1.524
  9
$DIMJUST
 70
     0
  9
$DIMSD1
 70
     0
  9
$DIMSD2
 70
     0
  9
$DIMTOLJ
 70
     0
  9
$DIMTZIN
 70
     0
  9
$DIMALTZ
 70
     0
  9
$DIMALTTZ
 70
     0
  9
$DIMUPT
 70
     0
  9
$DIMDEC
 70
     2
  9
$DIMTDEC
 70
     2
  9
$DIMALTU
 70
     2
  9
$DIMALTTD
 70
     3
  9
$DIMTXSTY
  7
Standard
  9
$DIMAUNIT
 70
     0
  9
$DIMADEC
 70
     2
  9
$DIMALTRND
 40
0.0
  9
$DIMAZIN
 70
     0
  9
$DIMDSEP
 70
    44
  9
$DIMATFIT
 70
     3
  9
$DIMFRAC
 70
     0
  9
$DIMLDRBLK
  1

  9
$DIMLUNIT
 70
     2
  9
$DIMLWD
 70
    -2
  9
$DIMLWE
 70
    -2
  9
$DIMTMOVE
 70
     0
  9
$LUNITS
 70
     2
  9
$LUPREC
 70
     2
  9
$SKETCHINC
 40
1.0
  9
$FILLETRAD
 40
10.0
  9
$AUNITS
 70
     0
  9
$AUPREC
 70
     2
  9
$MENU
  1
.
  9
$ELEVATION
 40
0.0
  9
$PELEVATION
 40
0.0
  9
$THICKNESS
 40
0.0
  9
$LIMCHECK
 70
     0
  9
$CHAMFERA
 40
0.0
  9
$CHAMFERB
 40
0.0
  9
$CHAMFERC
 40
0.0
  9
$CHAMFERD
 40
0.0
  9
$SKPOLY
 70
     0
  9
$TDCREATE
 40
2458269.803216262
  9
$TDUCREATE
 40
2458269.428216262
  9
$TDUPDATE
 40
2458270.804515255
  9
$TDUUPDATE
 40
2458270.429515255
  9
$TDINDWG
 40
0.0019548843
  9
$TDUSRTIMER
 40
0.0001404051
  9
$USRTIMER
 70
     1
  9
$ANGBASE
 50
0.0
  9
$ANGDIR
 70
     0
  9
$PDMODE
 70
     0
  9
$PDSIZE
 40
-1.0
  9
$PLINEWID
 40
0.0
  9
$SPLFRAME
 70
     0
  9
$SPLINETYPE
 70
     6
  9
$SPLINESEGS
 70
     8
  9
$HANDSEED
  5
24B
  9
$SURFTAB1
 70
     6
  9
$SURFTAB2
 70
     6
  9
$SURFTYPE
 70
     6
  9
$SURFU
 70
     6
  9
$SURFV
 70
     6
  9
$UCSBASE
  2

  9
$UCSNAME
  2

  9
$UCSORG
 10
0.0
 20
0.0
 30
0.0
  9
$UCSXDIR
 10
1.0
 20
0.0
 30
0.0
  9
$UCSYDIR
 10
0.0
 20
1.0
 30
0.0
  9
$UCSORTHOREF
  2

  9
$UCSORTHOVIEW
 70
     0
  9
$UCSORGTOP
 10
0.0
 20
0.0
 30
0.0
  9
$UCSORGBOTTOM
 10
0.0
 20
0.0
 30
0.0
  9
$UCSORGLEFT
 10
0.0
 20
0.0
 30
0.0
  9
$UCSORGRIGHT
 10
0.0
 20
0.0
 30
0.0
  9
$UCSORGFRONT
 10
0.0
 20
0.0
 30
0.0
  9
$UCSORGBACK
 10
0.0
 20
0.0
 30
0.0
  9
$PUCSBASE
  2

  9
$PUCSNAME
  2

  9
$PUCSORG
 10
0.0
 20
0.0
 30
0.0
  9
$PUCSXDIR
 10
1.0
 20
0.0
 30
0.0
  9
$PUCSYDIR
 10
0.0
 20
1.0
 30
0.0
  9
$PUCSORTHOREF
  2

  9
$PUCSORTHOVIEW
 70
     0
  9
$PUCSORGTOP
 10
0.0
 20
0.0
 30
0.0
  9
$PUCSORGBOTTOM
 10
0.0
 20
0.0
 30
0.0
  9
$PUCSORGLEFT
 10
0.0
 20
0.0
 30
0.0
  9
$PUCSORGRIGHT
 10
0.0
 20
0.0
 30
0.0
  9
$PUCSORGFRONT
 10
0.0
 20
0.0
 30
0.0
  9
$PUCSORGBACK
 10
0.0
 20
0.0
 30
0.0
  9
$USERI1
 70
     0
  9
$USERI2
 70
     0
  9
$USERI3
 70
     0
  9
$USERI4
 70
     0
  9
$USERI5
 70
     0
  9
$USERR1
 40
0.0
  9
$USERR2
 40
0.0
  9
$USERR3
 40
0.0
  9
$USERR4
 40
0.0
  9
$USERR5
 40
0.0
  9
$WORLDVIEW
 70
     1
  9
$SHADEDGE
 70
     3
  9
$SHADEDIF
 70
    70
  9
$TILEMODE
 70
     1
  9
$MAXACTVP
 70
    64
  9
$PINSBASE
 10
0.0
 20
0.0
 30
0.0
  9
$PLIMCHECK
 70
     0
  9
$PEXTMIN
 10
1.000000000000000E+20
 20
1.000000000000000E+20
 30
1.000000000000000E+20
  9
$PEXTMAX
 10
-1.000000000000000E+20
 20
-1.000000000000000E+20
 30
-1.000000000000000E+20
  9
$PLIMMIN
 10
0.0
 20
0.0
  9
$PLIMMAX
 10
0.0
 20
0.0
  9
$UNITMODE
 70
     0
  9
$VISRETAIN
 70
     1
  9
$PLINEGEN
 70
     0
  9
$PSLTSCALE
 70
     1
  9
$TREEDEPTH
 70
  3020
  9
$CMLSTYLE
  2
Standard
  9
$CMLJUST
 70
     0
  9
$CMLSCALE
 40
20.0
  9
$PROXYGRAPHICS
 70
     1
  9
$MEASUREMENT
 70
     1
  9
$CELWEIGHT
370
    -1
  9
$ENDCAPS
280
     0
  9
$JOINSTYLE
280
     0
  9
$LWDISPLAY
290
     1
  9
$INSUNITS
 70
     4
  9
$HYPERLINKBASE
  1

  9
$STYLESHEET
  1

  9
$XEDIT
290
     1
  9
$CEPSNTYPE
380
     0
  9
$PSTYLEMODE
290
     1
  9
$FINGERPRINTGUID
  2
{0651CBF9-5EF0-421E-B795-52B963273ABE}
  9
$VERSIONGUID
  2
{FAEB1C32-E019-11D5-929B-00C0DF256EC4}
  9
$EXTNAMES
290
     1
  9
$PSVPSCALE
 40
0.0
  9
$OLESTARTUP
290
     0
  0
ENDSEC
  0
SECTION
  2
CLASSES
  0
CLASS
  1
ACDBDICTIONARYWDFLT
  2
AcDbDictionaryWithDefault
  3
ObjectDBX Classes
 90
        0
280
     0
281
     0
  0
CLASS
  1
VISUALSTYLE
  2
AcDbVisualStyle
  3
ObjectDBX Classes
 90
     4095
280
     0
281
     0
  0
CLASS
  1
MATERIAL
  2
AcDbMaterial
  3
ObjectDBX Classes
 90
     1153
280
     0
281
     0
  0
CLASS
  1
SCALE
  2
AcDbScale
  3
ObjectDBX Classes
 90
     1153
280
     0
281
     0
  0
CLASS
  1
SUN
  2
AcDbSun
  3
SCENEOE
 90
     1153
280
     0
281
     0
  0
CLASS
  1
ACDBPLACEHOLDER
  2
AcDbPlaceHolder
  3
ObjectDBX Classes
 90
        0
280
     0
281
     0
  0
CLASS
  1
LAYOUT
  2
AcDbLayout
  3
ObjectDBX Classes
 90
        0
280
     0
281
     0
  0
CLASS
  1
TABLESTYLE
  2
AcDbTableStyle
  3
ObjectDBX Classes
 90
     4095
280
     0
281
     0
  0
CLASS
  1
MLEADERSTYLE
  2
AcDbMLeaderStyle
  3
ACDB_MLEADERSTYLE_CLASS
 90
     4095
280
     0
281
     0
  0
CLASS
  1
DICTIONARYVAR
  2
AcDbDictionaryVar
  3
ObjectDBX Classes
 90
        0
280
     0
281
     0
  0
CLASS
  1
DIMASSOC
  2
AcDbDimAssoc
  3
"AcDbDimAssoc|Product Desc:     AcDim ARX App For Dimension|Company:          Autodesk, Inc.|WEB Address:      www.autodesk.com"
 90
        0
280
     0
281
     0
  0
ENDSEC
  0
SECTION
  2
TABLES
  0
TABLE
  2
VPORT
  5
8
330
0
100
AcDbSymbolTable
 70
     1
  0
VPORT
  5
29
330
8
100
AcDbSymbolTableRecord
100
AcDbViewportTableRecord
  2
*Active
 70
     0
 10
0.0
 20
0.0
 11
1.0
 21
1.0
 12
0.7343054171338963
 22
-11.29732876568197
 13
0.0
 23
0.0
 14
10.0
 24
10.0
 15
10.0
 25
10.0
 16
0.0
 26
0.0
 36
1.0
 17
0.0
 27
0.0
 37
0.0
 40
78.89374353658799
 41
2.003901170351105
 42
50.0
 43
0.0
 44
0.0
 50
0.0
 51
0.0
 71
    16
 72
  2000
 73
     1
 74
     3
 75
     0
 76
     0
 77
     0
 78
     0
281
     0
 65
     1
110
0.0
120
0.0
130
0.0
111
1.0
121
0.0
131
0.0
112
0.0
122
1.0
132
0.0
 79
     0
146
0.0
  0
ENDTAB
  0
TABLE
  2
LTYPE
  5
5
330
0
100
AcDbSymbolTable
 70
     6
  0
LTYPE
  5
14
330
5
100
AcDbSymbolTableRecord
100
AcDbLinetypeTableRecord
  2
ByBlock
 70
     0
  3

 72
    65
 73
     0
 40
0.0
  0
LTYPE
  5
15
330
5
100
AcDbSymbolTableRecord
100
AcDbLinetypeTableRecord
  2
ByLayer
 70
     0
  3

 72
    65
 73
     0
 40
0.0
  0
LTYPE
  5
16
330
5
100
AcDbSymbolTableRecord
100
AcDbLinetypeTableRecord
  2
Continuous
 70
     0
  3
Solid line
 72
    65
 73
     0
 40
0.0
  0
LTYPE
  5
6A
330
5
100
AcDbSymbolTableRecord
100
AcDbLinetypeTableRecord
  2
HIDDEN
 70
     0
  3
Hidden __ __ __ __ __ __ __ __ __ __ __ __ __ __
 72
    65
 73
     2
 40
1.905
 49
1.27
 74
     0
 49
-0.635
 74
     0
  0
LTYPE
  5
6B
330
5
100
AcDbSymbolTableRecord
100
AcDbLinetypeTableRecord
  2
PHANTOM
 70
     0
  3
Phantom ______  __  __  ______  __  __  ______
 72
    65
 73
     6
 40
12.7
 49
6.35
 74
     0
 49
-1.27
 74
     0
 49
1.27
 74
     0
 49
-1.27
 74
     0
 49
1.27
 74
     0
 49
-1.27
 74
     0
  0
LTYPE
  5
6C
330
5
100
AcDbSymbolTableRecord
100
AcDbLinetypeTableRecord
  2
CENTER
 70
     0
  3
Center ____ _ ____ _ ____ _ ____ _ ____ _ ____
 72
    65
 73
     4
 40
10.16
 49
6.35
 74
     0
 49
-1.27
 74
     0
 49
1.27
 74
     0
 49
-1.27
 74
     0
  0
LTYPE
  5
6D
330
5
100
AcDbSymbolTableRecord
100
AcDbLinetypeTableRecord
  2
CENTERX2
 70
     0
  3
Center (2x) ________  __  ________  __  _____
 72
    65
 73
     4
 40
20.32
 49
12.7
 74
     0
 49
-2.54
 74
     0
 49
2.54
 74
     0
 49
-2.54
 74
     0
  0
LTYPE
  5
6E
330
5
100
AcDbSymbolTableRecord
100
AcDbLinetypeTableRecord
  2
DOT2
 70
     0
  3
Dot (.5x) ........................................
 72
    65
 73
     2
 40
0.635
 49
0.0
 74
     0
 49
-0.635
 74
     0
  0
ENDTAB
  0
TABLE
  2
LAYER
  5
2
102
{ACAD_XDICTIONARY
360
17D
102
}
330
0
100
AcDbSymbolTable
 70
    18
  0
LAYER
  5
10
330
2
100
AcDbSymbolTableRecord
100
AcDbLayerTableRecord
  2
0
 70
     0
 62
     7
  6
Continuous
370
    -3
390
F
  0
LAYER
  5
6F
330
2
100
AcDbSymbolTableRecord
100
AcDbLayerTableRecord
  2
FORMAT
 70
     0
 62
     2
  6
Continuous
370
    -3
390
F
  0
LAYER
  5
70
330
2
100
AcDbSymbolTableRecord
100
AcDbLayerTableRecord
  2
외형선
 70
     0
 62
     4
  6
Continuous
370
    30
390
F
  0
LAYER
  5
71
330
2
100
AcDbSymbolTableRecord
100
AcDbLayerTableRecord
  2
숨은선
 70
     0
 62
     2
  6
HIDDEN
370
    15
390
F
  0
LAYER
  5
72
330
2
100
AcDbSymbolTableRecord
100
AcDbLayerTableRecord
  2
중심선
 70
     0
 62
     1
  6
CENTERX2
370
    -3
390
F
  0
LAYER
  5
73
330
2
100
AcDbSymbolTableRecord
100
AcDbLayerTableRecord
  2
파단선
 70
     0
 62
     4
  6
Continuous
370
    -3
390
F
  0
LAYER
  5
74
330
2
100
AcDbSymbolTableRecord
100
AcDbLayerTableRecord
  2
해칭선
 70
     0
 62
   100
  6
Continuous
370
    -3
390
F
  0
LAYER
  5
75
330
2
100
AcDbSymbolTableRecord
100
AcDbLayerTableRecord
  2
가는실선
 70
     0
 62
     4
  6
Continuous
370
    -3
390
F
  0
LAYER
  5
76
330
2
100
AcDbSymbolTableRecord
100
AcDbLayerTableRecord
  2
치수_보조선
 70
     0
 62
     4
  6
Continuous
370
    -3
390
F
  0
LAYER
  5
77
330
2
100
AcDbSymbolTableRecord
100
AcDbLayerTableRecord
  2
치수문자_일반주서
 70
     0
 62
     7
  6
Continuous
370
    15
390
F
  0
LAYER
  5
78
330
2
100
AcDbSymbolTableRecord
100
AcDbLayerTableRecord
  2
개별주서
 70
     0
 62
   100
  6
Continuous
370
    30
390
F
  0
LAYER
  5
79
330
2
100
AcDbSymbolTableRecord
100
AcDbLayerTableRecord
  2
중간선
 70
     0
 62
     2
  6
Continuous
370
    15
390
F
  0
LAYER
  5
7A
330
2
100
AcDbSymbolTableRecord
100
AcDbLayerTableRecord
  2
윤곽선
 70
     0
 62
     3
  6
Continuous
370
    40
390
F
  0
LAYER
  5
7B
330
2
100
AcDbSymbolTableRecord
100
AcDbLayerTableRecord
  2
중심마크
 70
     0
 62
   100
  6
Continuous
370
    30
390
F
  0
LAYER
  5
7C
330
2
100
AcDbSymbolTableRecord
100
AcDbLayerTableRecord
  2
가상선
 70
     0
 62
     4
  6
PHANTOM
370
    -3
390
F
  0
LAYER
  5
7D
330
2
100
AcDbSymbolTableRecord
100
AcDbLayerTableRecord
  2
특수지정선
 70
     0
 62
     5
  6
CENTERX2
370
    60
390
F
  0
LAYER
  5
7E
330
2
100
AcDbSymbolTableRecord
100
AcDbLayerTableRecord
  2
참조1
 70
     0
 62
    -4
  6
Continuous
370
    -3
390
F
  0
LAYER
  5
13A
330
2
100
AcDbSymbolTableRecord
100
AcDbLayerTableRecord
  2
Defpoints
 70
     0
 62
     7
  6
Continuous
290
     0
370
    -3
390
F
  0
ENDTAB
  0
TABLE
  2
STYLE
  5
3
330
0
100
AcDbSymbolTable
 70
     2
  0
STYLE
  5
11
330
3
100
AcDbSymbolTableRecord
100
AcDbTextStyleTableRecord
  2
Standard
 70
     0
 40
0.0
 41
1.0
 50
0.0
 71
     0
 42
3.5
  3
txt
  4

  0
STYLE
  5
94
330
3
100
AcDbSymbolTableRecord
100
AcDbTextStyleTableRecord
  2
SLDTEXTSTYLE0
 70
     0
 40
0.0
 41
0.75
 50
0.0
 71
     0
 42
3.5
  3
TXT
  4

  0
ENDTAB
  0
TABLE
  2
VIEW
  5
6
330
0
100
AcDbSymbolTable
 70
     0
  0
ENDTAB
  0
TABLE
  2
UCS
  5
7
330
0
100
AcDbSymbolTable
 70
     0
  0
ENDTAB
  0
TABLE
  2
APPID
  5
9
330
0
100
AcDbSymbolTable
 70
     3
  0
APPID
  5
12
330
9
100
AcDbSymbolTableRecord
100
AcDbRegAppTableRecord
  2
ACAD
 70
     0
  0
APPID
  5
142
330
9
100
AcDbSymbolTableRecord
100
AcDbRegAppTableRecord
  2
PE_URL
 70
     0
  0
APPID
  5
143
330
9
100
AcDbSymbolTableRecord
100
AcDbRegAppTableRecord
  2
ACAD_DSTYLE_DIMRADIAL_EXTENSION
 70
     0
  0
ENDTAB
  0
TABLE
  2
DIMSTYLE
  5
A
330
0
100
AcDbSymbolTable
 70
     4
100
AcDbDimStyleTable
  0
DIMSTYLE
105
27
330
A
100
AcDbSymbolTableRecord
100
AcDbDimStyleTableRecord
  2
ISO-25
 70
     0
 41
2.5
 42
0.625
 43
3.75
 44
1.25
 73
     0
 74
     0
 77
     1
 78
     8
140
2.5
141
2.5
143
0.03937007874016
147
0.625
171
     3
172
     1
178
     0
271
     2
272
     2
274
     3
278
    44
283
     0
284
     8
340
11
  0
DIMSTYLE
105
D7
102
{ACAD_REACTORS
330
D6
102
}
330
A
100
AcDbSymbolTableRecord
100
AcDbDimStyleTableRecord
  2
SLDDIMSTYLE0
 70
     0
 41
3.302
 44
0.0
 45
0.000000001
 73
     0
 74
     0
 77
     1
 78
     4
 79
     1
140
3.5
147
0.875
172
     1
173
     1
178
     0
271
     2
272
     2
276
     2
284
    12
289
     0
340
94
  0
DIMSTYLE
105
E5
102
{ACAD_REACTORS
330
E4
330
F2
330
21B
102
}
330
A
100
AcDbSymbolTableRecord
100
AcDbDimStyleTableRecord
  2
SLDDIMSTYLE1
 70
     0
 41
3.302
 44
0.0
 45
0.000000001
 73
     0
 74
     0
 77
     1
 78
    12
 79
     3
140
3.5
147
0.875
172
     1
173
     1
178
     0
271
     2
272
     2
276
     2
284
    12
289
     0
340
94
  0
DIMSTYLE
105
FF
102
{ACAD_REACTORS
330
FE
102
}
330
A
100
AcDbSymbolTableRecord
100
AcDbDimStyleTableRecord
  2
SLDDIMSTYLE2
 70
     0
 41
3.302
 44
0.0
 45
0.000000001
 73
     0
 74
     0
 77
     1
 78
    12
 79
     3
140
3.5
147
0.875
173
     1
178
     0
271
     2
272
     2
276
     2
284
    12
340
94
  0
ENDTAB
  0
TABLE
  2
BLOCK_RECORD
  5
1
330
0
100
AcDbSymbolTable
 70
    14
  0
BLOCK_RECORD
  5
1F
330
1
100
AcDbSymbolTableRecord
100
AcDbBlockTableRecord
  2
*Model_Space
340
22
  0
BLOCK_RECORD
  5
1B
330
1
100
AcDbSymbolTableRecord
100
AcDbBlockTableRecord
  2
*Paper_Space
340
1E
  0
BLOCK_RECORD
  5
23
330
1
100
AcDbSymbolTableRecord
100
AcDbBlockTableRecord
  2
*Paper_Space0
340
26
  0
BLOCK_RECORD
  5
7F
330
1
100
AcDbSymbolTableRecord
100
AcDbBlockTableRecord
  2
블럭10
340
0
102
{BLKREFS
331
CF
102
}
  0
BLOCK_RECORD
  5
D8
330
1
100
AcDbSymbolTableRecord
100
AcDbBlockTableRecord
  2
_D
340
0
  0
BLOCK_RECORD
  5
E6
330
1
100
AcDbSymbolTableRecord
100
AcDbBlockTableRecord
  2
_D_1
340
0
  0
BLOCK_RECORD
  5
F3
330
1
100
AcDbSymbolTableRecord
100
AcDbBlockTableRecord
  2
_D_2
340
0
  0
BLOCK_RECORD
  5
100
330
1
100
AcDbSymbolTableRecord
100
AcDbBlockTableRecord
  2
_D_3
340
0
  0
BLOCK_RECORD
  5
110
330
1
100
AcDbSymbolTableRecord
100
AcDbBlockTableRecord
  2
SW_DOWELSYMBOL_0
340
0
102
{BLKREFS
331
116
102
}
  0
BLOCK_RECORD
  5
173
330
1
100
AcDbSymbolTableRecord
100
AcDbBlockTableRecord
  2
*D7
340
0
  0
BLOCK_RECORD
  5
181
330
1
100
AcDbSymbolTableRecord
100
AcDbBlockTableRecord
  2
*D8
340
0
  0
BLOCK_RECORD
  5
1C9
330
1
100
AcDbSymbolTableRecord
100
AcDbBlockTableRecord
  2
*D9
340
0
  0
BLOCK_RECORD
  5
1D6
330
1
100
AcDbSymbolTableRecord
100
AcDbBlockTableRecord
  2
*D10
340
0
  0
BLOCK_RECORD
  5
1E9
330
1
100
AcDbSymbolTableRecord
100
AcDbBlockTableRecord
  2
*D11
340
0
  0
BLOCK_RECORD
  5
1F8
330
1
100
AcDbSymbolTableRecord
100
AcDbBlockTableRecord
  2
*D12
340
0
  0
BLOCK_RECORD
  5
21E
330
1
100
AcDbSymbolTableRecord
100
AcDbBlockTableRecord
  2
*D13
340
0
  0
ENDTAB
  0
ENDSEC
  0
SECTION
  2
BLOCKS
  0
BLOCK
  5
20
330
1F
100
AcDbEntity
  8
0
100
AcDbBlockBegin
  2
*Model_Space
 70
     0
 10
0.0
 20
0.0
 30
0.0
  3
*Model_Space
  1

  0
ENDBLK
  5
21
330
1F
100
AcDbEntity
  8
0
100
AcDbBlockEnd
  0
BLOCK
  5
1C
330
1B
100
AcDbEntity
 67
     1
  8
0
100
AcDbBlockBegin
  2
*Paper_Space
 70
     0
 10
0.0
 20
0.0
 30
0.0
  3
*Paper_Space
  1

  0
ENDBLK
  5
1D
330
1B
100
AcDbEntity
 67
     1
  8
0
100
AcDbBlockEnd
  0
BLOCK
  5
24
330
23
100
AcDbEntity
  8
0
100
AcDbBlockBegin
  2
*Paper_Space0
 70
     0
 10
0.0
 20
0.0
 30
0.0
  3
*Paper_Space0
  1

  0
ENDBLK
  5
25
330
23
100
AcDbEntity
  8
0
100
AcDbBlockEnd
  0
BLOCK
  5
80
330
7F
100
AcDbEntity
  8
0
100
AcDbBlockBegin
  2
블럭10
 70
     2
 10
0.0
 20
0.0
 30
0.0
  3
블럭10
  1

  0
ELLIPSE
  5
82
330
7F
100
AcDbEntity
  8
중심선
100
AcDbEllipse
 10
20.54032771741204
 20
12.0471743016438
 30
0.0
 11
6.600054785286829
 21
-1.261213355974178E-13
 31
0.0
210
0.0
220
0.0
230
1.0
 40
0.636358354079598
 41
0.9219305317359503
 42
6.513795318482858
  0
ELLIPSE
  5
83
330
7F
100
AcDbEntity
  8
중심선
100
AcDbEllipse
 10
20.54032771746488
 20
12.04717430159265
 30
0.0
 11
3.960054785062283
 21
1.540847449632565E-10
 31
0.0
210
0.0
220
0.0
230
1.0
 40
0.3939339440162632
 41
1.131841032648279
 42
5.62031148352944
  0
LINE
  5
84
330
7F
100
AcDbEntity
  8
중심선
100
AcDbLine
 10
2.268634060543552
 20
16.24717430164393
 30
0.0
 11
5.714909304380834
 21
16.24717430164393
 31
0.0
  0
LINE
  5
85
330
7F
100
AcDbEntity
  8
중심선
100
AcDbLine
 10
5.245725140726316
 20
7.84717430164391
 30
0.0
 11
8.692000384563599
 21
7.84717430164391
 31
0.0
  0
LINE
  5
86
330
7F
100
AcDbEntity
  8
중심선
100
AcDbLine
 10
15.74043728645272
 20
16.24717430164393
 30
0.0
 11
8.692000384563599
 21
7.84717430164391
 31
0.0
  0
LINE
  5
87
330
7F
100
AcDbEntity
  8
중심선
100
AcDbLine
 10
0.1404042013395286
 20
13.71084872107135
 30
0.0
 11
3.58671253028996
 21
13.71088815037384
 31
0.0
  0
LINE
  5
88
330
7F
100
AcDbEntity
  8
중심선
100
AcDbLine
 10
2.750260043222114
 20
10.84717430164391
 30
0.0
 11
6.196535287059397
 21
10.84717430164391
 31
0.0
  0
LINE
  5
89
330
7F
100
AcDbEntity
  8
중심선
100
AcDbLine
 10
12.29416204261559
 20
16.24717430164393
 30
0.0
 11
5.245725140726316
 21
7.84717430164391
 31
0.0
  0
LINE
  5
8A
330
7F
100
AcDbEntity
  8
중심선
100
AcDbLine
 10
10.72767329541681
 20
16.24717430164393
 30
0.0
 11
6.196535287059397
 21
10.84717430164391
 31
0.0
  0
LINE
  5
8B
330
7F
100
AcDbEntity
  8
중심선
100
AcDbLine
 10
7.28139805157953
 20
16.24717430164393
 30
0.0
 11
2.750260043222114
 21
10.84717430164391
 31
0.0
  0
LINE
  5
8C
330
7F
100
AcDbEntity
  8
중심선
100
AcDbLine
 10
5.714909304380834
 20
16.24717430164393
 30
0.0
 11
3.58671253028996
 21
13.71088815037384
 31
0.0
  0
LINE
  5
8D
330
7F
100
AcDbEntity
  8
중심선
100
AcDbLine
 10
2.268634060543552
 20
16.24717430164393
 30
0.0
 11
0.1404042013395286
 21
13.71084872107135
 31
0.0
  0
LINE
  5
8E
330
7F
100
AcDbEntity
  8
중심선
100
AcDbLine
 10
7.28139805157953
 20
16.24717430164393
 30
0.0
 11
10.72767329541681
 21
16.24717430164393
 31
0.0
  0
LINE
  5
8F
330
7F
100
AcDbEntity
  8
중심선
100
AcDbLine
 10
12.29416204261559
 20
16.24717430164393
 30
0.0
 11
15.74043728645272
 21
16.24717430164393
 31
0.0
  0
LINE
  5
90
330
7F
100
AcDbEntity
  8
중심선
100
AcDbLine
 10
19.22036997980202
 20
11.08717430171403
 30
0.0
 11
23.66174974927406
 21
11.08717430171406
 31
0.0
  0
LINE
  5
91
330
7F
100
AcDbEntity
  8
중심선
100
AcDbLine
 10
19.22039502424796
 20
13.00717430171391
 30
0.0
 11
19.22036997980202
 21
11.08717430171403
 31
0.0
  0
LINE
  5
92
330
7F
100
AcDbEntity
  8
중심선
100
AcDbLine
 10
19.22039502424796
 20
13.00717430171391
 30
0.0
 11
26.96566020931264
 21
13.00717430171391
 31
0.0
  0
LINE
  5
93
330
7F
100
AcDbEntity
  8
중심선
100
AcDbLine
 10
22.22332737316547
 20
13.45928029700563
 30
0.0
 11
24.52862924686651
 21
15.39360700705356
 31
0.0
  0
ATTDEF
  5
95
330
7F
100
AcDbEntity
  8
FORMAT
 62
     2
100
AcDbText
 10
-16.11926103943555
 20
2.075366912832191
 30
0.0
 40
4.233333333333333
  1
SEME0103501E [ 4 FLUTE ]
 41
0.75
  7
SLDTEXTSTYLE0
 11
-16.11926103943555
 21
-0.0412997538344756
 31
0.0
100
AcDbAttributeDefinition
  3

  2
AUTOATTR0
 70
     0
 74
     1
  0
ENDBLK
  5
81
330
7F
100
AcDbEntity
  8
0
100
AcDbBlockEnd
  0
BLOCK
  5
D9
330
D8
100
AcDbEntity
  8
0
100
AcDbBlockBegin
  2
_D
 70
     0
 10
0.0
 20
0.0
 30
0.0
  3
_D
  1

  0
LINE
  5
DB
330
D8
100
AcDbEntity
  8
치수문자_일반주서
 62
     0
370
    -2
100
AcDbLine
 10
17.7275635094611
 20
1.75107492872389
 30
0.0
 11
27.66506350946109
 21
1.751074928723927
 31
0.0
  0
LINE
  5
DC
330
D8
100
AcDbEntity
  8
치수문자_일반주서
 62
     0
370
    -2
100
AcDbLine
 10
17.7275635094611
 20
-1.74892507127611
 30
0.0
 11
27.6650635094611
 21
-1.748925071276075
 31
0.0
  0
LINE
  5
DD
330
D8
100
AcDbEntity
  8
치수문자_일반주서
 62
     0
370
    -2
100
AcDbLine
 10
27.66506350946109
 20
1.751074928723927
 30
0.0
 11
27.66506350946104
 21
19.07382492872394
 31
0.0
  0
LINE
  5
DE
330
D8
100
AcDbEntity
  8
치수문자_일반주서
 62
     0
370
    -2
100
AcDbLine
 10
27.66506350946109
 20
1.751074928723927
 30
0.0
 11
27.6650635094611
 21
-1.748925071276075
 31
0.0
  0
LINE
  5
DF
330
D8
100
AcDbEntity
  8
치수문자_일반주서
 62
     0
370
    -2
100
AcDbLine
 10
27.66506350946108
 20
5.053074928723927
 30
0.0
 11
27.66506350946107
 21
8.355074928723926
 31
0.0
  0
LINE
  5
E0
330
D8
100
AcDbEntity
  8
치수문자_일반주서
 62
     0
370
    -2
100
AcDbLine
 10
27.66506350946111
 20
-5.050925071276074
 30
0.0
 11
27.66506350946112
 21
-8.352925071276074
 31
0.0
  0
SOLID
  5
E1
330
D8
100
AcDbEntity
  8
치수문자_일반주서
 62
     0
100
AcDbTrace
 10
27.11473017612775
 20
5.053074928723925
 30
0.0
 11
28.21539684279442
 21
5.053074928723928
 31
0.0
 12
27.66506350946109
 22
1.751074928723927
 32
0.0
 13
27.66506350946109
 23
1.751074928723927
 33
0.0
  0
SOLID
  5
E2
330
D8
100
AcDbEntity
  8
치수문자_일반주서
 62
     0
100
AcDbTrace
 10
28.21539684279445
 20
-5.050925071276072
 30
0.0
 11
27.11473017612778
 21
-5.050925071276076
 31
0.0
 12
27.6650635094611
 22
-1.748925071276075
 32
0.0
 13
27.6650635094611
 23
-1.748925071276075
 33
0.0
  0
MTEXT
  5
E3
330
D8
100
AcDbEntity
  8
치수문자_일반주서
 62
     0
100
AcDbMText
 10
23.29006350946105
 20
14.26132492872393
 30
0.0
 40
3.5
 41
0.0
 71
     2
 72
     1
  1
\A1;%%c3.5
  7
SLDTEXTSTYLE0
 11
-3.045183153257572E-15
 21
1.0
 31
0.0
 73
     1
 44
1.0
  0
POINT
  5
213
330
D8
100
AcDbEntity
  8
Defpoints
 62
     0
100
AcDbPoint
 10
17.6650635094611
 20
1.751074928723889
 30
0.0
  0
POINT
  5
214
330
D8
100
AcDbEntity
  8
Defpoints
 62
     0
100
AcDbPoint
 10
17.6650635094611
 20
-1.748925071276111
 30
0.0
  0
POINT
  5
215
330
D8
100
AcDbEntity
  8
Defpoints
 62
     0
100
AcDbPoint
 10
27.66506350946112
 20
-1.748925071276073
 30
0.0
  0
ENDBLK
  5
DA
330
D8
100
AcDbEntity
  8
0
100
AcDbBlockEnd
  0
BLOCK
  5
E7
330
E6
100
AcDbEntity
  8
0
100
AcDbBlockBegin
  2
_D_1
 70
     0
 10
0.0
 20
0.0
 30
0.0
  3
_D_1
  1

  0
LINE
  5
E9
330
E6
100
AcDbEntity
  8
치수문자_일반주서
 62
     0
370
    -2
100
AcDbLine
 10
-51.79743649053889
 20
3.001074928723896
 30
0.0
 11
-62.33493649053889
 21
3.001074928723854
 31
0.0
  0
LINE
  5
EA
330
E6
100
AcDbEntity
  8
치수문자_일반주서
 62
     0
370
    -2
100
AcDbLine
 10
-51.79743649053889
 20
-2.99892507127611
 30
0.0
 11
-62.33493649053887
 21
-2.998925071276149
 31
0.0
  0
LINE
  5
EB
330
E6
100
AcDbEntity
  8
치수문자_일반주서
 62
     0
370
    -2
100
AcDbLine
 10
-62.33493649053889
 20
3.001074928723854
 30
0.0
 11
-62.33493649053894
 21
15.73007492872386
 31
0.0
  0
LINE
  5
EC
330
E6
100
AcDbEntity
  8
치수문자_일반주서
 62
     0
370
    -2
100
AcDbLine
 10
-62.33493649053889
 20
3.001074928723854
 30
0.0
 11
-62.33493649053887
 21
-2.998925071276149
 31
0.0
  0
LINE
  5
ED
330
E6
100
AcDbEntity
  8
치수문자_일반주서
 62
     0
370
    -2
100
AcDbLine
 10
-62.3349364905389
 20
6.303074928723854
 30
0.0
 11
-62.33493649053892
 21
9.605074928723853
 31
0.0
  0
LINE
  5
EE
330
E6
100
AcDbEntity
  8
치수문자_일반주서
 62
     0
370
    -2
100
AcDbLine
 10
-62.33493649053885
 20
-6.300925071276149
 30
0.0
 11
-62.33493649053884
 21
-9.602925071276148
 31
0.0
  0
SOLID
  5
EF
330
E6
100
AcDbEntity
  8
치수문자_일반주서
 62
     0
100
AcDbTrace
 10
-62.88526982387224
 20
6.303074928723852
 30
0.0
 11
-61.78460315720557
 21
6.303074928723856
 31
0.0
 12
-62.33493649053889
 22
3.001074928723854
 32
0.0
 13
-62.33493649053889
 23
3.001074928723854
 33
0.0
  0
SOLID
  5
F0
330
E6
100
AcDbEntity
  8
치수문자_일반주서
 62
     0
100
AcDbTrace
 10
-61.78460315720552
 20
-6.300925071276147
 30
0.0
 11
-62.88526982387219
 21
-6.300925071276151
 31
0.0
 12
-62.33493649053887
 22
-2.998925071276149
 32
0.0
 13
-62.33493649053887
 23
-2.998925071276149
 33
0.0
  0
MTEXT
  5
F1
330
E6
100
AcDbEntity
  8
치수문자_일반주서
 62
     0
100
AcDbMText
 10
-66.70993649053892
 20
12.66757492872384
 30
0.0
 40
3.5
 41
0.0
 71
     2
 72
     1
  1
\A1;%%c6
  7
SLDTEXTSTYLE0
 11
-3.552713678800498E-15
 21
1.0
 31
0.0
 73
     1
 44
1.0
  0
POINT
  5
20C
330
E6
100
AcDbEntity
  8
Defpoints
 62
     0
100
AcDbPoint
 10
-51.73493649053889
 20
3.001074928723896
 30
0.0
  0
POINT
  5
20D
330
E6
100
AcDbEntity
  8
Defpoints
 62
     0
100
AcDbPoint
 10
-51.73493649053889
 20
-2.998925071276109
 30
0.0
  0
POINT
  5
20E
330
E6
100
AcDbEntity
  8
Defpoints
 62
     0
100
AcDbPoint
 10
-62.33493649053887
 20
-2.998925071276149
 30
0.0
  0
ENDBLK
  5
E8
330
E6
100
AcDbEntity
  8
0
100
AcDbBlockEnd
  0
BLOCK
  5
F4
330
F3
100
AcDbEntity
  8
0
100
AcDbBlockBegin
  2
_D_2
 70
     0
 10
0.0
 20
0.0
 30
0.0
  3
_D_2
  1

  0
LINE
  5
F6
330
F3
100
AcDbEntity
  8
치수문자_일반주서
 62
     0
370
    -2
100
AcDbLine
 10
17.6650635094611
 20
1.813574928723889
 30
0.0
 11
17.6650635094611
 21
13.0010749287239
 31
0.0
  0
LINE
  5
F7
330
F3
100
AcDbEntity
  8
치수문자_일반주서
 62
     0
370
    -2
100
AcDbLine
 10
7.665063509461131
 20
1.762019079356456
 30
0.0
 11
7.665063509461131
 21
13.0010749287239
 31
0.0
  0
LINE
  5
F8
330
F3
100
AcDbEntity
  8
치수문자_일반주서
 62
     0
370
    -2
100
AcDbLine
 10
14.3630635094611
 20
13.0010749287239
 30
0.0
 11
10.96706350946113
 21
13.0010749287239
 31
0.0
  0
SOLID
  5
F9
330
F3
100
AcDbEntity
  8
치수문자_일반주서
 62
     0
100
AcDbTrace
 10
14.3630635094611
 20
12.45074159539056
 30
0.0
 11
14.3630635094611
 21
13.55140826205723
 31
0.0
 12
17.6650635094611
 22
13.0010749287239
 32
0.0
 13
17.6650635094611
 23
13.0010749287239
 33
0.0
  0
SOLID
  5
FA
330
F3
100
AcDbEntity
  8
치수문자_일반주서
 62
     0
100
AcDbTrace
 10
10.96706350946113
 20
13.55140826205723
 30
0.0
 11
10.96706350946113
 21
12.45074159539056
 31
0.0
 12
7.665063509461131
 22
13.0010749287239
 32
0.0
 13
7.665063509461131
 23
13.0010749287239
 33
0.0
  0
MTEXT
  5
FB
330
F3
100
AcDbEntity
  8
치수문자_일반주서
 62
     0
100
AcDbMText
 10
12.66506350946112
 20
17.3760749287239
 30
0.0
 40
3.5
 41
0.0
 71
     2
 72
     1
  1
\A1;10
  7
SLDTEXTSTYLE0
 73
     1
 44
1.0
  0
POINT
  5
FC
330
F3
100
AcDbEntity
  8
Defpoints
 62
     0
100
AcDbPoint
 10
17.6650635094611
 20
1.751074928723889
 30
0.0
  0
POINT
  5
FD
330
F3
100
AcDbEntity
  8
Defpoints
 62
     0
100
AcDbPoint
 10
7.665063509461131
 20
1.699519079356456
 30
0.0
  0
POINT
  5
212
330
F3
100
AcDbEntity
  8
Defpoints
 62
     0
100
AcDbPoint
 10
7.665063509461131
 20
13.0010749287239
 30
0.0
  0
ENDBLK
  5
F5
330
F3
100
AcDbEntity
  8
0
100
AcDbBlockEnd
  0
BLOCK
  5
101
330
100
100
AcDbEntity
  8
0
100
AcDbBlockBegin
  2
_D_3
 70
     0
 10
0.0
 20
0.0
 30
0.0
  3
_D_3
  1

  0
LINE
  5
103
330
100
100
AcDbEntity
  8
치수문자_일반주서
 62
     0
370
    -2
100
AcDbLine
 10
17.6650635094611
 20
1.813574928723889
 30
0.0
 11
17.66506350946111
 21
23.0010749287239
 31
0.0
  0
LINE
  5
104
330
100
100
AcDbEntity
  8
치수문자_일반주서
 62
     0
370
    -2
100
AcDbLine
 10
-52.33493649053888
 20
2.463574928723895
 30
0.0
 11
-52.33493649053888
 21
23.0010749287239
 31
0.0
  0
LINE
  5
105
330
100
100
AcDbEntity
  8
치수문자_일반주서
 62
     0
370
    -2
100
AcDbLine
 10
14.36306350946111
 20
23.0010749287239
 30
0.0
 11
-49.03293649053888
 21
23.0010749287239
 31
0.0
  0
SOLID
  5
106
330
100
100
AcDbEntity
  8
치수문자_일반주서
 62
     0
100
AcDbTrace
 10
14.36306350946111
 20
22.45074159539056
 30
0.0
 11
14.36306350946111
 21
23.55140826205723
 31
0.0
 12
17.66506350946111
 22
23.0010749287239
 32
0.0
 13
17.66506350946111
 23
23.0010749287239
 33
0.0
  0
SOLID
  5
107
330
100
100
AcDbEntity
  8
치수문자_일반주서
 62
     0
100
AcDbTrace
 10
-49.03293649053888
 20
23.55140826205723
 30
0.0
 11
-49.03293649053888
 21
22.45074159539056
 31
0.0
 12
-52.33493649053888
 22
23.0010749287239
 32
0.0
 13
-52.33493649053888
 23
23.0010749287239
 33
0.0
  0
MTEXT
  5
108
330
100
100
AcDbEntity
  8
치수문자_일반주서
 62
     0
100
AcDbMText
 10
-17.33493649053889
 20
27.3760749287239
 30
0.0
 40
3.5
 41
0.0
 71
     2
 72
     1
  1
\A1;70
  7
SLDTEXTSTYLE0
 73
     1
 44
1.0
  0
POINT
  5
20F
330
100
100
AcDbEntity
  8
Defpoints
 62
     0
100
AcDbPoint
 10
17.6650635094611
 20
1.751074928723889
 30
0.0
  0
POINT
  5
210
330
100
100
AcDbEntity
  8
Defpoints
 62
     0
100
AcDbPoint
 10
-52.33493649053888
 20
2.401074928723895
 30
0.0
  0
POINT
  5
211
330
100
100
AcDbEntity
  8
Defpoints
 62
     0
100
AcDbPoint
 10
-52.33493649053888
 20
23.0010749287239
 30
0.0
  0
ENDBLK
  5
102
330
100
100
AcDbEntity
  8
0
100
AcDbBlockEnd
  0
BLOCK
  5
111
330
110
100
AcDbEntity
  8
0
100
AcDbBlockBegin
  2
SW_DOWELSYMBOL_0
 70
     0
 10
0.0
 20
0.0
 30
0.0
  3
SW_DOWELSYMBOL_0
  1

  0
CIRCLE
  5
113
330
110
100
AcDbEntity
  8
해칭선
 62
     0
100
AcDbCircle
 10
0.0
 20
0.0
 30
0.0
 40
3.000000000000001
  0
HATCH
  5
114
330
110
100
AcDbEntity
  8
0
  6
Continuous
 62
     0
370
     0
100
AcDbHatch
 10
0.0
 20
0.0
 30
0.0
210
0.0
220
0.0
230
1.0
  2
SOLID
 70
     1
 71
     0
 91
        1
 92
        0
 93
        3
 72
     2
 10
0.0
 20
0.0
 40
3.000000000000001
 50
0.0
 51
90.0
 73
     1
 72
     1
 10
0.0
 20
3.000000000000001
 11
0.0
 21
0.0
 72
     1
 10
0.0
 20
0.0
 11
3.000000000000003
 21
0.0
 97
        0
 75
     0
 76
     1
 98
        1
 10
0.0
 20
0.0
  0
HATCH
  5
115
330
110
100
AcDbEntity
  8
0
  6
Continuous
 62
     0
370
     0
100
AcDbHatch
 10
0.0
 20
0.0
 30
0.0
210
0.0
220
0.0
230
1.0
  2
SOLID
 70
     1
 71
     0
 91
        1
 92
        0
 93
        3
 72
     2
 10
0.0
 20
0.0
 40
3.000000000000001
 50
180.0
 51
270.0000000000007
 73
     1
 72
     1
 10
0.0
 20
-3.000000000000001
 11
0.0
 21
0.0
 72
     1
 10
0.0
 20
0.0
 11
-3.000000000000001
 21
0.0
 97
        0
 75
     0
 76
     1
 98
        1
 10
0.0
 20
0.0
  0
ENDBLK
  5
112
330
110
100
AcDbEntity
  8
0
100
AcDbBlockEnd
  0
BLOCK
  5
174
330
173
100
AcDbEntity
  8
0
100
AcDbBlockBegin
  2
*D7
 70
     1
 10
0.0
 20
0.0
 30
0.0
  3
*D7
  1

  0
LINE
  5
175
330
173
100
AcDbEntity
  8
치수문자_일반주서
 62
     0
370
    -2
100
AcDbLine
 10
2.204220650723685
 20
13.18950728656096
 30
0.0
 11
13.03709036133234
 21
0.0000000000003708
 31
0.0
  0
MTEXT
  5
176
330
173
100
AcDbEntity
  8
치수문자_일반주서
 62
     0
100
AcDbMText
 10
12.42766324959613
 20
4.877872246992994
 30
0.0
 40
3.5
 41
0.0
 71
     5
 72
     1
  1
\A1;R0.1
  7
SLDTEXTSTYLE0
 11
0.6346915493014943
 21
-0.7727655771611911
 31
0.0
 73
     1
 44
1.0
  0
LINE
  5
177
330
173
100
AcDbEntity
  8
치수문자_일반주서
 62
     0
370
    -2
100
AcDbLine
 10
0.0450000000000017
 20
15.81845578006333
 30
0.0
 11
0.1084691549301517
 21
15.74117922234721
 31
0.0
  0
SOLID
  5
178
330
173
100
AcDbEntity
  8
치수문자_일반주서
 62
     0
100
AcDbTrace
 10
2.629499306688061
 20
13.53879920252654
 30
0.0
 11
1.77894199475931
 21
12.84021537059537
 31
0.0
 12
0.1084691549301517
 22
15.74117922234721
 32
0.0
 13
0.1084691549301517
 23
15.74117922234721
 33
0.0
  0
POINT
  5
179
330
173
100
AcDbEntity
  8
Defpoints
 62
     0
100
AcDbPoint
 10
0.1084691549301517
 20
15.74117922234721
 30
0.0
  0
POINT
  5
17A
330
173
100
AcDbEntity
  8
Defpoints
 62
     0
100
AcDbPoint
 10
0.0450000000000017
 20
15.81845578006333
 30
0.0
  0
ENDBLK
  5
17C
330
173
100
AcDbEntity
  8
0
100
AcDbBlockEnd
  0
BLOCK
  5
182
330
181
100
AcDbEntity
  8
0
100
AcDbBlockBegin
  2
*D8
 70
     1
 10
0.0
 20
0.0
 30
0.0
  3
*D8
  1

  0
LINE
  5
184
330
181
100
AcDbEntity
  8
치수문자_일반주서
 62
     0
370
    -2
100
AcDbLine
 10
0.2074999999999996
 20
18.71845578006333
 30
0.0
 11
10.145
 21
18.71845578006337
 31
0.0
  0
LINE
  5
185
330
181
100
AcDbEntity
  8
치수문자_일반주서
 62
     0
370
    -2
100
AcDbLine
 10
0.2074999999999996
 20
15.71845578006333
 30
0.0
 11
10.14500000000002
 21
15.71845578006337
 31
0.0
  0
LINE
  5
186
330
181
100
AcDbEntity
  8
치수문자_일반주서
 62
     0
370
    -2
100
AcDbLine
 10
10.145
 20
18.71845578006337
 30
0.0
 11
10.14499999999994
 21
36.69745578006336
 31
0.0
  0
LINE
  5
187
330
181
100
AcDbEntity
  8
치수문자_일반주서
 62
     0
370
    -2
100
AcDbLine
 10
10.145
 20
18.71845578006337
 30
0.0
 11
10.14500000000002
 21
15.71845578006337
 31
0.0
  0
LINE
  5
188
330
181
100
AcDbEntity
  8
치수문자_일반주서
 62
     0
370
    -2
100
AcDbLine
 10
10.14499999999999
 20
22.02045578006337
 30
0.0
 11
10.14499999999998
 21
25.32245578006336
 31
0.0
  0
LINE
  5
189
330
181
100
AcDbEntity
  8
치수문자_일반주서
 62
     0
370
    -2
100
AcDbLine
 10
10.14500000000003
 20
12.41645578006337
 30
0.0
 11
10.14500000000004
 21
9.114455780063366
 31
0.0
  0
SOLID
  5
18A
330
181
100
AcDbEntity
  8
치수문자_일반주서
 62
     0
100
AcDbTrace
 10
9.59466666666666
 20
22.02045578006336
 30
0.0
 11
10.69533333333333
 21
22.02045578006337
 31
0.0
 12
10.145
 22
18.71845578006337
 32
0.0
 13
10.145
 23
18.71845578006337
 33
0.0
  0
SOLID
  5
18B
330
181
100
AcDbEntity
  8
치수문자_일반주서
 62
     0
100
AcDbTrace
 10
10.69533333333336
 20
12.41645578006337
 30
0.0
 11
9.594666666666695
 21
12.41645578006336
 31
0.0
 12
10.14500000000002
 22
15.71845578006337
 32
0.0
 13
10.14500000000002
 23
15.71845578006337
 33
0.0
  0
MTEXT
  5
18C
330
181
100
AcDbEntity
  8
치수문자_일반주서
 62
     0
100
AcDbMText
 10
5.769999999999962
 20
31.00995578006335
 30
0.0
 40
3.5
 41
0.0
 71
     2
 72
     1
  1
\A1;%%c3.00
  7
SLDTEXTSTYLE0
 11
-3.552713678800499E-15
 21
1.0
 31
0.0
 73
     1
 44
1.0
  0
POINT
  5
18D
330
181
100
AcDbEntity
  8
Defpoints
 62
     0
100
AcDbPoint
 10
0.1449999999999996
 20
18.71845578006333
 30
0.0
  0
POINT
  5
18E
330
181
100
AcDbEntity
  8
Defpoints
 62
     0
100
AcDbPoint
 10
0.1449999999999996
 20
15.71845578006333
 30
0.0
  0
POINT
  5
18F
330
181
100
AcDbEntity
  8
Defpoints
 62
     0
100
AcDbPoint
 10
10.14500000000001
 20
15.71845578006336
 30
0.0
  0
ENDBLK
  5
183
330
181
100
AcDbEntity
  8
0
100
AcDbBlockEnd
  0
BLOCK
  5
1CA
330
1C9
100
AcDbEntity
  8
0
100
AcDbBlockBegin
  2
*D9
 70
     1
 10
0.0
 20
0.0
 30
0.0
  3
*D9
  1

  0
LINE
  5
1CB
330
1C9
100
AcDbEntity
  8
치수문자_일반주서
 62
     0
370
    -2
100
AcDbLine
 10
9.083908762611275
 20
13.18950728656096
 30
0.0
 11
19.91677847321993
 21
0.0000000000003708
 31
0.0
  0
MTEXT
  5
1CC
330
1C9
100
AcDbEntity
  8
치수문자_일반주서
 62
     0
100
AcDbMText
 10
19.30735136148373
 20
4.877872246992994
 30
0.0
 40
3.5
 41
0.0
 71
     5
 72
     1
  1
\A1;R0.1
  7
SLDTEXTSTYLE0
 11
0.6346915493014943
 21
-0.7727655771611911
 31
0.0
 73
     1
 44
1.0
  0
LINE
  5
1CD
330
1C9
100
AcDbEntity
  8
치수문자_일반주서
 62
     0
370
    -2
100
AcDbLine
 10
6.92468811188759
 20
15.81845578006333
 30
0.0
 11
6.988157266817741
 21
15.74117922234721
 31
0.0
  0
SOLID
  5
1CE
330
1C9
100
AcDbEntity
  8
치수문자_일반주서
 62
     0
100
AcDbTrace
 10
9.50918741857565
 20
13.53879920252654
 30
0.0
 11
8.6586301066469
 21
12.84021537059537
 31
0.0
 12
6.988157266817741
 22
15.74117922234721
 32
0.0
 13
6.988157266817741
 23
15.74117922234721
 33
0.0
  0
POINT
  5
1CF
330
1C9
100
AcDbEntity
  8
Defpoints
 62
     0
100
AcDbPoint
 10
6.988157266817741
 20
15.74117922234721
 30
0.0
  0
POINT
  5
1D0
330
1C9
100
AcDbEntity
  8
Defpoints
 62
     0
100
AcDbPoint
 10
6.92468811188759
 20
15.81845578006333
 30
0.0
  0
ENDBLK
  5
1D2
330
1C9
100
AcDbEntity
  8
0
100
AcDbBlockEnd
  0
BLOCK
  5
1D7
330
1D6
100
AcDbEntity
  8
0
100
AcDbBlockBegin
  2
*D10
 70
     1
 10
0.0
 20
0.0
 30
0.0
  3
*D10
  1

  0
LINE
  5
1D9
330
1D6
100
AcDbEntity
  8
치수문자_일반주서
 62
     0
370
    -2
100
AcDbLine
 10
7.087188111887588
 20
18.71845578006333
 30
0.0
 11
17.0246881118876
 21
18.71845578006337
 31
0.0
  0
LINE
  5
1DA
330
1D6
100
AcDbEntity
  8
치수문자_일반주서
 62
     0
370
    -2
100
AcDbLine
 10
7.087188111887588
 20
15.71845578006333
 30
0.0
 11
17.02468811188761
 21
15.71845578006337
 31
0.0
  0
LINE
  5
1DB
330
1D6
100
AcDbEntity
  8
치수문자_일반주서
 62
     0
370
    -2
100
AcDbLine
 10
17.0246881118876
 20
18.71845578006337
 30
0.0
 11
17.02468811188753
 21
36.69745578006336
 31
0.0
  0
LINE
  5
1DC
330
1D6
100
AcDbEntity
  8
치수문자_일반주서
 62
     0
370
    -2
100
AcDbLine
 10
17.0246881118876
 20
18.71845578006337
 30
0.0
 11
17.02468811188761
 21
15.71845578006337
 31
0.0
  0
LINE
  5
1DD
330
1D6
100
AcDbEntity
  8
치수문자_일반주서
 62
     0
370
    -2
100
AcDbLine
 10
17.02468811188758
 20
22.02045578006337
 30
0.0
 11
17.02468811188757
 21
25.32245578006336
 31
0.0
  0
LINE
  5
1DE
330
1D6
100
AcDbEntity
  8
치수문자_일반주서
 62
     0
370
    -2
100
AcDbLine
 10
17.02468811188762
 20
12.41645578006337
 30
0.0
 11
17.02468811188763
 21
9.114455780063366
 31
0.0
  0
SOLID
  5
1DF
330
1D6
100
AcDbEntity
  8
치수문자_일반주서
 62
     0
100
AcDbTrace
 10
16.47435477855425
 20
22.02045578006336
 30
0.0
 11
17.57502144522092
 21
22.02045578006337
 31
0.0
 12
17.0246881118876
 22
18.71845578006337
 32
0.0
 13
17.0246881118876
 23
18.71845578006337
 33
0.0
  0
SOLID
  5
1E0
330
1D6
100
AcDbEntity
  8
치수문자_일반주서
 62
     0
100
AcDbTrace
 10
17.57502144522095
 20
12.41645578006337
 30
0.0
 11
16.47435477855428
 21
12.41645578006336
 31
0.0
 12
17.02468811188761
 22
15.71845578006337
 32
0.0
 13
17.02468811188761
 23
15.71845578006337
 33
0.0
  0
MTEXT
  5
1E1
330
1D6
100
AcDbEntity
  8
치수문자_일반주서
 62
     0
100
AcDbMText
 10
12.64968811188755
 20
31.00995578006335
 30
0.0
 40
3.5
 41
0.0
 71
     2
 72
     1
  1
\A1;%%c3.00
  7
SLDTEXTSTYLE0
 11
-3.552713678800499E-15
 21
1.0
 31
0.0
 73
     1
 44
1.0
  0
POINT
  5
1E2
330
1D6
100
AcDbEntity
  8
Defpoints
 62
     0
100
AcDbPoint
 10
7.024688111887588
 20
18.71845578006333
 30
0.0
  0
POINT
  5
1E3
330
1D6
100
AcDbEntity
  8
Defpoints
 62
     0
100
AcDbPoint
 10
7.024688111887588
 20
15.71845578006333
 30
0.0
  0
POINT
  5
1E4
330
1D6
100
AcDbEntity
  8
Defpoints
 62
     0
100
AcDbPoint
 10
17.0246881118876
 20
15.71845578006336
 30
0.0
  0
ENDBLK
  5
1D8
330
1D6
100
AcDbEntity
  8
0
100
AcDbBlockEnd
  0
BLOCK
  5
1EA
330
1E9
100
AcDbEntity
  8
0
100
AcDbBlockBegin
  2
*D11
 70
     1
 10
0.0
 20
0.0
 30
0.0
  3
*D11
  1

  0
LINE
  5
1EC
330
1E9
100
AcDbEntity
  8
치수문자_일반주서
 62
     0
370
    -2
100
AcDbLine
 10
49.80036534492749
 20
8.681208894685287
 30
0.0
 11
59.73786534492748
 21
8.681208894685325
 31
0.0
  0
LINE
  5
1ED
330
1E9
100
AcDbEntity
  8
치수문자_일반주서
 62
     0
370
    -2
100
AcDbLine
 10
49.80036534492749
 20
5.681208894685287
 30
0.0
 11
59.73786534492749
 21
5.681208894685325
 31
0.0
  0
LINE
  5
1EE
330
1E9
100
AcDbEntity
  8
치수문자_일반주서
 62
     0
370
    -2
100
AcDbLine
 10
59.73786534492748
 20
8.681208894685325
 30
0.0
 11
59.73786534492744
 21
26.66020889468533
 31
0.0
  0
LINE
  5
1EF
330
1E9
100
AcDbEntity
  8
치수문자_일반주서
 62
     0
370
    -2
100
AcDbLine
 10
59.73786534492748
 20
8.681208894685325
 30
0.0
 11
59.73786534492749
 21
5.681208894685325
 31
0.0
  0
LINE
  5
1F0
330
1E9
100
AcDbEntity
  8
치수문자_일반주서
 62
     0
370
    -2
100
AcDbLine
 10
59.73786534492747
 20
11.98320889468532
 30
0.0
 11
59.73786534492746
 21
15.28520889468532
 31
0.0
  0
LINE
  5
1F1
330
1E9
100
AcDbEntity
  8
치수문자_일반주서
 62
     0
370
    -2
100
AcDbLine
 10
59.73786534492749
 20
2.379208894685325
 30
0.0
 11
59.7378653449275
 21
-0.9227911053146745
 31
0.0
  0
SOLID
  5
1F2
330
1E9
100
AcDbEntity
  8
치수문자_일반주서
 62
     0
100
AcDbTrace
 10
59.18753201159414
 20
11.98320889468532
 30
0.0
 11
60.28819867826081
 21
11.98320889468533
 31
0.0
 12
59.73786534492748
 22
8.681208894685325
 32
0.0
 13
59.73786534492748
 23
8.681208894685325
 33
0.0
  0
SOLID
  5
1F3
330
1E9
100
AcDbEntity
  8
치수문자_일반주서
 62
     0
100
AcDbTrace
 10
60.28819867826083
 20
2.379208894685326
 30
0.0
 11
59.18753201159416
 21
2.379208894685324
 31
0.0
 12
59.73786534492749
 22
5.681208894685325
 32
0.0
 13
59.73786534492749
 23
5.681208894685325
 33
0.0
  0
MTEXT
  5
1F4
330
1E9
100
AcDbEntity
  8
치수문자_일반주서
 62
     0
100
AcDbMText
 10
55.36286534492745
 20
20.97270889468532
 30
0.0
 40
3.5
 41
0.0
 71
     2
 72
     1
  1
\A1;%%c3.00
  7
SLDTEXTSTYLE0
 11
-2.368475785867000E-15
 21
1.0
 31
0.0
 73
     1
 44
1.0
  0
POINT
  5
1F5
330
1E9
100
AcDbEntity
  8
Defpoints
 62
     0
100
AcDbPoint
 10
49.73786534492749
 20
8.681208894685287
 30
0.0
  0
POINT
  5
1F6
330
1E9
100
AcDbEntity
  8
Defpoints
 62
     0
100
AcDbPoint
 10
49.73786534492749
 20
5.681208894685287
 30
0.0
  0
POINT
  5
1F7
330
1E9
100
AcDbEntity
  8
Defpoints
 62
     0
100
AcDbPoint
 10
59.73786534492751
 20
5.681208894685325
 30
0.0
  0
ENDBLK
  5
1EB
330
1E9
100
AcDbEntity
  8
0
100
AcDbBlockEnd
  0
BLOCK
  5
1F9
330
1F8
100
AcDbEntity
  8
0
100
AcDbBlockBegin
  2
*D12
 70
     1
 10
0.0
 20
0.0
 30
0.0
  3
*D12
  1

  0
LINE
  5
1FB
330
1F8
100
AcDbEntity
  8
치수문자_일반주서
 62
     0
370
    -2
100
AcDbLine
 10
51.7970859956511
 20
3.152260401182859
 30
0.0
 11
62.62995570625939
 21
-10.03724688537802
 31
0.0
  0
MTEXT
  5
1FC
330
1F8
100
AcDbEntity
  8
치수문자_일반주서
 62
     0
100
AcDbMText
 10
62.02052859452332
 20
-5.159374638385385
 30
0.0
 40
3.5
 41
0.0
 71
     5
 72
     1
  1
\A1;R0.1
  7
SLDTEXTSTYLE0
 11
0.6346915493014732
 21
-0.7727655771612085
 31
0.0
 73
     1
 44
1.0
  0
LINE
  5
1FD
330
1F8
100
AcDbEntity
  8
치수문자_일반주서
 62
     0
370
    -2
100
AcDbLine
 10
49.63786534492749
 20
5.781208894685289
 30
0.0
 11
49.70133449985764
 21
5.703932336969169
 31
0.0
  0
SOLID
  5
1FE
330
1F8
100
AcDbEntity
  8
치수문자_일반주서
 62
     0
100
AcDbTrace
 10
52.22236465161549
 20
3.501552317148436
 30
0.0
 11
51.37180733968672
 21
2.802968485217281
 31
0.0
 12
49.70133449985764
 22
5.703932336969169
 32
0.0
 13
49.70133449985764
 23
5.703932336969169
 33
0.0
  0
POINT
  5
1FF
330
1F8
100
AcDbEntity
  8
Defpoints
 62
     0
100
AcDbPoint
 10
49.70133449985764
 20
5.703932336969169
 30
0.0
  0
POINT
  5
200
330
1F8
100
AcDbEntity
  8
Defpoints
 62
     0
100
AcDbPoint
 10
49.63786534492749
 20
5.781208894685289
 30
0.0
  0
ENDBLK
  5
1FA
330
1F8
100
AcDbEntity
  8
0
100
AcDbBlockEnd
  0
BLOCK
  5
21F
330
21E
100
AcDbEntity
  8
0
100
AcDbBlockBegin
  2
*D13
 70
     1
 10
0.0
 20
0.0
 30
0.0
  3
*D13
  1

  0
LINE
  5
221
330
21E
100
AcDbEntity
  8
치수문자_일반주서
 62
     0
370
    -2
100
AcDbLine
 10
19.4396301296594
 20
-4.487869238821209
 30
0.0
 11
30.32904592022564
 21
-20.97938419139801
 31
0.0
  0
MTEXT
  5
222
330
21E
100
AcDbEntity
  8
치수문자_일반주서
 62
     0
100
AcDbMText
 10
30.22941656237929
 20
-16.06459904313821
 30
0.0
 40
3.5
 41
0.0
 71
     5
 72
     1
  1
\A1;R0.1
  7
SLDTEXTSTYLE0
 11
0.551018994767283
 21
-0.8344927006305405
 31
0.0
 73
     1
 44
1.0
  0
LINE
  5
223
330
21E
100
AcDbEntity
  8
치수문자_일반주서
 62
     0
370
    -2
100
AcDbLine
 10
17.5650635094611
 20
-1.648925071276111
 30
0.0
 11
17.62016540893783
 21
-1.732374341339165
 31
0.0
  0
SOLID
  5
224
330
21E
100
AcDbEntity
  8
치수문자_일반주서
 62
     0
100
AcDbTrace
 10
19.89887927923974
 20
-4.184625118700948
 30
0.0
 11
18.98038098007905
 21
-4.791113358941471
 31
0.0
 12
17.62016540893783
 22
-1.732374341339165
 32
0.0
 13
17.62016540893783
 23
-1.732374341339165
 33
0.0
  0
POINT
  5
225
330
21E
100
AcDbEntity
  8
Defpoints
 62
     0
100
AcDbPoint
 10
17.62016540893783
 20
-1.732374341339165
 30
0.0
  0
POINT
  5
226
330
21E
100
AcDbEntity
  8
Defpoints
 62
     0
100
AcDbPoint
 10
17.5650635094611
 20
-1.648925071276111
 30
0.0
  0
ENDBLK
  5
220
330
21E
100
AcDbEntity
  8
0
100
AcDbBlockEnd
  0
ENDSEC
  0
SECTION
  2
ENTITIES
  0
LINE
  5
96
330
1F
100
AcDbEntity
  8
외형선
  6
Continuous
370
    15
100
AcDbLine
 10
15.04024146120616
 20
-0.4622261176107738
 30
0.0
 11
15.15388591148079
 21
-0.5238940772678123
 31
0.0
  0
LINE
  5
97
330
1F
100
AcDbEntity
  8
0
  6
Continuous
 62
     1
370
    15
100
AcDbLine
 10
17.04516778386524
 20
0.5020201302097711
 30
0.0
 11
17.00876801763457
 21
0.5217422997693423
 31
0.0
1001
PE_URL
1000

  0
LINE
  5
98
330
1F
100
AcDbEntity
  8
0
  6
Continuous
 62
     1
370
    15
100
AcDbLine
 10
7.858389966939029
 20
0.312000635576335
 30
0.0
 11
7.665063509459536
 21
0.40767521356688
 31
0.0
1001
PE_URL
1000

  0
LINE
  5
99
330
1F
100
AcDbEntity
  8
0
  6
Continuous
 62
     1
370
    15
100
AcDbLine
 10
13.16293790349596
 20
-1.748925071276108
 30
0.0
 11
14.22958507107543
 21
-1.748925071276108
 31
0.0
1001
PE_URL
1000

  0
LINE
  5
9A
330
1F
100
AcDbEntity
  8
0
  6
Continuous
 62
     1
370
    15
100
AcDbLine
 10
9.469722614729871
 20
1.751074928723894
 30
0.0
 11
8.402902391232985
 21
1.751074928723894
 31
0.0
1001
PE_URL
1000

  0
LINE
  5
9B
330
1F
100
AcDbEntity
  8
0
  6
Continuous
 62
     1
370
    15
100
AcDbLine
 10
14.22958507107543
 20
1.751074928723894
 30
0.0
 11
13.16293790349598
 21
1.751074928723894
 31
0.0
1001
PE_URL
1000

  0
LINE
  5
9C
330
1F
100
AcDbEntity
  8
0
  6
Continuous
 62
     1
370
    15
100
AcDbLine
 10
8.402902391232999
 20
-1.748925071276108
 30
0.0
 11
9.469722614729857
 21
-1.748925071276108
 31
0.0
1001
PE_URL
1000

  0
LINE
  5
9D
330
1F
100
AcDbEntity
  8
외형선
  6
Continuous
370
    15
100
AcDbLine
 10
-51.73493649053889
 20
-2.99892507127611
 30
0.0
 11
1.999999999999996
 21
-2.99892507127611
 31
0.0
  0
LINE
  5
9E
330
1F
100
AcDbEntity
  8
외형선
  6
Continuous
370
    15
100
AcDbLine
 10
1.999999999999996
 20
3.001074928723897
 30
0.0
 11
-51.73493649053889
 21
3.001074928723897
 31
0.0
  0
LINE
  5
9F
330
1F
100
AcDbEntity
  8
외형선
  6
Continuous
370
    15
100
AcDbLine
 10
1.999999999999996
 20
-2.998925071276114
 30
0.0
 11
6.665023202077144
 21
-1.748935871607091
 31
0.0
  0
LINE
  5
A0
330
1F
100
AcDbEntity
  8
외형선
  6
Continuous
370
    15
100
AcDbLine
 10
6.665023202077144
 20
1.751085729054877
 30
0.0
 11
1.999999999999996
 21
3.0010749287239
 31
0.0
  0
LINE
  5
A1
330
1F
100
AcDbEntity
  8
외형선
  6
Continuous
370
    15
100
AcDbLine
 10
-51.73493649053889
 20
3.001074928723893
 30
0.0
 11
-52.33493649053888
 21
2.401074928723895
 31
0.0
  0
LINE
  5
A2
330
1F
100
AcDbEntity
  8
외형선
  6
Continuous
370
    15
100
AcDbLine
 10
-52.33493649053888
 20
-2.398925071276109
 30
0.0
 11
-51.73493649053889
 21
-2.998925071276107
 31
0.0
  0
LINE
  5
A3
330
1F
100
AcDbEntity
  8
0
  6
Continuous
 62
     1
370
    15
100
AcDbLine
 10
17.6650635094611
 20
-1.504202074268693
 30
0.0
 11
17.6650635094611
 21
0.1684947888593537
 31
0.0
1001
PE_URL
1000

  0
SPLINE
  5
A4
330
1F
100
AcDbEntity
  8
0
  6
Continuous
 62
     1
370
    15
100
AcDbSpline
210
0.0
220
0.0
230
1.0
 70
     8
 71
     3
 72
    17
 73
    13
 74
     0
 42
0.000000001
 43
0.00000001
 40
0.0
 40
0.0
 40
0.0
 40
0.0
 40
0.0000509485102734
 40
0.0000509485102734
 40
0.0000509485102734
 40
0.0000959758359294
 40
0.0000959758359294
 40
0.0000959758359294
 40
0.0001418524361124
 40
0.0001418524361124
 40
0.0001418524361124
 40
0.0001778144810068
 40
0.0001778144810068
 40
0.0001778144810068
 40
0.0001778144810068
 10
17.56506350946111
 20
-1.558378922893856
 30
0.0
 10
17.5797578884411
 20
-1.562242460613044
 30
0.0
 10
17.59422482254588
 20
-1.563527086550504
 30
0.0
 10
17.60712750924497
 20
-1.562236731978216
 30
0.0
 10
17.61857575341093
 20
-1.561091831342502
 30
0.0
 10
17.62916243822169
 20
-1.557893388582594
 30
0.0
 10
17.63800437136579
 20
-1.552677439187183
 30
0.0
 10
17.64697889593527
 20
-1.547383272714836
 30
0.0
 10
17.65444644869564
 20
-1.539783957544072
 30
0.0
 10
17.65919127196198
 20
-1.530262853553145
 30
0.0
 10
17.66292525251498
 20
-1.522770136722648
 30
0.0
 10
17.6650635094611
 20
-1.513828559017526
 30
0.0
 10
17.6650635094611
 20
-1.504202074268693
 30
0.0
1001
PE_URL
1000

  0
SPLINE
  5
A5
330
1F
100
AcDbEntity
  8
0
  6
Continuous
 62
     1
370
    15
100
AcDbSpline
210
0.0
220
0.0
230
1.0
 70
     8
 71
     3
 72
    17
 73
    13
 74
     0
 42
0.000000001
 43
0.00000001
 40
0.0
 40
0.0
 40
0.0
 40
0.0
 40
0.0052906859697667
 40
0.1193997002523847
 40
0.233509890969498
 40
0.3476216430352281
 40
0.4617353407087836
 40
0.5693307059440903
 40
0.6769541233725969
 40
0.7846144530648907
 40
0.8923173366594249
 40
1.0
 40
1.0
 40
1.0
 40
1.0
 10
9.469722614729871
 20
1.747504770274691
 30
0.0
 10
9.483999274002265
 20
1.748686073861004
 30
0.0
 10
9.806193569310832
 20
1.77534562139773
 30
0.0
 10
10.43630894746555
 20
1.677214082995196
 30
0.0
 10
11.36007890734953
 20
1.446705450757752
 30
0.0
 10
12.28384781156457
 20
1.064756582072925
 30
0.0
 10
13.19009955077709
 20
0.5986235125136411
 30
0.0
 10
14.07863352423674
 20
0.0897525451728154
 30
0.0
 10
14.94986559860133
 20
-0.4166631951310346
 30
0.0
 10
15.82142147445541
 20
-0.8865061094572273
 30
0.0
 10
16.69325101431274
 20
-1.292613507848771
 30
0.0
 10
17.27447753279981
 20
-1.469795995804096
 30
0.0
 10
17.56506350946107
 20
-1.558378922893847
 30
0.0
1001
PE_URL
1000

  0
SPLINE
  5
A6
330
1F
100
AcDbEntity
  8
0
  6
Continuous
 62
     1
370
    15
100
AcDbSpline
210
0.0
220
0.0
230
1.0
 70
     8
 71
     3
 72
    14
 73
    10
 74
     0
 42
0.000000001
 43
0.00000001
 40
0.0
 40
0.0
 40
0.0
 40
0.0
 40
0.1481589974754772
 40
0.2963250313992474
 40
0.4444985802052568
 40
0.5926785290606535
 40
0.7408530291853158
 40
0.8890199561507734
 40
1.0
 40
1.0
 40
1.0
 40
1.0
 10
17.56506350946109
 20
0.2087832358072275
 30
0.0
 10
17.25703285073397
 20
0.3834622980614725
 30
0.0
 10
16.64095690411884
 20
0.7328287185237033
 30
0.0
 10
15.71680879634549
 20
1.184337164323447
 30
0.0
 10
14.79260965763888
 20
1.527837065506126
 30
0.0
 10
13.86837804931874
 20
1.731233668319792
 30
0.0
 10
12.94417948288227
 20
1.771251750120058
 30
0.0
 10
12.09730291399005
 20
1.671794655438874
 30
0.0
 10
11.55856431555572
 20
1.502419951642725
 30
0.0
 10
11.32784877568447
 20
1.429885003635603
 30
0.0
1001
PE_URL
1000

  0
SPLINE
  5
A7
330
1F
100
AcDbEntity
  8
0
  6
Continuous
 62
     1
370
    15
100
AcDbSpline
210
0.0
220
0.0
230
1.0
 70
     8
 71
     3
 72
    23
 73
    19
 74
     0
 42
0.000000001
 43
0.00000001
 40
0.0
 40
0.0
 40
0.0
 40
0.0
 40
0.0000302889080706
 40
0.0000302889080706
 40
0.0000302889080706
 40
0.0000606691678392
 40
0.0000606691678392
 40
0.0000606691678392
 40
0.0000900105609609
 40
0.0000900105609609
 40
0.0000900105609609
 40
0.0001199644542344
 40
0.0001199644542344
 40
0.0001199644542344
 40
0.0001529348284997
 40
0.0001529348284997
 40
0.0001529348284997
 40
0.0001635072671666
 40
0.0001635072671666
 40
0.0001635072671666
 40
0.0001635072671666
 10
17.6650635094611
 20
0.1684947888593537
 30
0.0
 10
17.6650635094611
 20
0.1672838113159692
 30
0.0
 10
17.66356180024642
 20
0.1667018295066598
 30
0.0
 10
17.66058138878242
 20
0.1668988960186181
 30
0.0
 10
17.65759536171171
 20
0.1670963338377062
 30
0.0
 10
17.6530330970698
 20
0.1680907193671811
 30
0.0
 10
17.6473047960733
 20
0.1698693881957944
 30
0.0
 10
17.64176423316006
 20
0.1715897633214671
 30
0.0
 10
17.63499478569562
 20
0.1740881835807433
 30
0.0
 10
17.62761270949829
 20
0.1771692278237327
 30
0.0
 10
17.62006795777566
 20
0.1803181676664505
 30
0.0
 10
17.61170894354854
 20
0.1841464049101935
 30
0.0
 10
17.60317636119728
 20
0.1883505957182525
 30
0.0
 10
17.59378494413204
 20
0.1929779532607817
 30
0.0
 10
17.58397113930306
 20
0.1981617086839361
 30
0.0
 10
17.57436042152045
 20
0.2035175922900053
 30
0.0
 10
17.57124991549732
 20
0.2052510224658393
 30
0.0
 10
17.56814557046286
 20
0.207010050394589
 30
0.0
 10
17.56506350946108
 20
0.2087832358072339
 30
0.0
1001
PE_URL
1000

  0
SPLINE
  5
A8
330
1F
100
AcDbEntity
  8
0
  6
Continuous
 62
     1
370
    15
100
AcDbSpline
210
0.0
220
0.0
230
1.0
 70
     8
 71
     3
 72
    17
 73
    13
 74
     0
 42
0.000000001
 43
0.00000001
 40
0.0
 40
0.0
 40
0.0
 40
0.0
 40
0.109717706338917
 40
0.2194358023717495
 40
0.3291546589977656
 40
0.4388746467968807
 40
0.5485961358742811
 40
0.6583194957054287
 40
0.7617753052757225
 40
0.8652580877769702
 40
0.9687763624030411
 40
1.0
 40
1.0
 40
1.0
 40
1.0
 10
7.665063509461103
 20
0.9824898833731439
 30
0.0
 10
7.972977647330548
 20
0.8264494623689596
 30
0.0
 10
8.588807016714835
 20
0.5143680661382628
 30
0.0
 10
9.512554708492235
 20
-0.0253094837849789
 30
0.0
 10
10.43630891626953
 20
-0.5560736889853146
 30
0.0
 10
11.36007892385966
 20
-1.037172231034363
 30
0.0
 10
12.28384777671989
 20
-1.422275498781056
 30
0.0
 10
13.19009967064461
 20
-1.670797709935952
 30
0.0
 10
14.07863310687344
 20
-1.77237343159807
 30
0.0
 10
14.94986715948775
 20
-1.718132301539002
 30
0.0
 10
15.61841496300974
 20
-1.592257059366987
 30
0.0
 10
15.99659327662666
 20
-1.452142284842958
 30
0.0
 10
16.08422824051123
 20
-1.419673598080696
 30
0.0
1001
PE_URL
1000

  0
SPLINE
  5
A9
330
1F
100
AcDbEntity
  8
외형선
  6
Continuous
370
    15
100
AcDbSpline
210
0.0
220
0.0
230
1.0
 70
    24
 71
     3
 72
    12
 73
     8
 74
     0
 42
0.000000001
 43
0.00000001
 40
0.0
 40
0.0
 40
0.0
 40
0.0
 40
0.2191602937996334
 40
0.4433247352514401
 40
0.6890118317150403
 40
0.9418238706201084
 40
1.0
 40
1.0
 40
1.0
 40
1.0
 10
7.665063509461131
 20
1.699519079356456
 30
0.0
 10
7.665063509461117
 20
1.647598306571564
 30
0.0
 10
7.665063509461103
 20
1.542571239625048
 30
0.0
 10
7.665063509461021
 20
1.380754966203084
 30
0.0
 10
7.665063509461202
 20
1.218930743908938
 30
0.0
 10
7.665063509461103
 20
1.098961538913234
 30
0.0
 10
7.665063509461103
 20
1.041385309504798
 30
0.0
 10
7.665063509461103
 20
1.03061460337233
 30
0.0
  0
SPLINE
  5
AA
330
1F
100
AcDbEntity
  8
0
  6
Continuous
 62
     1
370
    15
100
AcDbSpline
210
0.0
220
0.0
230
1.0
 70
     8
 71
     3
 72
    38
 73
    34
 74
     0
 42
0.000000001
 43
0.00000001
 40
0.0
 40
0.0
 40
0.0
 40
0.0
 40
0.0625
 40
0.0625
 40
0.125
 40
0.125
 40
0.1875
 40
0.1875
 40
0.25
 40
0.25
 40
0.3125
 40
0.3125
 40
0.375
 40
0.375
 40
0.4375
 40
0.4375
 40
0.5
 40
0.5
 40
0.5625
 40
0.5625
 40
0.625
 40
0.625
 40
0.6875
 40
0.6875
 40
0.75
 40
0.75
 40
0.8125
 40
0.8125
 40
0.875
 40
0.875
 40
0.9375
 40
0.9375
 40
1.0
 40
1.0
 40
1.0
 40
1.0
 10
17.5650635094611
 20
-1.74892507127611
 30
0.0
 10
17.35993437912327
 20
-1.722447781564429
 30
0.0
 10
17.15088336444156
 20
-1.696103033852829
 30
0.0
 10
16.73787628730699
 20
-1.620413279875649
 30
0.0
 10
16.53470595098372
 20
-1.57129189561138
 30
0.0
 10
16.11996415442763
 20
-1.451253383893742
 30
0.0
 10
15.9131271614844
 20
-1.380694151824043
 30
0.0
 10
15.50416542765987
 20
-1.222098063883946
 30
0.0
 10
15.29526648744912
 20
-1.13314708861071
 30
0.0
 10
14.88154053531673
 20
-0.9412568074556614
 30
0.0
 10
14.67868099951453
 20
-0.8387442874794986
 30
0.0
 10
14.26431518097498
 20
-0.6220774021464927
 30
0.0
 10
14.05582474829251
 20
-0.5083825820301235
 30
0.0
 10
13.64831125901119
 20
-0.2772868108573981
 30
0.0
 10
13.43964585167342
 20
-0.1580769619220854
 30
0.0
 10
13.02535877505518
 20
0.0803473324170546
 30
0.0
 10
12.82252333054678
 20
0.1990096685023792
 30
0.0
 10
12.40869205730096
 20
0.4335101569932789
 30
0.0
 10
12.19982666646037
 20
0.5489004777925838
 30
0.0
 10
11.79109769382799
 20
0.7689053162696912
 30
0.0
 10
11.5840025419063
 20
0.8748270467842084
 30
0.0
 10
11.16931280748504
 20
1.073125889450632
 30
0.0
 10
10.96621471438593
 20
1.164849444652154
 30
0.0
 10
10.55307587127817
 20
1.331970453224892
 30
0.0
 10
10.3440447033713
 20
1.407094151934768
 30
0.0
 10
9.933993594788891
 20
1.535956979493317
 30
0.0
 10
9.728317671461628
 20
1.590263311550497
 30
0.0
 10
9.313384260569247
 20
1.676321535185742
 30
0.0
 10
9.109737113162005
 20
1.707743881920185
 30
0.0
 10
8.697447702639423
 20
1.746857871223768
 30
0.0
 10
8.488332389770598
 20
1.754398847980669
 30
0.0
 10
8.077112234834793
 20
1.745043834901153
 30
0.0
 10
7.872572406601904
 20
1.728266655310289
 30
0.0
 10
7.665063509459522
 20
1.699519079368621
 30
0.0
1001
PE_URL
1000

  0
SPLINE
  5
AC
330
1F
100
AcDbEntity
  8
0
  6
Continuous
 62
     1
370
    15
100
AcDbSpline
210
0.0
220
0.0
230
1.0
 70
     8
 71
     3
 72
    11
 73
     7
 74
     0
 42
0.000000001
 43
0.00000001
 40
0.0
 40
0.0
 40
0.0
 40
0.0
 40
0.2521971929462093
 40
0.5043952816431182
 40
0.7565951186400205
 40
1.0
 40
1.0
 40
1.0
 40
1.0
 10
7.665063509461103
 20
-1.447829721966001
 30
0.0
 10
7.972977660830903
 20
-1.534626995802426
 30
0.0
 10
8.588807057215924
 20
-1.7082218517607
 30
0.0
 10
9.512554546486701
 20
-1.77268973956733
 30
0.0
 10
10.42556833688599
 20
-1.694427351685752
 30
0.0
 10
11.03066797689197
 20
-1.515574579753668
 30
0.0
 10
11.32784877568443
 20
-1.427735146187815
 30
0.0
1001
PE_URL
1000

  0
SPLINE
  5
AD
330
1F
100
AcDbEntity
  8
외형선
  6
Continuous
370
    15
100
AcDbSpline
210
0.0
220
0.0
230
1.0
 70
    24
 71
     3
 72
    21
 73
    17
 74
     0
 42
0.000000001
 43
0.00000001
 40
0.0
 40
0.0
 40
0.0
 40
0.0
 40
0.0240444546174603
 40
0.1048628743248411
 40
0.1834036074508478
 40
0.2642220271582358
 40
0.3427627602843974
 40
0.4235811799916249
 40
0.5021219131174356
 40
0.5829403328246103
 40
0.6614810659508082
 40
0.7422994856584048
 40
0.8208402187843122
 40
0.9016586384917896
 40
0.9505628296954776
 40
1.0
 40
1.0
 40
1.0
 40
1.0
 10
7.665063509461088
 20
0.3566931541717769
 30
0.0
 10
7.665063509461103
 20
0.3513479658713367
 30
0.0
 10
7.665063509461131
 20
0.328036486450853
 30
0.0
 10
7.665063509461064
 20
0.2591482878902396
 30
0.0
 10
7.665063509461159
 20
0.1513903618794449
 30
0.0
 10
7.665063509461174
 20
0.0206544726058881
 30
0.0
 10
7.665063509461074
 20
-0.1291436038699381
 30
0.0
 10
7.665063509461227
 20
-0.291754378435744
 30
0.0
 10
7.665063509460978
 20
-0.4653180154639973
 30
0.0
 10
7.665063509461227
 20
-0.6418453667776948
 30
0.0
 10
7.665063509461103
 20
-0.8195109225875241
 30
0.0
 10
7.665063509461074
 20
-0.9900651560834245
 30
0.0
 10
7.665063509461088
 20
-1.15184872923693
 30
0.0
 10
7.665063509461117
 20
-1.278917951449013
 30
0.0
 10
7.665063509461131
 20
-1.377219755949873
 30
0.0
 10
7.665063509461103
 20
-1.424208179159234
 30
0.0
 10
7.665063509461103
 20
-1.447829721966003
 30
0.0
  0
SPLINE
  5
AE
330
1F
100
AcDbEntity
  8
0
  6
Continuous
 62
     1
370
    15
100
AcDbSpline
210
0.0
220
0.0
230
1.0
 70
     8
 71
     3
 72
    14
 73
    10
 74
     0
 42
0.000000001
 43
0.00000001
 40
0.0
 40
0.0
 40
0.0
 40
0.0
 40
0.0397872530887475
 40
0.2078568393232287
 40
0.3663654512476917
 40
0.5248209491931017
 40
0.6832363935900124
 40
0.8416249810942453
 40
1.0
 40
1.0
 40
1.0
 40
1.0
 10
13.16293790349596
 20
-1.734284699331362
 30
0.0
 10
13.09001202703443
 20
-1.738725671852093
 30
0.0
 10
12.70903216515854
 20
-1.761926230825626
 30
0.0
 10
12.03751562002294
 20
-1.645730727603991
 30
0.0
 10
11.14857890107192
 20
-1.397596699467546
 30
0.0
 10
10.27739072341945
 20
-1.027382887714927
 30
0.0
 10
9.406467407336407
 20
-0.5767380321595675
 30
0.0
 10
8.535720883603652
 20
-0.0753942998921598
 30
0.0
 10
7.955274346347121
 20
0.2566889350374148
 30
0.0
 10
7.665063509459522
 20
0.4227234400941084
 30
0.0
1001
PE_URL
1000

  0
LINE
  5
AF
330
1F
100
AcDbEntity
  8
외형선
  6
Continuous
370
    15
100
AcDbLine
 10
7.665063509461131
 20
0.4227234400939788
 30
0.0
 11
7.665063509461103
 21
0.982489883373145
 31
0.0
  0
SPLINE
  5
B0
330
1F
100
AcDbEntity
  8
0
  6
Continuous
 62
     1
370
    15
100
AcDbSpline
210
0.0
220
0.0
230
1.0
 70
     8
 71
     3
 72
    17
 73
    13
 74
     0
 42
0.000000001
 43
0.00000001
 40
0.0
 40
0.0
 40
0.0
 40
0.0
 40
0.0000509485102734
 40
0.0000509485102734
 40
0.0000509485102734
 40
0.0000959758359294
 40
0.0000959758359294
 40
0.0000959758359294
 40
0.0001418524361124
 40
0.0001418524361124
 40
0.0001418524361124
 40
0.0001778144810068
 40
0.0001778144810068
 40
0.0001778144810068
 40
0.0001778144810068
 10
17.56506350946111
 20
0.7951805165864572
 30
0.0
 10
17.5797578884411
 20
0.7875933532807842
 30
0.0
 10
17.59422482254588
 20
0.777660767016011
 30
0.0
 10
17.60712750924497
 20
0.7666938893671632
 30
0.0
 10
17.61857575341093
 20
0.7569632421004231
 30
0.0
 10
17.62916243822169
 20
0.7461211544515765
 30
0.0
 10
17.63800437136579
 20
0.7350906205407259
 30
0.0
 10
17.64697889593527
 20
0.7238946754929664
 30
0.0
 10
17.65444644869564
 20
0.7121092300762762
 30
0.0
 10
17.65919127196198
 20
0.7011203854435216
 30
0.0
 10
17.66292525251498
 20
0.6924726171588762
 30
0.0
 10
17.6650635094611
 20
0.684052034504136
 30
0.0
 10
17.6650635094611
 20
0.6768272089728394
 30
0.0
1001
PE_URL
1000

  0
LINE
  5
B1
330
1F
100
AcDbEntity
  8
0
  6
Continuous
 62
     1
370
    15
100
AcDbLine
 10
17.6650635094611
 20
0.1684947888593537
 30
0.0
 11
17.6650635094611
 21
0.6768272089728392
 31
0.0
1001
PE_URL
1000

  0
SPLINE
  5
B2
330
1F
100
AcDbEntity
  8
0
  6
Continuous
 62
     1
370
    15
100
AcDbSpline
210
0.0
220
0.0
230
1.0
 70
     8
 71
     3
 72
    11
 73
     7
 74
     0
 42
0.000000001
 43
0.00000001
 40
0.0
 40
0.0
 40
0.0
 40
0.0
 40
0.2159353661763331
 40
0.4772377479271562
 40
0.7386434122523523
 40
1.0
 40
1.0
 40
1.0
 40
1.0
 10
14.22958507107543
 20
1.74075892827289
 30
0.0
 10
14.46964461728998
 20
1.735434547522188
 30
0.0
 10
15.00019910325728
 20
1.723667158402164
 30
0.0
 10
15.82142306217924
 20
1.533132105255732
 30
0.0
 10
16.69325061740342
 20
1.225058030913799
 30
0.0
 10
17.27447740050499
 20
0.9384640529439842
 30
0.0
 10
17.56506350946108
 20
0.7951805165864702
 30
0.0
1001
PE_URL
1000

  0
SPLINE
  5
B3
330
1F
100
AcDbEntity
  8
0
  6
Continuous
 62
     1
370
    15
100
AcDbSpline
210
0.0
220
0.0
230
1.0
 70
     8
 71
     3
 72
     9
 73
     5
 74
     0
 42
0.000000001
 43
0.00000001
 40
0.0
 40
0.0
 40
0.0
 40
0.0
 40
0.6240377696694848
 40
1.0
 40
1.0
 40
1.0
 40
1.0
 10
17.5650635094611
 20
1.75107492872389
 30
0.0
 10
17.25703313527583
 20
1.706518362140337
 30
0.0
 10
16.76342459240121
 20
1.654940797268425
 30
0.0
 10
16.26980904328339
 20
1.485519474065428
 30
0.0
 10
16.08422824051123
 20
1.421823455528482
 30
0.0
1001
PE_URL
1000

  0
LINE
  5
B4
330
1F
100
AcDbEntity
  8
0
  6
Continuous
 62
     1
370
    15
100
AcDbLine
 10
8.402902391232999
 20
-1.739625592388373
 30
0.0
 11
7.665063509459522
 21
-1.697369221920835
 31
0.0
1001
PE_URL
1000

  0
LINE
  5
B6
330
1F
100
AcDbEntity
  8
0
  6
Continuous
 62
     1
370
    15
100
AcDbLine
 10
17.6650635094611
 20
0.6675996896542716
 30
0.0
 11
17.6650635094611
 21
1.642559193172453
 31
0.0
1001
PE_URL
1000

  0
LINE
  5
B7
330
1F
100
AcDbEntity
  8
외형선
  6
Continuous
370
    15
100
AcDbLine
 10
7.665063509461131
 20
-1.69736922190867
 30
0.0
 11
7.665063509461103
 21
-1.447829721966003
 31
0.0
  0
LINE
  5
B8
330
1F
100
AcDbEntity
  8
0
  6
Continuous
 62
     1
370
    15
100
AcDbLine
 10
17.6650635094611
 20
-1.640409335724667
 30
0.0
 11
17.6650635094611
 21
-1.504202074268693
 31
0.0
1001
PE_URL
1000

  0
LINE
  5
B9
330
1F
100
AcDbEntity
  8
외형선
  6
Continuous
370
    15
100
AcDbLine
 10
1.999999999999996
 20
0.0010749287238931
 30
0.0
 11
1.999999999999996
 21
3.001074928723897
 31
0.0
  0
LINE
  5
BA
330
1F
100
AcDbEntity
  8
외형선
  6
Continuous
370
    15
100
AcDbLine
 10
1.999999999999996
 20
-2.99892507127611
 30
0.0
 11
1.999999999999996
 21
0.0010749287238931
 31
0.0
  0
LINE
  5
BB
330
1F
100
AcDbEntity
  8
외형선
  6
Continuous
370
    15
100
AcDbLine
 10
-51.73493649053889
 20
0.0010749287238931
 30
0.0
 11
-51.73493649053889
 21
3.001074928723897
 31
0.0
  0
LINE
  5
BC
330
1F
100
AcDbEntity
  8
외형선
  6
Continuous
370
    15
100
AcDbLine
 10
-51.73493649053889
 20
-2.99892507127611
 30
0.0
 11
-51.73493649053889
 21
0.0010749287238931
 31
0.0
  0
LINE
  5
BD
330
1F
100
AcDbEntity
  8
외형선
  6
Continuous
370
    15
100
AcDbLine
 10
6.665023202077144
 20
1.398898755625687
 30
0.0
 11
6.665023202077144
 21
1.751085729054877
 31
0.0
  0
LINE
  5
BE
330
1F
100
AcDbEntity
  8
외형선
  6
Continuous
370
    15
100
AcDbLine
 10
6.665063509461117
 20
0.9501370843554751
 30
0.0
 11
6.665063509461117
 21
1.398890085875
 31
0.0
  0
LINE
  5
BF
330
1F
100
AcDbEntity
  8
외형선
  6
Continuous
370
    15
100
AcDbLine
 10
6.665023202077144
 20
-1.051838339413945
 30
0.0
 11
6.665023202077144
 21
0.9501589214655745
 31
0.0
  0
LINE
  5
C0
330
1F
100
AcDbEntity
  8
외형선
  6
Continuous
370
    15
100
AcDbLine
 10
6.665063509461117
 20
-1.46922462637212
 30
0.0
 11
6.665063509461117
 21
-1.051831898321413
 31
0.0
  0
LINE
  5
C1
330
1F
100
AcDbEntity
  8
외형선
  6
Continuous
370
    15
100
AcDbLine
 10
6.665023202077144
 20
-1.748935871607091
 30
0.0
 11
6.665023202077144
 21
-1.469223468199877
 31
0.0
  0
LINE
  5
C2
330
1F
100
AcDbEntity
  8
외형선
  6
Continuous
370
    15
100
AcDbLine
 10
-52.33493649053888
 20
0.0010749287238931
 30
0.0
 11
-52.33493649053888
 21
2.401074928723895
 31
0.0
  0
LINE
  5
C3
330
1F
100
AcDbEntity
  8
외형선
  6
Continuous
370
    15
100
AcDbLine
 10
-52.33493649053888
 20
-2.39892507127611
 30
0.0
 11
-52.33493649053888
 21
0.0010749287238931
 31
0.0
  0
SPLINE
  5
C4
330
1F
100
AcDbEntity
  8
외형선
  6
Continuous
370
    15
100
AcDbSpline
210
0.0
220
0.0
230
1.0
 70
    24
 71
     3
 72
    15
 73
    11
 74
     0
 42
0.000000001
 43
0.00000001
 40
0.0
 40
0.0
 40
0.0
 40
0.0
 40
0.1061692804983187
 40
0.2534777366157209
 40
0.4007861927331271
 40
0.5480946488505264
 40
0.6954031049679357
 40
0.8427115610853295
 40
0.9900200172025887
 40
1.0
 40
1.0
 40
1.0
 40
1.0
 10
7.665063509461103
 20
-1.447829721966001
 30
0.0
 10
7.665063509461117
 20
-1.390306651044595
 30
0.0
 10
7.665063509461174
 20
-1.252971088894162
 30
0.0
 10
7.665063509461007
 20
-0.9610574295744561
 30
0.0
 10
7.665063509461202
 20
-0.606956461631739
 30
0.0
 10
7.665063509461021
 20
-0.2540782202095437
 30
0.0
 10
7.665063509461174
 20
0.0591962097378033
 30
0.0
 10
7.665063509461088
 20
0.2854584852371517
 30
0.0
 10
7.665063509461021
 20
0.3962164997728334
 30
0.0
 10
7.665063509461131
 20
0.4041186620622672
 30
0.0
 10
7.665063509461117
 20
0.4046200558344672
 30
0.0
  0
SPLINE
  5
C5
330
1F
100
AcDbEntity
  8
외형선
  6
Continuous
370
    15
100
AcDbSpline
210
0.0
220
0.0
230
1.0
 70
     8
 71
     3
 72
     8
 73
     4
 74
     0
 42
0.000000001
 43
0.00000001
 40
0.0
 40
0.0
 40
0.0
 40
0.0
 40
1.0
 40
1.0
 40
1.0
 40
1.0
 10
7.665063509461088
 20
-1.447829721965999
 30
0.0
 10
7.329749667996925
 20
-1.339706721571958
 30
0.0
 10
7.000271310548719
 20
-1.205809056912917
 30
0.0
 10
6.665023202077144
 20
-1.051820113244254
 30
0.0
  0
SPLINE
  5
C6
330
1F
100
AcDbEntity
  8
외형선
  6
Continuous
370
    15
100
AcDbSpline
210
0.0
220
0.0
230
1.0
 70
     8
 71
     3
 72
     8
 73
     4
 74
     0
 42
0.000000001
 43
0.00000001
 40
0.0
 40
0.0
 40
0.0
 40
0.0
 40
1.0
 40
1.0
 40
1.0
 40
1.0
 10
7.665063509461131
 20
0.4227234400932204
 30
0.0
 10
7.329749667996964
 20
0.6098419231563544
 30
0.0
 10
7.000271310548733
 20
0.7881680044229834
 30
0.0
 10
6.665023202077144
 20
0.9501408348768771
 30
0.0
  0
SPLINE
  5
C7
330
1F
100
AcDbEntity
  8
외형선
  6
Continuous
370
    15
100
AcDbSpline
210
0.0
220
0.0
230
1.0
 70
     8
 71
     3
 72
     8
 73
     4
 74
     0
 42
0.000000001
 43
0.00000001
 40
0.0
 40
0.0
 40
0.0
 40
0.0
 40
1.0
 40
1.0
 40
1.0
 40
1.0
 10
7.665063509461088
 20
0.9824898833731436
 30
0.0
 10
7.329749667996925
 20
1.142116468820336
 30
0.0
 10
7.000271310548719
 20
1.282908544006041
 30
0.0
 10
6.665023202077144
 20
1.398898962928085
 30
0.0
  0
SPLINE
  5
C8
330
1F
100
AcDbEntity
  8
외형선
  6
Continuous
370
    15
100
AcDbSpline
210
0.0
220
0.0
230
1.0
 70
     8
 71
     3
 72
     8
 73
     4
 74
     0
 42
0.000000001
 43
0.00000001
 40
0.0
 40
0.0
 40
0.0
 40
0.0
 40
1.0
 40
1.0
 40
1.0
 40
1.0
 10
7.665063509461131
 20
1.69951907936884
 30
0.0
 10
7.329749667996964
 20
1.653065841678748
 30
0.0
 10
7.000271310548733
 20
1.575924401607082
 30
0.0
 10
6.665023202077144
 20
1.471372145540284
 30
0.0
  0
SPLINE
  5
C9
330
1F
100
AcDbEntity
  8
외형선
  6
Continuous
370
    15
100
AcDbSpline
210
0.0
220
0.0
230
1.0
 70
    24
 71
     3
 72
    12
 73
     8
 74
     0
 42
0.000000001
 43
0.00000001
 40
0.0
 40
0.0
 40
0.0
 40
0.0
 40
0.1101740315820332
 40
0.355583605978874
 40
0.6081100746584325
 40
0.8023248504925607
 40
1.0
 40
1.0
 40
1.0
 40
1.0
 10
7.665063509461088
 20
1.030624603372326
 30
0.0
 10
7.665063509461088
 20
1.051432143370887
 30
0.0
 10
7.665063509461088
 20
1.118587896845597
 30
0.0
 10
7.665063509461159
 20
1.250796677416748
 30
0.0
 10
7.665063509461117
 20
1.407910666183746
 30
0.0
 10
7.665063509461064
 20
1.559728835137249
 30
0.0
 10
7.665063509461117
 20
1.652648837874825
 30
0.0
 10
7.665063509461131
 20
1.699519079352383
 30
0.0
  0
SPLINE
  5
CA
330
1F
100
AcDbEntity
  8
외형선
  6
Continuous
370
    15
100
AcDbSpline
210
0.0
220
0.0
230
1.0
 70
     8
 71
     3
 72
     8
 73
     4
 74
     0
 42
0.000000001
 43
0.00000001
 40
0.0
 40
0.0
 40
0.0
 40
0.0
 40
1.0
 40
1.0
 40
1.0
 40
1.0
 10
7.665063509461131
 20
-1.697369221921054
 30
0.0
 10
7.329749667996964
 20
-1.650915984230962
 30
0.0
 10
7.000271310548733
 20
-1.573774544159296
 30
0.0
 10
6.665023202077144
 20
-1.469222288092498
 30
0.0
  0
LINE
  5
CB
330
1F
100
AcDbEntity
  8
중심선
100
AcDbLine
 10
-55.33493649053888
 20
0.0010749287238931
 30
0.0
 11
20.6650635094611
 21
0.0010749287238892
 31
0.0
  0
LINE
  5
CC
330
1F
100
AcDbEntity
  8
참조1
100
AcDbLine
 10
-27.33544985809512
 20
-2.498925071276081
 30
0.0
 11
-27.33544985809511
 21
-39.9989250712761
 31
0.0
  0
LINE
  5
CD
330
1F
100
AcDbEntity
  8
참조1
100
AcDbLine
 10
-27.33544985809511
 20
-39.9989250712761
 30
0.0
 11
-42.49379330484756
 21
-39.9989250712761
 31
0.0
  0
CIRCLE
  5
CE
330
1F
100
AcDbEntity
  8
해칭선
100
AcDbCircle
 10
0.0
 20
0.0
 30
0.0
 40
3.000000000000001
  0
INSERT
  5
CF
330
1F
100
AcDbEntity
  8
0
  6
Continuous
 62
     7
100
AcDbBlockReference
 66
     1
  2
블럭10
 10
-41.27572279022032
 20
-52.04609937292004
 30
0.0
  0
ATTRIB
  5
D0
330
CF
100
AcDbEntity
  8
FORMAT
 62
     2
100
AcDbText
 10
-57.39498382965587
 20
-49.97073246008785
 30
0.0
 40
4.233333333333333
  1
SEME0103501E [ 4 FLUTE ]
 41
0.75
  7
SLDTEXTSTYLE0
 11
-57.39498382965587
 21
-52.08739912675451
 31
0.0
100
AcDbAttribute
  2
AUTOATTR0
 70
     0
 74
     1
  0
SEQEND
  5
D1
330
CF
100
AcDbEntity
  8
0
  6
Continuous
 62
     7
  0
HATCH
  5
D2
330
1F
100
AcDbEntity
  8
중심선
100
AcDbHatch
 10
0.0
 20
0.0
 30
0.0
210
0.0
220
0.0
230
1.0
  2
SOLID
 70
     1
 71
     0
 91
        1
 92
        0
 93
        4
 72
     1
 10
-35.56081348583947
 20
-35.7989250712761
 11
-39.00708872967675
 21
-35.7989250712761
 72
     1
 10
-39.00708872967675
 20
-35.7989250712761
 11
-41.13531858888078
 21
-38.3352506518487
 72
     1
 10
-41.13531858888078
 20
-38.3352506518487
 11
-37.68901025993035
 21
-38.33521122254621
 72
     1
 10
-37.68901025993034
 20
-38.33521122254621
 11
-35.56081348583947
 21
-35.7989250712761
 97
        0
 75
     0
 76
     1
 98
        1
 10
-11.55980762113531
 20
0.0010749287238931
  0
HATCH
  5
D3
330
1F
100
AcDbEntity
  8
중심선
100
AcDbHatch
 10
0.0
 20
0.0
 30
0.0
210
0.0
220
0.0
230
1.0
  2
SOLID
 70
     1
 71
     0
 91
        1
 92
        0
 93
        4
 72
     1
 10
-30.54804949480352
 20
-35.7989250712761
 11
-33.9943247386408
 21
-35.7989250712761
 72
     1
 10
-33.9943247386408
 20
-35.7989250712761
 11
-38.52546274699819
 21
-41.19892507127612
 72
     1
 10
-38.52546274699819
 20
-41.19892507127612
 11
-35.07918750316091
 21
-41.19892507127612
 72
     1
 10
-35.07918750316091
 20
-41.19892507127612
 11
-30.54804949480352
 21
-35.7989250712761
 97
        0
 75
     0
 76
     1
 98
        1
 10
-11.55980762113531
 20
0.0010749287238931
  0
HATCH
  5
D4
330
1F
100
AcDbEntity
  8
중심선
100
AcDbHatch
 10
0.0
 20
0.0
 30
0.0
210
0.0
220
0.0
230
1.0
  2
SOLID
 70
     1
 71
     0
 91
        1
 92
        0
 93
        4
 72
     1
 10
-25.53528550376762
 20
-35.79892507127613
 11
-28.98156074760474
 21
-35.7989250712761
 72
     1
 10
-28.98156074760474
 20
-35.7989250712761
 11
-36.02999764949399
 21
-44.19892507127612
 72
     1
 10
-36.02999764949399
 20
-44.19892507127612
 11
-32.58372240565672
 21
-44.19892507127612
 72
     1
 10
-32.58372240565671
 20
-44.19892507127612
 11
-25.53528550376762
 21
-35.79892507127613
 97
        0
 75
     0
 76
     1
 98
        1
 10
-11.55980762113531
 20
0.0010749287238931
  0
HATCH
  5
D5
330
1F
100
AcDbEntity
  8
중심선
100
AcDbHatch
 10
0.0
 20
0.0
 30
0.0
210
0.0
220
0.0
230
1.0
  2
SOLID
 70
     1
 71
     0
 91
        1
 92
        0
 93
        6
 72
     3
 10
-20.73539507275542
 20
-39.99892507132738
 11
3.960054785062283
 21
1.540882976769353E-10
 40
0.3939339440162628
 50
17.09539180608439
 51
320.0019657685078
 73
     0
 72
     1
 10
-19.05239541705483
 20
-38.58681907591441
 11
-16.74709354335379
 21
-36.65249236586649
 72
     3
 10
-20.73539507280827
 20
-39.99892507127625
 11
6.600054785286831
 21
-1.278976924368180E-13
 40
0.6363583540795978
 50
39.99873849337408
 51
368.4976242363724
 73
     1
 72
     1
 10
-14.31006258090766
 20
-39.03892507120612
 11
-22.05532776597235
 21
-39.03892507120609
 72
     1
 10
-22.05532776597235
 20
-39.03892507120609
 11
-22.05535281041828
 21
-40.95892507120602
 72
     1
 10
-22.05535281041828
 20
-40.95892507120602
 11
-17.61397304094625
 21
-40.95892507120599
 97
        0
 75
     0
 76
     1
 98
        1
 10
-11.55980762113531
 20
0.0010749287238931
  0
DIMENSION
  5
D6
330
1F
100
AcDbEntity
  8
치수문자_일반주서
100
AcDbDimension
  2
_D
 10
27.6650635094611
 20
-1.748925071276075
 30
0.0
 11
27.66506350946105
 21
14.26132492872394
 31
0.0
 70
   160
  1
%%c<>
 71
     2
 42
3.5
 52
-270.0
  3
SLDDIMSTYLE0
100
AcDbAlignedDimension
 13
17.6650635094611
 23
1.751074928723889
 33
0.0
 14
17.6650635094611
 24
-1.748925071276111
 34
0.0
 50
90.0000000000002
100
AcDbRotatedDimension
1001
ACAD
1000
DSTYLE
1002
{
1070
   271
1070
     1
1002
}
  0
DIMENSION
  5
E4
330
1F
100
AcDbEntity
  8
치수문자_일반주서
100
AcDbDimension
  2
_D_1
 10
-62.33493649053887
 20
-2.998925071276149
 30
0.0
 11
-62.33493649053892
 21
12.66757492872386
 31
0.0
 70
   160
  1
%%c<>
 71
     2
 42
6.000000000000005
 52
-270.0
  3
SLDDIMSTYLE1
100
AcDbAlignedDimension
 13
-51.73493649053889
 23
3.001074928723896
 33
0.0
 14
-51.73493649053889
 24
-2.998925071276109
 34
0.0
 50
90.0000000000002
100
AcDbRotatedDimension
  0
DIMENSION
  5
F2
330
1F
100
AcDbEntity
  8
치수문자_일반주서
100
AcDbDimension
  2
_D_2
 10
7.665063509461131
 20
13.0010749287239
 30
0.0
 11
12.66506350946112
 21
13.0010749287239
 31
0.0
 70
   160
  1
<>
 71
     2
 42
9.999999999999972
  3
SLDDIMSTYLE1
100
AcDbAlignedDimension
 13
17.6650635094611
 23
1.751074928723889
 33
0.0
 14
7.665063509461131
 24
1.699519079356456
 34
0.0
100
AcDbRotatedDimension
  0
DIMENSION
  5
FE
330
1F
100
AcDbEntity
  8
치수문자_일반주서
100
AcDbDimension
  2
_D_3
 10
-52.33493649053888
 20
23.0010749287239
 30
0.0
 11
-17.33493649053889
 21
23.0010749287239
 31
0.0
 70
   160
  1
<>
 71
     2
 42
69.99999999999999
  3
SLDDIMSTYLE2
100
AcDbAlignedDimension
 13
17.6650635094611
 23
1.751074928723889
 33
0.0
 14
-52.33493649053888
 24
2.401074928723895
 34
0.0
 50
0.0000000000000058
100
AcDbRotatedDimension
  0
LINE
  5
109
330
1F
100
AcDbEntity
  8
참조1
100
AcDbLine
 10
55.47854732480671
 20
7.441074928723896
 30
0.0
 11
55.47854732480671
 21
-7.438925071276109
 31
0.0
  0
LINE
  5
10A
330
1F
100
AcDbEntity
  8
참조1
100
AcDbLine
 10
68.17854732480671
 20
5.441074928723896
 30
0.0
 11
55.47854732480671
 21
5.441074928723896
 31
0.0
  0
SOLID
  5
10B
330
1F
100
AcDbEntity
  8
참조1
100
AcDbTrace
 10
55.47854732480671
 20
5.441074928723896
 30
0.0
 11
61.82854732480671
 21
4.425074928723896
 31
0.0
 12
61.82854732480671
 22
6.457074928723896
 32
0.0
 13
61.82854732480671
 23
6.457074928723896
 33
0.0
  0
LINE
  5
10C
330
1F
100
AcDbEntity
  8
참조1
100
AcDbLine
 10
68.17854732480671
 20
-5.438925071276109
 30
0.0
 11
55.47854732480671
 21
-5.438925071276109
 31
0.0
  0
SOLID
  5
10D
330
1F
100
AcDbEntity
  8
참조1
100
AcDbTrace
 10
55.47854732480671
 20
-5.438925071276109
 30
0.0
 11
61.82854732480671
 21
-6.454925071276109
 31
0.0
 12
61.82854732480671
 22
-4.422925071276109
 32
0.0
 13
61.82854732480671
 23
-4.422925071276109
 33
0.0
  0
MTEXT
  5
10E
330
1F
100
AcDbEntity
  8
참조1
100
AcDbMText
 10
64.87603741727699
 20
10.98929157337383
 30
0.0
 40
3.5
 41
0.0
 71
     1
 72
     1
  1
A
  7
SLDTEXTSTYLE0
 73
     1
 44
1.0
  0
MTEXT
  5
10F
330
1F
100
AcDbEntity
  8
참조1
100
AcDbMText
 10
64.87603741727699
 20
0.1092915733738259
 30
0.0
 40
3.5
 41
0.0
 71
     1
 72
     1
  1
A
  7
SLDTEXTSTYLE0
 73
     1
 44
1.0
  0
INSERT
  5
116
330
1F
100
AcDbEntity
  8
해칭선
100
AcDbBlockReference
  2
SW_DOWELSYMBOL_0
 10
0.0
 20
0.0
 30
0.0
  0
ARC
  5
219
330
1F
100
AcDbEntity
  8
0
  6
Continuous
 62
     1
370
    15
100
AcDbCircle
 10
17.5650635094611
 20
1.65107492872389
 30
0.0
 40
0.1
100
AcDbArc
 50
0.0
 51
90.0
1001
PE_URL
1000

  0
ARC
  5
21A
330
1F
100
AcDbEntity
  8
0
  6
Continuous
 62
     1
370
    15
100
AcDbCircle
 10
17.5650635094611
 20
-1.648925071276111
 30
0.0
 40
0.1
100
AcDbArc
 50
270.0
 51
359.9999999999998
1001
PE_URL
1000

  0
DIMENSION
  5
21B
330
1F
100
AcDbEntity
  8
치수문자_일반주서
100
AcDbDimension
  2
*D13
 10
17.5650635094611
 20
-1.648925071276111
 30
0.0
 11
28.03887322322412
 21
-17.51102390440232
 31
0.0
 70
   164
 71
     5
 42
0.1
  3
SLDDIMSTYLE1
100
AcDbRadialDimension
 15
17.62016540893783
 25
-1.732374341339165
 35
0.0
 40
0.0
1001
ACAD
1000
DSTYLE
1002
{
1070
    78
1070
     8
1002
}
1001
ACAD_DSTYLE_DIMRADIAL_EXTENSION
1070
   387
1070
     1
1070
   388
1040
4.71238898038469
1070
   390
1040
6.283185307179584
1001
PE_URL
1000

  0
ENDSEC
  0
SECTION
  2
OBJECTS
  0
DICTIONARY
  5
C
330
0
100
AcDbDictionary
281
     1
  3
ACAD_DETAILVIEWSTYLE
350
209
  3
ACAD_GROUP
350
D
  3
ACAD_LAYOUT
350
1A
  3
ACAD_MLINESTYLE
350
17
  3
ACAD_PLOTSETTINGS
350
19
  3
ACAD_PLOTSTYLENAME
350
E
  3
ACAD_SCALELIST
350
47
  3
ACAD_SECTIONVIEWSTYLE
350
20A
  3
AcDbVariableDictionary
350
204
  3
APPDATA
350
138
  3
DWGPROPS
350
24A
  0
DICTIONARY
  5
17D
330
2
100
AcDbDictionary
280
     1
281
     1
  3
ACAD_LAYERSTATES
360
17E
  0
DICTIONARY
  5
209
102
{ACAD_REACTORS
330
C
102
}
330
C
100
AcDbDictionary
281
     1
  0
DICTIONARY
  5
D
102
{ACAD_REACTORS
330
C
102
}
330
C
100
AcDbDictionary
281
     1
  0
DICTIONARY
  5
1A
102
{ACAD_REACTORS
330
C
102
}
330
C
100
AcDbDictionary
281
     1
  3
Layout1
350
1E
  3
Layout2
350
26
  3
Model
350
22
  0
DICTIONARY
  5
17
102
{ACAD_REACTORS
330
C
102
}
330
C
100
AcDbDictionary
281
     1
  3
Standard
350
18
  0
DICTIONARY
  5
19
102
{ACAD_REACTORS
330
C
102
}
330
C
100
AcDbDictionary
281
     1
  0
ACDBDICTIONARYWDFLT
  5
E
102
{ACAD_REACTORS
330
C
102
}
330
C
100
AcDbDictionary
281
     1
  3
Normal
350
F
100
AcDbDictionaryWithDefault
340
F
  0
DICTIONARY
  5
47
102
{ACAD_REACTORS
330
C
102
}
330
C
100
AcDbDictionary
281
     1
  3
A0
350
48
  3
A1
350
49
  3
A2
350
4A
  3
A3
350
4B
  3
A4
350
4C
  3
A5
350
4D
  3
A6
350
4E
  3
A7
350
4F
  3
A8
350
50
  3
A9
350
51
  3
B0
350
52
  3
B1
350
53
  3
B2
350
54
  3
B3
350
55
  3
B4
350
56
  3
B5
350
57
  3
B6
350
58
  3
B7
350
59
  3
B8
350
5A
  3
B9
350
5B
  3
C0
350
5C
  3
C1
350
5D
  3
C2
350
5E
  3
C3
350
5F
  3
C4
350
60
  3
C5
350
61
  3
C6
350
62
  3
C7
350
63
  3
C8
350
64
  3
C9
350
65
  3
D0
350
66
  3
D1
350
67
  3
D2
350
68
  0
DICTIONARY
  5
20A
102
{ACAD_REACTORS
330
C
102
}
330
C
100
AcDbDictionary
281
     1
  0
DICTIONARY
  5
204
102
{ACAD_REACTORS
330
C
102
}
330
C
100
AcDbDictionary
281
     1
  0
DICTIONARY
  5
138
102
{ACAD_REACTORS
330
C
102
}
330
C
100
AcDbDictionary
281
     1
  0
XRECORD
  5
24A
102
{ACAD_REACTORS
330
C
102
}
330
C
100
AcDbXrecord
280
     1
  1
DWGPROPS COOKIE
  2

  3

  4

  6

  7

  8
12017044
  9

300
=
301
=
302
=
303
=
304
=
305
=
306
=
307
=
308
=
309
=
 40
0.0
 41
2458269.428216262
 42
2458270.429515255
  1

 90
        0
  0
DICTIONARY
  5
17E
102
{ACAD_REACTORS
330
17D
102
}
330
17D
100
AcDbDictionary
281
     1
  0
LAYOUT
  5
1E
102
{ACAD_REACTORS
330
1A
102
}
330
1A
100
AcDbPlotSettings
  1

  2
none_device
  4

  6

 40
0.0
 41
0.0
 42
0.0
 43
0.0
 44
0.0
 45
0.0
 46
0.0
 47
0.0
 48
0.0
 49
0.0
140
0.0
141
0.0
142
1.0
143
1.0
 70
   688
 72
     1
 73
     0
 74
     5
  7

 75
    16
147
1.0
148
0.0
149
0.0
100
AcDbLayout
  1
Layout1
 70
     1
 71
     1
 10
0.0
 20
0.0
 11
420.0
 21
297.0
 12
0.0
 22
0.0
 32
0.0
 14
1.000000000000000E+20
 24
1.000000000000000E+20
 34
1.000000000000000E+20
 15
-1.000000000000000E+20
 25
-1.000000000000000E+20
 35
-1.000000000000000E+20
146
0.0
 13
0.0
 23
0.0
 33
0.0
 16
1.0
 26
0.0
 36
0.0
 17
0.0
 27
1.0
 37
0.0
 76
     0
330
1B
  0
LAYOUT
  5
26
102
{ACAD_REACTORS
330
1A
102
}
330
1A
100
AcDbPlotSettings
  1

  2
none_device
  4

  6

 40
0.0
 41
0.0
 42
0.0
 43
0.0
 44
0.0
 45
0.0
 46
0.0
 47
0.0
 48
0.0
 49
0.0
140
0.0
141
0.0
142
1.0
143
1.0
 70
   688
 72
     1
 73
     0
 74
     5
  7

 75
    16
147
1.0
148
0.0
149
0.0
100
AcDbLayout
  1
Layout2
 70
     1
 71
     2
 10
0.0
 20
0.0
 11
0.0
 21
0.0
 12
0.0
 22
0.0
 32
0.0
 14
0.0
 24
0.0
 34
0.0
 15
0.0
 25
0.0
 35
0.0
146
0.0
 13
0.0
 23
0.0
 33
0.0
 16
1.0
 26
0.0
 36
0.0
 17
0.0
 27
1.0
 37
0.0
 76
     0
330
23
  0
LAYOUT
  5
22
102
{ACAD_REACTORS
330
1A
102
}
330
1A
100
AcDbPlotSettings
  1

  2
none_device
  4
ANSI_A_(11.00_x_8.50_Inches)
  6

 40
6.35
 41
19.05
 42
6.35000508
 43
19.05000254
 44
279.4
 45
215.9
 46
111.6855150645388
 47
108.6536206903843
 48
0.0
 49
0.0
140
0.0
141
0.0
142
0.0789824718862547
143
1.0
 70
  1696
 72
     0
 73
     0
 74
     0
  7

 75
     0
147
0.0235690232323232
148
0.0
149
0.0
100
AcDbLayout
  1
Model
 70
     1
 71
     0
 10
0.0
 20
0.0
 11
420.0
 21
297.0
 12
0.0
 22
0.0
 32
0.0
 14
-66.70993649053892
 24
-49.97073246008785
 34
0.0
 15
68.17854732480671
 25
27.3760749287239
 35
0.0
146
0.0
 13
0.0
 23
0.0
 33
0.0
 16
1.0
 26
0.0
 36
0.0
 17
0.0
 27
1.0
 37
0.0
 76
     0
330
1F
331
29
  0
MLINESTYLE
  5
18
102
{ACAD_REACTORS
330
17
102
}
330
17
100
AcDbMlineStyle
  2
Standard
 70
     0
  3

 62
   256
 51
90.0
 52
90.0
 71
     2
 49
0.5
 62
   256
  6
BYLAYER
 49
-0.5
 62
   256
  6
BYLAYER
  0
ACDBPLACEHOLDER
  5
F
102
{ACAD_REACTORS
330
E
102
}
330
E
  0
SCALE
  5
48
102
{ACAD_REACTORS
330
47
102
}
330
47
100
AcDbScale
 70
     0
300
1:1
140
1.0
141
1.0
290
     1
  0
SCALE
  5
49
102
{ACAD_REACTORS
330
47
102
}
330
47
100
AcDbScale
 70
     0
300
1:2
140
1.0
141
2.0
290
     0
  0
SCALE
  5
4A
102
{ACAD_REACTORS
330
47
102
}
330
47
100
AcDbScale
 70
     0
300
1:4
140
1.0
141
4.0
290
     0
  0
SCALE
  5
4B
102
{ACAD_REACTORS
330
47
102
}
330
47
100
AcDbScale
 70
     0
300
1:5
140
1.0
141
5.0
290
     0
  0
SCALE
  5
4C
102
{ACAD_REACTORS
330
47
102
}
330
47
100
AcDbScale
 70
     0
300
1:8
140
1.0
141
8.0
290
     0
  0
SCALE
  5
4D
102
{ACAD_REACTORS
330
47
102
}
330
47
100
AcDbScale
 70
     0
300
1:10
140
1.0
141
10.0
290
     0
  0
SCALE
  5
4E
102
{ACAD_REACTORS
330
47
102
}
330
47
100
AcDbScale
 70
     0
300
1:16
140
1.0
141
16.0
290
     0
  0
SCALE
  5
4F
102
{ACAD_REACTORS
330
47
102
}
330
47
100
AcDbScale
 70
     0
300
1:20
140
1.0
141
20.0
290
     0
  0
SCALE
  5
50
102
{ACAD_REACTORS
330
47
102
}
330
47
100
AcDbScale
 70
     0
300
1:30
140
1.0
141
30.0
290
     0
  0
SCALE
  5
51
102
{ACAD_REACTORS
330
47
102
}
330
47
100
AcDbScale
 70
     0
300
1:40
140
1.0
141
40.0
290
     0
  0
SCALE
  5
52
102
{ACAD_REACTORS
330
47
102
}
330
47
100
AcDbScale
 70
     0
300
1:50
140
1.0
141
50.0
290
     0
  0
SCALE
  5
53
102
{ACAD_REACTORS
330
47
102
}
330
47
100
AcDbScale
 70
     0
300
1:100
140
1.0
141
100.0
290
     0
  0
SCALE
  5
54
102
{ACAD_REACTORS
330
47
102
}
330
47
100
AcDbScale
 70
     0
300
2:1
140
2.0
141
1.0
290
     0
  0
SCALE
  5
55
102
{ACAD_REACTORS
330
47
102
}
330
47
100
AcDbScale
 70
     0
300
4:1
140
4.0
141
1.0
290
     0
  0
SCALE
  5
56
102
{ACAD_REACTORS
330
47
102
}
330
47
100
AcDbScale
 70
     0
300
8:1
140
8.0
141
1.0
290
     0
  0
SCALE
  5
57
102
{ACAD_REACTORS
330
47
102
}
330
47
100
AcDbScale
 70
     0
300
10:1
140
10.0
141
1.0
290
     0
  0
SCALE
  5
58
102
{ACAD_REACTORS
330
47
102
}
330
47
100
AcDbScale
 70
     0
300
100:1
140
100.0
141
1.0
290
     0
  0
SCALE
  5
59
102
{ACAD_REACTORS
330
47
102
}
330
47
100
AcDbScale
 70
     0
300
1/128" = 1'-0"
140
0.0078125
141
12.0
290
     0
  0
SCALE
  5
5A
102
{ACAD_REACTORS
330
47
102
}
330
47
100
AcDbScale
 70
     0
300
1/64" = 1'-0"
140
0.015625
141
12.0
290
     0
  0
SCALE
  5
5B
102
{ACAD_REACTORS
330
47
102
}
330
47
100
AcDbScale
 70
     0
300
1/32" = 1'-0"
140
0.03125
141
12.0
290
     0
  0
SCALE
  5
5C
102
{ACAD_REACTORS
330
47
102
}
330
47
100
AcDbScale
 70
     0
300
1/16" = 1'-0"
140
0.0625
141
12.0
290
     0
  0
SCALE
  5
5D
102
{ACAD_REACTORS
330
47
102
}
330
47
100
AcDbScale
 70
     0
300
3/32" = 1'-0"
140
0.09375
141
12.0
290
     0
  0
SCALE
  5
5E
102
{ACAD_REACTORS
330
47
102
}
330
47
100
AcDbScale
 70
     0
300
1/8" = 1'-0"
140
0.125
141
12.0
290
     0
  0
SCALE
  5
5F
102
{ACAD_REACTORS
330
47
102
}
330
47
100
AcDbScale
 70
     0
300
3/16" = 1'-0"
140
0.1875
141
12.0
290
     0
  0
SCALE
  5
60
102
{ACAD_REACTORS
330
47
102
}
330
47
100
AcDbScale
 70
     0
300
1/4" = 1'-0"
140
0.25
141
12.0
290
     0
  0
SCALE
  5
61
102
{ACAD_REACTORS
330
47
102
}
330
47
100
AcDbScale
 70
     0
300
3/8" = 1'-0"
140
0.375
141
12.0
290
     0
  0
SCALE
  5
62
102
{ACAD_REACTORS
330
47
102
}
330
47
100
AcDbScale
 70
     0
300
1/2" = 1'-0"
140
0.5
141
12.0
290
     0
  0
SCALE
  5
63
102
{ACAD_REACTORS
330
47
102
}
330
47
100
AcDbScale
 70
     0
300
3/4" = 1'-0"
140
0.75
141
12.0
290
     0
  0
SCALE
  5
64
102
{ACAD_REACTORS
330
47
102
}
330
47
100
AcDbScale
 70
     0
300
1" = 1'-0"
140
1.0
141
12.0
290
     0
  0
SCALE
  5
65
102
{ACAD_REACTORS
330
47
102
}
330
47
100
AcDbScale
 70
     0
300
1-1/2" = 1'-0"
140
1.5
141
12.0
290
     0
  0
SCALE
  5
66
102
{ACAD_REACTORS
330
47
102
}
330
47
100
AcDbScale
 70
     0
300
3" = 1'-0"
140
3.0
141
12.0
290
     0
  0
SCALE
  5
67
102
{ACAD_REACTORS
330
47
102
}
330
47
100
AcDbScale
 70
     0
300
6" = 1'-0"
140
6.0
141
12.0
290
     0
  0
SCALE
  5
68
102
{ACAD_REACTORS
330
47
102
}
330
47
100
AcDbScale
 70
     0
300
1'-0" = 1'-0"
140
12.0
141
12.0
290
     0
  0
ENDSEC
  0
EOF
