  0
SECTION
  2
HEADER
  9
$ACADVER
  1
AC1015
  9
$ACADMAINTVER
 70
     6
  9
$DWGCODEPAGE
  3
ANSI_949
  9
$INSBASE
 10
0.0
 20
0.0
 30
0.0
  9
$EXTMIN
 10
1.000000000000000E+20
 20
1.000000000000000E+20
 30
1.000000000000000E+20
  9
$EXTMAX
 10
-1.000000000000000E+20
 20
-1.000000000000000E+20
 30
-1.000000000000000E+20
  9
$LIMMIN
 10
0.0
 20
0.0
  9
$LIMMAX
 10
420.0
 20
297.0
  9
$ORTHOMODE
 70
     1
  9
$REGENMODE
 70
     1
  9
$FILLMODE
 70
     1
  9
$QTEXTMODE
 70
     0
  9
$MIRRTEXT
 70
     1
  9
$LTSCALE
 40
1.0
  9
$ATTMODE
 70
     1
  9
$TEXTSIZE
 40
3.5
  9
$TRACEWID
 40
1.0
  9
$TEXTSTYLE
  7
Standard
  9
$CLAYER
  8
0
  9
$CELTYPE
  6
ByLayer
  9
$CECOLOR
 62
   256
  9
$CELTSCALE
 40
1.0
  9
$DISPSILH
 70
     0
  9
$DIMSCALE
 40
1.0
  9
$DIMASZ
 40
3.302
  9
$DIMEXO
 40
1.0
  9
$DIMDLI
 40
3.75
  9
$DIMRND
 40
0.0
  9
$DIMDLE
 40
0.0
  9
$DIMEXE
 40
1.0
  9
$DIMTP
 40
0.0
  9
$DIMTM
 40
0.0
  9
$DIMTXT
 40
3.5
  9
$DIMCEN
 40
2.5
  9
$DIMTSZ
 40
0.0
  9
$DIMTOL
 70
     0
  9
$DIMLIM
 70
     0
  9
$DIMTIH
 70
     1
  9
$DIMTOH
 70
     1
  9
$DIMSE1
 70
     0
  9
$DIMSE2
 70
     0
  9
$DIMTAD
 70
     1
  9
$DIMZIN
 70
     0
  9
$DIMBLK
  1

  9
$DIMASO
 70
     1
  9
$DIMSHO
 70
     1
  9
$DIMPOST
  1

  9
$DIMAPOST
  1

  9
$DIMALT
 70
     0
  9
$DIMALTD
 70
     3
  9
$DIMALTF
 40
0.0393700787401575
  9
$DIMLFAC
 40
1.0
  9
$DIMTOFL
 70
     1
  9
$DIMTVP
 40
0.0
  9
$DIMTIX
 70
     0
  9
$DIMSOXD
 70
     0
  9
$DIMSAH
 70
     0
  9
$DIMBLK1
  1

  9
$DIMBLK2
  1

  9
$DIMSTYLE
  2
ISO-25
  9
$DIMCLRD
 70
     0
  9
$DIMCLRE
 70
     0
  9
$DIMCLRT
 70
     0
  9
$DIMTFAC
 40
1.0
  9
$DIMGAP
 40
1.524
  9
$DIMJUST
 70
     0
  9
$DIMSD1
 70
     0
  9
$DIMSD2
 70
     0
  9
$DIMTOLJ
 70
     0
  9
$DIMTZIN
 70
     0
  9
$DIMALTZ
 70
     0
  9
$DIMALTTZ
 70
     0
  9
$DIMUPT
 70
     0
  9
$DIMDEC
 70
     2
  9
$DIMTDEC
 70
     2
  9
$DIMALTU
 70
     2
  9
$DIMALTTD
 70
     3
  9
$DIMTXSTY
  7
Standard
  9
$DIMAUNIT
 70
     0
  9
$DIMADEC
 70
     2
  9
$DIMALTRND
 40
0.0
  9
$DIMAZIN
 70
     0
  9
$DIMDSEP
 70
    44
  9
$DIMATFIT
 70
     3
  9
$DIMFRAC
 70
     0
  9
$DIMLDRBLK
  1

  9
$DIMLUNIT
 70
     2
  9
$DIMLWD
 70
    -2
  9
$DIMLWE
 70
    -2
  9
$DIMTMOVE
 70
     0
  9
$LUNITS
 70
     2
  9
$LUPREC
 70
     2
  9
$SKETCHINC
 40
1.0
  9
$FILLETRAD
 40
10.0
  9
$AUNITS
 70
     0
  9
$AUPREC
 70
     2
  9
$MENU
  1
.
  9
$ELEVATION
 40
0.0
  9
$PELEVATION
 40
0.0
  9
$THICKNESS
 40
0.0
  9
$LIMCHECK
 70
     0
  9
$CHAMFERA
 40
0.0
  9
$CHAMFERB
 40
0.0
  9
$CHAMFERC
 40
0.0
  9
$CHAMFERD
 40
0.0
  9
$SKPOLY
 70
     0
  9
$TDCREATE
 40
2458269.80208184
  9
$TDUCREATE
 40
2458269.42708184
  9
$TDUPDATE
 40
2458272.409647755
  9
$TDUUPDATE
 40
2458272.034647755
  9
$TDINDWG
 40
0.0007389583
  9
$TDUSRTIMER
 40
2458272.033909097
  9
$USRTIMER
 70
     1
  9
$ANGBASE
 50
0.0
  9
$ANGDIR
 70
     0
  9
$PDMODE
 70
     0
  9
$PDSIZE
 40
-1.0
  9
$PLINEWID
 40
0.0
  9
$SPLFRAME
 70
     0
  9
$SPLINETYPE
 70
     6
  9
$SPLINESEGS
 70
     8
  9
$HANDSEED
  5
2BB
  9
$SURFTAB1
 70
     6
  9
$SURFTAB2
 70
     6
  9
$SURFTYPE
 70
     6
  9
$SURFU
 70
     6
  9
$SURFV
 70
     6
  9
$UCSBASE
  2

  9
$UCSNAME
  2

  9
$UCSORG
 10
0.0
 20
0.0
 30
0.0
  9
$UCSXDIR
 10
1.0
 20
0.0
 30
0.0
  9
$UCSYDIR
 10
0.0
 20
1.0
 30
0.0
  9
$UCSORTHOREF
  2

  9
$UCSORTHOVIEW
 70
     0
  9
$UCSORGTOP
 10
0.0
 20
0.0
 30
0.0
  9
$UCSORGBOTTOM
 10
0.0
 20
0.0
 30
0.0
  9
$UCSORGLEFT
 10
0.0
 20
0.0
 30
0.0
  9
$UCSORGRIGHT
 10
0.0
 20
0.0
 30
0.0
  9
$UCSORGFRONT
 10
0.0
 20
0.0
 30
0.0
  9
$UCSORGBACK
 10
0.0
 20
0.0
 30
0.0
  9
$PUCSBASE
  2

  9
$PUCSNAME
  2

  9
$PUCSORG
 10
0.0
 20
0.0
 30
0.0
  9
$PUCSXDIR
 10
1.0
 20
0.0
 30
0.0
  9
$PUCSYDIR
 10
0.0
 20
1.0
 30
0.0
  9
$PUCSORTHOREF
  2

  9
$PUCSORTHOVIEW
 70
     0
  9
$PUCSORGTOP
 10
0.0
 20
0.0
 30
0.0
  9
$PUCSORGBOTTOM
 10
0.0
 20
0.0
 30
0.0
  9
$PUCSORGLEFT
 10
0.0
 20
0.0
 30
0.0
  9
$PUCSORGRIGHT
 10
0.0
 20
0.0
 30
0.0
  9
$PUCSORGFRONT
 10
0.0
 20
0.0
 30
0.0
  9
$PUCSORGBACK
 10
0.0
 20
0.0
 30
0.0
  9
$USERI1
 70
     0
  9
$USERI2
 70
     0
  9
$USERI3
 70
     0
  9
$USERI4
 70
     0
  9
$USERI5
 70
     0
  9
$USERR1
 40
0.0
  9
$USERR2
 40
0.0
  9
$USERR3
 40
0.0
  9
$USERR4
 40
0.0
  9
$USERR5
 40
0.0
  9
$WORLDVIEW
 70
     1
  9
$SHADEDGE
 70
     3
  9
$SHADEDIF
 70
    70
  9
$TILEMODE
 70
     1
  9
$MAXACTVP
 70
    64
  9
$PINSBASE
 10
0.0
 20
0.0
 30
0.0
  9
$PLIMCHECK
 70
     0
  9
$PEXTMIN
 10
1.000000000000000E+20
 20
1.000000000000000E+20
 30
1.000000000000000E+20
  9
$PEXTMAX
 10
-1.000000000000000E+20
 20
-1.000000000000000E+20
 30
-1.000000000000000E+20
  9
$PLIMMIN
 10
0.0
 20
0.0
  9
$PLIMMAX
 10
0.0
 20
0.0
  9
$UNITMODE
 70
     0
  9
$VISRETAIN
 70
     1
  9
$PLINEGEN
 70
     0
  9
$PSLTSCALE
 70
     1
  9
$TREEDEPTH
 70
  3020
  9
$CMLSTYLE
  2
Standard
  9
$CMLJUST
 70
     0
  9
$CMLSCALE
 40
20.0
  9
$PROXYGRAPHICS
 70
     1
  9
$MEASUREMENT
 70
     1
  9
$CELWEIGHT
370
    -1
  9
$ENDCAPS
280
     0
  9
$JOINSTYLE
280
     0
  9
$LWDISPLAY
290
     1
  9
$INSUNITS
 70
     4
  9
$HYPERLINKBASE
  1

  9
$STYLESHEET
  1

  9
$XEDIT
290
     1
  9
$CEPSNTYPE
380
     0
  9
$PSTYLEMODE
290
     1
  9
$FINGERPRINTGUID
  2
{BB07FB7E-B331-4FC0-B1DE-6BB99622D25D}
  9
$VERSIONGUID
  2
{FAEB1C32-E019-11D5-929B-00C0DF256EC4}
  9
$EXTNAMES
290
     1
  9
$PSVPSCALE
 40
0.0
  9
$OLESTARTUP
290
     0
  0
ENDSEC
  0
SECTION
  2
CLASSES
  0
CLASS
  1
ACDBDICTIONARYWDFLT
  2
AcDbDictionaryWithDefault
  3
ObjectDBX Classes
 90
        0
280
     0
281
     0
  0
CLASS
  1
VISUALSTYLE
  2
AcDbVisualStyle
  3
ObjectDBX Classes
 90
     4095
280
     0
281
     0
  0
CLASS
  1
MATERIAL
  2
AcDbMaterial
  3
ObjectDBX Classes
 90
     1153
280
     0
281
     0
  0
CLASS
  1
SCALE
  2
AcDbScale
  3
ObjectDBX Classes
 90
     1153
280
     0
281
     0
  0
CLASS
  1
SUN
  2
AcDbSun
  3
SCENEOE
 90
     1153
280
     0
281
     0
  0
CLASS
  1
ACDBPLACEHOLDER
  2
AcDbPlaceHolder
  3
ObjectDBX Classes
 90
        0
280
     0
281
     0
  0
CLASS
  1
LAYOUT
  2
AcDbLayout
  3
ObjectDBX Classes
 90
        0
280
     0
281
     0
  0
CLASS
  1
TABLESTYLE
  2
AcDbTableStyle
  3
ObjectDBX Classes
 90
     4095
280
     0
281
     0
  0
CLASS
  1
MLEADERSTYLE
  2
AcDbMLeaderStyle
  3
ACDB_MLEADERSTYLE_CLASS
 90
     4095
280
     0
281
     0
  0
CLASS
  1
RASTERVARIABLES
  2
AcDbRasterVariables
  3
ISM
 90
        0
280
     0
281
     0
  0
CLASS
  1
DIMASSOC
  2
AcDbDimAssoc
  3
"AcDbDimAssoc|Product Desc:     AcDim ARX App For Dimension|Company:          Autodesk, Inc.|WEB Address:      www.autodesk.com"
 90
        0
280
     0
281
     0
  0
ENDSEC
  0
SECTION
  2
TABLES
  0
TABLE
  2
VPORT
  5
8
330
0
100
AcDbSymbolTable
 70
     1
  0
VPORT
  5
29
330
8
100
AcDbSymbolTableRecord
100
AcDbViewportTableRecord
  2
*Active
 70
     0
 10
0.0
 20
0.0
 11
1.0
 21
1.0
 12
27.79754175660553
 22
-15.09115448709226
 13
0.0
 23
0.0
 14
10.0
 24
10.0
 15
10.0
 25
10.0
 16
0.0
 26
0.0
 36
1.0
 17
0.0
 27
0.0
 37
0.0
 40
104.8271707515067
 41
1.696911196911197
 42
50.0
 43
0.0
 44
0.0
 50
0.0
 51
0.0
 71
    16
 72
  2000
 73
     1
 74
     3
 75
     0
 76
     0
 77
     0
 78
     0
281
     0
 65
     1
110
0.0
120
0.0
130
0.0
111
1.0
121
0.0
131
0.0
112
0.0
122
1.0
132
0.0
 79
     0
146
0.0
  0
ENDTAB
  0
TABLE
  2
LTYPE
  5
5
330
0
100
AcDbSymbolTable
 70
     6
  0
LTYPE
  5
14
330
5
100
AcDbSymbolTableRecord
100
AcDbLinetypeTableRecord
  2
ByBlock
 70
     0
  3

 72
    65
 73
     0
 40
0.0
  0
LTYPE
  5
15
330
5
100
AcDbSymbolTableRecord
100
AcDbLinetypeTableRecord
  2
ByLayer
 70
     0
  3

 72
    65
 73
     0
 40
0.0
  0
LTYPE
  5
16
330
5
100
AcDbSymbolTableRecord
100
AcDbLinetypeTableRecord
  2
Continuous
 70
     0
  3
Solid line
 72
    65
 73
     0
 40
0.0
  0
LTYPE
  5
6A
330
5
100
AcDbSymbolTableRecord
100
AcDbLinetypeTableRecord
  2
HIDDEN
 70
     0
  3
Hidden __ __ __ __ __ __ __ __ __ __ __ __ __ __
 72
    65
 73
     2
 40
1.905
 49
1.27
 74
     0
 49
-0.635
 74
     0
  0
LTYPE
  5
6B
330
5
100
AcDbSymbolTableRecord
100
AcDbLinetypeTableRecord
  2
PHANTOM
 70
     0
  3
Phantom ______  __  __  ______  __  __  ______
 72
    65
 73
     6
 40
12.7
 49
6.35
 74
     0
 49
-1.27
 74
     0
 49
1.27
 74
     0
 49
-1.27
 74
     0
 49
1.27
 74
     0
 49
-1.27
 74
     0
  0
LTYPE
  5
6C
330
5
100
AcDbSymbolTableRecord
100
AcDbLinetypeTableRecord
  2
CENTER
 70
     0
  3
Center ____ _ ____ _ ____ _ ____ _ ____ _ ____
 72
    65
 73
     4
 40
10.16
 49
6.35
 74
     0
 49
-1.27
 74
     0
 49
1.27
 74
     0
 49
-1.27
 74
     0
  0
LTYPE
  5
6D
330
5
100
AcDbSymbolTableRecord
100
AcDbLinetypeTableRecord
  2
CENTERX2
 70
     0
  3
Center (2x) ________  __  ________  __  _____
 72
    65
 73
     4
 40
20.32
 49
12.7
 74
     0
 49
-2.54
 74
     0
 49
2.54
 74
     0
 49
-2.54
 74
     0
  0
LTYPE
  5
6E
330
5
100
AcDbSymbolTableRecord
100
AcDbLinetypeTableRecord
  2
DOT2
 70
     0
  3
Dot (.5x) ........................................
 72
    65
 73
     2
 40
0.635
 49
0.0
 74
     0
 49
-0.635
 74
     0
  0
ENDTAB
  0
TABLE
  2
LAYER
  5
2
330
0
100
AcDbSymbolTable
 70
    18
  0
LAYER
  5
10
330
2
100
AcDbSymbolTableRecord
100
AcDbLayerTableRecord
  2
0
 70
     0
 62
     7
  6
Continuous
370
    -3
390
F
  0
LAYER
  5
6F
330
2
100
AcDbSymbolTableRecord
100
AcDbLayerTableRecord
  2
FORMAT
 70
     0
 62
     2
  6
Continuous
370
    -3
390
F
  0
LAYER
  5
70
330
2
100
AcDbSymbolTableRecord
100
AcDbLayerTableRecord
  2
외형선
 70
     0
 62
     4
  6
Continuous
370
    30
390
F
  0
LAYER
  5
71
330
2
100
AcDbSymbolTableRecord
100
AcDbLayerTableRecord
  2
숨은선
 70
     0
 62
     2
  6
HIDDEN
370
    15
390
F
  0
LAYER
  5
72
330
2
100
AcDbSymbolTableRecord
100
AcDbLayerTableRecord
  2
중심선
 70
     0
 62
     1
  6
CENTERX2
370
    -3
390
F
  0
LAYER
  5
73
330
2
100
AcDbSymbolTableRecord
100
AcDbLayerTableRecord
  2
파단선
 70
     0
 62
     4
  6
Continuous
370
    -3
390
F
  0
LAYER
  5
74
330
2
100
AcDbSymbolTableRecord
100
AcDbLayerTableRecord
  2
해칭선
 70
     0
 62
   100
  6
Continuous
370
    -3
390
F
  0
LAYER
  5
75
330
2
100
AcDbSymbolTableRecord
100
AcDbLayerTableRecord
  2
가는실선
 70
     0
 62
     4
  6
Continuous
370
    -3
390
F
  0
LAYER
  5
76
330
2
100
AcDbSymbolTableRecord
100
AcDbLayerTableRecord
  2
치수_보조선
 70
     0
 62
     4
  6
Continuous
370
    -3
390
F
  0
LAYER
  5
77
330
2
100
AcDbSymbolTableRecord
100
AcDbLayerTableRecord
  2
치수문자_일반주서
 70
     0
 62
     7
  6
Continuous
370
    15
390
F
  0
LAYER
  5
78
330
2
100
AcDbSymbolTableRecord
100
AcDbLayerTableRecord
  2
개별주서
 70
     0
 62
   100
  6
Continuous
370
    30
390
F
  0
LAYER
  5
79
330
2
100
AcDbSymbolTableRecord
100
AcDbLayerTableRecord
  2
중간선
 70
     0
 62
     2
  6
Continuous
370
    15
390
F
  0
LAYER
  5
7A
330
2
100
AcDbSymbolTableRecord
100
AcDbLayerTableRecord
  2
윤곽선
 70
     0
 62
     3
  6
Continuous
370
    40
390
F
  0
LAYER
  5
7B
330
2
100
AcDbSymbolTableRecord
100
AcDbLayerTableRecord
  2
중심마크
 70
     0
 62
   100
  6
Continuous
370
    30
390
F
  0
LAYER
  5
7C
330
2
100
AcDbSymbolTableRecord
100
AcDbLayerTableRecord
  2
가상선
 70
     0
 62
     4
  6
PHANTOM
370
    -3
390
F
  0
LAYER
  5
7D
330
2
100
AcDbSymbolTableRecord
100
AcDbLayerTableRecord
  2
특수지정선
 70
     0
 62
     5
  6
CENTERX2
370
    60
390
F
  0
LAYER
  5
7E
330
2
100
AcDbSymbolTableRecord
100
AcDbLayerTableRecord
  2
참조1
 70
     0
 62
    -4
  6
Continuous
370
    -3
390
F
  0
LAYER
  5
13F
330
2
100
AcDbSymbolTableRecord
100
AcDbLayerTableRecord
  2
Defpoints
 70
     0
 62
     7
  6
Continuous
290
     0
370
    -3
390
F
  0
ENDTAB
  0
TABLE
  2
STYLE
  5
3
330
0
100
AcDbSymbolTable
 70
     2
  0
STYLE
  5
11
330
3
100
AcDbSymbolTableRecord
100
AcDbTextStyleTableRecord
  2
Standard
 70
     0
 40
0.0
 41
1.0
 50
0.0
 71
     0
 42
3.5
  3
txt
  4

  0
STYLE
  5
94
330
3
100
AcDbSymbolTableRecord
100
AcDbTextStyleTableRecord
  2
SLDTEXTSTYLE0
 70
     0
 40
0.0
 41
0.75
 50
0.0
 71
     0
 42
3.5
  3
TXT
  4

  0
ENDTAB
  0
TABLE
  2
VIEW
  5
6
330
0
100
AcDbSymbolTable
 70
     0
  0
ENDTAB
  0
TABLE
  2
UCS
  5
7
330
0
100
AcDbSymbolTable
 70
     0
  0
ENDTAB
  0
TABLE
  2
APPID
  5
9
330
0
100
AcDbSymbolTable
 70
     5
  0
APPID
  5
12
330
9
100
AcDbSymbolTableRecord
100
AcDbRegAppTableRecord
  2
ACAD
 70
     0
  0
APPID
  5
14B
330
9
100
AcDbSymbolTableRecord
100
AcDbRegAppTableRecord
  2
PE_URL
 70
     0
  0
APPID
  5
14C
330
9
100
AcDbSymbolTableRecord
100
AcDbRegAppTableRecord
  2
ACAD_DSTYLE_DIMRADIAL_EXTENSION
 70
     0
  0
APPID
  5
2B9
330
9
100
AcDbSymbolTableRecord
100
AcDbRegAppTableRecord
  2
ACAD_DSTYLE_DIMFLIPARROW_SYMBOL
 70
     0
  0
APPID
  5
2BA
330
9
100
AcDbSymbolTableRecord
100
AcDbRegAppTableRecord
  2
ACAD_DSTYLE_DIMFLIPARROW_WHICH_SYMBOL
 70
     0
  0
ENDTAB
  0
TABLE
  2
DIMSTYLE
  5
A
330
0
100
AcDbSymbolTable
 70
     4
100
AcDbDimStyleTable
  0
DIMSTYLE
105
27
330
A
100
AcDbSymbolTableRecord
100
AcDbDimStyleTableRecord
  2
ISO-25
 70
     0
 41
2.5
 42
0.625
 43
3.75
 44
1.25
 73
     0
 74
     0
 77
     1
 78
     8
140
2.5
141
2.5
143
0.03937007874016
147
0.625
171
     3
172
     1
178
     0
271
     2
272
     2
274
     3
278
    44
283
     0
284
     8
340
11
  0
DIMSTYLE
105
DB
102
{ACAD_REACTORS
330
1A0
330
1B0
330
1C0
330
1CF
330
1E5
330
25F
330
260
330
261
330
262
330
2AB
102
}
330
A
100
AcDbSymbolTableRecord
100
AcDbDimStyleTableRecord
  2
SLDDIMSTYLE0
 70
     0
 41
3.302
 44
0.0
 45
0.000000001
 73
     0
 74
     0
 77
     1
 78
     4
 79
     1
140
3.5
147
0.875
172
     1
173
     1
178
     0
271
     2
272
     2
276
     2
284
    12
289
     0
340
94
  0
DIMSTYLE
105
E9
330
A
100
AcDbSymbolTableRecord
100
AcDbDimStyleTableRecord
  2
SLDDIMSTYLE1
 70
     0
 41
3.302
 44
0.0
 45
0.000000001
 73
     0
 74
     0
 77
     1
 78
    12
 79
     3
140
3.5
147
0.875
172
     1
173
     1
178
     0
271
     2
272
     2
276
     2
284
    12
289
     0
340
94
  0
DIMSTYLE
105
103
330
A
100
AcDbSymbolTableRecord
100
AcDbDimStyleTableRecord
  2
SLDDIMSTYLE2
 70
     0
 41
3.302
 44
0.0
 45
0.000000001
 73
     0
 74
     0
 77
     1
 78
    12
 79
     3
140
3.5
147
0.875
173
     1
178
     0
271
     2
272
     2
276
     2
284
    12
340
94
  0
ENDTAB
  0
TABLE
  2
BLOCK_RECORD
  5
1
330
0
100
AcDbSymbolTable
 70
    19
  0
BLOCK_RECORD
  5
1F
330
1
100
AcDbSymbolTableRecord
100
AcDbBlockTableRecord
  2
*Model_Space
340
22
  0
BLOCK_RECORD
  5
1B
330
1
100
AcDbSymbolTableRecord
100
AcDbBlockTableRecord
  2
*Paper_Space
340
1E
  0
BLOCK_RECORD
  5
23
330
1
100
AcDbSymbolTableRecord
100
AcDbBlockTableRecord
  2
*Paper_Space0
340
26
  0
BLOCK_RECORD
  5
7F
330
1
100
AcDbSymbolTableRecord
100
AcDbBlockTableRecord
  2
블럭10
340
0
102
{BLKREFS
331
D3
102
}
  0
BLOCK_RECORD
  5
DC
330
1
100
AcDbSymbolTableRecord
100
AcDbBlockTableRecord
  2
_D
340
0
  0
BLOCK_RECORD
  5
EA
330
1
100
AcDbSymbolTableRecord
100
AcDbBlockTableRecord
  2
_D_1
340
0
  0
BLOCK_RECORD
  5
F7
330
1
100
AcDbSymbolTableRecord
100
AcDbBlockTableRecord
  2
_D_2
340
0
  0
BLOCK_RECORD
  5
104
330
1
100
AcDbSymbolTableRecord
100
AcDbBlockTableRecord
  2
_D_3
340
0
  0
BLOCK_RECORD
  5
114
330
1
100
AcDbSymbolTableRecord
100
AcDbBlockTableRecord
  2
SW_DOWELSYMBOL_0
340
0
102
{BLKREFS
331
0
331
1DC
331
263
102
}
  0
BLOCK_RECORD
  5
1E6
330
1
100
AcDbSymbolTableRecord
100
AcDbBlockTableRecord
  2
*D8
340
0
  0
BLOCK_RECORD
  5
1F1
330
1
100
AcDbSymbolTableRecord
100
AcDbBlockTableRecord
  2
*D9
340
0
  0
BLOCK_RECORD
  5
200
330
1
100
AcDbSymbolTableRecord
100
AcDbBlockTableRecord
  2
*D10
340
0
  0
BLOCK_RECORD
  5
20F
330
1
100
AcDbSymbolTableRecord
100
AcDbBlockTableRecord
  2
*D11
340
0
  0
BLOCK_RECORD
  5
21D
330
1
100
AcDbSymbolTableRecord
100
AcDbBlockTableRecord
  2
*D12
340
0
  0
BLOCK_RECORD
  5
267
330
1
100
AcDbSymbolTableRecord
100
AcDbBlockTableRecord
  2
*D13
340
0
  0
BLOCK_RECORD
  5
276
330
1
100
AcDbSymbolTableRecord
100
AcDbBlockTableRecord
  2
*D14
340
0
  0
BLOCK_RECORD
  5
285
330
1
100
AcDbSymbolTableRecord
100
AcDbBlockTableRecord
  2
*D15
340
0
  0
BLOCK_RECORD
  5
293
330
1
100
AcDbSymbolTableRecord
100
AcDbBlockTableRecord
  2
*D16
340
0
  0
BLOCK_RECORD
  5
29F
330
1
100
AcDbSymbolTableRecord
100
AcDbBlockTableRecord
  2
*D17
340
0
  0
BLOCK_RECORD
  5
2AE
330
1
100
AcDbSymbolTableRecord
100
AcDbBlockTableRecord
  2
*D18
340
0
  0
ENDTAB
  0
ENDSEC
  0
SECTION
  2
BLOCKS
  0
BLOCK
  5
20
330
1F
100
AcDbEntity
  8
0
100
AcDbBlockBegin
  2
*Model_Space
 70
     0
 10
0.0
 20
0.0
 30
0.0
  3
*Model_Space
  1
*Model_Space
  0
ENDBLK
  5
21
330
1F
100
AcDbEntity
  8
0
100
AcDbBlockEnd
  0
BLOCK
  5
1C
330
1B
100
AcDbEntity
 67
     1
  8
0
100
AcDbBlockBegin
  2
*Paper_Space
 70
     0
 10
0.0
 20
0.0
 30
0.0
  3
*Paper_Space
  1
*Paper_Space
  0
ENDBLK
  5
1D
330
1B
100
AcDbEntity
 67
     1
  8
0
100
AcDbBlockEnd
  0
BLOCK
  5
24
330
23
100
AcDbEntity
  8
0
100
AcDbBlockBegin
  2
*Paper_Space0
 70
     0
 10
0.0
 20
0.0
 30
0.0
  3
*Paper_Space0
  1
*Paper_Space0
  0
ENDBLK
  5
25
330
23
100
AcDbEntity
  8
0
100
AcDbBlockEnd
  0
BLOCK
  5
80
330
7F
100
AcDbEntity
  8
0
100
AcDbBlockBegin
  2
블럭10
 70
     2
 10
0.0
 20
0.0
 30
0.0
  3
블럭10
  1
블럭10
  0
ELLIPSE
  5
82
330
7F
100
AcDbEntity
  8
중심선
100
AcDbEllipse
 10
20.54032771741204
 20
12.0471743016438
 30
0.0
 11
6.600054785286829
 21
-1.261213355974178E-13
 31
0.0
210
0.0
220
0.0
230
1.0
 40
0.636358354079598
 41
0.9219305317359503
 42
6.513795318482858
  0
ELLIPSE
  5
83
330
7F
100
AcDbEntity
  8
중심선
100
AcDbEllipse
 10
20.54032771746488
 20
12.04717430159265
 30
0.0
 11
3.960054785062283
 21
1.540847449632565E-10
 31
0.0
210
0.0
220
0.0
230
1.0
 40
0.3939339440162632
 41
1.131841032648279
 42
5.62031148352944
  0
LINE
  5
84
330
7F
100
AcDbEntity
  8
중심선
100
AcDbLine
 10
2.268634060543552
 20
16.24717430164393
 30
0.0
 11
5.714909304380834
 21
16.24717430164393
 31
0.0
  0
LINE
  5
85
330
7F
100
AcDbEntity
  8
중심선
100
AcDbLine
 10
5.245725140726316
 20
7.84717430164391
 30
0.0
 11
8.692000384563599
 21
7.84717430164391
 31
0.0
  0
LINE
  5
86
330
7F
100
AcDbEntity
  8
중심선
100
AcDbLine
 10
15.74043728645272
 20
16.24717430164393
 30
0.0
 11
8.692000384563599
 21
7.84717430164391
 31
0.0
  0
LINE
  5
87
330
7F
100
AcDbEntity
  8
중심선
100
AcDbLine
 10
0.1404042013395286
 20
13.71084872107135
 30
0.0
 11
3.58671253028996
 21
13.71088815037384
 31
0.0
  0
LINE
  5
88
330
7F
100
AcDbEntity
  8
중심선
100
AcDbLine
 10
2.750260043222114
 20
10.84717430164391
 30
0.0
 11
6.196535287059397
 21
10.84717430164391
 31
0.0
  0
LINE
  5
89
330
7F
100
AcDbEntity
  8
중심선
100
AcDbLine
 10
12.29416204261559
 20
16.24717430164393
 30
0.0
 11
5.245725140726316
 21
7.84717430164391
 31
0.0
  0
LINE
  5
8A
330
7F
100
AcDbEntity
  8
중심선
100
AcDbLine
 10
10.72767329541681
 20
16.24717430164393
 30
0.0
 11
6.196535287059397
 21
10.84717430164391
 31
0.0
  0
LINE
  5
8B
330
7F
100
AcDbEntity
  8
중심선
100
AcDbLine
 10
7.28139805157953
 20
16.24717430164393
 30
0.0
 11
2.750260043222114
 21
10.84717430164391
 31
0.0
  0
LINE
  5
8C
330
7F
100
AcDbEntity
  8
중심선
100
AcDbLine
 10
5.714909304380834
 20
16.24717430164393
 30
0.0
 11
3.58671253028996
 21
13.71088815037384
 31
0.0
  0
LINE
  5
8D
330
7F
100
AcDbEntity
  8
중심선
100
AcDbLine
 10
2.268634060543552
 20
16.24717430164393
 30
0.0
 11
0.1404042013395286
 21
13.71084872107135
 31
0.0
  0
LINE
  5
8E
330
7F
100
AcDbEntity
  8
중심선
100
AcDbLine
 10
7.28139805157953
 20
16.24717430164393
 30
0.0
 11
10.72767329541681
 21
16.24717430164393
 31
0.0
  0
LINE
  5
8F
330
7F
100
AcDbEntity
  8
중심선
100
AcDbLine
 10
12.29416204261559
 20
16.24717430164393
 30
0.0
 11
15.74043728645272
 21
16.24717430164393
 31
0.0
  0
LINE
  5
90
330
7F
100
AcDbEntity
  8
중심선
100
AcDbLine
 10
19.22036997980202
 20
11.08717430171403
 30
0.0
 11
23.66174974927406
 21
11.08717430171406
 31
0.0
  0
LINE
  5
91
330
7F
100
AcDbEntity
  8
중심선
100
AcDbLine
 10
19.22039502424796
 20
13.00717430171391
 30
0.0
 11
19.22036997980202
 21
11.08717430171403
 31
0.0
  0
LINE
  5
92
330
7F
100
AcDbEntity
  8
중심선
100
AcDbLine
 10
19.22039502424796
 20
13.00717430171391
 30
0.0
 11
26.96566020931264
 21
13.00717430171391
 31
0.0
  0
LINE
  5
93
330
7F
100
AcDbEntity
  8
중심선
100
AcDbLine
 10
22.22332737316547
 20
13.45928029700563
 30
0.0
 11
24.52862924686651
 21
15.39360700705356
 31
0.0
  0
ATTDEF
  5
95
330
7F
100
AcDbEntity
  8
FORMAT
 62
     2
100
AcDbText
 10
-16.11926103943555
 20
2.075366912832191
 30
0.0
 40
4.233333333333333
  1
SEME0102505E [ 4 FLUTE ]
 41
0.75
  7
SLDTEXTSTYLE0
 11
-16.11926103943555
 21
-0.0412997538344756
 31
0.0
100
AcDbAttributeDefinition
  3

  2
AUTOATTR0
 70
     0
 74
     1
  0
ENDBLK
  5
81
330
7F
100
AcDbEntity
  8
0
100
AcDbBlockEnd
  0
BLOCK
  5
DD
330
DC
100
AcDbEntity
  8
0
100
AcDbBlockBegin
  2
_D
 70
     0
 10
0.0
 20
0.0
 30
0.0
  3
_D
  1
_D
  0
SOLID
  5
DF
330
DC
100
AcDbEntity
  8
치수문자_일반주서
100
AcDbTrace
 10
30.95014196218285
 20
1.249999999999999
 30
0.0
 11
31.45814196218285
 21
4.551999999999999
 31
0.0
 12
30.44214196218285
 22
4.551999999999999
 32
0.0
 13
30.44214196218285
 23
4.551999999999999
 33
0.0
  0
SOLID
  5
E0
330
DC
100
AcDbEntity
  8
치수문자_일반주서
100
AcDbTrace
 10
30.95014196218285
 20
-1.250000000000001
 30
0.0
 11
30.44214196218285
 21
-4.552
 31
0.0
 12
31.45814196218285
 22
-4.552
 32
0.0
 13
31.45814196218285
 23
-4.552
 33
0.0
  0
LINE
  5
E1
330
DC
100
AcDbEntity
  8
치수문자_일반주서
100
AcDbLine
 10
17.77261420620753
 20
1.25
 30
0.0
 11
31.95014196218285
 21
1.249999999999999
 31
0.0
  0
LINE
  5
E2
330
DC
100
AcDbEntity
  8
치수문자_일반주서
100
AcDbLine
 10
17.77261420620753
 20
-1.25
 30
0.0
 11
31.95014196218285
 21
-1.250000000000001
 31
0.0
  0
LINE
  5
E3
330
DC
100
AcDbEntity
  8
치수문자_일반주서
100
AcDbLine
 10
30.95014196218285
 20
1.249999999999999
 30
0.0
 11
30.95014196218285
 21
7.599999999999999
 31
0.0
  0
LINE
  5
E4
330
DC
100
AcDbEntity
  8
치수문자_일반주서
100
AcDbLine
 10
30.95014196218285
 20
1.249999999999999
 30
0.0
 11
30.95014196218285
 21
-1.250000000000001
 31
0.0
  0
LINE
  5
E5
330
DC
100
AcDbEntity
  8
치수문자_일반주서
100
AcDbLine
 10
30.95014196218285
 20
-1.250000000000001
 30
0.0
 11
30.95014196218285
 21
-7.600000000000001
 31
0.0
  0
MTEXT
  5
E6
330
DC
100
AcDbEntity
  8
치수문자_일반주서
100
AcDbMText
 10
26.43840487298102
 20
-7.164913695305621
 30
0.0
 40
3.5
 41
0.0
 71
     1
 72
     1
  1
%%c
  7
SLDTEXTSTYLE0
 11
-7.044195017643634E-15
 21
1.0
 31
0.0
 73
     1
 44
1.0
  0
MTEXT
  5
E7
330
DC
100
AcDbEntity
  8
치수문자_일반주서
100
AcDbMText
 10
26.38493269632113
 20
-1.88647629693154
 30
0.0
 40
3.5
 41
0.0
 71
     1
 72
     1
  1
2.50
  7
SLDTEXTSTYLE0
 11
-7.044195017643634E-15
 21
1.0
 31
0.0
 73
     1
 44
1.0
  0
ENDBLK
  5
DE
330
DC
100
AcDbEntity
  8
0
100
AcDbBlockEnd
  0
BLOCK
  5
EB
330
EA
100
AcDbEntity
  8
0
100
AcDbBlockBegin
  2
_D_1
 70
     0
 10
0.0
 20
0.0
 30
0.0
  3
_D_1
  1
_D_1
  0
SOLID
  5
ED
330
EA
100
AcDbEntity
  8
치수문자_일반주서
100
AcDbTrace
 10
-53.57512886940358
 20
3.000000000000002
 30
0.0
 11
-53.06712886940358
 21
6.302000000000001
 31
0.0
 12
-54.08312886940358
 22
6.302000000000001
 32
0.0
 13
-54.08312886940358
 23
6.302000000000001
 33
0.0
  0
SOLID
  5
EE
330
EA
100
AcDbEntity
  8
치수문자_일반주서
100
AcDbTrace
 10
-53.57512886940358
 20
-3.000000000000004
 30
0.0
 11
-54.08312886940358
 21
-6.302000000000003
 31
0.0
 12
-53.06712886940358
 22
-6.302000000000003
 32
0.0
 13
-53.06712886940358
 23
-6.302000000000003
 33
0.0
  0
LINE
  5
EF
330
EA
100
AcDbEntity
  8
치수문자_일반주서
100
AcDbLine
 10
-41.17512886940358
 20
3.000000000000003
 30
0.0
 11
-54.57512886940358
 21
3.000000000000002
 31
0.0
  0
LINE
  5
F0
330
EA
100
AcDbEntity
  8
치수문자_일반주서
100
AcDbLine
 10
-41.17512886940358
 20
-3.000000000000003
 30
0.0
 11
-54.57512886940358
 21
-3.000000000000004
 31
0.0
  0
LINE
  5
F1
330
EA
100
AcDbEntity
  8
치수문자_일반주서
100
AcDbLine
 10
-53.57512886940358
 20
3.000000000000002
 30
0.0
 11
-53.57512886940358
 21
9.350000000000001
 31
0.0
  0
LINE
  5
F2
330
EA
100
AcDbEntity
  8
치수문자_일반주서
100
AcDbLine
 10
-53.57512886940358
 20
3.000000000000002
 30
0.0
 11
-53.57512886940358
 21
-3.000000000000004
 31
0.0
  0
LINE
  5
F3
330
EA
100
AcDbEntity
  8
치수문자_일반주서
100
AcDbLine
 10
-53.57512886940358
 20
-3.000000000000004
 30
0.0
 11
-53.57512886940358
 21
-9.350000000000005
 31
0.0
  0
MTEXT
  5
F4
330
EA
100
AcDbEntity
  8
치수문자_일반주서
100
AcDbMText
 10
-58.08686595860544
 20
-3.932274412363802
 30
0.0
 40
3.5
 41
0.0
 71
     1
 72
     1
  1
%%c
  7
SLDTEXTSTYLE0
 11
-7.044195017643634E-15
 21
1.0
 31
0.0
 73
     1
 44
1.0
  0
MTEXT
  5
F5
330
EA
100
AcDbEntity
  8
치수문자_일반주서
100
AcDbMText
 10
-58.14033813526532
 20
1.346162986010279
 30
0.0
 40
3.5
 41
0.0
 71
     1
 72
     1
  1
6
  7
SLDTEXTSTYLE0
 11
-7.044195017643634E-15
 21
1.0
 31
0.0
 73
     1
 44
1.0
  0
ENDBLK
  5
EC
330
EA
100
AcDbEntity
  8
0
100
AcDbBlockEnd
  0
BLOCK
  5
F8
330
F7
100
AcDbEntity
  8
0
100
AcDbBlockBegin
  2
_D_2
 70
     0
 10
0.0
 20
0.0
 30
0.0
  3
_D_2
  1
_D_2
  0
SOLID
  5
FA
330
F7
100
AcDbEntity
  8
치수문자_일반주서
100
AcDbTrace
 10
19.22487113059643
 20
18.2017253810051
 30
0.0
 11
22.52687113059643
 21
17.69372538100511
 31
0.0
 12
22.52687113059643
 22
18.7097253810051
 32
0.0
 13
22.52687113059643
 23
18.7097253810051
 33
0.0
  0
SOLID
  5
FB
330
F7
100
AcDbEntity
  8
치수문자_일반주서
100
AcDbTrace
 10
12.22487113059643
 20
18.2017253810051
 30
0.0
 11
8.922871130596434
 21
18.7097253810051
 31
0.0
 12
8.922871130596434
 22
17.69372538100511
 32
0.0
 13
8.922871130596434
 23
17.69372538100511
 33
0.0
  0
LINE
  5
FC
330
F7
100
AcDbEntity
  8
치수문자_일반주서
100
AcDbLine
 10
19.22487113059643
 20
1.748554926762237
 30
0.0
 11
19.22487113059643
 21
19.2017253810051
 31
0.0
  0
LINE
  5
FD
330
F7
100
AcDbEntity
  8
치수문자_일반주서
100
AcDbLine
 10
12.22487113059644
 20
2.230320065757898
 30
0.0
 11
12.22487113059643
 21
19.2017253810051
 31
0.0
  0
LINE
  5
FE
330
F7
100
AcDbEntity
  8
치수문자_일반주서
100
AcDbLine
 10
19.22487113059643
 20
18.2017253810051
 30
0.0
 11
25.57487113059643
 21
18.2017253810051
 31
0.0
  0
LINE
  5
FF
330
F7
100
AcDbEntity
  8
치수문자_일반주서
100
AcDbLine
 10
19.22487113059643
 20
18.2017253810051
 30
0.0
 11
12.22487113059643
 21
18.2017253810051
 31
0.0
  0
LINE
  5
100
330
F7
100
AcDbEntity
  8
치수문자_일반주서
100
AcDbLine
 10
12.22487113059643
 20
18.2017253810051
 30
0.0
 11
5.874871130596433
 21
18.2017253810051
 31
0.0
  0
MTEXT
  5
101
330
F7
100
AcDbEntity
  8
치수문자_일반주서
100
AcDbMText
 10
14.43181553383502
 20
22.713462295584
 30
0.0
 40
3.5
 41
0.0
 71
     1
 72
     1
  1
7
  7
SLDTEXTSTYLE0
 73
     1
 44
1.0
  0
ENDBLK
  5
F9
330
F7
100
AcDbEntity
  8
0
100
AcDbBlockEnd
  0
BLOCK
  5
105
330
104
100
AcDbEntity
  8
0
100
AcDbBlockBegin
  2
_D_3
 70
     0
 10
0.0
 20
0.0
 30
0.0
  3
_D_3
  1
_D_3
  0
SOLID
  5
107
330
104
100
AcDbEntity
  8
치수문자_일반주서
100
AcDbTrace
 10
19.22487113059643
 20
25.61808807137204
 30
0.0
 11
15.92287113059643
 21
26.12608807137203
 31
0.0
 12
15.92287113059643
 22
25.11008807137204
 32
0.0
 13
15.92287113059643
 23
25.11008807137204
 33
0.0
  0
SOLID
  5
108
330
104
100
AcDbEntity
  8
치수문자_일반주서
100
AcDbTrace
 10
-40.77512886940357
 20
25.61808807137203
 30
0.0
 11
-37.47312886940357
 21
25.11008807137203
 31
0.0
 12
-37.47312886940357
 22
26.12608807137203
 32
0.0
 13
-37.47312886940357
 23
26.12608807137203
 33
0.0
  0
LINE
  5
109
330
104
100
AcDbEntity
  8
치수문자_일반주서
100
AcDbLine
 10
19.22487113059643
 20
1.748554926762237
 30
0.0
 11
19.22487113059643
 21
26.61808807137204
 31
0.0
  0
LINE
  5
10A
330
104
100
AcDbEntity
  8
치수문자_일반주서
100
AcDbLine
 10
-40.77512886940357
 20
3.400000000000002
 30
0.0
 11
-40.77512886940357
 21
26.61808807137203
 31
0.0
  0
LINE
  5
10B
330
104
100
AcDbEntity
  8
치수문자_일반주서
100
AcDbLine
 10
19.22487113059643
 20
25.61808807137204
 30
0.0
 11
-40.77512886940357
 21
25.61808807137203
 31
0.0
  0
MTEXT
  5
10C
330
104
100
AcDbEntity
  8
치수문자_일반주서
100
AcDbMText
 10
-13.36124006292639
 20
30.12982498595093
 30
0.0
 40
3.5
 41
0.0
 71
     1
 72
     1
  1
60
  7
SLDTEXTSTYLE0
 73
     1
 44
1.0
  0
ENDBLK
  5
106
330
104
100
AcDbEntity
  8
0
100
AcDbBlockEnd
  0
BLOCK
  5
115
330
114
100
AcDbEntity
  8
0
100
AcDbBlockBegin
  2
SW_DOWELSYMBOL_0
 70
     0
 10
0.0
 20
0.0
 30
0.0
  3
SW_DOWELSYMBOL_0
  1
SW_DOWELSYMBOL_0
  0
CIRCLE
  5
117
330
114
100
AcDbEntity
  8
해칭선
 62
     0
100
AcDbCircle
 10
0.0
 20
0.0
 30
0.0
 40
3.000000000000001
  0
HATCH
  5
118
330
114
100
AcDbEntity
  8
0
  6
Continuous
 62
     0
370
     0
100
AcDbHatch
 10
0.0
 20
0.0
 30
0.0
210
0.0
220
0.0
230
1.0
  2
SOLID
 70
     1
 71
     0
 91
        1
 92
        0
 93
        3
 72
     2
 10
0.0
 20
0.0
 40
3.000000000000001
 50
0.0
 51
90.0
 73
     1
 72
     1
 10
0.0
 20
3.000000000000001
 11
0.0
 21
0.0
 72
     1
 10
0.0
 20
0.0
 11
3.000000000000001
 21
0.0
 97
        0
 75
     0
 76
     1
 98
        1
 10
0.0
 20
0.0
  0
HATCH
  5
119
330
114
100
AcDbEntity
  8
0
  6
Continuous
 62
     0
370
     0
100
AcDbHatch
 10
0.0
 20
0.0
 30
0.0
210
0.0
220
0.0
230
1.0
  2
SOLID
 70
     1
 71
     0
 91
        1
 92
        0
 93
        3
 72
     2
 10
0.0
 20
0.0
 40
3.000000000000001
 50
180.0
 51
270.0000000000008
 73
     1
 72
     1
 10
0.0
 20
-3.000000000000001
 11
0.0
 21
0.0
 72
     1
 10
0.0
 20
0.0
 11
-3.000000000000001
 21
0.0
 97
        0
 75
     0
 76
     1
 98
        1
 10
0.0
 20
0.0
  0
ENDBLK
  5
116
330
114
100
AcDbEntity
  8
0
100
AcDbBlockEnd
  0
BLOCK
  5
1E7
330
1E6
100
AcDbEntity
  8
0
100
AcDbBlockBegin
  2
*D8
 70
     1
 10
0.0
 20
0.0
 30
0.0
  3
*D8
  1
*D8
  0
LINE
  5
1E8
330
1E6
100
AcDbEntity
  8
치수문자_일반주서
 62
     0
370
    -2
100
AcDbLine
 10
72.84097180203382
 20
12.21708079211349
 30
0.0
 11
82.77026664699122
 21
0.0000000000002336
 31
0.0
  0
MTEXT
  5
1E9
330
1E6
100
AcDbEntity
  8
치수문자_일반주서
 62
     0
100
AcDbMText
 10
82.19214194270548
 20
4.080578805610354
 30
0.0
 40
2.5
 41
0.0
 71
     5
 72
     1
  1
\A1;R0.3
  7
SLDTEXTSTYLE0
 11
0.6307042150120667
 21
-0.776023319988525
 31
0.0
 73
     1
 44
1.0
  0
LINE
  5
1EA
330
1E6
100
AcDbEntity
  8
치수문자_일반주서
 62
     0
370
    -2
100
AcDbLine
 10
71.07500000000003
 20
14.38994608808136
 30
0.0
 11
71.26421126450366
 21
14.1571390920848
 31
0.0
  0
SOLID
  5
1EB
330
1E6
100
AcDbEntity
  8
치수문자_일반주서
 62
     0
100
AcDbTrace
 10
73.16431485202904
 20
12.47987421503518
 30
0.0
 11
72.5176287520386
 21
11.95428736919179
 31
0.0
 12
71.26421126450366
 22
14.1571390920848
 32
0.0
 13
71.26421126450366
 23
14.1571390920848
 33
0.0
  0
POINT
  5
1EC
330
1E6
100
AcDbEntity
  8
Defpoints
 62
     0
100
AcDbPoint
 10
71.26421126450366
 20
14.1571390920848
 30
0.0
  0
POINT
  5
1ED
330
1E6
100
AcDbEntity
  8
Defpoints
 62
     0
100
AcDbPoint
 10
71.07500000000003
 20
14.38994608808136
 30
0.0
  0
ENDBLK
  5
1EE
330
1E6
100
AcDbEntity
  8
0
100
AcDbBlockEnd
  0
BLOCK
  5
1F2
330
1F1
100
AcDbEntity
  8
0
100
AcDbBlockBegin
  2
*D9
 70
     1
 10
0.0
 20
0.0
 30
0.0
  3
*D9
  1
*D9
  0
LINE
  5
1F4
330
1F1
100
AcDbEntity
  8
치수문자_일반주서
 62
     0
370
    -2
100
AcDbLine
 10
71.43750000000004
 20
16.58994608808137
 30
0.0
 11
79.37500000000004
 21
16.58994608808139
 31
0.0
  0
LINE
  5
1F5
330
1F1
100
AcDbEntity
  8
치수문자_일반주서
 62
     0
370
    -2
100
AcDbLine
 10
71.43750000000004
 20
14.08994608808136
 30
0.0
 11
79.37500000000006
 21
14.08994608808139
 31
0.0
  0
LINE
  5
1F6
330
1F1
100
AcDbEntity
  8
치수문자_일반주서
 62
     0
370
    -2
100
AcDbLine
 10
79.37500000000004
 20
16.58994608808139
 30
0.0
 11
79.37499999999999
 21
28.9649460880814
 31
0.0
  0
LINE
  5
1F7
330
1F1
100
AcDbEntity
  8
치수문자_일반주서
 62
     0
370
    -2
100
AcDbLine
 10
79.37500000000004
 20
16.58994608808139
 30
0.0
 11
79.37500000000006
 21
14.08994608808139
 31
0.0
  0
LINE
  5
1F8
330
1F1
100
AcDbEntity
  8
치수문자_일반주서
 62
     0
370
    -2
100
AcDbLine
 10
79.37500000000003
 20
19.08994608808139
 30
0.0
 11
79.37500000000001
 21
21.58994608808139
 31
0.0
  0
LINE
  5
1F9
330
1F1
100
AcDbEntity
  8
치수문자_일반주서
 62
     0
370
    -2
100
AcDbLine
 10
79.37500000000007
 20
11.58994608808139
 30
0.0
 11
79.37500000000009
 21
9.089946088081392
 31
0.0
  0
SOLID
  5
1FA
330
1F1
100
AcDbEntity
  8
치수문자_일반주서
 62
     0
100
AcDbTrace
 10
78.95833333333336
 20
19.08994608808139
 30
0.0
 11
79.7916666666667
 21
19.0899460880814
 31
0.0
 12
79.37500000000004
 22
16.58994608808139
 32
0.0
 13
79.37500000000004
 23
16.58994608808139
 33
0.0
  0
SOLID
  5
1FB
330
1F1
100
AcDbEntity
  8
치수문자_일반주서
 62
     0
100
AcDbTrace
 10
79.79166666666674
 20
11.58994608808139
 30
0.0
 11
78.9583333333334
 21
11.58994608808139
 31
0.0
 12
79.37500000000006
 22
14.08994608808139
 32
0.0
 13
79.37500000000006
 23
14.08994608808139
 33
0.0
  0
MTEXT
  5
1FC
330
1F1
100
AcDbEntity
  8
치수문자_일반주서
 62
     0
100
AcDbMText
 10
76.0
 20
25.27744608808139
 30
0.0
 40
2.5
 41
0.0
 71
     2
 72
     1
  1
\A1;%%c2.5
  7
SLDTEXTSTYLE0
 11
-5.684341886080802E-15
 21
1.0
 31
0.0
 73
     1
 44
1.0
  0
POINT
  5
1FD
330
1F1
100
AcDbEntity
  8
Defpoints
 62
     0
100
AcDbPoint
 10
71.37500000000004
 20
16.58994608808137
 30
0.0
  0
POINT
  5
1FE
330
1F1
100
AcDbEntity
  8
Defpoints
 62
     0
100
AcDbPoint
 10
71.37500000000004
 20
14.08994608808136
 30
0.0
  0
POINT
  5
1FF
330
1F1
100
AcDbEntity
  8
Defpoints
 62
     0
100
AcDbPoint
 10
79.37500000000003
 20
14.08994608808139
 30
0.0
  0
ENDBLK
  5
1F3
330
1F1
100
AcDbEntity
  8
0
100
AcDbBlockEnd
  0
BLOCK
  5
201
330
200
100
AcDbEntity
  8
0
100
AcDbBlockBegin
  2
*D10
 70
     1
 10
0.0
 20
0.0
 30
0.0
  3
*D10
  1
*D10
  0
LINE
  5
203
330
200
100
AcDbEntity
  8
치수문자_일반주서
 62
     0
370
    -2
100
AcDbLine
 10
11.91250000000004
 20
18.33994608808137
 30
0.0
 11
3.37500000000004
 21
18.33994608808134
 31
0.0
  0
LINE
  5
204
330
200
100
AcDbEntity
  8
치수문자_일반주서
 62
     0
370
    -2
100
AcDbLine
 10
11.91250000000004
 20
12.33994608808137
 30
0.0
 11
3.375000000000061
 21
12.33994608808133
 31
0.0
  0
LINE
  5
205
330
200
100
AcDbEntity
  8
치수문자_일반주서
 62
     0
370
    -2
100
AcDbLine
 10
3.37500000000004
 20
18.33994608808134
 30
0.0
 11
3.375000000000006
 21
28.21494608808134
 31
0.0
  0
LINE
  5
206
330
200
100
AcDbEntity
  8
치수문자_일반주서
 62
     0
370
    -2
100
AcDbLine
 10
3.37500000000004
 20
18.33994608808134
 30
0.0
 11
3.375000000000061
 21
12.33994608808133
 31
0.0
  0
LINE
  5
207
330
200
100
AcDbEntity
  8
치수문자_일반주서
 62
     0
370
    -2
100
AcDbLine
 10
3.375000000000031
 20
20.83994608808134
 30
0.0
 11
3.375000000000022
 21
23.33994608808134
 31
0.0
  0
LINE
  5
208
330
200
100
AcDbEntity
  8
치수문자_일반주서
 62
     0
370
    -2
100
AcDbLine
 10
3.37500000000007
 20
9.839946088081334
 30
0.0
 11
3.375000000000079
 21
7.339946088081334
 31
0.0
  0
SOLID
  5
209
330
200
100
AcDbEntity
  8
치수문자_일반주서
 62
     0
100
AcDbTrace
 10
2.958333333333365
 20
20.83994608808134
 30
0.0
 11
3.791666666666698
 21
20.83994608808134
 31
0.0
 12
3.37500000000004
 22
18.33994608808134
 32
0.0
 13
3.37500000000004
 23
18.33994608808134
 33
0.0
  0
SOLID
  5
20A
330
200
100
AcDbEntity
  8
치수문자_일반주서
 62
     0
100
AcDbTrace
 10
3.791666666666736
 20
9.839946088081335
 30
0.0
 11
2.958333333333403
 21
9.839946088081332
 31
0.0
 12
3.375000000000061
 22
12.33994608808133
 32
0.0
 13
3.375000000000061
 23
12.33994608808133
 33
0.0
  0
MTEXT
  5
20B
330
200
100
AcDbEntity
  8
치수문자_일반주서
 62
     0
100
AcDbMText
 10
0.0000000000000142
 20
25.77744608808133
 30
0.0
 40
2.5
 41
0.0
 71
     2
 72
     1
  1
\A1;%%c6
  7
SLDTEXTSTYLE0
 11
-3.478698810492155E-15
 21
1.0
 31
0.0
 73
     1
 44
1.0
  0
POINT
  5
20C
330
200
100
AcDbEntity
  8
Defpoints
 62
     0
100
AcDbPoint
 10
11.97500000000004
 20
18.33994608808137
 30
0.0
  0
POINT
  5
20D
330
200
100
AcDbEntity
  8
Defpoints
 62
     0
100
AcDbPoint
 10
11.97500000000004
 20
12.33994608808137
 30
0.0
  0
POINT
  5
20E
330
200
100
AcDbEntity
  8
Defpoints
 62
     0
100
AcDbPoint
 10
3.375000000000064
 20
12.33994608808133
 30
0.0
  0
ENDBLK
  5
202
330
200
100
AcDbEntity
  8
0
100
AcDbBlockEnd
  0
BLOCK
  5
210
330
20F
100
AcDbEntity
  8
0
100
AcDbBlockBegin
  2
*D11
 70
     1
 10
0.0
 20
0.0
 30
0.0
  3
*D11
  1
*D11
  0
LINE
  5
212
330
20F
100
AcDbEntity
  8
치수문자_일반주서
 62
     0
370
    -2
100
AcDbLine
 10
71.37500000000004
 20
16.65244608808137
 30
0.0
 11
71.37500000000004
 21
26.33994608808138
 31
0.0
  0
LINE
  5
213
330
20F
100
AcDbEntity
  8
치수문자_일반주서
 62
     0
370
    -2
100
AcDbLine
 10
64.37500000000006
 20
16.63276615383927
 30
0.0
 11
64.37500000000006
 21
26.33994608808138
 31
0.0
  0
LINE
  5
214
330
20F
100
AcDbEntity
  8
치수문자_일반주서
 62
     0
370
    -2
100
AcDbLine
 10
71.37500000000004
 20
26.33994608808138
 30
0.0
 11
64.37500000000006
 21
26.33994608808138
 31
0.0
  0
LINE
  5
215
330
20F
100
AcDbEntity
  8
치수문자_일반주서
 62
     0
370
    -2
100
AcDbLine
 10
73.87500000000004
 20
26.33994608808138
 30
0.0
 11
76.37500000000004
 21
26.33994608808138
 31
0.0
  0
LINE
  5
216
330
20F
100
AcDbEntity
  8
치수문자_일반주서
 62
     0
370
    -2
100
AcDbLine
 10
61.87500000000006
 20
26.33994608808138
 30
0.0
 11
59.37500000000006
 21
26.33994608808138
 31
0.0
  0
SOLID
  5
217
330
20F
100
AcDbEntity
  8
치수문자_일반주서
 62
     0
100
AcDbTrace
 10
73.87500000000004
 20
26.75661275474804
 30
0.0
 11
73.87500000000004
 21
25.92327942141471
 31
0.0
 12
71.37500000000004
 22
26.33994608808138
 32
0.0
 13
71.37500000000004
 23
26.33994608808138
 33
0.0
  0
SOLID
  5
218
330
20F
100
AcDbEntity
  8
치수문자_일반주서
 62
     0
100
AcDbTrace
 10
61.87500000000006
 20
25.92327942141471
 30
0.0
 11
61.87500000000006
 21
26.75661275474804
 31
0.0
 12
64.37500000000006
 22
26.33994608808138
 32
0.0
 13
64.37500000000006
 23
26.33994608808138
 33
0.0
  0
MTEXT
  5
219
330
20F
100
AcDbEntity
  8
치수문자_일반주서
 62
     0
100
AcDbMText
 10
67.87500000000004
 20
29.71494608808138
 30
0.0
 40
2.5
 41
0.0
 71
     2
 72
     1
  1
\A1;7
  7
SLDTEXTSTYLE0
 73
     1
 44
1.0
  0
POINT
  5
21A
330
20F
100
AcDbEntity
  8
Defpoints
 62
     0
100
AcDbPoint
 10
71.37500000000004
 20
16.58994608808137
 30
0.0
  0
POINT
  5
21B
330
20F
100
AcDbEntity
  8
Defpoints
 62
     0
100
AcDbPoint
 10
64.37500000000006
 20
16.57026615383927
 30
0.0
  0
POINT
  5
21C
330
20F
100
AcDbEntity
  8
Defpoints
 62
     0
100
AcDbPoint
 10
64.37500000000006
 20
26.33994608808138
 30
0.0
  0
ENDBLK
  5
211
330
20F
100
AcDbEntity
  8
0
100
AcDbBlockEnd
  0
BLOCK
  5
21E
330
21D
100
AcDbEntity
  8
0
100
AcDbBlockBegin
  2
*D12
 70
     1
 10
0.0
 20
0.0
 30
0.0
  3
*D12
  1
*D12
  0
LINE
  5
220
330
21D
100
AcDbEntity
  8
치수문자_일반주서
 62
     0
370
    -2
100
AcDbLine
 10
71.37500000000004
 20
16.65244608808137
 30
0.0
 11
71.37500000000004
 21
34.33994608808138
 31
0.0
  0
LINE
  5
221
330
21D
100
AcDbEntity
  8
치수문자_일반주서
 62
     0
370
    -2
100
AcDbLine
 10
11.37500000000004
 20
17.80244608808137
 30
0.0
 11
11.37500000000004
 21
34.33994608808138
 31
0.0
  0
LINE
  5
222
330
21D
100
AcDbEntity
  8
치수문자_일반주서
 62
     0
370
    -2
100
AcDbLine
 10
68.87500000000004
 20
34.33994608808138
 30
0.0
 11
13.87500000000004
 21
34.33994608808138
 31
0.0
  0
SOLID
  5
223
330
21D
100
AcDbEntity
  8
치수문자_일반주서
 62
     0
100
AcDbTrace
 10
68.87500000000004
 20
33.92327942141471
 30
0.0
 11
68.87500000000004
 21
34.75661275474804
 31
0.0
 12
71.37500000000004
 22
34.33994608808138
 32
0.0
 13
71.37500000000004
 23
34.33994608808138
 33
0.0
  0
SOLID
  5
224
330
21D
100
AcDbEntity
  8
치수문자_일반주서
 62
     0
100
AcDbTrace
 10
13.87500000000004
 20
34.75661275474804
 30
0.0
 11
13.87500000000004
 21
33.92327942141471
 31
0.0
 12
11.37500000000004
 22
34.33994608808138
 32
0.0
 13
11.37500000000004
 23
34.33994608808138
 33
0.0
  0
MTEXT
  5
225
330
21D
100
AcDbEntity
  8
치수문자_일반주서
 62
     0
100
AcDbMText
 10
41.37500000000004
 20
37.71494608808138
 30
0.0
 40
2.5
 41
0.0
 71
     2
 72
     1
  1
\A1;60
  7
SLDTEXTSTYLE0
 73
     1
 44
1.0
  0
POINT
  5
226
330
21D
100
AcDbEntity
  8
Defpoints
 62
     0
100
AcDbPoint
 10
71.37500000000004
 20
16.58994608808137
 30
0.0
  0
POINT
  5
227
330
21D
100
AcDbEntity
  8
Defpoints
 62
     0
100
AcDbPoint
 10
11.37500000000004
 20
17.73994608808137
 30
0.0
  0
POINT
  5
228
330
21D
100
AcDbEntity
  8
Defpoints
 62
     0
100
AcDbPoint
 10
11.37500000000004
 20
34.33994608808138
 30
0.0
  0
ENDBLK
  5
21F
330
21D
100
AcDbEntity
  8
0
100
AcDbBlockEnd
  0
BLOCK
  5
268
330
267
100
AcDbEntity
  8
0
100
AcDbBlockBegin
  2
*D13
 70
     1
 10
0.0
 20
0.0
 30
0.0
  3
*D13
  1
*D13
  0
LINE
  5
26A
330
267
100
AcDbEntity
  8
치수문자_일반주서
 62
     0
370
    -2
100
AcDbLine
 10
16.59358891324555
 20
1.251074928723892
 30
0.0
 11
24.53108891324553
 21
1.251074928723922
 31
0.0
  0
LINE
  5
26B
330
267
100
AcDbEntity
  8
치수문자_일반주서
 62
     0
370
    -2
100
AcDbLine
 10
16.59358891324555
 20
-1.24892507127611
 30
0.0
 11
24.53108891324554
 21
-1.24892507127608
 31
0.0
  0
LINE
  5
26C
330
267
100
AcDbEntity
  8
치수문자_일반주서
 62
     0
370
    -2
100
AcDbLine
 10
24.53108891324553
 20
1.251074928723922
 30
0.0
 11
24.53108891324549
 21
13.62607492872393
 31
0.0
  0
LINE
  5
26D
330
267
100
AcDbEntity
  8
치수문자_일반주서
 62
     0
370
    -2
100
AcDbLine
 10
24.53108891324553
 20
1.251074928723922
 30
0.0
 11
24.53108891324554
 21
-1.24892507127608
 31
0.0
  0
LINE
  5
26E
330
267
100
AcDbEntity
  8
치수문자_일반주서
 62
     0
370
    -2
100
AcDbLine
 10
24.53108891324552
 20
3.751074928723922
 30
0.0
 11
24.53108891324552
 21
6.251074928723922
 31
0.0
  0
LINE
  5
26F
330
267
100
AcDbEntity
  8
치수문자_일반주서
 62
     0
370
    -2
100
AcDbLine
 10
24.53108891324554
 20
-3.74892507127608
 30
0.0
 11
24.53108891324555
 21
-6.24892507127608
 31
0.0
  0
SOLID
  5
270
330
267
100
AcDbEntity
  8
치수문자_일반주서
 62
     0
100
AcDbTrace
 10
24.11442224657885
 20
3.75107492872392
 30
0.0
 11
24.94775557991219
 21
3.751074928723923
 31
0.0
 12
24.53108891324553
 22
1.251074928723922
 32
0.0
 13
24.53108891324553
 23
1.251074928723922
 33
0.0
  0
SOLID
  5
271
330
267
100
AcDbEntity
  8
치수문자_일반주서
 62
     0
100
AcDbTrace
 10
24.94775557991221
 20
-3.748925071276079
 30
0.0
 11
24.11442224657888
 21
-3.748925071276081
 31
0.0
 12
24.53108891324554
 22
-1.24892507127608
 32
0.0
 13
24.53108891324554
 23
-1.24892507127608
 33
0.0
  0
MTEXT
  5
272
330
267
100
AcDbEntity
  8
치수문자_일반주서
 62
     0
100
AcDbMText
 10
21.1560889132455
 20
9.938574928723922
 30
0.0
 40
2.5
 41
0.0
 71
     2
 72
     1
  1
\A1;%%c2.5
  7
SLDTEXTSTYLE0
 11
-2.842170943040399E-15
 21
1.0
 31
0.0
 73
     1
 44
1.0
  0
POINT
  5
273
330
267
100
AcDbEntity
  8
Defpoints
 62
     0
100
AcDbPoint
 10
16.53108891324555
 20
1.251074928723892
 30
0.0
  0
POINT
  5
274
330
267
100
AcDbEntity
  8
Defpoints
 62
     0
100
AcDbPoint
 10
16.53108891324555
 20
-1.24892507127611
 30
0.0
  0
POINT
  5
275
330
267
100
AcDbEntity
  8
Defpoints
 62
     0
100
AcDbPoint
 10
24.53108891324553
 20
-1.24892507127608
 30
0.0
  0
ENDBLK
  5
269
330
267
100
AcDbEntity
  8
0
100
AcDbBlockEnd
  0
BLOCK
  5
277
330
276
100
AcDbEntity
  8
0
100
AcDbBlockBegin
  2
*D14
 70
     1
 10
0.0
 20
0.0
 30
0.0
  3
*D14
  1
*D14
  0
LINE
  5
279
330
276
100
AcDbEntity
  8
치수문자_일반주서
 62
     0
370
    -2
100
AcDbLine
 10
-42.93141108675446
 20
3.001074928723895
 30
0.0
 11
-51.46891108675445
 21
3.001074928723863
 31
0.0
  0
LINE
  5
27A
330
276
100
AcDbEntity
  8
치수문자_일반주서
 62
     0
370
    -2
100
AcDbLine
 10
-42.93141108675446
 20
-2.998925071276109
 30
0.0
 11
-51.46891108675443
 21
-2.99892507127614
 31
0.0
  0
LINE
  5
27B
330
276
100
AcDbEntity
  8
치수문자_일반주서
 62
     0
370
    -2
100
AcDbLine
 10
-51.46891108675445
 20
3.001074928723863
 30
0.0
 11
-51.46891108675449
 21
12.87607492872387
 31
0.0
  0
LINE
  5
27C
330
276
100
AcDbEntity
  8
치수문자_일반주서
 62
     0
370
    -2
100
AcDbLine
 10
-51.46891108675445
 20
3.001074928723863
 30
0.0
 11
-51.46891108675443
 21
-2.99892507127614
 31
0.0
  0
LINE
  5
27D
330
276
100
AcDbEntity
  8
치수문자_일반주서
 62
     0
370
    -2
100
AcDbLine
 10
-51.46891108675446
 20
5.501074928723863
 30
0.0
 11
-51.46891108675447
 21
8.001074928723863
 31
0.0
  0
LINE
  5
27E
330
276
100
AcDbEntity
  8
치수문자_일반주서
 62
     0
370
    -2
100
AcDbLine
 10
-51.46891108675442
 20
-5.49892507127614
 30
0.0
 11
-51.46891108675442
 21
-7.99892507127614
 31
0.0
  0
SOLID
  5
27F
330
276
100
AcDbEntity
  8
치수문자_일반주서
 62
     0
100
AcDbTrace
 10
-51.88557775342112
 20
5.501074928723861
 30
0.0
 11
-51.0522444200878
 21
5.501074928723865
 31
0.0
 12
-51.46891108675445
 22
3.001074928723863
 32
0.0
 13
-51.46891108675445
 23
3.001074928723863
 33
0.0
  0
SOLID
  5
280
330
276
100
AcDbEntity
  8
치수문자_일반주서
 62
     0
100
AcDbTrace
 10
-51.05224442008776
 20
-5.498925071276139
 30
0.0
 11
-51.88557775342109
 21
-5.498925071276142
 31
0.0
 12
-51.46891108675443
 22
-2.99892507127614
 32
0.0
 13
-51.46891108675443
 23
-2.99892507127614
 33
0.0
  0
MTEXT
  5
281
330
276
100
AcDbEntity
  8
치수문자_일반주서
 62
     0
100
AcDbMText
 10
-54.84391108675448
 20
10.43857492872386
 30
0.0
 40
2.5
 41
0.0
 71
     2
 72
     1
  1
\A1;%%c6
  7
SLDTEXTSTYLE0
 11
-3.552713678800499E-15
 21
1.0
 31
0.0
 73
     1
 44
1.0
  0
POINT
  5
282
330
276
100
AcDbEntity
  8
Defpoints
 62
     0
100
AcDbPoint
 10
-42.86891108675446
 20
3.001074928723895
 30
0.0
  0
POINT
  5
283
330
276
100
AcDbEntity
  8
Defpoints
 62
     0
100
AcDbPoint
 10
-42.86891108675446
 20
-2.998925071276108
 30
0.0
  0
POINT
  5
284
330
276
100
AcDbEntity
  8
Defpoints
 62
     0
100
AcDbPoint
 10
-51.46891108675443
 20
-2.99892507127614
 30
0.0
  0
ENDBLK
  5
278
330
276
100
AcDbEntity
  8
0
100
AcDbBlockEnd
  0
BLOCK
  5
286
330
285
100
AcDbEntity
  8
0
100
AcDbBlockBegin
  2
*D15
 70
     1
 10
0.0
 20
0.0
 30
0.0
  3
*D15
  1
*D15
  0
LINE
  5
288
330
285
100
AcDbEntity
  8
치수문자_일반주서
 62
     0
370
    -2
100
AcDbLine
 10
16.53108891324555
 20
1.313574928723892
 30
0.0
 11
16.53108891324555
 21
11.0010749287239
 31
0.0
  0
LINE
  5
289
330
285
100
AcDbEntity
  8
치수문자_일반주서
 62
     0
370
    -2
100
AcDbLine
 10
9.531088913245561
 20
1.293894994481793
 30
0.0
 11
9.531088913245561
 21
11.0010749287239
 31
0.0
  0
LINE
  5
28A
330
285
100
AcDbEntity
  8
치수문자_일반주서
 62
     0
370
    -2
100
AcDbLine
 10
16.53108891324555
 20
11.0010749287239
 30
0.0
 11
9.531088913245561
 21
11.0010749287239
 31
0.0
  0
LINE
  5
28B
330
285
100
AcDbEntity
  8
치수문자_일반주서
 62
     0
370
    -2
100
AcDbLine
 10
19.03108891324555
 20
11.0010749287239
 30
0.0
 11
21.53108891324555
 21
11.0010749287239
 31
0.0
  0
LINE
  5
28C
330
285
100
AcDbEntity
  8
치수문자_일반주서
 62
     0
370
    -2
100
AcDbLine
 10
7.031088913245561
 20
11.0010749287239
 30
0.0
 11
4.531088913245561
 21
11.0010749287239
 31
0.0
  0
SOLID
  5
28D
330
285
100
AcDbEntity
  8
치수문자_일반주서
 62
     0
100
AcDbTrace
 10
19.03108891324555
 20
11.41774159539057
 30
0.0
 11
19.03108891324555
 21
10.58440826205724
 31
0.0
 12
16.53108891324555
 22
11.0010749287239
 32
0.0
 13
16.53108891324555
 23
11.0010749287239
 33
0.0
  0
SOLID
  5
28E
330
285
100
AcDbEntity
  8
치수문자_일반주서
 62
     0
100
AcDbTrace
 10
7.031088913245561
 20
10.58440826205724
 30
0.0
 11
7.031088913245561
 21
11.41774159539057
 31
0.0
 12
9.531088913245561
 22
11.0010749287239
 32
0.0
 13
9.531088913245561
 23
11.0010749287239
 33
0.0
  0
MTEXT
  5
28F
330
285
100
AcDbEntity
  8
치수문자_일반주서
 62
     0
100
AcDbMText
 10
13.03108891324555
 20
14.3760749287239
 30
0.0
 40
2.5
 41
0.0
 71
     2
 72
     1
  1
\A1;7
  7
SLDTEXTSTYLE0
 73
     1
 44
1.0
  0
POINT
  5
290
330
285
100
AcDbEntity
  8
Defpoints
 62
     0
100
AcDbPoint
 10
16.53108891324555
 20
1.251074928723892
 30
0.0
  0
POINT
  5
291
330
285
100
AcDbEntity
  8
Defpoints
 62
     0
100
AcDbPoint
 10
9.531088913245561
 20
1.231394994481793
 30
0.0
  0
POINT
  5
292
330
285
100
AcDbEntity
  8
Defpoints
 62
     0
100
AcDbPoint
 10
9.531088913245561
 20
11.0010749287239
 30
0.0
  0
ENDBLK
  5
287
330
285
100
AcDbEntity
  8
0
100
AcDbBlockEnd
  0
BLOCK
  5
294
330
293
100
AcDbEntity
  8
0
100
AcDbBlockBegin
  2
*D16
 70
     1
 10
0.0
 20
0.0
 30
0.0
  3
*D16
  1
*D16
  0
LINE
  5
296
330
293
100
AcDbEntity
  8
치수문자_일반주서
 62
     0
370
    -2
100
AcDbLine
 10
16.53108891324555
 20
1.313574928723892
 30
0.0
 11
16.53108891324555
 21
19.0010749287239
 31
0.0
  0
LINE
  5
297
330
293
100
AcDbEntity
  8
치수문자_일반주서
 62
     0
370
    -2
100
AcDbLine
 10
-43.46891108675445
 20
2.463574928723894
 30
0.0
 11
-43.46891108675445
 21
19.0010749287239
 31
0.0
  0
LINE
  5
298
330
293
100
AcDbEntity
  8
치수문자_일반주서
 62
     0
370
    -2
100
AcDbLine
 10
14.03108891324555
 20
19.0010749287239
 30
0.0
 11
-40.96891108675445
 21
19.0010749287239
 31
0.0
  0
SOLID
  5
299
330
293
100
AcDbEntity
  8
치수문자_일반주서
 62
     0
100
AcDbTrace
 10
14.03108891324555
 20
18.58440826205723
 30
0.0
 11
14.03108891324555
 21
19.41774159539057
 31
0.0
 12
16.53108891324555
 22
19.0010749287239
 32
0.0
 13
16.53108891324555
 23
19.0010749287239
 33
0.0
  0
SOLID
  5
29A
330
293
100
AcDbEntity
  8
치수문자_일반주서
 62
     0
100
AcDbTrace
 10
-40.96891108675445
 20
19.41774159539057
 30
0.0
 11
-40.96891108675445
 21
18.58440826205723
 31
0.0
 12
-43.46891108675445
 22
19.0010749287239
 32
0.0
 13
-43.46891108675445
 23
19.0010749287239
 33
0.0
  0
MTEXT
  5
29B
330
293
100
AcDbEntity
  8
치수문자_일반주서
 62
     0
100
AcDbMText
 10
-13.46891108675445
 20
22.3760749287239
 30
0.0
 40
2.5
 41
0.0
 71
     2
 72
     1
  1
\A1;60
  7
SLDTEXTSTYLE0
 73
     1
 44
1.0
  0
POINT
  5
29C
330
293
100
AcDbEntity
  8
Defpoints
 62
     0
100
AcDbPoint
 10
16.53108891324555
 20
1.251074928723892
 30
0.0
  0
POINT
  5
29D
330
293
100
AcDbEntity
  8
Defpoints
 62
     0
100
AcDbPoint
 10
-43.46891108675445
 20
2.401074928723894
 30
0.0
  0
POINT
  5
29E
330
293
100
AcDbEntity
  8
Defpoints
 62
     0
100
AcDbPoint
 10
-43.46891108675445
 20
19.0010749287239
 30
0.0
  0
ENDBLK
  5
295
330
293
100
AcDbEntity
  8
0
100
AcDbBlockEnd
  0
BLOCK
  5
2A0
330
29F
100
AcDbEntity
  8
0
100
AcDbBlockBegin
  2
*D17
 70
     1
 10
0.0
 20
0.0
 30
0.0
  3
*D17
  1
*D17
  0
LINE
  5
2A2
330
29F
100
AcDbEntity
  8
치수문자_일반주서
 62
     0
370
    -2
100
AcDbLine
 10
17.99706071527933
 20
-3.121790367243989
 30
0.0
 11
27.92635556023673
 21
-15.33887115935724
 31
0.0
  0
MTEXT
  5
2A3
330
29F
100
AcDbEntity
  8
치수문자_일반주서
 62
     0
100
AcDbMText
 10
27.34823085595098
 20
-11.25829235374712
 30
0.0
 40
2.5
 41
0.0
 71
     5
 72
     1
  1
\A1;R0.3
  7
SLDTEXTSTYLE0
 11
0.6307042150120667
 21
-0.776023319988525
 31
0.0
 73
     1
 44
1.0
  0
LINE
  5
2A4
330
29F
100
AcDbEntity
  8
치수문자_일반주서
 62
     0
370
    -2
100
AcDbLine
 10
16.23108891324554
 20
-0.9489250712761113
 30
0.0
 11
16.42030017774916
 21
-1.181732067272677
 31
0.0
  0
SOLID
  5
2A5
330
29F
100
AcDbEntity
  8
치수문자_일반주서
 62
     0
100
AcDbTrace
 10
18.32040376527455
 20
-2.858996944322294
 30
0.0
 11
17.67371766528411
 21
-3.384583790165683
 31
0.0
 12
16.42030017774916
 22
-1.181732067272677
 32
0.0
 13
16.42030017774916
 23
-1.181732067272677
 33
0.0
  0
POINT
  5
2A6
330
29F
100
AcDbEntity
  8
Defpoints
 62
     0
100
AcDbPoint
 10
16.42030017774916
 20
-1.181732067272677
 30
0.0
  0
POINT
  5
2A7
330
29F
100
AcDbEntity
  8
Defpoints
 62
     0
100
AcDbPoint
 10
16.23108891324554
 20
-0.9489250712761113
 30
0.0
  0
ENDBLK
  5
2A1
330
29F
100
AcDbEntity
  8
0
100
AcDbBlockEnd
  0
BLOCK
  5
2AF
330
2AE
100
AcDbEntity
  8
0
100
AcDbBlockBegin
  2
*D18
 70
     1
 10
0.0
 20
0.0
 30
0.0
  3
*D18
  1
*D18
  0
LINE
  5
2B1
330
2AE
100
AcDbEntity
  8
치수문자_일반주서
 62
     0
370
    -2
100
AcDbLine
 10
17.09212152703119
 20
-3.555027313262887
 30
0.0
 11
25.15752871934631
 21
-24.8855282901764
 31
0.0
  0
MTEXT
  5
2B2
330
2AE
100
AcDbEntity
  8
치수문자_일반주서
 62
     0
100
AcDbMText
 10
25.89626066827676
 20
-20.8309473414063
 30
0.0
 40
2.5
 41
0.0
 71
     5
 72
     1
  1
\A1;R0.5
  7
SLDTEXTSTYLE0
 11
0.3536775379285471
 21
-0.9353674139955919
 31
0.0
 73
     1
 44
1.0
  0
LINE
  5
2B3
330
2AE
100
AcDbEntity
  8
치수문자_일반주서
 62
     0
370
    -2
100
AcDbLine
 10
16.03108891324555
 20
-0.7489250712761111
 30
0.0
 11
16.20792768220982
 21
-1.216608778273907
 31
0.0
  0
SOLID
  5
2B4
330
2AE
100
AcDbEntity
  8
치수문자_일반주서
 62
     0
100
AcDbTrace
 10
17.48185794952935
 20
-3.407661672459326
 30
0.0
 11
16.70238510453303
 21
-3.702392954066448
 31
0.0
 12
16.20792768220982
 22
-1.216608778273907
 32
0.0
 13
16.20792768220982
 23
-1.216608778273907
 33
0.0
  0
POINT
  5
2B5
330
2AE
100
AcDbEntity
  8
Defpoints
 62
     0
100
AcDbPoint
 10
16.20792768220982
 20
-1.216608778273907
 30
0.0
  0
POINT
  5
2B6
330
2AE
100
AcDbEntity
  8
Defpoints
 62
     0
100
AcDbPoint
 10
16.03108891324555
 20
-0.7489250712761111
 30
0.0
  0
ENDBLK
  5
2B0
330
2AE
100
AcDbEntity
  8
0
100
AcDbBlockEnd
  0
ENDSEC
  0
SECTION
  2
ENTITIES
  0
LINE
  5
D0
330
1F
100
AcDbEntity
  8
참조1
100
AcDbLine
 10
-15.77564223695981
 20
-2.499999999999974
 30
0.0
 11
-15.7756422369598
 21
-40.0
 31
0.0
  0
LINE
  5
D1
330
1F
100
AcDbEntity
  8
참조1
100
AcDbLine
 10
-15.7756422369598
 20
-40.0
 30
0.0
 11
-30.93398568371225
 21
-40.0
 31
0.0
  0
INSERT
  5
D3
330
1F
100
AcDbEntity
  8
0
  6
Continuous
 62
     7
100
AcDbBlockReference
 66
     1
  2
블럭10
 10
-29.71591516908501
 20
-52.04717430164393
 30
0.0
  0
ATTRIB
  5
D4
330
D3
100
AcDbEntity
  8
FORMAT
 62
     2
100
AcDbText
 10
-45.83517620852056
 20
-49.97180738881174
 30
0.0
 40
4.233333333333333
  1
SEME0102505E [ 4 FLUTE ]
 41
0.75
  7
SLDTEXTSTYLE0
 11
-45.83517620852056
 21
-52.08847405547841
 31
0.0
100
AcDbAttribute
  2
AUTOATTR0
 70
     0
 74
     1
  0
SEQEND
  5
D5
330
D3
100
AcDbEntity
  8
0
  6
Continuous
 62
     7
  0
HATCH
  5
D6
330
1F
100
AcDbEntity
  8
중심선
100
AcDbHatch
 10
0.0
 20
0.0
 30
0.0
210
0.0
220
0.0
230
1.0
  2
SOLID
 70
     1
 71
     0
 91
        1
 92
        0
 93
        4
 72
     1
 10
-24.00100586470416
 20
-35.8
 11
-27.44728110854144
 21
-35.8
 72
     1
 10
-27.44728110854144
 20
-35.8
 11
-29.57551096774547
 21
-38.33632558057259
 72
     1
 10
-29.57551096774547
 20
-38.33632558057259
 11
-26.12920263879504
 21
-38.3362861512701
 72
     1
 10
-26.12920263879504
 20
-38.3362861512701
 11
-24.00100586470416
 21
-35.8
 97
        0
 75
     0
 76
     1
 98
        1
 10
0.0
 20
0.0
  0
HATCH
  5
D7
330
1F
100
AcDbEntity
  8
중심선
100
AcDbHatch
 10
0.0
 20
0.0
 30
0.0
210
0.0
220
0.0
230
1.0
  2
SOLID
 70
     1
 71
     0
 91
        1
 92
        0
 93
        4
 72
     1
 10
-18.98824187366821
 20
-35.8
 11
-22.43451711750549
 21
-35.8
 72
     1
 10
-22.43451711750549
 20
-35.8
 11
-26.96565512586288
 21
-41.20000000000002
 72
     1
 10
-26.96565512586288
 20
-41.20000000000002
 11
-23.5193798820256
 21
-41.20000000000002
 72
     1
 10
-23.5193798820256
 20
-41.20000000000002
 11
-18.98824187366821
 21
-35.8
 97
        0
 75
     0
 76
     1
 98
        1
 10
0.0
 20
0.0
  0
HATCH
  5
D8
330
1F
100
AcDbEntity
  8
중심선
100
AcDbHatch
 10
0.0
 20
0.0
 30
0.0
210
0.0
220
0.0
230
1.0
  2
SOLID
 70
     1
 71
     0
 91
        1
 92
        0
 93
        4
 72
     1
 10
-13.97547788263232
 20
-35.80000000000003
 11
-17.42175312646943
 21
-35.8
 72
     1
 10
-17.42175312646943
 20
-35.8
 11
-24.47019002835868
 21
-44.20000000000002
 72
     1
 10
-24.47019002835868
 20
-44.20000000000002
 11
-21.0239147845214
 21
-44.20000000000002
 72
     1
 10
-21.0239147845214
 20
-44.20000000000002
 11
-13.97547788263232
 21
-35.80000000000003
 97
        0
 75
     0
 76
     1
 98
        1
 10
0.0
 20
0.0
  0
HATCH
  5
D9
330
1F
100
AcDbEntity
  8
중심선
100
AcDbHatch
 10
0.0
 20
0.0
 30
0.0
210
0.0
220
0.0
230
1.0
  2
SOLID
 70
     1
 71
     0
 91
        1
 92
        0
 93
        6
 72
     3
 10
-9.175587451620116
 20
-40.00000000005127
 11
3.960054785062284
 21
1.540850780301639E-10
 40
0.3939339440162633
 50
17.09539180608433
 51
320.0019657685079
 73
     0
 72
     1
 10
-7.49258779591952
 20
-38.5878940046383
 11
-5.187285922218482
 21
-36.65356729459038
 72
     3
 10
-9.175587451672962
 20
-40.00000000000015
 11
6.600054785286829
 21
-1.249000902703301E-13
 40
0.6363583540795982
 50
39.99873849337408
 51
368.4976242363725
 73
     1
 72
     1
 10
-2.750254959772352
 20
-39.03999999993002
 11
-10.49552014483704
 21
-39.03999999992999
 72
     1
 10
-10.49552014483704
 20
-39.03999999992999
 11
-10.49554518928297
 21
-40.95999999992991
 72
     1
 10
-10.49554518928297
 20
-40.95999999992991
 11
-6.054165419810936
 21
-40.95999999992988
 97
        0
 75
     0
 76
     1
 98
        1
 10
0.0
 20
0.0
  0
LINE
  5
10D
330
1F
100
AcDbEntity
  8
참조1
100
AcDbLine
 10
67.03835494594202
 20
7.440000000000002
 30
0.0
 11
67.03835494594202
 21
-7.440000000000002
 31
0.0
  0
LINE
  5
10E
330
1F
100
AcDbEntity
  8
참조1
100
AcDbLine
 10
79.73835494594202
 20
5.440000000000002
 30
0.0
 11
67.03835494594202
 21
5.440000000000002
 31
0.0
  0
SOLID
  5
10F
330
1F
100
AcDbEntity
  8
참조1
100
AcDbTrace
 10
67.03835494594202
 20
5.440000000000002
 30
0.0
 11
73.38835494594201
 21
4.424000000000002
 31
0.0
 12
73.38835494594201
 22
6.456000000000002
 32
0.0
 13
73.38835494594201
 23
6.456000000000002
 33
0.0
  0
LINE
  5
110
330
1F
100
AcDbEntity
  8
참조1
100
AcDbLine
 10
79.73835494594202
 20
-5.440000000000002
 30
0.0
 11
67.03835494594202
 21
-5.440000000000002
 31
0.0
  0
SOLID
  5
111
330
1F
100
AcDbEntity
  8
참조1
100
AcDbTrace
 10
67.03835494594202
 20
-5.440000000000002
 30
0.0
 11
73.38835494594201
 21
-6.456000000000002
 31
0.0
 12
73.38835494594201
 22
-4.424000000000002
 32
0.0
 13
73.38835494594201
 23
-4.424000000000002
 33
0.0
  0
MTEXT
  5
112
330
1F
100
AcDbEntity
  8
참조1
100
AcDbMText
 10
76.4358450384123
 20
10.98821664464994
 30
0.0
 40
3.5
 41
0.0
 71
     1
 72
     1
  1
A
  7
SLDTEXTSTYLE0
 73
     1
 44
1.0
  0
MTEXT
  5
113
330
1F
100
AcDbEntity
  8
참조1
100
AcDbMText
 10
76.4358450384123
 20
0.1082166446499328
 30
0.0
 40
3.5
 41
0.0
 71
     1
 72
     1
  1
A
  7
SLDTEXTSTYLE0
 73
     1
 44
1.0
  0
LINE
  5
22A
330
1F
100
AcDbEntity
  8
0
  6
Continuous
 62
     1
370
    15
100
AcDbLine
 10
11.29246401969936
 20
-0.3509606897121706
 30
0.0
 11
11.33610422699338
 21
-0.3738307906011897
 31
0.0
1001
PE_URL
1000

  0
LINE
  5
22B
330
1F
100
AcDbEntity
  8
0
  6
Continuous
 62
     1
370
    15
100
AcDbLine
 10
12.6947365161219
 20
0.3560696687832223
 30
0.0
 11
12.65700723452365
 21
0.3760190818015676
 31
0.0
1001
PE_URL
1000

  0
LINE
  5
22C
330
1F
100
AcDbEntity
  8
0
  6
Continuous
 62
     1
370
    15
100
AcDbLine
 10
13.31582138258727
 20
-1.248925071276108
 30
0.0
 11
14.07825885581786
 21
-1.248925071276108
 31
0.0
1001
PE_URL
1000

  0
LINE
  5
22D
330
1F
100
AcDbEntity
  8
0
  6
Continuous
 62
     1
370
    15
100
AcDbLine
 10
10.67803077534693
 20
1.251074928723895
 30
0.0
 11
9.915840138258467
 21
1.251074928723895
 31
0.0
1001
PE_URL
1000

  0
LINE
  5
22E
330
1F
100
AcDbEntity
  8
0
  6
Continuous
 62
     1
370
    15
100
AcDbLine
 10
14.07825885581786
 20
1.251074928723895
 30
0.0
 11
13.31582138258729
 21
1.251074928723895
 31
0.0
1001
PE_URL
1000

  0
LINE
  5
22F
330
1F
100
AcDbEntity
  8
0
  6
Continuous
 62
     1
370
    15
100
AcDbLine
 10
9.915840138258467
 20
-1.248925071276108
 30
0.0
 11
10.67803077534692
 21
-1.248925071276108
 31
0.0
1001
PE_URL
1000

  0
LINE
  5
230
330
1F
100
AcDbEntity
  8
외형선
  6
Continuous
370
    15
100
AcDbLine
 10
-42.86891108675445
 20
-2.998925071276108
 30
0.0
 11
1.999999999999993
 21
-2.998925071276108
 31
0.0
  0
LINE
  5
231
330
1F
100
AcDbEntity
  8
외형선
  6
Continuous
370
    15
100
AcDbLine
 10
1.999999999999993
 20
3.001074928723895
 30
0.0
 11
-42.86891108675445
 21
3.001074928723895
 31
0.0
  0
LINE
  5
232
330
1F
100
AcDbEntity
  8
외형선
  6
Continuous
370
    15
100
AcDbLine
 10
1.999999999999993
 20
-2.998925071276112
 30
0.0
 11
8.531024782896026
 21
-1.248942254951469
 31
0.0
  0
LINE
  5
233
330
1F
100
AcDbEntity
  8
외형선
  6
Continuous
370
    15
100
AcDbLine
 10
8.531024782896026
 20
1.251092112399256
 30
0.0
 11
1.999999999999993
 21
3.001074928723899
 31
0.0
  0
LINE
  5
234
330
1F
100
AcDbEntity
  8
외형선
  6
Continuous
370
    15
100
AcDbLine
 10
-42.86891108675445
 20
3.001074928723892
 30
0.0
 11
-43.46891108675445
 21
2.401074928723894
 31
0.0
  0
LINE
  5
235
330
1F
100
AcDbEntity
  8
외형선
  6
Continuous
370
    15
100
AcDbLine
 10
-43.46891108675445
 20
-2.398925071276109
 30
0.0
 11
-42.86891108675445
 21
-2.998925071276107
 31
0.0
  0
SPLINE
  5
236
330
1F
100
AcDbEntity
  8
0
  6
Continuous
 62
     1
370
    15
100
AcDbSpline
210
0.0
220
0.0
230
1.0
 70
     8
 71
     3
 72
    15
 73
    11
 74
     0
 42
0.000000001
 43
0.00000001
 40
0.0
 40
0.0
 40
0.0
 40
0.0
 40
0.1279589344161769
 40
0.2559176463078738
 40
0.3838761424079424
 40
0.5118344294554206
 40
0.6397925141953522
 40
0.7654623947063542
 40
0.8911301346751271
 40
1.0
 40
1.0
 40
1.0
 40
1.0
 10
9.531088913245533
 20
0.6326762636076495
 30
0.0
 10
9.781236007096005
 20
0.5006786895408517
 30
0.0
 10
10.28152975978352
 20
0.2366837709550556
 30
0.0
 10
11.03196905885641
 20
-0.2074483940007958
 30
0.0
 10
11.782408290718
 20
-0.6214441303146394
 30
0.0
 10
12.53284067698832
 20
-0.9626112170628485
 30
0.0
 10
13.27881876825328
 20
-1.188261634522169
 30
0.0
 10
14.02024549233352
 20
-1.270865955680911
 30
0.0
 10
14.72437516278031
 20
-1.220922178335993
 30
0.0
 10
15.18284217024333
 20
-1.0819502229335
 30
0.0
 10
15.39565768567383
 20
-1.017440917273706
 30
0.0
1001
PE_URL
1000

  0
SPLINE
  5
237
330
1F
100
AcDbEntity
  8
외형선
  6
Continuous
370
    15
100
AcDbSpline
210
0.0
220
0.0
230
1.0
 70
    24
 71
     3
 72
    12
 73
     8
 74
     0
 42
0.000000001
 43
0.00000001
 40
0.0
 40
0.0
 40
0.0
 40
0.0
 40
0.2004860767280869
 40
0.4062632647829877
 40
0.615955798715442
 40
0.8317294303375165
 40
1.0
 40
1.0
 40
1.0
 40
1.0
 10
9.531088913245547
 20
1.231394994481793
 30
0.0
 10
9.531088913245561
 20
1.191750679971484
 30
0.0
 10
9.53108891324559
 20
1.11141578137957
 30
0.0
 10
9.531088913245505
 20
0.9894842194186779
 30
0.0
 10
9.531088913245533
 20
0.8690896320673396
 30
0.0
 10
9.531088913245533
 20
0.7614756033745991
 30
0.0
 10
9.531088913245533
 20
0.7006811011955278
 30
0.0
 10
9.531088913245547
 20
0.6740437363302298
 30
0.0
  0
SPLINE
  5
238
330
1F
100
AcDbEntity
  8
0
  6
Continuous
 62
     1
370
    15
100
AcDbSpline
210
0.0
220
0.0
230
1.0
 70
     8
 71
     3
 72
    36
 73
    32
 74
     0
 42
0.000000001
 43
0.00000001
 40
0.0
 40
0.0
 40
0.0
 40
0.0
 40
0.0625000000000007
 40
0.0625000000000007
 40
0.1250000000000015
 40
0.1250000000000015
 40
0.1875000000000022
 40
0.1875000000000022
 40
0.2500000000000029
 40
0.2500000000000029
 40
0.3125000000000037
 40
0.3125000000000037
 40
0.3750000000000044
 40
0.3750000000000044
 40
0.4375000000000052
 40
0.4375000000000052
 40
0.5000000000000059
 40
0.5000000000000059
 40
0.5625000000000067
 40
0.5625000000000067
 40
0.6250000000000073
 40
0.6250000000000073
 40
0.7500000000000064
 40
0.7500000000000064
 40
0.8125000000000049
 40
0.8125000000000049
 40
0.8750000000000033
 40
0.8750000000000033
 40
0.9375000000000017
 40
0.9375000000000017
 40
1.0
 40
1.0
 40
1.0
 40
1.0
 10
16.16332949376289
 20
-1.231120497285561
 30
0.0
 10
16.0905619443679
 20
-1.235819213286728
 30
0.0
 10
15.94931664347104
 20
-1.17385013047385
 30
0.0
 10
15.67321329326868
 20
-1.108642589650668
 30
0.0
 10
15.53358766726007
 20
-1.068815531758762
 30
0.0
 10
15.25226440460695
 20
-0.9760459731098958
 30
0.0
 10
15.11293742091919
 20
-0.9233794929147905
 30
0.0
 10
14.83656493241769
 20
-0.8076017604421182
 30
0.0
 10
14.69526659160343
 20
-0.7438635455666383
 30
0.0
 10
14.41427925336516
 20
-0.6080752834710683
 30
0.0
 10
14.27693770617973
 20
-0.5364725149926386
 30
0.0
 10
13.99844002841427
 20
-0.3868579453245804
 30
0.0
 10
13.85683097104459
 20
-0.3087246517623328
 30
0.0
 10
13.57678240079662
 20
-0.1501370788814729
 30
0.0
 10
13.44010808685325
 20
-0.0700450429238604
 30
0.0
 10
13.16007034291908
 20
0.091302907194807
 30
0.0
 10
13.01845993434674
 20
0.1722163396574174
 30
0.0
 10
12.73994627123135
 20
0.3300210096872433
 30
0.0
 10
12.60261625911907
 20
0.4070142845855962
 30
0.0
 10
12.32163451099955
 20
0.5561367290139749
 30
0.0
 10
12.18033212649545
 20
0.6277976521979749
 30
0.0
 10
11.76574184690883
 20
0.8282802618449736
 30
0.0
 10
11.48170256088618
 20
0.9454690893941979
 30
0.0
 10
11.06757996805653
 20
1.080674467723085
 30
0.0
 10
10.92633902920004
 20
1.119625222883943
 30
0.0
 10
10.64528012691655
 20
1.182884415393609
 30
0.0
 10
10.50777148129806
 20
1.207112719276108
 30
0.0
 10
10.229495954275
 20
1.240546784840195
 30
0.0
 10
10.08790764556628
 20
1.249681287582639
 30
0.0
 10
9.807716145523663
 20
1.252171036367496
 30
0.0
 10
9.671031800355571
 20
1.245651835846818
 30
0.0
 10
9.531088913245789
 20
1.231394994480038
 30
0.0
1001
PE_URL
1000

  0
SPLINE
  5
239
330
1F
100
AcDbEntity
  8
0
  6
Continuous
 62
     1
370
    15
100
AcDbSpline
210
0.0
220
0.0
230
1.0
 70
     8
 71
     3
 72
    11
 73
     7
 74
     0
 42
0.000000001
 43
0.00000001
 40
0.0
 40
0.0
 40
0.0
 40
0.0
 40
0.3040006172112719
 40
0.6080007057562238
 40
0.9120002816305322
 40
1.0
 40
1.0
 40
1.0
 40
1.0
 10
9.531088913245519
 20
-1.077618611524239
 30
0.0
 10
9.781235988155679
 20
-1.138456607003041
 30
0.0
 10
10.28152970296262
 20
-1.260132492161523
 30
0.0
 10
11.03196928613936
 20
-1.250045802744003
 30
0.0
 10
11.60467236763701
 20
-1.160856624879798
 30
0.0
 10
11.92722884076965
 20
-1.0384426703791
 30
0.0
 10
11.99963937622399
 20
-1.010962025187286
 30
0.0
1001
PE_URL
1000

  0
SPLINE
  5
23A
330
1F
100
AcDbEntity
  8
외형선
  6
Continuous
370
    15
100
AcDbSpline
210
0.0
220
0.0
230
1.0
 70
    24
 71
     3
 72
    21
 73
    17
 74
     0
 42
0.000000001
 43
0.00000001
 40
0.0
 40
0.0
 40
0.0
 40
0.0
 40
0.0239770945435771
 40
0.0974083115451039
 40
0.1729690388142582
 40
0.2464002558157865
 40
0.3219609830849434
 40
0.3953922000865716
 40
0.4709529273556272
 40
0.5443841443570556
 40
0.619944871626103
 40
0.6933760886277335
 40
0.7689368158970006
 40
0.8423680328984052
 40
0.917928760167684
 40
1.0
 40
1.0
 40
1.0
 40
1.0
 10
9.531088913245533
 20
0.2184303811412036
 30
0.0
 10
9.531088913245547
 20
0.2171321848836509
 30
0.0
 10
9.531088913245547
 20
0.2118581886839603
 30
0.0
 10
9.53108891324549
 20
0.1816131359032376
 30
0.0
 10
9.531088913245561
 20
0.1281394339381663
 30
0.0
 10
9.531088913245533
 20
0.0541855228504726
 30
0.0
 10
9.531088913245547
 20
-0.0350000288098506
 30
0.0
 10
9.531088913245533
 20
-0.1389876131362691
 30
0.0
 10
9.531088913245533
 20
-0.2528318743237623
 30
0.0
 10
9.531088913245547
 20
-0.3753925516781091
 30
0.0
 10
9.53108891324559
 20
-0.500992968172902
 30
0.0
 10
9.531088913245533
 20
-0.6283124547001524
 30
0.0
 10
9.531088913245533
 20
-0.7515618295002344
 30
0.0
 10
9.53108891324559
 20
-0.8690716356067263
 30
0.0
 10
9.531088913245533
 20
-0.9810764414248769
 30
0.0
 10
9.531088913245519
 20
-1.044563836423375
 30
0.0
 10
9.531088913245519
 20
-1.077618611524244
 30
0.0
  0
SPLINE
  5
23B
330
1F
100
AcDbEntity
  8
0
  6
Continuous
 62
     1
370
    15
100
AcDbSpline
210
0.0
220
0.0
230
1.0
 70
     8
 71
     3
 72
    13
 73
     9
 74
     0
 42
0.000000001
 43
0.00000001
 40
0.0
 40
0.0
 40
0.0
 40
0.0
 40
0.0228322953046382
 40
0.2211002262651856
 40
0.4158201377921767
 40
0.6105430960583691
 40
0.8052695631755077
 40
1.0
 40
1.0
 40
1.0
 40
1.0
 10
13.31582138258727
 20
-1.24132650188557
 30
0.0
 10
13.28701546386915
 20
-1.24378969948696
 30
0.0
 10
13.00806868863786
 20
-1.267642472050401
 30
0.0
 10
12.48344236045887
 20
-1.171345009576202
 30
0.0
 10
11.74203043479768
 20
-0.9532806281420889
 30
0.0
 10
11.00506134318515
 20
-0.6130775168030063
 30
0.0
 10
10.26808254353252
 20
-0.2044079117874471
 30
0.0
 10
9.776755126030189
 20
0.0798700773227896
 30
0.0
 10
9.531088913245789
 20
0.2220105206908727
 30
0.0
1001
PE_URL
1000

  0
LINE
  5
23C
330
1F
100
AcDbEntity
  8
0
  6
Continuous
 62
     1
370
    15
100
AcDbLine
 10
16.53108891324555
 20
-0.7489250712761111
 30
0.0
 11
16.53108891324555
 21
0.1130525931920481
 31
0.0
1001
PE_URL
1000

  0
SPLINE
  5
23D
330
1F
100
AcDbEntity
  8
0
  6
Continuous
 62
     1
370
    15
100
AcDbSpline
210
0.0
220
0.0
230
1.0
 70
     8
 71
     3
 72
     8
 73
     4
 74
     0
 42
0.000000001
 43
0.00000001
 40
0.0
 40
0.0
 40
0.0
 40
0.0
 40
0.4999788014248768
 40
0.4999788014248768
 40
0.4999788014248768
 40
0.4999788014248768
 10
16.23108891324555
 20
-1.046859828772714
 30
0.0
 10
16.30713436351067
 20
-1.070687872388601
 30
0.0
 10
16.37712153251229
 20
-1.07284384793557
 30
0.0
 10
16.43376262042086
 20
-1.045326632590649
 30
0.0
1001
PE_URL
1000

  0
SPLINE
  5
23E
330
1F
100
AcDbEntity
  8
0
  6
Continuous
 62
     1
370
    15
100
AcDbSpline
210
0.0
220
0.0
230
1.0
 70
     8
 71
     3
 72
    15
 73
    11
 74
     0
 42
0.000000001
 43
0.00000001
 40
0.0
 40
0.0
 40
0.0
 40
0.0
 40
0.0637354862671271
 40
0.1988705378800778
 40
0.334005368715718
 40
0.4691399858973861
 40
0.601858064857668
 40
0.7345738832233535
 40
0.8672877562774847
 40
1.0
 40
1.0
 40
1.0
 40
1.0
 10
10.67803077534693
 20
1.232410039637625
 30
0.0
 10
10.79601039292455
 20
1.236341853467756
 30
0.0
 10
11.16413608523059
 20
1.248610088591374
 30
0.0
 10
11.78240829959054
 20
1.108856726484859
 30
0.0
 10
12.53284067711193
 20
0.8375865388705499
 30
0.0
 10
13.27881875894293
 20
0.4611538437155414
 30
0.0
 10
14.02024552868036
 20
0.035180883401873
 30
0.0
 10
14.75720772812253
 20
-0.390387554515355
 30
0.0
 10
15.49415210873845
 20
-0.7795105292335673
 30
0.0
 10
15.98544431701669
 20
-0.9577437602907395
 30
0.0
 10
16.23108891324483
 20
-1.046859828772481
 30
0.0
1001
PE_URL
1000

  0
SPLINE
  5
23F
330
1F
100
AcDbEntity
  8
0
  6
Continuous
 62
     1
370
    15
100
AcDbSpline
210
0.0
220
0.0
230
1.0
 70
     8
 71
     3
 72
    13
 73
     9
 74
     0
 42
0.000000001
 43
0.00000001
 40
0.0
 40
0.0
 40
0.0
 40
0.0
 40
0.1773423772889006
 40
0.3546849021932487
 40
0.5320275841503408
 40
0.7093704325929288
 40
0.8867134569489853
 40
1.0
 40
1.0
 40
1.0
 40
1.0
 10
16.23108891324483
 20
0.2793794176074016
 30
0.0
 10
15.98094884086741
 20
0.4169344903529044
 30
0.0
 10
15.48066848790209
 20
0.6920447503413776
 30
0.0
 10
14.73024791112821
 20
1.013329950867035
 30
0.0
 10
13.97982480721682
 20
1.217884441007779
 30
0.0
 10
13.22940737360521
 20
1.272216360870875
 30
0.0
 10
12.56931852519872
 20
1.203103630416262
 30
0.0
 10
12.15941755729828
 20
1.066398958235848
 30
0.0
 10
11.999639376224
 20
1.013111882635073
 30
0.0
1001
PE_URL
1000

  0
SPLINE
  5
240
330
1F
100
AcDbEntity
  8
0
  6
Continuous
 62
     1
370
    15
100
AcDbSpline
210
0.0
220
0.0
230
1.0
 70
     8
 71
     3
 72
    10
 73
     6
 74
     0
 42
0.000000001
 43
0.00000001
 40
0.0
 40
0.0
 40
0.0
 40
0.0
 40
0.5
 40
0.5
 40
1.0
 40
1.0
 40
1.0
 40
1.0
 10
16.53108891324555
 20
0.1130525931920481
 30
0.0
 10
16.53108891324553
 20
0.1284492012448268
 30
0.0
 10
16.49479039312315
 20
0.1450839851733257
 30
0.0
 10
16.37930541830752
 20
0.199997868744525
 30
0.0
 10
16.30294382878667
 20
0.2391144808542922
 30
0.0
 10
16.23108891324552
 20
0.2793794176070072
 30
0.0
1001
PE_URL
1000

  0
LINE
  5
241
330
1F
100
AcDbEntity
  8
외형선
  6
Continuous
370
    15
100
AcDbLine
 10
9.531088913245547
 20
0.2220105206907803
 30
0.0
 11
9.531088913245533
 21
0.632676263607646
 31
0.0
  0
SPLINE
  5
242
330
1F
100
AcDbEntity
  8
0
  6
Continuous
 62
     1
370
    15
100
AcDbSpline
210
0.0
220
0.0
230
1.0
 70
     8
 71
     3
 72
    12
 73
     8
 74
     0
 42
0.000000001
 43
0.00000001
 40
0.0
 40
0.0
 40
0.0
 40
0.0
 40
0.5000000000000131
 40
0.5000000000000131
 40
0.7500000000000066
 40
0.7500000000000066
 40
1.0
 40
1.0
 40
1.0
 40
1.0
 10
16.23108891324555
 20
0.6824945821171013
 30
0.0
 10
16.30713758775776
 20
0.6458485979638944
 30
0.0
 10
16.37712746726609
 20
0.5879277056515697
 30
0.0
 10
16.46209100374173
 20
0.4967011894193973
 30
0.0
 10
16.48640714737395
 20
0.4661059618415937
 30
0.0
 10
16.52111194423916
 20
0.4126968025078348
 30
0.0
 10
16.53108891324556
 20
0.3903502371789216
 30
0.0
 10
16.53108891324555
 20
0.375788148853287
 30
0.0
1001
PE_URL
1000

  0
LINE
  5
243
330
1F
100
AcDbEntity
  8
0
  6
Continuous
 62
     1
370
    15
100
AcDbLine
 10
16.53108891324555
 20
0.1130525931920481
 30
0.0
 11
16.53108891324555
 21
0.375788148853287
 31
0.0
1001
PE_URL
1000

  0
SPLINE
  5
244
330
1F
100
AcDbEntity
  8
0
  6
Continuous
 62
     1
370
    15
100
AcDbSpline
210
0.0
220
0.0
230
1.0
 70
     8
 71
     3
 72
    10
 73
     6
 74
     0
 42
0.000000001
 43
0.00000001
 40
0.0
 40
0.0
 40
0.0
 40
0.0
 40
0.315375274545445
 40
0.6576897385744425
 40
1.0
 40
1.0
 40
1.0
 40
1.0
 10
14.07825885581786
 20
1.24586229855246
 30
0.0
 10
14.30457609140681
 20
1.235807569826498
 30
0.0
 10
14.77654246138913
 20
1.214839242754103
 30
0.0
 10
15.49415228232763
 20
1.014226485120211
 30
0.0
 10
15.98544437487954
 20
0.7930714305945479
 30
0.0
 10
16.23108891324483
 20
0.6824945821174531
 30
0.0
1001
PE_URL
1000

  0
LINE
  5
245
330
1F
100
AcDbEntity
  8
0
  6
Continuous
 62
     1
370
    15
100
AcDbLine
 10
16.53108891324555
 20
0.375788148853287
 30
0.0
 11
16.53108891324555
 21
0.7510749287238909
 31
0.0
1001
PE_URL
1000

  0
SPLINE
  5
246
330
1F
100
AcDbEntity
  8
0
  6
Continuous
 62
     1
370
    15
100
AcDbSpline
210
0.0
220
0.0
230
1.0
 70
     8
 71
     3
 72
     9
 73
     5
 74
     0
 42
0.000000001
 43
0.00000001
 40
0.0811071257782941
 40
0.0811071257782941
 40
0.0811071257782941
 40
0.0811071257782941
 40
0.8982429177798938
 40
1.0
 40
1.0
 40
1.0
 40
1.0
 10
16.16332949376286
 20
1.233270354733331
 30
0.0
 10
15.93577592827477
 20
1.175622312172214
 30
0.0
 10
15.67988534591558
 20
1.132636620812964
 30
0.0
 10
15.4239947048545
 20
1.030861255244975
 30
0.0
 10
15.39565768567383
 20
1.019590774721493
 30
0.0
1001
PE_URL
1000

  0
LINE
  5
247
330
1F
100
AcDbEntity
  8
0
  6
Continuous
 62
     1
370
    15
100
AcDbLine
 10
9.915840138258467
 20
-1.23089676131902
 30
0.0
 11
9.531088913245789
 21
-1.229245137032251
 31
0.0
1001
PE_URL
1000

  0
LINE
  5
249
330
1F
100
AcDbEntity
  8
외형선
  6
Continuous
370
    15
100
AcDbLine
 10
9.531088913245547
 20
-1.229245137034004
 30
0.0
 11
9.531088913245519
 21
-1.077618611524244
 31
0.0
  0
LINE
  5
24A
330
1F
100
AcDbEntity
  8
외형선
  6
Continuous
370
    15
100
AcDbLine
 10
1.999999999999993
 20
0.0010749287238934
 30
0.0
 11
1.999999999999993
 21
3.001074928723895
 31
0.0
  0
LINE
  5
24B
330
1F
100
AcDbEntity
  8
외형선
  6
Continuous
370
    15
100
AcDbLine
 10
1.999999999999993
 20
-2.998925071276108
 30
0.0
 11
1.999999999999993
 21
0.0010749287238934
 31
0.0
  0
LINE
  5
24C
330
1F
100
AcDbEntity
  8
외형선
  6
Continuous
370
    15
100
AcDbLine
 10
-42.86891108675445
 20
0.0010749287238934
 30
0.0
 11
-42.86891108675445
 21
3.001074928723895
 31
0.0
  0
LINE
  5
24D
330
1F
100
AcDbEntity
  8
외형선
  6
Continuous
370
    15
100
AcDbLine
 10
-42.86891108675445
 20
-2.998925071276108
 30
0.0
 11
-42.86891108675445
 21
0.0010749287238934
 31
0.0
  0
LINE
  5
24E
330
1F
100
AcDbEntity
  8
외형선
  6
Continuous
370
    15
100
AcDbLine
 10
8.531024782896026
 20
1.046907082782628
 30
0.0
 11
8.531024782896026
 21
1.251092112399256
 31
0.0
  0
LINE
  5
24F
330
1F
100
AcDbEntity
  8
외형선
  6
Continuous
370
    15
100
AcDbLine
 10
8.53108891324554
 20
0.7466680359791873
 30
0.0
 11
8.53108891324554
 21
1.046881205253353
 31
0.0
  0
LINE
  5
250
330
1F
100
AcDbEntity
  8
외형선
  6
Continuous
370
    15
100
AcDbLine
 10
8.531024782896026
 20
-0.6835987636439018
 30
0.0
 11
8.531024782896026
 21
0.7466878829812913
 31
0.0
  0
LINE
  5
251
330
1F
100
AcDbEntity
  8
외형선
  6
Continuous
370
    15
100
AcDbLine
 10
8.53108891324554
 20
-1.002216327476829
 30
0.0
 11
8.53108891324554
 21
-0.6836069185391853
 31
0.0
  0
LINE
  5
252
330
1F
100
AcDbEntity
  8
외형선
  6
Continuous
370
    15
100
AcDbLine
 10
8.531024782896026
 20
-1.248942254951469
 30
0.0
 11
8.531024782896026
 21
-1.002221778101783
 31
0.0
  0
LINE
  5
253
330
1F
100
AcDbEntity
  8
외형선
  6
Continuous
370
    15
100
AcDbLine
 10
-43.46891108675445
 20
0.0010749287238934
 30
0.0
 11
-43.46891108675445
 21
2.401074928723894
 31
0.0
  0
LINE
  5
254
330
1F
100
AcDbEntity
  8
외형선
  6
Continuous
370
    15
100
AcDbLine
 10
-43.46891108675445
 20
-2.398925071276109
 30
0.0
 11
-43.46891108675445
 21
0.0010749287238934
 31
0.0
  0
SPLINE
  5
255
330
1F
100
AcDbEntity
  8
외형선
  6
Continuous
370
    15
100
AcDbSpline
210
0.0
220
0.0
230
1.0
 70
    24
 71
     3
 72
    15
 73
    11
 74
     0
 42
0.000000001
 43
0.00000001
 40
0.0
 40
0.0
 40
0.0
 40
0.0
 40
0.0513901201093911
 40
0.1999006910939213
 40
0.3484112620784384
 40
0.4969218330629807
 40
0.6454324040475058
 40
0.7939429750320393
 40
0.9424535460165314
 40
1.0
 40
1.0
 40
1.0
 40
1.0
 10
9.531088913245547
 20
-1.077618611524249
 30
0.0
 10
9.531088913245561
 20
-1.057340143266604
 30
0.0
 10
9.531088913245576
 20
-0.9784596150561065
 30
0.0
 10
9.531088913245547
 20
-0.8055601963356089
 30
0.0
 10
9.531088913245533
 20
-0.555179557777203
 30
0.0
 10
9.531088913245533
 20
-0.3006833020931516
 30
0.0
 10
9.531088913245533
 20
-0.0699191297072925
 30
0.0
 10
9.531088913245505
 20
0.1046577313677375
 30
0.0
 10
9.531088913245561
 20
0.2030349061150609
 30
0.0
 10
9.531088913245576
 20
0.2094817866224936
 30
0.0
 10
9.531088913245561
 20
0.2112822353697066
 30
0.0
  0
SPLINE
  5
256
330
1F
100
AcDbEntity
  8
외형선
  6
Continuous
370
    15
100
AcDbSpline
210
0.0
220
0.0
230
1.0
 70
     8
 71
     3
 72
    10
 73
     6
 74
     0
 42
0.000000001
 43
0.00000001
 40
0.0
 40
0.0
 40
0.0
 40
0.0
 40
0.5
 40
0.5
 40
1.0
 40
1.0
 40
1.0
 40
1.0
 10
9.531088913245547
 20
-1.077618611524251
 30
0.0
 10
9.364251310636568
 20
-1.029028960177476
 30
0.0
 10
9.19502939775034
 20
-0.9705126747938664
 30
0.0
 10
8.865136035399459
 20
-0.8384356677659639
 30
0.0
 10
8.698608645150259
 20
-0.7641668729392475
 30
0.0
 10
8.531024782896026
 20
-0.6835915929712542
 30
0.0
  0
SPLINE
  5
257
330
1F
100
AcDbEntity
  8
외형선
  6
Continuous
370
    15
100
AcDbSpline
210
0.0
220
0.0
230
1.0
 70
     8
 71
     3
 72
    10
 73
     6
 74
     0
 42
0.000000001
 43
0.00000001
 40
0.0
 40
0.0
 40
0.0
 40
0.0
 40
0.5
 40
0.5
 40
1.0
 40
1.0
 40
1.0
 40
1.0
 10
9.531088913245533
 20
0.222010520691013
 30
0.0
 10
9.36425131063654
 20
0.3166601354690304
 30
0.0
 10
9.19502939775031
 20
0.409758496659844
 30
0.0
 10
8.86513603539943
 20
0.5855890419436811
 30
0.0
 10
8.698608645150266
 20
0.6693868932709641
 30
0.0
 10
8.531024782896033
 20
0.7466847647379495
 30
0.0
  0
SPLINE
  5
258
330
1F
100
AcDbEntity
  8
외형선
  6
Continuous
370
    15
100
AcDbSpline
210
0.0
220
0.0
230
1.0
 70
     8
 71
     3
 72
    10
 73
     6
 74
     0
 42
0.000000001
 43
0.00000001
 40
0.0
 40
0.0
 40
0.0
 40
0.0
 40
0.5
 40
0.5
 40
1.0
 40
1.0
 40
1.0
 40
1.0
 10
9.531088913245547
 20
0.6326762636076353
 30
0.0
 10
9.364251310636568
 20
0.7156611151838632
 30
0.0
 10
9.19502939775034
 20
0.7933470605559592
 30
0.0
 10
8.865136035399459
 20
0.9321493406633223
 30
0.0
 10
8.698608645150259
 20
0.994140869233842
 30
0.0
 10
8.531024782896026
 20
1.046891238632025
 30
0.0
  0
SPLINE
  5
259
330
1F
100
AcDbEntity
  8
외형선
  6
Continuous
370
    15
100
AcDbSpline
210
0.0
220
0.0
230
1.0
 70
     8
 71
     3
 72
     9
 73
     5
 74
     0
 42
0.000000001
 43
0.00000001
 40
0.0
 40
0.0
 40
0.0
 40
0.0
 40
0.5980472285641213
 40
1.0
 40
1.0
 40
1.0
 40
1.0
 10
9.531088913245533
 20
1.231394994480013
 30
0.0
 10
9.34433689349283
 20
1.205716515746271
 30
0.0
 10
9.03206720836932
 20
1.162779306931856
 30
0.0
 10
8.719971537455493
 20
1.063132614242651
 30
0.0
 10
8.594523817578526
 20
1.023079349951804
 30
0.0
  0
SPLINE
  5
25A
330
1F
100
AcDbEntity
  8
외형선
  6
Continuous
370
    15
100
AcDbSpline
210
0.0
220
0.0
230
1.0
 70
    24
 71
     3
 72
    13
 73
     9
 74
     0
 42
0.000000001
 43
0.00000001
 40
0.0
 40
0.0
 40
0.0
 40
0.0
 40
0.0817547671100694
 40
0.2911447283062056
 40
0.5066070125621116
 40
0.715996973758348
 40
0.9314592580143629
 40
1.0
 40
1.0
 40
1.0
 40
1.0
 10
9.531088913245533
 20
0.6740337363302373
 30
0.0
 10
9.531088913245519
 20
0.6863601696587089
 30
0.0
 10
9.531088913245505
 20
0.7302570115097886
 30
0.0
 10
9.531088913245547
 20
0.8199029278192249
 30
0.0
 10
9.531088913245576
 20
0.9379297191395999
 30
0.0
 10
9.531088913245576
 20
1.063522419353056
 30
0.0
 10
9.531088913245519
 20
1.161903226495909
 30
0.0
 10
9.531088913245576
 20
1.217884566077512
 30
0.0
 10
9.531088913245576
 20
1.23139499448051
 30
0.0
  0
SPLINE
  5
25B
330
1F
100
AcDbEntity
  8
외형선
  6
Continuous
370
    15
100
AcDbSpline
210
0.0
220
0.0
230
1.0
 70
     8
 71
     3
 72
    10
 73
     6
 74
     0
 42
0.000000001
 43
0.00000001
 40
0.0
 40
0.0
 40
0.0
 40
0.0
 40
0.5
 40
0.5
 40
1.0
 40
1.0
 40
1.0
 40
1.0
 10
9.531088913245533
 20
-1.229245137032224
 30
0.0
 10
9.36425131063654
 20
-1.212248365824085
 30
0.0
 10
9.19502939775031
 20
-1.184106636896438
 30
0.0
 10
8.86513603539943
 20
-1.107988123421476
 30
0.0
 10
8.698608645150266
 20
-1.05964845428263
 30
0.0
 10
8.531024782896033
 20
-1.002202686116137
 30
0.0
  0
LINE
  5
25C
330
1F
100
AcDbEntity
  8
외형선
  6
Continuous
370
    15
100
AcDbLine
 10
8.531024782896026
 20
-1.04474138118424
 30
0.0
 11
8.594523817578526
 21
-1.020929492504019
 31
0.0
  0
LINE
  5
25D
330
1F
100
AcDbEntity
  8
중심선
100
AcDbLine
 10
-44.96891108675445
 20
0.0010749287238934
 30
0.0
 11
18.03108891324555
 21
0.0010749287238898
 31
0.0
  0
CIRCLE
  5
25E
330
1F
100
AcDbEntity
  8
해칭선
100
AcDbCircle
 10
0.0
 20
0.0
 30
0.0
 40
3.000000000000001
  0
DIMENSION
  5
25F
330
1F
100
AcDbEntity
  8
치수문자_일반주서
100
AcDbDimension
  2
*D13
 10
24.53108891324554
 20
-1.24892507127608
 30
0.0
 11
24.5310889132455
 21
9.93857492872393
 31
0.0
 70
   160
  1
%%c<>
 71
     2
 42
2.500000000000002
 52
-270.0
  3
SLDDIMSTYLE0
100
AcDbAlignedDimension
 13
16.53108891324555
 23
1.251074928723892
 33
0.0
 14
16.53108891324555
 24
-1.24892507127611
 34
0.0
 50
90.0000000000002
100
AcDbRotatedDimension
1001
PE_URL
1000

1001
ACAD
1000
DSTYLE
1002
{
1070
    41
1040
2.5
1070
   271
1070
     1
1070
   140
1040
2.5
1002
}
  0
DIMENSION
  5
260
330
1F
100
AcDbEntity
  8
치수문자_일반주서
100
AcDbDimension
  2
*D14
 10
-51.46891108675443
 20
-2.99892507127614
 30
0.0
 11
-51.46891108675448
 21
10.43857492872387
 31
0.0
 70
   160
  1
%%c<>
 71
     2
 42
6.000000000000004
 52
-270.0
  3
SLDDIMSTYLE0
100
AcDbAlignedDimension
 13
-42.86891108675446
 23
3.001074928723895
 33
0.0
 14
-42.86891108675446
 24
-2.998925071276108
 34
0.0
 50
90.0000000000002
100
AcDbRotatedDimension
1001
PE_URL
1000

1001
ACAD
1000
DSTYLE
1002
{
1070
    41
1040
2.5
1070
   271
1070
     0
1070
   140
1040
2.5
1002
}
  0
DIMENSION
  5
261
330
1F
100
AcDbEntity
  8
치수문자_일반주서
100
AcDbDimension
  2
*D15
 10
9.531088913245561
 20
11.0010749287239
 30
0.0
 11
13.03108891324555
 21
11.0010749287239
 31
0.0
 70
   160
  1
<>
 71
     2
 42
6.999999999999986
  3
SLDDIMSTYLE0
100
AcDbAlignedDimension
 13
16.53108891324555
 23
1.251074928723892
 33
0.0
 14
9.531088913245561
 24
1.231394994481793
 34
0.0
100
AcDbRotatedDimension
1001
PE_URL
1000

1001
ACAD
1000
DSTYLE
1002
{
1070
    41
1040
2.5
1070
   271
1070
     0
1070
   140
1040
2.5
1002
}
1001
ACAD_DSTYLE_DIMFLIPARROW_SYMBOL
1070
   385
1070
     0
1001
ACAD_DSTYLE_DIMFLIPARROW_WHICH_SYMBOL
1070
   386
1070
     3
  0
DIMENSION
  5
262
330
1F
100
AcDbEntity
  8
치수문자_일반주서
100
AcDbDimension
  2
*D16
 10
-43.46891108675445
 20
19.0010749287239
 30
0.0
 11
-13.46891108675445
 21
19.0010749287239
 31
0.0
 70
   160
  1
<>
 71
     2
 42
60.0
  3
SLDDIMSTYLE0
100
AcDbAlignedDimension
 13
16.53108891324555
 23
1.251074928723892
 33
0.0
 14
-43.46891108675445
 24
2.401074928723894
 34
0.0
 50
0.0000000000000068
100
AcDbRotatedDimension
1001
PE_URL
1000

1001
ACAD
1000
DSTYLE
1002
{
1070
    41
1040
2.5
1070
   271
1070
     0
1070
   140
1040
2.5
1002
}
  0
INSERT
  5
263
330
1F
100
AcDbEntity
  8
해칭선
100
AcDbBlockReference
  2
SW_DOWELSYMBOL_0
 10
0.0
 20
0.0
 30
0.0
  0
ARC
  5
2A9
330
1F
100
AcDbEntity
  8
0
  6
Continuous
 62
     1
370
    15
100
AcDbCircle
 10
16.03108891324555
 20
0.7510749287238909
 30
0.0
 40
0.4999999999999998
100
AcDbArc
 50
0.0
 51
74.66387441060358
  0
ARC
  5
2AA
102
{ACAD_REACTORS
102
}
330
1F
100
AcDbEntity
  8
0
  6
Continuous
 62
     1
370
    15
100
AcDbCircle
 10
16.03108891324555
 20
-0.7489250712761111
 30
0.0
 40
0.4999999999999998
100
AcDbArc
 50
285.3361255893964
 51
0.0
  0
DIMENSION
  5
2AB
102
{ACAD_REACTORS
102
}
102
{ACAD_XDICTIONARY
360
2AC
102
}
330
1F
100
AcDbEntity
  8
치수문자_일반주서
100
AcDbDimension
  2
*D18
 10
16.03108891324555
 20
-0.7489250712761111
 30
0.0
 11
23.90860491353612
 21
-21.58251210950446
 31
0.0
 70
   164
  1
<>
 71
     5
 42
0.5000000000000002
  3
SLDDIMSTYLE0
100
AcDbRadialDimension
 15
16.20792768220982
 25
-1.216608778273907
 35
0.0
 40
0.0
1001
ACAD
1000
DSTYLE
1002
{
1070
    78
1070
     0
1070
    41
1040
2.5
1070
   271
1070
     1
1070
   140
1040
2.5
1002
}
1001
ACAD_DSTYLE_DIMRADIAL_EXTENSION
1070
   387
1070
     1
1070
   388
1040
4.980054866419013
1070
   390
1040
0.0
  0
ENDSEC
  0
SECTION
  2
OBJECTS
  0
DICTIONARY
  5
C
330
0
100
AcDbDictionary
281
     1
  3
ACAD_GROUP
350
D
  3
ACAD_IMAGE_VARS
350
13E
  3
ACAD_LAYOUT
350
1A
  3
ACAD_MLINESTYLE
350
17
  3
ACAD_PLOTSETTINGS
350
19
  3
ACAD_PLOTSTYLENAME
350
E
  3
ACAD_SCALELIST
350
47
  3
APPDATA
350
13C
  3
DWGPROPS
350
2B8
  0
DICTIONARY
  5
2AC
330
2AB
100
AcDbDictionary
280
     1
281
     1
  0
DICTIONARY
  5
D
102
{ACAD_REACTORS
330
C
102
}
330
C
100
AcDbDictionary
281
     1
  0
RASTERVARIABLES
  5
13E
102
{ACAD_REACTORS
330
C
102
}
330
C
100
AcDbRasterVariables
 90
        0
 70
     1
 71
     1
 72
     1
  0
DICTIONARY
  5
1A
102
{ACAD_REACTORS
330
C
102
}
330
C
100
AcDbDictionary
281
     1
  3
Layout1
350
1E
  3
Layout2
350
26
  3
Model
350
22
  0
DICTIONARY
  5
17
102
{ACAD_REACTORS
330
C
102
}
330
C
100
AcDbDictionary
281
     1
  3
Standard
350
18
  0
DICTIONARY
  5
19
102
{ACAD_REACTORS
330
C
102
}
330
C
100
AcDbDictionary
281
     1
  0
ACDBDICTIONARYWDFLT
  5
E
102
{ACAD_REACTORS
330
C
102
}
330
C
100
AcDbDictionary
281
     1
  3
Normal
350
F
100
AcDbDictionaryWithDefault
340
F
  0
DICTIONARY
  5
47
102
{ACAD_REACTORS
330
C
102
}
330
C
100
AcDbDictionary
281
     1
  3
A0
350
48
  3
A1
350
49
  3
A2
350
4A
  3
A3
350
4B
  3
A4
350
4C
  3
A5
350
4D
  3
A6
350
4E
  3
A7
350
4F
  3
A8
350
50
  3
A9
350
51
  3
B0
350
52
  3
B1
350
53
  3
B2
350
54
  3
B3
350
55
  3
B4
350
56
  3
B5
350
57
  3
B6
350
58
  3
B7
350
59
  3
B8
350
5A
  3
B9
350
5B
  3
C0
350
5C
  3
C1
350
5D
  3
C2
350
5E
  3
C3
350
5F
  3
C4
350
60
  3
C5
350
61
  3
C6
350
62
  3
C7
350
63
  3
C8
350
64
  3
C9
350
65
  3
D0
350
66
  3
D1
350
67
  3
D2
350
68
  0
DICTIONARY
  5
13C
102
{ACAD_REACTORS
330
C
102
}
330
C
100
AcDbDictionary
281
     1
  0
XRECORD
  5
2B8
102
{ACAD_REACTORS
330
C
102
}
330
C
100
AcDbXrecord
280
     1
  1
DWGPROPS COOKIE
  2

  3

  4

  6

  7

  8
12016016
  9

300
=
301
=
302
=
303
=
304
=
305
=
306
=
307
=
308
=
309
=
 40
0.0
 41
2458269.42708184
 42
2458272.034647755
  1

 90
        0
  0
LAYOUT
  5
1E
102
{ACAD_REACTORS
330
1A
102
}
330
1A
100
AcDbPlotSettings
  1

  2
none_device
  4

  6

 40
0.0
 41
0.0
 42
0.0
 43
0.0
 44
0.0
 45
0.0
 46
0.0
 47
0.0
 48
0.0
 49
0.0
140
0.0
141
0.0
142
1.0
143
1.0
 70
   688
 72
     1
 73
     0
 74
     5
  7

 75
    16
147
1.0
148
0.0
149
0.0
100
AcDbLayout
  1
Layout1
 70
     1
 71
     1
 10
0.0
 20
0.0
 11
420.0
 21
297.0
 12
0.0
 22
0.0
 32
0.0
 14
1.000000000000000E+20
 24
1.000000000000000E+20
 34
1.000000000000000E+20
 15
-1.000000000000000E+20
 25
-1.000000000000000E+20
 35
-1.000000000000000E+20
146
0.0
 13
0.0
 23
0.0
 33
0.0
 16
1.0
 26
0.0
 36
0.0
 17
0.0
 27
1.0
 37
0.0
 76
     0
330
1B
  0
LAYOUT
  5
26
102
{ACAD_REACTORS
330
1A
102
}
330
1A
100
AcDbPlotSettings
  1

  2
none_device
  4

  6

 40
0.0
 41
0.0
 42
0.0
 43
0.0
 44
0.0
 45
0.0
 46
0.0
 47
0.0
 48
0.0
 49
0.0
140
0.0
141
0.0
142
1.0
143
1.0
 70
   688
 72
     1
 73
     0
 74
     5
  7

 75
    16
147
1.0
148
0.0
149
0.0
100
AcDbLayout
  1
Layout2
 70
     1
 71
     2
 10
0.0
 20
0.0
 11
0.0
 21
0.0
 12
0.0
 22
0.0
 32
0.0
 14
0.0
 24
0.0
 34
0.0
 15
0.0
 25
0.0
 35
0.0
146
0.0
 13
0.0
 23
0.0
 33
0.0
 16
1.0
 26
0.0
 36
0.0
 17
0.0
 27
1.0
 37
0.0
 76
     0
330
23
  0
LAYOUT
  5
22
102
{ACAD_REACTORS
330
1A
102
}
330
1A
100
AcDbPlotSettings
  1

  2
none_device
  4
ANSI_A_(11.00_x_8.50_Inches)
  6

 40
6.35
 41
19.05
 42
6.35000508
 43
19.05000254
 44
279.4
 45
215.9
 46
111.6855150645388
 47
109.5492979225241
 48
0.0
 49
0.0
140
0.0
141
0.0
142
0.0789824718862547
143
1.0
 70
  1696
 72
     0
 73
     0
 74
     0
  7

 75
     0
147
0.0235690232323232
148
0.0
149
0.0
100
AcDbLayout
  1
Model
 70
     1
 71
     0
 10
0.0
 20
0.0
 11
420.0
 21
297.0
 12
0.0
 22
0.0
 32
0.0
 14
1.000000000000000E+20
 24
1.000000000000000E+20
 34
1.000000000000000E+20
 15
-1.000000000000000E+20
 25
-1.000000000000000E+20
 35
-1.000000000000000E+20
146
0.0
 13
0.0
 23
0.0
 33
0.0
 16
1.0
 26
0.0
 36
0.0
 17
0.0
 27
1.0
 37
0.0
 76
     0
330
1F
331
29
  0
MLINESTYLE
  5
18
102
{ACAD_REACTORS
330
17
102
}
330
17
100
AcDbMlineStyle
  2
Standard
 70
     0
  3

 62
   256
 51
90.0
 52
90.0
 71
     2
 49
0.5
 62
   256
  6
BYLAYER
 49
-0.5
 62
   256
  6
BYLAYER
  0
ACDBPLACEHOLDER
  5
F
102
{ACAD_REACTORS
330
E
102
}
330
E
  0
SCALE
  5
48
102
{ACAD_REACTORS
330
47
102
}
330
47
100
AcDbScale
 70
     0
300
1:1
140
1.0
141
1.0
290
     1
  0
SCALE
  5
49
102
{ACAD_REACTORS
330
47
102
}
330
47
100
AcDbScale
 70
     0
300
1:2
140
1.0
141
2.0
290
     0
  0
SCALE
  5
4A
102
{ACAD_REACTORS
330
47
102
}
330
47
100
AcDbScale
 70
     0
300
1:4
140
1.0
141
4.0
290
     0
  0
SCALE
  5
4B
102
{ACAD_REACTORS
330
47
102
}
330
47
100
AcDbScale
 70
     0
300
1:5
140
1.0
141
5.0
290
     0
  0
SCALE
  5
4C
102
{ACAD_REACTORS
330
47
102
}
330
47
100
AcDbScale
 70
     0
300
1:8
140
1.0
141
8.0
290
     0
  0
SCALE
  5
4D
102
{ACAD_REACTORS
330
47
102
}
330
47
100
AcDbScale
 70
     0
300
1:10
140
1.0
141
10.0
290
     0
  0
SCALE
  5
4E
102
{ACAD_REACTORS
330
47
102
}
330
47
100
AcDbScale
 70
     0
300
1:16
140
1.0
141
16.0
290
     0
  0
SCALE
  5
4F
102
{ACAD_REACTORS
330
47
102
}
330
47
100
AcDbScale
 70
     0
300
1:20
140
1.0
141
20.0
290
     0
  0
SCALE
  5
50
102
{ACAD_REACTORS
330
47
102
}
330
47
100
AcDbScale
 70
     0
300
1:30
140
1.0
141
30.0
290
     0
  0
SCALE
  5
51
102
{ACAD_REACTORS
330
47
102
}
330
47
100
AcDbScale
 70
     0
300
1:40
140
1.0
141
40.0
290
     0
  0
SCALE
  5
52
102
{ACAD_REACTORS
330
47
102
}
330
47
100
AcDbScale
 70
     0
300
1:50
140
1.0
141
50.0
290
     0
  0
SCALE
  5
53
102
{ACAD_REACTORS
330
47
102
}
330
47
100
AcDbScale
 70
     0
300
1:100
140
1.0
141
100.0
290
     0
  0
SCALE
  5
54
102
{ACAD_REACTORS
330
47
102
}
330
47
100
AcDbScale
 70
     0
300
2:1
140
2.0
141
1.0
290
     0
  0
SCALE
  5
55
102
{ACAD_REACTORS
330
47
102
}
330
47
100
AcDbScale
 70
     0
300
4:1
140
4.0
141
1.0
290
     0
  0
SCALE
  5
56
102
{ACAD_REACTORS
330
47
102
}
330
47
100
AcDbScale
 70
     0
300
8:1
140
8.0
141
1.0
290
     0
  0
SCALE
  5
57
102
{ACAD_REACTORS
330
47
102
}
330
47
100
AcDbScale
 70
     0
300
10:1
140
10.0
141
1.0
290
     0
  0
SCALE
  5
58
102
{ACAD_REACTORS
330
47
102
}
330
47
100
AcDbScale
 70
     0
300
100:1
140
100.0
141
1.0
290
     0
  0
SCALE
  5
59
102
{ACAD_REACTORS
330
47
102
}
330
47
100
AcDbScale
 70
     0
300
1/128" = 1'-0"
140
0.0078125
141
12.0
290
     0
  0
SCALE
  5
5A
102
{ACAD_REACTORS
330
47
102
}
330
47
100
AcDbScale
 70
     0
300
1/64" = 1'-0"
140
0.015625
141
12.0
290
     0
  0
SCALE
  5
5B
102
{ACAD_REACTORS
330
47
102
}
330
47
100
AcDbScale
 70
     0
300
1/32" = 1'-0"
140
0.03125
141
12.0
290
     0
  0
SCALE
  5
5C
102
{ACAD_REACTORS
330
47
102
}
330
47
100
AcDbScale
 70
     0
300
1/16" = 1'-0"
140
0.0625
141
12.0
290
     0
  0
SCALE
  5
5D
102
{ACAD_REACTORS
330
47
102
}
330
47
100
AcDbScale
 70
     0
300
3/32" = 1'-0"
140
0.09375
141
12.0
290
     0
  0
SCALE
  5
5E
102
{ACAD_REACTORS
330
47
102
}
330
47
100
AcDbScale
 70
     0
300
1/8" = 1'-0"
140
0.125
141
12.0
290
     0
  0
SCALE
  5
5F
102
{ACAD_REACTORS
330
47
102
}
330
47
100
AcDbScale
 70
     0
300
3/16" = 1'-0"
140
0.1875
141
12.0
290
     0
  0
SCALE
  5
60
102
{ACAD_REACTORS
330
47
102
}
330
47
100
AcDbScale
 70
     0
300
1/4" = 1'-0"
140
0.25
141
12.0
290
     0
  0
SCALE
  5
61
102
{ACAD_REACTORS
330
47
102
}
330
47
100
AcDbScale
 70
     0
300
3/8" = 1'-0"
140
0.375
141
12.0
290
     0
  0
SCALE
  5
62
102
{ACAD_REACTORS
330
47
102
}
330
47
100
AcDbScale
 70
     0
300
1/2" = 1'-0"
140
0.5
141
12.0
290
     0
  0
SCALE
  5
63
102
{ACAD_REACTORS
330
47
102
}
330
47
100
AcDbScale
 70
     0
300
3/4" = 1'-0"
140
0.75
141
12.0
290
     0
  0
SCALE
  5
64
102
{ACAD_REACTORS
330
47
102
}
330
47
100
AcDbScale
 70
     0
300
1" = 1'-0"
140
1.0
141
12.0
290
     0
  0
SCALE
  5
65
102
{ACAD_REACTORS
330
47
102
}
330
47
100
AcDbScale
 70
     0
300
1-1/2" = 1'-0"
140
1.5
141
12.0
290
     0
  0
SCALE
  5
66
102
{ACAD_REACTORS
330
47
102
}
330
47
100
AcDbScale
 70
     0
300
3" = 1'-0"
140
3.0
141
12.0
290
     0
  0
SCALE
  5
67
102
{ACAD_REACTORS
330
47
102
}
330
47
100
AcDbScale
 70
     0
300
6" = 1'-0"
140
6.0
141
12.0
290
     0
  0
SCALE
  5
68
102
{ACAD_REACTORS
330
47
102
}
330
47
100
AcDbScale
 70
     0
300
1'-0" = 1'-0"
140
12.0
141
12.0
290
     0
  0
ENDSEC
  0
EOF
