  0
SECTION
  2
HEADER
  9
$ACADVER
  1
AC1015
  9
$ACADMAINTVER
 70
     6
  9
$DWGCODEPAGE
  3
ANSI_949
  9
$INSBASE
 10
0.0
 20
0.0
 30
0.0
  9
$EXTMIN
 10
-44.91089838486228
 20
-49.97073246008785
 30
0.0
  9
$EXTMAX
 10
86.97758543048334
 20
22.3760749287239
 30
0.0
  9
$LIMMIN
 10
0.0
 20
0.0
  9
$LIMMAX
 10
420.0
 20
297.0
  9
$ORTHOMODE
 70
     1
  9
$REGENMODE
 70
     1
  9
$FILLMODE
 70
     1
  9
$QTEXTMODE
 70
     0
  9
$MIRRTEXT
 70
     1
  9
$LTSCALE
 40
1.0
  9
$ATTMODE
 70
     1
  9
$TEXTSIZE
 40
3.5
  9
$TRACEWID
 40
1.0
  9
$TEXTSTYLE
  7
Standard
  9
$CLAYER
  8
0
  9
$CELTYPE
  6
ByLayer
  9
$CECOLOR
 62
   256
  9
$CELTSCALE
 40
1.0
  9
$DISPSILH
 70
     0
  9
$DIMSCALE
 40
1.0
  9
$DIMASZ
 40
3.302
  9
$DIMEXO
 40
1.0
  9
$DIMDLI
 40
3.75
  9
$DIMRND
 40
0.0
  9
$DIMDLE
 40
0.0
  9
$DIMEXE
 40
1.0
  9
$DIMTP
 40
0.0
  9
$DIMTM
 40
0.0
  9
$DIMTXT
 40
3.5
  9
$DIMCEN
 40
2.5
  9
$DIMTSZ
 40
0.0
  9
$DIMTOL
 70
     0
  9
$DIMLIM
 70
     0
  9
$DIMTIH
 70
     1
  9
$DIMTOH
 70
     1
  9
$DIMSE1
 70
     0
  9
$DIMSE2
 70
     0
  9
$DIMTAD
 70
     1
  9
$DIMZIN
 70
     0
  9
$DIMBLK
  1

  9
$DIMASO
 70
     1
  9
$DIMSHO
 70
     1
  9
$DIMPOST
  1

  9
$DIMAPOST
  1

  9
$DIMALT
 70
     0
  9
$DIMALTD
 70
     3
  9
$DIMALTF
 40
0.0393700787401575
  9
$DIMLFAC
 40
1.0
  9
$DIMTOFL
 70
     1
  9
$DIMTVP
 40
0.0
  9
$DIMTIX
 70
     0
  9
$DIMSOXD
 70
     0
  9
$DIMSAH
 70
     0
  9
$DIMBLK1
  1

  9
$DIMBLK2
  1

  9
$DIMSTYLE
  2
ISO-25
  9
$DIMCLRD
 70
     0
  9
$DIMCLRE
 70
     0
  9
$DIMCLRT
 70
     0
  9
$DIMTFAC
 40
1.0
  9
$DIMGAP
 40
1.524
  9
$DIMJUST
 70
     0
  9
$DIMSD1
 70
     0
  9
$DIMSD2
 70
     0
  9
$DIMTOLJ
 70
     0
  9
$DIMTZIN
 70
     0
  9
$DIMALTZ
 70
     0
  9
$DIMALTTZ
 70
     0
  9
$DIMUPT
 70
     0
  9
$DIMDEC
 70
     2
  9
$DIMTDEC
 70
     2
  9
$DIMALTU
 70
     2
  9
$DIMALTTD
 70
     3
  9
$DIMTXSTY
  7
Standard
  9
$DIMAUNIT
 70
     0
  9
$DIMADEC
 70
     2
  9
$DIMALTRND
 40
0.0
  9
$DIMAZIN
 70
     0
  9
$DIMDSEP
 70
    44
  9
$DIMATFIT
 70
     3
  9
$DIMFRAC
 70
     0
  9
$DIMLDRBLK
  1

  9
$DIMLUNIT
 70
     2
  9
$DIMLWD
 70
    -2
  9
$DIMLWE
 70
    -2
  9
$DIMTMOVE
 70
     0
  9
$LUNITS
 70
     2
  9
$LUPREC
 70
     2
  9
$SKETCHINC
 40
1.0
  9
$FILLETRAD
 40
10.0
  9
$AUNITS
 70
     0
  9
$AUPREC
 70
     2
  9
$MENU
  1
.
  9
$ELEVATION
 40
0.0
  9
$PELEVATION
 40
0.0
  9
$THICKNESS
 40
0.0
  9
$LIMCHECK
 70
     0
  9
$CHAMFERA
 40
0.0
  9
$CHAMFERB
 40
0.0
  9
$CHAMFERC
 40
0.0
  9
$CHAMFERD
 40
0.0
  9
$SKPOLY
 70
     0
  9
$TDCREATE
 40
2458269.799435081
  9
$TDUCREATE
 40
2458269.424435081
  9
$TDUPDATE
 40
2458270.710001956
  9
$TDUUPDATE
 40
2458270.335001956
  9
$TDINDWG
 40
0.0009076157
  9
$TDUSRTIMER
 40
0.002050463
  9
$USRTIMER
 70
     1
  9
$ANGBASE
 50
0.0
  9
$ANGDIR
 70
     0
  9
$PDMODE
 70
     0
  9
$PDSIZE
 40
-1.0
  9
$PLINEWID
 40
0.0
  9
$SPLFRAME
 70
     0
  9
$SPLINETYPE
 70
     6
  9
$SPLINESEGS
 70
     8
  9
$HANDSEED
  5
207
  9
$SURFTAB1
 70
     6
  9
$SURFTAB2
 70
     6
  9
$SURFTYPE
 70
     6
  9
$SURFU
 70
     6
  9
$SURFV
 70
     6
  9
$UCSBASE
  2

  9
$UCSNAME
  2

  9
$UCSORG
 10
0.0
 20
0.0
 30
0.0
  9
$UCSXDIR
 10
1.0
 20
0.0
 30
0.0
  9
$UCSYDIR
 10
0.0
 20
1.0
 30
0.0
  9
$UCSORTHOREF
  2

  9
$UCSORTHOVIEW
 70
     0
  9
$UCSORGTOP
 10
0.0
 20
0.0
 30
0.0
  9
$UCSORGBOTTOM
 10
0.0
 20
0.0
 30
0.0
  9
$UCSORGLEFT
 10
0.0
 20
0.0
 30
0.0
  9
$UCSORGRIGHT
 10
0.0
 20
0.0
 30
0.0
  9
$UCSORGFRONT
 10
0.0
 20
0.0
 30
0.0
  9
$UCSORGBACK
 10
0.0
 20
0.0
 30
0.0
  9
$PUCSBASE
  2

  9
$PUCSNAME
  2

  9
$PUCSORG
 10
0.0
 20
0.0
 30
0.0
  9
$PUCSXDIR
 10
1.0
 20
0.0
 30
0.0
  9
$PUCSYDIR
 10
0.0
 20
1.0
 30
0.0
  9
$PUCSORTHOREF
  2

  9
$PUCSORTHOVIEW
 70
     0
  9
$PUCSORGTOP
 10
0.0
 20
0.0
 30
0.0
  9
$PUCSORGBOTTOM
 10
0.0
 20
0.0
 30
0.0
  9
$PUCSORGLEFT
 10
0.0
 20
0.0
 30
0.0
  9
$PUCSORGRIGHT
 10
0.0
 20
0.0
 30
0.0
  9
$PUCSORGFRONT
 10
0.0
 20
0.0
 30
0.0
  9
$PUCSORGBACK
 10
0.0
 20
0.0
 30
0.0
  9
$USERI1
 70
     0
  9
$USERI2
 70
     0
  9
$USERI3
 70
     0
  9
$USERI4
 70
     0
  9
$USERI5
 70
     0
  9
$USERR1
 40
0.0
  9
$USERR2
 40
0.0
  9
$USERR3
 40
0.0
  9
$USERR4
 40
0.0
  9
$USERR5
 40
0.0
  9
$WORLDVIEW
 70
     1
  9
$SHADEDGE
 70
     3
  9
$SHADEDIF
 70
    70
  9
$TILEMODE
 70
     1
  9
$MAXACTVP
 70
    64
  9
$PINSBASE
 10
0.0
 20
0.0
 30
0.0
  9
$PLIMCHECK
 70
     0
  9
$PEXTMIN
 10
1.000000000000000E+20
 20
1.000000000000000E+20
 30
1.000000000000000E+20
  9
$PEXTMAX
 10
-1.000000000000000E+20
 20
-1.000000000000000E+20
 30
-1.000000000000000E+20
  9
$PLIMMIN
 10
0.0
 20
0.0
  9
$PLIMMAX
 10
0.0
 20
0.0
  9
$UNITMODE
 70
     0
  9
$VISRETAIN
 70
     1
  9
$PLINEGEN
 70
     0
  9
$PSLTSCALE
 70
     1
  9
$TREEDEPTH
 70
  3020
  9
$CMLSTYLE
  2
Standard
  9
$CMLJUST
 70
     0
  9
$CMLSCALE
 40
20.0
  9
$PROXYGRAPHICS
 70
     1
  9
$MEASUREMENT
 70
     1
  9
$CELWEIGHT
370
    -1
  9
$ENDCAPS
280
     0
  9
$JOINSTYLE
280
     0
  9
$LWDISPLAY
290
     1
  9
$INSUNITS
 70
     4
  9
$HYPERLINKBASE
  1

  9
$STYLESHEET
  1

  9
$XEDIT
290
     1
  9
$CEPSNTYPE
380
     0
  9
$PSTYLEMODE
290
     1
  9
$FINGERPRINTGUID
  2
{5BFAD7B9-6CCB-4F78-B242-AB4309B0470C}
  9
$VERSIONGUID
  2
{FAEB1C32-E019-11D5-929B-00C0DF256EC4}
  9
$EXTNAMES
290
     1
  9
$PSVPSCALE
 40
0.0
  9
$OLESTARTUP
290
     0
  0
ENDSEC
  0
SECTION
  2
CLASSES
  0
CLASS
  1
ACDBDICTIONARYWDFLT
  2
AcDbDictionaryWithDefault
  3
ObjectDBX Classes
 90
        0
280
     0
281
     0
  0
CLASS
  1
VISUALSTYLE
  2
AcDbVisualStyle
  3
ObjectDBX Classes
 90
     4095
280
     0
281
     0
  0
CLASS
  1
MATERIAL
  2
AcDbMaterial
  3
ObjectDBX Classes
 90
     1153
280
     0
281
     0
  0
CLASS
  1
SCALE
  2
AcDbScale
  3
ObjectDBX Classes
 90
     1153
280
     0
281
     0
  0
CLASS
  1
SUN
  2
AcDbSun
  3
SCENEOE
 90
     1153
280
     0
281
     0
  0
CLASS
  1
ACDBPLACEHOLDER
  2
AcDbPlaceHolder
  3
ObjectDBX Classes
 90
        0
280
     0
281
     0
  0
CLASS
  1
LAYOUT
  2
AcDbLayout
  3
ObjectDBX Classes
 90
        0
280
     0
281
     0
  0
CLASS
  1
TABLESTYLE
  2
AcDbTableStyle
  3
ObjectDBX Classes
 90
     4095
280
     0
281
     0
  0
CLASS
  1
MLEADERSTYLE
  2
AcDbMLeaderStyle
  3
ACDB_MLEADERSTYLE_CLASS
 90
     4095
280
     0
281
     0
  0
CLASS
  1
DICTIONARYVAR
  2
AcDbDictionaryVar
  3
ObjectDBX Classes
 90
        0
280
     0
281
     0
  0
CLASS
  1
DIMASSOC
  2
AcDbDimAssoc
  3
"AcDbDimAssoc|Product Desc:     AcDim ARX App For Dimension|Company:          Autodesk, Inc.|WEB Address:      www.autodesk.com"
 90
        0
280
     0
281
     0
  0
ENDSEC
  0
SECTION
  2
TABLES
  0
TABLE
  2
VPORT
  5
8
330
0
100
AcDbSymbolTable
 70
     1
  0
VPORT
  5
29
330
8
100
AcDbSymbolTableRecord
100
AcDbViewportTableRecord
  2
*Active
 70
     0
 10
0.0
 20
0.0
 11
1.0
 21
1.0
 12
21.03334352281054
 22
-13.79732876568197
 13
0.0
 23
0.0
 14
10.0
 24
10.0
 15
10.0
 25
10.0
 16
0.0
 26
0.0
 36
1.0
 17
0.0
 27
0.0
 37
0.0
 40
73.79374353658798
 41
2.003901170351105
 42
50.0
 43
0.0
 44
0.0
 50
0.0
 51
0.0
 71
    16
 72
  2000
 73
     1
 74
     3
 75
     0
 76
     0
 77
     0
 78
     0
281
     0
 65
     1
110
0.0
120
0.0
130
0.0
111
1.0
121
0.0
131
0.0
112
0.0
122
1.0
132
0.0
 79
     0
146
0.0
  0
ENDTAB
  0
TABLE
  2
LTYPE
  5
5
330
0
100
AcDbSymbolTable
 70
     6
  0
LTYPE
  5
14
330
5
100
AcDbSymbolTableRecord
100
AcDbLinetypeTableRecord
  2
ByBlock
 70
     0
  3

 72
    65
 73
     0
 40
0.0
  0
LTYPE
  5
15
330
5
100
AcDbSymbolTableRecord
100
AcDbLinetypeTableRecord
  2
ByLayer
 70
     0
  3

 72
    65
 73
     0
 40
0.0
  0
LTYPE
  5
16
330
5
100
AcDbSymbolTableRecord
100
AcDbLinetypeTableRecord
  2
Continuous
 70
     0
  3
Solid line
 72
    65
 73
     0
 40
0.0
  0
LTYPE
  5
6A
330
5
100
AcDbSymbolTableRecord
100
AcDbLinetypeTableRecord
  2
HIDDEN
 70
     0
  3
Hidden __ __ __ __ __ __ __ __ __ __ __ __ __ __
 72
    65
 73
     2
 40
1.905
 49
1.27
 74
     0
 49
-0.635
 74
     0
  0
LTYPE
  5
6B
330
5
100
AcDbSymbolTableRecord
100
AcDbLinetypeTableRecord
  2
PHANTOM
 70
     0
  3
Phantom ______  __  __  ______  __  __  ______
 72
    65
 73
     6
 40
12.7
 49
6.35
 74
     0
 49
-1.27
 74
     0
 49
1.27
 74
     0
 49
-1.27
 74
     0
 49
1.27
 74
     0
 49
-1.27
 74
     0
  0
LTYPE
  5
6C
330
5
100
AcDbSymbolTableRecord
100
AcDbLinetypeTableRecord
  2
CENTER
 70
     0
  3
Center ____ _ ____ _ ____ _ ____ _ ____ _ ____
 72
    65
 73
     4
 40
10.16
 49
6.35
 74
     0
 49
-1.27
 74
     0
 49
1.27
 74
     0
 49
-1.27
 74
     0
  0
LTYPE
  5
6D
330
5
100
AcDbSymbolTableRecord
100
AcDbLinetypeTableRecord
  2
CENTERX2
 70
     0
  3
Center (2x) ________  __  ________  __  _____
 72
    65
 73
     4
 40
20.32
 49
12.7
 74
     0
 49
-2.54
 74
     0
 49
2.54
 74
     0
 49
-2.54
 74
     0
  0
LTYPE
  5
6E
330
5
100
AcDbSymbolTableRecord
100
AcDbLinetypeTableRecord
  2
DOT2
 70
     0
  3
Dot (.5x) ........................................
 72
    65
 73
     2
 40
0.635
 49
0.0
 74
     0
 49
-0.635
 74
     0
  0
ENDTAB
  0
TABLE
  2
LAYER
  5
2
330
0
100
AcDbSymbolTable
 70
    18
  0
LAYER
  5
10
330
2
100
AcDbSymbolTableRecord
100
AcDbLayerTableRecord
  2
0
 70
     0
 62
     7
  6
Continuous
370
    -3
390
F
  0
LAYER
  5
6F
330
2
100
AcDbSymbolTableRecord
100
AcDbLayerTableRecord
  2
FORMAT
 70
     0
 62
     2
  6
Continuous
370
    -3
390
F
  0
LAYER
  5
70
330
2
100
AcDbSymbolTableRecord
100
AcDbLayerTableRecord
  2
외형선
 70
     0
 62
     4
  6
Continuous
370
    30
390
F
  0
LAYER
  5
71
330
2
100
AcDbSymbolTableRecord
100
AcDbLayerTableRecord
  2
숨은선
 70
     0
 62
     2
  6
HIDDEN
370
    15
390
F
  0
LAYER
  5
72
330
2
100
AcDbSymbolTableRecord
100
AcDbLayerTableRecord
  2
중심선
 70
     0
 62
     1
  6
CENTERX2
370
    -3
390
F
  0
LAYER
  5
73
330
2
100
AcDbSymbolTableRecord
100
AcDbLayerTableRecord
  2
파단선
 70
     0
 62
     4
  6
Continuous
370
    -3
390
F
  0
LAYER
  5
74
330
2
100
AcDbSymbolTableRecord
100
AcDbLayerTableRecord
  2
해칭선
 70
     0
 62
   100
  6
Continuous
370
    -3
390
F
  0
LAYER
  5
75
330
2
100
AcDbSymbolTableRecord
100
AcDbLayerTableRecord
  2
가는실선
 70
     0
 62
     4
  6
Continuous
370
    -3
390
F
  0
LAYER
  5
76
330
2
100
AcDbSymbolTableRecord
100
AcDbLayerTableRecord
  2
치수_보조선
 70
     0
 62
     4
  6
Continuous
370
    -3
390
F
  0
LAYER
  5
77
330
2
100
AcDbSymbolTableRecord
100
AcDbLayerTableRecord
  2
치수문자_일반주서
 70
     0
 62
     7
  6
Continuous
370
    15
390
F
  0
LAYER
  5
78
330
2
100
AcDbSymbolTableRecord
100
AcDbLayerTableRecord
  2
개별주서
 70
     0
 62
   100
  6
Continuous
370
    30
390
F
  0
LAYER
  5
79
330
2
100
AcDbSymbolTableRecord
100
AcDbLayerTableRecord
  2
중간선
 70
     0
 62
     2
  6
Continuous
370
    15
390
F
  0
LAYER
  5
7A
330
2
100
AcDbSymbolTableRecord
100
AcDbLayerTableRecord
  2
윤곽선
 70
     0
 62
     3
  6
Continuous
370
    40
390
F
  0
LAYER
  5
7B
330
2
100
AcDbSymbolTableRecord
100
AcDbLayerTableRecord
  2
중심마크
 70
     0
 62
   100
  6
Continuous
370
    30
390
F
  0
LAYER
  5
7C
330
2
100
AcDbSymbolTableRecord
100
AcDbLayerTableRecord
  2
가상선
 70
     0
 62
     4
  6
PHANTOM
370
    -3
390
F
  0
LAYER
  5
7D
330
2
100
AcDbSymbolTableRecord
100
AcDbLayerTableRecord
  2
특수지정선
 70
     0
 62
     5
  6
CENTERX2
370
    60
390
F
  0
LAYER
  5
7E
330
2
100
AcDbSymbolTableRecord
100
AcDbLayerTableRecord
  2
참조1
 70
     0
 62
    -4
  6
Continuous
370
    -3
390
F
  0
LAYER
  5
13C
330
2
100
AcDbSymbolTableRecord
100
AcDbLayerTableRecord
  2
Defpoints
 70
     0
 62
     7
  6
Continuous
290
     0
370
    -3
390
F
  0
ENDTAB
  0
TABLE
  2
STYLE
  5
3
330
0
100
AcDbSymbolTable
 70
     2
  0
STYLE
  5
11
330
3
100
AcDbSymbolTableRecord
100
AcDbTextStyleTableRecord
  2
Standard
 70
     0
 40
0.0
 41
1.0
 50
0.0
 71
     0
 42
3.5
  3
txt
  4

  0
STYLE
  5
94
330
3
100
AcDbSymbolTableRecord
100
AcDbTextStyleTableRecord
  2
SLDTEXTSTYLE0
 70
     0
 40
0.0
 41
0.75
 50
0.0
 71
     0
 42
3.5
  3
TXT
  4

  0
ENDTAB
  0
TABLE
  2
VIEW
  5
6
330
0
100
AcDbSymbolTable
 70
     0
  0
ENDTAB
  0
TABLE
  2
UCS
  5
7
330
0
100
AcDbSymbolTable
 70
     0
  0
ENDTAB
  0
TABLE
  2
APPID
  5
9
330
0
100
AcDbSymbolTable
 70
     5
  0
APPID
  5
12
330
9
100
AcDbSymbolTableRecord
100
AcDbRegAppTableRecord
  2
ACAD
 70
     0
  0
APPID
  5
143
330
9
100
AcDbSymbolTableRecord
100
AcDbRegAppTableRecord
  2
PE_URL
 70
     0
  0
APPID
  5
144
330
9
100
AcDbSymbolTableRecord
100
AcDbRegAppTableRecord
  2
ACAD_DSTYLE_DIMRADIAL_EXTENSION
 70
     0
  0
APPID
  5
205
330
9
100
AcDbSymbolTableRecord
100
AcDbRegAppTableRecord
  2
ACAD_DSTYLE_DIMFLIPARROW_SYMBOL
 70
     0
  0
APPID
  5
206
330
9
100
AcDbSymbolTableRecord
100
AcDbRegAppTableRecord
  2
ACAD_DSTYLE_DIMFLIPARROW_WHICH_SYMBOL
 70
     0
  0
ENDTAB
  0
TABLE
  2
DIMSTYLE
  5
A
330
0
100
AcDbSymbolTable
 70
     3
100
AcDbDimStyleTable
  0
DIMSTYLE
105
27
330
A
100
AcDbSymbolTableRecord
100
AcDbDimStyleTableRecord
  2
ISO-25
 70
     0
 41
2.5
 42
0.625
 43
3.75
 44
1.25
 73
     0
 74
     0
 77
     1
 78
     8
140
2.5
141
2.5
143
0.03937007874016
147
0.625
171
     3
172
     1
178
     0
271
     2
272
     2
274
     3
278
    44
283
     0
284
     8
340
11
  0
DIMSTYLE
105
DA
102
{ACAD_REACTORS
330
D9
330
E7
330
F4
330
163
330
173
330
182
330
100
330
1F7
102
}
330
A
100
AcDbSymbolTableRecord
100
AcDbDimStyleTableRecord
  2
SLDDIMSTYLE0
 70
     0
 41
3.302
 44
0.0
 45
0.000000001
 73
     0
 74
     0
 77
     1
 78
    12
 79
     3
140
3.5
147
0.875
172
     1
173
     1
178
     0
271
     2
272
     2
276
     2
284
    12
289
     0
340
94
  0
DIMSTYLE
105
101
330
A
100
AcDbSymbolTableRecord
100
AcDbDimStyleTableRecord
  2
SLDDIMSTYLE1
 70
     0
 41
3.302
 44
0.0
 45
0.000000001
 73
     0
 74
     0
 77
     1
 78
    12
 79
     3
140
3.5
147
0.875
173
     1
178
     0
271
     2
272
     2
276
     2
284
    12
340
94
  0
ENDTAB
  0
TABLE
  2
BLOCK_RECORD
  5
1
330
0
100
AcDbSymbolTable
 70
    15
  0
BLOCK_RECORD
  5
1F
330
1
100
AcDbSymbolTableRecord
100
AcDbBlockTableRecord
  2
*Model_Space
340
22
  0
BLOCK_RECORD
  5
1B
330
1
100
AcDbSymbolTableRecord
100
AcDbBlockTableRecord
  2
*Paper_Space
340
1E
  0
BLOCK_RECORD
  5
23
330
1
100
AcDbSymbolTableRecord
100
AcDbBlockTableRecord
  2
*Paper_Space0
340
26
  0
BLOCK_RECORD
  5
7F
330
1
100
AcDbSymbolTableRecord
100
AcDbBlockTableRecord
  2
블럭10
340
0
102
{BLKREFS
331
D2
102
}
  0
BLOCK_RECORD
  5
DB
330
1
100
AcDbSymbolTableRecord
100
AcDbBlockTableRecord
  2
_D
340
0
  0
BLOCK_RECORD
  5
E8
330
1
100
AcDbSymbolTableRecord
100
AcDbBlockTableRecord
  2
_D_1
340
0
  0
BLOCK_RECORD
  5
F5
330
1
100
AcDbSymbolTableRecord
100
AcDbBlockTableRecord
  2
_D_2
340
0
  0
BLOCK_RECORD
  5
102
330
1
100
AcDbSymbolTableRecord
100
AcDbBlockTableRecord
  2
_D_3
340
0
  0
BLOCK_RECORD
  5
112
330
1
100
AcDbSymbolTableRecord
100
AcDbBlockTableRecord
  2
SW_DOWELSYMBOL_0
340
0
102
{BLKREFS
331
118
102
}
  0
BLOCK_RECORD
  5
183
330
1
100
AcDbSymbolTableRecord
100
AcDbBlockTableRecord
  2
*D8
340
0
  0
BLOCK_RECORD
  5
190
330
1
100
AcDbSymbolTableRecord
100
AcDbBlockTableRecord
  2
*D9
340
0
  0
BLOCK_RECORD
  5
19F
330
1
100
AcDbSymbolTableRecord
100
AcDbBlockTableRecord
  2
*D10
340
0
  0
BLOCK_RECORD
  5
1B3
330
1
100
AcDbSymbolTableRecord
100
AcDbBlockTableRecord
  2
*D11
340
0
  0
BLOCK_RECORD
  5
1C2
330
1
100
AcDbSymbolTableRecord
100
AcDbBlockTableRecord
  2
*D12
340
0
  0
BLOCK_RECORD
  5
1D0
330
1
100
AcDbSymbolTableRecord
100
AcDbBlockTableRecord
  2
*D13
340
0
  0
BLOCK_RECORD
  5
1FA
330
1
100
AcDbSymbolTableRecord
100
AcDbBlockTableRecord
  2
*D14
340
0
  0
ENDTAB
  0
ENDSEC
  0
SECTION
  2
BLOCKS
  0
BLOCK
  5
20
330
1F
100
AcDbEntity
  8
0
100
AcDbBlockBegin
  2
*Model_Space
 70
     0
 10
0.0
 20
0.0
 30
0.0
  3
*Model_Space
  1

  0
ENDBLK
  5
21
330
1F
100
AcDbEntity
  8
0
100
AcDbBlockEnd
  0
BLOCK
  5
1C
330
1B
100
AcDbEntity
 67
     1
  8
0
100
AcDbBlockBegin
  2
*Paper_Space
 70
     0
 10
0.0
 20
0.0
 30
0.0
  3
*Paper_Space
  1

  0
ENDBLK
  5
1D
330
1B
100
AcDbEntity
 67
     1
  8
0
100
AcDbBlockEnd
  0
BLOCK
  5
24
330
23
100
AcDbEntity
  8
0
100
AcDbBlockBegin
  2
*Paper_Space0
 70
     0
 10
0.0
 20
0.0
 30
0.0
  3
*Paper_Space0
  1

  0
ENDBLK
  5
25
330
23
100
AcDbEntity
  8
0
100
AcDbBlockEnd
  0
BLOCK
  5
80
330
7F
100
AcDbEntity
  8
0
100
AcDbBlockBegin
  2
블럭10
 70
     2
 10
0.0
 20
0.0
 30
0.0
  3
블럭10
  1

  0
ELLIPSE
  5
82
330
7F
100
AcDbEntity
  8
중심선
100
AcDbEllipse
 10
20.54032771741204
 20
12.0471743016438
 30
0.0
 11
6.600054785286829
 21
-1.261213355974178E-13
 31
0.0
210
0.0
220
0.0
230
1.0
 40
0.636358354079598
 41
0.9219305317359503
 42
6.513795318482858
  0
ELLIPSE
  5
83
330
7F
100
AcDbEntity
  8
중심선
100
AcDbEllipse
 10
20.54032771746488
 20
12.04717430159265
 30
0.0
 11
3.960054785062283
 21
1.540847449632565E-10
 31
0.0
210
0.0
220
0.0
230
1.0
 40
0.3939339440162632
 41
1.131841032648279
 42
5.62031148352944
  0
LINE
  5
84
330
7F
100
AcDbEntity
  8
중심선
100
AcDbLine
 10
2.268634060543552
 20
16.24717430164393
 30
0.0
 11
5.714909304380834
 21
16.24717430164393
 31
0.0
  0
LINE
  5
85
330
7F
100
AcDbEntity
  8
중심선
100
AcDbLine
 10
5.245725140726316
 20
7.84717430164391
 30
0.0
 11
8.692000384563599
 21
7.84717430164391
 31
0.0
  0
LINE
  5
86
330
7F
100
AcDbEntity
  8
중심선
100
AcDbLine
 10
15.74043728645272
 20
16.24717430164393
 30
0.0
 11
8.692000384563599
 21
7.84717430164391
 31
0.0
  0
LINE
  5
87
330
7F
100
AcDbEntity
  8
중심선
100
AcDbLine
 10
0.1404042013395286
 20
13.71084872107135
 30
0.0
 11
3.58671253028996
 21
13.71088815037384
 31
0.0
  0
LINE
  5
88
330
7F
100
AcDbEntity
  8
중심선
100
AcDbLine
 10
2.750260043222114
 20
10.84717430164391
 30
0.0
 11
6.196535287059397
 21
10.84717430164391
 31
0.0
  0
LINE
  5
89
330
7F
100
AcDbEntity
  8
중심선
100
AcDbLine
 10
12.29416204261559
 20
16.24717430164393
 30
0.0
 11
5.245725140726316
 21
7.84717430164391
 31
0.0
  0
LINE
  5
8A
330
7F
100
AcDbEntity
  8
중심선
100
AcDbLine
 10
10.72767329541681
 20
16.24717430164393
 30
0.0
 11
6.196535287059397
 21
10.84717430164391
 31
0.0
  0
LINE
  5
8B
330
7F
100
AcDbEntity
  8
중심선
100
AcDbLine
 10
7.28139805157953
 20
16.24717430164393
 30
0.0
 11
2.750260043222114
 21
10.84717430164391
 31
0.0
  0
LINE
  5
8C
330
7F
100
AcDbEntity
  8
중심선
100
AcDbLine
 10
5.714909304380834
 20
16.24717430164393
 30
0.0
 11
3.58671253028996
 21
13.71088815037384
 31
0.0
  0
LINE
  5
8D
330
7F
100
AcDbEntity
  8
중심선
100
AcDbLine
 10
2.268634060543552
 20
16.24717430164393
 30
0.0
 11
0.1404042013395286
 21
13.71084872107135
 31
0.0
  0
LINE
  5
8E
330
7F
100
AcDbEntity
  8
중심선
100
AcDbLine
 10
7.28139805157953
 20
16.24717430164393
 30
0.0
 11
10.72767329541681
 21
16.24717430164393
 31
0.0
  0
LINE
  5
8F
330
7F
100
AcDbEntity
  8
중심선
100
AcDbLine
 10
12.29416204261559
 20
16.24717430164393
 30
0.0
 11
15.74043728645272
 21
16.24717430164393
 31
0.0
  0
LINE
  5
90
330
7F
100
AcDbEntity
  8
중심선
100
AcDbLine
 10
19.22036997980202
 20
11.08717430171403
 30
0.0
 11
23.66174974927406
 21
11.08717430171406
 31
0.0
  0
LINE
  5
91
330
7F
100
AcDbEntity
  8
중심선
100
AcDbLine
 10
19.22039502424796
 20
13.00717430171391
 30
0.0
 11
19.22036997980202
 21
11.08717430171403
 31
0.0
  0
LINE
  5
92
330
7F
100
AcDbEntity
  8
중심선
100
AcDbLine
 10
19.22039502424796
 20
13.00717430171391
 30
0.0
 11
26.96566020931264
 21
13.00717430171391
 31
0.0
  0
LINE
  5
93
330
7F
100
AcDbEntity
  8
중심선
100
AcDbLine
 10
22.22332737316547
 20
13.45928029700563
 30
0.0
 11
24.52862924686651
 21
15.39360700705356
 31
0.0
  0
ATTDEF
  5
95
330
7F
100
AcDbEntity
  8
FORMAT
 62
     2
100
AcDbText
 10
-16.11926103943555
 20
2.075366912832191
 30
0.0
 40
4.233333333333333
  1
SEME0102001E [ 4 FLUTE ]
 41
0.75
  7
SLDTEXTSTYLE0
 11
-16.11926103943555
 21
-0.0412997538344756
 31
0.0
100
AcDbAttributeDefinition
  3

  2
AUTOATTR0
 70
     0
 74
     1
  0
ENDBLK
  5
81
330
7F
100
AcDbEntity
  8
0
100
AcDbBlockEnd
  0
BLOCK
  5
DC
330
DB
100
AcDbEntity
  8
0
100
AcDbBlockBegin
  2
_D
 70
     0
 10
0.0
 20
0.0
 30
0.0
  3
_D
  1

  0
LINE
  5
DE
330
DB
100
AcDbEntity
  8
치수문자_일반주서
 62
     0
370
    -2
100
AcDbLine
 10
16.52660161513775
 20
1.00107492872389
 30
0.0
 11
24.46410161513774
 21
1.001074928723919
 31
0.0
  0
LINE
  5
DF
330
DB
100
AcDbEntity
  8
치수문자_일반주서
 62
     0
370
    -2
100
AcDbLine
 10
16.52660161513775
 20
-0.9989250712761106
 30
0.0
 11
24.46410161513775
 21
-0.99892507127608
 31
0.0
  0
LINE
  5
E0
330
DB
100
AcDbEntity
  8
치수문자_일반주서
 62
     0
370
    -2
100
AcDbLine
 10
24.46410161513774
 20
1.001074928723919
 30
0.0
 11
24.46410161513771
 21
10.87607492872393
 31
0.0
  0
LINE
  5
E1
330
DB
100
AcDbEntity
  8
치수문자_일반주서
 62
     0
370
    -2
100
AcDbLine
 10
24.46410161513774
 20
1.001074928723919
 30
0.0
 11
24.46410161513775
 21
-0.99892507127608
 31
0.0
  0
LINE
  5
E2
330
DB
100
AcDbEntity
  8
치수문자_일반주서
 62
     0
370
    -2
100
AcDbLine
 10
24.46410161513774
 20
3.501074928723919
 30
0.0
 11
24.46410161513773
 21
6.001074928723919
 31
0.0
  0
LINE
  5
E3
330
DB
100
AcDbEntity
  8
치수문자_일반주서
 62
     0
370
    -2
100
AcDbLine
 10
24.46410161513776
 20
-3.49892507127608
 30
0.0
 11
24.46410161513776
 21
-5.99892507127608
 31
0.0
  0
SOLID
  5
E4
330
DB
100
AcDbEntity
  8
치수문자_일반주서
 62
     0
100
AcDbTrace
 10
24.04743494847107
 20
3.501074928723918
 30
0.0
 11
24.8807682818044
 21
3.50107492872392
 31
0.0
 12
24.46410161513774
 22
1.001074928723919
 32
0.0
 13
24.46410161513774
 23
1.001074928723919
 33
0.0
  0
SOLID
  5
E5
330
DB
100
AcDbEntity
  8
치수문자_일반주서
 62
     0
100
AcDbTrace
 10
24.88076828180442
 20
-3.498925071276079
 30
0.0
 11
24.04743494847109
 21
-3.498925071276081
 31
0.0
 12
24.46410161513775
 22
-0.99892507127608
 32
0.0
 13
24.46410161513775
 23
-0.99892507127608
 33
0.0
  0
MTEXT
  5
E6
330
DB
100
AcDbEntity
  8
치수문자_일반주서
 62
     0
100
AcDbMText
 10
21.08910161513772
 20
8.438574928723918
 30
0.0
 40
2.5
 41
0.0
 71
     2
 72
     1
  1
\A1;%%c2
  7
SLDTEXTSTYLE0
 11
-3.552713678800501E-15
 21
1.0
 31
0.0
 73
     1
 44
1.0
  0
POINT
  5
1E8
330
DB
100
AcDbEntity
  8
Defpoints
 62
     0
100
AcDbPoint
 10
16.46410161513775
 20
1.001074928723889
 30
0.0
  0
POINT
  5
1E9
330
DB
100
AcDbEntity
  8
Defpoints
 62
     0
100
AcDbPoint
 10
16.46410161513775
 20
-0.9989250712761109
 30
0.0
  0
POINT
  5
1EA
330
DB
100
AcDbEntity
  8
Defpoints
 62
     0
100
AcDbPoint
 10
24.46410161513775
 20
-0.998925071276081
 30
0.0
  0
ENDBLK
  5
DD
330
DB
100
AcDbEntity
  8
0
100
AcDbBlockEnd
  0
BLOCK
  5
E9
330
E8
100
AcDbEntity
  8
0
100
AcDbBlockBegin
  2
_D_1
 70
     0
 10
0.0
 20
0.0
 30
0.0
  3
_D_1
  1

  0
LINE
  5
EB
330
E8
100
AcDbEntity
  8
치수문자_일반주서
 62
     0
370
    -2
100
AcDbLine
 10
-32.99839838486225
 20
3.001074928723896
 30
0.0
 11
-41.53589838486224
 21
3.001074928723864
 31
0.0
  0
LINE
  5
EC
330
E8
100
AcDbEntity
  8
치수문자_일반주서
 62
     0
370
    -2
100
AcDbLine
 10
-32.99839838486225
 20
-2.99892507127611
 30
0.0
 11
-41.53589838486222
 21
-2.99892507127614
 31
0.0
  0
LINE
  5
ED
330
E8
100
AcDbEntity
  8
치수문자_일반주서
 62
     0
370
    -2
100
AcDbLine
 10
-41.53589838486224
 20
3.001074928723864
 30
0.0
 11
-41.53589838486228
 21
12.87607492872387
 31
0.0
  0
LINE
  5
EE
330
E8
100
AcDbEntity
  8
치수문자_일반주서
 62
     0
370
    -2
100
AcDbLine
 10
-41.53589838486224
 20
3.001074928723864
 30
0.0
 11
-41.53589838486222
 21
-2.99892507127614
 31
0.0
  0
LINE
  5
EF
330
E8
100
AcDbEntity
  8
치수문자_일반주서
 62
     0
370
    -2
100
AcDbLine
 10
-41.53589838486225
 20
5.501074928723864
 30
0.0
 11
-41.53589838486226
 21
8.001074928723863
 31
0.0
  0
LINE
  5
F0
330
E8
100
AcDbEntity
  8
치수문자_일반주서
 62
     0
370
    -2
100
AcDbLine
 10
-41.53589838486221
 20
-5.49892507127614
 30
0.0
 11
-41.53589838486221
 21
-7.99892507127614
 31
0.0
  0
SOLID
  5
F1
330
E8
100
AcDbEntity
  8
치수문자_일반주서
 62
     0
100
AcDbTrace
 10
-41.95256505152891
 20
5.501074928723862
 30
0.0
 11
-41.11923171819559
 21
5.501074928723866
 31
0.0
 12
-41.53589838486224
 22
3.001074928723864
 32
0.0
 13
-41.53589838486224
 23
3.001074928723864
 33
0.0
  0
SOLID
  5
F2
330
E8
100
AcDbEntity
  8
치수문자_일반주서
 62
     0
100
AcDbTrace
 10
-41.11923171819555
 20
-5.498925071276139
 30
0.0
 11
-41.95256505152888
 21
-5.498925071276142
 31
0.0
 12
-41.53589838486222
 22
-2.99892507127614
 32
0.0
 13
-41.53589838486222
 23
-2.99892507127614
 33
0.0
  0
MTEXT
  5
F3
330
E8
100
AcDbEntity
  8
치수문자_일반주서
 62
     0
100
AcDbMText
 10
-44.91089838486227
 20
10.43857492872386
 30
0.0
 40
2.5
 41
0.0
 71
     2
 72
     1
  1
\A1;%%c6
  7
SLDTEXTSTYLE0
 11
-3.552713678800498E-15
 21
1.0
 31
0.0
 73
     1
 44
1.0
  0
POINT
  5
1E3
330
E8
100
AcDbEntity
  8
Defpoints
 62
     0
100
AcDbPoint
 10
-32.93589838486225
 20
3.001074928723896
 30
0.0
  0
POINT
  5
1E4
330
E8
100
AcDbEntity
  8
Defpoints
 62
     0
100
AcDbPoint
 10
-32.93589838486225
 20
-2.998925071276109
 30
0.0
  0
POINT
  5
1E5
330
E8
100
AcDbEntity
  8
Defpoints
 62
     0
100
AcDbPoint
 10
-41.53589838486222
 20
-2.998925071276141
 30
0.0
  0
ENDBLK
  5
EA
330
E8
100
AcDbEntity
  8
0
100
AcDbBlockEnd
  0
BLOCK
  5
F6
330
F5
100
AcDbEntity
  8
0
100
AcDbBlockBegin
  2
_D_2
 70
     0
 10
0.0
 20
0.0
 30
0.0
  3
_D_2
  1

  0
LINE
  5
F8
330
F5
100
AcDbEntity
  8
치수문자_일반주서
 62
     0
370
    -2
100
AcDbLine
 10
16.46410161513775
 20
1.063574928723889
 30
0.0
 11
16.46410161513775
 21
11.00107492872389
 31
0.0
  0
LINE
  5
F9
330
F5
100
AcDbEntity
  8
치수문자_일반주서
 62
     0
370
    -2
100
AcDbLine
 10
10.46410161513777
 20
0.9815637204649407
 30
0.0
 11
10.46410161513777
 21
11.00107492872389
 31
0.0
  0
LINE
  5
FA
330
F5
100
AcDbEntity
  8
치수문자_일반주서
 62
     0
370
    -2
100
AcDbLine
 10
16.46410161513775
 20
11.00107492872389
 30
0.0
 11
10.46410161513777
 21
11.00107492872389
 31
0.0
  0
LINE
  5
FB
330
F5
100
AcDbEntity
  8
치수문자_일반주서
 62
     0
370
    -2
100
AcDbLine
 10
18.96410161513775
 20
11.00107492872389
 30
0.0
 11
21.46410161513775
 21
11.00107492872389
 31
0.0
  0
LINE
  5
FC
330
F5
100
AcDbEntity
  8
치수문자_일반주서
 62
     0
370
    -2
100
AcDbLine
 10
7.964101615137768
 20
11.00107492872389
 30
0.0
 11
5.464101615137768
 21
11.00107492872389
 31
0.0
  0
SOLID
  5
FD
330
F5
100
AcDbEntity
  8
치수문자_일반주서
 62
     0
100
AcDbTrace
 10
18.96410161513775
 20
11.41774159539056
 30
0.0
 11
18.96410161513775
 21
10.58440826205723
 31
0.0
 12
16.46410161513775
 22
11.00107492872389
 32
0.0
 13
16.46410161513775
 23
11.00107492872389
 33
0.0
  0
SOLID
  5
FE
330
F5
100
AcDbEntity
  8
치수문자_일반주서
 62
     0
100
AcDbTrace
 10
7.964101615137768
 20
10.58440826205723
 30
0.0
 11
7.964101615137768
 21
11.41774159539056
 31
0.0
 12
10.46410161513777
 22
11.00107492872389
 32
0.0
 13
10.46410161513777
 23
11.00107492872389
 33
0.0
  0
MTEXT
  5
FF
330
F5
100
AcDbEntity
  8
치수문자_일반주서
 62
     0
100
AcDbMText
 10
13.46410161513776
 20
14.37607492872389
 30
0.0
 40
2.5
 41
0.0
 71
     2
 72
     1
  1
\A1;6
  7
SLDTEXTSTYLE0
 73
     1
 44
1.0
  0
POINT
  5
1D9
330
F5
100
AcDbEntity
  8
Defpoints
 62
     0
100
AcDbPoint
 10
16.46410161513775
 20
1.001074928723889
 30
0.0
  0
POINT
  5
1E6
330
F5
100
AcDbEntity
  8
Defpoints
 62
     0
100
AcDbPoint
 10
10.46410161513777
 20
0.9190637204649407
 30
0.0
  0
POINT
  5
1E7
330
F5
100
AcDbEntity
  8
Defpoints
 62
     0
100
AcDbPoint
 10
10.46410161513777
 20
11.00107492872389
 30
0.0
  0
ENDBLK
  5
F7
330
F5
100
AcDbEntity
  8
0
100
AcDbBlockEnd
  0
BLOCK
  5
103
330
102
100
AcDbEntity
  8
0
100
AcDbBlockBegin
  2
_D_3
 70
     0
 10
0.0
 20
0.0
 30
0.0
  3
_D_3
  1

  0
LINE
  5
105
330
102
100
AcDbEntity
  8
치수문자_일반주서
 62
     0
370
    -2
100
AcDbLine
 10
16.46410161513775
 20
1.063574928723889
 30
0.0
 11
16.46410161513775
 21
19.00107492872389
 31
0.0
  0
LINE
  5
106
330
102
100
AcDbEntity
  8
치수문자_일반주서
 62
     0
370
    -2
100
AcDbLine
 10
-33.53589838486224
 20
2.463574928723895
 30
0.0
 11
-33.53589838486224
 21
19.00107492872389
 31
0.0
  0
LINE
  5
107
330
102
100
AcDbEntity
  8
치수문자_일반주서
 62
     0
370
    -2
100
AcDbLine
 10
13.96410161513775
 20
19.00107492872389
 30
0.0
 11
-31.03589838486224
 21
19.00107492872389
 31
0.0
  0
SOLID
  5
108
330
102
100
AcDbEntity
  8
치수문자_일반주서
 62
     0
100
AcDbTrace
 10
13.96410161513775
 20
18.58440826205722
 30
0.0
 11
13.96410161513775
 21
19.41774159539056
 31
0.0
 12
16.46410161513775
 22
19.00107492872389
 32
0.0
 13
16.46410161513775
 23
19.00107492872389
 33
0.0
  0
SOLID
  5
109
330
102
100
AcDbEntity
  8
치수문자_일반주서
 62
     0
100
AcDbTrace
 10
-31.03589838486224
 20
19.41774159539056
 30
0.0
 11
-31.03589838486224
 21
18.58440826205722
 31
0.0
 12
-33.53589838486224
 22
19.00107492872389
 32
0.0
 13
-33.53589838486224
 23
19.00107492872389
 33
0.0
  0
MTEXT
  5
10A
330
102
100
AcDbEntity
  8
치수문자_일반주서
 62
     0
100
AcDbMText
 10
-8.535898384862247
 20
22.37607492872389
 30
0.0
 40
2.5
 41
0.0
 71
     2
 72
     1
  1
\A1;50
  7
SLDTEXTSTYLE0
 73
     1
 44
1.0
  0
POINT
  5
1DA
330
102
100
AcDbEntity
  8
Defpoints
 62
     0
100
AcDbPoint
 10
16.46410161513775
 20
1.001074928723889
 30
0.0
  0
POINT
  5
1DB
330
102
100
AcDbEntity
  8
Defpoints
 62
     0
100
AcDbPoint
 10
-33.53589838486224
 20
2.401074928723895
 30
0.0
  0
POINT
  5
1DC
330
102
100
AcDbEntity
  8
Defpoints
 62
     0
100
AcDbPoint
 10
-33.53589838486224
 20
19.00107492872389
 30
0.0
  0
ENDBLK
  5
104
330
102
100
AcDbEntity
  8
0
100
AcDbBlockEnd
  0
BLOCK
  5
113
330
112
100
AcDbEntity
  8
0
100
AcDbBlockBegin
  2
SW_DOWELSYMBOL_0
 70
     0
 10
0.0
 20
0.0
 30
0.0
  3
SW_DOWELSYMBOL_0
  1

  0
CIRCLE
  5
115
330
112
100
AcDbEntity
  8
해칭선
 62
     0
100
AcDbCircle
 10
0.0
 20
0.0
 30
0.0
 40
3.000000000000001
  0
HATCH
  5
116
330
112
100
AcDbEntity
  8
0
  6
Continuous
 62
     0
370
     0
100
AcDbHatch
 10
0.0
 20
0.0
 30
0.0
210
0.0
220
0.0
230
1.0
  2
SOLID
 70
     1
 71
     0
 91
        1
 92
        0
 93
        3
 72
     2
 10
0.0
 20
0.0
 40
3.000000000000001
 50
0.0
 51
90.0
 73
     1
 72
     1
 10
0.0
 20
3.000000000000001
 11
0.0
 21
0.0
 72
     1
 10
0.0
 20
0.0
 11
3.000000000000001
 21
0.0
 97
        0
 75
     0
 76
     1
 98
        1
 10
0.0
 20
0.0
  0
HATCH
  5
117
330
112
100
AcDbEntity
  8
0
  6
Continuous
 62
     0
370
     0
100
AcDbHatch
 10
0.0
 20
0.0
 30
0.0
210
0.0
220
0.0
230
1.0
  2
SOLID
 70
     1
 71
     0
 91
        1
 92
        0
 93
        3
 72
     2
 10
0.0
 20
0.0
 40
3.000000000000001
 50
180.0
 51
270.0000000000008
 73
     1
 72
     1
 10
0.0
 20
-3.000000000000001
 11
0.0
 21
0.0
 72
     1
 10
0.0
 20
0.0
 11
-3.000000000000001
 21
0.0
 97
        0
 75
     0
 76
     1
 98
        1
 10
0.0
 20
0.0
  0
ENDBLK
  5
114
330
112
100
AcDbEntity
  8
0
100
AcDbBlockEnd
  0
BLOCK
  5
184
330
183
100
AcDbEntity
  8
0
100
AcDbBlockBegin
  2
*D8
 70
     1
 10
0.0
 20
0.0
 30
0.0
  3
*D8
  1

  0
LINE
  5
185
330
183
100
AcDbEntity
  8
치수문자_일반주서
 62
     0
370
    -2
100
AcDbLine
 10
9.157089827360679
 20
13.96970345054478
 30
0.0
 11
16.8732305693942
 21
0.0000000000001306
 31
0.0
  0
MTEXT
  5
186
330
183
100
AcDbEntity
  8
치수문자_일반주서
 62
     0
100
AcDbMText
 10
17.17708889698974
 20
3.844950803229067
 30
0.0
 40
2.5
 41
0.0
 71
     5
 72
     1
  1
\A1;R0.1
  7
SLDTEXTSTYLE0
 11
0.4834960874464161
 21
-0.8753465219123269
 31
0.0
 73
     1
 44
1.0
  0
LINE
  5
187
330
183
100
AcDbEntity
  8
치수문자_일반주서
 62
     0
370
    -2
100
AcDbLine
 10
7.899999999999999
 20
16.24560440751683
 30
0.0
 11
7.948349608744639
 21
16.1580697553256
 31
0.0
  0
SOLID
  5
188
330
183
100
AcDbEntity
  8
치수문자_일반주서
 62
     0
100
AcDbTrace
 10
9.521817544824149
 20
14.17116015364745
 30
0.0
 11
8.792362109897208
 21
13.76824674744211
 31
0.0
 12
7.948349608744639
 22
16.1580697553256
 32
0.0
 13
7.948349608744639
 23
16.1580697553256
 33
0.0
  0
POINT
  5
189
330
183
100
AcDbEntity
  8
Defpoints
 62
     0
100
AcDbPoint
 10
7.948349608744639
 20
16.1580697553256
 30
0.0
  0
POINT
  5
18A
330
183
100
AcDbEntity
  8
Defpoints
 62
     0
100
AcDbPoint
 10
7.899999999999999
 20
16.24560440751683
 30
0.0
  0
ENDBLK
  5
18B
330
183
100
AcDbEntity
  8
0
100
AcDbBlockEnd
  0
BLOCK
  5
191
330
190
100
AcDbEntity
  8
0
100
AcDbBlockBegin
  2
*D9
 70
     1
 10
0.0
 20
0.0
 30
0.0
  3
*D9
  1

  0
LINE
  5
193
330
190
100
AcDbEntity
  8
치수문자_일반주서
 62
     0
370
    -2
100
AcDbLine
 10
8.0625
 20
17.34560440751683
 30
0.0
 11
16.0
 21
17.34560440751686
 31
0.0
  0
LINE
  5
194
330
190
100
AcDbEntity
  8
치수문자_일반주서
 62
     0
370
    -2
100
AcDbLine
 10
8.0625
 20
16.14560440751683
 30
0.0
 11
16.00000000000001
 21
16.14560440751686
 31
0.0
  0
LINE
  5
195
330
190
100
AcDbEntity
  8
치수문자_일반주서
 62
     0
370
    -2
100
AcDbLine
 10
16.0
 20
17.34560440751686
 30
0.0
 11
15.99999999999997
 21
29.09560440751687
 31
0.0
  0
LINE
  5
196
330
190
100
AcDbEntity
  8
치수문자_일반주서
 62
     0
370
    -2
100
AcDbLine
 10
16.0
 20
17.34560440751686
 30
0.0
 11
16.00000000000001
 21
16.14560440751686
 31
0.0
  0
LINE
  5
197
330
190
100
AcDbEntity
  8
치수문자_일반주서
 62
     0
370
    -2
100
AcDbLine
 10
16.0
 20
19.84560440751686
 30
0.0
 11
15.99999999999999
 21
22.34560440751686
 31
0.0
  0
LINE
  5
198
330
190
100
AcDbEntity
  8
치수문자_일반주서
 62
     0
370
    -2
100
AcDbLine
 10
16.00000000000001
 20
13.64560440751686
 30
0.0
 11
16.00000000000002
 21
11.14560440751686
 31
0.0
  0
SOLID
  5
199
330
190
100
AcDbEntity
  8
치수문자_일반주서
 62
     0
100
AcDbTrace
 10
15.58333333333333
 20
19.84560440751686
 30
0.0
 11
16.41666666666666
 21
19.84560440751686
 31
0.0
 12
16.0
 22
17.34560440751686
 32
0.0
 13
16.0
 23
17.34560440751686
 33
0.0
  0
SOLID
  5
19A
330
190
100
AcDbEntity
  8
치수문자_일반주서
 62
     0
100
AcDbTrace
 10
16.41666666666668
 20
13.64560440751686
 30
0.0
 11
15.58333333333335
 21
13.64560440751686
 31
0.0
 12
16.00000000000001
 22
16.14560440751686
 32
0.0
 13
16.00000000000001
 23
16.14560440751686
 33
0.0
  0
MTEXT
  5
19B
330
190
100
AcDbEntity
  8
치수문자_일반주서
 62
     0
100
AcDbMText
 10
12.62499999999998
 20
25.72060440751686
 30
0.0
 40
2.5
 41
0.0
 71
     2
 72
     1
  1
\A1;%%c1.2
  7
SLDTEXTSTYLE0
 11
-2.960594732333752E-15
 21
1.0
 31
0.0
 73
     1
 44
1.0
  0
POINT
  5
19C
330
190
100
AcDbEntity
  8
Defpoints
 62
     0
100
AcDbPoint
 10
8.0
 20
17.34560440751683
 30
0.0
  0
POINT
  5
19D
330
190
100
AcDbEntity
  8
Defpoints
 62
     0
100
AcDbPoint
 10
8.0
 20
16.14560440751683
 30
0.0
  0
POINT
  5
19E
330
190
100
AcDbEntity
  8
Defpoints
 62
     0
100
AcDbPoint
 10
16.0
 20
16.14560440751686
 30
0.0
  0
ENDBLK
  5
192
330
190
100
AcDbEntity
  8
0
100
AcDbBlockEnd
  0
BLOCK
  5
1A0
330
19F
100
AcDbEntity
  8
0
100
AcDbBlockBegin
  2
*D10
 70
     1
 10
0.0
 20
0.0
 30
0.0
  3
*D10
  1

  0
LINE
  5
1A2
330
19F
100
AcDbEntity
  8
치수문자_일반주서
 62
     0
370
    -2
100
AcDbLine
 10
8.0
 20
17.40810440751683
 30
0.0
 11
8.0
 21
27.74560440751683
 31
0.0
  0
LINE
  5
1A3
330
19F
100
AcDbEntity
  8
치수문자_일반주서
 62
     0
370
    -2
100
AcDbLine
 10
5.0
 20
17.39957619746455
 30
0.0
 11
5.0
 21
27.74560440751683
 31
0.0
  0
LINE
  5
1A4
330
19F
100
AcDbEntity
  8
치수문자_일반주서
 62
     0
370
    -2
100
AcDbLine
 10
8.0
 20
27.74560440751683
 30
0.0
 11
5.0
 21
27.74560440751683
 31
0.0
  0
LINE
  5
1A5
330
19F
100
AcDbEntity
  8
치수문자_일반주서
 62
     0
370
    -2
100
AcDbLine
 10
10.5
 20
27.74560440751683
 30
0.0
 11
13.0
 21
27.74560440751683
 31
0.0
  0
LINE
  5
1A6
330
19F
100
AcDbEntity
  8
치수문자_일반주서
 62
     0
370
    -2
100
AcDbLine
 10
2.5
 20
27.74560440751683
 30
0.0
 11
0.0
 21
27.74560440751683
 31
0.0
  0
SOLID
  5
1A7
330
19F
100
AcDbEntity
  8
치수문자_일반주서
 62
     0
100
AcDbTrace
 10
10.5
 20
28.1622710741835
 30
0.0
 11
10.5
 21
27.32893774085016
 31
0.0
 12
8.0
 22
27.74560440751683
 32
0.0
 13
8.0
 23
27.74560440751683
 33
0.0
  0
SOLID
  5
1A8
330
19F
100
AcDbEntity
  8
치수문자_일반주서
 62
     0
100
AcDbTrace
 10
2.5
 20
27.32893774085016
 30
0.0
 11
2.5
 21
28.1622710741835
 31
0.0
 12
5.0
 22
27.74560440751683
 32
0.0
 13
5.0
 23
27.74560440751683
 33
0.0
  0
MTEXT
  5
1A9
330
19F
100
AcDbEntity
  8
치수문자_일반주서
 62
     0
100
AcDbMText
 10
6.499999999999899
 20
31.12060440751683
 30
0.0
 40
2.5
 41
0.0
 71
     2
 72
     1
  1
\A1;3
  7
SLDTEXTSTYLE0
 73
     1
 44
1.0
  0
POINT
  5
1AA
330
19F
100
AcDbEntity
  8
Defpoints
 62
     0
100
AcDbPoint
 10
8.0
 20
17.34560440751683
 30
0.0
  0
POINT
  5
1AB
330
19F
100
AcDbEntity
  8
Defpoints
 62
     0
100
AcDbPoint
 10
5.0
 20
17.33707619746455
 30
0.0
  0
POINT
  5
1AC
330
19F
100
AcDbEntity
  8
Defpoints
 62
     0
100
AcDbPoint
 10
5.0
 20
27.74560440751683
 30
0.0
  0
ENDBLK
  5
1A1
330
19F
100
AcDbEntity
  8
0
100
AcDbBlockEnd
  0
BLOCK
  5
1B4
330
1B3
100
AcDbEntity
  8
0
100
AcDbBlockBegin
  2
*D11
 70
     1
 10
0.0
 20
0.0
 30
0.0
  3
*D11
  1

  0
LINE
  5
1B6
330
1B3
100
AcDbEntity
  8
치수문자_일반주서
 62
     0
370
    -2
100
AcDbLine
 10
28.35587177304949
 20
6.148257344992125
 30
0.0
 11
36.29337177304952
 21
6.148257344992155
 31
0.0
  0
LINE
  5
1B7
330
1B3
100
AcDbEntity
  8
치수문자_일반주서
 62
     0
370
    -2
100
AcDbLine
 10
28.35587177304949
 20
4.948257344992125
 30
0.0
 11
36.29337177304953
 21
4.948257344992156
 31
0.0
  0
LINE
  5
1B8
330
1B3
100
AcDbEntity
  8
치수문자_일반주서
 62
     0
370
    -2
100
AcDbLine
 10
36.29337177304952
 20
6.148257344992155
 30
0.0
 11
36.29337177304945
 21
17.89825734499216
 31
0.0
  0
LINE
  5
1B9
330
1B3
100
AcDbEntity
  8
치수문자_일반주서
 62
     0
370
    -2
100
AcDbLine
 10
36.29337177304952
 20
6.148257344992155
 30
0.0
 11
36.29337177304953
 21
4.948257344992156
 31
0.0
  0
LINE
  5
1BA
330
1B3
100
AcDbEntity
  8
치수문자_일반주서
 62
     0
370
    -2
100
AcDbLine
 10
36.29337177304951
 20
8.648257344992155
 30
0.0
 11
36.29337177304949
 21
11.14825734499215
 31
0.0
  0
LINE
  5
1BB
330
1B3
100
AcDbEntity
  8
치수문자_일반주서
 62
     0
370
    -2
100
AcDbLine
 10
36.29337177304954
 20
2.448257344992156
 30
0.0
 11
36.29337177304956
 21
-0.0517426550078444
 31
0.0
  0
SOLID
  5
1BC
330
1B3
100
AcDbEntity
  8
치수문자_일반주서
 62
     0
100
AcDbTrace
 10
35.87670510638284
 20
8.648257344992153
 30
0.0
 11
36.71003843971617
 21
8.648257344992157
 31
0.0
 12
36.29337177304952
 22
6.148257344992155
 32
0.0
 13
36.29337177304952
 23
6.148257344992155
 33
0.0
  0
SOLID
  5
1BD
330
1B3
100
AcDbEntity
  8
치수문자_일반주서
 62
     0
100
AcDbTrace
 10
36.71003843971621
 20
2.448257344992158
 30
0.0
 11
35.87670510638288
 21
2.448257344992153
 31
0.0
 12
36.29337177304953
 22
4.948257344992156
 32
0.0
 13
36.29337177304953
 23
4.948257344992156
 33
0.0
  0
MTEXT
  5
1BE
330
1B3
100
AcDbEntity
  8
치수문자_일반주서
 62
     0
100
AcDbMText
 10
32.91837177304947
 20
14.52325734499214
 30
0.0
 40
2.5
 41
0.0
 71
     2
 72
     1
  1
\A1;%%c1.2
  7
SLDTEXTSTYLE0
 11
-5.921189464667505E-15
 21
1.0
 31
0.0
 73
     1
 44
1.0
  0
POINT
  5
1BF
330
1B3
100
AcDbEntity
  8
Defpoints
 62
     0
100
AcDbPoint
 10
28.29337177304949
 20
6.148257344992125
 30
0.0
  0
POINT
  5
1C0
330
1B3
100
AcDbEntity
  8
Defpoints
 62
     0
100
AcDbPoint
 10
28.29337177304949
 20
4.948257344992125
 30
0.0
  0
POINT
  5
1C1
330
1B3
100
AcDbEntity
  8
Defpoints
 62
     0
100
AcDbPoint
 10
36.2933717730495
 20
4.948257344992156
 30
0.0
  0
ENDBLK
  5
1B5
330
1B3
100
AcDbEntity
  8
0
100
AcDbBlockEnd
  0
BLOCK
  5
1C3
330
1C2
100
AcDbEntity
  8
0
100
AcDbBlockBegin
  2
*D12
 70
     1
 10
0.0
 20
0.0
 30
0.0
  3
*D12
  1

  0
LINE
  5
1C5
330
1C2
100
AcDbEntity
  8
치수문자_일반주서
 62
     0
370
    -2
100
AcDbLine
 10
28.29337177304949
 20
6.210757344992125
 30
0.0
 11
28.29337177304949
 21
16.54825734499212
 31
0.0
  0
LINE
  5
1C6
330
1C2
100
AcDbEntity
  8
치수문자_일반주서
 62
     0
370
    -2
100
AcDbLine
 10
25.29337177304949
 20
6.202229134939842
 30
0.0
 11
25.29337177304949
 21
16.54825734499212
 31
0.0
  0
LINE
  5
1C7
330
1C2
100
AcDbEntity
  8
치수문자_일반주서
 62
     0
370
    -2
100
AcDbLine
 10
28.29337177304949
 20
16.54825734499212
 30
0.0
 11
25.29337177304949
 21
16.54825734499212
 31
0.0
  0
LINE
  5
1C8
330
1C2
100
AcDbEntity
  8
치수문자_일반주서
 62
     0
370
    -2
100
AcDbLine
 10
30.79337177304949
 20
16.54825734499212
 30
0.0
 11
33.29337177304949
 21
16.54825734499212
 31
0.0
  0
LINE
  5
1C9
330
1C2
100
AcDbEntity
  8
치수문자_일반주서
 62
     0
370
    -2
100
AcDbLine
 10
22.79337177304949
 20
16.54825734499212
 30
0.0
 11
20.29337177304949
 21
16.54825734499212
 31
0.0
  0
SOLID
  5
1CA
330
1C2
100
AcDbEntity
  8
치수문자_일반주서
 62
     0
100
AcDbTrace
 10
30.79337177304949
 20
16.96492401165879
 30
0.0
 11
30.79337177304949
 21
16.13159067832546
 31
0.0
 12
28.29337177304949
 22
16.54825734499212
 32
0.0
 13
28.29337177304949
 23
16.54825734499212
 33
0.0
  0
SOLID
  5
1CB
330
1C2
100
AcDbEntity
  8
치수문자_일반주서
 62
     0
100
AcDbTrace
 10
22.79337177304949
 20
16.13159067832546
 30
0.0
 11
22.79337177304949
 21
16.96492401165879
 31
0.0
 12
25.29337177304949
 22
16.54825734499212
 32
0.0
 13
25.29337177304949
 23
16.54825734499212
 33
0.0
  0
MTEXT
  5
1CC
330
1C2
100
AcDbEntity
  8
치수문자_일반주서
 62
     0
100
AcDbMText
 10
26.79337177304939
 20
19.92325734499212
 30
0.0
 40
2.5
 41
0.0
 71
     2
 72
     1
  1
\A1;3
  7
SLDTEXTSTYLE0
 73
     1
 44
1.0
  0
POINT
  5
1CD
330
1C2
100
AcDbEntity
  8
Defpoints
 62
     0
100
AcDbPoint
 10
28.29337177304949
 20
6.148257344992125
 30
0.0
  0
POINT
  5
1CE
330
1C2
100
AcDbEntity
  8
Defpoints
 62
     0
100
AcDbPoint
 10
25.29337177304949
 20
6.139729134939842
 30
0.0
  0
POINT
  5
1CF
330
1C2
100
AcDbEntity
  8
Defpoints
 62
     0
100
AcDbPoint
 10
25.29337177304949
 20
16.54825734499212
 30
0.0
  0
ENDBLK
  5
1C4
330
1C2
100
AcDbEntity
  8
0
100
AcDbBlockEnd
  0
BLOCK
  5
1D1
330
1D0
100
AcDbEntity
  8
0
100
AcDbBlockBegin
  2
*D13
 70
     1
 10
0.0
 20
0.0
 30
0.0
  3
*D13
  1

  0
LINE
  5
1D3
330
1D0
100
AcDbEntity
  8
치수문자_일반주서
 62
     0
370
    -2
100
AcDbLine
 10
29.45046160041017
 20
2.772356388020075
 30
0.0
 11
37.16660234244369
 21
-11.19734706252457
 31
0.0
  0
MTEXT
  5
1D4
330
1D0
100
AcDbEntity
  8
치수문자_일반주서
 62
     0
100
AcDbMText
 10
37.47046067003923
 20
-7.352396259295639
 30
0.0
 40
2.5
 41
0.0
 71
     5
 72
     1
  1
\A1;R0.1
  7
SLDTEXTSTYLE0
 11
0.4834960874464161
 21
-0.8753465219123269
 31
0.0
 73
     1
 44
1.0
  0
LINE
  5
1D5
330
1D0
100
AcDbEntity
  8
치수문자_일반주서
 62
     0
370
    -2
100
AcDbLine
 10
28.19337177304949
 20
5.048257344992123
 30
0.0
 11
28.24172138179413
 21
4.960722692800893
 31
0.0
  0
SOLID
  5
1D6
330
1D0
100
AcDbEntity
  8
치수문자_일반주서
 62
     0
100
AcDbTrace
 10
29.81518931787364
 20
2.973813091122749
 30
0.0
 11
29.0857338829467
 21
2.570899684917402
 31
0.0
 12
28.24172138179413
 22
4.960722692800893
 32
0.0
 13
28.24172138179413
 23
4.960722692800893
 33
0.0
  0
POINT
  5
1D7
330
1D0
100
AcDbEntity
  8
Defpoints
 62
     0
100
AcDbPoint
 10
28.24172138179413
 20
4.960722692800893
 30
0.0
  0
POINT
  5
1D8
330
1D0
100
AcDbEntity
  8
Defpoints
 62
     0
100
AcDbPoint
 10
28.19337177304949
 20
5.048257344992123
 30
0.0
  0
ENDBLK
  5
1D2
330
1D0
100
AcDbEntity
  8
0
100
AcDbBlockEnd
  0
BLOCK
  5
1FB
330
1FA
100
AcDbEntity
  8
0
100
AcDbBlockBegin
  2
*D14
 70
     1
 10
0.0
 20
0.0
 30
0.0
  3
*D14
  1

  0
LINE
  5
1FD
330
1FA
100
AcDbEntity
  8
치수문자_일반주서
 62
     0
370
    -2
100
AcDbLine
 10
17.91508276255434
 20
-2.985658758251597
 30
0.0
 11
27.75166141198349
 21
-16.22006851657617
 31
0.0
  0
MTEXT
  5
1FE
330
1FA
100
AcDbEntity
  8
치수문자_일반주서
 62
     0
100
AcDbMText
 10
27.53708007220493
 20
-12.3691035191867
 30
0.0
 40
2.5
 41
0.0
 71
     5
 72
     1
  1
\A1;R0.1
  7
SLDTEXTSTYLE0
 11
0.5965312105448444
 21
-0.802589879605956
 31
0.0
 73
     1
 44
1.0
  0
LINE
  5
1FF
330
1FA
100
AcDbEntity
  8
치수문자_일반주서
 62
     0
370
    -2
100
AcDbLine
 10
16.36410161513775
 20
-0.8989250712761108
 30
0.0
 11
16.42375473619223
 21
-0.9791840592367066
 31
0.0
  0
SOLID
  5
200
330
1FA
100
AcDbEntity
  8
치수문자_일반주서
 62
     0
100
AcDbTrace
 10
18.24949521239016
 20
-2.737104087191245
 30
0.0
 11
17.58067031271853
 21
-3.234213429311948
 31
0.0
 12
16.42375473619223
 22
-0.9791840592367066
 32
0.0
 13
16.42375473619223
 23
-0.9791840592367066
 33
0.0
  0
POINT
  5
201
330
1FA
100
AcDbEntity
  8
Defpoints
 62
     0
100
AcDbPoint
 10
16.42375473619223
 20
-0.9791840592367066
 30
0.0
  0
POINT
  5
202
330
1FA
100
AcDbEntity
  8
Defpoints
 62
     0
100
AcDbPoint
 10
16.36410161513775
 20
-0.8989250712761108
 30
0.0
  0
ENDBLK
  5
1FC
330
1FA
100
AcDbEntity
  8
0
100
AcDbBlockEnd
  0
ENDSEC
  0
SECTION
  2
ENTITIES
  0
LINE
  5
96
330
1F
100
AcDbEntity
  8
0
  6
Continuous
 62
     1
370
    15
100
AcDbLine
 10
13.3933565131312
 20
0.2854623071961109
 30
0.0
 11
13.36319828107024
 21
0.3015122018372565
 31
0.0
1001
PE_URL
1000

  0
LINE
  5
97
330
1F
100
AcDbEntity
  8
0
  6
Continuous
 62
     1
370
    15
100
AcDbLine
 10
16.1090729491356
 20
0.2878735777851648
 30
0.0
 11
16.08602711218502
 21
0.3003463819459574
 31
0.0
1001
PE_URL
1000

  0
LINE
  5
98
330
1F
100
AcDbEntity
  8
0
  6
Continuous
 62
     1
370
    15
100
AcDbLine
 10
14.90346786097536
 20
-0.2320195985545209
 30
0.0
 11
15.03021321382667
 21
-0.2989735484747023
 31
0.0
1001
PE_URL
1000

  0
LINE
  5
99
330
1F
100
AcDbEntity
  8
0
  6
Continuous
 62
     1
370
    15
100
AcDbLine
 10
13.89266767140401
 20
-0.998925071276108
 30
0.0
 11
14.5021579157122
 21
-0.998925071276108
 31
0.0
1001
PE_URL
1000

  0
LINE
  5
9A
330
1F
100
AcDbEntity
  8
0
  6
Continuous
 62
     1
370
    15
100
AcDbLine
 10
11.7814643523333
 20
1.001074928723894
 30
0.0
 11
11.17157303581278
 21
1.001074928723894
 31
0.0
1001
PE_URL
1000

  0
LINE
  5
9B
330
1F
100
AcDbEntity
  8
0
  6
Continuous
 62
     1
370
    15
100
AcDbLine
 10
14.5021579157122
 20
1.001074928723894
 30
0.0
 11
13.89266767140403
 21
1.001074928723894
 31
0.0
1001
PE_URL
1000

  0
LINE
  5
9C
330
1F
100
AcDbEntity
  8
0
  6
Continuous
 62
     1
370
    15
100
AcDbLine
 10
11.17157303581278
 20
-0.998925071276108
 30
0.0
 11
11.78146435233329
 21
-0.998925071276108
 31
0.0
1001
PE_URL
1000

  0
LINE
  5
9D
330
1F
100
AcDbEntity
  8
외형선
  6
Continuous
370
    15
100
AcDbLine
 10
-32.93589838486224
 20
-2.998925071276109
 30
0.0
 11
1.999999999999996
 21
-2.998925071276109
 31
0.0
  0
LINE
  5
9E
330
1F
100
AcDbEntity
  8
외형선
  6
Continuous
370
    15
100
AcDbLine
 10
1.999999999999996
 20
3.001074928723895
 30
0.0
 11
-32.93589838486224
 21
3.001074928723895
 31
0.0
  0
LINE
  5
9F
330
1F
100
AcDbEntity
  8
외형선
  6
Continuous
370
    15
100
AcDbLine
 10
1.999999999999996
 20
-2.998925071276111
 30
0.0
 11
9.467455344578042
 21
-0.998026442180948
 31
0.0
  0
LINE
  5
A0
330
1F
100
AcDbEntity
  8
외형선
  6
Continuous
370
    15
100
AcDbLine
 10
9.467455344578042
 20
1.000176299628734
 30
0.0
 11
1.999999999999996
 21
3.001074928723898
 31
0.0
  0
LINE
  5
A1
330
1F
100
AcDbEntity
  8
외형선
  6
Continuous
370
    15
100
AcDbLine
 10
-32.93589838486224
 20
3.001074928723893
 30
0.0
 11
-33.53589838486224
 21
2.401074928723895
 31
0.0
  0
LINE
  5
A2
330
1F
100
AcDbEntity
  8
외형선
  6
Continuous
370
    15
100
AcDbLine
 10
-33.53589838486224
 20
-2.398925071276109
 30
0.0
 11
-32.93589838486224
 21
-2.998925071276107
 31
0.0
  0
LINE
  5
A3
330
1F
100
AcDbEntity
  8
외형선
  6
Continuous
370
    15
100
AcDbLine
 10
9.46425366811233
 20
-0.2256329931017808
 30
0.0
 11
9.544501875554815
 21
-0.2722346173392488
 31
0.0
  0
SPLINE
  5
A4
330
1F
100
AcDbEntity
  8
0
  6
Continuous
 62
     1
370
    15
100
AcDbSpline
210
0.0
220
0.0
230
1.0
 70
     8
 71
     3
 72
    12
 73
     8
 74
     0
 42
0.000000001
 43
0.00000001
 40
0.0
 40
0.0
 40
0.0
 40
0.0
 40
0.2324949420215575
 40
0.4649063988774529
 40
0.6967149467976432
 40
0.928303002033417
 40
1.0
 40
1.0
 40
1.0
 40
1.0
 10
10.46410161513775
 20
-0.7238694168757916
 30
0.0
 10
10.64803686604013
 20
-0.7896939677196937
 30
0.0
 10
11.01584131967733
 20
-0.9213194328781009
 30
0.0
 10
11.5670820107713
 20
-1.008157832221519
 30
0.0
 10
12.11719441387696
 20
-0.9934802879742377
 30
0.0
 10
12.54015882332663
 20
-0.9208470804981043
 30
0.0
 10
12.77995468414057
 20
-0.8313157151614852
 30
0.0
 10
12.83664275090692
 20
-0.8101503789515202
 30
0.0
1001
PE_URL
1000

  0
SPLINE
  5
A5
330
1F
100
AcDbEntity
  8
외형선
  6
Continuous
370
    15
100
AcDbSpline
210
0.0
220
0.0
230
1.0
 70
    24
 71
     3
 72
    20
 73
    16
 74
     0
 42
0.000000001
 43
0.00000001
 40
0.0
 40
0.0
 40
0.0
 40
0.0
 40
0.1250000000000001
 40
0.1250000000000001
 40
0.25
 40
0.25
 40
0.5
 40
0.5
 40
0.625
 40
0.625
 40
0.7499999999999999
 40
0.7499999999999999
 40
0.875
 40
0.875
 40
1.0
 40
1.0
 40
1.0
 40
1.0
 10
10.46410161513775
 20
0.3976812552465713
 30
0.0
 10
10.46410161513775
 20
0.3927090810488829
 30
0.0
 10
10.46410161513776
 20
0.3825302184198457
 30
0.0
 10
10.46410161513776
 20
0.3573718331562837
 30
0.0
 10
10.46410161513776
 20
0.3398398553539046
 30
0.0
 10
10.46410161513776
 20
0.265047736220177
 30
0.0
 10
10.46410161513776
 20
0.1830008522438794
 30
0.0
 10
10.46410161513774
 20
-0.0015776231141039
 30
0.0
 10
10.46410161513774
 20
-0.0728170735551801
 30
0.0
 10
10.46410161513776
 20
-0.2245523437784493
 30
0.0
 10
10.46410161513775
 20
-0.3047858808505947
 30
0.0
 10
10.46410161513775
 20
-0.4560896101250355
 30
0.0
 10
10.46410161513775
 20
-0.5267218852417661
 30
0.0
 10
10.46410161513775
 20
-0.6439311509024298
 30
0.0
 10
10.46410161513776
 20
-0.6904489528980704
 30
0.0
 10
10.46410161513776
 20
-0.7238694168757994
 30
0.0
  0
SPLINE
  5
A6
330
1F
100
AcDbEntity
  8
0
  6
Continuous
 62
     1
370
    15
100
AcDbSpline
210
0.0
220
0.0
230
1.0
 70
     8
 71
     3
 72
    14
 73
    10
 74
     0
 42
0.000000001
 43
0.00000001
 40
0.0
 40
0.0
 40
0.0
 40
0.0
 40
0.081881260594598
 40
0.242722734670748
 40
0.3944340660524329
 40
0.5455694703978696
 40
0.6966388514086369
 40
0.8481551194562683
 40
1.0
 40
1.0
 40
1.0
 40
1.0
 10
13.89266767140401
 20
-0.9863410103890611
 30
0.0
 10
13.79911505410565
 20
-0.9886608616028918
 30
0.0
 10
13.521794615444
 20
-0.9955376564465632
 30
0.0
 10
13.0707715622016
 20
-0.8997248561041471
 30
0.0
 10
12.54060180211367
 20
-0.7217249579412309
 30
0.0
 10
12.02217892651291
 20
-0.4775325869383484
 30
0.0
 10
11.50400590648249
 20
-0.1926123393562073
 30
0.0
 10
10.98461365123973
 20
0.1122120452089318
 30
0.0
 10
10.63773087943739
 20
0.302456158647036
 30
0.0
 10
10.46410161513776
 20
0.3976812552465664
 30
0.0
1001
PE_URL
1000

  0
SPLINE
  5
A7
330
1F
100
AcDbEntity
  8
0
  6
Continuous
 62
     1
370
    15
100
AcDbSpline
210
0.0
220
0.0
230
1.0
 70
     8
 71
     3
 72
    17
 73
    13
 74
     0
 42
0.000000001
 43
0.00000001
 40
0.0
 40
0.0
 40
0.0
 40
0.0
 40
0.1082715023057627
 40
0.2165041260697929
 40
0.324455978752717
 40
0.4323051493128308
 40
0.5402324261129382
 40
0.6484165428637354
 40
0.750577275736686
 40
0.8523215247986554
 40
0.9539748130422332
 40
1.0
 40
1.0
 40
1.0
 40
1.0
 10
10.46410161513774
 20
0.6898823733577648
 30
0.0
 10
10.64803669836485
 20
0.6062613098888651
 30
0.0
 10
11.01584081671165
 20
0.4390492099197191
 30
0.0
 10
11.5670840196177
 20
0.1261803108070377
 30
0.0
 10
12.11718690544771
 20
-0.1945609677742563
 30
0.0
 10
12.66670519870649
 20
-0.4968309867310986
 30
0.0
 10
13.21667504091622
 20
-0.749075410021969
 30
0.0
 10
13.75729920242355
 20
-0.9224991085577816
 30
0.0
 10
14.28764725561532
 20
-1.006846266865973
 30
0.0
 10
14.80623946144261
 20
-0.9958290232604414
 30
0.0
 10
15.22946046091393
 20
-0.9265417994279264
 30
0.0
 10
15.48024473596109
 20
-0.8371468747328872
 30
0.0
 10
15.55840367638471
 20
-0.8092862260056096
 30
0.0
1001
PE_URL
1000

  0
SPLINE
  5
A8
330
1F
100
AcDbEntity
  8
외형선
  6
Continuous
370
    15
100
AcDbSpline
210
0.0
220
0.0
230
1.0
 70
    24
 71
     3
 72
    10
 73
     6
 74
     0
 42
0.000000001
 43
0.00000001
 40
0.0
 40
0.0
 40
0.0
 40
0.0
 40
0.309611958437243
 40
0.6227048552985907
 40
1.0
 40
1.0
 40
1.0
 40
1.0
 10
10.46410161513776
 20
0.9190637204649407
 30
0.0
 10
10.46410161513776
 20
0.8982520221313611
 30
0.0
 10
10.46410161513777
 20
0.8563946414773889
 30
0.0
 10
10.4641016151377
 20
0.79045628235037
 30
0.0
 10
10.46410161513773
 20
0.7478044132001834
 30
0.0
 10
10.46410161513774
 20
0.7244952853271414
 30
0.0
  0
SPLINE
  5
A9
330
1F
100
AcDbEntity
  8
0
  6
Continuous
 62
     1
370
    15
100
AcDbSpline
210
0.0
220
0.0
230
1.0
 70
     8
 71
     3
 72
    38
 73
    34
 74
     0
 42
0.000000001
 43
0.00000001
 40
0.0
 40
0.0
 40
0.0
 40
0.0
 40
0.0625
 40
0.0625
 40
0.125
 40
0.125
 40
0.1875
 40
0.1875
 40
0.25
 40
0.25
 40
0.3125
 40
0.3125
 40
0.375
 40
0.375
 40
0.4375
 40
0.4375
 40
0.5
 40
0.5
 40
0.5625
 40
0.5625
 40
0.625
 40
0.625
 40
0.6875
 40
0.6875
 40
0.75
 40
0.75
 40
0.8125
 40
0.8125
 40
0.875
 40
0.875
 40
0.9375
 40
0.9375
 40
1.0
 40
1.0
 40
1.0
 40
1.0
 10
16.36410161513775
 20
-0.9989250712761109
 30
0.0
 10
16.24181099913432
 20
-0.9784172643296912
 30
0.0
 10
16.1167951383643
 20
-0.9606491015484532
 30
0.0
 10
15.86972592198257
 20
-0.9109508977210985
 30
0.0
 10
15.75002128989023
 20
-0.8793262686171376
 30
0.0
 10
15.50396068955645
 20
-0.8027827838467434
 30
0.0
 10
15.37884931594635
 20
-0.7578645430609406
 30
0.0
 10
15.13289832891127
 20
-0.6577682440010932
 30
0.0
 10
15.0131553725768
 20
-0.6028499239420093
 30
0.0
 10
14.76601008193684
 20
-0.4836055368284692
 30
0.0
 10
14.64101180489004
 20
-0.4195902939530479
 30
0.0
 10
14.39657313410449
 20
-0.2871594460030967
 30
0.0
 10
14.27588385510324
 20
-0.2185618793694856
 30
0.0
 10
14.02805441901876
 20
-0.0778798433632252
 30
0.0
 10
13.9033772138453
 20
-0.0062584048489095
 30
0.0
 10
13.66083682354443
 20
0.1347194718932193
 30
0.0
 10
13.53829830149323
 20
0.2049818701903119
 30
0.0
 10
13.2901889814344
 20
0.3419304072983156
 30
0.0
 10
13.16671392083725
 20
0.4082038032251274
 30
0.0
 10
12.92499317747866
 20
0.5327926003341953
 30
0.0
 10
12.80049198068102
 20
0.5921627411816129
 30
0.0
 10
12.55250856219988
 20
0.7008581961263508
 30
0.0
 10
12.43122317389459
 20
0.7499147204314094
 30
0.0
 10
12.18746017517585
 20
0.836295342828549
 30
0.0
 10
12.06255936391624
 20
0.8738244272521
 30
0.0
 10
11.81510694671976
 20
0.9348437075255133
 30
0.0
 10
11.69511150379429
 20
0.958249745966254
 30
0.0
 10
11.44968860473205
 20
0.9907317999088706
 30
0.0
 10
11.32459560843982
 20
0.9996514983640855
 30
0.0
 10
11.07807640429728
 20
1.002181105133176
 30
0.0
 10
10.95846426419914
 20
0.9959424956080408
 30
0.0
 10
10.71177270836062
 20
0.9684801822205262
 30
0.0
 10
10.58669603335499
 20
0.9471772002167179
 30
0.0
 10
10.46410161513776
 20
0.9190637204649444
 30
0.0
1001
PE_URL
1000

  0
LINE
  5
AB
330
1F
100
AcDbEntity
  8
0
  6
Continuous
 62
     1
370
    15
100
AcDbLine
 10
16.46410161513775
 20
-0.8232489013238536
 30
0.0
 11
16.46410161513775
 21
0.1003987587716801
 31
0.0
1001
PE_URL
1000

  0
SPLINE
  5
AC
330
1F
100
AcDbEntity
  8
0
  6
Continuous
 62
     1
370
    15
100
AcDbSpline
210
0.0
220
0.0
230
1.0
 70
     8
 71
     3
 72
    20
 73
    16
 74
     0
 42
0.000000001
 43
0.00000001
 40
0.0
 40
0.0
 40
0.0
 40
0.0
 40
0.000050978410135
 40
0.000050978410135
 40
0.000050978410135
 40
0.0000953168328629
 40
0.0000953168328629
 40
0.0000953168328629
 40
0.0001323387000462
 40
0.0001323387000462
 40
0.0001323387000462
 40
0.0001633621251941
 40
0.0001633621251941
 40
0.0001633621251941
 40
0.0001760224256545
 40
0.0001760224256545
 40
0.0001760224256545
 40
0.0001760224256545
 10
16.36410161513774
 20
-0.8784197074819734
 30
0.0
 10
16.37880623423217
 20
-0.8824727504483927
 30
0.0
 10
16.39328613644389
 20
-0.883966869169151
 30
0.0
 10
16.40621654200569
 20
-0.8827874348669048
 30
0.0
 10
16.41751055311814
 20
-0.8817572626845783
 30
0.0
 10
16.42799941588707
 20
-0.8786618846470042
 30
0.0
 10
16.43681076192008
 20
-0.8734426568068604
 30
0.0
 10
16.44418327276824
 20
-0.8690756947415497
 30
0.0
 10
16.45056783942061
 20
-0.8630923532954567
 30
0.0
 10
16.45525948236721
 20
-0.8556498879644816
 30
0.0
 10
16.45919669041917
 20
-0.8494042007369885
 30
0.0
 10
16.4620225872081
 20
-0.8419620434444287
 30
0.0
 10
16.46330095783701
 20
-0.8337777299578633
 30
0.0
 10
16.46382885504426
 20
-0.8303980557576132
 30
0.0
 10
16.46410161513775
 20
-0.826869585877727
 30
0.0
 10
16.46410161513775
 20
-0.8232489013238509
 30
0.0
1001
PE_URL
1000

  0
SPLINE
  5
AD
330
1F
100
AcDbEntity
  8
0
  6
Continuous
 62
     1
370
    15
100
AcDbSpline
210
0.0
220
0.0
230
1.0
 70
     8
 71
     3
 72
    16
 73
    12
 74
     0
 42
0.000000001
 43
0.00000001
 40
0.0
 40
0.0
 40
0.0
 40
0.0
 40
0.0733037177063625
 40
0.1931909762687635
 40
0.3131650592632901
 40
0.4334246505970829
 40
0.546988529978394
 40
0.6600894377663751
 40
0.7730892317201242
 40
0.88637225734479
 40
1.0
 40
1.0
 40
1.0
 40
1.0
 10
11.7814643523333
 20
0.9891084113562794
 30
0.0
 10
11.89343099720355
 20
0.9901778587070313
 30
0.0
 10
12.18851760547997
 20
0.9929963730228738
 30
0.0
 10
12.66669797217018
 20
0.8851371257379762
 30
0.0
 10
13.21667722673602
 20
0.6885450426066818
 30
0.0
 10
13.75729777230595
 20
0.4238527650073389
 30
0.0
 10
14.2876506851365
 20
0.1270802381318567
 30
0.0
 10
14.80622713691682
 20
-0.1765614713810676
 30
0.0
 10
15.32432856509745
 20
-0.4626086249136305
 30
0.0
 10
15.84353785043992
 20
-0.7128786419831161
 30
0.0
 10
16.19040470982062
 20
-0.823183494879389
 30
0.0
 10
16.36410161513768
 20
-0.8784197074819537
 30
0.0
1001
PE_URL
1000

  0
SPLINE
  5
AE
330
1F
100
AcDbEntity
  8
0
  6
Continuous
 62
     1
370
    15
100
AcDbSpline
210
0.0
220
0.0
230
1.0
 70
     8
 71
     3
 72
    14
 73
    10
 74
     0
 42
0.000000001
 43
0.00000001
 40
0.0
 40
0.0
 40
0.0
 40
0.0
 40
0.1564461630086666
 40
0.3126849785168518
 40
0.4685606275661426
 40
0.6243314533997255
 40
0.780258557058317
 40
0.9365989318972174
 40
1.0
 40
1.0
 40
1.0
 40
1.0
 10
16.36410161513768
 20
0.1445494287914646
 30
0.0
 10
16.18006348640124
 20
0.2480588287094878
 30
0.0
 10
15.812231145719
 20
0.4549404413180778
 30
0.0
 10
15.26116418245228
 20
0.7159525688906642
 30
0.0
 10
14.71123186572427
 20
0.9061321156897639
 30
0.0
 10
14.16170615828918
 20
1.006552165349115
 30
0.0
 10
13.61157862246563
 20
1.001755774534153
 30
0.0
 10
13.16963455500332
 20
0.9313129442470821
 30
0.0
 10
12.91120603697549
 20
0.8389494766264961
 30
0.0
 10
12.83664275090692
 20
0.8123002363993078
 30
0.0
1001
PE_URL
1000

  0
SPLINE
  5
AF
330
1F
100
AcDbEntity
  8
0
  6
Continuous
 62
     1
370
    15
100
AcDbSpline
210
0.0
220
0.0
230
1.0
 70
     8
 71
     3
 72
    23
 73
    19
 74
     0
 42
0.000000001
 43
0.00000001
 40
0.0
 40
0.0
 40
0.0
 40
0.0
 40
0.0000309819506622
 40
0.0000309819506622
 40
0.0000309819506622
 40
0.0000620371118859
 40
0.0000620371118859
 40
0.0000620371118859
 40
0.0000922142206043
 40
0.0000922142206043
 40
0.0000922142206043
 40
0.0001228469945868
 40
0.0001228469945868
 40
0.0001228469945868
 40
0.0001562172270114
 40
0.0001562172270114
 40
0.0001562172270114
 40
0.0001634043749343
 40
0.0001634043749343
 40
0.0001634043749343
 40
0.0001634043749343
 10
16.46410161513775
 20
0.1003987587716803
 30
0.0
 10
16.46410161513775
 20
0.0999086049217107
 30
0.0
 10
16.46249271495917
 20
0.0999676197615732
 30
0.0
 10
16.45934797940827
 20
0.1007027698929842
 30
0.0
 10
16.45619863942947
 20
0.101438996409266
 30
0.0
 10
16.45141418303277
 20
0.1028843682528082
 30
0.0
 10
16.44544278407015
 20
0.1050410840504947
 30
0.0
 10
16.43963343254543
 20
0.107139272479389
 30
0.0
 10
16.43255345599609
 20
0.1099693906862354
 30
0.0
 10
16.42486097020322
 20
0.113352796463673
 30
0.0
 10
16.41704355731571
 20
0.1167911492459059
 30
0.0
 10
16.40841042222967
 20
0.1208811786490163
 30
0.0
 10
16.39963433055999
 20
0.1253168903411746
 30
0.0
 10
16.39007327813818
 20
0.1301493457909381
 30
0.0
 10
16.38012372918229
 20
0.1354987926852008
 30
0.0
 10
16.37041682406256
 20
0.1409620327836734
 30
0.0
 10
16.36830527785273
 20
0.1421504531690613
 30
0.0
 10
16.36619854515074
 20
0.1433475213597665
 30
0.0
 10
16.36410161513775
 20
0.1445494287914242
 30
0.0
1001
PE_URL
1000

  0
LINE
  5
B0
330
1F
100
AcDbEntity
  8
외형선
  6
Continuous
370
    15
100
AcDbLine
 10
10.46410161513776
 20
0.3976812552465713
 30
0.0
 11
10.46410161513774
 21
0.689882373357762
 31
0.0
  0
SPLINE
  5
B1
330
1F
100
AcDbEntity
  8
0
  6
Continuous
 62
     1
370
    15
100
AcDbSpline
210
0.0
220
0.0
230
1.0
 70
     8
 71
     3
 72
    20
 73
    16
 74
     0
 42
0.000000001
 43
0.00000001
 40
0.0
 40
0.0
 40
0.0
 40
0.0
 40
0.000050978410135
 40
0.000050978410135
 40
0.000050978410135
 40
0.0000953168328629
 40
0.0000953168328629
 40
0.0000953168328629
 40
0.0001323387000462
 40
0.0001323387000462
 40
0.0001323387000462
 40
0.0001633621251941
 40
0.0001633621251941
 40
0.0001633621251941
 40
0.0001760224256545
 40
0.0001760224256545
 40
0.0001760224256545
 40
0.0001760224256545
 10
16.36410161513774
 20
0.4769837276393004
 30
0.0
 10
16.37880623423217
 20
0.4694935749936666
 30
0.0
 10
16.39328613644389
 20
0.4595547923461811
 30
0.0
 10
16.40621654200569
 20
0.4485926341011586
 30
0.0
 10
16.41751055311814
 20
0.4390177807491953
 30
0.0
 10
16.42799941588707
 20
0.4283629334696549
 30
0.0
 10
16.43681076192008
 20
0.4176198612701372
 30
0.0
 10
16.44418327276824
 20
0.4086310625058172
 30
0.0
 10
16.45056783942061
 20
0.3993463664812811
 30
0.0
 10
16.45525948236721
 20
0.390581609019127
 30
0.0
 10
16.45919669041917
 20
0.3832262595080428
 30
0.0
 10
16.4620225872081
 20
0.3760623390078151
 30
0.0
 10
16.46330095783701
 20
0.3697382450879665
 30
0.0
 10
16.46382885504426
 20
0.3671267399084601
 30
0.0
 10
16.46410161513775
 20
0.364635491773011
 30
0.0
 10
16.46410161513775
 20
0.3623092338713206
 30
0.0
1001
PE_URL
1000

  0
LINE
  5
B2
330
1F
100
AcDbEntity
  8
0
  6
Continuous
 62
     1
370
    15
100
AcDbLine
 10
16.46410161513775
 20
0.1003987587716801
 30
0.0
 11
16.46410161513775
 21
0.3623092338713222
 31
0.0
1001
PE_URL
1000

  0
SPLINE
  5
B3
330
1F
100
AcDbEntity
  8
0
  6
Continuous
 62
     1
370
    15
100
AcDbSpline
210
0.0
220
0.0
230
1.0
 70
     8
 71
     3
 72
    11
 73
     7
 74
     0
 42
0.000000001
 43
0.00000001
 40
0.0
 40
0.0
 40
0.0
 40
0.0
 40
0.1634350223150175
 40
0.4415425029597482
 40
0.7203470543130237
 40
1.0
 40
1.0
 40
1.0
 40
1.0
 10
14.5021579157122
 20
0.9902270951671053
 30
0.0
 10
14.6035688040336
 20
0.9915104263547091
 30
0.0
 10
14.8775444600622
 20
0.9949775245119735
 30
0.0
 10
15.32431763242039
 20
0.900556232513451
 30
0.0
 10
15.84354059617393
 20
0.7286894927415418
 30
0.0
 10
16.19040562599177
 20
0.5609705807659668
 30
0.0
 10
16.36410161513768
 20
0.4769837276393384
 30
0.0
1001
PE_URL
1000

  0
LINE
  5
B4
330
1F
100
AcDbEntity
  8
0
  6
Continuous
 62
     1
370
    15
100
AcDbLine
 10
16.46410161513775
 20
0.3623092338713222
 30
0.0
 11
16.46410161513775
 21
0.8955774590638815
 31
0.0
1001
PE_URL
1000

  0
SPLINE
  5
B5
330
1F
100
AcDbEntity
  8
0
  6
Continuous
 62
     1
370
    15
100
AcDbSpline
210
0.0
220
0.0
230
1.0
 70
     8
 71
     3
 72
     9
 73
     5
 74
     0
 42
0.000000001
 43
0.00000001
 40
0.0
 40
0.0
 40
0.0
 40
0.0
 40
0.6851780064202578
 40
0.9999999999999999
 40
0.9999999999999999
 40
0.9999999999999999
 40
0.9999999999999999
 10
16.36410161513775
 20
1.001074928723889
 30
0.0
 10
16.18005425687472
 20
0.969490786814248
 30
0.0
 10
15.91144178458518
 20
0.9384942342180204
 30
0.0
 10
15.64293539366355
 20
0.8418589851994858
 30
0.0
 10
15.55840367638471
 20
0.8114360834533959
 30
0.0
1001
PE_URL
1000

  0
SPLINE
  5
B6
330
1F
100
AcDbEntity
  8
0
  6
Continuous
 62
     1
370
    15
100
AcDbSpline
210
0.0
220
0.0
230
1.0
 70
     8
 71
     3
 72
     9
 73
     5
 74
     0
 42
0.000000001
 43
0.00000001
 40
0.0
 40
0.0
 40
0.0
 40
0.0
 40
0.2638717901820558
 40
1.0
 40
1.0
 40
1.0
 40
1.0
 10
11.17157303581278
 20
-0.9886088531351908
 30
0.0
 10
11.1093690356255
 20
-0.9915115255366119
 30
0.0
 10
10.87363333934527
 20
-1.002511838982087
 30
0.0
 10
10.63774538942799
 20
-0.9532078904137352
 30
0.0
 10
10.46410161513776
 20
-0.9169138630171582
 30
0.0
1001
PE_URL
1000

  0
LINE
  5
B8
330
1F
100
AcDbEntity
  8
외형선
  6
Continuous
370
    15
100
AcDbLine
 10
10.46410161513776
 20
-0.9169138630171544
 30
0.0
 11
10.46410161513774
 21
-0.7238694168757936
 31
0.0
  0
LINE
  5
B9
330
1F
100
AcDbEntity
  8
0
  6
Continuous
 62
     1
370
    15
100
AcDbLine
 10
16.46410161513775
 20
-0.8934276016160952
 30
0.0
 11
16.46410161513775
 21
-0.8232489013238536
 31
0.0
1001
PE_URL
1000

  0
LINE
  5
BA
330
1F
100
AcDbEntity
  8
외형선
  6
Continuous
370
    15
100
AcDbLine
 10
1.999999999999996
 20
0.0010749287238931
 30
0.0
 11
1.999999999999996
 21
3.001074928723895
 31
0.0
  0
LINE
  5
BB
330
1F
100
AcDbEntity
  8
외형선
  6
Continuous
370
    15
100
AcDbLine
 10
1.999999999999996
 20
-2.998925071276109
 30
0.0
 11
1.999999999999996
 21
0.0010749287238931
 31
0.0
  0
LINE
  5
BC
330
1F
100
AcDbEntity
  8
외형선
  6
Continuous
370
    15
100
AcDbLine
 10
-32.93589838486224
 20
0.0010749287238931
 30
0.0
 11
-32.93589838486224
 21
3.001074928723895
 31
0.0
  0
LINE
  5
BD
330
1F
100
AcDbEntity
  8
외형선
  6
Continuous
370
    15
100
AcDbLine
 10
-32.93589838486224
 20
-2.998925071276109
 30
0.0
 11
-32.93589838486224
 21
0.0010749287238931
 31
0.0
  0
LINE
  5
BE
330
1F
100
AcDbEntity
  8
외형선
  6
Continuous
370
    15
100
AcDbLine
 10
9.46410161513775
 20
0.9740973927914801
 30
0.0
 11
9.46410161513775
 21
0.9927497531618673
 31
0.0
  0
LINE
  5
BF
330
1F
100
AcDbEntity
  8
외형선
  6
Continuous
370
    15
100
AcDbLine
 10
9.46410161513775
 20
0.8349089632567801
 30
0.0
 11
9.46410161513775
 21
0.97409739279148
 31
0.0
  0
SPLINE
  5
C0
330
1F
100
AcDbEntity
  8
외형선
  6
Continuous
370
    15
100
AcDbSpline
210
0.0
220
0.0
230
1.0
 70
    24
 71
     3
 72
    10
 73
     6
 74
     0
 42
0.000000001
 43
0.00000001
 40
0.0
 40
0.0
 40
0.0
 40
0.0
 40
0.4999999999999999
 40
0.4999999999999999
 40
1.0
 40
1.0
 40
1.0
 40
1.0
 10
9.46410161513775
 20
-0.2296354620690659
 30
0.0
 10
9.464101615137743
 20
-0.0319781255781984
 30
0.0
 10
9.464101615137757
 20
0.1799388813479652
 30
0.0
 10
9.464101615137743
 20
0.5577415528888149
 30
0.0
 10
9.464101615137736
 20
0.722773979666079
 30
0.0
 10
9.46410161513775
 20
0.8349089632567798
 30
0.0
  0
LINE
  5
C1
330
1F
100
AcDbEntity
  8
외형선
  6
Continuous
370
    15
100
AcDbLine
 10
9.46410161513775
 20
-0.5509393657899322
 30
0.0
 11
9.46410161513775
 21
-0.2296354620690658
 31
0.0
  0
SPLINE
  5
C2
330
1F
100
AcDbEntity
  8
외형선
  6
Continuous
370
    15
100
AcDbSpline
210
0.0
220
0.0
230
1.0
 70
    24
 71
     3
 72
    11
 73
     7
 74
     0
 42
0.000000001
 43
0.00000001
 40
0.0
 40
0.0
 40
0.0
 40
0.0
 40
0.0727479753656062
 40
0.3818319835770707
 40
0.6909159917885361
 40
1.0
 40
1.0
 40
1.0
 40
1.0
 10
9.46410161513775
 20
-0.9905999368791003
 30
0.0
 10
9.46410161513775
 20
-0.9931322445853867
 30
0.0
 10
9.464101615137736
 20
-1.00642355708803
 30
0.0
 10
9.464101615137764
 20
-0.9379882978463113
 30
0.0
 10
9.464101615137743
 20
-0.7912768158292608
 30
0.0
 10
9.46410161513775
 20
-0.631051849136375
 30
0.0
 10
9.46410161513775
 20
-0.5509393657899325
 30
0.0
  0
LINE
  5
C3
330
1F
100
AcDbEntity
  8
외형선
  6
Continuous
370
    15
100
AcDbLine
 10
-33.53589838486224
 20
0.0010749287238931
 30
0.0
 11
-33.53589838486224
 21
2.401074928723895
 31
0.0
  0
LINE
  5
C4
330
1F
100
AcDbEntity
  8
외형선
  6
Continuous
370
    15
100
AcDbLine
 10
-33.53589838486224
 20
-2.398925071276111
 30
0.0
 11
-33.53589838486224
 21
0.0010749287238931
 31
0.0
  0
SPLINE
  5
C5
330
1F
100
AcDbEntity
  8
외형선
  6
Continuous
370
    15
100
AcDbSpline
210
0.0
220
0.0
230
1.0
 70
     8
 71
     3
 72
    12
 73
     8
 74
     0
 42
0.000000001
 43
0.00000001
 40
0.0
 40
0.0
 40
0.0
 40
0.0
 40
0.2500000000000039
 40
0.2500000000000039
 40
0.5000000000000078
 40
0.5000000000000078
 40
1.0
 40
1.0
 40
1.0
 40
1.0
 10
10.46410161513775
 20
-0.9169138630171535
 30
0.0
 10
10.38076814553724
 20
-0.8978037449193762
 30
0.0
 10
10.29941882625504
 20
-0.8756764676679267
 30
0.0
 10
10.13266325515001
 20
-0.825133265614067
 30
0.0
 10
10.04816550067297
 20
-0.7967669264384344
 30
0.0
 10
9.795272745548257
 20
-0.7036238382474863
 30
0.0
 10
9.632071132445216
 20
-0.6314981054615456
 30
0.0
 10
9.464253668112322
 20
-0.5509601641984752
 30
0.0
  0
SPLINE
  5
C6
330
1F
100
AcDbEntity
  8
외형선
  6
Continuous
370
    15
100
AcDbSpline
210
0.0
220
0.0
230
1.0
 70
     8
 71
     3
 72
    12
 73
     8
 74
     0
 42
0.000000001
 43
0.00000001
 40
0.0
 40
0.0
 40
0.0
 40
0.0
 40
0.2500000000000038
 40
0.2500000000000038
 40
0.5000000000000077
 40
0.5000000000000077
 40
1.0
 40
1.0
 40
1.0
 40
1.0
 10
10.46410161513772
 20
-0.7238694168757902
 30
0.0
 10
10.3807681455372
 20
-0.6906798514722521
 30
0.0
 10
10.29941882625504
 20
-0.6552508193195422
 30
0.0
 10
10.13266325515002
 20
-0.5795093572056198
 30
0.0
 10
10.04816550067297
 20
-0.5393037776474477
 30
0.0
 10
9.795272745548257
 20
-0.4135076864662465
 30
0.0
 10
9.63207113244525
 20
-0.3235897864854273
 30
0.0
 10
9.46425366811233
 20
-0.2296058216710997
 30
0.0
  0
SPLINE
  5
C7
330
1F
100
AcDbEntity
  8
외형선
  6
Continuous
370
    15
100
AcDbSpline
210
0.0
220
0.0
230
1.0
 70
    24
 71
     3
 72
    20
 73
    16
 74
     0
 42
0.000000001
 43
0.00000001
 40
0.0
 40
0.0
 40
0.0
 40
0.0
 40
0.1250000000000001
 40
0.1250000000000001
 40
0.2500000000000001
 40
0.2500000000000001
 40
0.3750000000000001
 40
0.3750000000000001
 40
0.5000000000000001
 40
0.5000000000000001
 40
0.7500000000000002
 40
0.7500000000000002
 40
0.8750000000000001
 40
0.8750000000000001
 40
1.0
 40
1.0
 40
1.0
 40
1.0
 10
10.46410161513775
 20
-0.7238694168757978
 30
0.0
 10
10.46410161513774
 20
-0.6904489528980514
 30
0.0
 10
10.46410161513775
 20
-0.6439311509023794
 30
0.0
 10
10.46410161513774
 20
-0.5267218852416309
 30
0.0
 10
10.46410161513774
 20
-0.4560896101248474
 30
0.0
 10
10.46410161513774
 20
-0.3047858808503094
 30
0.0
 10
10.46410161513776
 20
-0.2245523437781206
 30
0.0
 10
10.46410161513776
 20
-0.0728170735547992
 30
0.0
 10
10.46410161513776
 20
-0.0015776231137144
 30
0.0
 10
10.46410161513776
 20
0.1830008522442489
 30
0.0
 10
10.46410161513775
 20
0.2650477362204761
 30
0.0
 10
10.46410161513774
 20
0.3398398553541039
 30
0.0
 10
10.46410161513775
 20
0.3573718331564504
 30
0.0
 10
10.46410161513774
 20
0.3825302184199535
 30
0.0
 10
10.46410161513776
 20
0.3927090810489867
 30
0.0
 10
10.46410161513774
 20
0.3976812552466337
 30
0.0
  0
SPLINE
  5
C8
330
1F
100
AcDbEntity
  8
외형선
  6
Continuous
370
    15
100
AcDbSpline
210
0.0
220
0.0
230
1.0
 70
     8
 71
     3
 72
    12
 73
     8
 74
     0
 42
0.000000001
 43
0.00000001
 40
0.0
 40
0.0
 40
0.0
 40
0.0
 40
0.2500000000000039
 40
0.2500000000000039
 40
0.5000000000000078
 40
0.5000000000000078
 40
1.0
 40
1.0
 40
1.0
 40
1.0
 10
10.46410161513775
 20
0.3976812552465752
 30
0.0
 10
10.38076814553724
 20
0.4419137171349619
 30
0.0
 10
10.29941882625504
 20
0.4844273023930358
 30
0.0
 10
10.13266325515001
 20
0.5664973794767867
 30
0.0
 10
10.04816550067297
 20
0.6058789711963116
 30
0.0
 10
9.795272745548257
 20
0.7171460637296142
 30
0.0
 10
9.632071132445216
 20
0.781575277964981
 30
0.0
 10
9.464253668112322
 20
0.8348958064801386
 30
0.0
  0
LINE
  5
C9
330
1F
100
AcDbEntity
  8
외형선
  6
Continuous
370
    15
100
AcDbLine
 10
9.464253668112322
 20
-0.2262255378673236
 30
0.0
 11
9.464253668112322
 21
-0.2300674076742302
 31
0.0
  0
SPLINE
  5
CA
330
1F
100
AcDbEntity
  8
외형선
  6
Continuous
370
    15
100
AcDbSpline
210
0.0
220
0.0
230
1.0
 70
     8
 71
     3
 72
    12
 73
     8
 74
     0
 42
0.000000001
 43
0.00000001
 40
0.0
 40
0.0
 40
0.0
 40
0.0
 40
0.2500000000000039
 40
0.2500000000000039
 40
0.5000000000000078
 40
0.5000000000000078
 40
1.0
 40
1.0
 40
1.0
 40
1.0
 10
10.46410161513772
 20
0.6898823733577654
 30
0.0
 10
10.3807681455372
 20
0.724813162738236
 30
0.0
 10
10.29941882625503
 20
0.7570901671032667
 30
0.0
 10
10.13266325515001
 20
0.8167000970078988
 30
0.0
 10
10.04816550067297
 20
0.8438859451091053
 30
0.0
 10
9.79527274554827
 20
0.916213977033746
 30
0.0
 10
9.63207113244525
 20
0.9518231926939518
 30
0.0
 10
9.46425366811233
 20
0.9741044202590691
 30
0.0
  0
SPLINE
  5
CB
330
1F
100
AcDbEntity
  8
외형선
  6
Continuous
370
    15
100
AcDbSpline
210
0.0
220
0.0
230
1.0
 70
     8
 71
     3
 72
     9
 73
     5
 74
     0
 42
0.000000001
 43
0.00000001
 40
0.0
 40
0.0
 40
0.0
 40
0.0
 40
0.8486127844637184
 40
1.0
 40
1.0
 40
1.0
 40
1.0
 10
9.46425366811233
 20
-0.9719545628112828
 30
0.0
 10
9.6510838216215
 20
-0.9419580464822623
 30
0.0
 10
9.871243306523954
 20
-0.9066103391672272
 30
0.0
 10
10.09117329580263
 20
-0.8240468509666696
 30
0.0
 10
10.12446788449246
 20
-0.8115477943830246
 30
0.0
  0
LINE
  5
CC
330
1F
100
AcDbEntity
  8
외형선
  6
Continuous
370
    15
100
AcDbLine
 10
10.46410161513775
 20
0.9190637204649398
 30
0.0
 11
10.12446788449246
 21
0.8136976518308106
 31
0.0
  0
SPLINE
  5
CD
330
1F
100
AcDbEntity
  8
외형선
  6
Continuous
370
    15
100
AcDbSpline
210
0.0
220
0.0
230
1.0
 70
    24
 71
     3
 72
    10
 73
     6
 74
     0
 42
0.000000001
 43
0.00000001
 40
0.0
 40
0.0
 40
0.0
 40
0.0
 40
0.42120574707673
 40
0.9258411754452118
 40
1.0
 40
1.0
 40
1.0
 40
1.0
 10
10.46410161513775
 20
0.7244952853271414
 30
0.0
 10
10.46410161513775
 20
0.7506490555691138
 30
0.0
 10
10.46410161513774
 20
0.808136963916054
 30
0.0
 10
10.4641016151378
 20
0.8751270116484121
 30
0.0
 10
10.46410161513774
 20
0.9140736303762634
 30
0.0
 10
10.46410161513774
 20
0.9190637204655373
 30
0.0
  0
LINE
  5
CE
330
1F
100
AcDbEntity
  8
중심선
100
AcDbLine
 10
-35.03589838486224
 20
0.001074928723893
 30
0.0
 11
17.96410161513775
 21
0.0010749287238893
 31
0.0
  0
LINE
  5
CF
330
1F
100
AcDbEntity
  8
참조1
100
AcDbLine
 10
-8.536411752418477
 20
-2.498925071276081
 30
0.0
 11
-8.53641175241847
 21
-39.9989250712761
 31
0.0
  0
LINE
  5
D0
330
1F
100
AcDbEntity
  8
참조1
100
AcDbLine
 10
-8.53641175241847
 20
-39.9989250712761
 30
0.0
 11
-23.69475519917092
 21
-39.9989250712761
 31
0.0
  0
CIRCLE
  5
D1
330
1F
100
AcDbEntity
  8
해칭선
100
AcDbCircle
 10
0.0
 20
0.0
 30
0.0
 40
3.000000000000001
  0
INSERT
  5
D2
330
1F
100
AcDbEntity
  8
0
  6
Continuous
 62
     7
100
AcDbBlockReference
 66
     1
  2
블럭10
 10
-22.47668468454368
 20
-52.04609937292004
 30
0.0
  0
ATTRIB
  5
D3
330
D2
100
AcDbEntity
  8
FORMAT
 62
     2
100
AcDbText
 10
-38.59594572397923
 20
-49.97073246008785
 30
0.0
 40
4.233333333333333
  1
SEME0102001E [ 4 FLUTE ]
 41
0.75
  7
SLDTEXTSTYLE0
 11
-38.59594572397923
 21
-52.08739912675451
 31
0.0
100
AcDbAttribute
  2
AUTOATTR0
 70
     0
 74
     1
  0
SEQEND
  5
D4
330
D2
100
AcDbEntity
  8
0
  6
Continuous
 62
     7
  0
HATCH
  5
D5
330
1F
100
AcDbEntity
  8
중심선
100
AcDbHatch
 10
0.0
 20
0.0
 30
0.0
210
0.0
220
0.0
230
1.0
  2
SOLID
 70
     1
 71
     0
 91
        1
 92
        0
 93
        4
 72
     1
 10
-16.76177538016283
 20
-35.7989250712761
 11
-20.20805062400012
 21
-35.7989250712761
 72
     1
 10
-20.20805062400012
 20
-35.7989250712761
 11
-22.33628048320414
 21
-38.3352506518487
 72
     1
 10
-22.33628048320414
 20
-38.3352506518487
 11
-18.88997215425371
 21
-38.33521122254621
 72
     1
 10
-18.88997215425371
 20
-38.33521122254621
 11
-16.76177538016283
 21
-35.7989250712761
 97
        0
 75
     0
 76
     1
 98
        1
 10
7.239230484541328
 20
0.0010749287238931
  0
HATCH
  5
D6
330
1F
100
AcDbEntity
  8
중심선
100
AcDbHatch
 10
0.0
 20
0.0
 30
0.0
210
0.0
220
0.0
230
1.0
  2
SOLID
 70
     1
 71
     0
 91
        1
 92
        0
 93
        4
 72
     1
 10
-11.74901138912688
 20
-35.7989250712761
 11
-15.19528663296417
 21
-35.7989250712761
 72
     1
 10
-15.19528663296417
 20
-35.7989250712761
 11
-19.72642464132155
 21
-41.19892507127612
 72
     1
 10
-19.72642464132155
 20
-41.19892507127612
 11
-16.28014939748427
 21
-41.19892507127612
 72
     1
 10
-16.28014939748427
 20
-41.19892507127612
 11
-11.74901138912688
 21
-35.7989250712761
 97
        0
 75
     0
 76
     1
 98
        1
 10
7.239230484541328
 20
0.0010749287238931
  0
HATCH
  5
D7
330
1F
100
AcDbEntity
  8
중심선
100
AcDbHatch
 10
0.0
 20
0.0
 30
0.0
210
0.0
220
0.0
230
1.0
  2
SOLID
 70
     1
 71
     0
 91
        1
 92
        0
 93
        4
 72
     1
 10
-6.736247398090987
 20
-35.79892507127613
 11
-10.1825226419281
 21
-35.7989250712761
 72
     1
 10
-10.1825226419281
 20
-35.7989250712761
 11
-17.23095954381735
 21
-44.19892507127612
 72
     1
 10
-17.23095954381735
 20
-44.19892507127612
 11
-13.78468429998007
 21
-44.19892507127612
 72
     1
 10
-13.78468429998007
 20
-44.19892507127612
 11
-6.736247398090988
 21
-35.79892507127613
 97
        0
 75
     0
 76
     1
 98
        1
 10
7.239230484541328
 20
0.0010749287238931
  0
HATCH
  5
D8
330
1F
100
AcDbEntity
  8
중심선
100
AcDbHatch
 10
0.0
 20
0.0
 30
0.0
210
0.0
220
0.0
230
1.0
  2
SOLID
 70
     1
 71
     0
 91
        1
 92
        0
 93
        6
 72
     3
 10
-1.936356967078788
 20
-39.99892507132738
 11
3.960054785062283
 21
1.540882976769353E-10
 40
0.3939339440162628
 50
17.09539180608437
 51
320.0019657685081
 73
     0
 72
     1
 10
-0.253357311378192
 20
-38.58681907591441
 11
2.051944562322846
 21
-36.65249236586649
 72
     3
 10
-1.936356967131634
 20
-39.99892507127625
 11
6.600054785286829
 21
-1.278976924368180E-13
 40
0.636358354079598
 50
39.9987384933741
 51
368.4976242363725
 73
     1
 72
     1
 10
4.488975524768976
 20
-39.03892507120612
 11
-3.256289660295711
 21
-39.03892507120609
 72
     1
 10
-3.256289660295711
 20
-39.03892507120609
 11
-3.256314704741645
 21
-40.95892507120602
 72
     1
 10
-3.256314704741645
 20
-40.95892507120602
 11
1.185065064730392
 21
-40.95892507120599
 97
        0
 75
     0
 76
     1
 98
        1
 10
7.239230484541328
 20
0.0010749287238931
  0
DIMENSION
  5
D9
330
1F
100
AcDbEntity
  8
치수문자_일반주서
100
AcDbDimension
  2
_D
 10
24.46410161513775
 20
-0.99892507127608
 30
0.0
 11
24.46410161513772
 21
8.438574928723929
 31
0.0
 70
   160
  1
%%c<>
 71
     2
 42
2.0
 52
-270.0
  3
SLDDIMSTYLE0
100
AcDbAlignedDimension
 13
16.46410161513775
 23
1.001074928723889
 33
0.0
 14
16.46410161513775
 24
-0.9989250712761109
 34
0.0
 50
90.0000000000002
100
AcDbRotatedDimension
1001
PE_URL
1000

1001
ACAD
1000
DSTYLE
1002
{
1070
    41
1040
2.5
1070
   271
1070
     0
1070
   140
1040
2.5
1002
}
  0
DIMENSION
  5
E7
330
1F
100
AcDbEntity
  8
치수문자_일반주서
100
AcDbDimension
  2
_D_1
 10
-41.53589838486222
 20
-2.99892507127614
 30
0.0
 11
-41.53589838486227
 21
10.43857492872387
 31
0.0
 70
   160
  1
%%c<>
 71
     2
 42
6.000000000000005
 52
-270.0
  3
SLDDIMSTYLE0
100
AcDbAlignedDimension
 13
-32.93589838486225
 23
3.001074928723896
 33
0.0
 14
-32.93589838486225
 24
-2.998925071276109
 34
0.0
 50
90.0000000000002
100
AcDbRotatedDimension
1001
PE_URL
1000

1001
ACAD
1000
DSTYLE
1002
{
1070
    41
1040
2.5
1070
   271
1070
     0
1070
   140
1040
2.5
1002
}
  0
DIMENSION
  5
F4
330
1F
100
AcDbEntity
  8
치수문자_일반주서
100
AcDbDimension
  2
_D_2
 10
10.46410161513777
 20
11.00107492872389
 30
0.0
 11
13.46410161513776
 21
11.00107492872389
 31
0.0
 70
   160
  1
<>
 71
     2
 42
5.999999999999982
  3
SLDDIMSTYLE0
100
AcDbAlignedDimension
 13
16.46410161513775
 23
1.001074928723889
 33
0.0
 14
10.46410161513777
 24
0.9190637204649407
 34
0.0
100
AcDbRotatedDimension
1001
PE_URL
1000

1001
ACAD
1000
DSTYLE
1002
{
1070
    41
1040
2.5
1070
   271
1070
     0
1070
   140
1040
2.5
1002
}
1001
ACAD_DSTYLE_DIMFLIPARROW_SYMBOL
1070
   385
1070
     0
1001
ACAD_DSTYLE_DIMFLIPARROW_WHICH_SYMBOL
1070
   386
1070
     3
  0
DIMENSION
  5
100
330
1F
100
AcDbEntity
  8
치수문자_일반주서
100
AcDbDimension
  2
_D_3
 10
-33.53589838486224
 20
19.00107492872389
 30
0.0
 11
-8.535898384862247
 21
19.00107492872389
 31
0.0
 70
   160
  1
<>
 71
     2
 42
49.99999999999999
  3
SLDDIMSTYLE0
100
AcDbAlignedDimension
 13
16.46410161513775
 23
1.001074928723889
 33
0.0
 14
-33.53589838486224
 24
2.401074928723895
 34
0.0
100
AcDbRotatedDimension
1001
PE_URL
1000

1001
ACAD
1000
DSTYLE
1002
{
1070
    41
1040
2.5
1070
   271
1070
     0
1070
   140
1040
2.5
1002
}
  0
LINE
  5
10B
330
1F
100
AcDbEntity
  8
참조1
100
AcDbLine
 10
74.27758543048334
 20
7.441074928723896
 30
0.0
 11
74.27758543048334
 21
-7.438925071276109
 31
0.0
  0
LINE
  5
10C
330
1F
100
AcDbEntity
  8
참조1
100
AcDbLine
 10
86.97758543048334
 20
5.441074928723896
 30
0.0
 11
74.27758543048334
 21
5.441074928723896
 31
0.0
  0
SOLID
  5
10D
330
1F
100
AcDbEntity
  8
참조1
100
AcDbTrace
 10
74.27758543048334
 20
5.441074928723896
 30
0.0
 11
80.62758543048334
 21
4.425074928723896
 31
0.0
 12
80.62758543048334
 22
6.457074928723896
 32
0.0
 13
80.62758543048334
 23
6.457074928723896
 33
0.0
  0
LINE
  5
10E
330
1F
100
AcDbEntity
  8
참조1
100
AcDbLine
 10
86.97758543048334
 20
-5.438925071276109
 30
0.0
 11
74.27758543048334
 21
-5.438925071276109
 31
0.0
  0
SOLID
  5
10F
330
1F
100
AcDbEntity
  8
참조1
100
AcDbTrace
 10
74.27758543048334
 20
-5.438925071276109
 30
0.0
 11
80.62758543048334
 21
-6.454925071276109
 31
0.0
 12
80.62758543048334
 22
-4.422925071276109
 32
0.0
 13
80.62758543048334
 23
-4.422925071276109
 33
0.0
  0
MTEXT
  5
110
330
1F
100
AcDbEntity
  8
참조1
100
AcDbMText
 10
83.67507552295362
 20
10.98929157337383
 30
0.0
 40
3.5
 41
0.0
 71
     1
 72
     1
  1
A
  7
SLDTEXTSTYLE0
 73
     1
 44
1.0
  0
MTEXT
  5
111
330
1F
100
AcDbEntity
  8
참조1
100
AcDbMText
 10
83.67507552295362
 20
0.1092915733738259
 30
0.0
 40
3.5
 41
0.0
 71
     1
 72
     1
  1
A
  7
SLDTEXTSTYLE0
 73
     1
 44
1.0
  0
INSERT
  5
118
330
1F
100
AcDbEntity
  8
해칭선
100
AcDbBlockReference
  2
SW_DOWELSYMBOL_0
 10
0.0
 20
0.0
 30
0.0
  0
ARC
  5
1EE
330
1F
100
AcDbEntity
  8
0
  6
Continuous
 62
     1
370
    15
100
AcDbCircle
 10
16.36410161513775
 20
0.9010749287238893
 30
0.0
 40
0.1
100
AcDbArc
 50
0.0
 51
90.0
1001
PE_URL
1000

  0
ARC
  5
1EF
102
{ACAD_REACTORS
102
}
330
1F
100
AcDbEntity
  8
0
  6
Continuous
 62
     1
370
    15
100
AcDbCircle
 10
16.36410161513775
 20
-0.8989250712761108
 30
0.0
 40
0.1
100
AcDbArc
 50
270.0
 51
0.0
1001
PE_URL
1000

  0
DIMENSION
  5
1F7
102
{ACAD_REACTORS
102
}
102
{ACAD_XDICTIONARY
360
1F8
102
}
330
1F
100
AcDbEntity
  8
치수문자_일반주서
100
AcDbDimension
  2
*D14
 10
16.36410161513775
 20
-0.8989250712761108
 30
0.0
 11
25.83157657804227
 21
-13.6367323415945
 31
0.0
 70
   164
 71
     5
 42
0.1000000000000003
  3
SLDDIMSTYLE0
100
AcDbRadialDimension
 15
16.42375473619223
 25
-0.9791840592367066
 35
0.0
 40
0.0
1001
ACAD
1000
DSTYLE
1002
{
1070
    41
1040
2.5
1070
   271
1070
     1
1070
   140
1040
2.5
1070
    78
1070
     0
1002
}
1001
ACAD_DSTYLE_DIMRADIAL_EXTENSION
1070
   387
1070
     1
1070
   388
1040
4.71238898038469
1070
   390
1040
0.0
1001
PE_URL
1000

  0
ENDSEC
  0
SECTION
  2
OBJECTS
  0
DICTIONARY
  5
C
330
0
100
AcDbDictionary
281
     1
  3
ACAD_DETAILVIEWSTYLE
350
1F5
  3
ACAD_GROUP
350
D
  3
ACAD_LAYOUT
350
1A
  3
ACAD_MLINESTYLE
350
17
  3
ACAD_PLOTSETTINGS
350
19
  3
ACAD_PLOTSTYLENAME
350
E
  3
ACAD_SCALELIST
350
47
  3
ACAD_SECTIONVIEWSTYLE
350
1F6
  3
AcDbVariableDictionary
350
1F0
  3
APPDATA
350
13A
  3
DWGPROPS
350
204
  0
DICTIONARY
  5
1F8
330
1F7
100
AcDbDictionary
280
     1
281
     1
  0
DICTIONARY
  5
1F5
102
{ACAD_REACTORS
330
C
102
}
330
C
100
AcDbDictionary
281
     1
  0
DICTIONARY
  5
D
102
{ACAD_REACTORS
330
C
102
}
330
C
100
AcDbDictionary
281
     1
  0
DICTIONARY
  5
1A
102
{ACAD_REACTORS
330
C
102
}
330
C
100
AcDbDictionary
281
     1
  3
Layout1
350
1E
  3
Layout2
350
26
  3
Model
350
22
  0
DICTIONARY
  5
17
102
{ACAD_REACTORS
330
C
102
}
330
C
100
AcDbDictionary
281
     1
  3
Standard
350
18
  0
DICTIONARY
  5
19
102
{ACAD_REACTORS
330
C
102
}
330
C
100
AcDbDictionary
281
     1
  0
ACDBDICTIONARYWDFLT
  5
E
102
{ACAD_REACTORS
330
C
102
}
330
C
100
AcDbDictionary
281
     1
  3
Normal
350
F
100
AcDbDictionaryWithDefault
340
F
  0
DICTIONARY
  5
47
102
{ACAD_REACTORS
330
C
102
}
330
C
100
AcDbDictionary
281
     1
  3
A0
350
48
  3
A1
350
49
  3
A2
350
4A
  3
A3
350
4B
  3
A4
350
4C
  3
A5
350
4D
  3
A6
350
4E
  3
A7
350
4F
  3
A8
350
50
  3
A9
350
51
  3
B0
350
52
  3
B1
350
53
  3
B2
350
54
  3
B3
350
55
  3
B4
350
56
  3
B5
350
57
  3
B6
350
58
  3
B7
350
59
  3
B8
350
5A
  3
B9
350
5B
  3
C0
350
5C
  3
C1
350
5D
  3
C2
350
5E
  3
C3
350
5F
  3
C4
350
60
  3
C5
350
61
  3
C6
350
62
  3
C7
350
63
  3
C8
350
64
  3
C9
350
65
  3
D0
350
66
  3
D1
350
67
  3
D2
350
68
  0
DICTIONARY
  5
1F6
102
{ACAD_REACTORS
330
C
102
}
330
C
100
AcDbDictionary
281
     1
  0
DICTIONARY
  5
1F0
102
{ACAD_REACTORS
330
C
102
}
330
C
100
AcDbDictionary
281
     1
  0
DICTIONARY
  5
13A
102
{ACAD_REACTORS
330
C
102
}
330
C
100
AcDbDictionary
281
     1
  0
XRECORD
  5
204
102
{ACAD_REACTORS
330
C
102
}
330
C
100
AcDbXrecord
280
     1
  1
DWGPROPS COOKIE
  2

  3

  4

  6

  7

  8
12017044
  9

300
=
301
=
302
=
303
=
304
=
305
=
306
=
307
=
308
=
309
=
 40
0.0
 41
2458269.424435081
 42
2458270.335001956
  1

 90
        0
  0
LAYOUT
  5
1E
102
{ACAD_REACTORS
330
1A
102
}
330
1A
100
AcDbPlotSettings
  1

  2
none_device
  4

  6

 40
0.0
 41
0.0
 42
0.0
 43
0.0
 44
0.0
 45
0.0
 46
0.0
 47
0.0
 48
0.0
 49
0.0
140
0.0
141
0.0
142
1.0
143
1.0
 70
   688
 72
     1
 73
     0
 74
     5
  7

 75
    16
147
1.0
148
0.0
149
0.0
100
AcDbLayout
  1
Layout1
 70
     1
 71
     1
 10
0.0
 20
0.0
 11
420.0
 21
297.0
 12
0.0
 22
0.0
 32
0.0
 14
1.000000000000000E+20
 24
1.000000000000000E+20
 34
1.000000000000000E+20
 15
-1.000000000000000E+20
 25
-1.000000000000000E+20
 35
-1.000000000000000E+20
146
0.0
 13
0.0
 23
0.0
 33
0.0
 16
1.0
 26
0.0
 36
0.0
 17
0.0
 27
1.0
 37
0.0
 76
     0
330
1B
  0
LAYOUT
  5
26
102
{ACAD_REACTORS
330
1A
102
}
330
1A
100
AcDbPlotSettings
  1

  2
none_device
  4

  6

 40
0.0
 41
0.0
 42
0.0
 43
0.0
 44
0.0
 45
0.0
 46
0.0
 47
0.0
 48
0.0
 49
0.0
140
0.0
141
0.0
142
1.0
143
1.0
 70
   688
 72
     1
 73
     0
 74
     5
  7

 75
    16
147
1.0
148
0.0
149
0.0
100
AcDbLayout
  1
Layout2
 70
     1
 71
     2
 10
0.0
 20
0.0
 11
0.0
 21
0.0
 12
0.0
 22
0.0
 32
0.0
 14
0.0
 24
0.0
 34
0.0
 15
0.0
 25
0.0
 35
0.0
146
0.0
 13
0.0
 23
0.0
 33
0.0
 16
1.0
 26
0.0
 36
0.0
 17
0.0
 27
1.0
 37
0.0
 76
     0
330
23
  0
LAYOUT
  5
22
102
{ACAD_REACTORS
330
1A
102
}
330
1A
100
AcDbPlotSettings
  1

  2
none_device
  4
ANSI_A_(11.00_x_8.50_Inches)
  6

 40
6.35
 41
19.05
 42
6.35000508
 43
19.05000254
 44
279.4
 45
215.9
 46
111.6855150645388
 47
109.4029011808193
 48
0.0
 49
0.0
140
0.0
141
0.0
142
0.0789824718862547
143
1.0
 70
  1696
 72
     0
 73
     0
 74
     0
  7

 75
     0
147
0.0235690232323232
148
0.0
149
0.0
100
AcDbLayout
  1
Model
 70
     1
 71
     0
 10
0.0
 20
0.0
 11
420.0
 21
297.0
 12
0.0
 22
0.0
 32
0.0
 14
-44.91089838486228
 24
-49.97073246008785
 34
0.0
 15
86.97758543048334
 25
22.3760749287239
 35
0.0
146
0.0
 13
0.0
 23
0.0
 33
0.0
 16
1.0
 26
0.0
 36
0.0
 17
0.0
 27
1.0
 37
0.0
 76
     0
330
1F
331
29
  0
MLINESTYLE
  5
18
102
{ACAD_REACTORS
330
17
102
}
330
17
100
AcDbMlineStyle
  2
Standard
 70
     0
  3

 62
   256
 51
90.0
 52
90.0
 71
     2
 49
0.5
 62
   256
  6
BYLAYER
 49
-0.5
 62
   256
  6
BYLAYER
  0
ACDBPLACEHOLDER
  5
F
102
{ACAD_REACTORS
330
E
102
}
330
E
  0
SCALE
  5
48
102
{ACAD_REACTORS
330
47
102
}
330
47
100
AcDbScale
 70
     0
300
1:1
140
1.0
141
1.0
290
     1
  0
SCALE
  5
49
102
{ACAD_REACTORS
330
47
102
}
330
47
100
AcDbScale
 70
     0
300
1:2
140
1.0
141
2.0
290
     0
  0
SCALE
  5
4A
102
{ACAD_REACTORS
330
47
102
}
330
47
100
AcDbScale
 70
     0
300
1:4
140
1.0
141
4.0
290
     0
  0
SCALE
  5
4B
102
{ACAD_REACTORS
330
47
102
}
330
47
100
AcDbScale
 70
     0
300
1:5
140
1.0
141
5.0
290
     0
  0
SCALE
  5
4C
102
{ACAD_REACTORS
330
47
102
}
330
47
100
AcDbScale
 70
     0
300
1:8
140
1.0
141
8.0
290
     0
  0
SCALE
  5
4D
102
{ACAD_REACTORS
330
47
102
}
330
47
100
AcDbScale
 70
     0
300
1:10
140
1.0
141
10.0
290
     0
  0
SCALE
  5
4E
102
{ACAD_REACTORS
330
47
102
}
330
47
100
AcDbScale
 70
     0
300
1:16
140
1.0
141
16.0
290
     0
  0
SCALE
  5
4F
102
{ACAD_REACTORS
330
47
102
}
330
47
100
AcDbScale
 70
     0
300
1:20
140
1.0
141
20.0
290
     0
  0
SCALE
  5
50
102
{ACAD_REACTORS
330
47
102
}
330
47
100
AcDbScale
 70
     0
300
1:30
140
1.0
141
30.0
290
     0
  0
SCALE
  5
51
102
{ACAD_REACTORS
330
47
102
}
330
47
100
AcDbScale
 70
     0
300
1:40
140
1.0
141
40.0
290
     0
  0
SCALE
  5
52
102
{ACAD_REACTORS
330
47
102
}
330
47
100
AcDbScale
 70
     0
300
1:50
140
1.0
141
50.0
290
     0
  0
SCALE
  5
53
102
{ACAD_REACTORS
330
47
102
}
330
47
100
AcDbScale
 70
     0
300
1:100
140
1.0
141
100.0
290
     0
  0
SCALE
  5
54
102
{ACAD_REACTORS
330
47
102
}
330
47
100
AcDbScale
 70
     0
300
2:1
140
2.0
141
1.0
290
     0
  0
SCALE
  5
55
102
{ACAD_REACTORS
330
47
102
}
330
47
100
AcDbScale
 70
     0
300
4:1
140
4.0
141
1.0
290
     0
  0
SCALE
  5
56
102
{ACAD_REACTORS
330
47
102
}
330
47
100
AcDbScale
 70
     0
300
8:1
140
8.0
141
1.0
290
     0
  0
SCALE
  5
57
102
{ACAD_REACTORS
330
47
102
}
330
47
100
AcDbScale
 70
     0
300
10:1
140
10.0
141
1.0
290
     0
  0
SCALE
  5
58
102
{ACAD_REACTORS
330
47
102
}
330
47
100
AcDbScale
 70
     0
300
100:1
140
100.0
141
1.0
290
     0
  0
SCALE
  5
59
102
{ACAD_REACTORS
330
47
102
}
330
47
100
AcDbScale
 70
     0
300
1/128" = 1'-0"
140
0.0078125
141
12.0
290
     0
  0
SCALE
  5
5A
102
{ACAD_REACTORS
330
47
102
}
330
47
100
AcDbScale
 70
     0
300
1/64" = 1'-0"
140
0.015625
141
12.0
290
     0
  0
SCALE
  5
5B
102
{ACAD_REACTORS
330
47
102
}
330
47
100
AcDbScale
 70
     0
300
1/32" = 1'-0"
140
0.03125
141
12.0
290
     0
  0
SCALE
  5
5C
102
{ACAD_REACTORS
330
47
102
}
330
47
100
AcDbScale
 70
     0
300
1/16" = 1'-0"
140
0.0625
141
12.0
290
     0
  0
SCALE
  5
5D
102
{ACAD_REACTORS
330
47
102
}
330
47
100
AcDbScale
 70
     0
300
3/32" = 1'-0"
140
0.09375
141
12.0
290
     0
  0
SCALE
  5
5E
102
{ACAD_REACTORS
330
47
102
}
330
47
100
AcDbScale
 70
     0
300
1/8" = 1'-0"
140
0.125
141
12.0
290
     0
  0
SCALE
  5
5F
102
{ACAD_REACTORS
330
47
102
}
330
47
100
AcDbScale
 70
     0
300
3/16" = 1'-0"
140
0.1875
141
12.0
290
     0
  0
SCALE
  5
60
102
{ACAD_REACTORS
330
47
102
}
330
47
100
AcDbScale
 70
     0
300
1/4" = 1'-0"
140
0.25
141
12.0
290
     0
  0
SCALE
  5
61
102
{ACAD_REACTORS
330
47
102
}
330
47
100
AcDbScale
 70
     0
300
3/8" = 1'-0"
140
0.375
141
12.0
290
     0
  0
SCALE
  5
62
102
{ACAD_REACTORS
330
47
102
}
330
47
100
AcDbScale
 70
     0
300
1/2" = 1'-0"
140
0.5
141
12.0
290
     0
  0
SCALE
  5
63
102
{ACAD_REACTORS
330
47
102
}
330
47
100
AcDbScale
 70
     0
300
3/4" = 1'-0"
140
0.75
141
12.0
290
     0
  0
SCALE
  5
64
102
{ACAD_REACTORS
330
47
102
}
330
47
100
AcDbScale
 70
     0
300
1" = 1'-0"
140
1.0
141
12.0
290
     0
  0
SCALE
  5
65
102
{ACAD_REACTORS
330
47
102
}
330
47
100
AcDbScale
 70
     0
300
1-1/2" = 1'-0"
140
1.5
141
12.0
290
     0
  0
SCALE
  5
66
102
{ACAD_REACTORS
330
47
102
}
330
47
100
AcDbScale
 70
     0
300
3" = 1'-0"
140
3.0
141
12.0
290
     0
  0
SCALE
  5
67
102
{ACAD_REACTORS
330
47
102
}
330
47
100
AcDbScale
 70
     0
300
6" = 1'-0"
140
6.0
141
12.0
290
     0
  0
SCALE
  5
68
102
{ACAD_REACTORS
330
47
102
}
330
47
100
AcDbScale
 70
     0
300
1'-0" = 1'-0"
140
12.0
141
12.0
290
     0
  0
ENDSEC
  0
EOF
