  0
SECTION
  2
HEADER
  9
$ACADVER
  1
AC1015
  9
$ACADMAINTVER
 70
     6
  9
$DWGCODEPAGE
  3
ANSI_949
  9
$INSBASE
 10
0.0
 20
0.0
 30
0.0
  9
$EXTMIN
 10
1.000000000000000E+20
 20
1.000000000000000E+20
 30
1.000000000000000E+20
  9
$EXTMAX
 10
-1.000000000000000E+20
 20
-1.000000000000000E+20
 30
-1.000000000000000E+20
  9
$LIMMIN
 10
0.0
 20
0.0
  9
$LIMMAX
 10
420.0
 20
297.0
  9
$ORTHOMODE
 70
     1
  9
$REGENMODE
 70
     1
  9
$FILLMODE
 70
     1
  9
$QTEXTMODE
 70
     0
  9
$MIRRTEXT
 70
     1
  9
$LTSCALE
 40
1.0
  9
$ATTMODE
 70
     1
  9
$TEXTSIZE
 40
3.5
  9
$TRACEWID
 40
1.0
  9
$TEXTSTYLE
  7
Standard
  9
$CLAYER
  8
0
  9
$CELTYPE
  6
ByLayer
  9
$CECOLOR
 62
   256
  9
$CELTSCALE
 40
1.0
  9
$DISPSILH
 70
     0
  9
$DIMSCALE
 40
1.0
  9
$DIMASZ
 40
3.302
  9
$DIMEXO
 40
1.0
  9
$DIMDLI
 40
3.75
  9
$DIMRND
 40
0.0
  9
$DIMDLE
 40
0.0
  9
$DIMEXE
 40
1.0
  9
$DIMTP
 40
0.0
  9
$DIMTM
 40
0.0
  9
$DIMTXT
 40
3.5
  9
$DIMCEN
 40
2.5
  9
$DIMTSZ
 40
0.0
  9
$DIMTOL
 70
     0
  9
$DIMLIM
 70
     0
  9
$DIMTIH
 70
     1
  9
$DIMTOH
 70
     1
  9
$DIMSE1
 70
     0
  9
$DIMSE2
 70
     0
  9
$DIMTAD
 70
     1
  9
$DIMZIN
 70
     0
  9
$DIMBLK
  1

  9
$DIMASO
 70
     1
  9
$DIMSHO
 70
     1
  9
$DIMPOST
  1

  9
$DIMAPOST
  1

  9
$DIMALT
 70
     0
  9
$DIMALTD
 70
     3
  9
$DIMALTF
 40
0.0393700787401575
  9
$DIMLFAC
 40
1.0
  9
$DIMTOFL
 70
     1
  9
$DIMTVP
 40
0.0
  9
$DIMTIX
 70
     0
  9
$DIMSOXD
 70
     0
  9
$DIMSAH
 70
     0
  9
$DIMBLK1
  1

  9
$DIMBLK2
  1

  9
$DIMSTYLE
  2
ISO-25
  9
$DIMCLRD
 70
     0
  9
$DIMCLRE
 70
     0
  9
$DIMCLRT
 70
     0
  9
$DIMTFAC
 40
1.0
  9
$DIMGAP
 40
1.524
  9
$DIMJUST
 70
     0
  9
$DIMSD1
 70
     0
  9
$DIMSD2
 70
     0
  9
$DIMTOLJ
 70
     0
  9
$DIMTZIN
 70
     0
  9
$DIMALTZ
 70
     0
  9
$DIMALTTZ
 70
     0
  9
$DIMUPT
 70
     0
  9
$DIMDEC
 70
     2
  9
$DIMTDEC
 70
     2
  9
$DIMALTU
 70
     2
  9
$DIMALTTD
 70
     3
  9
$DIMTXSTY
  7
Standard
  9
$DIMAUNIT
 70
     0
  9
$DIMADEC
 70
     2
  9
$DIMALTRND
 40
0.0
  9
$DIMAZIN
 70
     0
  9
$DIMDSEP
 70
    44
  9
$DIMATFIT
 70
     3
  9
$DIMFRAC
 70
     0
  9
$DIMLDRBLK
  1

  9
$DIMLUNIT
 70
     2
  9
$DIMLWD
 70
    -2
  9
$DIMLWE
 70
    -2
  9
$DIMTMOVE
 70
     0
  9
$LUNITS
 70
     2
  9
$LUPREC
 70
     2
  9
$SKETCHINC
 40
1.0
  9
$FILLETRAD
 40
10.0
  9
$AUNITS
 70
     0
  9
$AUPREC
 70
     2
  9
$MENU
  1
.
  9
$ELEVATION
 40
0.0
  9
$PELEVATION
 40
0.0
  9
$THICKNESS
 40
0.0
  9
$LIMCHECK
 70
     0
  9
$CHAMFERA
 40
0.0
  9
$CHAMFERB
 40
0.0
  9
$CHAMFERC
 40
0.0
  9
$CHAMFERD
 40
0.0
  9
$SKPOLY
 70
     0
  9
$TDCREATE
 40
2458269.798679085
  9
$TDUCREATE
 40
2458269.423679085
  9
$TDUPDATE
 40
2458272.408625046
  9
$TDUUPDATE
 40
2458272.033625046
  9
$TDINDWG
 40
0.0009245718
  9
$TDUSRTIMER
 40
2458272.032700729
  9
$USRTIMER
 70
     1
  9
$ANGBASE
 50
0.0
  9
$ANGDIR
 70
     0
  9
$PDMODE
 70
     0
  9
$PDSIZE
 40
-1.0
  9
$PLINEWID
 40
0.0
  9
$SPLFRAME
 70
     0
  9
$SPLINETYPE
 70
     6
  9
$SPLINESEGS
 70
     8
  9
$HANDSEED
  5
2BB
  9
$SURFTAB1
 70
     6
  9
$SURFTAB2
 70
     6
  9
$SURFTYPE
 70
     6
  9
$SURFU
 70
     6
  9
$SURFV
 70
     6
  9
$UCSBASE
  2

  9
$UCSNAME
  2

  9
$UCSORG
 10
0.0
 20
0.0
 30
0.0
  9
$UCSXDIR
 10
1.0
 20
0.0
 30
0.0
  9
$UCSYDIR
 10
0.0
 20
1.0
 30
0.0
  9
$UCSORTHOREF
  2

  9
$UCSORTHOVIEW
 70
     0
  9
$UCSORGTOP
 10
0.0
 20
0.0
 30
0.0
  9
$UCSORGBOTTOM
 10
0.0
 20
0.0
 30
0.0
  9
$UCSORGLEFT
 10
0.0
 20
0.0
 30
0.0
  9
$UCSORGRIGHT
 10
0.0
 20
0.0
 30
0.0
  9
$UCSORGFRONT
 10
0.0
 20
0.0
 30
0.0
  9
$UCSORGBACK
 10
0.0
 20
0.0
 30
0.0
  9
$PUCSBASE
  2

  9
$PUCSNAME
  2

  9
$PUCSORG
 10
0.0
 20
0.0
 30
0.0
  9
$PUCSXDIR
 10
1.0
 20
0.0
 30
0.0
  9
$PUCSYDIR
 10
0.0
 20
1.0
 30
0.0
  9
$PUCSORTHOREF
  2

  9
$PUCSORTHOVIEW
 70
     0
  9
$PUCSORGTOP
 10
0.0
 20
0.0
 30
0.0
  9
$PUCSORGBOTTOM
 10
0.0
 20
0.0
 30
0.0
  9
$PUCSORGLEFT
 10
0.0
 20
0.0
 30
0.0
  9
$PUCSORGRIGHT
 10
0.0
 20
0.0
 30
0.0
  9
$PUCSORGFRONT
 10
0.0
 20
0.0
 30
0.0
  9
$PUCSORGBACK
 10
0.0
 20
0.0
 30
0.0
  9
$USERI1
 70
     0
  9
$USERI2
 70
     0
  9
$USERI3
 70
     0
  9
$USERI4
 70
     0
  9
$USERI5
 70
     0
  9
$USERR1
 40
0.0
  9
$USERR2
 40
0.0
  9
$USERR3
 40
0.0
  9
$USERR4
 40
0.0
  9
$USERR5
 40
0.0
  9
$WORLDVIEW
 70
     1
  9
$SHADEDGE
 70
     3
  9
$SHADEDIF
 70
    70
  9
$TILEMODE
 70
     1
  9
$MAXACTVP
 70
    64
  9
$PINSBASE
 10
0.0
 20
0.0
 30
0.0
  9
$PLIMCHECK
 70
     0
  9
$PEXTMIN
 10
1.000000000000000E+20
 20
1.000000000000000E+20
 30
1.000000000000000E+20
  9
$PEXTMAX
 10
-1.000000000000000E+20
 20
-1.000000000000000E+20
 30
-1.000000000000000E+20
  9
$PLIMMIN
 10
0.0
 20
0.0
  9
$PLIMMAX
 10
0.0
 20
0.0
  9
$UNITMODE
 70
     0
  9
$VISRETAIN
 70
     1
  9
$PLINEGEN
 70
     0
  9
$PSLTSCALE
 70
     1
  9
$TREEDEPTH
 70
  3020
  9
$CMLSTYLE
  2
Standard
  9
$CMLJUST
 70
     0
  9
$CMLSCALE
 40
20.0
  9
$PROXYGRAPHICS
 70
     1
  9
$MEASUREMENT
 70
     1
  9
$CELWEIGHT
370
    -1
  9
$ENDCAPS
280
     0
  9
$JOINSTYLE
280
     0
  9
$LWDISPLAY
290
     1
  9
$INSUNITS
 70
     4
  9
$HYPERLINKBASE
  1

  9
$STYLESHEET
  1

  9
$XEDIT
290
     1
  9
$CEPSNTYPE
380
     0
  9
$PSTYLEMODE
290
     1
  9
$FINGERPRINTGUID
  2
{D88819D4-71CF-40C8-AA34-6B4EB532A211}
  9
$VERSIONGUID
  2
{FAEB1C32-E019-11D5-929B-00C0DF256EC4}
  9
$EXTNAMES
290
     1
  9
$PSVPSCALE
 40
0.0
  9
$OLESTARTUP
290
     0
  0
ENDSEC
  0
SECTION
  2
CLASSES
  0
CLASS
  1
ACDBDICTIONARYWDFLT
  2
AcDbDictionaryWithDefault
  3
ObjectDBX Classes
 90
        0
280
     0
281
     0
  0
CLASS
  1
VISUALSTYLE
  2
AcDbVisualStyle
  3
ObjectDBX Classes
 90
     4095
280
     0
281
     0
  0
CLASS
  1
MATERIAL
  2
AcDbMaterial
  3
ObjectDBX Classes
 90
     1153
280
     0
281
     0
  0
CLASS
  1
SCALE
  2
AcDbScale
  3
ObjectDBX Classes
 90
     1153
280
     0
281
     0
  0
CLASS
  1
SUN
  2
AcDbSun
  3
SCENEOE
 90
     1153
280
     0
281
     0
  0
CLASS
  1
ACDBPLACEHOLDER
  2
AcDbPlaceHolder
  3
ObjectDBX Classes
 90
        0
280
     0
281
     0
  0
CLASS
  1
LAYOUT
  2
AcDbLayout
  3
ObjectDBX Classes
 90
        0
280
     0
281
     0
  0
CLASS
  1
TABLESTYLE
  2
AcDbTableStyle
  3
ObjectDBX Classes
 90
     4095
280
     0
281
     0
  0
CLASS
  1
MLEADERSTYLE
  2
AcDbMLeaderStyle
  3
ACDB_MLEADERSTYLE_CLASS
 90
     4095
280
     0
281
     0
  0
CLASS
  1
RASTERVARIABLES
  2
AcDbRasterVariables
  3
ISM
 90
        0
280
     0
281
     0
  0
CLASS
  1
DIMASSOC
  2
AcDbDimAssoc
  3
"AcDbDimAssoc|Product Desc:     AcDim ARX App For Dimension|Company:          Autodesk, Inc.|WEB Address:      www.autodesk.com"
 90
        0
280
     0
281
     0
  0
ENDSEC
  0
SECTION
  2
TABLES
  0
TABLE
  2
VPORT
  5
8
330
0
100
AcDbSymbolTable
 70
     1
  0
VPORT
  5
29
330
8
100
AcDbSymbolTableRecord
100
AcDbViewportTableRecord
  2
*Active
 70
     0
 10
0.0
 20
0.0
 11
1.0
 21
1.0
 12
-22.45131432578134
 22
7.448618462243545
 13
0.0
 23
0.0
 14
10.0
 24
10.0
 15
10.0
 25
10.0
 16
0.0
 26
0.0
 36
1.0
 17
0.0
 27
0.0
 37
0.0
 40
203.994936989957
 41
1.696911196911197
 42
50.0
 43
0.0
 44
0.0
 50
0.0
 51
0.0
 71
    16
 72
  2000
 73
     1
 74
     3
 75
     0
 76
     0
 77
     0
 78
     0
281
     0
 65
     1
110
0.0
120
0.0
130
0.0
111
1.0
121
0.0
131
0.0
112
0.0
122
1.0
132
0.0
 79
     0
146
0.0
  0
ENDTAB
  0
TABLE
  2
LTYPE
  5
5
330
0
100
AcDbSymbolTable
 70
     6
  0
LTYPE
  5
14
330
5
100
AcDbSymbolTableRecord
100
AcDbLinetypeTableRecord
  2
ByBlock
 70
     0
  3

 72
    65
 73
     0
 40
0.0
  0
LTYPE
  5
15
330
5
100
AcDbSymbolTableRecord
100
AcDbLinetypeTableRecord
  2
ByLayer
 70
     0
  3

 72
    65
 73
     0
 40
0.0
  0
LTYPE
  5
16
330
5
100
AcDbSymbolTableRecord
100
AcDbLinetypeTableRecord
  2
Continuous
 70
     0
  3
Solid line
 72
    65
 73
     0
 40
0.0
  0
LTYPE
  5
6A
330
5
100
AcDbSymbolTableRecord
100
AcDbLinetypeTableRecord
  2
HIDDEN
 70
     0
  3
Hidden __ __ __ __ __ __ __ __ __ __ __ __ __ __
 72
    65
 73
     2
 40
1.905
 49
1.27
 74
     0
 49
-0.635
 74
     0
  0
LTYPE
  5
6B
330
5
100
AcDbSymbolTableRecord
100
AcDbLinetypeTableRecord
  2
PHANTOM
 70
     0
  3
Phantom ______  __  __  ______  __  __  ______
 72
    65
 73
     6
 40
12.7
 49
6.35
 74
     0
 49
-1.27
 74
     0
 49
1.27
 74
     0
 49
-1.27
 74
     0
 49
1.27
 74
     0
 49
-1.27
 74
     0
  0
LTYPE
  5
6C
330
5
100
AcDbSymbolTableRecord
100
AcDbLinetypeTableRecord
  2
CENTER
 70
     0
  3
Center ____ _ ____ _ ____ _ ____ _ ____ _ ____
 72
    65
 73
     4
 40
10.16
 49
6.35
 74
     0
 49
-1.27
 74
     0
 49
1.27
 74
     0
 49
-1.27
 74
     0
  0
LTYPE
  5
6D
330
5
100
AcDbSymbolTableRecord
100
AcDbLinetypeTableRecord
  2
CENTERX2
 70
     0
  3
Center (2x) ________  __  ________  __  _____
 72
    65
 73
     4
 40
20.32
 49
12.7
 74
     0
 49
-2.54
 74
     0
 49
2.54
 74
     0
 49
-2.54
 74
     0
  0
LTYPE
  5
6E
330
5
100
AcDbSymbolTableRecord
100
AcDbLinetypeTableRecord
  2
DOT2
 70
     0
  3
Dot (.5x) ........................................
 72
    65
 73
     2
 40
0.635
 49
0.0
 74
     0
 49
-0.635
 74
     0
  0
ENDTAB
  0
TABLE
  2
LAYER
  5
2
330
0
100
AcDbSymbolTable
 70
    18
  0
LAYER
  5
10
330
2
100
AcDbSymbolTableRecord
100
AcDbLayerTableRecord
  2
0
 70
     0
 62
     7
  6
Continuous
370
    -3
390
F
  0
LAYER
  5
6F
330
2
100
AcDbSymbolTableRecord
100
AcDbLayerTableRecord
  2
FORMAT
 70
     0
 62
     2
  6
Continuous
370
    -3
390
F
  0
LAYER
  5
70
330
2
100
AcDbSymbolTableRecord
100
AcDbLayerTableRecord
  2
외형선
 70
     0
 62
     4
  6
Continuous
370
    30
390
F
  0
LAYER
  5
71
330
2
100
AcDbSymbolTableRecord
100
AcDbLayerTableRecord
  2
숨은선
 70
     0
 62
     2
  6
HIDDEN
370
    15
390
F
  0
LAYER
  5
72
330
2
100
AcDbSymbolTableRecord
100
AcDbLayerTableRecord
  2
중심선
 70
     0
 62
     1
  6
CENTERX2
370
    -3
390
F
  0
LAYER
  5
73
330
2
100
AcDbSymbolTableRecord
100
AcDbLayerTableRecord
  2
파단선
 70
     0
 62
     4
  6
Continuous
370
    -3
390
F
  0
LAYER
  5
74
330
2
100
AcDbSymbolTableRecord
100
AcDbLayerTableRecord
  2
해칭선
 70
     0
 62
   100
  6
Continuous
370
    -3
390
F
  0
LAYER
  5
75
330
2
100
AcDbSymbolTableRecord
100
AcDbLayerTableRecord
  2
가는실선
 70
     0
 62
     4
  6
Continuous
370
    -3
390
F
  0
LAYER
  5
76
330
2
100
AcDbSymbolTableRecord
100
AcDbLayerTableRecord
  2
치수_보조선
 70
     0
 62
     4
  6
Continuous
370
    -3
390
F
  0
LAYER
  5
77
330
2
100
AcDbSymbolTableRecord
100
AcDbLayerTableRecord
  2
치수문자_일반주서
 70
     0
 62
     7
  6
Continuous
370
    15
390
F
  0
LAYER
  5
78
330
2
100
AcDbSymbolTableRecord
100
AcDbLayerTableRecord
  2
개별주서
 70
     0
 62
   100
  6
Continuous
370
    30
390
F
  0
LAYER
  5
79
330
2
100
AcDbSymbolTableRecord
100
AcDbLayerTableRecord
  2
중간선
 70
     0
 62
     2
  6
Continuous
370
    15
390
F
  0
LAYER
  5
7A
330
2
100
AcDbSymbolTableRecord
100
AcDbLayerTableRecord
  2
윤곽선
 70
     0
 62
     3
  6
Continuous
370
    40
390
F
  0
LAYER
  5
7B
330
2
100
AcDbSymbolTableRecord
100
AcDbLayerTableRecord
  2
중심마크
 70
     0
 62
   100
  6
Continuous
370
    30
390
F
  0
LAYER
  5
7C
330
2
100
AcDbSymbolTableRecord
100
AcDbLayerTableRecord
  2
가상선
 70
     0
 62
     4
  6
PHANTOM
370
    -3
390
F
  0
LAYER
  5
7D
330
2
100
AcDbSymbolTableRecord
100
AcDbLayerTableRecord
  2
특수지정선
 70
     0
 62
     5
  6
CENTERX2
370
    60
390
F
  0
LAYER
  5
7E
330
2
100
AcDbSymbolTableRecord
100
AcDbLayerTableRecord
  2
참조1
 70
     0
 62
    -4
  6
Continuous
370
    -3
390
F
  0
LAYER
  5
13E
330
2
100
AcDbSymbolTableRecord
100
AcDbLayerTableRecord
  2
Defpoints
 70
     0
 62
     7
  6
Continuous
290
     0
370
    -3
390
F
  0
ENDTAB
  0
TABLE
  2
STYLE
  5
3
330
0
100
AcDbSymbolTable
 70
     2
  0
STYLE
  5
11
330
3
100
AcDbSymbolTableRecord
100
AcDbTextStyleTableRecord
  2
Standard
 70
     0
 40
0.0
 41
1.0
 50
0.0
 71
     0
 42
3.5
  3
txt
  4

  0
STYLE
  5
94
330
3
100
AcDbSymbolTableRecord
100
AcDbTextStyleTableRecord
  2
SLDTEXTSTYLE0
 70
     0
 40
0.0
 41
0.75
 50
0.0
 71
     0
 42
3.5
  3
TXT
  4

  0
ENDTAB
  0
TABLE
  2
VIEW
  5
6
330
0
100
AcDbSymbolTable
 70
     0
  0
ENDTAB
  0
TABLE
  2
UCS
  5
7
330
0
100
AcDbSymbolTable
 70
     0
  0
ENDTAB
  0
TABLE
  2
APPID
  5
9
330
0
100
AcDbSymbolTable
 70
     5
  0
APPID
  5
12
330
9
100
AcDbSymbolTableRecord
100
AcDbRegAppTableRecord
  2
ACAD
 70
     0
  0
APPID
  5
149
330
9
100
AcDbSymbolTableRecord
100
AcDbRegAppTableRecord
  2
PE_URL
 70
     0
  0
APPID
  5
14A
330
9
100
AcDbSymbolTableRecord
100
AcDbRegAppTableRecord
  2
ACAD_DSTYLE_DIMRADIAL_EXTENSION
 70
     0
  0
APPID
  5
2B9
330
9
100
AcDbSymbolTableRecord
100
AcDbRegAppTableRecord
  2
ACAD_DSTYLE_DIMFLIPARROW_SYMBOL
 70
     0
  0
APPID
  5
2BA
330
9
100
AcDbSymbolTableRecord
100
AcDbRegAppTableRecord
  2
ACAD_DSTYLE_DIMFLIPARROW_WHICH_SYMBOL
 70
     0
  0
ENDTAB
  0
TABLE
  2
DIMSTYLE
  5
A
330
0
100
AcDbSymbolTable
 70
     4
100
AcDbDimStyleTable
  0
DIMSTYLE
105
27
330
A
100
AcDbSymbolTableRecord
100
AcDbDimStyleTableRecord
  2
ISO-25
 70
     0
 41
2.5
 42
0.625
 43
3.75
 44
1.25
 73
     0
 74
     0
 77
     1
 78
     8
140
2.5
141
2.5
143
0.03937007874016
147
0.625
171
     3
172
     1
178
     0
271
     2
272
     2
274
     3
278
    44
283
     0
284
     8
340
11
  0
DIMSTYLE
105
D9
102
{ACAD_REACTORS
330
19C
330
1AC
330
1BC
330
1CB
330
1E1
330
259
330
25A
330
25B
330
25C
330
2A5
102
}
330
A
100
AcDbSymbolTableRecord
100
AcDbDimStyleTableRecord
  2
SLDDIMSTYLE0
 70
     0
 41
3.302
 44
0.0
 45
0.000000001
 73
     0
 74
     0
 77
     1
 78
     4
 79
     1
140
3.5
147
0.875
172
     1
173
     1
178
     0
271
     2
272
     2
276
     2
284
    12
289
     0
340
94
  0
DIMSTYLE
105
E7
330
A
100
AcDbSymbolTableRecord
100
AcDbDimStyleTableRecord
  2
SLDDIMSTYLE1
 70
     0
 41
3.302
 44
0.0
 45
0.000000001
 73
     0
 74
     0
 77
     1
 78
    12
 79
     3
140
3.5
147
0.875
172
     1
173
     1
178
     0
271
     2
272
     2
276
     2
284
    12
289
     0
340
94
  0
DIMSTYLE
105
101
330
A
100
AcDbSymbolTableRecord
100
AcDbDimStyleTableRecord
  2
SLDDIMSTYLE2
 70
     0
 41
3.302
 44
0.0
 45
0.000000001
 73
     0
 74
     0
 77
     1
 78
    12
 79
     3
140
3.5
147
0.875
173
     1
178
     0
271
     2
272
     2
276
     2
284
    12
340
94
  0
ENDTAB
  0
TABLE
  2
BLOCK_RECORD
  5
1
330
0
100
AcDbSymbolTable
 70
    19
  0
BLOCK_RECORD
  5
1F
330
1
100
AcDbSymbolTableRecord
100
AcDbBlockTableRecord
  2
*Model_Space
340
22
  0
BLOCK_RECORD
  5
1B
330
1
100
AcDbSymbolTableRecord
100
AcDbBlockTableRecord
  2
*Paper_Space
340
1E
  0
BLOCK_RECORD
  5
23
330
1
100
AcDbSymbolTableRecord
100
AcDbBlockTableRecord
  2
*Paper_Space0
340
26
  0
BLOCK_RECORD
  5
7F
330
1
100
AcDbSymbolTableRecord
100
AcDbBlockTableRecord
  2
블럭10
340
0
102
{BLKREFS
331
D1
102
}
  0
BLOCK_RECORD
  5
DA
330
1
100
AcDbSymbolTableRecord
100
AcDbBlockTableRecord
  2
_D
340
0
  0
BLOCK_RECORD
  5
E8
330
1
100
AcDbSymbolTableRecord
100
AcDbBlockTableRecord
  2
_D_1
340
0
  0
BLOCK_RECORD
  5
F5
330
1
100
AcDbSymbolTableRecord
100
AcDbBlockTableRecord
  2
_D_2
340
0
  0
BLOCK_RECORD
  5
102
330
1
100
AcDbSymbolTableRecord
100
AcDbBlockTableRecord
  2
_D_3
340
0
  0
BLOCK_RECORD
  5
112
330
1
100
AcDbSymbolTableRecord
100
AcDbBlockTableRecord
  2
SW_DOWELSYMBOL_0
340
0
102
{BLKREFS
331
0
331
1D8
331
25D
102
}
  0
BLOCK_RECORD
  5
1E2
330
1
100
AcDbSymbolTableRecord
100
AcDbBlockTableRecord
  2
*D8
340
0
  0
BLOCK_RECORD
  5
1ED
330
1
100
AcDbSymbolTableRecord
100
AcDbBlockTableRecord
  2
*D9
340
0
  0
BLOCK_RECORD
  5
1FC
330
1
100
AcDbSymbolTableRecord
100
AcDbBlockTableRecord
  2
*D10
340
0
  0
BLOCK_RECORD
  5
20B
330
1
100
AcDbSymbolTableRecord
100
AcDbBlockTableRecord
  2
*D11
340
0
  0
BLOCK_RECORD
  5
219
330
1
100
AcDbSymbolTableRecord
100
AcDbBlockTableRecord
  2
*D12
340
0
  0
BLOCK_RECORD
  5
261
330
1
100
AcDbSymbolTableRecord
100
AcDbBlockTableRecord
  2
*D13
340
0
  0
BLOCK_RECORD
  5
270
330
1
100
AcDbSymbolTableRecord
100
AcDbBlockTableRecord
  2
*D14
340
0
  0
BLOCK_RECORD
  5
27F
330
1
100
AcDbSymbolTableRecord
100
AcDbBlockTableRecord
  2
*D15
340
0
  0
BLOCK_RECORD
  5
28D
330
1
100
AcDbSymbolTableRecord
100
AcDbBlockTableRecord
  2
*D16
340
0
  0
BLOCK_RECORD
  5
299
330
1
100
AcDbSymbolTableRecord
100
AcDbBlockTableRecord
  2
*D17
340
0
  0
BLOCK_RECORD
  5
2A8
330
1
100
AcDbSymbolTableRecord
100
AcDbBlockTableRecord
  2
*D18
340
0
  0
ENDTAB
  0
ENDSEC
  0
SECTION
  2
BLOCKS
  0
BLOCK
  5
20
330
1F
100
AcDbEntity
  8
0
100
AcDbBlockBegin
  2
*Model_Space
 70
     0
 10
0.0
 20
0.0
 30
0.0
  3
*Model_Space
  1
*Model_Space
  0
ENDBLK
  5
21
330
1F
100
AcDbEntity
  8
0
100
AcDbBlockEnd
  0
BLOCK
  5
1C
330
1B
100
AcDbEntity
 67
     1
  8
0
100
AcDbBlockBegin
  2
*Paper_Space
 70
     0
 10
0.0
 20
0.0
 30
0.0
  3
*Paper_Space
  1
*Paper_Space
  0
ENDBLK
  5
1D
330
1B
100
AcDbEntity
 67
     1
  8
0
100
AcDbBlockEnd
  0
BLOCK
  5
24
330
23
100
AcDbEntity
  8
0
100
AcDbBlockBegin
  2
*Paper_Space0
 70
     0
 10
0.0
 20
0.0
 30
0.0
  3
*Paper_Space0
  1
*Paper_Space0
  0
ENDBLK
  5
25
330
23
100
AcDbEntity
  8
0
100
AcDbBlockEnd
  0
BLOCK
  5
80
330
7F
100
AcDbEntity
  8
0
100
AcDbBlockBegin
  2
블럭10
 70
     2
 10
0.0
 20
0.0
 30
0.0
  3
블럭10
  1
블럭10
  0
ELLIPSE
  5
82
330
7F
100
AcDbEntity
  8
중심선
100
AcDbEllipse
 10
20.54032771741204
 20
12.0471743016438
 30
0.0
 11
6.600054785286829
 21
-1.261213355974178E-13
 31
0.0
210
0.0
220
0.0
230
1.0
 40
0.636358354079598
 41
0.9219305317359503
 42
6.513795318482858
  0
ELLIPSE
  5
83
330
7F
100
AcDbEntity
  8
중심선
100
AcDbEllipse
 10
20.54032771746488
 20
12.04717430159265
 30
0.0
 11
3.960054785062283
 21
1.540847449632565E-10
 31
0.0
210
0.0
220
0.0
230
1.0
 40
0.3939339440162632
 41
1.131841032648279
 42
5.62031148352944
  0
LINE
  5
84
330
7F
100
AcDbEntity
  8
중심선
100
AcDbLine
 10
2.268634060543552
 20
16.24717430164393
 30
0.0
 11
5.714909304380834
 21
16.24717430164393
 31
0.0
  0
LINE
  5
85
330
7F
100
AcDbEntity
  8
중심선
100
AcDbLine
 10
5.245725140726316
 20
7.84717430164391
 30
0.0
 11
8.692000384563599
 21
7.84717430164391
 31
0.0
  0
LINE
  5
86
330
7F
100
AcDbEntity
  8
중심선
100
AcDbLine
 10
15.74043728645272
 20
16.24717430164393
 30
0.0
 11
8.692000384563599
 21
7.84717430164391
 31
0.0
  0
LINE
  5
87
330
7F
100
AcDbEntity
  8
중심선
100
AcDbLine
 10
0.1404042013395286
 20
13.71084872107135
 30
0.0
 11
3.58671253028996
 21
13.71088815037384
 31
0.0
  0
LINE
  5
88
330
7F
100
AcDbEntity
  8
중심선
100
AcDbLine
 10
2.750260043222114
 20
10.84717430164391
 30
0.0
 11
6.196535287059397
 21
10.84717430164391
 31
0.0
  0
LINE
  5
89
330
7F
100
AcDbEntity
  8
중심선
100
AcDbLine
 10
12.29416204261559
 20
16.24717430164393
 30
0.0
 11
5.245725140726316
 21
7.84717430164391
 31
0.0
  0
LINE
  5
8A
330
7F
100
AcDbEntity
  8
중심선
100
AcDbLine
 10
10.72767329541681
 20
16.24717430164393
 30
0.0
 11
6.196535287059397
 21
10.84717430164391
 31
0.0
  0
LINE
  5
8B
330
7F
100
AcDbEntity
  8
중심선
100
AcDbLine
 10
7.28139805157953
 20
16.24717430164393
 30
0.0
 11
2.750260043222114
 21
10.84717430164391
 31
0.0
  0
LINE
  5
8C
330
7F
100
AcDbEntity
  8
중심선
100
AcDbLine
 10
5.714909304380834
 20
16.24717430164393
 30
0.0
 11
3.58671253028996
 21
13.71088815037384
 31
0.0
  0
LINE
  5
8D
330
7F
100
AcDbEntity
  8
중심선
100
AcDbLine
 10
2.268634060543552
 20
16.24717430164393
 30
0.0
 11
0.1404042013395286
 21
13.71084872107135
 31
0.0
  0
LINE
  5
8E
330
7F
100
AcDbEntity
  8
중심선
100
AcDbLine
 10
7.28139805157953
 20
16.24717430164393
 30
0.0
 11
10.72767329541681
 21
16.24717430164393
 31
0.0
  0
LINE
  5
8F
330
7F
100
AcDbEntity
  8
중심선
100
AcDbLine
 10
12.29416204261559
 20
16.24717430164393
 30
0.0
 11
15.74043728645272
 21
16.24717430164393
 31
0.0
  0
LINE
  5
90
330
7F
100
AcDbEntity
  8
중심선
100
AcDbLine
 10
19.22036997980202
 20
11.08717430171403
 30
0.0
 11
23.66174974927406
 21
11.08717430171406
 31
0.0
  0
LINE
  5
91
330
7F
100
AcDbEntity
  8
중심선
100
AcDbLine
 10
19.22039502424796
 20
13.00717430171391
 30
0.0
 11
19.22036997980202
 21
11.08717430171403
 31
0.0
  0
LINE
  5
92
330
7F
100
AcDbEntity
  8
중심선
100
AcDbLine
 10
19.22039502424796
 20
13.00717430171391
 30
0.0
 11
26.96566020931264
 21
13.00717430171391
 31
0.0
  0
LINE
  5
93
330
7F
100
AcDbEntity
  8
중심선
100
AcDbLine
 10
22.22332737316547
 20
13.45928029700563
 30
0.0
 11
24.52862924686651
 21
15.39360700705356
 31
0.0
  0
ATTDEF
  5
95
330
7F
100
AcDbEntity
  8
FORMAT
 62
     2
100
AcDbText
 10
-16.11926103943555
 20
2.075366912832191
 30
0.0
 40
4.233333333333333
  1
SEME0101503E [ 4 FLUTE ]
 41
0.75
  7
SLDTEXTSTYLE0
 11
-16.11926103943555
 21
-0.0412997538344756
 31
0.0
100
AcDbAttributeDefinition
  3

  2
AUTOATTR0
 70
     0
 74
     1
  0
ENDBLK
  5
81
330
7F
100
AcDbEntity
  8
0
100
AcDbBlockEnd
  0
BLOCK
  5
DB
330
DA
100
AcDbEntity
  8
0
100
AcDbBlockBegin
  2
_D
 70
     0
 10
0.0
 20
0.0
 30
0.0
  3
_D
  1
_D
  0
SOLID
  5
DD
330
DA
100
AcDbEntity
  8
치수문자_일반주서
100
AcDbTrace
 10
21.93048919160262
 20
0.7500000000000014
 30
0.0
 11
22.43848919160262
 21
4.052000000000001
 31
0.0
 12
21.42248919160263
 22
4.052000000000001
 32
0.0
 13
21.42248919160263
 23
4.052000000000001
 33
0.0
  0
SOLID
  5
DE
330
DA
100
AcDbEntity
  8
치수문자_일반주서
100
AcDbTrace
 10
21.93048919160262
 20
-0.7500000000000031
 30
0.0
 11
21.42248919160263
 21
-4.052000000000003
 31
0.0
 12
22.43848919160262
 22
-4.052000000000003
 32
0.0
 13
22.43848919160262
 23
-4.052000000000003
 33
0.0
  0
LINE
  5
DF
330
DA
100
AcDbEntity
  8
치수문자_일반주서
100
AcDbLine
 10
8.752961435627316
 20
0.7500000000000022
 30
0.0
 11
22.93048919160262
 21
0.7500000000000013
 31
0.0
  0
LINE
  5
E0
330
DA
100
AcDbEntity
  8
치수문자_일반주서
100
AcDbLine
 10
8.752961435627316
 20
-0.7500000000000024
 30
0.0
 11
22.93048919160262
 21
-0.7500000000000032
 31
0.0
  0
LINE
  5
E1
330
DA
100
AcDbEntity
  8
치수문자_일반주서
100
AcDbLine
 10
21.93048919160262
 20
0.7500000000000014
 30
0.0
 11
21.93048919160262
 21
7.100000000000001
 31
0.0
  0
LINE
  5
E2
330
DA
100
AcDbEntity
  8
치수문자_일반주서
100
AcDbLine
 10
21.93048919160262
 20
0.7500000000000014
 30
0.0
 11
21.93048919160262
 21
-0.7500000000000031
 31
0.0
  0
LINE
  5
E3
330
DA
100
AcDbEntity
  8
치수문자_일반주서
100
AcDbLine
 10
21.93048919160262
 20
-0.7500000000000031
 30
0.0
 11
21.93048919160262
 21
-7.100000000000003
 31
0.0
  0
MTEXT
  5
E4
330
DA
100
AcDbEntity
  8
치수문자_일반주서
100
AcDbMText
 10
17.4187521024008
 20
-7.164913695305621
 30
0.0
 40
3.5
 41
0.0
 71
     1
 72
     1
  1
%%c
  7
SLDTEXTSTYLE0
 11
-7.044195017643634E-15
 21
1.0
 31
0.0
 73
     1
 44
1.0
  0
MTEXT
  5
E5
330
DA
100
AcDbEntity
  8
치수문자_일반주서
100
AcDbMText
 10
17.36527992574091
 20
-1.88647629693154
 30
0.0
 40
3.5
 41
0.0
 71
     1
 72
     1
  1
1.50
  7
SLDTEXTSTYLE0
 11
-7.044195017643634E-15
 21
1.0
 31
0.0
 73
     1
 44
1.0
  0
ENDBLK
  5
DC
330
DA
100
AcDbEntity
  8
0
100
AcDbBlockEnd
  0
BLOCK
  5
E9
330
E8
100
AcDbEntity
  8
0
100
AcDbBlockBegin
  2
_D_1
 70
     0
 10
0.0
 20
0.0
 30
0.0
  3
_D_1
  1
_D_1
  0
SOLID
  5
EB
330
E8
100
AcDbEntity
  8
치수문자_일반주서
100
AcDbTrace
 10
-53.57512886940358
 20
3.000000000000002
 30
0.0
 11
-53.06712886940358
 21
6.302000000000001
 31
0.0
 12
-54.08312886940358
 22
6.302000000000001
 32
0.0
 13
-54.08312886940358
 23
6.302000000000001
 33
0.0
  0
SOLID
  5
EC
330
E8
100
AcDbEntity
  8
치수문자_일반주서
100
AcDbTrace
 10
-53.57512886940358
 20
-3.000000000000004
 30
0.0
 11
-54.08312886940358
 21
-6.302000000000003
 31
0.0
 12
-53.06712886940358
 22
-6.302000000000003
 32
0.0
 13
-53.06712886940358
 23
-6.302000000000003
 33
0.0
  0
LINE
  5
ED
330
E8
100
AcDbEntity
  8
치수문자_일반주서
100
AcDbLine
 10
-41.17512886940358
 20
3.000000000000003
 30
0.0
 11
-54.57512886940358
 21
3.000000000000002
 31
0.0
  0
LINE
  5
EE
330
E8
100
AcDbEntity
  8
치수문자_일반주서
100
AcDbLine
 10
-41.17512886940358
 20
-3.000000000000003
 30
0.0
 11
-54.57512886940358
 21
-3.000000000000004
 31
0.0
  0
LINE
  5
EF
330
E8
100
AcDbEntity
  8
치수문자_일반주서
100
AcDbLine
 10
-53.57512886940358
 20
3.000000000000002
 30
0.0
 11
-53.57512886940358
 21
9.350000000000001
 31
0.0
  0
LINE
  5
F0
330
E8
100
AcDbEntity
  8
치수문자_일반주서
100
AcDbLine
 10
-53.57512886940358
 20
3.000000000000002
 30
0.0
 11
-53.57512886940358
 21
-3.000000000000004
 31
0.0
  0
LINE
  5
F1
330
E8
100
AcDbEntity
  8
치수문자_일반주서
100
AcDbLine
 10
-53.57512886940358
 20
-3.000000000000004
 30
0.0
 11
-53.57512886940358
 21
-9.350000000000005
 31
0.0
  0
MTEXT
  5
F2
330
E8
100
AcDbEntity
  8
치수문자_일반주서
100
AcDbMText
 10
-58.08686595860544
 20
-3.932274412363802
 30
0.0
 40
3.5
 41
0.0
 71
     1
 72
     1
  1
%%c
  7
SLDTEXTSTYLE0
 11
-7.044195017643634E-15
 21
1.0
 31
0.0
 73
     1
 44
1.0
  0
MTEXT
  5
F3
330
E8
100
AcDbEntity
  8
치수문자_일반주서
100
AcDbMText
 10
-58.14033813526532
 20
1.346162986010279
 30
0.0
 40
3.5
 41
0.0
 71
     1
 72
     1
  1
6
  7
SLDTEXTSTYLE0
 11
-7.044195017643634E-15
 21
1.0
 31
0.0
 73
     1
 44
1.0
  0
ENDBLK
  5
EA
330
E8
100
AcDbEntity
  8
0
100
AcDbBlockEnd
  0
BLOCK
  5
F6
330
F5
100
AcDbEntity
  8
0
100
AcDbBlockBegin
  2
_D_2
 70
     0
 10
0.0
 20
0.0
 30
0.0
  3
_D_2
  1
_D_2
  0
SOLID
  5
F8
330
F5
100
AcDbEntity
  8
치수문자_일반주서
100
AcDbTrace
 10
9.224871130596599
 20
17.90230341030036
 30
0.0
 11
12.52687113059659
 21
17.39430341030032
 31
0.0
 12
12.5268711305966
 22
18.41030341030032
 32
0.0
 13
12.5268711305966
 23
18.41030341030032
 33
0.0
  0
SOLID
  5
F9
330
F5
100
AcDbEntity
  8
치수문자_일반주서
100
AcDbTrace
 10
5.224871130596606
 20
17.90230341030039
 30
0.0
 11
1.922871130596611
 21
18.41030341030042
 31
0.0
 12
1.922871130596601
 22
17.39430341030042
 32
0.0
 13
1.922871130596601
 23
17.39430341030042
 33
0.0
  0
LINE
  5
FA
330
F5
100
AcDbEntity
  8
치수문자_일반주서
100
AcDbLine
 10
9.224871130596442
 20
1.449132956057492
 30
0.0
 11
9.224871130596608
 21
18.90230341030036
 31
0.0
  0
LINE
  5
FB
330
F5
100
AcDbEntity
  8
치수문자_일반주서
100
AcDbLine
 10
5.224871130596452
 20
1.749806122439681
 30
0.0
 11
5.224871130596615
 21
18.90230341030039
 31
0.0
  0
LINE
  5
FC
330
F5
100
AcDbEntity
  8
치수문자_일반주서
100
AcDbLine
 10
9.224871130596599
 20
17.90230341030036
 30
0.0
 11
15.5748711305966
 21
17.9023034103003
 31
0.0
  0
LINE
  5
FD
330
F5
100
AcDbEntity
  8
치수문자_일반주서
100
AcDbLine
 10
9.224871130596599
 20
17.90230341030036
 30
0.0
 11
5.224871130596606
 21
17.90230341030039
 31
0.0
  0
LINE
  5
FE
330
F5
100
AcDbEntity
  8
치수문자_일반주서
100
AcDbLine
 10
5.224871130596606
 20
17.90230341030039
 30
0.0
 11
-1.125128869403394
 21
17.90230341030044
 31
0.0
  0
MTEXT
  5
FF
330
F5
100
AcDbEntity
  8
치수문자_일반주서
100
AcDbMText
 10
5.931815533835174
 20
22.41404032487927
 30
0.0
 40
3.5
 41
0.0
 71
     1
 72
     1
  1
4
  7
SLDTEXTSTYLE0
 73
     1
 44
1.0
  0
ENDBLK
  5
F7
330
F5
100
AcDbEntity
  8
0
100
AcDbBlockEnd
  0
BLOCK
  5
103
330
102
100
AcDbEntity
  8
0
100
AcDbBlockBegin
  2
_D_3
 70
     0
 10
0.0
 20
0.0
 30
0.0
  3
_D_3
  1
_D_3
  0
SOLID
  5
105
330
102
100
AcDbEntity
  8
치수문자_일반주서
100
AcDbTrace
 10
9.22487113059643
 20
25.31866610066728
 30
0.0
 11
5.92287113059643
 21
25.82666610066728
 31
0.0
 12
5.92287113059643
 22
24.81066610066728
 32
0.0
 13
5.92287113059643
 23
24.81066610066728
 33
0.0
  0
SOLID
  5
106
330
102
100
AcDbEntity
  8
치수문자_일반주서
100
AcDbTrace
 10
-40.77512886940357
 20
25.31866610066728
 30
0.0
 11
-37.47312886940357
 21
24.81066610066728
 31
0.0
 12
-37.47312886940357
 22
25.82666610066728
 32
0.0
 13
-37.47312886940357
 23
25.82666610066728
 33
0.0
  0
LINE
  5
107
330
102
100
AcDbEntity
  8
치수문자_일반주서
100
AcDbLine
 10
9.224871130596432
 20
1.449132956057492
 30
0.0
 11
9.22487113059643
 21
26.31866610066728
 31
0.0
  0
LINE
  5
108
330
102
100
AcDbEntity
  8
치수문자_일반주서
100
AcDbLine
 10
-40.77512886940357
 20
3.400000000000002
 30
0.0
 11
-40.77512886940357
 21
26.31866610066728
 31
0.0
  0
LINE
  5
109
330
102
100
AcDbEntity
  8
치수문자_일반주서
100
AcDbLine
 10
9.22487113059643
 20
25.31866610066728
 30
0.0
 11
-40.77512886940357
 21
25.31866610066728
 31
0.0
  0
MTEXT
  5
10A
330
102
100
AcDbEntity
  8
치수문자_일반주서
100
AcDbMText
 10
-18.36124006292639
 20
29.83040301524618
 30
0.0
 40
3.5
 41
0.0
 71
     1
 72
     1
  1
50
  7
SLDTEXTSTYLE0
 73
     1
 44
1.0
  0
ENDBLK
  5
104
330
102
100
AcDbEntity
  8
0
100
AcDbBlockEnd
  0
BLOCK
  5
113
330
112
100
AcDbEntity
  8
0
100
AcDbBlockBegin
  2
SW_DOWELSYMBOL_0
 70
     0
 10
0.0
 20
0.0
 30
0.0
  3
SW_DOWELSYMBOL_0
  1
SW_DOWELSYMBOL_0
  0
CIRCLE
  5
115
330
112
100
AcDbEntity
  8
해칭선
 62
     0
100
AcDbCircle
 10
0.0
 20
0.0
 30
0.0
 40
3.000000000000001
  0
HATCH
  5
116
330
112
100
AcDbEntity
  8
0
  6
Continuous
 62
     0
370
     0
100
AcDbHatch
 10
0.0
 20
0.0
 30
0.0
210
0.0
220
0.0
230
1.0
  2
SOLID
 70
     1
 71
     0
 91
        1
 92
        0
 93
        3
 72
     2
 10
0.0
 20
0.0
 40
3.000000000000001
 50
0.0
 51
90.0
 73
     1
 72
     1
 10
0.0
 20
3.000000000000001
 11
0.0
 21
0.0
 72
     1
 10
0.0
 20
0.0
 11
3.000000000000001
 21
0.0
 97
        0
 75
     0
 76
     1
 98
        1
 10
0.0
 20
0.0
  0
HATCH
  5
117
330
112
100
AcDbEntity
  8
0
  6
Continuous
 62
     0
370
     0
100
AcDbHatch
 10
0.0
 20
0.0
 30
0.0
210
0.0
220
0.0
230
1.0
  2
SOLID
 70
     1
 71
     0
 91
        1
 92
        0
 93
        3
 72
     2
 10
0.0
 20
0.0
 40
3.000000000000001
 50
180.0
 51
270.0000000000008
 73
     1
 72
     1
 10
0.0
 20
-3.000000000000001
 11
0.0
 21
0.0
 72
     1
 10
0.0
 20
0.0
 11
-3.000000000000001
 21
0.0
 97
        0
 75
     0
 76
     1
 98
        1
 10
0.0
 20
0.0
  0
ENDBLK
  5
114
330
112
100
AcDbEntity
  8
0
100
AcDbBlockEnd
  0
BLOCK
  5
1E3
330
1E2
100
AcDbEntity
  8
0
100
AcDbBlockBegin
  2
*D8
 70
     1
 10
0.0
 20
0.0
 30
0.0
  3
*D8
  1
*D8
  0
LINE
  5
1E4
330
1E2
100
AcDbEntity
  8
치수문자_일반주서
 62
     0
370
    -2
100
AcDbLine
 10
62.66525589438635
 20
12.62731778966925
 30
0.0
 11
71.0233051941904
 21
-0.0000000000000417
 31
0.0
  0
MTEXT
  5
1E5
330
1E2
100
AcDbEntity
  8
치수문자_일반주서
 62
     0
100
AcDbMText
 10
70.84623747550101
 20
4.117523355792629
 30
0.0
 40
2.5
 41
0.0
 71
     5
 72
     1
  1
\A1;R0.2
  7
SLDTEXTSTYLE0
 11
0.5519466275504891
 21
-0.8338794399286036
 31
0.0
 73
     1
 44
1.0
  0
LINE
  5
1E6
330
1E2
100
AcDbEntity
  8
치수문자_일반주서
 62
     0
370
    -2
100
AcDbLine
 10
61.17500000000003
 20
14.87879227747648
 30
0.0
 11
61.28538932551012
 21
14.71201638949075
 31
0.0
  0
SOLID
  5
1E7
330
1E2
100
AcDbEntity
  8
치수문자_일반주서
 62
     0
100
AcDbTrace
 10
63.01270566102327
 20
12.85729555114862
 30
0.0
 11
62.31780612774943
 21
12.39734002818988
 31
0.0
 12
61.28538932551012
 22
14.71201638949075
 32
0.0
 13
61.28538932551012
 23
14.71201638949075
 33
0.0
  0
POINT
  5
1E8
330
1E2
100
AcDbEntity
  8
Defpoints
 62
     0
100
AcDbPoint
 10
61.28538932551012
 20
14.71201638949075
 30
0.0
  0
POINT
  5
1E9
330
1E2
100
AcDbEntity
  8
Defpoints
 62
     0
100
AcDbPoint
 10
61.17500000000003
 20
14.87879227747648
 30
0.0
  0
ENDBLK
  5
1EA
330
1E2
100
AcDbEntity
  8
0
100
AcDbBlockEnd
  0
BLOCK
  5
1EE
330
1ED
100
AcDbEntity
  8
0
100
AcDbBlockBegin
  2
*D9
 70
     1
 10
0.0
 20
0.0
 30
0.0
  3
*D9
  1
*D9
  0
LINE
  5
1F0
330
1ED
100
AcDbEntity
  8
치수문자_일반주서
 62
     0
370
    -2
100
AcDbLine
 10
61.43750000000003
 20
16.17879227747648
 30
0.0
 11
69.37499999999999
 21
16.1787922774765
 31
0.0
  0
LINE
  5
1F1
330
1ED
100
AcDbEntity
  8
치수문자_일반주서
 62
     0
370
    -2
100
AcDbLine
 10
61.43750000000003
 20
14.67879227747648
 30
0.0
 11
69.37499999999999
 21
14.67879227747651
 31
0.0
  0
LINE
  5
1F2
330
1ED
100
AcDbEntity
  8
치수문자_일반주서
 62
     0
370
    -2
100
AcDbLine
 10
69.37499999999999
 20
16.1787922774765
 30
0.0
 11
69.37499999999999
 21
27.92879227747651
 31
0.0
  0
LINE
  5
1F3
330
1ED
100
AcDbEntity
  8
치수문자_일반주서
 62
     0
370
    -2
100
AcDbLine
 10
69.37499999999999
 20
16.1787922774765
 30
0.0
 11
69.37499999999999
 21
14.67879227747651
 31
0.0
  0
LINE
  5
1F4
330
1ED
100
AcDbEntity
  8
치수문자_일반주서
 62
     0
370
    -2
100
AcDbLine
 10
69.37499999999999
 20
18.6787922774765
 30
0.0
 11
69.37499999999999
 21
21.1787922774765
 31
0.0
  0
LINE
  5
1F5
330
1ED
100
AcDbEntity
  8
치수문자_일반주서
 62
     0
370
    -2
100
AcDbLine
 10
69.37499999999999
 20
12.17879227747651
 30
0.0
 11
69.37499999999999
 21
9.678792277476505
 31
0.0
  0
SOLID
  5
1F6
330
1ED
100
AcDbEntity
  8
치수문자_일반주서
 62
     0
100
AcDbTrace
 10
68.95833333333331
 20
18.6787922774765
 30
0.0
 11
69.79166666666666
 21
18.6787922774765
 31
0.0
 12
69.37499999999999
 22
16.1787922774765
 32
0.0
 13
69.37499999999999
 23
16.1787922774765
 33
0.0
  0
SOLID
  5
1F7
330
1ED
100
AcDbEntity
  8
치수문자_일반주서
 62
     0
100
AcDbTrace
 10
69.79166666666666
 20
12.17879227747651
 30
0.0
 11
68.95833333333331
 21
12.17879227747651
 31
0.0
 12
69.37499999999999
 22
14.67879227747651
 32
0.0
 13
69.37499999999999
 23
14.67879227747651
 33
0.0
  0
MTEXT
  5
1F8
330
1ED
100
AcDbEntity
  8
치수문자_일반주서
 62
     0
100
AcDbMText
 10
65.99999999999999
 20
24.55379227747651
 30
0.0
 40
2.5
 41
0.0
 71
     2
 72
     1
  1
\A1;%%c1.5
  7
SLDTEXTSTYLE0
 11
0.0
 21
1.0
 31
0.0
 73
     1
 44
1.0
  0
POINT
  5
1F9
330
1ED
100
AcDbEntity
  8
Defpoints
 62
     0
100
AcDbPoint
 10
61.37500000000003
 20
16.17879227747648
 30
0.0
  0
POINT
  5
1FA
330
1ED
100
AcDbEntity
  8
Defpoints
 62
     0
100
AcDbPoint
 10
61.37500000000003
 20
14.67879227747648
 30
0.0
  0
POINT
  5
1FB
330
1ED
100
AcDbEntity
  8
Defpoints
 62
     0
100
AcDbPoint
 10
69.37500000000001
 20
14.67879227747651
 30
0.0
  0
ENDBLK
  5
1EF
330
1ED
100
AcDbEntity
  8
0
100
AcDbBlockEnd
  0
BLOCK
  5
1FD
330
1FC
100
AcDbEntity
  8
0
100
AcDbBlockBegin
  2
*D10
 70
     1
 10
0.0
 20
0.0
 30
0.0
  3
*D10
  1
*D10
  0
LINE
  5
1FF
330
1FC
100
AcDbEntity
  8
치수문자_일반주서
 62
     0
370
    -2
100
AcDbLine
 10
11.91250000000002
 20
18.42879227747648
 30
0.0
 11
3.375000000000033
 21
18.42879227747645
 31
0.0
  0
LINE
  5
200
330
1FC
100
AcDbEntity
  8
치수문자_일반주서
 62
     0
370
    -2
100
AcDbLine
 10
11.91250000000002
 20
12.42879227747648
 30
0.0
 11
3.375000000000054
 21
12.42879227747645
 31
0.0
  0
LINE
  5
201
330
1FC
100
AcDbEntity
  8
치수문자_일반주서
 62
     0
370
    -2
100
AcDbLine
 10
3.375000000000033
 20
18.42879227747645
 30
0.0
 11
3.374999999999999
 21
28.30379227747646
 31
0.0
  0
LINE
  5
202
330
1FC
100
AcDbEntity
  8
치수문자_일반주서
 62
     0
370
    -2
100
AcDbLine
 10
3.375000000000033
 20
18.42879227747645
 30
0.0
 11
3.375000000000054
 21
12.42879227747645
 31
0.0
  0
LINE
  5
203
330
1FC
100
AcDbEntity
  8
치수문자_일반주서
 62
     0
370
    -2
100
AcDbLine
 10
3.375000000000024
 20
20.92879227747645
 30
0.0
 11
3.375000000000015
 21
23.42879227747645
 31
0.0
  0
LINE
  5
204
330
1FC
100
AcDbEntity
  8
치수문자_일반주서
 62
     0
370
    -2
100
AcDbLine
 10
3.375000000000063
 20
9.928792277476447
 30
0.0
 11
3.375000000000071
 21
7.428792277476447
 31
0.0
  0
SOLID
  5
205
330
1FC
100
AcDbEntity
  8
치수문자_일반주서
 62
     0
100
AcDbTrace
 10
2.958333333333357
 20
20.92879227747645
 30
0.0
 11
3.79166666666669
 21
20.92879227747645
 31
0.0
 12
3.375000000000033
 22
18.42879227747645
 32
0.0
 13
3.375000000000033
 23
18.42879227747645
 33
0.0
  0
SOLID
  5
206
330
1FC
100
AcDbEntity
  8
치수문자_일반주서
 62
     0
100
AcDbTrace
 10
3.791666666666729
 20
9.928792277476449
 30
0.0
 11
2.958333333333396
 21
9.928792277476445
 31
0.0
 12
3.375000000000054
 22
12.42879227747645
 32
0.0
 13
3.375000000000054
 23
12.42879227747645
 33
0.0
  0
MTEXT
  5
207
330
1FC
100
AcDbEntity
  8
치수문자_일반주서
 62
     0
100
AcDbMText
 10
0.0000000000000071
 20
25.86629227747645
 30
0.0
 40
2.5
 41
0.0
 71
     2
 72
     1
  1
\A1;%%c6
  7
SLDTEXTSTYLE0
 11
-3.478698810492155E-15
 21
1.0
 31
0.0
 73
     1
 44
1.0
  0
POINT
  5
208
330
1FC
100
AcDbEntity
  8
Defpoints
 62
     0
100
AcDbPoint
 10
11.97500000000002
 20
18.42879227747648
 30
0.0
  0
POINT
  5
209
330
1FC
100
AcDbEntity
  8
Defpoints
 62
     0
100
AcDbPoint
 10
11.97500000000002
 20
12.42879227747648
 30
0.0
  0
POINT
  5
20A
330
1FC
100
AcDbEntity
  8
Defpoints
 62
     0
100
AcDbPoint
 10
3.375000000000057
 20
12.42879227747645
 30
0.0
  0
ENDBLK
  5
1FE
330
1FC
100
AcDbEntity
  8
0
100
AcDbBlockEnd
  0
BLOCK
  5
20C
330
20B
100
AcDbEntity
  8
0
100
AcDbBlockBegin
  2
*D11
 70
     1
 10
0.0
 20
0.0
 30
0.0
  3
*D11
  1
*D11
  0
LINE
  5
20E
330
20B
100
AcDbEntity
  8
치수문자_일반주서
 62
     0
370
    -2
100
AcDbLine
 10
61.37500000000003
 20
16.24129227747648
 30
0.0
 11
61.37500000000003
 21
26.42879227747649
 31
0.0
  0
LINE
  5
20F
330
20B
100
AcDbEntity
  8
치수문자_일반주서
 62
     0
370
    -2
100
AcDbLine
 10
57.37500000000004
 20
16.24109839991616
 30
0.0
 11
57.37500000000004
 21
26.42879227747649
 31
0.0
  0
LINE
  5
210
330
20B
100
AcDbEntity
  8
치수문자_일반주서
 62
     0
370
    -2
100
AcDbLine
 10
61.37500000000003
 20
26.42879227747649
 30
0.0
 11
57.37500000000004
 21
26.42879227747649
 31
0.0
  0
LINE
  5
211
330
20B
100
AcDbEntity
  8
치수문자_일반주서
 62
     0
370
    -2
100
AcDbLine
 10
63.87500000000003
 20
26.42879227747649
 30
0.0
 11
66.37500000000003
 21
26.42879227747649
 31
0.0
  0
LINE
  5
212
330
20B
100
AcDbEntity
  8
치수문자_일반주서
 62
     0
370
    -2
100
AcDbLine
 10
54.87500000000004
 20
26.42879227747649
 30
0.0
 11
52.37500000000004
 21
26.42879227747649
 31
0.0
  0
SOLID
  5
213
330
20B
100
AcDbEntity
  8
치수문자_일반주서
 62
     0
100
AcDbTrace
 10
63.87500000000003
 20
26.84545894414316
 30
0.0
 11
63.87500000000003
 21
26.01212561080982
 31
0.0
 12
61.37500000000003
 22
26.42879227747649
 32
0.0
 13
61.37500000000003
 23
26.42879227747649
 33
0.0
  0
SOLID
  5
214
330
20B
100
AcDbEntity
  8
치수문자_일반주서
 62
     0
100
AcDbTrace
 10
54.87500000000004
 20
26.01212561080982
 30
0.0
 11
54.87500000000004
 21
26.84545894414316
 31
0.0
 12
57.37500000000004
 22
26.42879227747649
 32
0.0
 13
57.37500000000004
 23
26.42879227747649
 33
0.0
  0
MTEXT
  5
215
330
20B
100
AcDbEntity
  8
치수문자_일반주서
 62
     0
100
AcDbMText
 10
59.37500000000011
 20
29.80379227747649
 30
0.0
 40
2.5
 41
0.0
 71
     2
 72
     1
  1
\A1;4
  7
SLDTEXTSTYLE0
 73
     1
 44
1.0
  0
POINT
  5
216
330
20B
100
AcDbEntity
  8
Defpoints
 62
     0
100
AcDbPoint
 10
61.37500000000003
 20
16.17879227747648
 30
0.0
  0
POINT
  5
217
330
20B
100
AcDbEntity
  8
Defpoints
 62
     0
100
AcDbPoint
 10
57.37500000000004
 20
16.17859839991616
 30
0.0
  0
POINT
  5
218
330
20B
100
AcDbEntity
  8
Defpoints
 62
     0
100
AcDbPoint
 10
57.37500000000004
 20
26.42879227747649
 30
0.0
  0
ENDBLK
  5
20D
330
20B
100
AcDbEntity
  8
0
100
AcDbBlockEnd
  0
BLOCK
  5
21A
330
219
100
AcDbEntity
  8
0
100
AcDbBlockBegin
  2
*D12
 70
     1
 10
0.0
 20
0.0
 30
0.0
  3
*D12
  1
*D12
  0
LINE
  5
21C
330
219
100
AcDbEntity
  8
치수문자_일반주서
 62
     0
370
    -2
100
AcDbLine
 10
61.37500000000003
 20
16.24129227747648
 30
0.0
 11
61.37500000000003
 21
34.42879227747649
 31
0.0
  0
LINE
  5
21D
330
219
100
AcDbEntity
  8
치수문자_일반주서
 62
     0
370
    -2
100
AcDbLine
 10
11.37500000000002
 20
17.89129227747648
 30
0.0
 11
11.37500000000002
 21
34.42879227747649
 31
0.0
  0
LINE
  5
21E
330
219
100
AcDbEntity
  8
치수문자_일반주서
 62
     0
370
    -2
100
AcDbLine
 10
58.87500000000003
 20
34.42879227747649
 30
0.0
 11
13.87500000000002
 21
34.42879227747649
 31
0.0
  0
SOLID
  5
21F
330
219
100
AcDbEntity
  8
치수문자_일반주서
 62
     0
100
AcDbTrace
 10
58.87500000000003
 20
34.01212561080983
 30
0.0
 11
58.87500000000003
 21
34.84545894414315
 31
0.0
 12
61.37500000000003
 22
34.42879227747649
 32
0.0
 13
61.37500000000003
 23
34.42879227747649
 33
0.0
  0
SOLID
  5
220
330
219
100
AcDbEntity
  8
치수문자_일반주서
 62
     0
100
AcDbTrace
 10
13.87500000000002
 20
34.84545894414315
 30
0.0
 11
13.87500000000002
 21
34.01212561080983
 31
0.0
 12
11.37500000000002
 22
34.42879227747649
 32
0.0
 13
11.37500000000002
 23
34.42879227747649
 33
0.0
  0
MTEXT
  5
221
330
219
100
AcDbEntity
  8
치수문자_일반주서
 62
     0
100
AcDbMText
 10
36.37500000000003
 20
37.80379227747649
 30
0.0
 40
2.5
 41
0.0
 71
     2
 72
     1
  1
\A1;50
  7
SLDTEXTSTYLE0
 73
     1
 44
1.0
  0
POINT
  5
222
330
219
100
AcDbEntity
  8
Defpoints
 62
     0
100
AcDbPoint
 10
61.37500000000003
 20
16.17879227747648
 30
0.0
  0
POINT
  5
223
330
219
100
AcDbEntity
  8
Defpoints
 62
     0
100
AcDbPoint
 10
11.37500000000002
 20
17.82879227747648
 30
0.0
  0
POINT
  5
224
330
219
100
AcDbEntity
  8
Defpoints
 62
     0
100
AcDbPoint
 10
11.37500000000002
 20
34.42879227747649
 30
0.0
  0
ENDBLK
  5
21B
330
219
100
AcDbEntity
  8
0
100
AcDbBlockEnd
  0
BLOCK
  5
262
330
261
100
AcDbEntity
  8
0
100
AcDbBlockBegin
  2
*D13
 70
     1
 10
0.0
 20
0.0
 30
0.0
  3
*D13
  1
*D13
  0
LINE
  5
264
330
261
100
AcDbEntity
  8
치수문자_일반주서
 62
     0
370
    -2
100
AcDbLine
 10
15.45961431702997
 20
0.7510749287238883
 30
0.0
 11
23.39711431702995
 21
0.7510749287239182
 31
0.0
  0
LINE
  5
265
330
261
100
AcDbEntity
  8
치수문자_일반주서
 62
     0
370
    -2
100
AcDbLine
 10
15.45961431702997
 20
-0.74892507127611
 30
0.0
 11
23.39711431702996
 21
-0.74892507127608
 31
0.0
  0
LINE
  5
266
330
261
100
AcDbEntity
  8
치수문자_일반주서
 62
     0
370
    -2
100
AcDbLine
 10
23.39711431702995
 20
0.7510749287239182
 30
0.0
 11
23.39711431702992
 21
12.50107492872392
 31
0.0
  0
LINE
  5
267
330
261
100
AcDbEntity
  8
치수문자_일반주서
 62
     0
370
    -2
100
AcDbLine
 10
23.39711431702995
 20
0.7510749287239182
 30
0.0
 11
23.39711431702996
 21
-0.74892507127608
 31
0.0
  0
LINE
  5
268
330
261
100
AcDbEntity
  8
치수문자_일반주서
 62
     0
370
    -2
100
AcDbLine
 10
23.39711431702995
 20
3.251074928723918
 30
0.0
 11
23.39711431702994
 21
5.751074928723918
 31
0.0
  0
LINE
  5
269
330
261
100
AcDbEntity
  8
치수문자_일반주서
 62
     0
370
    -2
100
AcDbLine
 10
23.39711431702996
 20
-3.24892507127608
 30
0.0
 11
23.39711431702997
 21
-5.74892507127608
 31
0.0
  0
SOLID
  5
26A
330
261
100
AcDbEntity
  8
치수문자_일반주서
 62
     0
100
AcDbTrace
 10
22.98044765036328
 20
3.251074928723917
 30
0.0
 11
23.81378098369661
 21
3.251074928723919
 31
0.0
 12
23.39711431702995
 22
0.7510749287239182
 32
0.0
 13
23.39711431702995
 23
0.7510749287239182
 33
0.0
  0
SOLID
  5
26B
330
261
100
AcDbEntity
  8
치수문자_일반주서
 62
     0
100
AcDbTrace
 10
23.81378098369663
 20
-3.248925071276079
 30
0.0
 11
22.9804476503633
 21
-3.248925071276081
 31
0.0
 12
23.39711431702996
 22
-0.74892507127608
 32
0.0
 13
23.39711431702996
 23
-0.74892507127608
 33
0.0
  0
MTEXT
  5
26C
330
261
100
AcDbEntity
  8
치수문자_일반주서
 62
     0
100
AcDbMText
 10
20.02211431702993
 20
9.126074928723915
 30
0.0
 40
2.5
 41
0.0
 71
     2
 72
     1
  1
\A1;%%c1.5
  7
SLDTEXTSTYLE0
 11
-2.368475785867003E-15
 21
1.0
 31
0.0
 73
     1
 44
1.0
  0
POINT
  5
26D
330
261
100
AcDbEntity
  8
Defpoints
 62
     0
100
AcDbPoint
 10
15.39711431702997
 20
0.751074928723888
 30
0.0
  0
POINT
  5
26E
330
261
100
AcDbEntity
  8
Defpoints
 62
     0
100
AcDbPoint
 10
15.39711431702997
 20
-0.7489250712761102
 30
0.0
  0
POINT
  5
26F
330
261
100
AcDbEntity
  8
Defpoints
 62
     0
100
AcDbPoint
 10
23.39711431702993
 20
-0.7489250712760803
 30
0.0
  0
ENDBLK
  5
263
330
261
100
AcDbEntity
  8
0
100
AcDbBlockEnd
  0
BLOCK
  5
271
330
270
100
AcDbEntity
  8
0
100
AcDbBlockBegin
  2
*D14
 70
     1
 10
0.0
 20
0.0
 30
0.0
  3
*D14
  1
*D14
  0
LINE
  5
273
330
270
100
AcDbEntity
  8
치수문자_일반주서
 62
     0
370
    -2
100
AcDbLine
 10
-34.06538568297003
 20
3.001074928723895
 30
0.0
 11
-42.60288568297002
 21
3.001074928723863
 31
0.0
  0
LINE
  5
274
330
270
100
AcDbEntity
  8
치수문자_일반주서
 62
     0
370
    -2
100
AcDbLine
 10
-34.06538568297003
 20
-2.998925071276109
 30
0.0
 11
-42.60288568297
 21
-2.99892507127614
 31
0.0
  0
LINE
  5
275
330
270
100
AcDbEntity
  8
치수문자_일반주서
 62
     0
370
    -2
100
AcDbLine
 10
-42.60288568297002
 20
3.001074928723863
 30
0.0
 11
-42.60288568297005
 21
12.87607492872387
 31
0.0
  0
LINE
  5
276
330
270
100
AcDbEntity
  8
치수문자_일반주서
 62
     0
370
    -2
100
AcDbLine
 10
-42.60288568297002
 20
3.001074928723863
 30
0.0
 11
-42.60288568297
 21
-2.99892507127614
 31
0.0
  0
LINE
  5
277
330
270
100
AcDbEntity
  8
치수문자_일반주서
 62
     0
370
    -2
100
AcDbLine
 10
-42.60288568297003
 20
5.501074928723863
 30
0.0
 11
-42.60288568297003
 21
8.001074928723863
 31
0.0
  0
LINE
  5
278
330
270
100
AcDbEntity
  8
치수문자_일반주서
 62
     0
370
    -2
100
AcDbLine
 10
-42.60288568296999
 20
-5.49892507127614
 30
0.0
 11
-42.60288568296998
 21
-7.99892507127614
 31
0.0
  0
SOLID
  5
279
330
270
100
AcDbEntity
  8
치수문자_일반주서
 62
     0
100
AcDbTrace
 10
-43.01955234963669
 20
5.501074928723861
 30
0.0
 11
-42.18621901630336
 21
5.501074928723865
 31
0.0
 12
-42.60288568297002
 22
3.001074928723863
 32
0.0
 13
-42.60288568297002
 23
3.001074928723863
 33
0.0
  0
SOLID
  5
27A
330
270
100
AcDbEntity
  8
치수문자_일반주서
 62
     0
100
AcDbTrace
 10
-42.18621901630333
 20
-5.498925071276139
 30
0.0
 11
-43.01955234963665
 21
-5.498925071276142
 31
0.0
 12
-42.60288568297
 22
-2.99892507127614
 32
0.0
 13
-42.60288568297
 23
-2.99892507127614
 33
0.0
  0
MTEXT
  5
27B
330
270
100
AcDbEntity
  8
치수문자_일반주서
 62
     0
100
AcDbMText
 10
-45.97788568297005
 20
10.43857492872386
 30
0.0
 40
2.5
 41
0.0
 71
     2
 72
     1
  1
\A1;%%c6
  7
SLDTEXTSTYLE0
 11
-3.552713678800499E-15
 21
1.0
 31
0.0
 73
     1
 44
1.0
  0
POINT
  5
27C
330
270
100
AcDbEntity
  8
Defpoints
 62
     0
100
AcDbPoint
 10
-34.00288568297003
 20
3.001074928723895
 30
0.0
  0
POINT
  5
27D
330
270
100
AcDbEntity
  8
Defpoints
 62
     0
100
AcDbPoint
 10
-34.00288568297003
 20
-2.998925071276108
 30
0.0
  0
POINT
  5
27E
330
270
100
AcDbEntity
  8
Defpoints
 62
     0
100
AcDbPoint
 10
-42.60288568297
 20
-2.99892507127614
 30
0.0
  0
ENDBLK
  5
272
330
270
100
AcDbEntity
  8
0
100
AcDbBlockEnd
  0
BLOCK
  5
280
330
27F
100
AcDbEntity
  8
0
100
AcDbBlockBegin
  2
*D15
 70
     1
 10
0.0
 20
0.0
 30
0.0
  3
*D15
  1
*D15
  0
LINE
  5
282
330
27F
100
AcDbEntity
  8
치수문자_일반주서
 62
     0
370
    -2
100
AcDbLine
 10
15.39711431702997
 20
0.813574928723888
 30
0.0
 11
15.39711431702997
 21
11.0010749287239
 31
0.0
  0
LINE
  5
283
330
27F
100
AcDbEntity
  8
치수문자_일반주서
 62
     0
370
    -2
100
AcDbLine
 10
11.39711431702999
 20
0.8133810511635744
 30
0.0
 11
11.39711431702999
 21
11.0010749287239
 31
0.0
  0
LINE
  5
284
330
27F
100
AcDbEntity
  8
치수문자_일반주서
 62
     0
370
    -2
100
AcDbLine
 10
15.39711431702997
 20
11.0010749287239
 30
0.0
 11
11.39711431702999
 21
11.0010749287239
 31
0.0
  0
LINE
  5
285
330
27F
100
AcDbEntity
  8
치수문자_일반주서
 62
     0
370
    -2
100
AcDbLine
 10
17.89711431702997
 20
11.0010749287239
 30
0.0
 11
20.39711431702997
 21
11.0010749287239
 31
0.0
  0
LINE
  5
286
330
27F
100
AcDbEntity
  8
치수문자_일반주서
 62
     0
370
    -2
100
AcDbLine
 10
8.897114317029988
 20
11.0010749287239
 30
0.0
 11
6.397114317029988
 21
11.0010749287239
 31
0.0
  0
SOLID
  5
287
330
27F
100
AcDbEntity
  8
치수문자_일반주서
 62
     0
100
AcDbTrace
 10
17.89711431702997
 20
11.41774159539057
 30
0.0
 11
17.89711431702997
 21
10.58440826205724
 31
0.0
 12
15.39711431702997
 22
11.0010749287239
 32
0.0
 13
15.39711431702997
 23
11.0010749287239
 33
0.0
  0
SOLID
  5
288
330
27F
100
AcDbEntity
  8
치수문자_일반주서
 62
     0
100
AcDbTrace
 10
8.897114317029988
 20
10.58440826205724
 30
0.0
 11
8.897114317029988
 21
11.41774159539057
 31
0.0
 12
11.39711431702999
 22
11.0010749287239
 32
0.0
 13
11.39711431702999
 23
11.0010749287239
 33
0.0
  0
MTEXT
  5
289
330
27F
100
AcDbEntity
  8
치수문자_일반주서
 62
     0
100
AcDbMText
 10
13.39711431703006
 20
14.3760749287239
 30
0.0
 40
2.5
 41
0.0
 71
     2
 72
     1
  1
\A1;4
  7
SLDTEXTSTYLE0
 73
     1
 44
1.0
  0
POINT
  5
28A
330
27F
100
AcDbEntity
  8
Defpoints
 62
     0
100
AcDbPoint
 10
15.39711431702997
 20
0.751074928723888
 30
0.0
  0
POINT
  5
28B
330
27F
100
AcDbEntity
  8
Defpoints
 62
     0
100
AcDbPoint
 10
11.39711431702999
 20
0.7508810511635744
 30
0.0
  0
POINT
  5
28C
330
27F
100
AcDbEntity
  8
Defpoints
 62
     0
100
AcDbPoint
 10
11.39711431702999
 20
11.0010749287239
 30
0.0
  0
ENDBLK
  5
281
330
27F
100
AcDbEntity
  8
0
100
AcDbBlockEnd
  0
BLOCK
  5
28E
330
28D
100
AcDbEntity
  8
0
100
AcDbBlockBegin
  2
*D16
 70
     1
 10
0.0
 20
0.0
 30
0.0
  3
*D16
  1
*D16
  0
LINE
  5
290
330
28D
100
AcDbEntity
  8
치수문자_일반주서
 62
     0
370
    -2
100
AcDbLine
 10
15.39711431702997
 20
0.813574928723888
 30
0.0
 11
15.39711431702997
 21
19.0010749287239
 31
0.0
  0
LINE
  5
291
330
28D
100
AcDbEntity
  8
치수문자_일반주서
 62
     0
370
    -2
100
AcDbLine
 10
-34.60288568297003
 20
2.463574928723894
 30
0.0
 11
-34.60288568297003
 21
19.0010749287239
 31
0.0
  0
LINE
  5
292
330
28D
100
AcDbEntity
  8
치수문자_일반주서
 62
     0
370
    -2
100
AcDbLine
 10
12.89711431702997
 20
19.0010749287239
 30
0.0
 11
-32.10288568297003
 21
19.0010749287239
 31
0.0
  0
SOLID
  5
293
330
28D
100
AcDbEntity
  8
치수문자_일반주서
 62
     0
100
AcDbTrace
 10
12.89711431702997
 20
18.58440826205723
 30
0.0
 11
12.89711431702997
 21
19.41774159539057
 31
0.0
 12
15.39711431702997
 22
19.0010749287239
 32
0.0
 13
15.39711431702997
 23
19.0010749287239
 33
0.0
  0
SOLID
  5
294
330
28D
100
AcDbEntity
  8
치수문자_일반주서
 62
     0
100
AcDbTrace
 10
-32.10288568297003
 20
19.41774159539057
 30
0.0
 11
-32.10288568297003
 21
18.58440826205723
 31
0.0
 12
-34.60288568297003
 22
19.0010749287239
 32
0.0
 13
-34.60288568297003
 23
19.0010749287239
 33
0.0
  0
MTEXT
  5
295
330
28D
100
AcDbEntity
  8
치수문자_일반주서
 62
     0
100
AcDbMText
 10
-9.602885682970026
 20
22.3760749287239
 30
0.0
 40
2.5
 41
0.0
 71
     2
 72
     1
  1
\A1;50
  7
SLDTEXTSTYLE0
 73
     1
 44
1.0
  0
POINT
  5
296
330
28D
100
AcDbEntity
  8
Defpoints
 62
     0
100
AcDbPoint
 10
15.39711431702997
 20
0.751074928723888
 30
0.0
  0
POINT
  5
297
330
28D
100
AcDbEntity
  8
Defpoints
 62
     0
100
AcDbPoint
 10
-34.60288568297003
 20
2.401074928723894
 30
0.0
  0
POINT
  5
298
330
28D
100
AcDbEntity
  8
Defpoints
 62
     0
100
AcDbPoint
 10
-34.60288568297003
 20
19.0010749287239
 30
0.0
  0
ENDBLK
  5
28F
330
28D
100
AcDbEntity
  8
0
100
AcDbBlockEnd
  0
BLOCK
  5
29A
330
299
100
AcDbEntity
  8
0
100
AcDbBlockBegin
  2
*D17
 70
     1
 10
0.0
 20
0.0
 30
0.0
  3
*D17
  1
*D17
  0
LINE
  5
29C
330
299
100
AcDbEntity
  8
치수문자_일반주서
 62
     0
370
    -2
100
AcDbLine
 10
16.68737021141629
 20
-2.800399559083341
 30
0.0
 11
25.04541951122035
 21
-15.42771734875263
 31
0.0
  0
MTEXT
  5
29D
330
299
100
AcDbEntity
  8
치수문자_일반주서
 62
     0
100
AcDbMText
 10
24.86835179253096
 20
-11.31019399295996
 30
0.0
 40
2.5
 41
0.0
 71
     5
 72
     1
  1
\A1;R0.2
  7
SLDTEXTSTYLE0
 11
0.5519466275504891
 21
-0.8338794399286036
 31
0.0
 73
     1
 44
1.0
  0
LINE
  5
29E
330
299
100
AcDbEntity
  8
치수문자_일반주서
 62
     0
370
    -2
100
AcDbLine
 10
15.19711431702997
 20
-0.5489250712761109
 30
0.0
 11
15.30750364254007
 21
-0.7157009592618326
 31
0.0
  0
SOLID
  5
29F
330
299
100
AcDbEntity
  8
치수문자_일반주서
 62
     0
100
AcDbTrace
 10
17.03481997805321
 20
-2.570421797603971
 30
0.0
 11
16.33992044477938
 21
-3.030377320562712
 31
0.0
 12
15.30750364254007
 22
-0.7157009592618326
 32
0.0
 13
15.30750364254007
 23
-0.7157009592618326
 33
0.0
  0
POINT
  5
2A0
330
299
100
AcDbEntity
  8
Defpoints
 62
     0
100
AcDbPoint
 10
15.30750364254007
 20
-0.7157009592618326
 30
0.0
  0
POINT
  5
2A1
330
299
100
AcDbEntity
  8
Defpoints
 62
     0
100
AcDbPoint
 10
15.19711431702997
 20
-0.5489250712761109
 30
0.0
  0
ENDBLK
  5
29B
330
299
100
AcDbEntity
  8
0
100
AcDbBlockEnd
  0
BLOCK
  5
2A9
330
2A8
100
AcDbEntity
  8
0
100
AcDbBlockBegin
  2
*D18
 70
     1
 10
0.0
 20
0.0
 30
0.0
  3
*D18
  1
*D18
  0
LINE
  5
2AB
330
2A8
100
AcDbEntity
  8
치수문자_일반주서
 62
     0
370
    -2
100
AcDbLine
 10
16.48303016379238
 20
-2.881873337411837
 30
0.0
 11
27.41348894444626
 21
-22.07008076038313
 31
0.0
  0
MTEXT
  5
2AC
330
2A8
100
AcDbEntity
  8
치수문자_일반주서
 62
     0
100
AcDbMText
 10
27.5120602771815
 20
-17.94993085353959
 30
0.0
 40
2.5
 41
0.0
 71
     5
 72
     1
  1
\A1;R0.3
  7
SLDTEXTSTYLE0
 11
0.4949699452722874
 21
-0.8689100950484745
 31
0.0
 73
     1
 44
1.0
  0
LINE
  5
2AD
330
2A8
100
AcDbEntity
  8
치수문자_일반주서
 62
     0
370
    -2
100
AcDbLine
 10
15.09711431702997
 20
-0.4489250712761083
 30
0.0
 11
15.24560530061166
 21
-0.7095980997906505
 31
0.0
  0
SOLID
  5
2AE
330
2A8
100
AcDbEntity
  8
치수문자_일반주서
 62
     0
100
AcDbTrace
 10
16.84507603672924
 20
-2.675635860215051
 30
0.0
 11
16.12098429085551
 21
-3.088110814608623
 31
0.0
 12
15.24560530061166
 22
-0.7095980997906505
 32
0.0
 13
15.24560530061166
 23
-0.7095980997906505
 33
0.0
  0
POINT
  5
2AF
330
2A8
100
AcDbEntity
  8
Defpoints
 62
     0
100
AcDbPoint
 10
15.24560530061166
 20
-0.7095980997906505
 30
0.0
  0
POINT
  5
2B0
330
2A8
100
AcDbEntity
  8
Defpoints
 62
     0
100
AcDbPoint
 10
15.09711431702997
 20
-0.4489250712761083
 30
0.0
  0
ENDBLK
  5
2AA
330
2A8
100
AcDbEntity
  8
0
100
AcDbBlockEnd
  0
ENDSEC
  0
SECTION
  2
ENTITIES
  0
LINE
  5
CE
330
1F
100
AcDbEntity
  8
참조1
100
AcDbLine
 10
-15.77564223695981
 20
-2.499999999999974
 30
0.0
 11
-15.7756422369598
 21
-40.0
 31
0.0
  0
LINE
  5
CF
330
1F
100
AcDbEntity
  8
참조1
100
AcDbLine
 10
-15.7756422369598
 20
-40.0
 30
0.0
 11
-30.93398568371225
 21
-40.0
 31
0.0
  0
INSERT
  5
D1
330
1F
100
AcDbEntity
  8
0
  6
Continuous
 62
     7
100
AcDbBlockReference
 66
     1
  2
블럭10
 10
-29.71591516908501
 20
-52.04717430164393
 30
0.0
  0
ATTRIB
  5
D2
330
D1
100
AcDbEntity
  8
FORMAT
 62
     2
100
AcDbText
 10
-45.83517620852056
 20
-49.97180738881174
 30
0.0
 40
4.233333333333333
  1
SEME0101503E [ 4 FLUTE ]
 41
0.75
  7
SLDTEXTSTYLE0
 11
-45.83517620852056
 21
-52.08847405547841
 31
0.0
100
AcDbAttribute
  2
AUTOATTR0
 70
     0
 74
     1
  0
SEQEND
  5
D3
330
D1
100
AcDbEntity
  8
0
  6
Continuous
 62
     7
  0
HATCH
  5
D4
330
1F
100
AcDbEntity
  8
중심선
100
AcDbHatch
 10
0.0
 20
0.0
 30
0.0
210
0.0
220
0.0
230
1.0
  2
SOLID
 70
     1
 71
     0
 91
        1
 92
        0
 93
        4
 72
     1
 10
-24.00100586470416
 20
-35.8
 11
-27.44728110854144
 21
-35.8
 72
     1
 10
-27.44728110854144
 20
-35.8
 11
-29.57551096774547
 21
-38.33632558057259
 72
     1
 10
-29.57551096774547
 20
-38.33632558057259
 11
-26.12920263879504
 21
-38.3362861512701
 72
     1
 10
-26.12920263879504
 20
-38.3362861512701
 11
-24.00100586470416
 21
-35.8
 97
        0
 75
     0
 76
     1
 98
        1
 10
0.0
 20
0.0
  0
HATCH
  5
D5
330
1F
100
AcDbEntity
  8
중심선
100
AcDbHatch
 10
0.0
 20
0.0
 30
0.0
210
0.0
220
0.0
230
1.0
  2
SOLID
 70
     1
 71
     0
 91
        1
 92
        0
 93
        4
 72
     1
 10
-18.98824187366821
 20
-35.8
 11
-22.43451711750549
 21
-35.8
 72
     1
 10
-22.43451711750549
 20
-35.8
 11
-26.96565512586288
 21
-41.20000000000002
 72
     1
 10
-26.96565512586288
 20
-41.20000000000002
 11
-23.5193798820256
 21
-41.20000000000002
 72
     1
 10
-23.5193798820256
 20
-41.20000000000002
 11
-18.98824187366821
 21
-35.8
 97
        0
 75
     0
 76
     1
 98
        1
 10
0.0
 20
0.0
  0
HATCH
  5
D6
330
1F
100
AcDbEntity
  8
중심선
100
AcDbHatch
 10
0.0
 20
0.0
 30
0.0
210
0.0
220
0.0
230
1.0
  2
SOLID
 70
     1
 71
     0
 91
        1
 92
        0
 93
        4
 72
     1
 10
-13.97547788263232
 20
-35.80000000000003
 11
-17.42175312646943
 21
-35.8
 72
     1
 10
-17.42175312646943
 20
-35.8
 11
-24.47019002835868
 21
-44.20000000000002
 72
     1
 10
-24.47019002835868
 20
-44.20000000000002
 11
-21.0239147845214
 21
-44.20000000000002
 72
     1
 10
-21.0239147845214
 20
-44.20000000000002
 11
-13.97547788263232
 21
-35.80000000000003
 97
        0
 75
     0
 76
     1
 98
        1
 10
0.0
 20
0.0
  0
HATCH
  5
D7
330
1F
100
AcDbEntity
  8
중심선
100
AcDbHatch
 10
0.0
 20
0.0
 30
0.0
210
0.0
220
0.0
230
1.0
  2
SOLID
 70
     1
 71
     0
 91
        1
 92
        0
 93
        6
 72
     3
 10
-9.175587451620116
 20
-40.00000000005127
 11
3.960054785062284
 21
1.540850780301639E-10
 40
0.3939339440162633
 50
17.09539180608433
 51
320.0019657685079
 73
     0
 72
     1
 10
-7.49258779591952
 20
-38.5878940046383
 11
-5.187285922218482
 21
-36.65356729459038
 72
     3
 10
-9.175587451672962
 20
-40.00000000000015
 11
6.600054785286829
 21
-1.249000902703301E-13
 40
0.6363583540795982
 50
39.99873849337408
 51
368.4976242363725
 73
     1
 72
     1
 10
-2.750254959772352
 20
-39.03999999993002
 11
-10.49552014483704
 21
-39.03999999992999
 72
     1
 10
-10.49552014483704
 20
-39.03999999992999
 11
-10.49554518928297
 21
-40.95999999992991
 72
     1
 10
-10.49554518928297
 20
-40.95999999992991
 11
-6.054165419810936
 21
-40.95999999992988
 97
        0
 75
     0
 76
     1
 98
        1
 10
0.0
 20
0.0
  0
LINE
  5
10B
330
1F
100
AcDbEntity
  8
참조1
100
AcDbLine
 10
67.03835494594202
 20
7.440000000000002
 30
0.0
 11
67.03835494594202
 21
-7.440000000000002
 31
0.0
  0
LINE
  5
10C
330
1F
100
AcDbEntity
  8
참조1
100
AcDbLine
 10
79.73835494594202
 20
5.440000000000002
 30
0.0
 11
67.03835494594202
 21
5.440000000000002
 31
0.0
  0
SOLID
  5
10D
330
1F
100
AcDbEntity
  8
참조1
100
AcDbTrace
 10
67.03835494594202
 20
5.440000000000002
 30
0.0
 11
73.38835494594201
 21
4.424000000000002
 31
0.0
 12
73.38835494594201
 22
6.456000000000002
 32
0.0
 13
73.38835494594201
 23
6.456000000000002
 33
0.0
  0
LINE
  5
10E
330
1F
100
AcDbEntity
  8
참조1
100
AcDbLine
 10
79.73835494594202
 20
-5.440000000000002
 30
0.0
 11
67.03835494594202
 21
-5.440000000000002
 31
0.0
  0
SOLID
  5
10F
330
1F
100
AcDbEntity
  8
참조1
100
AcDbTrace
 10
67.03835494594202
 20
-5.440000000000002
 30
0.0
 11
73.38835494594201
 21
-6.456000000000002
 31
0.0
 12
73.38835494594201
 22
-4.424000000000002
 32
0.0
 13
73.38835494594201
 23
-4.424000000000002
 33
0.0
  0
MTEXT
  5
110
330
1F
100
AcDbEntity
  8
참조1
100
AcDbMText
 10
76.4358450384123
 20
10.98821664464994
 30
0.0
 40
3.5
 41
0.0
 71
     1
 72
     1
  1
A
  7
SLDTEXTSTYLE0
 73
     1
 44
1.0
  0
MTEXT
  5
111
330
1F
100
AcDbEntity
  8
참조1
100
AcDbMText
 10
76.4358450384123
 20
0.1082166446499328
 30
0.0
 40
3.5
 41
0.0
 71
     1
 72
     1
  1
A
  7
SLDTEXTSTYLE0
 73
     1
 44
1.0
  0
LINE
  5
226
330
1F
100
AcDbEntity
  8
0
  6
Continuous
 62
     1
370
    15
100
AcDbLine
 10
11.88480659219887
 20
0.7510749287238916
 30
0.0
 11
11.42656756190166
 21
0.7510749287238916
 31
0.0
1001
PE_URL
1000

  0
LINE
  5
227
330
1F
100
AcDbEntity
  8
0
  6
Continuous
 62
     1
370
    15
100
AcDbLine
 10
13.46916890854075
 20
-0.7489250712761049
 30
0.0
 11
13.92552317452436
 21
-0.7489250712761049
 31
0.0
1001
PE_URL
1000

  0
LINE
  5
228
330
1F
100
AcDbEntity
  8
0
  6
Continuous
 62
     1
370
    15
100
AcDbLine
 10
13.92552317452436
 20
0.7510749287238916
 30
0.0
 11
13.46916890854075
 21
0.7510749287238916
 31
0.0
1001
PE_URL
1000

  0
LINE
  5
229
330
1F
100
AcDbEntity
  8
0
  6
Continuous
 62
     1
370
    15
100
AcDbLine
 10
11.42656756190166
 20
-0.7489250712761049
 30
0.0
 11
11.88480659219886
 21
-0.7489250712761049
 31
0.0
1001
PE_URL
1000

  0
LINE
  5
22A
330
1F
100
AcDbEntity
  8
외형선
  6
Continuous
370
    15
100
AcDbLine
 10
-34.00288568297002
 20
-2.998925071276108
 30
0.0
 11
2.0
 21
-2.998925071276108
 31
0.0
  0
LINE
  5
22B
330
1F
100
AcDbEntity
  8
외형선
  6
Continuous
370
    15
100
AcDbLine
 10
2.0
 20
3.001074928723895
 30
0.0
 11
-34.00288568297002
 21
3.001074928723895
 31
0.0
  0
LINE
  5
22C
330
1F
100
AcDbEntity
  8
외형선
  6
Continuous
370
    15
100
AcDbLine
 10
2.0
 20
-2.998925071276112
 30
0.0
 11
10.39908507118125
 21
-0.7483970092927912
 31
0.0
  0
LINE
  5
22D
330
1F
100
AcDbEntity
  8
외형선
  6
Continuous
370
    15
100
AcDbLine
 10
10.39908507118125
 20
0.7505468667405779
 30
0.0
 11
2.0
 21
3.001074928723899
 31
0.0
  0
LINE
  5
22E
330
1F
100
AcDbEntity
  8
외형선
  6
Continuous
370
    15
100
AcDbLine
 10
-34.00288568297002
 20
3.001074928723892
 30
0.0
 11
-34.60288568297003
 21
2.401074928723894
 31
0.0
  0
LINE
  5
22F
330
1F
100
AcDbEntity
  8
외형선
  6
Continuous
370
    15
100
AcDbLine
 10
-34.60288568297003
 20
-2.398925071276109
 30
0.0
 11
-34.00288568297002
 21
-2.998925071276105
 31
0.0
  0
LINE
  5
230
330
1F
100
AcDbEntity
  8
0
  6
Continuous
 62
     1
370
    15
100
AcDbLine
 10
15.39711431702997
 20
-0.4489250712761083
 30
0.0
 11
15.39711431702997
 21
0.0640952842280829
 31
0.0
1001
PE_URL
1000

  0
SPLINE
  5
231
330
1F
100
AcDbEntity
  8
0
  6
Continuous
 62
     1
370
    15
100
AcDbSpline
210
0.0
220
0.0
230
1.0
 70
     8
 71
     3
 72
    10
 73
     6
 74
     0
 42
0.000000001
 43
0.00000001
 40
0.0
 40
0.0
 40
0.0
 40
0.0
 40
0.5
 40
0.5
 40
0.5865974412855389
 40
0.5865974412855389
 40
0.5865974412855389
 40
0.5865974412855389
 10
15.19711431702999
 20
-0.6211670882567546
 30
0.0
 10
15.24767688738287
 20
-0.6373675622136457
 30
0.0
 10
15.29422174077493
 20
-0.6393356415424929
 30
0.0
 10
15.33857187487421
 20
-0.6178340732199497
 30
0.0
 10
15.34480369467509
 20
-0.6139197182978047
 30
0.0
 10
15.35063294233337
 20
-0.6093255283336764
 30
0.0
1001
PE_URL
1000

  0
SPLINE
  5
232
330
1F
100
AcDbEntity
  8
0
  6
Continuous
 62
     1
370
    15
100
AcDbSpline
210
0.0
220
0.0
230
1.0
 70
     8
 71
     3
 72
    15
 73
    11
 74
     0
 42
0.000000001
 43
0.00000001
 40
0.0
 40
0.0
 40
0.0
 40
0.0
 40
0.0134601891385735
 40
0.1742170640475063
 40
0.3348779044674612
 40
0.4954095820428179
 40
0.6212344933888254
 40
0.7470393009130135
 40
0.87375400239722
 40
1.0
 40
1.0
 40
1.0
 40
1.0
 10
11.88480659219887
 20
0.7462998490044015
 30
0.0
 10
11.8996744489651
 20
0.7478631313813935
 30
0.0
 10
12.09211114712917
 20
0.768096908425175
 30
0.0
 10
12.46213697275724
 20
0.6892261404734974
 30
0.0
 10
12.99443628100047
 20
0.5102078578455238
 30
0.0
 10
13.48836136624051
 20
0.2540589990118001
 30
0.0
 10
13.94288076410693
 20
-0.0092426019943499
 30
0.0
 10
14.35998981601762
 20
-0.2496831018444858
 30
0.0
 10
14.7786793894397
 20
-0.4673446498128957
 30
0.0
 10
15.05780840464335
 20
-0.5699563175489661
 30
0.0
 10
15.19711431702996
 20
-0.6211670882567546
 30
0.0
1001
PE_URL
1000

  0
SPLINE
  5
233
330
1F
100
AcDbEntity
  8
0
  6
Continuous
 62
     1
370
    15
100
AcDbSpline
210
0.0
220
0.0
230
1.0
 70
     8
 71
     3
 72
    12
 73
     8
 74
     0
 42
0.000000001
 43
0.00000001
 40
0.0
 40
0.0
 40
0.0
 40
0.0
 40
0.2094143064704153
 40
0.4189388463925985
 40
0.628612310597637
 40
0.8384707625223004
 40
0.9999999999999999
 40
0.9999999999999999
 40
0.9999999999999999
 40
0.9999999999999999
 10
15.19711431702996
 20
0.1795554044191601
 30
0.0
 10
15.0200045258412
 20
0.2759638018940933
 30
0.0
 10
14.66569171476331
 20
0.4688313451935429
 30
0.0
 10
14.13397273324941
 20
0.6733886309309121
 30
0.0
 10
13.60185151679271
 20
0.767248302606319
 30
0.0
 10
13.11008186285085
 20
0.7425346733994971
 30
0.0
 10
12.79604806393746
 20
0.6501621073891961
 30
0.0
 10
12.65946399955359
 20
0.6099861118533383
 30
0.0
1001
PE_URL
1000

  0
SPLINE
  5
234
330
1F
100
AcDbEntity
  8
0
  6
Continuous
 62
     1
370
    15
100
AcDbSpline
210
0.0
220
0.0
230
1.0
 70
     8
 71
     3
 72
    10
 73
     6
 74
     0
 42
0.000000001
 43
0.00000001
 40
0.0
 40
0.0
 40
0.0
 40
0.0
 40
0.5
 40
0.5
 40
1.0
 40
1.0
 40
1.0
 40
1.0
 10
15.39711431702997
 20
0.0640952842280829
 30
0.0
 10
15.39711431702997
 20
0.07679342819754
 30
0.0
 10
15.37302818688897
 20
0.0888730953146837
 30
0.0
 10
15.29609874483769
 20
0.1265438745713965
 30
0.0
 10
15.24511311785319
 20
0.1527993846520772
 30
0.0
 10
15.19711431702996
 20
0.1795554044191707
 30
0.0
1001
PE_URL
1000

  0
SPLINE
  5
235
330
1F
100
AcDbEntity
  8
0
  6
Continuous
 62
     1
370
    15
100
AcDbSpline
210
0.0
220
0.0
230
1.0
 70
     8
 71
     3
 72
    14
 73
    10
 74
     0
 42
0.000000001
 43
0.00000001
 40
0.0
 40
0.0
 40
0.0
 40
0.0
 40
0.1601947865747698
 40
0.3205144594563374
 40
0.4807383590288816
 40
0.640833447034229
 40
0.7663161589790312
 40
0.8917788217773205
 40
1.0
 40
1.0
 40
1.0
 40
1.0
 10
11.39711431703006
 20
0.2756146073758625
 30
0.0
 10
11.57453689898242
 20
0.1758699585595807
 30
0.0
 10
11.92952037981659
 20
-0.0236970990368341
 30
0.0
 10
12.46212976009782
 20
-0.3308912619197137
 30
0.0
 10
12.99443771011721
 20
-0.5799279758359841
 30
0.0
 10
13.4883628484319
 20
-0.7231917000470443
 30
0.0
 10
13.94287548812046
 20
-0.7608359709133481
 30
0.0
 10
14.33994585783415
 20
-0.725148844696001
 30
0.0
 10
14.5988617710442
 20
-0.6459731147249137
 30
0.0
 10
14.71876815851954
 20
-0.6093060916792634
 30
0.0
1001
PE_URL
1000

  0
SPLINE
  5
236
330
1F
100
AcDbEntity
  8
외형선
  6
Continuous
370
    15
100
AcDbSpline
210
0.0
220
0.0
230
1.0
 70
    24
 71
     3
 72
    14
 73
    10
 74
     0
 42
0.000000001
 43
0.00000001
 40
0.0
 40
0.0
 40
0.0
 40
0.0
 40
0.1450018208252317
 40
0.2944257031113189
 40
0.4360059065890253
 40
0.5816919455589088
 40
0.7232721490366179
 40
0.8689581880065046
 40
1.0
 40
1.0
 40
1.0
 40
1.0
 10
11.39711431702999
 20
0.7508810511635744
 30
0.0
 10
11.39711431703
 20
0.7259955857184757
 30
0.0
 10
11.39711431702997
 20
0.6754657329260958
 30
0.0
 10
11.39711431702997
 20
0.5981553759729259
 30
0.0
 10
11.39711431703
 20
0.5218696400209062
 30
0.0
 10
11.39711431702997
 20
0.4497223848618894
 30
0.0
 10
11.39711431702995
 20
0.3821796524542886
 30
0.0
 10
11.39711431702999
 20
0.3227768085847504
 30
0.0
 10
11.39711431703
 20
0.2907707625915545
 30
0.0
 10
11.39711431703
 20
0.275614607375898
 30
0.0
  0
SPLINE
  5
237
330
1F
100
AcDbEntity
  8
0
  6
Continuous
 62
     1
370
    15
100
AcDbSpline
210
0.0
220
0.0
230
1.0
 70
     8
 71
     3
 72
    28
 73
    24
 74
     0
 42
0.000000001
 43
0.00000001
 40
0.0
 40
0.0
 40
0.0
 40
0.0
 40
0.0624999999999972
 40
0.0624999999999972
 40
0.1249999999999944
 40
0.1249999999999944
 40
0.2499999999999928
 40
0.2499999999999928
 40
0.3749999999999913
 40
0.3749999999999913
 40
0.4374999999999906
 40
0.4374999999999906
 40
0.4999999999999898
 40
0.4999999999999898
 40
0.6249999999999922
 40
0.6249999999999922
 40
0.6874999999999936
 40
0.6874999999999936
 40
0.7499999999999948
 40
0.7499999999999948
 40
0.8749999999999974
 40
0.8749999999999974
 40
1.0
 40
1.0
 40
1.0
 40
1.0
 10
15.16800549215596
 20
-0.7404288298955406
 30
0.0
 10
15.12039916215169
 20
-0.7370017819246669
 30
0.0
 10
15.03668781999178
 20
-0.7014269035234779
 30
0.0
 10
14.87798352064422
 20
-0.663836105300911
 30
0.0
 10
14.80142744109432
 20
-0.6414923070661107
 30
0.0
 10
14.56527363197651
 20
-0.5636101599759673
 30
0.0
 10
14.40117566816011
 20
-0.4968737279660189
 30
0.0
 10
14.09141828251396
 20
-0.3470668134371202
 30
0.0
 10
13.92876896835864
 20
-0.261408374422107
 30
0.0
 10
13.69140744054994
 20
-0.1280905832894597
 30
0.0
 10
13.61499554499365
 20
-0.083202832375834
 30
0.0
 10
13.45700769266477
 20
0.0079867682100456
 30
0.0
 10
13.37651044795551
 20
0.0540856432951156
 30
0.0
 10
13.13652115608281
 20
0.1904378859037372
 30
0.0
 10
12.98320278806121
 20
0.2778807159828531
 30
0.0
 10
12.7430921994636
 20
0.3988194503190883
 30
0.0
 10
12.66264410960314
 20
0.4371775507528746
 30
0.0
 10
12.50492572447735
 20
0.5081394456558801
 30
0.0
 10
12.42846557328421
 20
0.5406753663190091
 30
0.0
 10
12.19074437324765
 20
0.6299241710015195
 30
0.0
 10
12.02894159110426
 20
0.6767977279412101
 30
0.0
 10
11.71840327336555
 20
0.7378923121753473
 30
0.0
 10
11.55425137753012
 20
0.7529534105118607
 30
0.0
 10
11.39711431703009
 20
0.7508810511635211
 30
0.0
1001
PE_URL
1000

  0
SPLINE
  5
238
330
1F
100
AcDbEntity
  8
0
  6
Continuous
 62
     1
370
    15
100
AcDbSpline
210
0.0
220
0.0
230
1.0
 70
     8
 71
     3
 72
    10
 73
     6
 74
     0
 42
0.000000001
 43
0.00000001
 40
0.0
 40
0.0
 40
0.0
 40
0.0
 40
0.4217008371604801
 40
0.8437304282164639
 40
1.0
 40
1.0
 40
1.0
 40
1.0
 10
11.39711431703006
 20
-0.6968706027079445
 30
0.0
 10
11.57453675659275
 20
-0.721683127368518
 30
0.0
 10
11.92951995253661
 20
-0.771327520293994
 30
0.0
 10
12.35038774520231
 20
-0.7218294604421391
 30
0.0
 10
12.59371220310568
 20
-0.6320867685561584
 30
0.0
 10
12.65946399955359
 20
-0.6078362544055516
 30
0.0
1001
PE_URL
1000

  0
SPLINE
  5
239
330
1F
100
AcDbEntity
  8
외형선
  6
Continuous
370
    15
100
AcDbSpline
210
0.0
220
0.0
230
1.0
 70
    24
 71
     3
 72
    19
 73
    15
 74
     0
 42
0.000000001
 43
0.00000001
 40
0.0
 40
0.0
 40
0.0
 40
0.0
 40
0.0651018506815517
 40
0.1491711922289449
 40
0.2356785503764741
 40
0.3197478919239375
 40
0.406255250071389
 40
0.4903245916187254
 40
0.5768319497661937
 40
0.6609012913136364
 40
0.7474086494612195
 40
0.831477991008413
 40
0.9179853491561374
 40
1.0
 40
1.0
 40
1.0
 40
1.0
 10
11.39711431702999
 20
0.0181271647077921
 30
0.0
 10
11.39711431703
 20
0.0127066846892561
 30
0.0
 10
11.39711431703
 20
0.0002864622477574
 30
0.0
 10
11.39711431702995
 20
-0.0334794922722192
 30
0.0
 10
11.39711431703
 20
-0.0792287222635171
 30
0.0
 10
11.39711431702997
 20
-0.1353561026351375
 30
0.0
 10
11.39711431702995
 20
-0.1987460807443036
 30
0.0
 10
11.39711431703002
 20
-0.2688830997692726
 30
0.0
 10
11.39711431702997
 20
-0.3424861859084203
 30
0.0
 10
11.39711431702995
 20
-0.4187928684266389
 30
0.0
 10
11.39711431702997
 20
-0.494318753610095
 30
0.0
 10
11.39711431702995
 20
-0.5680935066271697
 30
0.0
 10
11.39711431703
 20
-0.6368590994363927
 30
0.0
 10
11.39711431703
 20
-0.6772254837434488
 30
0.0
 10
11.39711431702997
 20
-0.6968706027079268
 30
0.0
  0
SPLINE
  5
23A
330
1F
100
AcDbEntity
  8
0
  6
Continuous
 62
     1
370
    15
100
AcDbSpline
210
0.0
220
0.0
230
1.0
 70
     8
 71
     3
 72
    12
 73
     8
 74
     0
 42
0.000000001
 43
0.00000001
 40
0.0
 40
0.0
 40
0.0
 40
0.0
 40
0.1928618427470989
 40
0.3949985718283269
 40
0.5959359092032761
 40
0.7973017130964696
 40
1.0
 40
1.0
 40
1.0
 40
1.0
 10
13.46916890854075
 20
-0.737225539235741
 30
0.0
 10
13.33586255409469
 20
-0.7352667465311917
 30
0.0
 10
13.06283903180631
 20
-0.7312549611526826
 30
0.0
 10
12.65105300871934
 20
-0.6146381281312578
 30
0.0
 10
12.23417222530881
 20
-0.4431445547320632
 30
0.0
 10
11.81662856944952
 20
-0.2231290357094267
 30
0.0
 10
11.53725949316862
 20
-0.0624681726544143
 30
0.0
 10
11.39711431703009
 20
0.018127164707737
 30
0.0
1001
PE_URL
1000

  0
LINE
  5
23B
330
1F
100
AcDbEntity
  8
외형선
  6
Continuous
370
    15
100
AcDbLine
 10
11.39711431702997
 20
0.0181271647078027
 30
0.0
 11
11.39711431702997
 21
0.2756146073759069
 31
0.0
  0
SPLINE
  5
23C
330
1F
100
AcDbEntity
  8
0
  6
Continuous
 62
     1
370
    15
100
AcDbSpline
210
0.0
220
0.0
230
1.0
 70
     8
 71
     3
 72
    10
 73
     6
 74
     0
 42
0.000000001
 43
0.00000001
 40
0.0
 40
0.0
 40
0.0
 40
0.0
 40
0.5
 40
0.5
 40
1.0
 40
1.0
 40
1.0
 40
1.0
 10
15.19711431702999
 20
0.4197811172425752
 30
0.0
 10
15.24767688738285
 20
0.3957054864843066
 30
0.0
 10
15.29422174077496
 20
0.3570700662445923
 30
0.0
 10
15.36982748157411
 20
0.2766550151335903
 30
0.0
 10
15.39711431702997
 20
0.2365605173116094
 30
0.0
 10
15.39711431702996
 20
0.2196864784012096
 30
0.0
1001
PE_URL
1000

  0
LINE
  5
23D
330
1F
100
AcDbEntity
  8
0
  6
Continuous
 62
     1
370
    15
100
AcDbLine
 10
15.39711431702997
 20
0.0640952842280829
 30
0.0
 11
15.39711431702997
 21
0.2196864784012096
 31
0.0
1001
PE_URL
1000

  0
SPLINE
  5
23E
330
1F
100
AcDbEntity
  8
0
  6
Continuous
 62
     1
370
    15
100
AcDbSpline
210
0.0
220
0.0
230
1.0
 70
     8
 71
     3
 72
    11
 73
     7
 74
     0
 42
0.000000001
 43
0.00000001
 40
0.0
 40
0.0
 40
0.0
 40
0.0
 40
0.0136614891887618
 40
0.3412682124527244
 40
0.671244379179346
 40
0.9999999999999999
 40
0.9999999999999999
 40
0.9999999999999999
 40
0.9999999999999999
 10
13.92552317452436
 20
0.7495404761479385
 30
0.0
 10
13.93130994902825
 20
0.7500488455498449
 30
0.0
 10
14.07586536048601
 20
0.7627480699650491
 30
0.0
 10
14.35996655766533
 20
0.7153703637759214
 30
0.0
 10
14.77868519632261
 20
0.6089998646744768
 30
0.0
 10
15.05781033787855
 20
0.4827760741967051
 30
0.0
 10
15.19711431702999
 20
0.4197811172425769
 30
0.0
1001
PE_URL
1000

  0
LINE
  5
23F
330
1F
100
AcDbEntity
  8
0
  6
Continuous
 62
     1
370
    15
100
AcDbLine
 10
15.39711431702997
 20
0.2196864784012114
 30
0.0
 11
15.39711431702997
 21
0.4510749287238882
 31
0.0
1001
PE_URL
1000

  0
LINE
  5
240
330
1F
100
AcDbEntity
  8
0
  6
Continuous
 62
     1
370
    15
100
AcDbLine
 10
15.16800549215596
 20
0.7425786873433202
 30
0.0
 11
14.71876815851954
 21
0.6114559491270519
 31
0.0
1001
PE_URL
1000

  0
LINE
  5
241
330
1F
100
AcDbEntity
  8
외형선
  6
Continuous
370
    15
100
AcDbLine
 10
11.42656756190166
 20
-0.7464051929925475
 30
0.0
 11
11.39711431703009
 21
-0.7487311937157344
 31
0.0
  0
LINE
  5
243
330
1F
100
AcDbEntity
  8
외형선
  6
Continuous
370
    15
100
AcDbLine
 10
11.39711431702997
 20
-0.7487311937157344
 30
0.0
 11
11.39711431702997
 21
-0.6968706027079268
 31
0.0
  0
LINE
  5
244
330
1F
100
AcDbEntity
  8
외형선
  6
Continuous
370
    15
100
AcDbLine
 10
2.0
 20
0.0010749287238934
 30
0.0
 11
2.0
 21
3.001074928723895
 31
0.0
  0
LINE
  5
245
330
1F
100
AcDbEntity
  8
외형선
  6
Continuous
370
    15
100
AcDbLine
 10
2.0
 20
-2.998925071276108
 30
0.0
 11
2.0
 21
0.0010749287238934
 31
0.0
  0
LINE
  5
246
330
1F
100
AcDbEntity
  8
외형선
  6
Continuous
370
    15
100
AcDbLine
 10
-34.00288568297002
 20
0.0010749287238934
 30
0.0
 11
-34.00288568297002
 21
3.001074928723895
 31
0.0
  0
LINE
  5
247
330
1F
100
AcDbEntity
  8
외형선
  6
Continuous
370
    15
100
AcDbLine
 10
-34.00288568297002
 20
-2.998925071276108
 30
0.0
 11
-34.00288568297002
 21
0.0010749287238934
 31
0.0
  0
SPLINE
  5
248
330
1F
100
AcDbEntity
  8
외형선
  6
Continuous
370
    15
100
AcDbSpline
210
0.0
220
0.0
230
1.0
 70
    24
 71
     3
 72
    10
 73
     6
 74
     0
 42
0.000000001
 43
0.00000001
 40
0.0
 40
0.0
 40
0.0
 40
0.0
 40
0.2316834732510514
 40
0.6158417366255258
 40
1.0
 40
1.0
 40
1.0
 40
1.0
 10
10.39704117137106
 20
-0.7406272011105219
 30
0.0
 10
10.39704117137106
 20
-0.7413585676119148
 30
0.0
 10
10.39704117137104
 20
-0.7433026252091501
 30
0.0
 10
10.39704117137109
 20
-0.67208258899195
 30
0.0
 10
10.39704117137106
 20
-0.5741555798313005
 30
0.0
 10
10.39704117137106
 20
-0.5251920752509758
 30
0.0
  0
SPLINE
  5
249
330
1F
100
AcDbEntity
  8
외형선
  6
Continuous
370
    15
100
AcDbSpline
210
0.0
220
0.0
230
1.0
 70
    24
 71
     3
 72
     9
 73
     5
 74
     0
 42
0.000000001
 43
0.00000001
 40
0.0
 40
0.0
 40
0.0
 40
0.0
 40
0.715839375539789
 40
1.0
 40
1.0
 40
1.0
 40
1.0
 10
10.39711431702997
 20
0.6840944252058101
 30
0.0
 10
10.39711431702997
 20
0.7127726921969284
 30
0.0
 10
10.39711431702997
 20
0.7528351251547285
 30
0.0
 10
10.39711431702997
 20
0.7449882034463151
 30
0.0
 10
10.39711431702997
 20
0.74275841727356
 30
0.0
  0
LINE
  5
24A
330
1F
100
AcDbEntity
  8
외형선
  6
Continuous
370
    15
100
AcDbLine
 10
10.39711431702997
 20
0.5354130934320285
 30
0.0
 11
10.39711431702997
 21
0.6840944252058101
 31
0.0
  0
SPLINE
  5
24B
330
1F
100
AcDbEntity
  8
외형선
  6
Continuous
370
    15
100
AcDbSpline
210
0.0
220
0.0
230
1.0
 70
    24
 71
     3
 72
    10
 73
     6
 74
     0
 42
0.000000001
 43
0.00000001
 40
0.0
 40
0.0
 40
0.0
 40
0.0
 40
0.5
 40
0.5
 40
1.0
 40
1.0
 40
1.0
 40
1.0
 10
10.39711431702997
 20
-0.3087385109871477
 30
0.0
 10
10.39711431702997
 20
-0.1699918352168019
 30
0.0
 10
10.39711431702997
 20
-0.0118102684684604
 30
0.0
 10
10.39711431702996
 20
0.2877757977633095
 30
0.0
 10
10.39711431702997
 20
0.4285037091240476
 30
0.0
 10
10.39711431702997
 20
0.5354130934320285
 30
0.0
  0
LINE
  5
24C
330
1F
100
AcDbEntity
  8
외형선
  6
Continuous
370
    15
100
AcDbLine
 10
10.39711431702997
 20
-0.525215855079006
 30
0.0
 11
10.39711431702997
 21
-0.3087385109871477
 31
0.0
  0
LINE
  5
24D
330
1F
100
AcDbEntity
  8
외형선
  6
Continuous
370
    15
100
AcDbLine
 10
-34.60288568297003
 20
0.0010749287238934
 30
0.0
 11
-34.60288568297003
 21
2.401074928723894
 31
0.0
  0
LINE
  5
24E
330
1F
100
AcDbEntity
  8
외형선
  6
Continuous
370
    15
100
AcDbLine
 10
-34.60288568297003
 20
-2.398925071276111
 30
0.0
 11
-34.60288568297003
 21
0.0010749287238934
 31
0.0
  0
SPLINE
  5
24F
330
1F
100
AcDbEntity
  8
외형선
  6
Continuous
370
    15
100
AcDbSpline
210
0.0
220
0.0
230
1.0
 70
    24
 71
     3
 72
    14
 73
    10
 74
     0
 42
0.000000001
 43
0.00000001
 40
0.0
 40
0.0
 40
0.0
 40
0.0
 40
0.0877780069322778
 40
0.254483429341867
 40
0.4211888517550083
 40
0.5878942741669438
 40
0.7545996965784985
 40
0.9213051189900455
 40
0.9999999999999999
 40
0.9999999999999999
 40
0.9999999999999999
 40
0.9999999999999999
 10
11.39711431702997
 20
-0.6968706027079286
 30
0.0
 10
11.39711431702997
 20
-0.675338823574199
 30
0.0
 10
11.39711431702995
 20
-0.6129145195226045
 30
0.0
 10
11.39711431703003
 20
-0.4891176488564462
 30
0.0
 10
11.39711431702993
 20
-0.3356744543128656
 30
0.0
 10
11.39711431702997
 20
-0.1898659031826586
 30
0.0
 10
11.39711431702997
 20
-0.0721597697358369
 30
0.0
 10
11.39711431702997
 20
0.0013691491533816
 30
0.0
 10
11.39711431702999
 20
0.0140580822179341
 30
0.0
 10
11.39711431702999
 20
0.0181271647077939
 30
0.0
  0
SPLINE
  5
250
330
1F
100
AcDbEntity
  8
외형선
  6
Continuous
370
    15
100
AcDbSpline
210
0.0
220
0.0
230
1.0
 70
     8
 71
     3
 72
    14
 73
    10
 74
     0
 42
0.000000001
 43
0.00000001
 40
0.0
 40
0.0
 40
0.0
 40
0.0
 40
0.25
 40
0.25
 40
0.5
 40
0.5
 40
0.75
 40
0.75
 40
1.0
 40
1.0
 40
1.0
 40
1.0
 10
11.39711431703006
 20
-0.6968706027079481
 30
0.0
 10
11.31429332295119
 20
-0.6792852669164606
 30
0.0
 10
11.23335950567181
 20
-0.6575783733383282
 30
0.0
 10
11.06559344745487
 20
-0.6057773693019683
 30
0.0
 10
10.98054489351618
 20
-0.575794668443617
 30
0.0
 10
10.81283413309154
 20
-0.5093303167861905
 30
0.0
 10
10.73195412830083
 20
-0.4731532264099485
 30
0.0
 10
10.56622157333261
 20
-0.3948782614400859
 30
0.0
 10
10.48142744424391
 20
-0.3527355929564706
 30
0.0
 10
10.39704117137106
 20
-0.3087114686927706
 30
0.0
  0
SPLINE
  5
251
330
1F
100
AcDbEntity
  8
외형선
  6
Continuous
370
    15
100
AcDbSpline
210
0.0
220
0.0
230
1.0
 70
     8
 71
     3
 72
    14
 73
    10
 74
     0
 42
0.000000001
 43
0.00000001
 40
0.0
 40
0.0
 40
0.0
 40
0.0
 40
0.25
 40
0.25
 40
0.5
 40
0.5
 40
0.75
 40
0.75
 40
1.0
 40
1.0
 40
1.0
 40
1.0
 10
11.39711431703009
 20
0.0181271647077352
 30
0.0
 10
11.3142933229512
 20
0.06615516745895
 30
0.0
 10
11.23335950567184
 20
0.1137193240191188
 30
0.0
 10
11.06559344745489
 20
0.2079928323437628
 30
0.0
 10
10.98054489351617
 20
0.2543438348973002
 30
0.0
 10
10.81283413309154
 20
0.3429043074625397
 30
0.0
 10
10.7319541283008
 20
0.3848313091164126
 30
0.0
 10
10.56622157333261
 20
0.4641504161562029
 30
0.0
 10
10.48142744424391
 20
0.501484182886994
 30
0.0
 10
10.39704117137106
 20
0.5354062201533463
 30
0.0
  0
SPLINE
  5
252
330
1F
100
AcDbEntity
  8
외형선
  6
Continuous
370
    15
100
AcDbSpline
210
0.0
220
0.0
230
1.0
 70
     8
 71
     3
 72
    14
 73
    10
 74
     0
 42
0.000000001
 43
0.00000001
 40
0.0
 40
0.0
 40
0.0
 40
0.0
 40
0.25
 40
0.25
 40
0.5
 40
0.5
 40
0.75
 40
0.75
 40
1.0
 40
1.0
 40
1.0
 40
1.0
 10
11.39711431703006
 20
0.2756146073758572
 30
0.0
 10
11.31429332295119
 20
0.320320737268128
 30
0.0
 10
11.23335950567181
 20
0.3630187632288173
 30
0.0
 10
11.06559344745487
 20
0.4444233244967055
 30
0.0
 10
10.98054489351618
 20
0.4827890232196843
 30
0.0
 10
10.81283413309154
 20
0.5527210891636241
 30
0.0
 10
10.73195412830083
 20
0.5840984072439781
 30
0.0
 10
10.56622157333261
 20
0.639847024878911
 30
0.0
 10
10.48142744424391
 20
0.6641397205545125
 30
0.0
 10
10.39704117137106
 20
0.6841066907786342
 30
0.0
  0
SPLINE
  5
253
330
1F
100
AcDbEntity
  8
외형선
  6
Continuous
370
    15
100
AcDbSpline
210
0.0
220
0.0
230
1.0
 70
     8
 71
     3
 72
    10
 73
     6
 74
     0
 42
0.000000001
 43
0.00000001
 40
0.0
 40
0.0
 40
0.0
 40
0.0
 40
0.3708110747661278
 40
0.7469519690634318
 40
1.0
 40
1.0
 40
1.0
 40
1.0
 10
11.39711431703009
 20
0.7508810511635211
 30
0.0
 10
11.30456591915667
 20
0.7458266246460923
 30
0.0
 10
11.11813888736205
 20
0.735645122267659
 30
0.0
 10
10.86726921598368
 20
0.6907305968231654
 30
0.0
 10
10.70987803518167
 20
0.6340178638703939
 30
0.0
 10
10.64657824271646
 20
0.6112090622097561
 30
0.0
  0
SPLINE
  5
254
330
1F
100
AcDbEntity
  8
외형선
  6
Continuous
370
    15
100
AcDbSpline
210
0.0
220
0.0
230
1.0
 70
    24
 71
     3
 72
    18
 73
    14
 74
     0
 42
0.000000001
 43
0.00000001
 40
0.0
 40
0.0
 40
0.0
 40
0.0
 40
0.0698145747688612
 40
0.1430130513899712
 40
0.2136401099401493
 40
0.3572938196071267
 40
0.4304922962268413
 40
0.5011193547758876
 40
0.6447730644396815
 40
0.7179715410636162
 40
0.7873052033354825
 40
0.9282391065173423
 40
1.0
 40
1.0
 40
1.0
 40
1.0
 10
11.39711431702997
 20
0.275614607375914
 30
0.0
 10
11.39711431702996
 20
0.2835389586063997
 30
0.0
 10
11.39711431702995
 20
0.2997717531698534
 30
0.0
 10
11.39711431703
 20
0.3270290572218943
 30
0.0
 10
11.39711431702996
 20
0.3662559477458043
 30
0.0
 10
11.39711431703
 20
0.4094560199671413
 30
0.0
 10
11.39711431702995
 20
0.4554798558886208
 30
0.0
 10
11.39711431703
 20
0.5031122444791993
 30
0.0
 10
11.39711431702995
 20
0.5527458574018702
 30
0.0
 10
11.39711431703
 20
0.6029290533934599
 30
0.0
 10
11.39711431703
 20
0.6528176605429366
 30
0.0
 10
11.39711431702995
 20
0.7024638281535189
 30
0.0
 10
11.39711431702995
 20
0.7386666244408779
 30
0.0
 10
11.39711431702995
 20
0.750881051163546
 30
0.0
  0
SPLINE
  5
255
330
1F
100
AcDbEntity
  8
외형선
  6
Continuous
370
    15
100
AcDbSpline
210
0.0
220
0.0
230
1.0
 70
     8
 71
     3
 72
    14
 73
    10
 74
     0
 42
0.000000001
 43
0.00000001
 40
0.0
 40
0.0
 40
0.0
 40
0.0
 40
0.25
 40
0.25
 40
0.5
 40
0.5
 40
0.75
 40
0.75
 40
1.0
 40
1.0
 40
1.0
 40
1.0
 10
11.39711431703009
 20
-0.7487311937157362
 30
0.0
 10
11.3142933229512
 20
-0.7476389315799157
 30
0.0
 10
11.23335950567184
 20
-0.741985467113599
 30
0.0
 10
11.06559344745489
 20
-0.7214293915504957
 30
0.0
 10
10.98054489351617
 20
-0.7065138375364501
 30
0.0
 10
10.81283413309154
 20
-0.6682379105398244
 30
0.0
 10
10.7319541283008
 20
-0.6450982370260814
 30
0.0
 10
10.56622157333261
 20
-0.590845515733502
 30
0.0
 10
10.48142744424391
 20
-0.5596633183799113
 30
0.0
 10
10.39704117137106
 20
-0.5252235331770851
 30
0.0
  0
LINE
  5
256
330
1F
100
AcDbEntity
  8
외형선
  6
Continuous
370
    15
100
AcDbLine
 10
10.39704117137106
 20
-0.6819568333308474
 30
0.0
 11
10.64657824271646
 21
-0.6090592047619694
 31
0.0
  0
LINE
  5
257
330
1F
100
AcDbEntity
  8
중심선
100
AcDbLine
 10
-36.10288568297003
 20
0.0010749287238934
 30
0.0
 11
16.89711431702997
 21
0.0010749287238898
 31
0.0
  0
CIRCLE
  5
258
330
1F
100
AcDbEntity
  8
해칭선
100
AcDbCircle
 10
0.0
 20
0.0
 30
0.0
 40
3.000000000000001
  0
DIMENSION
  5
259
330
1F
100
AcDbEntity
  8
치수문자_일반주서
100
AcDbDimension
  2
*D13
 10
23.39711431702996
 20
-0.74892507127608
 30
0.0
 11
23.39711431702993
 21
9.126074928723924
 31
0.0
 70
   160
  1
%%c<>
 71
     2
 42
1.499999999999998
 52
-270.0
  3
SLDDIMSTYLE0
100
AcDbAlignedDimension
 13
15.39711431702997
 23
0.751074928723888
 33
0.0
 14
15.39711431702997
 24
-0.7489250712761102
 34
0.0
 50
90.0000000000002
100
AcDbRotatedDimension
1001
PE_URL
1000

1001
ACAD
1000
DSTYLE
1002
{
1070
    41
1040
2.5
1070
   271
1070
     1
1070
   140
1040
2.5
1002
}
  0
DIMENSION
  5
25A
330
1F
100
AcDbEntity
  8
치수문자_일반주서
100
AcDbDimension
  2
*D14
 10
-42.60288568297
 20
-2.99892507127614
 30
0.0
 11
-42.60288568297005
 21
10.43857492872387
 31
0.0
 70
   160
  1
%%c<>
 71
     2
 42
6.000000000000004
 52
-270.0
  3
SLDDIMSTYLE0
100
AcDbAlignedDimension
 13
-34.00288568297003
 23
3.001074928723895
 33
0.0
 14
-34.00288568297003
 24
-2.998925071276108
 34
0.0
 50
90.0000000000002
100
AcDbRotatedDimension
1001
PE_URL
1000

1001
ACAD
1000
DSTYLE
1002
{
1070
    41
1040
2.5
1070
   271
1070
     0
1070
   140
1040
2.5
1002
}
  0
DIMENSION
  5
25B
330
1F
100
AcDbEntity
  8
치수문자_일반주서
100
AcDbDimension
  2
*D15
 10
11.39711431702999
 20
11.0010749287239
 30
0.0
 11
13.39711431703006
 21
11.0010749287239
 31
0.0
 70
   160
  1
<>
 71
     2
 42
3.999999999999986
  3
SLDDIMSTYLE0
100
AcDbAlignedDimension
 13
15.39711431702997
 23
0.751074928723888
 33
0.0
 14
11.39711431702999
 24
0.7508810511635744
 34
0.0
 50
-0.0000000000003053
100
AcDbRotatedDimension
1001
PE_URL
1000

1001
ACAD
1000
DSTYLE
1002
{
1070
    41
1040
2.5
1070
   271
1070
     0
1070
   140
1040
2.5
1002
}
1001
ACAD_DSTYLE_DIMFLIPARROW_SYMBOL
1070
   385
1070
     0
1001
ACAD_DSTYLE_DIMFLIPARROW_WHICH_SYMBOL
1070
   386
1070
     3
  0
DIMENSION
  5
25C
330
1F
100
AcDbEntity
  8
치수문자_일반주서
100
AcDbDimension
  2
*D16
 10
-34.60288568297003
 20
19.0010749287239
 30
0.0
 11
-9.602885682970026
 21
19.0010749287239
 31
0.0
 70
   160
  1
<>
 71
     2
 42
50.00000000000001
  3
SLDDIMSTYLE0
100
AcDbAlignedDimension
 13
15.39711431702997
 23
0.751074928723888
 33
0.0
 14
-34.60288568297003
 24
2.401074928723894
 34
0.0
100
AcDbRotatedDimension
1001
PE_URL
1000

1001
ACAD
1000
DSTYLE
1002
{
1070
    41
1040
2.5
1070
   271
1070
     0
1070
   140
1040
2.5
1002
}
  0
INSERT
  5
25D
330
1F
100
AcDbEntity
  8
해칭선
100
AcDbBlockReference
  2
SW_DOWELSYMBOL_0
 10
0.0
 20
0.0
 30
0.0
  0
ARC
  5
2A3
330
1F
100
AcDbEntity
  8
0
  6
Continuous
 62
     1
370
    15
100
AcDbCircle
 10
15.09711431702997
 20
0.4510749287238882
 30
0.0
 40
0.2999999999999999
100
AcDbArc
 50
0.0
 51
76.3315033130959
  0
ARC
  5
2A4
102
{ACAD_REACTORS
102
}
330
1F
100
AcDbEntity
  8
0
  6
Continuous
 62
     1
370
    15
100
AcDbCircle
 10
15.09711431702997
 20
-0.4489250712761083
 30
0.0
 40
0.2999999999999999
100
AcDbArc
 50
283.6684966869041
 51
0.0
  0
DIMENSION
  5
2A5
102
{ACAD_REACTORS
102
}
102
{ACAD_XDICTIONARY
360
2A6
102
}
330
1F
100
AcDbEntity
  8
치수문자_일반주서
100
AcDbDimension
  2
*D18
 10
15.09711431702997
 20
-0.4489250712761083
 30
0.0
 11
25.6656263252035
 21
-19.0017419872432
 31
0.0
 70
   164
  1
<>
 71
     5
 42
0.2999999999999998
  3
SLDDIMSTYLE0
100
AcDbRadialDimension
 15
15.24560530061166
 25
-0.7095980997906505
 35
0.0
 40
0.0
1001
ACAD
1000
DSTYLE
1002
{
1070
    78
1070
     0
1070
    41
1040
2.5
1070
   271
1070
     1
1070
   140
1040
2.5
1002
}
1001
ACAD_DSTYLE_DIMRADIAL_EXTENSION
1070
   387
1070
     1
1070
   388
1040
4.950949251369103
1070
   390
1040
0.0
  0
ENDSEC
  0
SECTION
  2
OBJECTS
  0
DICTIONARY
  5
C
330
0
100
AcDbDictionary
281
     1
  3
ACAD_GROUP
350
D
  3
ACAD_IMAGE_VARS
350
13C
  3
ACAD_LAYOUT
350
1A
  3
ACAD_MLINESTYLE
350
17
  3
ACAD_PLOTSETTINGS
350
19
  3
ACAD_PLOTSTYLENAME
350
E
  3
ACAD_SCALELIST
350
47
  3
APPDATA
350
13A
  3
DWGPROPS
350
2B8
  0
DICTIONARY
  5
2A6
330
2A5
100
AcDbDictionary
280
     1
281
     1
  0
DICTIONARY
  5
D
102
{ACAD_REACTORS
330
C
102
}
330
C
100
AcDbDictionary
281
     1
  0
RASTERVARIABLES
  5
13C
102
{ACAD_REACTORS
330
C
102
}
330
C
100
AcDbRasterVariables
 90
        0
 70
     1
 71
     1
 72
     1
  0
DICTIONARY
  5
1A
102
{ACAD_REACTORS
330
C
102
}
330
C
100
AcDbDictionary
281
     1
  3
Layout1
350
1E
  3
Layout2
350
26
  3
Model
350
22
  0
DICTIONARY
  5
17
102
{ACAD_REACTORS
330
C
102
}
330
C
100
AcDbDictionary
281
     1
  3
Standard
350
18
  0
DICTIONARY
  5
19
102
{ACAD_REACTORS
330
C
102
}
330
C
100
AcDbDictionary
281
     1
  0
ACDBDICTIONARYWDFLT
  5
E
102
{ACAD_REACTORS
330
C
102
}
330
C
100
AcDbDictionary
281
     1
  3
Normal
350
F
100
AcDbDictionaryWithDefault
340
F
  0
DICTIONARY
  5
47
102
{ACAD_REACTORS
330
C
102
}
330
C
100
AcDbDictionary
281
     1
  3
A0
350
48
  3
A1
350
49
  3
A2
350
4A
  3
A3
350
4B
  3
A4
350
4C
  3
A5
350
4D
  3
A6
350
4E
  3
A7
350
4F
  3
A8
350
50
  3
A9
350
51
  3
B0
350
52
  3
B1
350
53
  3
B2
350
54
  3
B3
350
55
  3
B4
350
56
  3
B5
350
57
  3
B6
350
58
  3
B7
350
59
  3
B8
350
5A
  3
B9
350
5B
  3
C0
350
5C
  3
C1
350
5D
  3
C2
350
5E
  3
C3
350
5F
  3
C4
350
60
  3
C5
350
61
  3
C6
350
62
  3
C7
350
63
  3
C8
350
64
  3
C9
350
65
  3
D0
350
66
  3
D1
350
67
  3
D2
350
68
  0
DICTIONARY
  5
13A
102
{ACAD_REACTORS
330
C
102
}
330
C
100
AcDbDictionary
281
     1
  0
XRECORD
  5
2B8
102
{ACAD_REACTORS
330
C
102
}
330
C
100
AcDbXrecord
280
     1
  1
DWGPROPS COOKIE
  2

  3

  4

  6

  7

  8
12016016
  9

300
=
301
=
302
=
303
=
304
=
305
=
306
=
307
=
308
=
309
=
 40
0.0
 41
2458269.423679085
 42
2458272.033625046
  1

 90
        0
  0
LAYOUT
  5
1E
102
{ACAD_REACTORS
330
1A
102
}
330
1A
100
AcDbPlotSettings
  1

  2
none_device
  4

  6

 40
0.0
 41
0.0
 42
0.0
 43
0.0
 44
0.0
 45
0.0
 46
0.0
 47
0.0
 48
0.0
 49
0.0
140
0.0
141
0.0
142
1.0
143
1.0
 70
   688
 72
     1
 73
     0
 74
     5
  7

 75
    16
147
1.0
148
0.0
149
0.0
100
AcDbLayout
  1
Layout1
 70
     1
 71
     1
 10
0.0
 20
0.0
 11
420.0
 21
297.0
 12
0.0
 22
0.0
 32
0.0
 14
1.000000000000000E+20
 24
1.000000000000000E+20
 34
1.000000000000000E+20
 15
-1.000000000000000E+20
 25
-1.000000000000000E+20
 35
-1.000000000000000E+20
146
0.0
 13
0.0
 23
0.0
 33
0.0
 16
1.0
 26
0.0
 36
0.0
 17
0.0
 27
1.0
 37
0.0
 76
     0
330
1B
  0
LAYOUT
  5
26
102
{ACAD_REACTORS
330
1A
102
}
330
1A
100
AcDbPlotSettings
  1

  2
none_device
  4

  6

 40
0.0
 41
0.0
 42
0.0
 43
0.0
 44
0.0
 45
0.0
 46
0.0
 47
0.0
 48
0.0
 49
0.0
140
0.0
141
0.0
142
1.0
143
1.0
 70
   688
 72
     1
 73
     0
 74
     5
  7

 75
    16
147
1.0
148
0.0
149
0.0
100
AcDbLayout
  1
Layout2
 70
     1
 71
     2
 10
0.0
 20
0.0
 11
0.0
 21
0.0
 12
0.0
 22
0.0
 32
0.0
 14
0.0
 24
0.0
 34
0.0
 15
0.0
 25
0.0
 35
0.0
146
0.0
 13
0.0
 23
0.0
 33
0.0
 16
1.0
 26
0.0
 36
0.0
 17
0.0
 27
1.0
 37
0.0
 76
     0
330
23
  0
LAYOUT
  5
22
102
{ACAD_REACTORS
330
1A
102
}
330
1A
100
AcDbPlotSettings
  1

  2
none_device
  4
ANSI_A_(11.00_x_8.50_Inches)
  6

 40
6.35
 41
19.05
 42
6.35000508
 43
19.05000254
 44
279.4
 45
215.9
 46
111.6855150645388
 47
109.8496413322922
 48
0.0
 49
0.0
140
0.0
141
0.0
142
0.0789824718862547
143
1.0
 70
  1696
 72
     0
 73
     0
 74
     0
  7

 75
     0
147
0.0235690232323232
148
0.0
149
0.0
100
AcDbLayout
  1
Model
 70
     1
 71
     0
 10
0.0
 20
0.0
 11
420.0
 21
297.0
 12
0.0
 22
0.0
 32
0.0
 14
1.000000000000000E+20
 24
1.000000000000000E+20
 34
1.000000000000000E+20
 15
-1.000000000000000E+20
 25
-1.000000000000000E+20
 35
-1.000000000000000E+20
146
0.0
 13
0.0
 23
0.0
 33
0.0
 16
1.0
 26
0.0
 36
0.0
 17
0.0
 27
1.0
 37
0.0
 76
     0
330
1F
331
29
  0
MLINESTYLE
  5
18
102
{ACAD_REACTORS
330
17
102
}
330
17
100
AcDbMlineStyle
  2
Standard
 70
     0
  3

 62
   256
 51
90.0
 52
90.0
 71
     2
 49
0.5
 62
   256
  6
BYLAYER
 49
-0.5
 62
   256
  6
BYLAYER
  0
ACDBPLACEHOLDER
  5
F
102
{ACAD_REACTORS
330
E
102
}
330
E
  0
SCALE
  5
48
102
{ACAD_REACTORS
330
47
102
}
330
47
100
AcDbScale
 70
     0
300
1:1
140
1.0
141
1.0
290
     1
  0
SCALE
  5
49
102
{ACAD_REACTORS
330
47
102
}
330
47
100
AcDbScale
 70
     0
300
1:2
140
1.0
141
2.0
290
     0
  0
SCALE
  5
4A
102
{ACAD_REACTORS
330
47
102
}
330
47
100
AcDbScale
 70
     0
300
1:4
140
1.0
141
4.0
290
     0
  0
SCALE
  5
4B
102
{ACAD_REACTORS
330
47
102
}
330
47
100
AcDbScale
 70
     0
300
1:5
140
1.0
141
5.0
290
     0
  0
SCALE
  5
4C
102
{ACAD_REACTORS
330
47
102
}
330
47
100
AcDbScale
 70
     0
300
1:8
140
1.0
141
8.0
290
     0
  0
SCALE
  5
4D
102
{ACAD_REACTORS
330
47
102
}
330
47
100
AcDbScale
 70
     0
300
1:10
140
1.0
141
10.0
290
     0
  0
SCALE
  5
4E
102
{ACAD_REACTORS
330
47
102
}
330
47
100
AcDbScale
 70
     0
300
1:16
140
1.0
141
16.0
290
     0
  0
SCALE
  5
4F
102
{ACAD_REACTORS
330
47
102
}
330
47
100
AcDbScale
 70
     0
300
1:20
140
1.0
141
20.0
290
     0
  0
SCALE
  5
50
102
{ACAD_REACTORS
330
47
102
}
330
47
100
AcDbScale
 70
     0
300
1:30
140
1.0
141
30.0
290
     0
  0
SCALE
  5
51
102
{ACAD_REACTORS
330
47
102
}
330
47
100
AcDbScale
 70
     0
300
1:40
140
1.0
141
40.0
290
     0
  0
SCALE
  5
52
102
{ACAD_REACTORS
330
47
102
}
330
47
100
AcDbScale
 70
     0
300
1:50
140
1.0
141
50.0
290
     0
  0
SCALE
  5
53
102
{ACAD_REACTORS
330
47
102
}
330
47
100
AcDbScale
 70
     0
300
1:100
140
1.0
141
100.0
290
     0
  0
SCALE
  5
54
102
{ACAD_REACTORS
330
47
102
}
330
47
100
AcDbScale
 70
     0
300
2:1
140
2.0
141
1.0
290
     0
  0
SCALE
  5
55
102
{ACAD_REACTORS
330
47
102
}
330
47
100
AcDbScale
 70
     0
300
4:1
140
4.0
141
1.0
290
     0
  0
SCALE
  5
56
102
{ACAD_REACTORS
330
47
102
}
330
47
100
AcDbScale
 70
     0
300
8:1
140
8.0
141
1.0
290
     0
  0
SCALE
  5
57
102
{ACAD_REACTORS
330
47
102
}
330
47
100
AcDbScale
 70
     0
300
10:1
140
10.0
141
1.0
290
     0
  0
SCALE
  5
58
102
{ACAD_REACTORS
330
47
102
}
330
47
100
AcDbScale
 70
     0
300
100:1
140
100.0
141
1.0
290
     0
  0
SCALE
  5
59
102
{ACAD_REACTORS
330
47
102
}
330
47
100
AcDbScale
 70
     0
300
1/128" = 1'-0"
140
0.0078125
141
12.0
290
     0
  0
SCALE
  5
5A
102
{ACAD_REACTORS
330
47
102
}
330
47
100
AcDbScale
 70
     0
300
1/64" = 1'-0"
140
0.015625
141
12.0
290
     0
  0
SCALE
  5
5B
102
{ACAD_REACTORS
330
47
102
}
330
47
100
AcDbScale
 70
     0
300
1/32" = 1'-0"
140
0.03125
141
12.0
290
     0
  0
SCALE
  5
5C
102
{ACAD_REACTORS
330
47
102
}
330
47
100
AcDbScale
 70
     0
300
1/16" = 1'-0"
140
0.0625
141
12.0
290
     0
  0
SCALE
  5
5D
102
{ACAD_REACTORS
330
47
102
}
330
47
100
AcDbScale
 70
     0
300
3/32" = 1'-0"
140
0.09375
141
12.0
290
     0
  0
SCALE
  5
5E
102
{ACAD_REACTORS
330
47
102
}
330
47
100
AcDbScale
 70
     0
300
1/8" = 1'-0"
140
0.125
141
12.0
290
     0
  0
SCALE
  5
5F
102
{ACAD_REACTORS
330
47
102
}
330
47
100
AcDbScale
 70
     0
300
3/16" = 1'-0"
140
0.1875
141
12.0
290
     0
  0
SCALE
  5
60
102
{ACAD_REACTORS
330
47
102
}
330
47
100
AcDbScale
 70
     0
300
1/4" = 1'-0"
140
0.25
141
12.0
290
     0
  0
SCALE
  5
61
102
{ACAD_REACTORS
330
47
102
}
330
47
100
AcDbScale
 70
     0
300
3/8" = 1'-0"
140
0.375
141
12.0
290
     0
  0
SCALE
  5
62
102
{ACAD_REACTORS
330
47
102
}
330
47
100
AcDbScale
 70
     0
300
1/2" = 1'-0"
140
0.5
141
12.0
290
     0
  0
SCALE
  5
63
102
{ACAD_REACTORS
330
47
102
}
330
47
100
AcDbScale
 70
     0
300
3/4" = 1'-0"
140
0.75
141
12.0
290
     0
  0
SCALE
  5
64
102
{ACAD_REACTORS
330
47
102
}
330
47
100
AcDbScale
 70
     0
300
1" = 1'-0"
140
1.0
141
12.0
290
     0
  0
SCALE
  5
65
102
{ACAD_REACTORS
330
47
102
}
330
47
100
AcDbScale
 70
     0
300
1-1/2" = 1'-0"
140
1.5
141
12.0
290
     0
  0
SCALE
  5
66
102
{ACAD_REACTORS
330
47
102
}
330
47
100
AcDbScale
 70
     0
300
3" = 1'-0"
140
3.0
141
12.0
290
     0
  0
SCALE
  5
67
102
{ACAD_REACTORS
330
47
102
}
330
47
100
AcDbScale
 70
     0
300
6" = 1'-0"
140
6.0
141
12.0
290
     0
  0
SCALE
  5
68
102
{ACAD_REACTORS
330
47
102
}
330
47
100
AcDbScale
 70
     0
300
1'-0" = 1'-0"
140
12.0
141
12.0
290
     0
  0
ENDSEC
  0
EOF
