  0
SECTION
  2
HEADER
  9
$ACADVER
  1
AC1015
  9
$ACADMAINTVER
 70
     6
  9
$DWGCODEPAGE
  3
ANSI_949
  9
$INSBASE
 10
0.0
 20
0.0
 30
0.0
  9
$EXTMIN
 10
-46.54509174711512
 20
-49.97073246008785
 30
0.0
  9
$EXTMAX
 10
85.34339206823053
 20
22.3760749287239
 30
0.0
  9
$LIMMIN
 10
0.0
 20
0.0
  9
$LIMMAX
 10
420.0
 20
297.0
  9
$ORTHOMODE
 70
     1
  9
$REGENMODE
 70
     1
  9
$FILLMODE
 70
     1
  9
$QTEXTMODE
 70
     0
  9
$MIRRTEXT
 70
     1
  9
$LTSCALE
 40
1.0
  9
$ATTMODE
 70
     1
  9
$TEXTSIZE
 40
3.5
  9
$TRACEWID
 40
1.0
  9
$TEXTSTYLE
  7
Standard
  9
$CLAYER
  8
0
  9
$CELTYPE
  6
ByLayer
  9
$CECOLOR
 62
   256
  9
$CELTSCALE
 40
1.0
  9
$DISPSILH
 70
     0
  9
$DIMSCALE
 40
1.0
  9
$DIMASZ
 40
3.302
  9
$DIMEXO
 40
1.0
  9
$DIMDLI
 40
3.75
  9
$DIMRND
 40
0.0
  9
$DIMDLE
 40
0.0
  9
$DIMEXE
 40
1.0
  9
$DIMTP
 40
0.0
  9
$DIMTM
 40
0.0
  9
$DIMTXT
 40
3.5
  9
$DIMCEN
 40
2.5
  9
$DIMTSZ
 40
0.0
  9
$DIMTOL
 70
     0
  9
$DIMLIM
 70
     0
  9
$DIMTIH
 70
     1
  9
$DIMTOH
 70
     1
  9
$DIMSE1
 70
     0
  9
$DIMSE2
 70
     0
  9
$DIMTAD
 70
     1
  9
$DIMZIN
 70
     0
  9
$DIMBLK
  1

  9
$DIMASO
 70
     1
  9
$DIMSHO
 70
     1
  9
$DIMPOST
  1

  9
$DIMAPOST
  1

  9
$DIMALT
 70
     0
  9
$DIMALTD
 70
     3
  9
$DIMALTF
 40
0.0393700787401575
  9
$DIMLFAC
 40
1.0
  9
$DIMTOFL
 70
     1
  9
$DIMTVP
 40
0.0
  9
$DIMTIX
 70
     0
  9
$DIMSOXD
 70
     0
  9
$DIMSAH
 70
     0
  9
$DIMBLK1
  1

  9
$DIMBLK2
  1

  9
$DIMSTYLE
  2
ISO-25
  9
$DIMCLRD
 70
     0
  9
$DIMCLRE
 70
     0
  9
$DIMCLRT
 70
     0
  9
$DIMTFAC
 40
1.0
  9
$DIMGAP
 40
1.524
  9
$DIMJUST
 70
     0
  9
$DIMSD1
 70
     0
  9
$DIMSD2
 70
     0
  9
$DIMTOLJ
 70
     0
  9
$DIMTZIN
 70
     0
  9
$DIMALTZ
 70
     0
  9
$DIMALTTZ
 70
     0
  9
$DIMUPT
 70
     0
  9
$DIMDEC
 70
     2
  9
$DIMTDEC
 70
     2
  9
$DIMALTU
 70
     2
  9
$DIMALTTD
 70
     3
  9
$DIMTXSTY
  7
Standard
  9
$DIMAUNIT
 70
     0
  9
$DIMADEC
 70
     2
  9
$DIMALTRND
 40
0.0
  9
$DIMAZIN
 70
     0
  9
$DIMDSEP
 70
    44
  9
$DIMATFIT
 70
     3
  9
$DIMFRAC
 70
     0
  9
$DIMLDRBLK
  1

  9
$DIMLUNIT
 70
     2
  9
$DIMLWD
 70
    -2
  9
$DIMLWE
 70
    -2
  9
$DIMTMOVE
 70
     0
  9
$LUNITS
 70
     2
  9
$LUPREC
 70
     2
  9
$SKETCHINC
 40
1.0
  9
$FILLETRAD
 40
10.0
  9
$AUNITS
 70
     0
  9
$AUPREC
 70
     2
  9
$MENU
  1
.
  9
$ELEVATION
 40
0.0
  9
$PELEVATION
 40
0.0
  9
$THICKNESS
 40
0.0
  9
$LIMCHECK
 70
     0
  9
$CHAMFERA
 40
0.0
  9
$CHAMFERB
 40
0.0
  9
$CHAMFERC
 40
0.0
  9
$CHAMFERD
 40
0.0
  9
$SKPOLY
 70
     0
  9
$TDCREATE
 40
2458270.799653935
  9
$TDUCREATE
 40
2458270.424653935
  9
$TDUPDATE
 40
2458271.775331968
  9
$TDUUPDATE
 40
2458271.400331968
  9
$TDINDWG
 40
0.002691169
  9
$TDUSRTIMER
 40
0.0026911574
  9
$USRTIMER
 70
     1
  9
$ANGBASE
 50
0.0
  9
$ANGDIR
 70
     0
  9
$PDMODE
 70
     0
  9
$PDSIZE
 40
-1.0
  9
$PLINEWID
 40
0.0
  9
$SPLFRAME
 70
     0
  9
$SPLINETYPE
 70
     6
  9
$SPLINESEGS
 70
     8
  9
$HANDSEED
  5
206
  9
$SURFTAB1
 70
     6
  9
$SURFTAB2
 70
     6
  9
$SURFTYPE
 70
     6
  9
$SURFU
 70
     6
  9
$SURFV
 70
     6
  9
$UCSBASE
  2

  9
$UCSNAME
  2

  9
$UCSORG
 10
0.0
 20
0.0
 30
0.0
  9
$UCSXDIR
 10
1.0
 20
0.0
 30
0.0
  9
$UCSYDIR
 10
0.0
 20
1.0
 30
0.0
  9
$UCSORTHOREF
  2

  9
$UCSORTHOVIEW
 70
     0
  9
$UCSORGTOP
 10
0.0
 20
0.0
 30
0.0
  9
$UCSORGBOTTOM
 10
0.0
 20
0.0
 30
0.0
  9
$UCSORGLEFT
 10
0.0
 20
0.0
 30
0.0
  9
$UCSORGRIGHT
 10
0.0
 20
0.0
 30
0.0
  9
$UCSORGFRONT
 10
0.0
 20
0.0
 30
0.0
  9
$UCSORGBACK
 10
0.0
 20
0.0
 30
0.0
  9
$PUCSBASE
  2

  9
$PUCSNAME
  2

  9
$PUCSORG
 10
0.0
 20
0.0
 30
0.0
  9
$PUCSXDIR
 10
1.0
 20
0.0
 30
0.0
  9
$PUCSYDIR
 10
0.0
 20
1.0
 30
0.0
  9
$PUCSORTHOREF
  2

  9
$PUCSORTHOVIEW
 70
     0
  9
$PUCSORGTOP
 10
0.0
 20
0.0
 30
0.0
  9
$PUCSORGBOTTOM
 10
0.0
 20
0.0
 30
0.0
  9
$PUCSORGLEFT
 10
0.0
 20
0.0
 30
0.0
  9
$PUCSORGRIGHT
 10
0.0
 20
0.0
 30
0.0
  9
$PUCSORGFRONT
 10
0.0
 20
0.0
 30
0.0
  9
$PUCSORGBACK
 10
0.0
 20
0.0
 30
0.0
  9
$USERI1
 70
     0
  9
$USERI2
 70
     0
  9
$USERI3
 70
     0
  9
$USERI4
 70
     0
  9
$USERI5
 70
     0
  9
$USERR1
 40
0.0
  9
$USERR2
 40
0.0
  9
$USERR3
 40
0.0
  9
$USERR4
 40
0.0
  9
$USERR5
 40
0.0
  9
$WORLDVIEW
 70
     1
  9
$SHADEDGE
 70
     3
  9
$SHADEDIF
 70
    70
  9
$TILEMODE
 70
     1
  9
$MAXACTVP
 70
    64
  9
$PINSBASE
 10
0.0
 20
0.0
 30
0.0
  9
$PLIMCHECK
 70
     0
  9
$PEXTMIN
 10
1.000000000000000E+20
 20
1.000000000000000E+20
 30
1.000000000000000E+20
  9
$PEXTMAX
 10
-1.000000000000000E+20
 20
-1.000000000000000E+20
 30
-1.000000000000000E+20
  9
$PLIMMIN
 10
0.0
 20
0.0
  9
$PLIMMAX
 10
0.0
 20
0.0
  9
$UNITMODE
 70
     0
  9
$VISRETAIN
 70
     1
  9
$PLINEGEN
 70
     0
  9
$PSLTSCALE
 70
     1
  9
$TREEDEPTH
 70
  3020
  9
$CMLSTYLE
  2
Standard
  9
$CMLJUST
 70
     0
  9
$CMLSCALE
 40
20.0
  9
$PROXYGRAPHICS
 70
     1
  9
$MEASUREMENT
 70
     1
  9
$CELWEIGHT
370
    -1
  9
$ENDCAPS
280
     0
  9
$JOINSTYLE
280
     0
  9
$LWDISPLAY
290
     1
  9
$INSUNITS
 70
     4
  9
$HYPERLINKBASE
  1

  9
$STYLESHEET
  1

  9
$XEDIT
290
     1
  9
$CEPSNTYPE
380
     0
  9
$PSTYLEMODE
290
     1
  9
$FINGERPRINTGUID
  2
{41D58B69-B44C-497C-B870-9EBBE0EDD00B}
  9
$VERSIONGUID
  2
{FAEB1C32-E019-11D5-929B-00C0DF256EC4}
  9
$EXTNAMES
290
     1
  9
$PSVPSCALE
 40
0.0
  9
$OLESTARTUP
290
     0
  0
ENDSEC
  0
SECTION
  2
CLASSES
  0
CLASS
  1
ACDBDICTIONARYWDFLT
  2
AcDbDictionaryWithDefault
  3
ObjectDBX Classes
 90
        0
280
     0
281
     0
  0
CLASS
  1
VISUALSTYLE
  2
AcDbVisualStyle
  3
ObjectDBX Classes
 90
     4095
280
     0
281
     0
  0
CLASS
  1
MATERIAL
  2
AcDbMaterial
  3
ObjectDBX Classes
 90
     1153
280
     0
281
     0
  0
CLASS
  1
SCALE
  2
AcDbScale
  3
ObjectDBX Classes
 90
     1153
280
     0
281
     0
  0
CLASS
  1
SUN
  2
AcDbSun
  3
SCENEOE
 90
     1153
280
     0
281
     0
  0
CLASS
  1
ACDBPLACEHOLDER
  2
AcDbPlaceHolder
  3
ObjectDBX Classes
 90
        0
280
     0
281
     0
  0
CLASS
  1
LAYOUT
  2
AcDbLayout
  3
ObjectDBX Classes
 90
        0
280
     0
281
     0
  0
CLASS
  1
TABLESTYLE
  2
AcDbTableStyle
  3
ObjectDBX Classes
 90
     4095
280
     0
281
     0
  0
CLASS
  1
MLEADERSTYLE
  2
AcDbMLeaderStyle
  3
ACDB_MLEADERSTYLE_CLASS
 90
     4095
280
     0
281
     0
  0
CLASS
  1
DICTIONARYVAR
  2
AcDbDictionaryVar
  3
ObjectDBX Classes
 90
        0
280
     0
281
     0
  0
CLASS
  1
DIMASSOC
  2
AcDbDimAssoc
  3
"AcDbDimAssoc|Product Desc:     AcDim ARX App For Dimension|Company:          Autodesk, Inc.|WEB Address:      www.autodesk.com"
 90
        0
280
     0
281
     0
  0
ENDSEC
  0
SECTION
  2
TABLES
  0
TABLE
  2
VPORT
  5
8
330
0
100
AcDbSymbolTable
 70
     1
  0
VPORT
  5
29
330
8
100
AcDbSymbolTableRecord
100
AcDbViewportTableRecord
  2
*Active
 70
     0
 10
0.0
 20
0.0
 11
1.0
 21
1.0
 12
19.3991501605577
 22
-13.79732876568197
 13
0.0
 23
0.0
 14
10.0
 24
10.0
 15
10.0
 25
10.0
 16
0.0
 26
0.0
 36
1.0
 17
0.0
 27
0.0
 37
0.0
 40
73.793743536588
 41
2.05607476635514
 42
50.0
 43
0.0
 44
0.0
 50
0.0
 51
0.0
 71
    16
 72
  2000
 73
     1
 74
     3
 75
     0
 76
     0
 77
     0
 78
     0
281
     0
 65
     1
110
0.0
120
0.0
130
0.0
111
1.0
121
0.0
131
0.0
112
0.0
122
1.0
132
0.0
 79
     0
146
0.0
  0
ENDTAB
  0
TABLE
  2
LTYPE
  5
5
330
0
100
AcDbSymbolTable
 70
     6
  0
LTYPE
  5
14
330
5
100
AcDbSymbolTableRecord
100
AcDbLinetypeTableRecord
  2
ByBlock
 70
     0
  3

 72
    65
 73
     0
 40
0.0
  0
LTYPE
  5
15
330
5
100
AcDbSymbolTableRecord
100
AcDbLinetypeTableRecord
  2
ByLayer
 70
     0
  3

 72
    65
 73
     0
 40
0.0
  0
LTYPE
  5
16
330
5
100
AcDbSymbolTableRecord
100
AcDbLinetypeTableRecord
  2
Continuous
 70
     0
  3
Solid line
 72
    65
 73
     0
 40
0.0
  0
LTYPE
  5
6A
330
5
100
AcDbSymbolTableRecord
100
AcDbLinetypeTableRecord
  2
HIDDEN
 70
     0
  3
Hidden __ __ __ __ __ __ __ __ __ __ __ __ __ __
 72
    65
 73
     2
 40
1.905
 49
1.27
 74
     0
 49
-0.635
 74
     0
  0
LTYPE
  5
6B
330
5
100
AcDbSymbolTableRecord
100
AcDbLinetypeTableRecord
  2
PHANTOM
 70
     0
  3
Phantom ______  __  __  ______  __  __  ______
 72
    65
 73
     6
 40
12.7
 49
6.35
 74
     0
 49
-1.27
 74
     0
 49
1.27
 74
     0
 49
-1.27
 74
     0
 49
1.27
 74
     0
 49
-1.27
 74
     0
  0
LTYPE
  5
6C
330
5
100
AcDbSymbolTableRecord
100
AcDbLinetypeTableRecord
  2
CENTER
 70
     0
  3
Center ____ _ ____ _ ____ _ ____ _ ____ _ ____
 72
    65
 73
     4
 40
10.16
 49
6.35
 74
     0
 49
-1.27
 74
     0
 49
1.27
 74
     0
 49
-1.27
 74
     0
  0
LTYPE
  5
6D
330
5
100
AcDbSymbolTableRecord
100
AcDbLinetypeTableRecord
  2
CENTERX2
 70
     0
  3
Center (2x) ________  __  ________  __  _____
 72
    65
 73
     4
 40
20.32
 49
12.7
 74
     0
 49
-2.54
 74
     0
 49
2.54
 74
     0
 49
-2.54
 74
     0
  0
LTYPE
  5
6E
330
5
100
AcDbSymbolTableRecord
100
AcDbLinetypeTableRecord
  2
DOT2
 70
     0
  3
Dot (.5x) ........................................
 72
    65
 73
     2
 40
0.635
 49
0.0
 74
     0
 49
-0.635
 74
     0
  0
ENDTAB
  0
TABLE
  2
LAYER
  5
2
330
0
100
AcDbSymbolTable
 70
    18
  0
LAYER
  5
10
330
2
100
AcDbSymbolTableRecord
100
AcDbLayerTableRecord
  2
0
 70
     0
 62
     7
  6
Continuous
370
    -3
390
F
  0
LAYER
  5
6F
330
2
100
AcDbSymbolTableRecord
100
AcDbLayerTableRecord
  2
FORMAT
 70
     0
 62
     2
  6
Continuous
370
    -3
390
F
  0
LAYER
  5
70
330
2
100
AcDbSymbolTableRecord
100
AcDbLayerTableRecord
  2
외형선
 70
     0
 62
     4
  6
Continuous
370
    30
390
F
  0
LAYER
  5
71
330
2
100
AcDbSymbolTableRecord
100
AcDbLayerTableRecord
  2
숨은선
 70
     0
 62
     2
  6
HIDDEN
370
    15
390
F
  0
LAYER
  5
72
330
2
100
AcDbSymbolTableRecord
100
AcDbLayerTableRecord
  2
중심선
 70
     0
 62
     1
  6
CENTERX2
370
    -3
390
F
  0
LAYER
  5
73
330
2
100
AcDbSymbolTableRecord
100
AcDbLayerTableRecord
  2
파단선
 70
     0
 62
     4
  6
Continuous
370
    -3
390
F
  0
LAYER
  5
74
330
2
100
AcDbSymbolTableRecord
100
AcDbLayerTableRecord
  2
해칭선
 70
     0
 62
   100
  6
Continuous
370
    -3
390
F
  0
LAYER
  5
75
330
2
100
AcDbSymbolTableRecord
100
AcDbLayerTableRecord
  2
가는실선
 70
     0
 62
     4
  6
Continuous
370
    -3
390
F
  0
LAYER
  5
76
330
2
100
AcDbSymbolTableRecord
100
AcDbLayerTableRecord
  2
치수_보조선
 70
     0
 62
     4
  6
Continuous
370
    -3
390
F
  0
LAYER
  5
77
330
2
100
AcDbSymbolTableRecord
100
AcDbLayerTableRecord
  2
치수문자_일반주서
 70
     0
 62
     7
  6
Continuous
370
    15
390
F
  0
LAYER
  5
78
330
2
100
AcDbSymbolTableRecord
100
AcDbLayerTableRecord
  2
개별주서
 70
     0
 62
   100
  6
Continuous
370
    30
390
F
  0
LAYER
  5
79
330
2
100
AcDbSymbolTableRecord
100
AcDbLayerTableRecord
  2
중간선
 70
     0
 62
     2
  6
Continuous
370
    15
390
F
  0
LAYER
  5
7A
330
2
100
AcDbSymbolTableRecord
100
AcDbLayerTableRecord
  2
윤곽선
 70
     0
 62
     3
  6
Continuous
370
    40
390
F
  0
LAYER
  5
7B
330
2
100
AcDbSymbolTableRecord
100
AcDbLayerTableRecord
  2
중심마크
 70
     0
 62
   100
  6
Continuous
370
    30
390
F
  0
LAYER
  5
7C
330
2
100
AcDbSymbolTableRecord
100
AcDbLayerTableRecord
  2
가상선
 70
     0
 62
     4
  6
PHANTOM
370
    -3
390
F
  0
LAYER
  5
7D
330
2
100
AcDbSymbolTableRecord
100
AcDbLayerTableRecord
  2
특수지정선
 70
     0
 62
     5
  6
CENTERX2
370
    60
390
F
  0
LAYER
  5
7E
330
2
100
AcDbSymbolTableRecord
100
AcDbLayerTableRecord
  2
참조1
 70
     0
 62
    -4
  6
Continuous
370
    -3
390
F
  0
LAYER
  5
13D
330
2
100
AcDbSymbolTableRecord
100
AcDbLayerTableRecord
  2
Defpoints
 70
     0
 62
     7
  6
Continuous
290
     0
370
    -3
390
F
  0
ENDTAB
  0
TABLE
  2
STYLE
  5
3
330
0
100
AcDbSymbolTable
 70
     2
  0
STYLE
  5
11
330
3
100
AcDbSymbolTableRecord
100
AcDbTextStyleTableRecord
  2
Standard
 70
     0
 40
0.0
 41
1.0
 50
0.0
 71
     0
 42
3.5
  3
txt
  4

  0
STYLE
  5
94
330
3
100
AcDbSymbolTableRecord
100
AcDbTextStyleTableRecord
  2
SLDTEXTSTYLE0
 70
     0
 40
0.0
 41
0.75
 50
0.0
 71
     0
 42
3.5
  3
TXT
  4

  0
ENDTAB
  0
TABLE
  2
VIEW
  5
6
330
0
100
AcDbSymbolTable
 70
     0
  0
ENDTAB
  0
TABLE
  2
UCS
  5
7
330
0
100
AcDbSymbolTable
 70
     0
  0
ENDTAB
  0
TABLE
  2
APPID
  5
9
330
0
100
AcDbSymbolTable
 70
     3
  0
APPID
  5
12
330
9
100
AcDbSymbolTableRecord
100
AcDbRegAppTableRecord
  2
ACAD
 70
     0
  0
APPID
  5
144
330
9
100
AcDbSymbolTableRecord
100
AcDbRegAppTableRecord
  2
PE_URL
 70
     0
  0
APPID
  5
145
330
9
100
AcDbSymbolTableRecord
100
AcDbRegAppTableRecord
  2
ACAD_DSTYLE_DIMRADIAL_EXTENSION
 70
     0
  0
ENDTAB
  0
TABLE
  2
DIMSTYLE
  5
A
330
0
100
AcDbSymbolTable
 70
     4
100
AcDbDimStyleTable
  0
DIMSTYLE
105
27
330
A
100
AcDbSymbolTableRecord
100
AcDbDimStyleTableRecord
  2
ISO-25
 70
     0
 41
2.5
 42
0.625
 43
3.75
 44
1.25
 73
     0
 74
     0
 77
     1
 78
     8
140
2.5
141
2.5
143
0.03937007874016
147
0.625
171
     3
172
     1
178
     0
271
     2
272
     2
274
     3
278
    44
283
     0
284
     8
340
11
  0
DIMSTYLE
105
DA
102
{ACAD_REACTORS
330
D9
330
164
330
174
330
17E
330
FF
330
F4
330
E6
330
1F8
102
}
330
A
100
AcDbSymbolTableRecord
100
AcDbDimStyleTableRecord
  2
SLDDIMSTYLE0
 70
     0
 41
3.302
 44
0.0
 45
0.000000001
 73
     0
 74
     0
 77
     1
 78
     4
 79
     1
140
3.5
147
0.875
172
     1
173
     1
178
     0
271
     2
272
     2
276
     2
284
    12
289
     0
340
94
  0
DIMSTYLE
105
E7
330
A
100
AcDbSymbolTableRecord
100
AcDbDimStyleTableRecord
  2
SLDDIMSTYLE1
 70
     0
 41
3.302
 44
0.0
 45
0.000000001
 73
     0
 74
     0
 77
     1
 78
    12
 79
     3
140
3.5
147
0.875
172
     1
173
     1
178
     0
271
     2
272
     2
276
     2
284
    12
289
     0
340
94
  0
DIMSTYLE
105
F5
330
A
100
AcDbSymbolTableRecord
100
AcDbDimStyleTableRecord
  2
SLDDIMSTYLE2
 70
     0
 41
3.302
 44
0.0
 45
0.000000001
 73
     0
 74
     0
 77
     1
 78
    12
 79
     3
140
3.5
147
0.875
173
     1
178
     0
271
     2
272
     2
276
     2
284
    12
340
94
  0
ENDTAB
  0
TABLE
  2
BLOCK_RECORD
  5
1
330
0
100
AcDbSymbolTable
 70
    15
  0
BLOCK_RECORD
  5
1F
330
1
100
AcDbSymbolTableRecord
100
AcDbBlockTableRecord
  2
*Model_Space
340
22
  0
BLOCK_RECORD
  5
1B
330
1
100
AcDbSymbolTableRecord
100
AcDbBlockTableRecord
  2
*Paper_Space
340
1E
  0
BLOCK_RECORD
  5
23
330
1
100
AcDbSymbolTableRecord
100
AcDbBlockTableRecord
  2
*Paper_Space0
340
26
  0
BLOCK_RECORD
  5
7F
330
1
100
AcDbSymbolTableRecord
100
AcDbBlockTableRecord
  2
블럭10
340
0
102
{BLKREFS
331
D0
102
}
  0
BLOCK_RECORD
  5
DB
330
1
100
AcDbSymbolTableRecord
100
AcDbBlockTableRecord
  2
_D
340
0
  0
BLOCK_RECORD
  5
E8
330
1
100
AcDbSymbolTableRecord
100
AcDbBlockTableRecord
  2
_D_1
340
0
  0
BLOCK_RECORD
  5
F6
330
1
100
AcDbSymbolTableRecord
100
AcDbBlockTableRecord
  2
_D_2
340
0
  0
BLOCK_RECORD
  5
100
330
1
100
AcDbSymbolTableRecord
100
AcDbBlockTableRecord
  2
_D_3
340
0
  0
BLOCK_RECORD
  5
113
330
1
100
AcDbSymbolTableRecord
100
AcDbBlockTableRecord
  2
SW_DOWELSYMBOL_0
340
0
102
{BLKREFS
331
119
102
}
  0
BLOCK_RECORD
  5
175
330
1
100
AcDbSymbolTableRecord
100
AcDbBlockTableRecord
  2
*D8
340
0
  0
BLOCK_RECORD
  5
190
330
1
100
AcDbSymbolTableRecord
100
AcDbBlockTableRecord
  2
*D9
340
0
  0
BLOCK_RECORD
  5
19F
330
1
100
AcDbSymbolTableRecord
100
AcDbBlockTableRecord
  2
*D10
340
0
  0
BLOCK_RECORD
  5
1B2
330
1
100
AcDbSymbolTableRecord
100
AcDbBlockTableRecord
  2
*D11
340
0
  0
BLOCK_RECORD
  5
1C1
330
1
100
AcDbSymbolTableRecord
100
AcDbBlockTableRecord
  2
*D12
340
0
  0
BLOCK_RECORD
  5
1CA
330
1
100
AcDbSymbolTableRecord
100
AcDbBlockTableRecord
  2
*D13
340
0
  0
BLOCK_RECORD
  5
1FB
330
1
100
AcDbSymbolTableRecord
100
AcDbBlockTableRecord
  2
*D14
340
0
  0
ENDTAB
  0
ENDSEC
  0
SECTION
  2
BLOCKS
  0
BLOCK
  5
20
330
1F
100
AcDbEntity
  8
0
100
AcDbBlockBegin
  2
*Model_Space
 70
     0
 10
0.0
 20
0.0
 30
0.0
  3
*Model_Space
  1

  0
ENDBLK
  5
21
330
1F
100
AcDbEntity
  8
0
100
AcDbBlockEnd
  0
BLOCK
  5
1C
330
1B
100
AcDbEntity
 67
     1
  8
0
100
AcDbBlockBegin
  2
*Paper_Space
 70
     0
 10
0.0
 20
0.0
 30
0.0
  3
*Paper_Space
  1

  0
ENDBLK
  5
1D
330
1B
100
AcDbEntity
 67
     1
  8
0
100
AcDbBlockEnd
  0
BLOCK
  5
24
330
23
100
AcDbEntity
  8
0
100
AcDbBlockBegin
  2
*Paper_Space0
 70
     0
 10
0.0
 20
0.0
 30
0.0
  3
*Paper_Space0
  1

  0
ENDBLK
  5
25
330
23
100
AcDbEntity
  8
0
100
AcDbBlockEnd
  0
BLOCK
  5
80
330
7F
100
AcDbEntity
  8
0
100
AcDbBlockBegin
  2
블럭10
 70
     2
 10
0.0
 20
0.0
 30
0.0
  3
블럭10
  1

  0
ELLIPSE
  5
82
330
7F
100
AcDbEntity
  8
중심선
100
AcDbEllipse
 10
20.54032771741204
 20
12.0471743016438
 30
0.0
 11
6.600054785286829
 21
-1.261213355974178E-13
 31
0.0
210
0.0
220
0.0
230
1.0
 40
0.636358354079598
 41
0.9219305317359503
 42
6.513795318482858
  0
ELLIPSE
  5
83
330
7F
100
AcDbEntity
  8
중심선
100
AcDbEllipse
 10
20.54032771746488
 20
12.04717430159265
 30
0.0
 11
3.960054785062283
 21
1.540847449632565E-10
 31
0.0
210
0.0
220
0.0
230
1.0
 40
0.3939339440162632
 41
1.131841032648279
 42
5.62031148352944
  0
LINE
  5
84
330
7F
100
AcDbEntity
  8
중심선
100
AcDbLine
 10
2.268634060543552
 20
16.24717430164393
 30
0.0
 11
5.714909304380834
 21
16.24717430164393
 31
0.0
  0
LINE
  5
85
330
7F
100
AcDbEntity
  8
중심선
100
AcDbLine
 10
5.245725140726316
 20
7.84717430164391
 30
0.0
 11
8.692000384563599
 21
7.84717430164391
 31
0.0
  0
LINE
  5
86
330
7F
100
AcDbEntity
  8
중심선
100
AcDbLine
 10
15.74043728645272
 20
16.24717430164393
 30
0.0
 11
8.692000384563599
 21
7.84717430164391
 31
0.0
  0
LINE
  5
87
330
7F
100
AcDbEntity
  8
중심선
100
AcDbLine
 10
0.1404042013395286
 20
13.71084872107135
 30
0.0
 11
3.58671253028996
 21
13.71088815037384
 31
0.0
  0
LINE
  5
88
330
7F
100
AcDbEntity
  8
중심선
100
AcDbLine
 10
2.750260043222114
 20
10.84717430164391
 30
0.0
 11
6.196535287059397
 21
10.84717430164391
 31
0.0
  0
LINE
  5
89
330
7F
100
AcDbEntity
  8
중심선
100
AcDbLine
 10
12.29416204261559
 20
16.24717430164393
 30
0.0
 11
5.245725140726316
 21
7.84717430164391
 31
0.0
  0
LINE
  5
8A
330
7F
100
AcDbEntity
  8
중심선
100
AcDbLine
 10
10.72767329541681
 20
16.24717430164393
 30
0.0
 11
6.196535287059397
 21
10.84717430164391
 31
0.0
  0
LINE
  5
8B
330
7F
100
AcDbEntity
  8
중심선
100
AcDbLine
 10
7.28139805157953
 20
16.24717430164393
 30
0.0
 11
2.750260043222114
 21
10.84717430164391
 31
0.0
  0
LINE
  5
8C
330
7F
100
AcDbEntity
  8
중심선
100
AcDbLine
 10
5.714909304380834
 20
16.24717430164393
 30
0.0
 11
3.58671253028996
 21
13.71088815037384
 31
0.0
  0
LINE
  5
8D
330
7F
100
AcDbEntity
  8
중심선
100
AcDbLine
 10
2.268634060543552
 20
16.24717430164393
 30
0.0
 11
0.1404042013395286
 21
13.71084872107135
 31
0.0
  0
LINE
  5
8E
330
7F
100
AcDbEntity
  8
중심선
100
AcDbLine
 10
7.28139805157953
 20
16.24717430164393
 30
0.0
 11
10.72767329541681
 21
16.24717430164393
 31
0.0
  0
LINE
  5
8F
330
7F
100
AcDbEntity
  8
중심선
100
AcDbLine
 10
12.29416204261559
 20
16.24717430164393
 30
0.0
 11
15.74043728645272
 21
16.24717430164393
 31
0.0
  0
LINE
  5
90
330
7F
100
AcDbEntity
  8
중심선
100
AcDbLine
 10
19.22036997980202
 20
11.08717430171403
 30
0.0
 11
23.66174974927406
 21
11.08717430171406
 31
0.0
  0
LINE
  5
91
330
7F
100
AcDbEntity
  8
중심선
100
AcDbLine
 10
19.22039502424796
 20
13.00717430171391
 30
0.0
 11
19.22036997980202
 21
11.08717430171403
 31
0.0
  0
LINE
  5
92
330
7F
100
AcDbEntity
  8
중심선
100
AcDbLine
 10
19.22039502424796
 20
13.00717430171391
 30
0.0
 11
26.96566020931264
 21
13.00717430171391
 31
0.0
  0
LINE
  5
93
330
7F
100
AcDbEntity
  8
중심선
100
AcDbLine
 10
22.22332737316547
 20
13.45928029700563
 30
0.0
 11
24.52862924686651
 21
15.39360700705356
 31
0.0
  0
ATTDEF
  5
95
330
7F
100
AcDbEntity
  8
FORMAT
 62
     2
100
AcDbText
 10
-2.529476536452461
 20
2.075366912832191
 30
0.0
 40
4.233333333333333
  1
SEME0101003E
 41
0.75
  7
SLDTEXTSTYLE0
 11
-2.529476536452461
 21
-0.0412997538344756
 31
0.0
100
AcDbAttributeDefinition
  3

  2
AUTOATTR0
 70
     0
 74
     1
  0
ENDBLK
  5
81
330
7F
100
AcDbEntity
  8
0
100
AcDbBlockEnd
  0
BLOCK
  5
DC
330
DB
100
AcDbEntity
  8
0
100
AcDbBlockBegin
  2
_D
 70
     0
 10
0.0
 20
0.0
 30
0.0
  3
_D
  1

  0
LINE
  5
DE
330
DB
100
AcDbEntity
  8
치수문자_일반주서
 62
     0
370
    -2
100
AcDbLine
 10
14.82990825288492
 20
0.5635749287238891
 30
0.0
 11
14.82990825288492
 21
11.0010749287239
 31
0.0
  0
LINE
  5
DF
330
DB
100
AcDbEntity
  8
치수문자_일반주서
 62
     0
370
    -2
100
AcDbLine
 10
12.32990825288489
 20
0.5552058793501768
 30
0.0
 11
12.32990825288489
 21
11.0010749287239
 31
0.0
  0
LINE
  5
E0
330
DB
100
AcDbEntity
  8
치수문자_일반주서
 62
     0
370
    -2
100
AcDbLine
 10
14.82990825288492
 20
11.0010749287239
 30
0.0
 11
25.32990825288492
 21
11.0010749287239
 31
0.0
  0
LINE
  5
E1
330
DB
100
AcDbEntity
  8
치수문자_일반주서
 62
     0
370
    -2
100
AcDbLine
 10
14.82990825288492
 20
11.0010749287239
 30
0.0
 11
12.32990825288489
 21
11.0010749287239
 31
0.0
  0
LINE
  5
E2
330
DB
100
AcDbEntity
  8
치수문자_일반주서
 62
     0
370
    -2
100
AcDbLine
 10
17.32990825288492
 20
11.0010749287239
 30
0.0
 11
19.82990825288492
 21
11.0010749287239
 31
0.0
  0
LINE
  5
E3
330
DB
100
AcDbEntity
  8
치수문자_일반주서
 62
     0
370
    -2
100
AcDbLine
 10
9.829908252884891
 20
11.0010749287239
 30
0.0
 11
7.329908252884891
 21
11.0010749287239
 31
0.0
  0
SOLID
  5
E4
330
DB
100
AcDbEntity
  8
치수문자_일반주서
 62
     0
100
AcDbTrace
 10
17.32990825288492
 20
11.41774159539056
 30
0.0
 11
17.32990825288492
 21
10.58440826205723
 31
0.0
 12
14.82990825288492
 22
11.0010749287239
 32
0.0
 13
14.82990825288492
 23
11.0010749287239
 33
0.0
  0
SOLID
  5
E5
330
DB
100
AcDbEntity
  8
치수문자_일반주서
 62
     0
100
AcDbTrace
 10
9.829908252884891
 20
10.58440826205723
 30
0.0
 11
9.829908252884891
 21
11.41774159539056
 31
0.0
 12
12.32990825288489
 22
11.0010749287239
 32
0.0
 13
12.32990825288489
 23
11.0010749287239
 33
0.0
  0
MTEXT
  5
1E5
330
DB
100
AcDbEntity
  8
치수문자_일반주서
 62
     0
100
AcDbMText
 10
22.57990825288492
 20
14.3760749287239
 30
0.0
 40
2.5
 41
0.0
 71
     2
 72
     1
  1
\A1;2.5
  7
SLDTEXTSTYLE0
 73
     1
 44
1.0
  0
POINT
  5
1E6
330
DB
100
AcDbEntity
  8
Defpoints
 62
     0
100
AcDbPoint
 10
14.82990825288492
 20
0.5010749287238891
 30
0.0
  0
POINT
  5
1E7
330
DB
100
AcDbEntity
  8
Defpoints
 62
     0
100
AcDbPoint
 10
12.32990825288489
 20
0.4927058793501768
 30
0.0
  0
POINT
  5
1E8
330
DB
100
AcDbEntity
  8
Defpoints
 62
     0
100
AcDbPoint
 10
12.32990825288489
 20
11.0010749287239
 30
0.0
  0
ENDBLK
  5
DD
330
DB
100
AcDbEntity
  8
0
100
AcDbBlockEnd
  0
BLOCK
  5
E9
330
E8
100
AcDbEntity
  8
0
100
AcDbBlockBegin
  2
_D_1
 70
     0
 10
0.0
 20
0.0
 30
0.0
  3
_D_1
  1

  0
LINE
  5
EB
330
E8
100
AcDbEntity
  8
치수문자_일반주서
 62
     0
370
    -2
100
AcDbLine
 10
-34.63259174711506
 20
3.001074928723896
 30
0.0
 11
-43.17009174711508
 21
3.001074928723864
 31
0.0
  0
LINE
  5
EC
330
E8
100
AcDbEntity
  8
치수문자_일반주서
 62
     0
370
    -2
100
AcDbLine
 10
-34.63259174711506
 20
-2.99892507127611
 30
0.0
 11
-43.17009174711506
 21
-2.99892507127614
 31
0.0
  0
LINE
  5
ED
330
E8
100
AcDbEntity
  8
치수문자_일반주서
 62
     0
370
    -2
100
AcDbLine
 10
-43.17009174711508
 20
3.001074928723864
 30
0.0
 11
-43.17009174711512
 21
12.87607492872387
 31
0.0
  0
LINE
  5
EE
330
E8
100
AcDbEntity
  8
치수문자_일반주서
 62
     0
370
    -2
100
AcDbLine
 10
-43.17009174711508
 20
3.001074928723864
 30
0.0
 11
-43.17009174711506
 21
-2.99892507127614
 31
0.0
  0
LINE
  5
EF
330
E8
100
AcDbEntity
  8
치수문자_일반주서
 62
     0
370
    -2
100
AcDbLine
 10
-43.17009174711509
 20
5.501074928723864
 30
0.0
 11
-43.17009174711509
 21
8.001074928723863
 31
0.0
  0
LINE
  5
F0
330
E8
100
AcDbEntity
  8
치수문자_일반주서
 62
     0
370
    -2
100
AcDbLine
 10
-43.17009174711505
 20
-5.49892507127614
 30
0.0
 11
-43.17009174711504
 21
-7.99892507127614
 31
0.0
  0
SOLID
  5
F1
330
E8
100
AcDbEntity
  8
치수문자_일반주서
 62
     0
100
AcDbTrace
 10
-43.58675841378175
 20
5.501074928723862
 30
0.0
 11
-42.75342508044842
 21
5.501074928723866
 31
0.0
 12
-43.17009174711508
 22
3.001074928723864
 32
0.0
 13
-43.17009174711508
 23
3.001074928723864
 33
0.0
  0
SOLID
  5
F2
330
E8
100
AcDbEntity
  8
치수문자_일반주서
 62
     0
100
AcDbTrace
 10
-42.75342508044839
 20
-5.498925071276139
 30
0.0
 11
-43.58675841378172
 21
-5.498925071276142
 31
0.0
 12
-43.17009174711506
 22
-2.99892507127614
 32
0.0
 13
-43.17009174711506
 23
-2.99892507127614
 33
0.0
  0
MTEXT
  5
F3
330
E8
100
AcDbEntity
  8
치수문자_일반주서
 62
     0
100
AcDbMText
 10
-46.54509174711511
 20
10.43857492872386
 30
0.0
 40
2.5
 41
0.0
 71
     2
 72
     1
  1
\A1;%%c6
  7
SLDTEXTSTYLE0
 11
-3.552713678800498E-15
 21
1.0
 31
0.0
 73
     1
 44
1.0
  0
POINT
  5
1EC
330
E8
100
AcDbEntity
  8
Defpoints
 62
     0
100
AcDbPoint
 10
-34.57009174711506
 20
3.001074928723896
 30
0.0
  0
POINT
  5
1ED
330
E8
100
AcDbEntity
  8
Defpoints
 62
     0
100
AcDbPoint
 10
-34.57009174711506
 20
-2.998925071276109
 30
0.0
  0
POINT
  5
1EE
330
E8
100
AcDbEntity
  8
Defpoints
 62
     0
100
AcDbPoint
 10
-43.17009174711506
 20
-2.998925071276141
 30
0.0
  0
ENDBLK
  5
EA
330
E8
100
AcDbEntity
  8
0
100
AcDbBlockEnd
  0
BLOCK
  5
F7
330
F6
100
AcDbEntity
  8
0
100
AcDbBlockBegin
  2
_D_2
 70
     0
 10
0.0
 20
0.0
 30
0.0
  3
_D_2
  1

  0
LINE
  5
F9
330
F6
100
AcDbEntity
  8
치수문자_일반주서
 62
     0
370
    -2
100
AcDbLine
 10
14.82990825288492
 20
0.5635749287238891
 30
0.0
 11
14.82990825288492
 21
19.0010749287239
 31
0.0
  0
LINE
  5
FA
330
F6
100
AcDbEntity
  8
치수문자_일반주서
 62
     0
370
    -2
100
AcDbLine
 10
-35.17009174711508
 20
2.463574928723899
 30
0.0
 11
-35.17009174711507
 21
19.0010749287239
 31
0.0
  0
LINE
  5
FB
330
F6
100
AcDbEntity
  8
치수문자_일반주서
 62
     0
370
    -2
100
AcDbLine
 10
12.32990825288492
 20
19.0010749287239
 30
0.0
 11
-32.67009174711507
 21
19.0010749287239
 31
0.0
  0
SOLID
  5
FC
330
F6
100
AcDbEntity
  8
치수문자_일반주서
 62
     0
100
AcDbTrace
 10
12.32990825288492
 20
18.58440826205723
 30
0.0
 11
12.32990825288492
 21
19.41774159539056
 31
0.0
 12
14.82990825288492
 22
19.0010749287239
 32
0.0
 13
14.82990825288492
 23
19.0010749287239
 33
0.0
  0
SOLID
  5
FD
330
F6
100
AcDbEntity
  8
치수문자_일반주서
 62
     0
100
AcDbTrace
 10
-32.67009174711507
 20
19.41774159539056
 30
0.0
 11
-32.67009174711507
 21
18.58440826205723
 31
0.0
 12
-35.17009174711507
 22
19.0010749287239
 32
0.0
 13
-35.17009174711507
 23
19.0010749287239
 33
0.0
  0
MTEXT
  5
FE
330
F6
100
AcDbEntity
  8
치수문자_일반주서
 62
     0
100
AcDbMText
 10
-10.17009174711506
 20
22.3760749287239
 30
0.0
 40
2.5
 41
0.0
 71
     2
 72
     1
  1
\A1;50
  7
SLDTEXTSTYLE0
 73
     1
 44
1.0
  0
POINT
  5
1E2
330
F6
100
AcDbEntity
  8
Defpoints
 62
     0
100
AcDbPoint
 10
14.82990825288492
 20
0.5010749287238891
 30
0.0
  0
POINT
  5
1E3
330
F6
100
AcDbEntity
  8
Defpoints
 62
     0
100
AcDbPoint
 10
-35.17009174711508
 20
2.401074928723899
 30
0.0
  0
POINT
  5
1E4
330
F6
100
AcDbEntity
  8
Defpoints
 62
     0
100
AcDbPoint
 10
-35.17009174711508
 20
19.0010749287239
 30
0.0
  0
ENDBLK
  5
F8
330
F6
100
AcDbEntity
  8
0
100
AcDbBlockEnd
  0
BLOCK
  5
101
330
100
100
AcDbEntity
  8
0
100
AcDbBlockBegin
  2
_D_3
 70
     0
 10
0.0
 20
0.0
 30
0.0
  3
_D_3
  1

  0
LINE
  5
103
330
100
100
AcDbEntity
  8
치수문자_일반주서
 62
     0
370
    -2
100
AcDbLine
 10
14.89240825288492
 20
0.5010749287238894
 30
0.0
 11
22.82990825288491
 21
0.5010749287239191
 31
0.0
  0
LINE
  5
104
330
100
100
AcDbEntity
  8
치수문자_일반주서
 62
     0
370
    -2
100
AcDbLine
 10
14.89240825288492
 20
-0.4989250712761106
 30
0.0
 11
22.82990825288491
 21
-0.49892507127608
 31
0.0
  0
LINE
  5
105
330
100
100
AcDbEntity
  8
치수문자_일반주서
 62
     0
370
    -2
100
AcDbLine
 10
22.82990825288491
 20
0.5010749287239191
 30
0.0
 11
22.82990825288488
 21
9.751074928723925
 31
0.0
  0
LINE
  5
106
330
100
100
AcDbEntity
  8
치수문자_일반주서
 62
     0
370
    -2
100
AcDbLine
 10
22.82990825288491
 20
0.5010749287239191
 30
0.0
 11
22.82990825288491
 21
-0.49892507127608
 31
0.0
  0
LINE
  5
107
330
100
100
AcDbEntity
  8
치수문자_일반주서
 62
     0
370
    -2
100
AcDbLine
 10
22.8299082528849
 20
3.001074928723919
 30
0.0
 11
22.82990825288489
 21
5.501074928723919
 31
0.0
  0
LINE
  5
108
330
100
100
AcDbEntity
  8
치수문자_일반주서
 62
     0
370
    -2
100
AcDbLine
 10
22.82990825288492
 20
-2.99892507127608
 30
0.0
 11
22.82990825288493
 21
-5.49892507127608
 31
0.0
  0
SOLID
  5
109
330
100
100
AcDbEntity
  8
치수문자_일반주서
 62
     0
100
AcDbTrace
 10
22.41324158621823
 20
3.001074928723918
 30
0.0
 11
23.24657491955157
 21
3.00107492872392
 31
0.0
 12
22.82990825288491
 22
0.5010749287239191
 32
0.0
 13
22.82990825288491
 23
0.5010749287239191
 33
0.0
  0
SOLID
  5
10A
330
100
100
AcDbEntity
  8
치수문자_일반주서
 62
     0
100
AcDbTrace
 10
23.24657491955159
 20
-2.998925071276079
 30
0.0
 11
22.41324158621825
 21
-2.998925071276081
 31
0.0
 12
22.82990825288491
 22
-0.49892507127608
 32
0.0
 13
22.82990825288491
 23
-0.49892507127608
 33
0.0
  0
MTEXT
  5
10B
330
100
100
AcDbEntity
  8
치수문자_일반주서
 62
     0
100
AcDbMText
 10
19.45490825288488
 20
7.626074928723914
 30
0.0
 40
2.5
 41
0.0
 71
     2
 72
     1
  1
\A1;%%c1
  7
SLDTEXTSTYLE0
 11
-3.552713678800501E-15
 21
1.0
 31
0.0
 73
     1
 44
1.0
  0
POINT
  5
1DF
330
100
100
AcDbEntity
  8
Defpoints
 62
     0
100
AcDbPoint
 10
14.82990825288492
 20
0.5010749287238891
 30
0.0
  0
POINT
  5
1E0
330
100
100
AcDbEntity
  8
Defpoints
 62
     0
100
AcDbPoint
 10
14.82990825288492
 20
-0.4989250712761109
 30
0.0
  0
POINT
  5
1E1
330
100
100
AcDbEntity
  8
Defpoints
 62
     0
100
AcDbPoint
 10
22.82990825288491
 20
-0.498925071276081
 30
0.0
  0
ENDBLK
  5
102
330
100
100
AcDbEntity
  8
0
100
AcDbBlockEnd
  0
BLOCK
  5
114
330
113
100
AcDbEntity
  8
0
100
AcDbBlockBegin
  2
SW_DOWELSYMBOL_0
 70
     0
 10
0.0
 20
0.0
 30
0.0
  3
SW_DOWELSYMBOL_0
  1

  0
CIRCLE
  5
116
330
113
100
AcDbEntity
  8
해칭선
 62
     0
100
AcDbCircle
 10
0.0
 20
0.0
 30
0.0
 40
2.999999999999999
  0
HATCH
  5
117
330
113
100
AcDbEntity
  8
0
  6
Continuous
 62
     0
370
     0
100
AcDbHatch
 10
0.0
 20
0.0
 30
0.0
210
0.0
220
0.0
230
1.0
  2
SOLID
 70
     1
 71
     0
 91
        1
 92
        0
 93
        3
 72
     2
 10
0.0
 20
0.0
 40
2.999999999999999
 50
0.0
 51
90.0
 73
     1
 72
     1
 10
0.0
 20
2.999999999999999
 11
0.0
 21
0.0
 72
     1
 10
0.0
 20
0.0
 11
2.999999999999999
 21
0.0
 97
        0
 75
     0
 76
     1
 98
        1
 10
0.0
 20
0.0
  0
HATCH
  5
118
330
113
100
AcDbEntity
  8
0
  6
Continuous
 62
     0
370
     0
100
AcDbHatch
 10
0.0
 20
0.0
 30
0.0
210
0.0
220
0.0
230
1.0
  2
SOLID
 70
     1
 71
     0
 91
        1
 92
        0
 93
        3
 72
     2
 10
0.0
 20
0.0
 40
2.999999999999999
 50
180.0
 51
270.0000000000008
 73
     1
 72
     1
 10
0.0
 20
-2.999999999999999
 11
0.0
 21
0.0
 72
     1
 10
0.0
 20
0.0
 11
-2.999999999999999
 21
0.0
 97
        0
 75
     0
 76
     1
 98
        1
 10
0.0
 20
0.0
  0
ENDBLK
  5
115
330
113
100
AcDbEntity
  8
0
100
AcDbBlockEnd
  0
BLOCK
  5
176
330
175
100
AcDbEntity
  8
0
100
AcDbBlockBegin
  2
*D8
 70
     1
 10
0.0
 20
0.0
 30
0.0
  3
*D8
  1

  0
LINE
  5
177
330
175
100
AcDbEntity
  8
치수문자_일반주서
 62
     0
370
    -2
100
AcDbLine
 10
9.157089827360679
 20
13.96970345054478
 30
0.0
 11
16.8732305693942
 21
0.0000000000001306
 31
0.0
  0
MTEXT
  5
178
330
175
100
AcDbEntity
  8
치수문자_일반주서
 62
     0
100
AcDbMText
 10
17.17708889698974
 20
3.844950803229067
 30
0.0
 40
2.5
 41
0.0
 71
     5
 72
     1
  1
\A1;R0.1
  7
SLDTEXTSTYLE0
 11
0.4834960874464161
 21
-0.8753465219123269
 31
0.0
 73
     1
 44
1.0
  0
LINE
  5
179
330
175
100
AcDbEntity
  8
치수문자_일반주서
 62
     0
370
    -2
100
AcDbLine
 10
7.899999999999999
 20
16.24560440751683
 30
0.0
 11
7.948349608744639
 21
16.1580697553256
 31
0.0
  0
SOLID
  5
17A
330
175
100
AcDbEntity
  8
치수문자_일반주서
 62
     0
100
AcDbTrace
 10
9.521817544824149
 20
14.17116015364745
 30
0.0
 11
8.792362109897208
 21
13.76824674744211
 31
0.0
 12
7.948349608744639
 22
16.1580697553256
 32
0.0
 13
7.948349608744639
 23
16.1580697553256
 33
0.0
  0
POINT
  5
17B
330
175
100
AcDbEntity
  8
Defpoints
 62
     0
100
AcDbPoint
 10
7.948349608744639
 20
16.1580697553256
 30
0.0
  0
POINT
  5
17C
330
175
100
AcDbEntity
  8
Defpoints
 62
     0
100
AcDbPoint
 10
7.899999999999999
 20
16.24560440751683
 30
0.0
  0
ENDBLK
  5
17D
330
175
100
AcDbEntity
  8
0
100
AcDbBlockEnd
  0
BLOCK
  5
191
330
190
100
AcDbEntity
  8
0
100
AcDbBlockBegin
  2
*D9
 70
     1
 10
0.0
 20
0.0
 30
0.0
  3
*D9
  1

  0
LINE
  5
193
330
190
100
AcDbEntity
  8
치수문자_일반주서
 62
     0
370
    -2
100
AcDbLine
 10
8.0625
 20
17.34560440751683
 30
0.0
 11
16.0
 21
17.34560440751686
 31
0.0
  0
LINE
  5
194
330
190
100
AcDbEntity
  8
치수문자_일반주서
 62
     0
370
    -2
100
AcDbLine
 10
8.0625
 20
16.14560440751683
 30
0.0
 11
16.00000000000001
 21
16.14560440751686
 31
0.0
  0
LINE
  5
195
330
190
100
AcDbEntity
  8
치수문자_일반주서
 62
     0
370
    -2
100
AcDbLine
 10
16.0
 20
17.34560440751686
 30
0.0
 11
15.99999999999997
 21
29.09560440751687
 31
0.0
  0
LINE
  5
196
330
190
100
AcDbEntity
  8
치수문자_일반주서
 62
     0
370
    -2
100
AcDbLine
 10
16.0
 20
17.34560440751686
 30
0.0
 11
16.00000000000001
 21
16.14560440751686
 31
0.0
  0
LINE
  5
197
330
190
100
AcDbEntity
  8
치수문자_일반주서
 62
     0
370
    -2
100
AcDbLine
 10
16.0
 20
19.84560440751686
 30
0.0
 11
15.99999999999999
 21
22.34560440751686
 31
0.0
  0
LINE
  5
198
330
190
100
AcDbEntity
  8
치수문자_일반주서
 62
     0
370
    -2
100
AcDbLine
 10
16.00000000000001
 20
13.64560440751686
 30
0.0
 11
16.00000000000002
 21
11.14560440751686
 31
0.0
  0
SOLID
  5
199
330
190
100
AcDbEntity
  8
치수문자_일반주서
 62
     0
100
AcDbTrace
 10
15.58333333333333
 20
19.84560440751686
 30
0.0
 11
16.41666666666666
 21
19.84560440751686
 31
0.0
 12
16.0
 22
17.34560440751686
 32
0.0
 13
16.0
 23
17.34560440751686
 33
0.0
  0
SOLID
  5
19A
330
190
100
AcDbEntity
  8
치수문자_일반주서
 62
     0
100
AcDbTrace
 10
16.41666666666668
 20
13.64560440751686
 30
0.0
 11
15.58333333333335
 21
13.64560440751686
 31
0.0
 12
16.00000000000001
 22
16.14560440751686
 32
0.0
 13
16.00000000000001
 23
16.14560440751686
 33
0.0
  0
MTEXT
  5
19B
330
190
100
AcDbEntity
  8
치수문자_일반주서
 62
     0
100
AcDbMText
 10
12.62499999999998
 20
25.72060440751686
 30
0.0
 40
2.5
 41
0.0
 71
     2
 72
     1
  1
\A1;%%c1.2
  7
SLDTEXTSTYLE0
 11
-2.960594732333752E-15
 21
1.0
 31
0.0
 73
     1
 44
1.0
  0
POINT
  5
19C
330
190
100
AcDbEntity
  8
Defpoints
 62
     0
100
AcDbPoint
 10
8.0
 20
17.34560440751683
 30
0.0
  0
POINT
  5
19D
330
190
100
AcDbEntity
  8
Defpoints
 62
     0
100
AcDbPoint
 10
8.0
 20
16.14560440751683
 30
0.0
  0
POINT
  5
19E
330
190
100
AcDbEntity
  8
Defpoints
 62
     0
100
AcDbPoint
 10
16.0
 20
16.14560440751686
 30
0.0
  0
ENDBLK
  5
192
330
190
100
AcDbEntity
  8
0
100
AcDbBlockEnd
  0
BLOCK
  5
1A0
330
19F
100
AcDbEntity
  8
0
100
AcDbBlockBegin
  2
*D10
 70
     1
 10
0.0
 20
0.0
 30
0.0
  3
*D10
  1

  0
LINE
  5
1A2
330
19F
100
AcDbEntity
  8
치수문자_일반주서
 62
     0
370
    -2
100
AcDbLine
 10
8.0
 20
17.40810440751683
 30
0.0
 11
8.0
 21
27.74560440751683
 31
0.0
  0
LINE
  5
1A3
330
19F
100
AcDbEntity
  8
치수문자_일반주서
 62
     0
370
    -2
100
AcDbLine
 10
5.0
 20
17.39957619746455
 30
0.0
 11
5.0
 21
27.74560440751683
 31
0.0
  0
LINE
  5
1A4
330
19F
100
AcDbEntity
  8
치수문자_일반주서
 62
     0
370
    -2
100
AcDbLine
 10
8.0
 20
27.74560440751683
 30
0.0
 11
5.0
 21
27.74560440751683
 31
0.0
  0
LINE
  5
1A5
330
19F
100
AcDbEntity
  8
치수문자_일반주서
 62
     0
370
    -2
100
AcDbLine
 10
10.5
 20
27.74560440751683
 30
0.0
 11
13.0
 21
27.74560440751683
 31
0.0
  0
LINE
  5
1A6
330
19F
100
AcDbEntity
  8
치수문자_일반주서
 62
     0
370
    -2
100
AcDbLine
 10
2.5
 20
27.74560440751683
 30
0.0
 11
0.0
 21
27.74560440751683
 31
0.0
  0
SOLID
  5
1A7
330
19F
100
AcDbEntity
  8
치수문자_일반주서
 62
     0
100
AcDbTrace
 10
10.5
 20
28.1622710741835
 30
0.0
 11
10.5
 21
27.32893774085016
 31
0.0
 12
8.0
 22
27.74560440751683
 32
0.0
 13
8.0
 23
27.74560440751683
 33
0.0
  0
SOLID
  5
1A8
330
19F
100
AcDbEntity
  8
치수문자_일반주서
 62
     0
100
AcDbTrace
 10
2.5
 20
27.32893774085016
 30
0.0
 11
2.5
 21
28.1622710741835
 31
0.0
 12
5.0
 22
27.74560440751683
 32
0.0
 13
5.0
 23
27.74560440751683
 33
0.0
  0
MTEXT
  5
1A9
330
19F
100
AcDbEntity
  8
치수문자_일반주서
 62
     0
100
AcDbMText
 10
6.499999999999899
 20
31.12060440751683
 30
0.0
 40
2.5
 41
0.0
 71
     2
 72
     1
  1
\A1;3
  7
SLDTEXTSTYLE0
 73
     1
 44
1.0
  0
POINT
  5
1AA
330
19F
100
AcDbEntity
  8
Defpoints
 62
     0
100
AcDbPoint
 10
8.0
 20
17.34560440751683
 30
0.0
  0
POINT
  5
1AB
330
19F
100
AcDbEntity
  8
Defpoints
 62
     0
100
AcDbPoint
 10
5.0
 20
17.33707619746455
 30
0.0
  0
POINT
  5
1AC
330
19F
100
AcDbEntity
  8
Defpoints
 62
     0
100
AcDbPoint
 10
5.0
 20
27.74560440751683
 30
0.0
  0
ENDBLK
  5
1A1
330
19F
100
AcDbEntity
  8
0
100
AcDbBlockEnd
  0
BLOCK
  5
1B3
330
1B2
100
AcDbEntity
  8
0
100
AcDbBlockBegin
  2
*D11
 70
     1
 10
0.0
 20
0.0
 30
0.0
  3
*D11
  1

  0
LINE
  5
1B5
330
1B2
100
AcDbEntity
  8
치수문자_일반주서
 62
     0
370
    -2
100
AcDbLine
 10
46.32539525171239
 20
-7.049316637936023
 30
0.0
 11
54.26289525171242
 21
-7.049316637935993
 31
0.0
  0
LINE
  5
1B6
330
1B2
100
AcDbEntity
  8
치수문자_일반주서
 62
     0
370
    -2
100
AcDbLine
 10
46.32539525171239
 20
-8.249316637936023
 30
0.0
 11
54.26289525171243
 21
-8.249316637935992
 31
0.0
  0
LINE
  5
1B7
330
1B2
100
AcDbEntity
  8
치수문자_일반주서
 62
     0
370
    -2
100
AcDbLine
 10
54.26289525171242
 20
-7.049316637935993
 30
0.0
 11
54.26289525171235
 21
4.700683362064012
 31
0.0
  0
LINE
  5
1B8
330
1B2
100
AcDbEntity
  8
치수문자_일반주서
 62
     0
370
    -2
100
AcDbLine
 10
54.26289525171242
 20
-7.049316637935993
 30
0.0
 11
54.26289525171243
 21
-8.249316637935992
 31
0.0
  0
LINE
  5
1B9
330
1B2
100
AcDbEntity
  8
치수문자_일반주서
 62
     0
370
    -2
100
AcDbLine
 10
54.26289525171241
 20
-4.549316637935993
 30
0.0
 11
54.26289525171239
 21
-2.049316637935993
 31
0.0
  0
LINE
  5
1BA
330
1B2
100
AcDbEntity
  8
치수문자_일반주서
 62
     0
370
    -2
100
AcDbLine
 10
54.26289525171244
 20
-10.74931663793599
 30
0.0
 11
54.26289525171246
 21
-13.24931663793599
 31
0.0
  0
SOLID
  5
1BB
330
1B2
100
AcDbEntity
  8
치수문자_일반주서
 62
     0
100
AcDbTrace
 10
53.84622858504574
 20
-4.549316637935996
 30
0.0
 11
54.67956191837907
 21
-4.54931663793599
 31
0.0
 12
54.26289525171242
 22
-7.049316637935993
 32
0.0
 13
54.26289525171242
 23
-7.049316637935993
 33
0.0
  0
SOLID
  5
1BC
330
1B2
100
AcDbEntity
  8
치수문자_일반주서
 62
     0
100
AcDbTrace
 10
54.67956191837911
 20
-10.74931663793599
 30
0.0
 11
53.84622858504578
 21
-10.74931663793599
 31
0.0
 12
54.26289525171243
 22
-8.249316637935992
 32
0.0
 13
54.26289525171243
 23
-8.249316637935992
 33
0.0
  0
MTEXT
  5
1BD
330
1B2
100
AcDbEntity
  8
치수문자_일반주서
 62
     0
100
AcDbMText
 10
50.88789525171237
 20
1.325683362063992
 30
0.0
 40
2.5
 41
0.0
 71
     2
 72
     1
  1
\A1;%%c1.2
  7
SLDTEXTSTYLE0
 11
-5.921189464667505E-15
 21
1.0
 31
0.0
 73
     1
 44
1.0
  0
POINT
  5
1BE
330
1B2
100
AcDbEntity
  8
Defpoints
 62
     0
100
AcDbPoint
 10
46.26289525171239
 20
-7.049316637936023
 30
0.0
  0
POINT
  5
1BF
330
1B2
100
AcDbEntity
  8
Defpoints
 62
     0
100
AcDbPoint
 10
46.26289525171239
 20
-8.249316637936023
 30
0.0
  0
POINT
  5
1C0
330
1B2
100
AcDbEntity
  8
Defpoints
 62
     0
100
AcDbPoint
 10
54.2628952517124
 20
-8.249316637935992
 30
0.0
  0
ENDBLK
  5
1B4
330
1B2
100
AcDbEntity
  8
0
100
AcDbBlockEnd
  0
BLOCK
  5
1C2
330
1C1
100
AcDbEntity
  8
0
100
AcDbBlockBegin
  2
*D12
 70
     1
 10
0.0
 20
0.0
 30
0.0
  3
*D12
  1

  0
LINE
  5
1C4
330
1C1
100
AcDbEntity
  8
치수문자_일반주서
 62
     0
370
    -2
100
AcDbLine
 10
47.419985079073
 20
-10.42521759490811
 30
0.0
 11
55.13612582110608
 21
-24.394921045453
 31
0.0
  0
MTEXT
  5
1C5
330
1C1
100
AcDbEntity
  8
치수문자_일반주서
 62
     0
100
AcDbMText
 10
55.43998414870175
 20
-20.54997024222408
 30
0.0
 40
2.5
 41
0.0
 71
     5
 72
     1
  1
\A1;R0.1
  7
SLDTEXTSTYLE0
 11
0.4834960874463889
 21
-0.8753465219123419
 31
0.0
 73
     1
 44
1.0
  0
LINE
  5
1C6
330
1C1
100
AcDbEntity
  8
치수문자_일반주서
 62
     0
370
    -2
100
AcDbLine
 10
46.16289525171239
 20
-8.149316637936025
 30
0.0
 11
46.21124486045703
 21
-8.236851290127255
 31
0.0
  0
SOLID
  5
1C7
330
1C1
100
AcDbEntity
  8
치수문자_일반주서
 62
     0
100
AcDbTrace
 10
47.78471279653647
 20
-10.22376089180545
 30
0.0
 11
47.05525736160953
 21
-10.62667429801077
 31
0.0
 12
46.21124486045703
 22
-8.236851290127255
 32
0.0
 13
46.21124486045703
 23
-8.236851290127255
 33
0.0
  0
POINT
  5
1C8
330
1C1
100
AcDbEntity
  8
Defpoints
 62
     0
100
AcDbPoint
 10
46.21124486045703
 20
-8.236851290127255
 30
0.0
  0
POINT
  5
1C9
330
1C1
100
AcDbEntity
  8
Defpoints
 62
     0
100
AcDbPoint
 10
46.16289525171239
 20
-8.149316637936025
 30
0.0
  0
ENDBLK
  5
1C3
330
1C1
100
AcDbEntity
  8
0
100
AcDbBlockEnd
  0
BLOCK
  5
1CB
330
1CA
100
AcDbEntity
  8
0
100
AcDbBlockBegin
  2
*D13
 70
     1
 10
0.0
 20
0.0
 30
0.0
  3
*D13
  1

  0
LINE
  5
1CD
330
1CA
100
AcDbEntity
  8
치수문자_일반주서
 62
     0
370
    -2
100
AcDbLine
 10
46.26289525171239
 20
-6.986816637936023
 30
0.0
 11
46.26289525171239
 21
3.350683362063975
 31
0.0
  0
LINE
  5
1CE
330
1CA
100
AcDbEntity
  8
치수문자_일반주서
 62
     0
370
    -2
100
AcDbLine
 10
43.26289525171239
 20
-6.995344847988306
 30
0.0
 11
43.26289525171239
 21
3.350683362063975
 31
0.0
  0
LINE
  5
1CF
330
1CA
100
AcDbEntity
  8
치수문자_일반주서
 62
     0
370
    -2
100
AcDbLine
 10
46.26289525171239
 20
3.350683362063975
 30
0.0
 11
43.26289525171239
 21
3.350683362063975
 31
0.0
  0
LINE
  5
1D0
330
1CA
100
AcDbEntity
  8
치수문자_일반주서
 62
     0
370
    -2
100
AcDbLine
 10
48.76289525171239
 20
3.350683362063975
 30
0.0
 11
51.26289525171239
 21
3.350683362063975
 31
0.0
  0
LINE
  5
1D1
330
1CA
100
AcDbEntity
  8
치수문자_일반주서
 62
     0
370
    -2
100
AcDbLine
 10
40.76289525171239
 20
3.350683362063975
 30
0.0
 11
38.26289525171239
 21
3.350683362063975
 31
0.0
  0
SOLID
  5
1D2
330
1CA
100
AcDbEntity
  8
치수문자_일반주서
 62
     0
100
AcDbTrace
 10
48.76289525171239
 20
3.767350028730642
 30
0.0
 11
48.76289525171239
 21
2.934016695397309
 31
0.0
 12
46.26289525171239
 22
3.350683362063975
 32
0.0
 13
46.26289525171239
 23
3.350683362063975
 33
0.0
  0
SOLID
  5
1D3
330
1CA
100
AcDbEntity
  8
치수문자_일반주서
 62
     0
100
AcDbTrace
 10
40.76289525171239
 20
2.934016695397309
 30
0.0
 11
40.76289525171239
 21
3.767350028730642
 31
0.0
 12
43.26289525171239
 22
3.350683362063975
 32
0.0
 13
43.26289525171239
 23
3.350683362063975
 33
0.0
  0
MTEXT
  5
1D4
330
1CA
100
AcDbEntity
  8
치수문자_일반주서
 62
     0
100
AcDbMText
 10
44.76289525171229
 20
6.725683362063975
 30
0.0
 40
2.5
 41
0.0
 71
     2
 72
     1
  1
\A1;3
  7
SLDTEXTSTYLE0
 73
     1
 44
1.0
  0
POINT
  5
1D5
330
1CA
100
AcDbEntity
  8
Defpoints
 62
     0
100
AcDbPoint
 10
46.26289525171239
 20
-7.049316637936023
 30
0.0
  0
POINT
  5
1D6
330
1CA
100
AcDbEntity
  8
Defpoints
 62
     0
100
AcDbPoint
 10
43.26289525171239
 20
-7.057844847988306
 30
0.0
  0
POINT
  5
1D7
330
1CA
100
AcDbEntity
  8
Defpoints
 62
     0
100
AcDbPoint
 10
43.26289525171239
 20
3.350683362063975
 30
0.0
  0
ENDBLK
  5
1CC
330
1CA
100
AcDbEntity
  8
0
100
AcDbBlockEnd
  0
BLOCK
  5
1FC
330
1FB
100
AcDbEntity
  8
0
100
AcDbBlockBegin
  2
*D14
 70
     1
 10
0.0
 20
0.0
 30
0.0
  3
*D14
  1

  0
LINE
  5
1FE
330
1FB
100
AcDbEntity
  8
치수문자_일반주서
 62
     0
370
    -2
100
AcDbLine
 10
16.02023193703885
 20
-2.569354424041102
 30
0.0
 11
24.10533989776892
 21
-15.42909585750607
 31
0.0
  0
MTEXT
  5
1FF
330
1FB
100
AcDbEntity
  8
치수문자_일반주서
 62
     0
100
AcDbMText
 10
24.02478877811072
 20
-11.30855425722804
 30
0.0
 40
2.5
 41
0.0
 71
     5
 72
     1
  1
\A1;R0.3
  7
SLDTEXTSTYLE0
 11
0.5322584586264039
 21
-0.8465819117017825
 31
0.0
 73
     1
 44
1.0
  0
LINE
  5
200
330
1FB
100
AcDbEntity
  8
치수문자_일반주서
 62
     0
370
    -2
100
AcDbLine
 10
14.52990825288492
 20
-0.1989250712761109
 30
0.0
 11
14.68958579047284
 21
-0.4528996447866457
 31
0.0
  0
SOLID
  5
201
330
1FB
100
AcDbEntity
  8
치수문자_일반주서
 62
     0
100
AcDbTrace
 10
16.37297440024792
 20
-2.347580066280101
 30
0.0
 11
15.66748947382977
 21
-2.791128781802104
 31
0.0
 12
14.68958579047284
 22
-0.4528996447866457
 32
0.0
 13
14.68958579047284
 23
-0.4528996447866457
 33
0.0
  0
POINT
  5
202
330
1FB
100
AcDbEntity
  8
Defpoints
 62
     0
100
AcDbPoint
 10
14.68958579047284
 20
-0.4528996447866457
 30
0.0
  0
POINT
  5
203
330
1FB
100
AcDbEntity
  8
Defpoints
 62
     0
100
AcDbPoint
 10
14.52990825288492
 20
-0.1989250712761109
 30
0.0
  0
ENDBLK
  5
1FD
330
1FB
100
AcDbEntity
  8
0
100
AcDbBlockEnd
  0
ENDSEC
  0
SECTION
  2
ENTITIES
  0
LINE
  5
96
330
1F
100
AcDbEntity
  8
0
  6
Continuous
 62
     1
370
    15
100
AcDbLine
 10
12.48822749456387
 20
0.5010749287238943
 30
0.0
 11
12.32990825288492
 21
0.5010749287238943
 31
0.0
1001
PE_URL
1000

  0
LINE
  5
97
330
1F
100
AcDbEntity
  8
0
  6
Continuous
 62
     1
370
    15
100
AcDbLine
 10
13.54378285494796
 20
-0.498925071276108
 30
0.0
 11
13.84927262465855
 21
-0.498925071276108
 31
0.0
1001
PE_URL
1000

  0
LINE
  5
98
330
1F
100
AcDbEntity
  8
0
  6
Continuous
 62
     1
370
    15
100
AcDbLine
 10
13.84927262465854
 20
0.5010749287238943
 30
0.0
 11
13.54378285494797
 21
0.5010749287238943
 31
0.0
1001
PE_URL
1000

  0
ARC
  5
99
330
1F
100
AcDbEntity
  8
0
  6
Continuous
 62
     1
370
    15
100
AcDbCircle
 10
14.52990825288492
 20
-0.198925071276108
 30
0.0
 40
0.3000000000000032
100
AcDbArc
 50
346.8674940727832
 51
0.0
1001
PE_URL
1000

  0
ARC
  5
9A
330
1F
100
AcDbEntity
  8
0
  6
Continuous
 62
     1
370
    15
100
AcDbCircle
 10
14.52990825288492
 20
0.2010749287238943
 30
0.0
 40
0.300000000000001
100
AcDbArc
 50
0.0
 51
13.1109900077546
1001
PE_URL
1000

  0
LINE
  5
9B
330
1F
100
AcDbEntity
  8
0
  6
Continuous
 62
     1
370
    15
100
AcDbLine
 10
12.32990825288492
 20
-0.498925071276108
 30
0.0
 11
12.48822749456386
 21
-0.498925071276108
 31
0.0
1001
PE_URL
1000

  0
LINE
  5
9C
330
1F
100
AcDbEntity
  8
외형선
  6
Continuous
370
    15
100
AcDbLine
 10
1.99999999999999
 20
3.001074928723893
 30
0.0
 11
-34.57009174711508
 21
3.001074928723893
 31
0.0
  0
LINE
  5
9D
330
1F
100
AcDbEntity
  8
외형선
  6
Continuous
370
    15
100
AcDbLine
 10
-34.57009174711508
 20
-2.998925071276107
 30
0.0
 11
1.99999999999999
 21
-2.998925071276106
 31
0.0
  0
LINE
  5
9E
330
1F
100
AcDbEntity
  8
외형선
  6
Continuous
370
    15
100
AcDbLine
 10
-34.57009174711508
 20
3.001074928723893
 30
0.0
 11
-35.17009174711508
 21
2.401074928723899
 31
0.0
  0
LINE
  5
9F
330
1F
100
AcDbEntity
  8
외형선
  6
Continuous
370
    15
100
AcDbLine
 10
-35.17009174711508
 20
-2.398925071276113
 30
0.0
 11
-34.57009174711508
 21
-2.998925071276107
 31
0.0
  0
LINE
  5
A0
330
1F
100
AcDbEntity
  8
외형선
  6
Continuous
370
    15
100
AcDbLine
 10
1.99999999999999
 20
-2.998925071276105
 30
0.0
 11
6.555908252884922
 21
-1.340710077178282
 31
0.0
  0
LINE
  5
A1
330
1F
100
AcDbEntity
  8
외형선
  6
Continuous
370
    15
100
AcDbLine
 10
6.555908252884922
 20
1.34285993462607
 30
0.0
 11
1.99999999999999
 21
3.001074928723893
 31
0.0
  0
LINE
  5
A2
330
1F
100
AcDbEntity
  8
외형선
  6
Continuous
370
    15
100
AcDbLine
 10
6.555908252884922
 20
-1.340710077178282
 30
0.0
 11
11.32990825288492
 21
-0.4989250712761061
 31
0.0
  0
LINE
  5
A3
330
1F
100
AcDbEntity
  8
외형선
  6
Continuous
370
    15
100
AcDbLine
 10
11.32990825288492
 20
0.5010749287238944
 30
0.0
 11
6.555908252884922
 21
1.34285993462607
 31
0.0
  0
LINE
  5
A4
330
1F
100
AcDbEntity
  8
외형선
  6
Continuous
370
    15
100
AcDbLine
 10
11.8297917166702
 20
0.5010749287238943
 30
0.0
 11
11.32990825288492
 21
0.5010749287238943
 31
0.0
  0
LINE
  5
A5
330
1F
100
AcDbEntity
  8
외형선
  6
Continuous
370
    15
100
AcDbLine
 10
12.32990825288492
 20
0.5010749287238943
 30
0.0
 11
12.18347861539226
 21
0.5010749287238943
 31
0.0
  0
LINE
  5
A6
330
1F
100
AcDbEntity
  8
외형선
  6
Continuous
370
    15
100
AcDbLine
 10
12.18347861539226
 20
-0.498925071276106
 30
0.0
 11
12.32990825288492
 21
-0.498925071276106
 31
0.0
  0
LINE
  5
A7
330
1F
100
AcDbEntity
  8
외형선
  6
Continuous
370
    15
100
AcDbLine
 10
11.32990825288492
 20
-0.498925071276106
 30
0.0
 11
11.8297917166702
 21
-0.498925071276106
 31
0.0
  0
SPLINE
  5
A8
330
1F
100
AcDbEntity
  8
0
  6
Continuous
 62
     1
370
    15
100
AcDbSpline
210
0.0
220
0.0
230
1.0
 70
     8
 71
     3
 72
    13
 73
     9
 74
     0
 42
0.000000001
 43
0.00000001
 40
0.0
 40
0.0
 40
0.0
 40
0.0
 40
0.1237575091696092
 40
0.3249896643496754
 40
0.5261929435622547
 40
0.6841465752262972
 40
0.842003315283252
 40
1.0
 40
1.0
 40
1.0
 40
1.0
 10
12.48822749456387
 20
0.4878149559972947
 30
0.0
 10
12.57250719801517
 20
0.488919436185958
 30
0.0
 10
12.79382736452395
 20
0.4918198229843271
 30
0.0
 10
13.15210513525144
 20
0.3723108433993576
 30
0.0
 10
13.53389076786319
 20
0.1846266277851817
 30
0.0
 10
13.88540159000098
 20
-0.0200098449740923
 30
0.0
 10
14.20760592989316
 20
-0.2073470319003347
 30
0.0
 10
14.42244241613759
 20
-0.3045343777262604
 30
0.0
 10
14.52990825288493
 20
-0.3531495809583223
 30
0.0
1001
PE_URL
1000

  0
SPLINE
  5
A9
330
1F
100
AcDbEntity
  8
0
  6
Continuous
 62
     1
370
    15
100
AcDbSpline
210
0.0
220
0.0
230
1.0
 70
     8
 71
     3
 72
    11
 73
     7
 74
     0
 42
0.000000001
 43
0.00000001
 40
0.0
 40
0.0
 40
0.0
 40
0.0
 40
0.2690484495037782
 40
0.5380281771835539
 40
0.806927680826826
 40
1.0
 40
1.0
 40
1.0
 40
1.0
 10
14.52990825288494
 20
0.2101793002618473
 30
0.0
 10
14.3929448852372
 20
0.2774696834552305
 30
0.0
 10
14.11905313387291
 20
0.4120332621649098
 30
0.0
 10
13.70832447348752
 20
0.5090440146335019
 30
0.0
 10
13.33619795782182
 20
0.504436143591702
 30
0.0
 10
13.10120755024862
 20
0.4339358073815969
 30
0.0
 10
13.00299778780683
 20
0.4044715354448609
 30
0.0
1001
PE_URL
1000

  0
SPLINE
  5
AA
330
1F
100
AcDbEntity
  8
0
  6
Continuous
 62
     1
370
    15
100
AcDbSpline
210
0.0
220
0.0
230
1.0
 70
     8
 71
     3
 72
    14
 73
    10
 74
     0
 42
0.000000001
 43
0.00000001
 40
0.0
 40
0.0
 40
0.0
 40
0.0
 40
0.25
 40
0.25
 40
0.5
 40
0.5
 40
0.75
 40
0.75
 40
1.0
 40
1.0
 40
1.0
 40
1.0
 10
14.82990825288493
 20
-0.0989270441782384
 30
0.0
 10
14.82990825288492
 20
-0.0572566634618081
 30
0.0
 10
14.83083423229328
 20
-0.0220942134675092
 30
0.0
 10
14.81212197923893
 20
0.0340772566998165
 30
0.0
 10
14.79219902606101
 20
0.055997226188493
 30
0.0
 10
14.73421868083017
 20
0.0983278374091049
 30
0.0
 10
14.69650156715127
 20
0.1192348243155112
 30
0.0
 10
14.61549554320653
 20
0.164062801551786
 30
0.0
 10
14.57211092443026
 20
0.1880695308771316
 30
0.0
 10
14.52990825288492
 20
0.2101793002618588
 30
0.0
1001
PE_URL
1000

  0
SPLINE
  5
AB
330
1F
100
AcDbEntity
  8
0
  6
Continuous
 62
     1
370
    15
100
AcDbSpline
210
0.0
220
0.0
230
1.0
 70
     8
 71
     3
 72
    14
 73
    10
 74
     0
 42
0.000000001
 43
0.00000001
 40
0.0
 40
0.0
 40
0.0
 40
0.0
 40
0.25
 40
0.25
 40
0.5
 40
0.5
 40
0.75
 40
0.75
 40
1.0
 40
1.0
 40
1.0
 40
1.0
 10
14.52990825288493
 20
-0.3531495809583184
 30
0.0
 10
14.5721045464487
 20
-0.3703256257778456
 30
0.0
 10
14.61252345920359
 20
-0.3811990622191672
 30
0.0
 10
14.6882295089871
 20
-0.3832991698946588
 30
0.0
 10
14.72406580107257
 20
-0.3745177815525311
 30
0.0
 10
14.78579338001136
 20
-0.3260088218118395
 30
0.0
 10
14.80994907594362
 20
-0.2842003887018719
 30
0.0
 10
14.83130501132001
 20
-0.1897160816406422
 30
0.0
 10
14.82990825288494
 20
-0.1406386705525101
 30
0.0
 10
14.82990825288493
 20
-0.0989270441782384
 30
0.0
1001
PE_URL
1000

  0
SPLINE
  5
AC
330
1F
100
AcDbEntity
  8
0
  6
Continuous
 62
     1
370
    15
100
AcDbSpline
210
0.0
220
0.0
230
1.0
 70
     8
 71
     3
 72
    13
 73
     9
 74
     0
 42
0.000000001
 43
0.00000001
 40
0.0
 40
0.0
 40
0.0
 40
0.0
 40
0.2003631110016204
 40
0.4007064825789391
 40
0.6010211057254753
 40
0.7582771023734233
 40
0.9154366353561824
 40
0.9708394598246521
 40
0.9708394598246521
 40
0.9708394598246521
 40
0.9708394598246521
 10
12.32990825287884
 20
0.0921738221286054
 30
0.0
 10
12.46696310060014
 20
0.0124022190418676
 30
0.0
 10
12.74105929363812
 20
-0.147133128172378
 30
0.0
 10
13.15210607284248
 20
-0.358850286699722
 30
0.0
 10
13.53389024543508
 20
-0.4810589939269524
 30
0.0
 10
13.88540263372448
 20
-0.5084606567319729
 30
0.0
 10
14.13800314068081
 20
-0.4811956187103913
 30
0.0
 10
14.28321944855811
 20
-0.4341590407616564
 30
0.0
 10
14.3210696698096
 20
-0.4211645261280115
 30
0.0
1001
PE_URL
1000

  0
SPLINE
  5
AD
330
1F
100
AcDbEntity
  8
외형선
  6
Continuous
370
    15
100
AcDbSpline
210
0.0
220
0.0
230
1.0
 70
    24
 71
     3
 72
    12
 73
     8
 74
     0
 42
0.000000001
 43
0.00000001
 40
0.0
 40
0.0
 40
0.0
 40
0.0
 40
0.1956378688791171
 40
0.4034762270792816
 40
0.6113145852794366
 40
0.8191529434795884
 40
1.0
 40
1.0
 40
1.0
 40
1.0
 10
12.32990825287916
 20
0.4939680870257336
 30
0.0
 10
12.32990825288158
 20
0.464394208390043
 30
0.0
 10
12.32990825288655
 20
0.4034021466772773
 30
0.0
 10
12.32990825288451
 20
0.3017308566066254
 30
0.0
 10
12.32990825288505
 20
0.2061608208368286
 30
0.0
 10
12.32990825288491
 20
0.127924564210668
 30
0.0
 10
12.32990825288493
 20
0.098682588924159
 30
0.0
 10
12.32990825288494
 20
0.085076919770842
 30
0.0
  0
SPLINE
  5
AE
330
1F
100
AcDbEntity
  8
0
  6
Continuous
 62
     1
370
    15
100
AcDbSpline
210
0.0
220
0.0
230
1.0
 70
     8
 71
     3
 72
    22
 73
    18
 74
     0
 42
0.000000001
 43
0.00000001
 40
0.0
 40
0.0
 40
0.0
 40
0.0
 40
0.125
 40
0.125
 40
0.25
 40
0.25
 40
0.375
 40
0.375
 40
0.5
 40
0.5
 40
0.625
 40
0.625
 40
0.75
 40
0.75
 40
0.875
 40
0.875
 40
1.0
 40
1.0
 40
1.0
 40
1.0
 10
14.52990825288492
 20
-0.498925071276111
 30
0.0
 10
14.43804550928374
 20
-0.4869857834688394
 30
0.0
 10
14.34867799868842
 20
-0.4386417968406842
 30
0.0
 10
14.1629249699999
 20
-0.3289803762365435
 30
0.0
 10
14.07295941746215
 20
-0.286967991047722
 30
0.0
 10
13.88997075976557
 20
-0.1943336134480229
 30
0.0
 10
13.79536331385994
 20
-0.1433521190121467
 30
0.0
 10
13.61391628007672
 20
-0.0396504498399663
 30
0.0
 10
13.52247609311949
 20
0.0138940114128795
 30
0.0
 10
13.3369983147366
 20
0.1192774040079966
 30
0.0
 10
13.24823088500556
 20
0.1701151551630349
 30
0.0
 10
13.06349081094621
 20
0.2657685389612687
 30
0.0
 10
12.96970656826428
 20
0.3100679149025957
 30
0.0
 10
12.79040996775835
 20
0.3857758122558024
 30
0.0
 10
12.69602860042998
 20
0.4183854501381628
 30
0.0
 10
12.5116884437759
 20
0.4679418721949393
 30
0.0
 10
12.42272851684076
 20
0.4850360862718099
 30
0.0
 10
12.32990825287168
 20
0.4939680870263323
 30
0.0
1001
PE_URL
1000

  0
LINE
  5
B0
330
1F
100
AcDbEntity
  8
외형선
  6
Continuous
370
    15
100
AcDbLine
 10
12.32990825287916
 20
0.4939680870257336
 30
0.0
 11
12.32990825288492
 21
0.5010749287238943
 31
0.0
  0
LINE
  5
B1
330
1F
100
AcDbEntity
  8
외형선
  6
Continuous
370
    15
100
AcDbLine
 10
12.32990825287916
 20
-0.0829270623194069
 30
0.0
 11
12.32990825287916
 21
0.0921738221291472
 31
0.0
  0
SPLINE
  5
B2
330
1F
100
AcDbEntity
  8
0
  6
Continuous
 62
     1
370
    15
100
AcDbSpline
210
0.0
220
0.0
230
1.0
 70
     8
 71
     3
 72
    11
 73
     7
 74
     0
 42
0.000000001
 43
0.00000001
 40
0.0
 40
0.0
 40
0.0
 40
0.0
 40
0.2026096500612087
 40
0.4689081270875345
 40
0.7345743547774205
 40
1.0
 40
1.0
 40
1.0
 40
1.0
 10
13.54378285494796
 20
-0.4854879778341879
 30
0.0
 10
13.461734489122
 20
-0.4870405504801995
 30
0.0
 10
13.27184646780409
 20
-0.4906337353625027
 30
0.0
 10
12.97457664905106
 20
-0.4019789587910435
 30
0.0
 10
12.65204132522204
 20
-0.2637055736167327
 30
0.0
 10
12.43725351098518
 20
-0.1431683651271065
 30
0.0
 10
12.32990825287168
 20
-0.0829270623159056
 30
0.0
1001
PE_URL
1000

  0
SPLINE
  5
B3
330
1F
100
AcDbEntity
  8
0
  6
Continuous
 62
     1
370
    15
100
AcDbSpline
210
0.0
220
0.0
230
1.0
 70
     8
 71
     3
 72
     9
 73
     5
 74
     0
 42
0.000000001
 43
0.00000001
 40
0.0
 40
0.0
 40
0.0
 40
0.0
 40
0.6108393096984619
 40
1.0
 40
1.0
 40
1.0
 40
1.0
 10
12.32990825287884
 20
-0.4905560219092403
 30
0.0
 10
12.46695997310317
 20
-0.4970990648551692
 30
0.0
 10
12.69132621484352
 20
-0.5078106265409401
 30
0.0
 10
12.91568584086752
 20
-0.4318734442694127
 30
0.0
 10
13.00299778780682
 20
-0.4023216779970714
 30
0.0
1001
PE_URL
1000

  0
SPLINE
  5
B4
330
1F
100
AcDbEntity
  8
외형선
  6
Continuous
370
    15
100
AcDbSpline
210
0.0
220
0.0
230
1.0
 70
    24
 71
     3
 72
    12
 73
     8
 74
     0
 42
0.000000001
 43
0.00000001
 40
0.0
 40
0.0
 40
0.0
 40
0.0
 40
0.2172218391132149
 40
0.4366845163315345
 40
0.6561471935406371
 40
0.8756098707692275
 40
1.0
 40
1.0
 40
1.0
 40
1.0
 10
12.32990825288492
 20
-0.090023964677347
 30
0.0
 10
12.32990825288493
 20
-0.1094308008813465
 30
0.0
 10
12.32990825288493
 20
-0.1484446722115302
 30
0.0
 10
12.32990825288497
 20
-0.2376556782416409
 30
0.0
 10
12.32990825288491
 20
-0.3374102409714541
 30
0.0
 10
12.32990825288492
 20
-0.425309929228301
 30
0.0
 10
12.32990825288492
 20
-0.4732232032287432
 30
0.0
 10
12.32990825288489
 20
-0.4905560219023892
 30
0.0
  0
SPLINE
  5
B5
330
1F
100
AcDbEntity
  8
0
  6
Continuous
 62
     1
370
    15
100
AcDbSpline
210
0.0
220
0.0
230
1.0
 70
     8
 71
     3
 72
    14
 73
    10
 74
     0
 42
0.000000001
 43
0.00000001
 40
0.0
 40
0.0
 40
0.0
 40
0.0
 40
0.25
 40
0.25
 40
0.5
 40
0.5
 40
0.75
 40
0.75
 40
1.0
 40
1.0
 40
1.0
 40
1.0
 10
14.52990825288493
 20
0.3539559238772153
 30
0.0
 10
14.57210454645373
 20
0.3367144851520782
 30
0.0
 10
14.61252345921334
 20
0.3107334560142212
 30
0.0
 10
14.68822950900439
 20
0.2515948283811337
 30
0.0
 10
14.7240658010931
 20
0.2178050656606197
 30
0.0
 10
14.78579338003492
 20
0.1600558822690545
 30
0.0
 10
14.8099490759623
 20
0.1386679323231375
 30
0.0
 10
14.83130501132426
 20
0.1350741838507575
 30
0.0
 10
14.82990825288493
 20
0.1501970740667848
 30
0.0
 10
14.82990825288493
 20
0.1742788704695877
 30
0.0
1001
PE_URL
1000

  0
LINE
  5
B6
330
1F
100
AcDbEntity
  8
0
  6
Continuous
 62
     1
370
    15
100
AcDbLine
 10
14.82990825288491
 20
-0.0989270441782141
 30
0.0
 11
14.82990825288493
 21
0.1742788704696008
 31
0.0
1001
PE_URL
1000

  0
SPLINE
  5
B7
330
1F
100
AcDbEntity
  8
0
  6
Continuous
 62
     1
370
    15
100
AcDbSpline
210
0.0
220
0.0
230
1.0
 70
     8
 71
     3
 72
    10
 73
     6
 74
     0
 42
0.000000001
 43
0.00000001
 40
0.0
 40
0.0
 40
0.0
 40
0.0
 40
0.0531932057494118
 40
0.5263868528065954
 40
0.9999999999999999
 40
0.9999999999999999
 40
0.9999999999999999
 40
0.9999999999999999
 10
13.84927262465854
 20
0.4976419998255116
 30
0.0
 10
13.86134152814762
 20
0.498750678951424
 30
0.0
 10
13.98077242228053
 20
0.5097218943094662
 30
0.0
 10
14.20759620651324
 20
0.4676662623209251
 30
0.0
 10
14.42243917405375
 20
0.3918705642503987
 30
0.0
 10
14.52990825288494
 20
0.3539559238772096
 30
0.0
1001
PE_URL
1000

  0
LINE
  5
B8
330
1F
100
AcDbEntity
  8
0
  6
Continuous
 62
     1
370
    15
100
AcDbLine
 10
14.52990825288492
 20
0.5010749287238891
 30
0.0
 11
14.3808359136058
 21
0.4023888038374399
 31
0.0
1001
PE_URL
1000

  0
LINE
  5
BA
330
1F
100
AcDbEntity
  8
0
  6
Continuous
 62
     1
370
    15
100
AcDbLine
 10
14.82990825288493
 20
-0.198925071276108
 30
0.0
 11
14.82990825288491
 21
-0.0989270441782141
 31
0.0
1001
PE_URL
1000

  0
LINE
  5
BB
330
1F
100
AcDbEntity
  8
0
  6
Continuous
 62
     1
370
    15
100
AcDbLine
 10
14.82990825288493
 20
0.1742788704696008
 30
0.0
 11
14.82990825288493
 21
0.2010749287238943
 31
0.0
1001
PE_URL
1000

  0
LINE
  5
BC
330
1F
100
AcDbEntity
  8
외형선
  6
Continuous
370
    15
100
AcDbLine
 10
12.32990825288492
 20
-0.498925071276108
 30
0.0
 11
12.32990825287916
 21
-0.4905560219091404
 31
0.0
  0
LINE
  5
BD
330
1F
100
AcDbEntity
  8
외형선
  6
Continuous
370
    15
100
AcDbLine
 10
1.99999999999999
 20
3.001074928723894
 30
0.0
 11
1.99999999999999
 21
-2.998925071276108
 31
0.0
  0
LINE
  5
BE
330
1F
100
AcDbEntity
  8
외형선
  6
Continuous
370
    15
100
AcDbLine
 10
-34.57009174711508
 20
3.001074928723893
 30
0.0
 11
-34.57009174711508
 21
-2.998925071276109
 31
0.0
  0
LINE
  5
BF
330
1F
100
AcDbEntity
  8
외형선
  6
Continuous
370
    15
100
AcDbLine
 10
-35.17009174711508
 20
2.401074928723899
 30
0.0
 11
-35.17009174711508
 21
-2.398925071276114
 31
0.0
  0
LINE
  5
C0
330
1F
100
AcDbEntity
  8
외형선
  6
Continuous
370
    15
100
AcDbLine
 10
6.555908252884922
 20
1.34285993462607
 30
0.0
 11
6.555908252884922
 21
-1.340710077178282
 31
0.0
  0
LINE
  5
C1
330
1F
100
AcDbEntity
  8
외형선
  6
Continuous
370
    15
100
AcDbLine
 10
11.32990825288492
 20
0.5010749287238944
 30
0.0
 11
11.32990825288492
 21
-0.4989250712761061
 31
0.0
  0
SPLINE
  5
C2
330
1F
100
AcDbEntity
  8
외형선
  6
Continuous
370
    15
100
AcDbSpline
210
0.0
220
0.0
230
1.0
 70
     8
 71
     3
 72
    10
 73
     6
 74
     0
 42
0.000000001
 43
0.00000001
 40
0.0
 40
0.0
 40
0.0
 40
0.0
 40
0.5
 40
0.5
 40
1.0
 40
1.0
 40
1.0
 40
1.0
 10
12.32990825287776
 20
-0.0829270623193355
 30
0.0
 10
12.24575586936805
 20
-0.0354115317368717
 30
0.0
 10
12.16262261682287
 20
0.0130762807083195
 30
0.0
 10
11.99877054426219
 20
0.107945040503216
 30
0.0
 10
11.91340175519985
 20
0.1551995009133019
 30
0.0
 10
11.8297917166702
 20
0.1993530119512724
 30
0.0
  0
SPLINE
  5
C3
330
1F
100
AcDbEntity
  8
외형선
  6
Continuous
370
    15
100
AcDbSpline
210
0.0
220
0.0
230
1.0
 70
    24
 71
     3
 72
    13
 73
     9
 74
     0
 42
0.000000001
 43
0.00000001
 40
0.0
 40
0.0
 40
0.0
 40
0.0
 40
0.0392560810710425
 40
0.2496320950482818
 40
0.460008109025174
 40
0.6703841229932812
 40
0.8807601369800245
 40
1.0
 40
1.0
 40
1.0
 40
1.0
 10
12.32990825288492
 20
-0.0829270623230432
 30
0.0
 10
12.32990825288492
 20
-0.0849414200284148
 30
0.0
 10
12.32990825288494
 20
-0.0977508579664138
 30
0.0
 10
12.32990825288483
 20
-0.1512562620962915
 30
0.0
 10
12.32990825288498
 20
-0.2368198450100226
 30
0.0
 10
12.32990825288492
 20
-0.3376373154516036
 30
0.0
 10
12.32990825288492
 20
-0.4252807185970814
 30
0.0
 10
12.32990825288489
 20
-0.4732154433419309
 30
0.0
 10
12.32990825288491
 20
-0.490556021909873
 30
0.0
  0
SPLINE
  5
C4
330
1F
100
AcDbEntity
  8
외형선
  6
Continuous
370
    15
100
AcDbSpline
210
0.0
220
0.0
230
1.0
 70
     8
 71
     3
 72
    10
 73
     6
 74
     0
 42
0.000000001
 43
0.00000001
 40
0.0
 40
0.0
 40
0.0
 40
0.0
 40
0.5
 40
0.5
 40
1.0
 40
1.0
 40
1.0
 40
1.0
 10
12.32990825287776
 20
-0.4905560219091261
 30
0.0
 10
12.24575586936803
 20
-0.4817739721226322
 30
0.0
 10
12.16262261682288
 20
-0.466127931273945
 30
0.0
 10
11.99877054426219
 20
-0.4227559631191739
 30
0.0
 10
11.91340175519986
 20
-0.3945436997966048
 30
0.0
 10
11.8297917166702
 20
-0.3614160619674466
 30
0.0
  0
SPLINE
  5
C5
330
1F
100
AcDbEntity
  8
외형선
  6
Continuous
370
    15
100
AcDbSpline
210
0.0
220
0.0
230
1.0
 70
     8
 71
     3
 72
     9
 73
     5
 74
     0
 42
0.000000001
 43
0.00000001
 40
0.0
 40
0.0
 40
0.0
 40
0.0
 40
0.7922418164560666
 40
0.9999999999999999
 40
0.9999999999999999
 40
0.9999999999999999
 40
0.9999999999999999
 10
11.8297917166702
 20
-0.4579303018690448
 30
0.0
 10
11.92323040378248
 20
-0.4770647049918409
 30
0.0
 10
12.04117253353555
 20
-0.5012169306448492
 30
0.0
 10
12.15899916786985
 20
-0.4963626993074854
 30
0.0
 10
12.18347861539226
 20
-0.4953541930223326
 30
0.0
  0
LINE
  5
C6
330
1F
100
AcDbEntity
  8
외형선
  6
Continuous
370
    15
100
AcDbLine
 10
11.8297917166702
 20
-0.457907951799048
 30
0.0
 11
11.8297917166702
 21
-0.498925071276106
 31
0.0
  0
SPLINE
  5
C7
330
1F
100
AcDbEntity
  8
외형선
  6
Continuous
370
    15
100
AcDbSpline
210
0.0
220
0.0
230
1.0
 70
     8
 71
     3
 72
    10
 73
     6
 74
     0
 42
0.000000001
 43
0.00000001
 40
0.0
 40
0.0
 40
0.0
 40
0.0
 40
0.5
 40
0.5
 40
1.0
 40
1.0
 40
1.0
 40
1.0
 10
12.32990825287776
 20
0.493968087025748
 30
0.0
 10
12.24575586936805
 20
0.5020659863517472
 30
0.0
 10
12.16262261682287
 20
0.5032086135025158
 30
0.0
 10
11.99877054426219
 20
0.4918508949723284
 30
0.0
 10
11.91340175519985
 20
0.4791533047907063
 30
0.0
 10
11.8297917166702
 20
0.4600801593168332
 30
0.0
  0
LINE
  5
C8
330
1F
100
AcDbEntity
  8
외형선
  6
Continuous
370
    15
100
AcDbLine
 10
11.8297917166702
 20
0.5010749287238943
 30
0.0
 11
11.82979171667021
 21
0.3454449516661999
 31
0.0
  0
SPLINE
  5
C9
330
1F
100
AcDbEntity
  8
외형선
  6
Continuous
370
    15
100
AcDbSpline
210
0.0
220
0.0
230
1.0
 70
     8
 71
     3
 72
    10
 73
     6
 74
     0
 42
0.000000001
 43
0.00000001
 40
0.0
 40
0.0
 40
0.0
 40
0.0
 40
0.5
 40
0.5
 40
1.0
 40
1.0
 40
1.0
 40
1.0
 10
12.32990825287776
 20
0.0921738221292178
 30
0.0
 10
12.24575586936803
 20
0.1395676742787806
 30
0.0
 10
12.16262261682288
 20
0.1854760064014677
 30
0.0
 10
11.99877054426219
 20
0.2706109095470883
 30
0.0
 10
11.91340175519986
 20
0.310589416563819
 30
0.0
 10
11.8297917166702
 20
0.3454588448227941
 30
0.0
  0
LINE
  5
CA
330
1F
100
AcDbEntity
  8
외형선
  6
Continuous
370
    15
100
AcDbLine
 10
11.8297917166702
 20
0.1994047433934509
 30
0.0
 11
11.82979171667021
 21
-0.3614292606294408
 31
0.0
  0
SPLINE
  5
CB
330
1F
100
AcDbEntity
  8
외형선
  6
Continuous
370
    15
100
AcDbSpline
210
0.0
220
0.0
230
1.0
 70
    24
 71
     3
 72
    12
 73
     8
 74
     0
 42
0.000000001
 43
0.00000001
 40
0.0
 40
0.0
 40
0.0
 40
0.0
 40
0.1956378688816409
 40
0.4034762270811394
 40
0.611314585280641
 40
0.8191529434801329
 40
0.9999999999999999
 40
0.9999999999999999
 40
0.9999999999999999
 40
0.9999999999999999
 10
12.32990825288494
 20
0.4939680870258998
 30
0.0
 10
12.32990825288494
 20
0.4643942083902756
 30
0.0
 10
12.32990825288492
 20
0.4034021466781531
 30
0.0
 10
12.32990825288492
 20
0.301730856606527
 30
0.0
 10
12.32990825288495
 20
0.2061608208368539
 30
0.0
 10
12.32990825288485
 20
0.1279245642106593
 30
0.0
 10
12.32990825288492
 20
0.09868258892415
 30
0.0
 10
12.32990825288493
 20
0.0850769197708317
 30
0.0
  0
LINE
  5
CC
330
1F
100
AcDbEntity
  8
중심선
 62
     1
100
AcDbLine
 10
-36.67009174711508
 20
0.0010749287238892
 30
0.0
 11
16.32990825288493
 21
0.0010749287238892
 31
0.0
  0
LINE
  5
CD
330
1F
100
AcDbEntity
  8
참조1
100
AcDbLine
 10
-10.1706051146713
 20
-2.498925071276081
 30
0.0
 11
-10.1706051146713
 21
-39.9989250712761
 31
0.0
  0
LINE
  5
CE
330
1F
100
AcDbEntity
  8
참조1
100
AcDbLine
 10
-10.1706051146713
 20
-39.9989250712761
 30
0.0
 11
-25.32894856142375
 21
-39.9989250712761
 31
0.0
  0
CIRCLE
  5
CF
330
1F
100
AcDbEntity
  8
해칭선
100
AcDbCircle
 10
0.0
 20
0.0
 30
0.0
 40
2.999999999999999
  0
INSERT
  5
D0
330
1F
100
AcDbEntity
  8
0
  6
Continuous
 62
     7
100
AcDbBlockReference
 66
     1
  2
블럭10
 10
-24.11087804679651
 20
-52.04609937292004
 30
0.0
  0
ATTRIB
  5
D1
330
D0
100
AcDbEntity
  8
FORMAT
 62
     2
100
AcDbText
 10
-40.23013908623206
 20
-49.97073246008785
 30
0.0
 40
4.233333333333333
  1
SEME0101003E [ 2 FLUTE ]
 41
0.75
  7
SLDTEXTSTYLE0
 11
-40.23013908623206
 21
-52.08739912675452
 31
0.0
100
AcDbAttribute
  2
AUTOATTR0
 70
     0
 74
     1
  0
SEQEND
  5
D2
330
D0
100
AcDbEntity
  8
0
  6
Continuous
 62
     7
  0
HATCH
  5
D3
330
1F
100
AcDbEntity
  8
중심선
100
AcDbHatch
 10
0.0
 20
0.0
 30
0.0
210
0.0
220
0.0
230
1.0
  2
SOLID
 70
     1
 71
     0
 91
        1
 92
        0
 93
        4
 72
     1
 10
-18.39596874241566
 20
-35.7989250712761
 11
-21.84224398625294
 21
-35.7989250712761
 72
     1
 10
-21.84224398625294
 20
-35.7989250712761
 11
-23.97047384545696
 21
-38.3352506518487
 72
     1
 10
-23.97047384545696
 20
-38.3352506518487
 11
-20.52416551650653
 21
-38.33521122254621
 72
     1
 10
-20.52416551650653
 20
-38.33521122254621
 11
-18.39596874241566
 21
-35.7989250712761
 97
        0
 75
     0
 76
     1
 98
        1
 10
3.731653973792727
 20
0.0
  0
HATCH
  5
D4
330
1F
100
AcDbEntity
  8
중심선
100
AcDbHatch
 10
0.0
 20
0.0
 30
0.0
210
0.0
220
0.0
230
1.0
  2
SOLID
 70
     1
 71
     0
 91
        1
 92
        0
 93
        4
 72
     1
 10
-13.38320475137971
 20
-35.7989250712761
 11
-16.82947999521699
 21
-35.7989250712761
 72
     1
 10
-16.82947999521699
 20
-35.7989250712761
 11
-21.36061800357438
 21
-41.19892507127612
 72
     1
 10
-21.36061800357438
 20
-41.19892507127612
 11
-17.91434275973709
 21
-41.19892507127612
 72
     1
 10
-17.91434275973709
 20
-41.19892507127612
 11
-13.3832047513797
 21
-35.7989250712761
 97
        0
 75
     0
 76
     1
 98
        1
 10
3.731653973792727
 20
0.0
  0
HATCH
  5
D5
330
1F
100
AcDbEntity
  8
중심선
100
AcDbHatch
 10
0.0
 20
0.0
 30
0.0
210
0.0
220
0.0
230
1.0
  2
SOLID
 70
     1
 71
     0
 91
        1
 92
        0
 93
        4
 72
     1
 10
-8.370440760343811
 20
-35.79892507127613
 11
-11.81671600418093
 21
-35.7989250712761
 72
     1
 10
-11.81671600418093
 20
-35.7989250712761
 11
-18.86515290607018
 21
-44.19892507127612
 72
     1
 10
-18.86515290607018
 20
-44.19892507127612
 11
-15.41887766223289
 21
-44.19892507127612
 72
     1
 10
-15.41887766223289
 20
-44.19892507127612
 11
-8.370440760343811
 21
-35.79892507127613
 97
        0
 75
     0
 76
     1
 98
        1
 10
3.731653973792727
 20
0.0
  0
HATCH
  5
D6
330
1F
100
AcDbEntity
  8
중심선
100
AcDbHatch
 10
0.0
 20
0.0
 30
0.0
210
0.0
220
0.0
230
1.0
  2
SOLID
 70
     1
 71
     0
 91
        1
 92
        0
 93
        6
 72
     3
 10
-3.570550329331611
 20
-39.99892507132738
 11
3.960054785062284
 21
1.540882976769353E-10
 40
0.3939339440162627
 50
17.09539180608438
 51
320.0019657685081
 73
     0
 72
     1
 10
-1.887550673631015
 20
-38.58681907591441
 11
0.4177512000700223
 21
-36.65249236586649
 72
     3
 10
-3.570550329384458
 20
-39.99892507127625
 11
6.600054785286829
 21
-1.278976924368180E-13
 40
0.636358354079598
 50
39.9987384933741
 51
368.4976242363725
 73
     1
 72
     1
 10
2.854782162516152
 20
-39.03892507120613
 11
-4.890483022548534
 21
-39.0389250712061
 72
     1
 10
-4.890483022548535
 20
-39.0389250712061
 11
-4.890508066994469
 21
-40.95892507120602
 72
     1
 10
-4.890508066994469
 20
-40.95892507120602
 11
-0.4491282975224324
 21
-40.95892507120599
 97
        0
 75
     0
 76
     1
 98
        1
 10
3.731653973792727
 20
0.0
  0
DIMENSION
  5
D9
330
1F
100
AcDbEntity
  8
치수문자_일반주서
100
AcDbDimension
  2
_D
 10
12.32990825288489
 20
11.0010749287239
 30
0.0
 11
22.57990825288492
 21
11.0010749287239
 31
0.0
 70
   160
  1
<>
 71
     2
 42
2.500000000000025
  3
SLDDIMSTYLE0
100
AcDbAlignedDimension
 13
14.82990825288492
 23
0.5010749287238891
 33
0.0
 14
12.32990825288489
 24
0.4927058793501768
 34
0.0
100
AcDbRotatedDimension
1001
PE_URL
1000

1001
ACAD
1000
DSTYLE
1002
{
1070
    41
1040
2.5
1070
   271
1070
     1
1070
   140
1040
2.5
1002
}
  0
DIMENSION
  5
E6
330
1F
100
AcDbEntity
  8
치수문자_일반주서
100
AcDbDimension
  2
_D_1
 10
-43.17009174711506
 20
-2.99892507127614
 30
0.0
 11
-43.17009174711511
 21
10.43857492872387
 31
0.0
 70
   160
  1
%%c<>
 71
     2
 42
6.000000000000005
 52
-270.0
  3
SLDDIMSTYLE0
100
AcDbAlignedDimension
 13
-34.57009174711506
 23
3.001074928723896
 33
0.0
 14
-34.57009174711506
 24
-2.998925071276109
 34
0.0
 50
90.0000000000002
100
AcDbRotatedDimension
1001
PE_URL
1000

1001
ACAD
1000
DSTYLE
1002
{
1070
    41
1040
2.5
1070
   271
1070
     0
1070
   140
1040
2.5
1002
}
  0
DIMENSION
  5
F4
330
1F
100
AcDbEntity
  8
치수문자_일반주서
100
AcDbDimension
  2
_D_2
 10
-35.17009174711507
 20
19.0010749287239
 30
0.0
 11
-10.17009174711506
 21
19.0010749287239
 31
0.0
 70
   160
  1
<>
 71
     2
 42
50.0
  3
SLDDIMSTYLE0
100
AcDbAlignedDimension
 13
14.82990825288492
 23
0.5010749287238891
 33
0.0
 14
-35.17009174711508
 24
2.401074928723899
 34
0.0
 50
0.0000000000000081
100
AcDbRotatedDimension
1001
PE_URL
1000

1001
ACAD
1000
DSTYLE
1002
{
1070
    41
1040
2.5
1070
   271
1070
     0
1070
   140
1040
2.5
1002
}
  0
DIMENSION
  5
FF
330
1F
100
AcDbEntity
  8
치수문자_일반주서
100
AcDbDimension
  2
_D_3
 10
22.82990825288491
 20
-0.49892507127608
 30
0.0
 11
22.82990825288488
 21
7.626074928723925
 31
0.0
 70
   160
  1
%%c<>
 71
     2
 42
1.0
 52
-270.0
  3
SLDDIMSTYLE0
100
AcDbAlignedDimension
 13
14.82990825288492
 23
0.5010749287238891
 33
0.0
 14
14.82990825288492
 24
-0.4989250712761109
 34
0.0
 50
90.0000000000002
100
AcDbRotatedDimension
1001
PE_URL
1000

1001
ACAD
1000
DSTYLE
1002
{
1070
    41
1040
2.5
1070
   271
1070
     0
1070
   140
1040
2.5
1002
}
  0
LINE
  5
10C
330
1F
100
AcDbEntity
  8
참조1
100
AcDbLine
 10
72.64339206823053
 20
7.441074928723896
 30
0.0
 11
72.64339206823053
 21
-7.438925071276109
 31
0.0
  0
LINE
  5
10D
330
1F
100
AcDbEntity
  8
참조1
100
AcDbLine
 10
85.34339206823053
 20
5.441074928723896
 30
0.0
 11
72.64339206823053
 21
5.441074928723896
 31
0.0
  0
SOLID
  5
10E
330
1F
100
AcDbEntity
  8
참조1
100
AcDbTrace
 10
72.64339206823053
 20
5.441074928723896
 30
0.0
 11
78.99339206823052
 21
4.425074928723896
 31
0.0
 12
78.99339206823052
 22
6.457074928723896
 32
0.0
 13
78.99339206823052
 23
6.457074928723896
 33
0.0
  0
LINE
  5
10F
330
1F
100
AcDbEntity
  8
참조1
100
AcDbLine
 10
85.34339206823053
 20
-5.438925071276109
 30
0.0
 11
72.64339206823053
 21
-5.438925071276109
 31
0.0
  0
SOLID
  5
110
330
1F
100
AcDbEntity
  8
참조1
100
AcDbTrace
 10
72.64339206823053
 20
-5.438925071276109
 30
0.0
 11
78.99339206823052
 21
-6.454925071276109
 31
0.0
 12
78.99339206823052
 22
-4.422925071276109
 32
0.0
 13
78.99339206823052
 23
-4.422925071276109
 33
0.0
  0
MTEXT
  5
111
330
1F
100
AcDbEntity
  8
참조1
100
AcDbMText
 10
82.0408821607008
 20
10.98929157337383
 30
0.0
 40
3.5
 41
0.0
 71
     1
 72
     1
  1
A
  7
SLDTEXTSTYLE0
 73
     1
 44
1.0
  0
MTEXT
  5
112
330
1F
100
AcDbEntity
  8
참조1
100
AcDbMText
 10
82.0408821607008
 20
0.1092915733738251
 30
0.0
 40
3.5
 41
0.0
 71
     1
 72
     1
  1
A
  7
SLDTEXTSTYLE0
 73
     1
 44
1.0
  0
INSERT
  5
119
330
1F
100
AcDbEntity
  8
해칭선
100
AcDbBlockReference
  2
SW_DOWELSYMBOL_0
 10
0.0
 20
0.0
 30
0.0
  0
ARC
  5
1F6
330
1F
100
AcDbEntity
  8
0
  6
Continuous
 62
     1
370
    15
100
AcDbCircle
 10
14.52990825288492
 20
0.2010749287238892
 30
0.0
 40
0.3
100
AcDbArc
 50
0.0000000000000848
 51
90.0
1001
PE_URL
1000

  0
ARC
  5
1F7
102
{ACAD_REACTORS
102
}
330
1F
100
AcDbEntity
  8
0
  6
Continuous
 62
     1
370
    15
100
AcDbCircle
 10
14.52990825288492
 20
-0.1989250712761109
 30
0.0
 40
0.3
100
AcDbArc
 50
270.0
 51
359.9999999999999
1001
PE_URL
1000

  0
DIMENSION
  5
1F8
102
{ACAD_REACTORS
102
}
102
{ACAD_XDICTIONARY
360
1F9
102
}
330
1F
100
AcDbEntity
  8
치수문자_일반주서
100
AcDbDimension
  2
*D14
 10
14.52990825288492
 20
-0.1989250712761109
 30
0.0
 11
22.22580221574443
 21
-12.43960348180915
 31
0.0
 70
   164
 71
     5
 42
0.3
  3
SLDDIMSTYLE0
100
AcDbRadialDimension
 15
14.68958579047284
 25
-0.4528996447866457
 35
0.0
 40
0.0
1001
ACAD
1000
DSTYLE
1002
{
1070
    41
1040
2.5
1070
   271
1070
     1
1070
   140
1040
2.5
1070
    78
1070
     0
1002
}
1001
ACAD_DSTYLE_DIMRADIAL_EXTENSION
1070
   387
1070
     1
1070
   388
1040
4.71238898038469
1070
   390
1040
6.283185307179584
1001
PE_URL
1000

  0
ENDSEC
  0
SECTION
  2
OBJECTS
  0
DICTIONARY
  5
C
330
0
100
AcDbDictionary
281
     1
  3
ACAD_DETAILVIEWSTYLE
350
1DD
  3
ACAD_GROUP
350
D
  3
ACAD_LAYOUT
350
1A
  3
ACAD_MLINESTYLE
350
17
  3
ACAD_PLOTSETTINGS
350
19
  3
ACAD_PLOTSTYLENAME
350
E
  3
ACAD_SCALELIST
350
47
  3
ACAD_SECTIONVIEWSTYLE
350
1DE
  3
AcDbVariableDictionary
350
1D8
  3
APPDATA
350
13B
  3
DWGPROPS
350
205
  0
DICTIONARY
  5
1F9
330
1F8
100
AcDbDictionary
280
     1
281
     1
  0
DICTIONARY
  5
1DD
102
{ACAD_REACTORS
330
C
102
}
330
C
100
AcDbDictionary
281
     1
  0
DICTIONARY
  5
D
102
{ACAD_REACTORS
330
C
102
}
330
C
100
AcDbDictionary
281
     1
  0
DICTIONARY
  5
1A
102
{ACAD_REACTORS
330
C
102
}
330
C
100
AcDbDictionary
281
     1
  3
Layout1
350
1E
  3
Layout2
350
26
  3
Model
350
22
  0
DICTIONARY
  5
17
102
{ACAD_REACTORS
330
C
102
}
330
C
100
AcDbDictionary
281
     1
  3
Standard
350
18
  0
DICTIONARY
  5
19
102
{ACAD_REACTORS
330
C
102
}
330
C
100
AcDbDictionary
281
     1
  0
ACDBDICTIONARYWDFLT
  5
E
102
{ACAD_REACTORS
330
C
102
}
330
C
100
AcDbDictionary
281
     1
  3
Normal
350
F
100
AcDbDictionaryWithDefault
340
F
  0
DICTIONARY
  5
47
102
{ACAD_REACTORS
330
C
102
}
330
C
100
AcDbDictionary
281
     1
  3
A0
350
48
  3
A1
350
49
  3
A2
350
4A
  3
A3
350
4B
  3
A4
350
4C
  3
A5
350
4D
  3
A6
350
4E
  3
A7
350
4F
  3
A8
350
50
  3
A9
350
51
  3
B0
350
52
  3
B1
350
53
  3
B2
350
54
  3
B3
350
55
  3
B4
350
56
  3
B5
350
57
  3
B6
350
58
  3
B7
350
59
  3
B8
350
5A
  3
B9
350
5B
  3
C0
350
5C
  3
C1
350
5D
  3
C2
350
5E
  3
C3
350
5F
  3
C4
350
60
  3
C5
350
61
  3
C6
350
62
  3
C7
350
63
  3
C8
350
64
  3
C9
350
65
  3
D0
350
66
  3
D1
350
67
  3
D2
350
68
  0
DICTIONARY
  5
1DE
102
{ACAD_REACTORS
330
C
102
}
330
C
100
AcDbDictionary
281
     1
  0
DICTIONARY
  5
1D8
102
{ACAD_REACTORS
330
C
102
}
330
C
100
AcDbDictionary
281
     1
  0
DICTIONARY
  5
13B
102
{ACAD_REACTORS
330
C
102
}
330
C
100
AcDbDictionary
281
     1
  0
XRECORD
  5
205
102
{ACAD_REACTORS
330
C
102
}
330
C
100
AcDbXrecord
280
     1
  1
DWGPROPS COOKIE
  2

  3

  4

  6

  7

  8
12017044
  9

300
=
301
=
302
=
303
=
304
=
305
=
306
=
307
=
308
=
309
=
 40
0.0
 41
2458270.424653935
 42
2458271.400331968
  1

 90
        0
  0
LAYOUT
  5
1E
102
{ACAD_REACTORS
330
1A
102
}
330
1A
100
AcDbPlotSettings
  1

  2
none_device
  4

  6

 40
0.0
 41
0.0
 42
0.0
 43
0.0
 44
0.0
 45
0.0
 46
0.0
 47
0.0
 48
0.0
 49
0.0
140
0.0
141
0.0
142
1.0
143
1.0
 70
   688
 72
     1
 73
     0
 74
     5
  7

 75
    16
147
1.0
148
0.0
149
0.0
100
AcDbLayout
  1
Layout1
 70
     1
 71
     1
 10
0.0
 20
0.0
 11
420.0
 21
297.0
 12
0.0
 22
0.0
 32
0.0
 14
1.000000000000000E+20
 24
1.000000000000000E+20
 34
1.000000000000000E+20
 15
-1.000000000000000E+20
 25
-1.000000000000000E+20
 35
-1.000000000000000E+20
146
0.0
 13
0.0
 23
0.0
 33
0.0
 16
1.0
 26
0.0
 36
0.0
 17
0.0
 27
1.0
 37
0.0
 76
     0
330
1B
  0
LAYOUT
  5
26
102
{ACAD_REACTORS
330
1A
102
}
330
1A
100
AcDbPlotSettings
  1

  2
none_device
  4

  6

 40
0.0
 41
0.0
 42
0.0
 43
0.0
 44
0.0
 45
0.0
 46
0.0
 47
0.0
 48
0.0
 49
0.0
140
0.0
141
0.0
142
1.0
143
1.0
 70
   688
 72
     1
 73
     0
 74
     5
  7

 75
    16
147
1.0
148
0.0
149
0.0
100
AcDbLayout
  1
Layout2
 70
     1
 71
     2
 10
0.0
 20
0.0
 11
0.0
 21
0.0
 12
0.0
 22
0.0
 32
0.0
 14
0.0
 24
0.0
 34
0.0
 15
0.0
 25
0.0
 35
0.0
146
0.0
 13
0.0
 23
0.0
 33
0.0
 16
1.0
 26
0.0
 36
0.0
 17
0.0
 27
1.0
 37
0.0
 76
     0
330
23
  0
LAYOUT
  5
22
102
{ACAD_REACTORS
330
1A
102
}
330
1A
100
AcDbPlotSettings
  1

  2
none_device
  4
ANSI_A_(11.00_x_8.50_Inches)
  6

 40
6.35
 41
19.05
 42
6.35000508
 43
19.05000254
 44
279.4
 45
215.9
 46
109.0207137459991
 47
109.5167989514522
 48
0.0
 49
0.0
140
0.0
141
0.0
142
0.0784549620558593
143
1.0
 70
  1696
 72
     0
 73
     0
 74
     0
  7

 75
     0
147
0.0235690232323232
148
0.0
149
0.0
100
AcDbLayout
  1
Model
 70
     1
 71
     0
 10
0.0
 20
0.0
 11
420.0
 21
297.0
 12
0.0
 22
0.0
 32
0.0
 14
-46.54509174711512
 24
-49.97073246008785
 34
0.0
 15
85.34339206823053
 25
22.3760749287239
 35
0.0
146
0.0
 13
0.0
 23
0.0
 33
0.0
 16
1.0
 26
0.0
 36
0.0
 17
0.0
 27
1.0
 37
0.0
 76
     0
330
1F
331
29
  0
MLINESTYLE
  5
18
102
{ACAD_REACTORS
330
17
102
}
330
17
100
AcDbMlineStyle
  2
Standard
 70
     0
  3

 62
   256
 51
90.0
 52
90.0
 71
     2
 49
0.5
 62
   256
  6
BYLAYER
 49
-0.5
 62
   256
  6
BYLAYER
  0
ACDBPLACEHOLDER
  5
F
102
{ACAD_REACTORS
330
E
102
}
330
E
  0
SCALE
  5
48
102
{ACAD_REACTORS
330
47
102
}
330
47
100
AcDbScale
 70
     0
300
1:1
140
1.0
141
1.0
290
     1
  0
SCALE
  5
49
102
{ACAD_REACTORS
330
47
102
}
330
47
100
AcDbScale
 70
     0
300
1:2
140
1.0
141
2.0
290
     0
  0
SCALE
  5
4A
102
{ACAD_REACTORS
330
47
102
}
330
47
100
AcDbScale
 70
     0
300
1:4
140
1.0
141
4.0
290
     0
  0
SCALE
  5
4B
102
{ACAD_REACTORS
330
47
102
}
330
47
100
AcDbScale
 70
     0
300
1:5
140
1.0
141
5.0
290
     0
  0
SCALE
  5
4C
102
{ACAD_REACTORS
330
47
102
}
330
47
100
AcDbScale
 70
     0
300
1:8
140
1.0
141
8.0
290
     0
  0
SCALE
  5
4D
102
{ACAD_REACTORS
330
47
102
}
330
47
100
AcDbScale
 70
     0
300
1:10
140
1.0
141
10.0
290
     0
  0
SCALE
  5
4E
102
{ACAD_REACTORS
330
47
102
}
330
47
100
AcDbScale
 70
     0
300
1:16
140
1.0
141
16.0
290
     0
  0
SCALE
  5
4F
102
{ACAD_REACTORS
330
47
102
}
330
47
100
AcDbScale
 70
     0
300
1:20
140
1.0
141
20.0
290
     0
  0
SCALE
  5
50
102
{ACAD_REACTORS
330
47
102
}
330
47
100
AcDbScale
 70
     0
300
1:30
140
1.0
141
30.0
290
     0
  0
SCALE
  5
51
102
{ACAD_REACTORS
330
47
102
}
330
47
100
AcDbScale
 70
     0
300
1:40
140
1.0
141
40.0
290
     0
  0
SCALE
  5
52
102
{ACAD_REACTORS
330
47
102
}
330
47
100
AcDbScale
 70
     0
300
1:50
140
1.0
141
50.0
290
     0
  0
SCALE
  5
53
102
{ACAD_REACTORS
330
47
102
}
330
47
100
AcDbScale
 70
     0
300
1:100
140
1.0
141
100.0
290
     0
  0
SCALE
  5
54
102
{ACAD_REACTORS
330
47
102
}
330
47
100
AcDbScale
 70
     0
300
2:1
140
2.0
141
1.0
290
     0
  0
SCALE
  5
55
102
{ACAD_REACTORS
330
47
102
}
330
47
100
AcDbScale
 70
     0
300
4:1
140
4.0
141
1.0
290
     0
  0
SCALE
  5
56
102
{ACAD_REACTORS
330
47
102
}
330
47
100
AcDbScale
 70
     0
300
8:1
140
8.0
141
1.0
290
     0
  0
SCALE
  5
57
102
{ACAD_REACTORS
330
47
102
}
330
47
100
AcDbScale
 70
     0
300
10:1
140
10.0
141
1.0
290
     0
  0
SCALE
  5
58
102
{ACAD_REACTORS
330
47
102
}
330
47
100
AcDbScale
 70
     0
300
100:1
140
100.0
141
1.0
290
     0
  0
SCALE
  5
59
102
{ACAD_REACTORS
330
47
102
}
330
47
100
AcDbScale
 70
     0
300
1/128" = 1'-0"
140
0.0078125
141
12.0
290
     0
  0
SCALE
  5
5A
102
{ACAD_REACTORS
330
47
102
}
330
47
100
AcDbScale
 70
     0
300
1/64" = 1'-0"
140
0.015625
141
12.0
290
     0
  0
SCALE
  5
5B
102
{ACAD_REACTORS
330
47
102
}
330
47
100
AcDbScale
 70
     0
300
1/32" = 1'-0"
140
0.03125
141
12.0
290
     0
  0
SCALE
  5
5C
102
{ACAD_REACTORS
330
47
102
}
330
47
100
AcDbScale
 70
     0
300
1/16" = 1'-0"
140
0.0625
141
12.0
290
     0
  0
SCALE
  5
5D
102
{ACAD_REACTORS
330
47
102
}
330
47
100
AcDbScale
 70
     0
300
3/32" = 1'-0"
140
0.09375
141
12.0
290
     0
  0
SCALE
  5
5E
102
{ACAD_REACTORS
330
47
102
}
330
47
100
AcDbScale
 70
     0
300
1/8" = 1'-0"
140
0.125
141
12.0
290
     0
  0
SCALE
  5
5F
102
{ACAD_REACTORS
330
47
102
}
330
47
100
AcDbScale
 70
     0
300
3/16" = 1'-0"
140
0.1875
141
12.0
290
     0
  0
SCALE
  5
60
102
{ACAD_REACTORS
330
47
102
}
330
47
100
AcDbScale
 70
     0
300
1/4" = 1'-0"
140
0.25
141
12.0
290
     0
  0
SCALE
  5
61
102
{ACAD_REACTORS
330
47
102
}
330
47
100
AcDbScale
 70
     0
300
3/8" = 1'-0"
140
0.375
141
12.0
290
     0
  0
SCALE
  5
62
102
{ACAD_REACTORS
330
47
102
}
330
47
100
AcDbScale
 70
     0
300
1/2" = 1'-0"
140
0.5
141
12.0
290
     0
  0
SCALE
  5
63
102
{ACAD_REACTORS
330
47
102
}
330
47
100
AcDbScale
 70
     0
300
3/4" = 1'-0"
140
0.75
141
12.0
290
     0
  0
SCALE
  5
64
102
{ACAD_REACTORS
330
47
102
}
330
47
100
AcDbScale
 70
     0
300
1" = 1'-0"
140
1.0
141
12.0
290
     0
  0
SCALE
  5
65
102
{ACAD_REACTORS
330
47
102
}
330
47
100
AcDbScale
 70
     0
300
1-1/2" = 1'-0"
140
1.5
141
12.0
290
     0
  0
SCALE
  5
66
102
{ACAD_REACTORS
330
47
102
}
330
47
100
AcDbScale
 70
     0
300
3" = 1'-0"
140
3.0
141
12.0
290
     0
  0
SCALE
  5
67
102
{ACAD_REACTORS
330
47
102
}
330
47
100
AcDbScale
 70
     0
300
6" = 1'-0"
140
6.0
141
12.0
290
     0
  0
SCALE
  5
68
102
{ACAD_REACTORS
330
47
102
}
330
47
100
AcDbScale
 70
     0
300
1'-0" = 1'-0"
140
12.0
141
12.0
290
     0
  0
ENDSEC
  0
EOF
