  0
SECTION
  2
HEADER
  9
$ACADVER
  1
AC1015
  9
$ACADMAINTVER
 70
     6
  9
$DWGCODEPAGE
  3
ANSI_949
  9
$INSBASE
 10
0.0
 20
0.0
 30
0.0
  9
$EXTMIN
 10
-46.54509174711512
 20
-49.97073246008785
 30
0.0
  9
$EXTMAX
 10
85.34339206823051
 20
22.3760749287239
 30
0.0
  9
$LIMMIN
 10
0.0
 20
0.0
  9
$LIMMAX
 10
420.0
 20
297.0
  9
$ORTHOMODE
 70
     1
  9
$REGENMODE
 70
     1
  9
$FILLMODE
 70
     1
  9
$QTEXTMODE
 70
     0
  9
$MIRRTEXT
 70
     1
  9
$LTSCALE
 40
1.0
  9
$ATTMODE
 70
     1
  9
$TEXTSIZE
 40
3.5
  9
$TRACEWID
 40
1.0
  9
$TEXTSTYLE
  7
Standard
  9
$CLAYER
  8
0
  9
$CELTYPE
  6
ByLayer
  9
$CECOLOR
 62
   256
  9
$CELTSCALE
 40
1.0
  9
$DISPSILH
 70
     0
  9
$DIMSCALE
 40
1.0
  9
$DIMASZ
 40
3.302
  9
$DIMEXO
 40
1.0
  9
$DIMDLI
 40
3.75
  9
$DIMRND
 40
0.0
  9
$DIMDLE
 40
0.0
  9
$DIMEXE
 40
1.0
  9
$DIMTP
 40
0.0
  9
$DIMTM
 40
0.0
  9
$DIMTXT
 40
3.5
  9
$DIMCEN
 40
2.5
  9
$DIMTSZ
 40
0.0
  9
$DIMTOL
 70
     0
  9
$DIMLIM
 70
     0
  9
$DIMTIH
 70
     1
  9
$DIMTOH
 70
     1
  9
$DIMSE1
 70
     0
  9
$DIMSE2
 70
     0
  9
$DIMTAD
 70
     1
  9
$DIMZIN
 70
     0
  9
$DIMBLK
  1

  9
$DIMASO
 70
     1
  9
$DIMSHO
 70
     1
  9
$DIMPOST
  1

  9
$DIMAPOST
  1

  9
$DIMALT
 70
     0
  9
$DIMALTD
 70
     3
  9
$DIMALTF
 40
0.0393700787401575
  9
$DIMLFAC
 40
1.0
  9
$DIMTOFL
 70
     1
  9
$DIMTVP
 40
0.0
  9
$DIMTIX
 70
     0
  9
$DIMSOXD
 70
     0
  9
$DIMSAH
 70
     0
  9
$DIMBLK1
  1

  9
$DIMBLK2
  1

  9
$DIMSTYLE
  2
ISO-25
  9
$DIMCLRD
 70
     0
  9
$DIMCLRE
 70
     0
  9
$DIMCLRT
 70
     0
  9
$DIMTFAC
 40
1.0
  9
$DIMGAP
 40
1.524
  9
$DIMJUST
 70
     0
  9
$DIMSD1
 70
     0
  9
$DIMSD2
 70
     0
  9
$DIMTOLJ
 70
     0
  9
$DIMTZIN
 70
     0
  9
$DIMALTZ
 70
     0
  9
$DIMALTTZ
 70
     0
  9
$DIMUPT
 70
     0
  9
$DIMDEC
 70
     2
  9
$DIMTDEC
 70
     2
  9
$DIMALTU
 70
     2
  9
$DIMALTTD
 70
     3
  9
$DIMTXSTY
  7
Standard
  9
$DIMAUNIT
 70
     0
  9
$DIMADEC
 70
     2
  9
$DIMALTRND
 40
0.0
  9
$DIMAZIN
 70
     0
  9
$DIMDSEP
 70
    44
  9
$DIMATFIT
 70
     3
  9
$DIMFRAC
 70
     0
  9
$DIMLDRBLK
  1

  9
$DIMLUNIT
 70
     2
  9
$DIMLWD
 70
    -2
  9
$DIMLWE
 70
    -2
  9
$DIMTMOVE
 70
     0
  9
$LUNITS
 70
     2
  9
$LUPREC
 70
     2
  9
$SKETCHINC
 40
1.0
  9
$FILLETRAD
 40
10.0
  9
$AUNITS
 70
     0
  9
$AUPREC
 70
     2
  9
$MENU
  1
.
  9
$ELEVATION
 40
0.0
  9
$PELEVATION
 40
0.0
  9
$THICKNESS
 40
0.0
  9
$LIMCHECK
 70
     0
  9
$CHAMFERA
 40
0.0
  9
$CHAMFERB
 40
0.0
  9
$CHAMFERC
 40
0.0
  9
$CHAMFERD
 40
0.0
  9
$SKPOLY
 70
     0
  9
$TDCREATE
 40
2458270.799275856
  9
$TDUCREATE
 40
2458270.424275856
  9
$TDUPDATE
 40
2458271.772450289
  9
$TDUUPDATE
 40
2458271.397450289
  9
$TDINDWG
 40
0.0021763426
  9
$TDUSRTIMER
 40
0.002176331
  9
$USRTIMER
 70
     1
  9
$ANGBASE
 50
0.0
  9
$ANGDIR
 70
     0
  9
$PDMODE
 70
     0
  9
$PDSIZE
 40
-1.0
  9
$PLINEWID
 40
0.0
  9
$SPLFRAME
 70
     0
  9
$SPLINETYPE
 70
     6
  9
$SPLINESEGS
 70
     8
  9
$HANDSEED
  5
207
  9
$SURFTAB1
 70
     6
  9
$SURFTAB2
 70
     6
  9
$SURFTYPE
 70
     6
  9
$SURFU
 70
     6
  9
$SURFV
 70
     6
  9
$UCSBASE
  2

  9
$UCSNAME
  2

  9
$UCSORG
 10
0.0
 20
0.0
 30
0.0
  9
$UCSXDIR
 10
1.0
 20
0.0
 30
0.0
  9
$UCSYDIR
 10
0.0
 20
1.0
 30
0.0
  9
$UCSORTHOREF
  2

  9
$UCSORTHOVIEW
 70
     0
  9
$UCSORGTOP
 10
0.0
 20
0.0
 30
0.0
  9
$UCSORGBOTTOM
 10
0.0
 20
0.0
 30
0.0
  9
$UCSORGLEFT
 10
0.0
 20
0.0
 30
0.0
  9
$UCSORGRIGHT
 10
0.0
 20
0.0
 30
0.0
  9
$UCSORGFRONT
 10
0.0
 20
0.0
 30
0.0
  9
$UCSORGBACK
 10
0.0
 20
0.0
 30
0.0
  9
$PUCSBASE
  2

  9
$PUCSNAME
  2

  9
$PUCSORG
 10
0.0
 20
0.0
 30
0.0
  9
$PUCSXDIR
 10
1.0
 20
0.0
 30
0.0
  9
$PUCSYDIR
 10
0.0
 20
1.0
 30
0.0
  9
$PUCSORTHOREF
  2

  9
$PUCSORTHOVIEW
 70
     0
  9
$PUCSORGTOP
 10
0.0
 20
0.0
 30
0.0
  9
$PUCSORGBOTTOM
 10
0.0
 20
0.0
 30
0.0
  9
$PUCSORGLEFT
 10
0.0
 20
0.0
 30
0.0
  9
$PUCSORGRIGHT
 10
0.0
 20
0.0
 30
0.0
  9
$PUCSORGFRONT
 10
0.0
 20
0.0
 30
0.0
  9
$PUCSORGBACK
 10
0.0
 20
0.0
 30
0.0
  9
$USERI1
 70
     0
  9
$USERI2
 70
     0
  9
$USERI3
 70
     0
  9
$USERI4
 70
     0
  9
$USERI5
 70
     0
  9
$USERR1
 40
0.0
  9
$USERR2
 40
0.0
  9
$USERR3
 40
0.0
  9
$USERR4
 40
0.0
  9
$USERR5
 40
0.0
  9
$WORLDVIEW
 70
     1
  9
$SHADEDGE
 70
     3
  9
$SHADEDIF
 70
    70
  9
$TILEMODE
 70
     1
  9
$MAXACTVP
 70
    64
  9
$PINSBASE
 10
0.0
 20
0.0
 30
0.0
  9
$PLIMCHECK
 70
     0
  9
$PEXTMIN
 10
1.000000000000000E+20
 20
1.000000000000000E+20
 30
1.000000000000000E+20
  9
$PEXTMAX
 10
-1.000000000000000E+20
 20
-1.000000000000000E+20
 30
-1.000000000000000E+20
  9
$PLIMMIN
 10
0.0
 20
0.0
  9
$PLIMMAX
 10
0.0
 20
0.0
  9
$UNITMODE
 70
     0
  9
$VISRETAIN
 70
     1
  9
$PLINEGEN
 70
     0
  9
$PSLTSCALE
 70
     1
  9
$TREEDEPTH
 70
  3020
  9
$CMLSTYLE
  2
Standard
  9
$CMLJUST
 70
     0
  9
$CMLSCALE
 40
20.0
  9
$PROXYGRAPHICS
 70
     1
  9
$MEASUREMENT
 70
     1
  9
$CELWEIGHT
370
    -1
  9
$ENDCAPS
280
     0
  9
$JOINSTYLE
280
     0
  9
$LWDISPLAY
290
     1
  9
$INSUNITS
 70
     4
  9
$HYPERLINKBASE
  1

  9
$STYLESHEET
  1

  9
$XEDIT
290
     1
  9
$CEPSNTYPE
380
     0
  9
$PSTYLEMODE
290
     1
  9
$FINGERPRINTGUID
  2
{1564EEDB-E1B4-4169-946A-8A8CDE6C8252}
  9
$VERSIONGUID
  2
{FAEB1C32-E019-11D5-929B-00C0DF256EC4}
  9
$EXTNAMES
290
     1
  9
$PSVPSCALE
 40
0.0
  9
$OLESTARTUP
290
     0
  0
ENDSEC
  0
SECTION
  2
CLASSES
  0
CLASS
  1
ACDBDICTIONARYWDFLT
  2
AcDbDictionaryWithDefault
  3
ObjectDBX Classes
 90
        0
280
     0
281
     0
  0
CLASS
  1
VISUALSTYLE
  2
AcDbVisualStyle
  3
ObjectDBX Classes
 90
     4095
280
     0
281
     0
  0
CLASS
  1
MATERIAL
  2
AcDbMaterial
  3
ObjectDBX Classes
 90
     1153
280
     0
281
     0
  0
CLASS
  1
SCALE
  2
AcDbScale
  3
ObjectDBX Classes
 90
     1153
280
     0
281
     0
  0
CLASS
  1
SUN
  2
AcDbSun
  3
SCENEOE
 90
     1153
280
     0
281
     0
  0
CLASS
  1
ACDBPLACEHOLDER
  2
AcDbPlaceHolder
  3
ObjectDBX Classes
 90
        0
280
     0
281
     0
  0
CLASS
  1
LAYOUT
  2
AcDbLayout
  3
ObjectDBX Classes
 90
        0
280
     0
281
     0
  0
CLASS
  1
TABLESTYLE
  2
AcDbTableStyle
  3
ObjectDBX Classes
 90
     4095
280
     0
281
     0
  0
CLASS
  1
MLEADERSTYLE
  2
AcDbMLeaderStyle
  3
ACDB_MLEADERSTYLE_CLASS
 90
     4095
280
     0
281
     0
  0
CLASS
  1
DICTIONARYVAR
  2
AcDbDictionaryVar
  3
ObjectDBX Classes
 90
        0
280
     0
281
     0
  0
CLASS
  1
DIMASSOC
  2
AcDbDimAssoc
  3
"AcDbDimAssoc|Product Desc:     AcDim ARX App For Dimension|Company:          Autodesk, Inc.|WEB Address:      www.autodesk.com"
 90
        0
280
     0
281
     0
  0
ENDSEC
  0
SECTION
  2
TABLES
  0
TABLE
  2
VPORT
  5
8
330
0
100
AcDbSymbolTable
 70
     1
  0
VPORT
  5
29
330
8
100
AcDbSymbolTableRecord
100
AcDbViewportTableRecord
  2
*Active
 70
     0
 10
0.0
 20
0.0
 11
1.0
 21
1.0
 12
19.3991501605577
 22
-13.79732876568197
 13
0.0
 23
0.0
 14
10.0
 24
10.0
 15
10.0
 25
10.0
 16
0.0
 26
0.0
 36
1.0
 17
0.0
 27
0.0
 37
0.0
 40
73.793743536588
 41
2.05607476635514
 42
50.0
 43
0.0
 44
0.0
 50
0.0
 51
0.0
 71
    16
 72
  2000
 73
     1
 74
     3
 75
     0
 76
     0
 77
     0
 78
     0
281
     0
 65
     1
110
0.0
120
0.0
130
0.0
111
1.0
121
0.0
131
0.0
112
0.0
122
1.0
132
0.0
 79
     0
146
0.0
  0
ENDTAB
  0
TABLE
  2
LTYPE
  5
5
330
0
100
AcDbSymbolTable
 70
     6
  0
LTYPE
  5
14
330
5
100
AcDbSymbolTableRecord
100
AcDbLinetypeTableRecord
  2
ByBlock
 70
     0
  3

 72
    65
 73
     0
 40
0.0
  0
LTYPE
  5
15
330
5
100
AcDbSymbolTableRecord
100
AcDbLinetypeTableRecord
  2
ByLayer
 70
     0
  3

 72
    65
 73
     0
 40
0.0
  0
LTYPE
  5
16
330
5
100
AcDbSymbolTableRecord
100
AcDbLinetypeTableRecord
  2
Continuous
 70
     0
  3
Solid line
 72
    65
 73
     0
 40
0.0
  0
LTYPE
  5
6A
330
5
100
AcDbSymbolTableRecord
100
AcDbLinetypeTableRecord
  2
HIDDEN
 70
     0
  3
Hidden __ __ __ __ __ __ __ __ __ __ __ __ __ __
 72
    65
 73
     2
 40
1.905
 49
1.27
 74
     0
 49
-0.635
 74
     0
  0
LTYPE
  5
6B
330
5
100
AcDbSymbolTableRecord
100
AcDbLinetypeTableRecord
  2
PHANTOM
 70
     0
  3
Phantom ______  __  __  ______  __  __  ______
 72
    65
 73
     6
 40
12.7
 49
6.35
 74
     0
 49
-1.27
 74
     0
 49
1.27
 74
     0
 49
-1.27
 74
     0
 49
1.27
 74
     0
 49
-1.27
 74
     0
  0
LTYPE
  5
6C
330
5
100
AcDbSymbolTableRecord
100
AcDbLinetypeTableRecord
  2
CENTER
 70
     0
  3
Center ____ _ ____ _ ____ _ ____ _ ____ _ ____
 72
    65
 73
     4
 40
10.16
 49
6.35
 74
     0
 49
-1.27
 74
     0
 49
1.27
 74
     0
 49
-1.27
 74
     0
  0
LTYPE
  5
6D
330
5
100
AcDbSymbolTableRecord
100
AcDbLinetypeTableRecord
  2
CENTERX2
 70
     0
  3
Center (2x) ________  __  ________  __  _____
 72
    65
 73
     4
 40
20.32
 49
12.7
 74
     0
 49
-2.54
 74
     0
 49
2.54
 74
     0
 49
-2.54
 74
     0
  0
LTYPE
  5
6E
330
5
100
AcDbSymbolTableRecord
100
AcDbLinetypeTableRecord
  2
DOT2
 70
     0
  3
Dot (.5x) ........................................
 72
    65
 73
     2
 40
0.635
 49
0.0
 74
     0
 49
-0.635
 74
     0
  0
ENDTAB
  0
TABLE
  2
LAYER
  5
2
330
0
100
AcDbSymbolTable
 70
    18
  0
LAYER
  5
10
330
2
100
AcDbSymbolTableRecord
100
AcDbLayerTableRecord
  2
0
 70
     0
 62
     7
  6
Continuous
370
    -3
390
F
  0
LAYER
  5
6F
330
2
100
AcDbSymbolTableRecord
100
AcDbLayerTableRecord
  2
FORMAT
 70
     0
 62
     2
  6
Continuous
370
    -3
390
F
  0
LAYER
  5
70
330
2
100
AcDbSymbolTableRecord
100
AcDbLayerTableRecord
  2
외형선
 70
     0
 62
     4
  6
Continuous
370
    30
390
F
  0
LAYER
  5
71
330
2
100
AcDbSymbolTableRecord
100
AcDbLayerTableRecord
  2
숨은선
 70
     0
 62
     2
  6
HIDDEN
370
    15
390
F
  0
LAYER
  5
72
330
2
100
AcDbSymbolTableRecord
100
AcDbLayerTableRecord
  2
중심선
 70
     0
 62
     1
  6
CENTERX2
370
    -3
390
F
  0
LAYER
  5
73
330
2
100
AcDbSymbolTableRecord
100
AcDbLayerTableRecord
  2
파단선
 70
     0
 62
     4
  6
Continuous
370
    -3
390
F
  0
LAYER
  5
74
330
2
100
AcDbSymbolTableRecord
100
AcDbLayerTableRecord
  2
해칭선
 70
     0
 62
   100
  6
Continuous
370
    -3
390
F
  0
LAYER
  5
75
330
2
100
AcDbSymbolTableRecord
100
AcDbLayerTableRecord
  2
가는실선
 70
     0
 62
     4
  6
Continuous
370
    -3
390
F
  0
LAYER
  5
76
330
2
100
AcDbSymbolTableRecord
100
AcDbLayerTableRecord
  2
치수_보조선
 70
     0
 62
     4
  6
Continuous
370
    -3
390
F
  0
LAYER
  5
77
330
2
100
AcDbSymbolTableRecord
100
AcDbLayerTableRecord
  2
치수문자_일반주서
 70
     0
 62
     7
  6
Continuous
370
    15
390
F
  0
LAYER
  5
78
330
2
100
AcDbSymbolTableRecord
100
AcDbLayerTableRecord
  2
개별주서
 70
     0
 62
   100
  6
Continuous
370
    30
390
F
  0
LAYER
  5
79
330
2
100
AcDbSymbolTableRecord
100
AcDbLayerTableRecord
  2
중간선
 70
     0
 62
     2
  6
Continuous
370
    15
390
F
  0
LAYER
  5
7A
330
2
100
AcDbSymbolTableRecord
100
AcDbLayerTableRecord
  2
윤곽선
 70
     0
 62
     3
  6
Continuous
370
    40
390
F
  0
LAYER
  5
7B
330
2
100
AcDbSymbolTableRecord
100
AcDbLayerTableRecord
  2
중심마크
 70
     0
 62
   100
  6
Continuous
370
    30
390
F
  0
LAYER
  5
7C
330
2
100
AcDbSymbolTableRecord
100
AcDbLayerTableRecord
  2
가상선
 70
     0
 62
     4
  6
PHANTOM
370
    -3
390
F
  0
LAYER
  5
7D
330
2
100
AcDbSymbolTableRecord
100
AcDbLayerTableRecord
  2
특수지정선
 70
     0
 62
     5
  6
CENTERX2
370
    60
390
F
  0
LAYER
  5
7E
330
2
100
AcDbSymbolTableRecord
100
AcDbLayerTableRecord
  2
참조1
 70
     0
 62
    -4
  6
Continuous
370
    -3
390
F
  0
LAYER
  5
13E
330
2
100
AcDbSymbolTableRecord
100
AcDbLayerTableRecord
  2
Defpoints
 70
     0
 62
     7
  6
Continuous
290
     0
370
    -3
390
F
  0
ENDTAB
  0
TABLE
  2
STYLE
  5
3
330
0
100
AcDbSymbolTable
 70
     2
  0
STYLE
  5
11
330
3
100
AcDbSymbolTableRecord
100
AcDbTextStyleTableRecord
  2
Standard
 70
     0
 40
0.0
 41
1.0
 50
0.0
 71
     0
 42
3.5
  3
txt
  4

  0
STYLE
  5
94
330
3
100
AcDbSymbolTableRecord
100
AcDbTextStyleTableRecord
  2
SLDTEXTSTYLE0
 70
     0
 40
0.0
 41
0.75
 50
0.0
 71
     0
 42
3.5
  3
TXT
  4

  0
ENDTAB
  0
TABLE
  2
VIEW
  5
6
330
0
100
AcDbSymbolTable
 70
     0
  0
ENDTAB
  0
TABLE
  2
UCS
  5
7
330
0
100
AcDbSymbolTable
 70
     0
  0
ENDTAB
  0
TABLE
  2
APPID
  5
9
330
0
100
AcDbSymbolTable
 70
     3
  0
APPID
  5
12
330
9
100
AcDbSymbolTableRecord
100
AcDbRegAppTableRecord
  2
ACAD
 70
     0
  0
APPID
  5
145
330
9
100
AcDbSymbolTableRecord
100
AcDbRegAppTableRecord
  2
PE_URL
 70
     0
  0
APPID
  5
146
330
9
100
AcDbSymbolTableRecord
100
AcDbRegAppTableRecord
  2
ACAD_DSTYLE_DIMRADIAL_EXTENSION
 70
     0
  0
ENDTAB
  0
TABLE
  2
DIMSTYLE
  5
A
330
0
100
AcDbSymbolTable
 70
     4
100
AcDbDimStyleTable
  0
DIMSTYLE
105
27
330
A
100
AcDbSymbolTableRecord
100
AcDbDimStyleTableRecord
  2
ISO-25
 70
     0
 41
2.5
 42
0.625
 43
3.75
 44
1.25
 73
     0
 74
     0
 77
     1
 78
     8
140
2.5
141
2.5
143
0.03937007874016
147
0.625
171
     3
172
     1
178
     0
271
     2
272
     2
274
     3
278
    44
283
     0
284
     8
340
11
  0
DIMSTYLE
105
DB
102
{ACAD_REACTORS
330
DA
330
165
330
175
330
17F
330
100
330
F5
330
E7
330
1F9
102
}
330
A
100
AcDbSymbolTableRecord
100
AcDbDimStyleTableRecord
  2
SLDDIMSTYLE0
 70
     0
 41
3.302
 44
0.0
 45
0.000000001
 73
     0
 74
     0
 77
     1
 78
     4
 79
     1
140
3.5
147
0.875
172
     1
173
     1
178
     0
271
     2
272
     2
276
     2
284
    12
289
     0
340
94
  0
DIMSTYLE
105
E8
330
A
100
AcDbSymbolTableRecord
100
AcDbDimStyleTableRecord
  2
SLDDIMSTYLE1
 70
     0
 41
3.302
 44
0.0
 45
0.000000001
 73
     0
 74
     0
 77
     1
 78
    12
 79
     3
140
3.5
147
0.875
172
     1
173
     1
178
     0
271
     2
272
     2
276
     2
284
    12
289
     0
340
94
  0
DIMSTYLE
105
F6
330
A
100
AcDbSymbolTableRecord
100
AcDbDimStyleTableRecord
  2
SLDDIMSTYLE2
 70
     0
 41
3.302
 44
0.0
 45
0.000000001
 73
     0
 74
     0
 77
     1
 78
    12
 79
     3
140
3.5
147
0.875
173
     1
178
     0
271
     2
272
     2
276
     2
284
    12
340
94
  0
ENDTAB
  0
TABLE
  2
BLOCK_RECORD
  5
1
330
0
100
AcDbSymbolTable
 70
    15
  0
BLOCK_RECORD
  5
1F
330
1
100
AcDbSymbolTableRecord
100
AcDbBlockTableRecord
  2
*Model_Space
340
22
  0
BLOCK_RECORD
  5
1B
330
1
100
AcDbSymbolTableRecord
100
AcDbBlockTableRecord
  2
*Paper_Space
340
1E
  0
BLOCK_RECORD
  5
23
330
1
100
AcDbSymbolTableRecord
100
AcDbBlockTableRecord
  2
*Paper_Space0
340
26
  0
BLOCK_RECORD
  5
7F
330
1
100
AcDbSymbolTableRecord
100
AcDbBlockTableRecord
  2
블럭10
340
0
102
{BLKREFS
331
D1
102
}
  0
BLOCK_RECORD
  5
DC
330
1
100
AcDbSymbolTableRecord
100
AcDbBlockTableRecord
  2
_D
340
0
  0
BLOCK_RECORD
  5
E9
330
1
100
AcDbSymbolTableRecord
100
AcDbBlockTableRecord
  2
_D_1
340
0
  0
BLOCK_RECORD
  5
F7
330
1
100
AcDbSymbolTableRecord
100
AcDbBlockTableRecord
  2
_D_2
340
0
  0
BLOCK_RECORD
  5
101
330
1
100
AcDbSymbolTableRecord
100
AcDbBlockTableRecord
  2
_D_3
340
0
  0
BLOCK_RECORD
  5
114
330
1
100
AcDbSymbolTableRecord
100
AcDbBlockTableRecord
  2
SW_DOWELSYMBOL_0
340
0
102
{BLKREFS
331
11A
102
}
  0
BLOCK_RECORD
  5
176
330
1
100
AcDbSymbolTableRecord
100
AcDbBlockTableRecord
  2
*D8
340
0
  0
BLOCK_RECORD
  5
191
330
1
100
AcDbSymbolTableRecord
100
AcDbBlockTableRecord
  2
*D9
340
0
  0
BLOCK_RECORD
  5
1A0
330
1
100
AcDbSymbolTableRecord
100
AcDbBlockTableRecord
  2
*D10
340
0
  0
BLOCK_RECORD
  5
1B3
330
1
100
AcDbSymbolTableRecord
100
AcDbBlockTableRecord
  2
*D11
340
0
  0
BLOCK_RECORD
  5
1C2
330
1
100
AcDbSymbolTableRecord
100
AcDbBlockTableRecord
  2
*D12
340
0
  0
BLOCK_RECORD
  5
1CB
330
1
100
AcDbSymbolTableRecord
100
AcDbBlockTableRecord
  2
*D13
340
0
  0
BLOCK_RECORD
  5
1FC
330
1
100
AcDbSymbolTableRecord
100
AcDbBlockTableRecord
  2
*D14
340
0
  0
ENDTAB
  0
ENDSEC
  0
SECTION
  2
BLOCKS
  0
BLOCK
  5
20
330
1F
100
AcDbEntity
  8
0
100
AcDbBlockBegin
  2
*Model_Space
 70
     0
 10
0.0
 20
0.0
 30
0.0
  3
*Model_Space
  1

  0
ENDBLK
  5
21
330
1F
100
AcDbEntity
  8
0
100
AcDbBlockEnd
  0
BLOCK
  5
1C
330
1B
100
AcDbEntity
 67
     1
  8
0
100
AcDbBlockBegin
  2
*Paper_Space
 70
     0
 10
0.0
 20
0.0
 30
0.0
  3
*Paper_Space
  1

  0
ENDBLK
  5
1D
330
1B
100
AcDbEntity
 67
     1
  8
0
100
AcDbBlockEnd
  0
BLOCK
  5
24
330
23
100
AcDbEntity
  8
0
100
AcDbBlockBegin
  2
*Paper_Space0
 70
     0
 10
0.0
 20
0.0
 30
0.0
  3
*Paper_Space0
  1

  0
ENDBLK
  5
25
330
23
100
AcDbEntity
  8
0
100
AcDbBlockEnd
  0
BLOCK
  5
80
330
7F
100
AcDbEntity
  8
0
100
AcDbBlockBegin
  2
블럭10
 70
     2
 10
0.0
 20
0.0
 30
0.0
  3
블럭10
  1

  0
ELLIPSE
  5
82
330
7F
100
AcDbEntity
  8
중심선
100
AcDbEllipse
 10
20.54032771741204
 20
12.0471743016438
 30
0.0
 11
6.600054785286829
 21
-1.261213355974178E-13
 31
0.0
210
0.0
220
0.0
230
1.0
 40
0.636358354079598
 41
0.9219305317359503
 42
6.513795318482858
  0
ELLIPSE
  5
83
330
7F
100
AcDbEntity
  8
중심선
100
AcDbEllipse
 10
20.54032771746488
 20
12.04717430159265
 30
0.0
 11
3.960054785062283
 21
1.540847449632565E-10
 31
0.0
210
0.0
220
0.0
230
1.0
 40
0.3939339440162632
 41
1.131841032648279
 42
5.62031148352944
  0
LINE
  5
84
330
7F
100
AcDbEntity
  8
중심선
100
AcDbLine
 10
2.268634060543552
 20
16.24717430164393
 30
0.0
 11
5.714909304380834
 21
16.24717430164393
 31
0.0
  0
LINE
  5
85
330
7F
100
AcDbEntity
  8
중심선
100
AcDbLine
 10
5.245725140726316
 20
7.84717430164391
 30
0.0
 11
8.692000384563599
 21
7.84717430164391
 31
0.0
  0
LINE
  5
86
330
7F
100
AcDbEntity
  8
중심선
100
AcDbLine
 10
15.74043728645272
 20
16.24717430164393
 30
0.0
 11
8.692000384563599
 21
7.84717430164391
 31
0.0
  0
LINE
  5
87
330
7F
100
AcDbEntity
  8
중심선
100
AcDbLine
 10
0.1404042013395286
 20
13.71084872107135
 30
0.0
 11
3.58671253028996
 21
13.71088815037384
 31
0.0
  0
LINE
  5
88
330
7F
100
AcDbEntity
  8
중심선
100
AcDbLine
 10
2.750260043222114
 20
10.84717430164391
 30
0.0
 11
6.196535287059397
 21
10.84717430164391
 31
0.0
  0
LINE
  5
89
330
7F
100
AcDbEntity
  8
중심선
100
AcDbLine
 10
12.29416204261559
 20
16.24717430164393
 30
0.0
 11
5.245725140726316
 21
7.84717430164391
 31
0.0
  0
LINE
  5
8A
330
7F
100
AcDbEntity
  8
중심선
100
AcDbLine
 10
10.72767329541681
 20
16.24717430164393
 30
0.0
 11
6.196535287059397
 21
10.84717430164391
 31
0.0
  0
LINE
  5
8B
330
7F
100
AcDbEntity
  8
중심선
100
AcDbLine
 10
7.28139805157953
 20
16.24717430164393
 30
0.0
 11
2.750260043222114
 21
10.84717430164391
 31
0.0
  0
LINE
  5
8C
330
7F
100
AcDbEntity
  8
중심선
100
AcDbLine
 10
5.714909304380834
 20
16.24717430164393
 30
0.0
 11
3.58671253028996
 21
13.71088815037384
 31
0.0
  0
LINE
  5
8D
330
7F
100
AcDbEntity
  8
중심선
100
AcDbLine
 10
2.268634060543552
 20
16.24717430164393
 30
0.0
 11
0.1404042013395286
 21
13.71084872107135
 31
0.0
  0
LINE
  5
8E
330
7F
100
AcDbEntity
  8
중심선
100
AcDbLine
 10
7.28139805157953
 20
16.24717430164393
 30
0.0
 11
10.72767329541681
 21
16.24717430164393
 31
0.0
  0
LINE
  5
8F
330
7F
100
AcDbEntity
  8
중심선
100
AcDbLine
 10
12.29416204261559
 20
16.24717430164393
 30
0.0
 11
15.74043728645272
 21
16.24717430164393
 31
0.0
  0
LINE
  5
90
330
7F
100
AcDbEntity
  8
중심선
100
AcDbLine
 10
19.22036997980202
 20
11.08717430171403
 30
0.0
 11
23.66174974927406
 21
11.08717430171406
 31
0.0
  0
LINE
  5
91
330
7F
100
AcDbEntity
  8
중심선
100
AcDbLine
 10
19.22039502424796
 20
13.00717430171391
 30
0.0
 11
19.22036997980202
 21
11.08717430171403
 31
0.0
  0
LINE
  5
92
330
7F
100
AcDbEntity
  8
중심선
100
AcDbLine
 10
19.22039502424796
 20
13.00717430171391
 30
0.0
 11
26.96566020931264
 21
13.00717430171391
 31
0.0
  0
LINE
  5
93
330
7F
100
AcDbEntity
  8
중심선
100
AcDbLine
 10
22.22332737316547
 20
13.45928029700563
 30
0.0
 11
24.52862924686651
 21
15.39360700705356
 31
0.0
  0
ATTDEF
  5
95
330
7F
100
AcDbEntity
  8
FORMAT
 62
     2
100
AcDbText
 10
-2.529476536452461
 20
2.075366912832191
 30
0.0
 40
4.233333333333333
  1
SEME0101002E
 41
0.75
  7
SLDTEXTSTYLE0
 11
-2.529476536452461
 21
-0.0412997538344756
 31
0.0
100
AcDbAttributeDefinition
  3

  2
AUTOATTR0
 70
     0
 74
     1
  0
ENDBLK
  5
81
330
7F
100
AcDbEntity
  8
0
100
AcDbBlockEnd
  0
BLOCK
  5
DD
330
DC
100
AcDbEntity
  8
0
100
AcDbBlockBegin
  2
_D
 70
     0
 10
0.0
 20
0.0
 30
0.0
  3
_D
  1

  0
LINE
  5
DF
330
DC
100
AcDbEntity
  8
치수문자_일반주서
 62
     0
370
    -2
100
AcDbLine
 10
14.82990825288493
 20
0.5635749287238891
 30
0.0
 11
14.82990825288493
 21
11.00107492872389
 31
0.0
  0
LINE
  5
E0
330
DC
100
AcDbEntity
  8
치수문자_일반주서
 62
     0
370
    -2
100
AcDbLine
 10
12.32990825288489
 20
0.5552058793501768
 30
0.0
 11
12.32990825288489
 21
11.00107492872389
 31
0.0
  0
LINE
  5
E1
330
DC
100
AcDbEntity
  8
치수문자_일반주서
 62
     0
370
    -2
100
AcDbLine
 10
14.82990825288493
 20
11.00107492872389
 30
0.0
 11
25.32990825288493
 21
11.00107492872389
 31
0.0
  0
LINE
  5
E2
330
DC
100
AcDbEntity
  8
치수문자_일반주서
 62
     0
370
    -2
100
AcDbLine
 10
14.82990825288493
 20
11.00107492872389
 30
0.0
 11
12.32990825288489
 21
11.00107492872389
 31
0.0
  0
LINE
  5
E3
330
DC
100
AcDbEntity
  8
치수문자_일반주서
 62
     0
370
    -2
100
AcDbLine
 10
17.32990825288493
 20
11.00107492872389
 30
0.0
 11
19.82990825288493
 21
11.00107492872389
 31
0.0
  0
LINE
  5
E4
330
DC
100
AcDbEntity
  8
치수문자_일반주서
 62
     0
370
    -2
100
AcDbLine
 10
9.829908252884891
 20
11.00107492872389
 30
0.0
 11
7.329908252884891
 21
11.00107492872389
 31
0.0
  0
SOLID
  5
E5
330
DC
100
AcDbEntity
  8
치수문자_일반주서
 62
     0
100
AcDbTrace
 10
17.32990825288493
 20
11.41774159539056
 30
0.0
 11
17.32990825288493
 21
10.58440826205723
 31
0.0
 12
14.82990825288493
 22
11.00107492872389
 32
0.0
 13
14.82990825288493
 23
11.00107492872389
 33
0.0
  0
SOLID
  5
E6
330
DC
100
AcDbEntity
  8
치수문자_일반주서
 62
     0
100
AcDbTrace
 10
9.829908252884891
 20
10.58440826205723
 30
0.0
 11
9.829908252884891
 21
11.41774159539056
 31
0.0
 12
12.32990825288489
 22
11.00107492872389
 32
0.0
 13
12.32990825288489
 23
11.00107492872389
 33
0.0
  0
MTEXT
  5
1E6
330
DC
100
AcDbEntity
  8
치수문자_일반주서
 62
     0
100
AcDbMText
 10
22.57990825288493
 20
14.37607492872389
 30
0.0
 40
2.5
 41
0.0
 71
     2
 72
     1
  1
\A1;2.5
  7
SLDTEXTSTYLE0
 73
     1
 44
1.0
  0
POINT
  5
1E7
330
DC
100
AcDbEntity
  8
Defpoints
 62
     0
100
AcDbPoint
 10
14.82990825288493
 20
0.5010749287238891
 30
0.0
  0
POINT
  5
1E8
330
DC
100
AcDbEntity
  8
Defpoints
 62
     0
100
AcDbPoint
 10
12.32990825288489
 20
0.4927058793501768
 30
0.0
  0
POINT
  5
1E9
330
DC
100
AcDbEntity
  8
Defpoints
 62
     0
100
AcDbPoint
 10
12.32990825288489
 20
11.00107492872389
 30
0.0
  0
ENDBLK
  5
DE
330
DC
100
AcDbEntity
  8
0
100
AcDbBlockEnd
  0
BLOCK
  5
EA
330
E9
100
AcDbEntity
  8
0
100
AcDbBlockBegin
  2
_D_1
 70
     0
 10
0.0
 20
0.0
 30
0.0
  3
_D_1
  1

  0
LINE
  5
EC
330
E9
100
AcDbEntity
  8
치수문자_일반주서
 62
     0
370
    -2
100
AcDbLine
 10
-34.63259174711506
 20
3.001074928723896
 30
0.0
 11
-43.17009174711508
 21
3.001074928723864
 31
0.0
  0
LINE
  5
ED
330
E9
100
AcDbEntity
  8
치수문자_일반주서
 62
     0
370
    -2
100
AcDbLine
 10
-34.63259174711506
 20
-2.99892507127611
 30
0.0
 11
-43.17009174711506
 21
-2.99892507127614
 31
0.0
  0
LINE
  5
EE
330
E9
100
AcDbEntity
  8
치수문자_일반주서
 62
     0
370
    -2
100
AcDbLine
 10
-43.17009174711508
 20
3.001074928723864
 30
0.0
 11
-43.17009174711512
 21
12.87607492872387
 31
0.0
  0
LINE
  5
EF
330
E9
100
AcDbEntity
  8
치수문자_일반주서
 62
     0
370
    -2
100
AcDbLine
 10
-43.17009174711508
 20
3.001074928723864
 30
0.0
 11
-43.17009174711506
 21
-2.99892507127614
 31
0.0
  0
LINE
  5
F0
330
E9
100
AcDbEntity
  8
치수문자_일반주서
 62
     0
370
    -2
100
AcDbLine
 10
-43.17009174711509
 20
5.501074928723864
 30
0.0
 11
-43.17009174711509
 21
8.001074928723863
 31
0.0
  0
LINE
  5
F1
330
E9
100
AcDbEntity
  8
치수문자_일반주서
 62
     0
370
    -2
100
AcDbLine
 10
-43.17009174711505
 20
-5.49892507127614
 30
0.0
 11
-43.17009174711504
 21
-7.99892507127614
 31
0.0
  0
SOLID
  5
F2
330
E9
100
AcDbEntity
  8
치수문자_일반주서
 62
     0
100
AcDbTrace
 10
-43.58675841378175
 20
5.501074928723862
 30
0.0
 11
-42.75342508044842
 21
5.501074928723866
 31
0.0
 12
-43.17009174711508
 22
3.001074928723864
 32
0.0
 13
-43.17009174711508
 23
3.001074928723864
 33
0.0
  0
SOLID
  5
F3
330
E9
100
AcDbEntity
  8
치수문자_일반주서
 62
     0
100
AcDbTrace
 10
-42.75342508044839
 20
-5.498925071276139
 30
0.0
 11
-43.58675841378172
 21
-5.498925071276142
 31
0.0
 12
-43.17009174711506
 22
-2.99892507127614
 32
0.0
 13
-43.17009174711506
 23
-2.99892507127614
 33
0.0
  0
MTEXT
  5
F4
330
E9
100
AcDbEntity
  8
치수문자_일반주서
 62
     0
100
AcDbMText
 10
-46.54509174711511
 20
10.43857492872386
 30
0.0
 40
2.5
 41
0.0
 71
     2
 72
     1
  1
\A1;%%c6
  7
SLDTEXTSTYLE0
 11
-3.552713678800498E-15
 21
1.0
 31
0.0
 73
     1
 44
1.0
  0
POINT
  5
1F0
330
E9
100
AcDbEntity
  8
Defpoints
 62
     0
100
AcDbPoint
 10
-34.57009174711506
 20
3.001074928723896
 30
0.0
  0
POINT
  5
1F1
330
E9
100
AcDbEntity
  8
Defpoints
 62
     0
100
AcDbPoint
 10
-34.57009174711506
 20
-2.998925071276109
 30
0.0
  0
POINT
  5
1F2
330
E9
100
AcDbEntity
  8
Defpoints
 62
     0
100
AcDbPoint
 10
-43.17009174711506
 20
-2.998925071276141
 30
0.0
  0
ENDBLK
  5
EB
330
E9
100
AcDbEntity
  8
0
100
AcDbBlockEnd
  0
BLOCK
  5
F8
330
F7
100
AcDbEntity
  8
0
100
AcDbBlockBegin
  2
_D_2
 70
     0
 10
0.0
 20
0.0
 30
0.0
  3
_D_2
  1

  0
LINE
  5
FA
330
F7
100
AcDbEntity
  8
치수문자_일반주서
 62
     0
370
    -2
100
AcDbLine
 10
14.82990825288493
 20
0.5635749287238891
 30
0.0
 11
14.82990825288493
 21
19.0010749287239
 31
0.0
  0
LINE
  5
FB
330
F7
100
AcDbEntity
  8
치수문자_일반주서
 62
     0
370
    -2
100
AcDbLine
 10
-35.17009174711508
 20
2.463574928723899
 30
0.0
 11
-35.17009174711508
 21
19.0010749287239
 31
0.0
  0
LINE
  5
FC
330
F7
100
AcDbEntity
  8
치수문자_일반주서
 62
     0
370
    -2
100
AcDbLine
 10
12.32990825288493
 20
19.0010749287239
 30
0.0
 11
-32.67009174711508
 21
19.0010749287239
 31
0.0
  0
SOLID
  5
FD
330
F7
100
AcDbEntity
  8
치수문자_일반주서
 62
     0
100
AcDbTrace
 10
12.32990825288493
 20
18.58440826205723
 30
0.0
 11
12.32990825288493
 21
19.41774159539056
 31
0.0
 12
14.82990825288493
 22
19.0010749287239
 32
0.0
 13
14.82990825288493
 23
19.0010749287239
 33
0.0
  0
SOLID
  5
FE
330
F7
100
AcDbEntity
  8
치수문자_일반주서
 62
     0
100
AcDbTrace
 10
-32.67009174711508
 20
19.41774159539056
 30
0.0
 11
-32.67009174711508
 21
18.58440826205723
 31
0.0
 12
-35.17009174711508
 22
19.0010749287239
 32
0.0
 13
-35.17009174711508
 23
19.0010749287239
 33
0.0
  0
MTEXT
  5
FF
330
F7
100
AcDbEntity
  8
치수문자_일반주서
 62
     0
100
AcDbMText
 10
-10.17009174711508
 20
22.3760749287239
 30
0.0
 40
2.5
 41
0.0
 71
     2
 72
     1
  1
\A1;50
  7
SLDTEXTSTYLE0
 73
     1
 44
1.0
  0
POINT
  5
1E3
330
F7
100
AcDbEntity
  8
Defpoints
 62
     0
100
AcDbPoint
 10
14.82990825288493
 20
0.5010749287238891
 30
0.0
  0
POINT
  5
1E4
330
F7
100
AcDbEntity
  8
Defpoints
 62
     0
100
AcDbPoint
 10
-35.17009174711508
 20
2.401074928723899
 30
0.0
  0
POINT
  5
1E5
330
F7
100
AcDbEntity
  8
Defpoints
 62
     0
100
AcDbPoint
 10
-35.17009174711508
 20
19.0010749287239
 30
0.0
  0
ENDBLK
  5
F9
330
F7
100
AcDbEntity
  8
0
100
AcDbBlockEnd
  0
BLOCK
  5
102
330
101
100
AcDbEntity
  8
0
100
AcDbBlockBegin
  2
_D_3
 70
     0
 10
0.0
 20
0.0
 30
0.0
  3
_D_3
  1

  0
LINE
  5
104
330
101
100
AcDbEntity
  8
치수문자_일반주서
 62
     0
370
    -2
100
AcDbLine
 10
14.89240825288493
 20
0.5010749287238894
 30
0.0
 11
22.82990825288492
 21
0.5010749287239191
 31
0.0
  0
LINE
  5
105
330
101
100
AcDbEntity
  8
치수문자_일반주서
 62
     0
370
    -2
100
AcDbLine
 10
14.89240825288493
 20
-0.4989250712761106
 30
0.0
 11
22.82990825288493
 21
-0.49892507127608
 31
0.0
  0
LINE
  5
106
330
101
100
AcDbEntity
  8
치수문자_일반주서
 62
     0
370
    -2
100
AcDbLine
 10
22.82990825288492
 20
0.5010749287239191
 30
0.0
 11
22.82990825288489
 21
9.751074928723925
 31
0.0
  0
LINE
  5
107
330
101
100
AcDbEntity
  8
치수문자_일반주서
 62
     0
370
    -2
100
AcDbLine
 10
22.82990825288492
 20
0.5010749287239191
 30
0.0
 11
22.82990825288493
 21
-0.49892507127608
 31
0.0
  0
LINE
  5
108
330
101
100
AcDbEntity
  8
치수문자_일반주서
 62
     0
370
    -2
100
AcDbLine
 10
22.82990825288491
 20
3.001074928723919
 30
0.0
 11
22.82990825288491
 21
5.501074928723919
 31
0.0
  0
LINE
  5
109
330
101
100
AcDbEntity
  8
치수문자_일반주서
 62
     0
370
    -2
100
AcDbLine
 10
22.82990825288493
 20
-2.99892507127608
 30
0.0
 11
22.82990825288494
 21
-5.49892507127608
 31
0.0
  0
SOLID
  5
10A
330
101
100
AcDbEntity
  8
치수문자_일반주서
 62
     0
100
AcDbTrace
 10
22.41324158621824
 20
3.001074928723918
 30
0.0
 11
23.24657491955158
 21
3.00107492872392
 31
0.0
 12
22.82990825288492
 22
0.5010749287239191
 32
0.0
 13
22.82990825288492
 23
0.5010749287239191
 33
0.0
  0
SOLID
  5
10B
330
101
100
AcDbEntity
  8
치수문자_일반주서
 62
     0
100
AcDbTrace
 10
23.2465749195516
 20
-2.998925071276079
 30
0.0
 11
22.41324158621827
 21
-2.998925071276081
 31
0.0
 12
22.82990825288493
 22
-0.49892507127608
 32
0.0
 13
22.82990825288493
 23
-0.49892507127608
 33
0.0
  0
MTEXT
  5
10C
330
101
100
AcDbEntity
  8
치수문자_일반주서
 62
     0
100
AcDbMText
 10
19.4549082528849
 20
7.626074928723914
 30
0.0
 40
2.5
 41
0.0
 71
     2
 72
     1
  1
\A1;%%c1
  7
SLDTEXTSTYLE0
 11
-3.552713678800501E-15
 21
1.0
 31
0.0
 73
     1
 44
1.0
  0
POINT
  5
1E0
330
101
100
AcDbEntity
  8
Defpoints
 62
     0
100
AcDbPoint
 10
14.82990825288493
 20
0.5010749287238891
 30
0.0
  0
POINT
  5
1E1
330
101
100
AcDbEntity
  8
Defpoints
 62
     0
100
AcDbPoint
 10
14.82990825288493
 20
-0.4989250712761109
 30
0.0
  0
POINT
  5
1E2
330
101
100
AcDbEntity
  8
Defpoints
 62
     0
100
AcDbPoint
 10
22.82990825288493
 20
-0.498925071276081
 30
0.0
  0
ENDBLK
  5
103
330
101
100
AcDbEntity
  8
0
100
AcDbBlockEnd
  0
BLOCK
  5
115
330
114
100
AcDbEntity
  8
0
100
AcDbBlockBegin
  2
SW_DOWELSYMBOL_0
 70
     0
 10
0.0
 20
0.0
 30
0.0
  3
SW_DOWELSYMBOL_0
  1

  0
CIRCLE
  5
117
330
114
100
AcDbEntity
  8
해칭선
 62
     0
100
AcDbCircle
 10
0.0
 20
0.0
 30
0.0
 40
2.999999999999999
  0
HATCH
  5
118
330
114
100
AcDbEntity
  8
0
  6
Continuous
 62
     0
370
     0
100
AcDbHatch
 10
0.0
 20
0.0
 30
0.0
210
0.0
220
0.0
230
1.0
  2
SOLID
 70
     1
 71
     0
 91
        1
 92
        0
 93
        3
 72
     2
 10
0.0
 20
0.0
 40
2.999999999999999
 50
0.0
 51
90.0
 73
     1
 72
     1
 10
0.0
 20
2.999999999999999
 11
0.0
 21
0.0
 72
     1
 10
0.0
 20
0.0
 11
2.999999999999999
 21
0.0
 97
        0
 75
     0
 76
     1
 98
        1
 10
0.0
 20
0.0
  0
HATCH
  5
119
330
114
100
AcDbEntity
  8
0
  6
Continuous
 62
     0
370
     0
100
AcDbHatch
 10
0.0
 20
0.0
 30
0.0
210
0.0
220
0.0
230
1.0
  2
SOLID
 70
     1
 71
     0
 91
        1
 92
        0
 93
        3
 72
     2
 10
0.0
 20
0.0
 40
2.999999999999999
 50
180.0
 51
270.0000000000008
 73
     1
 72
     1
 10
0.0
 20
-2.999999999999999
 11
0.0
 21
0.0
 72
     1
 10
0.0
 20
0.0
 11
-2.999999999999999
 21
0.0
 97
        0
 75
     0
 76
     1
 98
        1
 10
0.0
 20
0.0
  0
ENDBLK
  5
116
330
114
100
AcDbEntity
  8
0
100
AcDbBlockEnd
  0
BLOCK
  5
177
330
176
100
AcDbEntity
  8
0
100
AcDbBlockBegin
  2
*D8
 70
     1
 10
0.0
 20
0.0
 30
0.0
  3
*D8
  1

  0
LINE
  5
178
330
176
100
AcDbEntity
  8
치수문자_일반주서
 62
     0
370
    -2
100
AcDbLine
 10
9.157089827360679
 20
13.96970345054478
 30
0.0
 11
16.8732305693942
 21
0.0000000000001306
 31
0.0
  0
MTEXT
  5
179
330
176
100
AcDbEntity
  8
치수문자_일반주서
 62
     0
100
AcDbMText
 10
17.17708889698974
 20
3.844950803229067
 30
0.0
 40
2.5
 41
0.0
 71
     5
 72
     1
  1
\A1;R0.1
  7
SLDTEXTSTYLE0
 11
0.4834960874464161
 21
-0.8753465219123269
 31
0.0
 73
     1
 44
1.0
  0
LINE
  5
17A
330
176
100
AcDbEntity
  8
치수문자_일반주서
 62
     0
370
    -2
100
AcDbLine
 10
7.899999999999999
 20
16.24560440751683
 30
0.0
 11
7.948349608744639
 21
16.1580697553256
 31
0.0
  0
SOLID
  5
17B
330
176
100
AcDbEntity
  8
치수문자_일반주서
 62
     0
100
AcDbTrace
 10
9.521817544824149
 20
14.17116015364745
 30
0.0
 11
8.792362109897208
 21
13.76824674744211
 31
0.0
 12
7.948349608744639
 22
16.1580697553256
 32
0.0
 13
7.948349608744639
 23
16.1580697553256
 33
0.0
  0
POINT
  5
17C
330
176
100
AcDbEntity
  8
Defpoints
 62
     0
100
AcDbPoint
 10
7.948349608744639
 20
16.1580697553256
 30
0.0
  0
POINT
  5
17D
330
176
100
AcDbEntity
  8
Defpoints
 62
     0
100
AcDbPoint
 10
7.899999999999999
 20
16.24560440751683
 30
0.0
  0
ENDBLK
  5
17E
330
176
100
AcDbEntity
  8
0
100
AcDbBlockEnd
  0
BLOCK
  5
192
330
191
100
AcDbEntity
  8
0
100
AcDbBlockBegin
  2
*D9
 70
     1
 10
0.0
 20
0.0
 30
0.0
  3
*D9
  1

  0
LINE
  5
194
330
191
100
AcDbEntity
  8
치수문자_일반주서
 62
     0
370
    -2
100
AcDbLine
 10
8.0625
 20
17.34560440751683
 30
0.0
 11
16.0
 21
17.34560440751686
 31
0.0
  0
LINE
  5
195
330
191
100
AcDbEntity
  8
치수문자_일반주서
 62
     0
370
    -2
100
AcDbLine
 10
8.0625
 20
16.14560440751683
 30
0.0
 11
16.00000000000001
 21
16.14560440751686
 31
0.0
  0
LINE
  5
196
330
191
100
AcDbEntity
  8
치수문자_일반주서
 62
     0
370
    -2
100
AcDbLine
 10
16.0
 20
17.34560440751686
 30
0.0
 11
15.99999999999997
 21
29.09560440751687
 31
0.0
  0
LINE
  5
197
330
191
100
AcDbEntity
  8
치수문자_일반주서
 62
     0
370
    -2
100
AcDbLine
 10
16.0
 20
17.34560440751686
 30
0.0
 11
16.00000000000001
 21
16.14560440751686
 31
0.0
  0
LINE
  5
198
330
191
100
AcDbEntity
  8
치수문자_일반주서
 62
     0
370
    -2
100
AcDbLine
 10
16.0
 20
19.84560440751686
 30
0.0
 11
15.99999999999999
 21
22.34560440751686
 31
0.0
  0
LINE
  5
199
330
191
100
AcDbEntity
  8
치수문자_일반주서
 62
     0
370
    -2
100
AcDbLine
 10
16.00000000000001
 20
13.64560440751686
 30
0.0
 11
16.00000000000002
 21
11.14560440751686
 31
0.0
  0
SOLID
  5
19A
330
191
100
AcDbEntity
  8
치수문자_일반주서
 62
     0
100
AcDbTrace
 10
15.58333333333333
 20
19.84560440751686
 30
0.0
 11
16.41666666666666
 21
19.84560440751686
 31
0.0
 12
16.0
 22
17.34560440751686
 32
0.0
 13
16.0
 23
17.34560440751686
 33
0.0
  0
SOLID
  5
19B
330
191
100
AcDbEntity
  8
치수문자_일반주서
 62
     0
100
AcDbTrace
 10
16.41666666666668
 20
13.64560440751686
 30
0.0
 11
15.58333333333335
 21
13.64560440751686
 31
0.0
 12
16.00000000000001
 22
16.14560440751686
 32
0.0
 13
16.00000000000001
 23
16.14560440751686
 33
0.0
  0
MTEXT
  5
19C
330
191
100
AcDbEntity
  8
치수문자_일반주서
 62
     0
100
AcDbMText
 10
12.62499999999998
 20
25.72060440751686
 30
0.0
 40
2.5
 41
0.0
 71
     2
 72
     1
  1
\A1;%%c1.2
  7
SLDTEXTSTYLE0
 11
-2.960594732333752E-15
 21
1.0
 31
0.0
 73
     1
 44
1.0
  0
POINT
  5
19D
330
191
100
AcDbEntity
  8
Defpoints
 62
     0
100
AcDbPoint
 10
8.0
 20
17.34560440751683
 30
0.0
  0
POINT
  5
19E
330
191
100
AcDbEntity
  8
Defpoints
 62
     0
100
AcDbPoint
 10
8.0
 20
16.14560440751683
 30
0.0
  0
POINT
  5
19F
330
191
100
AcDbEntity
  8
Defpoints
 62
     0
100
AcDbPoint
 10
16.0
 20
16.14560440751686
 30
0.0
  0
ENDBLK
  5
193
330
191
100
AcDbEntity
  8
0
100
AcDbBlockEnd
  0
BLOCK
  5
1A1
330
1A0
100
AcDbEntity
  8
0
100
AcDbBlockBegin
  2
*D10
 70
     1
 10
0.0
 20
0.0
 30
0.0
  3
*D10
  1

  0
LINE
  5
1A3
330
1A0
100
AcDbEntity
  8
치수문자_일반주서
 62
     0
370
    -2
100
AcDbLine
 10
8.0
 20
17.40810440751683
 30
0.0
 11
8.0
 21
27.74560440751683
 31
0.0
  0
LINE
  5
1A4
330
1A0
100
AcDbEntity
  8
치수문자_일반주서
 62
     0
370
    -2
100
AcDbLine
 10
5.0
 20
17.39957619746455
 30
0.0
 11
5.0
 21
27.74560440751683
 31
0.0
  0
LINE
  5
1A5
330
1A0
100
AcDbEntity
  8
치수문자_일반주서
 62
     0
370
    -2
100
AcDbLine
 10
8.0
 20
27.74560440751683
 30
0.0
 11
5.0
 21
27.74560440751683
 31
0.0
  0
LINE
  5
1A6
330
1A0
100
AcDbEntity
  8
치수문자_일반주서
 62
     0
370
    -2
100
AcDbLine
 10
10.5
 20
27.74560440751683
 30
0.0
 11
13.0
 21
27.74560440751683
 31
0.0
  0
LINE
  5
1A7
330
1A0
100
AcDbEntity
  8
치수문자_일반주서
 62
     0
370
    -2
100
AcDbLine
 10
2.5
 20
27.74560440751683
 30
0.0
 11
0.0
 21
27.74560440751683
 31
0.0
  0
SOLID
  5
1A8
330
1A0
100
AcDbEntity
  8
치수문자_일반주서
 62
     0
100
AcDbTrace
 10
10.5
 20
28.1622710741835
 30
0.0
 11
10.5
 21
27.32893774085016
 31
0.0
 12
8.0
 22
27.74560440751683
 32
0.0
 13
8.0
 23
27.74560440751683
 33
0.0
  0
SOLID
  5
1A9
330
1A0
100
AcDbEntity
  8
치수문자_일반주서
 62
     0
100
AcDbTrace
 10
2.5
 20
27.32893774085016
 30
0.0
 11
2.5
 21
28.1622710741835
 31
0.0
 12
5.0
 22
27.74560440751683
 32
0.0
 13
5.0
 23
27.74560440751683
 33
0.0
  0
MTEXT
  5
1AA
330
1A0
100
AcDbEntity
  8
치수문자_일반주서
 62
     0
100
AcDbMText
 10
6.499999999999899
 20
31.12060440751683
 30
0.0
 40
2.5
 41
0.0
 71
     2
 72
     1
  1
\A1;3
  7
SLDTEXTSTYLE0
 73
     1
 44
1.0
  0
POINT
  5
1AB
330
1A0
100
AcDbEntity
  8
Defpoints
 62
     0
100
AcDbPoint
 10
8.0
 20
17.34560440751683
 30
0.0
  0
POINT
  5
1AC
330
1A0
100
AcDbEntity
  8
Defpoints
 62
     0
100
AcDbPoint
 10
5.0
 20
17.33707619746455
 30
0.0
  0
POINT
  5
1AD
330
1A0
100
AcDbEntity
  8
Defpoints
 62
     0
100
AcDbPoint
 10
5.0
 20
27.74560440751683
 30
0.0
  0
ENDBLK
  5
1A2
330
1A0
100
AcDbEntity
  8
0
100
AcDbBlockEnd
  0
BLOCK
  5
1B4
330
1B3
100
AcDbEntity
  8
0
100
AcDbBlockBegin
  2
*D11
 70
     1
 10
0.0
 20
0.0
 30
0.0
  3
*D11
  1

  0
LINE
  5
1B6
330
1B3
100
AcDbEntity
  8
치수문자_일반주서
 62
     0
370
    -2
100
AcDbLine
 10
44.57360754678997
 20
-8.238635952398297
 30
0.0
 11
52.51110754679
 21
-8.238635952398267
 31
0.0
  0
LINE
  5
1B7
330
1B3
100
AcDbEntity
  8
치수문자_일반주서
 62
     0
370
    -2
100
AcDbLine
 10
44.57360754678997
 20
-9.438635952398297
 30
0.0
 11
52.51110754679001
 21
-9.438635952398267
 31
0.0
  0
LINE
  5
1B8
330
1B3
100
AcDbEntity
  8
치수문자_일반주서
 62
     0
370
    -2
100
AcDbLine
 10
52.51110754679
 20
-8.238635952398267
 30
0.0
 11
52.51110754678993
 21
3.511364047601738
 31
0.0
  0
LINE
  5
1B9
330
1B3
100
AcDbEntity
  8
치수문자_일반주서
 62
     0
370
    -2
100
AcDbLine
 10
52.51110754679
 20
-8.238635952398267
 30
0.0
 11
52.51110754679001
 21
-9.438635952398267
 31
0.0
  0
LINE
  5
1BA
330
1B3
100
AcDbEntity
  8
치수문자_일반주서
 62
     0
370
    -2
100
AcDbLine
 10
52.51110754678999
 20
-5.738635952398267
 30
0.0
 11
52.51110754678997
 21
-3.238635952398267
 31
0.0
  0
LINE
  5
1BB
330
1B3
100
AcDbEntity
  8
치수문자_일반주서
 62
     0
370
    -2
100
AcDbLine
 10
52.51110754679002
 20
-11.93863595239827
 30
0.0
 11
52.51110754679004
 21
-14.43863595239827
 31
0.0
  0
SOLID
  5
1BC
330
1B3
100
AcDbEntity
  8
치수문자_일반주서
 62
     0
100
AcDbTrace
 10
52.09444088012332
 20
-5.73863595239827
 30
0.0
 11
52.92777421345665
 21
-5.738635952398265
 31
0.0
 12
52.51110754679
 22
-8.238635952398267
 32
0.0
 13
52.51110754679
 23
-8.238635952398267
 33
0.0
  0
SOLID
  5
1BD
330
1B3
100
AcDbEntity
  8
치수문자_일반주서
 62
     0
100
AcDbTrace
 10
52.92777421345669
 20
-11.93863595239826
 30
0.0
 11
52.09444088012336
 21
-11.93863595239827
 31
0.0
 12
52.51110754679001
 22
-9.438635952398267
 32
0.0
 13
52.51110754679001
 23
-9.438635952398267
 33
0.0
  0
MTEXT
  5
1BE
330
1B3
100
AcDbEntity
  8
치수문자_일반주서
 62
     0
100
AcDbMText
 10
49.13610754678995
 20
0.1363640476017181
 30
0.0
 40
2.5
 41
0.0
 71
     2
 72
     1
  1
\A1;%%c1.2
  7
SLDTEXTSTYLE0
 11
-5.921189464667505E-15
 21
1.0
 31
0.0
 73
     1
 44
1.0
  0
POINT
  5
1BF
330
1B3
100
AcDbEntity
  8
Defpoints
 62
     0
100
AcDbPoint
 10
44.51110754678997
 20
-8.238635952398297
 30
0.0
  0
POINT
  5
1C0
330
1B3
100
AcDbEntity
  8
Defpoints
 62
     0
100
AcDbPoint
 10
44.51110754678997
 20
-9.438635952398297
 30
0.0
  0
POINT
  5
1C1
330
1B3
100
AcDbEntity
  8
Defpoints
 62
     0
100
AcDbPoint
 10
52.51110754678998
 20
-9.438635952398267
 30
0.0
  0
ENDBLK
  5
1B5
330
1B3
100
AcDbEntity
  8
0
100
AcDbBlockEnd
  0
BLOCK
  5
1C3
330
1C2
100
AcDbEntity
  8
0
100
AcDbBlockBegin
  2
*D12
 70
     1
 10
0.0
 20
0.0
 30
0.0
  3
*D12
  1

  0
LINE
  5
1C5
330
1C2
100
AcDbEntity
  8
치수문자_일반주서
 62
     0
370
    -2
100
AcDbLine
 10
45.66819737415058
 20
-11.61453690937038
 30
0.0
 11
53.38433811618366
 21
-25.58424035991528
 31
0.0
  0
MTEXT
  5
1C6
330
1C2
100
AcDbEntity
  8
치수문자_일반주서
 62
     0
100
AcDbMText
 10
53.68819644377933
 20
-21.73928955668635
 30
0.0
 40
2.5
 41
0.0
 71
     5
 72
     1
  1
\A1;R0.1
  7
SLDTEXTSTYLE0
 11
0.4834960874463889
 21
-0.8753465219123419
 31
0.0
 73
     1
 44
1.0
  0
LINE
  5
1C7
330
1C2
100
AcDbEntity
  8
치수문자_일반주서
 62
     0
370
    -2
100
AcDbLine
 10
44.41110754678997
 20
-9.338635952398299
 30
0.0
 11
44.45945715553461
 21
-9.42617060458953
 31
0.0
  0
SOLID
  5
1C8
330
1C2
100
AcDbEntity
  8
치수문자_일반주서
 62
     0
100
AcDbTrace
 10
46.03292509161405
 20
-11.41308020626772
 30
0.0
 11
45.30346965668711
 21
-11.81599361247305
 31
0.0
 12
44.45945715553461
 22
-9.42617060458953
 32
0.0
 13
44.45945715553461
 23
-9.42617060458953
 33
0.0
  0
POINT
  5
1C9
330
1C2
100
AcDbEntity
  8
Defpoints
 62
     0
100
AcDbPoint
 10
44.45945715553461
 20
-9.42617060458953
 30
0.0
  0
POINT
  5
1CA
330
1C2
100
AcDbEntity
  8
Defpoints
 62
     0
100
AcDbPoint
 10
44.41110754678997
 20
-9.338635952398299
 30
0.0
  0
ENDBLK
  5
1C4
330
1C2
100
AcDbEntity
  8
0
100
AcDbBlockEnd
  0
BLOCK
  5
1CC
330
1CB
100
AcDbEntity
  8
0
100
AcDbBlockBegin
  2
*D13
 70
     1
 10
0.0
 20
0.0
 30
0.0
  3
*D13
  1

  0
LINE
  5
1CE
330
1CB
100
AcDbEntity
  8
치수문자_일반주서
 62
     0
370
    -2
100
AcDbLine
 10
44.51110754678997
 20
-8.176135952398297
 30
0.0
 11
44.51110754678997
 21
2.161364047601701
 31
0.0
  0
LINE
  5
1CF
330
1CB
100
AcDbEntity
  8
치수문자_일반주서
 62
     0
370
    -2
100
AcDbLine
 10
41.51110754678997
 20
-8.18466416245058
 30
0.0
 11
41.51110754678997
 21
2.161364047601701
 31
0.0
  0
LINE
  5
1D0
330
1CB
100
AcDbEntity
  8
치수문자_일반주서
 62
     0
370
    -2
100
AcDbLine
 10
44.51110754678997
 20
2.161364047601701
 30
0.0
 11
41.51110754678997
 21
2.161364047601701
 31
0.0
  0
LINE
  5
1D1
330
1CB
100
AcDbEntity
  8
치수문자_일반주서
 62
     0
370
    -2
100
AcDbLine
 10
47.01110754678997
 20
2.161364047601701
 30
0.0
 11
49.51110754678997
 21
2.161364047601701
 31
0.0
  0
LINE
  5
1D2
330
1CB
100
AcDbEntity
  8
치수문자_일반주서
 62
     0
370
    -2
100
AcDbLine
 10
39.01110754678997
 20
2.161364047601701
 30
0.0
 11
36.51110754678997
 21
2.161364047601701
 31
0.0
  0
SOLID
  5
1D3
330
1CB
100
AcDbEntity
  8
치수문자_일반주서
 62
     0
100
AcDbTrace
 10
47.01110754678997
 20
2.578030714268368
 30
0.0
 11
47.01110754678997
 21
1.744697380935034
 31
0.0
 12
44.51110754678997
 22
2.161364047601701
 32
0.0
 13
44.51110754678997
 23
2.161364047601701
 33
0.0
  0
SOLID
  5
1D4
330
1CB
100
AcDbEntity
  8
치수문자_일반주서
 62
     0
100
AcDbTrace
 10
39.01110754678997
 20
1.744697380935034
 30
0.0
 11
39.01110754678997
 21
2.578030714268368
 31
0.0
 12
41.51110754678997
 22
2.161364047601701
 32
0.0
 13
41.51110754678997
 23
2.161364047601701
 33
0.0
  0
MTEXT
  5
1D5
330
1CB
100
AcDbEntity
  8
치수문자_일반주서
 62
     0
100
AcDbMText
 10
43.01110754678987
 20
5.536364047601701
 30
0.0
 40
2.5
 41
0.0
 71
     2
 72
     1
  1
\A1;3
  7
SLDTEXTSTYLE0
 73
     1
 44
1.0
  0
POINT
  5
1D6
330
1CB
100
AcDbEntity
  8
Defpoints
 62
     0
100
AcDbPoint
 10
44.51110754678997
 20
-8.238635952398297
 30
0.0
  0
POINT
  5
1D7
330
1CB
100
AcDbEntity
  8
Defpoints
 62
     0
100
AcDbPoint
 10
41.51110754678997
 20
-8.24716416245058
 30
0.0
  0
POINT
  5
1D8
330
1CB
100
AcDbEntity
  8
Defpoints
 62
     0
100
AcDbPoint
 10
41.51110754678997
 20
2.161364047601701
 30
0.0
  0
ENDBLK
  5
1CD
330
1CB
100
AcDbEntity
  8
0
100
AcDbBlockEnd
  0
BLOCK
  5
1FD
330
1FC
100
AcDbEntity
  8
0
100
AcDbBlockBegin
  2
*D14
 70
     1
 10
0.0
 20
0.0
 30
0.0
  3
*D14
  1

  0
LINE
  5
1FF
330
1FC
100
AcDbEntity
  8
치수문자_일반주서
 62
     0
370
    -2
100
AcDbLine
 10
15.98415111417468
 20
-2.634738906461981
 30
0.0
 11
23.61430606856576
 21
-15.79531890029314
 31
0.0
  0
MTEXT
  5
200
330
1FC
100
AcDbEntity
  8
치수문자_일반주서
 62
     0
100
AcDbMText
 10
23.6815039559141
 20
-11.67453790557431
 30
0.0
 40
2.5
 41
0.0
 71
     5
 72
     1
  1
\A1;R0.2
  7
SLDTEXTSTYLE0
 11
0.5015714301073184
 21
-0.8651162352540259
 31
0.0
 73
     1
 44
1.0
  0
LINE
  5
201
330
1FC
100
AcDbEntity
  8
치수문자_일반주서
 62
     0
370
    -2
100
AcDbLine
 10
14.62990825288493
 20
-0.2989250712761109
 30
0.0
 11
14.73022253890639
 21
-0.4719483183269156
 31
0.0
  0
SOLID
  5
202
330
1FC
100
AcDbEntity
  8
치수문자_일반주서
 62
     0
100
AcDbTrace
 10
16.3446162121972
 20
-2.425750810583931
 30
0.0
 11
15.62368601615217
 21
-2.84372700234003
 31
0.0
 12
14.73022253890639
 22
-0.4719483183269156
 32
0.0
 13
14.73022253890639
 23
-0.4719483183269156
 33
0.0
  0
POINT
  5
203
330
1FC
100
AcDbEntity
  8
Defpoints
 62
     0
100
AcDbPoint
 10
14.73022253890639
 20
-0.4719483183269156
 30
0.0
  0
POINT
  5
204
330
1FC
100
AcDbEntity
  8
Defpoints
 62
     0
100
AcDbPoint
 10
14.62990825288493
 20
-0.2989250712761109
 30
0.0
  0
ENDBLK
  5
1FE
330
1FC
100
AcDbEntity
  8
0
100
AcDbBlockEnd
  0
ENDSEC
  0
SECTION
  2
ENTITIES
  0
LINE
  5
96
330
1F
100
AcDbEntity
  8
0
  6
Continuous
 62
     1
370
    15
100
AcDbLine
 10
14.02134032946958
 20
-0.1014571029872332
 30
0.0
 11
14.11119976423027
 21
-0.1484852214048505
 31
0.0
1001
PE_URL
1000

  0
SPLINE
  5
97
330
1F
100
AcDbEntity
  8
0
  6
Continuous
 62
     1
370
    15
100
AcDbSpline
210
0.0
220
0.0
230
1.0
 70
     8
 71
     3
 72
     9
 73
     5
 74
     0
 42
0.000000001
 43
0.00000001
 40
0.0
 40
0.0
 40
0.0
 40
0.0
 40
0.4636380481678229
 40
1.0
 40
1.0
 40
1.0
 40
1.0
 10
14.78595778891474
 20
0.0728477956039568
 30
0.0
 10
14.76074857280683
 20
0.085870137289203
 30
0.0
 10
14.7063759513028
 20
0.1139574388743665
 30
0.0
 10
14.6521438454312
 20
0.1440542829323103
 30
0.0
 10
14.62305580727395
 20
0.1601970849552177
 30
0.0
1001
PE_URL
1000

  0
LINE
  5
98
330
1F
100
AcDbEntity
  8
0
  6
Continuous
 62
     1
370
    15
100
AcDbLine
 10
12.48814656370505
 20
0.5010749287238943
 30
0.0
 11
12.32990825288492
 21
0.5010749287238943
 31
0.0
1001
PE_URL
1000

  0
LINE
  5
99
330
1F
100
AcDbEntity
  8
0
  6
Continuous
 62
     1
370
    15
100
AcDbLine
 10
13.54312527334072
 20
-0.498925071276108
 30
0.0
 11
13.84964098017452
 21
-0.498925071276108
 31
0.0
1001
PE_URL
1000

  0
LINE
  5
9A
330
1F
100
AcDbEntity
  8
0
  6
Continuous
 62
     1
370
    15
100
AcDbLine
 10
13.84964098017453
 20
0.5010749287238943
 30
0.0
 11
13.54312527334072
 21
0.5010749287238943
 31
0.0
1001
PE_URL
1000

  0
LINE
  5
9B
330
1F
100
AcDbEntity
  8
0
  6
Continuous
 62
     1
370
    15
100
AcDbLine
 10
12.32990825288492
 20
-0.498925071276108
 30
0.0
 11
12.48814656370504
 21
-0.498925071276108
 31
0.0
1001
PE_URL
1000

  0
LINE
  5
9C
330
1F
100
AcDbEntity
  8
외형선
  6
Continuous
370
    15
100
AcDbLine
 10
1.99999999999999
 20
3.001074928723893
 30
0.0
 11
-34.57009174711508
 21
3.001074928723893
 31
0.0
  0
LINE
  5
9D
330
1F
100
AcDbEntity
  8
외형선
  6
Continuous
370
    15
100
AcDbLine
 10
-34.57009174711508
 20
-2.998925071276107
 30
0.0
 11
1.99999999999999
 21
-2.998925071276106
 31
0.0
  0
LINE
  5
9E
330
1F
100
AcDbEntity
  8
외형선
  6
Continuous
370
    15
100
AcDbLine
 10
-34.57009174711508
 20
3.001074928723893
 30
0.0
 11
-35.17009174711508
 21
2.401074928723899
 31
0.0
  0
LINE
  5
9F
330
1F
100
AcDbEntity
  8
외형선
  6
Continuous
370
    15
100
AcDbLine
 10
-35.17009174711508
 20
-2.398925071276113
 30
0.0
 11
-34.57009174711508
 21
-2.998925071276107
 31
0.0
  0
LINE
  5
A0
330
1F
100
AcDbEntity
  8
외형선
  6
Continuous
370
    15
100
AcDbLine
 10
1.99999999999999
 20
-2.998925071276105
 30
0.0
 11
6.555908252884922
 21
-1.340710077178282
 31
0.0
  0
LINE
  5
A1
330
1F
100
AcDbEntity
  8
외형선
  6
Continuous
370
    15
100
AcDbLine
 10
6.555908252884922
 20
1.34285993462607
 30
0.0
 11
1.99999999999999
 21
3.001074928723893
 31
0.0
  0
LINE
  5
A2
330
1F
100
AcDbEntity
  8
외형선
  6
Continuous
370
    15
100
AcDbLine
 10
6.555908252884922
 20
-1.340710077178282
 30
0.0
 11
11.32990825288492
 21
-0.4989250712761061
 31
0.0
  0
LINE
  5
A3
330
1F
100
AcDbEntity
  8
외형선
  6
Continuous
370
    15
100
AcDbLine
 10
11.32990825288492
 20
0.5010749287238944
 30
0.0
 11
6.555908252884922
 21
1.34285993462607
 31
0.0
  0
LINE
  5
A4
330
1F
100
AcDbEntity
  8
외형선
  6
Continuous
370
    15
100
AcDbLine
 10
11.8297917166702
 20
0.5010749287238943
 30
0.0
 11
11.32990825288492
 21
0.5010749287238943
 31
0.0
  0
LINE
  5
A5
330
1F
100
AcDbEntity
  8
외형선
  6
Continuous
370
    15
100
AcDbLine
 10
12.32990825288492
 20
0.5010749287238943
 30
0.0
 11
12.18347861539226
 21
0.5010749287238943
 31
0.0
  0
LINE
  5
A6
330
1F
100
AcDbEntity
  8
외형선
  6
Continuous
370
    15
100
AcDbLine
 10
12.18347861539226
 20
-0.498925071276106
 30
0.0
 11
12.32990825288492
 21
-0.498925071276106
 31
0.0
  0
LINE
  5
A7
330
1F
100
AcDbEntity
  8
외형선
  6
Continuous
370
    15
100
AcDbLine
 10
11.32990825288492
 20
-0.498925071276106
 30
0.0
 11
11.8297917166702
 21
-0.498925071276106
 31
0.0
  0
LINE
  5
A8
330
1F
100
AcDbEntity
  8
0
  6
Continuous
 62
     1
370
    15
100
AcDbLine
 10
14.82990825288493
 20
-0.2675391374395936
 30
0.0
 11
14.82990825288493
 21
0.0196889948875218
 31
0.0
1001
PE_URL
1000

  0
SPLINE
  5
A9
330
1F
100
AcDbEntity
  8
0
  6
Continuous
 62
     1
370
    15
100
AcDbSpline
210
0.0
220
0.0
230
1.0
 70
     8
 71
     3
 72
    12
 73
     8
 74
     0
 42
0.000000001
 43
0.00000001
 40
0.0
 40
0.0
 40
0.0
 40
0.0
 40
0.5
 40
0.5
 40
0.75
 40
0.75
 40
1.0
 40
1.0
 40
1.0
 40
1.0
 10
14.62990825288493
 20
-0.3912399447808529
 30
0.0
 10
14.68005596397531
 20
-0.4090397636380882
 30
0.0
 10
14.72650895804981
 20
-0.4133536972277513
 30
0.0
 10
14.78378611936701
 20
-0.3848746614923493
 30
0.0
 10
14.80050336249817
 20
-0.3692045873632561
 30
0.0
 10
14.82400600843279
 20
-0.3247215818182028
 30
0.0
 10
14.82990825288493
 20
-0.2965047014292065
 30
0.0
 10
14.82990825288493
 20
-0.2675391374395936
 30
0.0
1001
PE_URL
1000

  0
SPLINE
  5
AA
330
1F
100
AcDbEntity
  8
0
  6
Continuous
 62
     1
370
    15
100
AcDbSpline
210
0.0
220
0.0
230
1.0
 70
     8
 71
     3
 72
    13
 73
     9
 74
     0
 42
0.000000001
 43
0.00000001
 40
0.0
 40
0.0
 40
0.0
 40
0.0
 40
0.1267229678737417
 40
0.3271916304621977
 40
0.5275204250106462
 40
0.6851789125661992
 40
0.8426370267795505
 40
1.0
 40
1.0
 40
1.0
 40
1.0
 10
12.48814656370505
 20
0.4868562242898952
 30
0.0
 10
12.57867897175559
 20
0.4877219716696564
 30
0.0
 10
12.81242859660055
 20
0.4899572830856158
 30
0.0
 10
13.18922652126624
 20
0.3577351511040125
 30
0.0
 10
13.58820503703242
 20
0.1542555813036014
 30
0.0
 10
13.95597816341218
 20
-0.061306886470637
 30
0.0
 10
14.29307700792556
 20
-0.2531040309263947
 30
0.0
 10
14.51765379409552
 20
-0.3452039178941945
 30
0.0
 10
14.62990825289327
 20
-0.3912399447838096
 30
0.0
1001
PE_URL
1000

  0
SPLINE
  5
AB
330
1F
100
AcDbEntity
  8
0
  6
Continuous
 62
     1
370
    15
100
AcDbSpline
210
0.0
220
0.0
230
1.0
 70
     8
 71
     3
 72
    12
 73
     8
 74
     0
 42
0.000000001
 43
0.00000001
 40
0.0
 40
0.0
 40
0.0
 40
0.0
 40
0.2632755722004094
 40
0.5264712206749319
 40
0.789517553544923
 40
0.9963342795494807
 40
1.0
 40
1.0
 40
1.0
 40
1.0
 10
14.62990825289327
 20
0.1567777805304508
 30
0.0
 10
14.48660720784667
 20
0.2314146061151963
 30
0.0
 10
14.20004862028337
 20
0.3806655994545695
 30
0.0
 10
13.77038927024015
 20
0.5052887369273756
 30
0.0
 10
13.3713195460552
 20
0.5022798157062933
 30
0.0
 10
13.11396373757426
 20
0.4534948512178545
 30
0.0
 10
12.99956237677345
 20
0.4053979494381913
 30
0.0
 10
12.99756998541295
 20
0.4045603033568686
 30
0.0
1001
PE_URL
1000

  0
SPLINE
  5
AC
330
1F
100
AcDbEntity
  8
0
  6
Continuous
 62
     1
370
    15
100
AcDbSpline
210
0.0
220
0.0
230
1.0
 70
     8
 71
     3
 72
    10
 73
     6
 74
     0
 42
0.000000001
 43
0.00000001
 40
0.0
 40
0.0
 40
0.0
 40
0.0
 40
0.5
 40
0.5
 40
1.0
 40
1.0
 40
1.0
 40
1.0
 10
14.82990825288493
 20
0.0196889948880767
 30
0.0
 10
14.82990825288489
 20
0.044682064663238
 30
0.0
 10
14.80737182298333
 20
0.0610685927995522
 30
0.0
 10
14.7303617584971
 20
0.1033411751357349
 30
0.0
 10
14.67861208524447
 20
0.1302799129751364
 30
0.0
 10
14.62990825288493
 20
0.1567777805349907
 30
0.0
1001
PE_URL
1000

  0
SPLINE
  5
AD
330
1F
100
AcDbEntity
  8
0
  6
Continuous
 62
     1
370
    15
100
AcDbSpline
210
0.0
220
0.0
230
1.0
 70
     8
 71
     3
 72
    13
 73
     9
 74
     0
 42
0.000000001
 43
0.00000001
 40
0.0
 40
0.0
 40
0.0
 40
0.0
 40
0.2088784295216694
 40
0.417665683718166
 40
0.6263072659495386
 40
0.7905079060519314
 40
0.9544998581759132
 40
0.9836013391212961
 40
0.9836013391212961
 40
0.9836013391212961
 40
0.9836013391212961
 10
12.32990825287884
 20
0.0921738221286054
 30
0.0
 10
12.47318893964386
 20
0.00869983207702
 30
0.0
 10
12.75968777122909
 20
-0.1582117116731784
 30
0.0
 10
13.18922721435086
 20
-0.3756962130398235
 30
0.0
 10
13.58820541685568
 20
-0.4933988391932065
 30
0.0
 10
13.95597661774951
 20
-0.5050396082539853
 30
0.0
 10
14.2007432468696
 20
-0.4696633311089195
 30
0.0
 10
14.33300178050784
 20
-0.4204831725665358
 30
0.0
 10
14.35293454228632
 20
-0.4128250411854298
 30
0.0
1001
PE_URL
1000

  0
SPLINE
  5
AE
330
1F
100
AcDbEntity
  8
외형선
  6
Continuous
370
    15
100
AcDbSpline
210
0.0
220
0.0
230
1.0
 70
    24
 71
     3
 72
    12
 73
     8
 74
     0
 42
0.000000001
 43
0.00000001
 40
0.0
 40
0.0
 40
0.0
 40
0.0
 40
0.1956378688790943
 40
0.4034762270792346
 40
0.6113145852793656
 40
0.8191529434794931
 40
1.0
 40
1.0
 40
1.0
 40
1.0
 10
12.32990825287916
 20
0.4939680870257336
 30
0.0
 10
12.32990825288158
 20
0.4643942083900429
 30
0.0
 10
12.32990825288658
 20
0.4034021466772774
 30
0.0
 10
12.32990825288449
 20
0.3017308566066254
 30
0.0
 10
12.32990825288503
 20
0.2061608208368281
 30
0.0
 10
12.32990825288491
 20
0.1279245642106546
 30
0.0
 10
12.32990825288494
 20
0.0986825889241379
 30
0.0
 10
12.32990825288495
 20
0.0850769197708127
 30
0.0
  0
SPLINE
  5
AF
330
1F
100
AcDbEntity
  8
0
  6
Continuous
 62
     1
370
    15
100
AcDbSpline
210
0.0
220
0.0
230
1.0
 70
     8
 71
     3
 72
    22
 73
    18
 74
     0
 42
0.000000001
 43
0.00000001
 40
0.0
 40
0.0
 40
0.0
 40
0.0
 40
0.125
 40
0.125
 40
0.25
 40
0.25
 40
0.375
 40
0.375
 40
0.5
 40
0.5
 40
0.625
 40
0.625
 40
0.75
 40
0.75
 40
0.875
 40
0.875
 40
1.0
 40
1.0
 40
1.0
 40
1.0
 10
14.62990825288493
 20
-0.4989250712761109
 30
0.0
 10
14.53284467075178
 20
-0.4855863489081139
 30
0.0
 10
14.43769675293962
 20
-0.4520163271253325
 30
0.0
 10
14.24716875442068
 20
-0.3640180639677094
 30
0.0
 10
14.14835393847468
 20
-0.3227416473084107
 30
0.0
 10
13.96129267723103
 20
-0.2315215745421753
 30
0.0
 10
13.86269344085006
 20
-0.1799448191365768
 30
0.0
 10
13.67017030716508
 20
-0.0727681935435801
 30
0.0
 10
13.57696727938166
 20
-0.017410933409128
 30
0.0
 10
13.38285444816891
 20
0.0934261647359962
 30
0.0
 10
13.28903904238014
 20
0.1475337055552239
 30
0.0
 10
13.09731612627686
 20
0.249234554418915
 30
0.0
 10
12.99836828720655
 20
0.2968729391348802
 30
0.0
 10
12.81020921899226
 20
0.378235262125736
 30
0.0
 10
12.7128403060408
 20
0.4131576284325799
 30
0.0
 10
12.51980720954931
 20
0.4663816159372618
 30
0.0
 10
12.42690855312505
 20
0.4846338455794372
 30
0.0
 10
12.32990825287168
 20
0.4939680870263323
 30
0.0
1001
PE_URL
1000

  0
LINE
  5
B1
330
1F
100
AcDbEntity
  8
외형선
  6
Continuous
370
    15
100
AcDbLine
 10
12.32990825287916
 20
0.4939680870257336
 30
0.0
 11
12.32990825288492
 21
0.5010749287238943
 31
0.0
  0
LINE
  5
B2
330
1F
100
AcDbEntity
  8
외형선
  6
Continuous
370
    15
100
AcDbLine
 10
12.32990825287916
 20
-0.0829270623194069
 30
0.0
 11
12.32990825287916
 21
0.0921738221291472
 31
0.0
  0
SPLINE
  5
B3
330
1F
100
AcDbEntity
  8
0
  6
Continuous
 62
     1
370
    15
100
AcDbSpline
210
0.0
220
0.0
230
1.0
 70
     8
 71
     3
 72
    11
 73
     7
 74
     0
 42
0.000000001
 43
0.00000001
 40
0.0
 40
0.0
 40
0.0
 40
0.0
 40
0.1665679735642293
 40
0.4445963212578456
 40
0.7223446069208923
 40
1.0
 40
1.0
 40
1.0
 40
1.0
 10
13.54312527334072
 20
-0.4836889515246826
 30
0.0
 10
13.47568397547942
 20
-0.4870755704402563
 30
0.0
 10
13.2956724625314
 20
-0.4961149930804419
 30
0.0
 10
13.00367389729122
 20
-0.412217627704031
 30
0.0
 10
12.66668859732196
 20
-0.2718556554856685
 30
0.0
 10
12.44215584981007
 20
-0.1458962377019319
 30
0.0
 10
12.32990825287168
 20
-0.0829270623159056
 30
0.0
1001
PE_URL
1000

  0
SPLINE
  5
B4
330
1F
100
AcDbEntity
  8
0
  6
Continuous
 62
     1
370
    15
100
AcDbSpline
210
0.0
220
0.0
230
1.0
 70
     8
 71
     3
 72
     9
 73
     5
 74
     0
 42
0.000000001
 43
0.00000001
 40
0.0
 40
0.0
 40
0.0
 40
0.0
 40
0.6437628173854092
 40
0.9999999999999999
 40
0.9999999999999999
 40
0.9999999999999999
 40
0.9999999999999999
 10
12.32990825287884
 20
-0.4905560219092403
 30
0.0
 10
12.4731886359687
 20
-0.4975644990038761
 30
0.0
 10
12.6957556734248
 20
-0.5084512369535764
 30
0.0
 10
12.91829367478404
 20
-0.4302637396604642
 30
0.0
 10
12.99756998541294
 20
-0.40241044590908
 30
0.0
1001
PE_URL
1000

  0
SPLINE
  5
B5
330
1F
100
AcDbEntity
  8
외형선
  6
Continuous
370
    15
100
AcDbSpline
210
0.0
220
0.0
230
1.0
 70
    24
 71
     3
 72
    18
 73
    14
 74
     0
 42
0.000000001
 43
0.00000001
 40
0.0
 40
0.0
 40
0.0
 40
0.0
 40
0.0463351738656104
 40
0.1416929679589723
 40
0.2343633156903298
 40
0.3297211097835517
 40
0.4223914575146305
 40
0.5177492516078375
 40
0.6104195993351114
 40
0.7057773934241685
 40
0.7984477411593421
 40
0.8938055352573173
 40
1.0
 40
1.0
 40
1.0
 40
1.0
 10
12.32990825288492
 20
-0.061345799688336
 30
0.0
 10
12.32990825288492
 20
-0.0633272566086952
 30
0.0
 10
12.32990825288489
 20
-0.0693865521396206
 30
0.0
 10
12.32990825288496
 20
-0.0881583203927447
 30
0.0
 10
12.32990825288487
 20
-0.1167037805491146
 30
0.0
 10
12.32990825288498
 20
-0.1520035154593953
 30
0.0
 10
12.32990825288489
 20
-0.1931526468920029
 30
0.0
 10
12.32990825288497
 20
-0.2383923116086758
 30
0.0
 10
12.3299082528849
 20
-0.2872102054956323
 30
0.0
 10
12.32990825288492
 20
-0.3373832166566998
 30
0.0
 10
12.32990825288494
 20
-0.3882907160478126
 30
0.0
 10
12.32990825288489
 20
-0.4403441402059784
 30
0.0
 10
12.3299082528849
 20
-0.4732293584747955
 30
0.0
 10
12.32990825288489
 20
-0.4905560219023892
 30
0.0
  0
SPLINE
  5
B6
330
1F
100
AcDbEntity
  8
0
  6
Continuous
 62
     1
370
    15
100
AcDbSpline
210
0.0
220
0.0
230
1.0
 70
     8
 71
     3
 72
    12
 73
     8
 74
     0
 42
0.000000001
 43
0.00000001
 40
0.0
 40
0.0
 40
0.0
 40
0.0
 40
0.4999999999999998
 40
0.4999999999999998
 40
0.7499999999999999
 40
0.7499999999999999
 40
1.0
 40
1.0
 40
1.0
 40
1.0
 10
14.62990825288493
 20
0.3110572508439706
 30
0.0
 10
14.68005596397533
 20
0.288529728514231
 30
0.0
 10
14.72650895804983
 20
0.2496180915191361
 30
0.0
 10
14.78378611936701
 20
0.1918523882672304
 30
0.0
 10
14.80050336249816
 20
0.1730211671763711
 30
0.0
 10
14.82400600843281
 20
0.1448091696819107
 30
0.0
 10
14.82990825288493
 20
0.1364663525032375
 30
0.0
 10
14.82990825288493
 20
0.1346656599111198
 30
0.0
1001
PE_URL
1000

  0
LINE
  5
B7
330
1F
100
AcDbEntity
  8
0
  6
Continuous
 62
     1
370
    15
100
AcDbLine
 10
14.82990825288493
 20
0.0196889948875218
 30
0.0
 11
14.82990825288493
 21
0.1346656599111198
 31
0.0
1001
PE_URL
1000

  0
SPLINE
  5
B8
330
1F
100
AcDbEntity
  8
0
  6
Continuous
 62
     1
370
    15
100
AcDbSpline
210
0.0
220
0.0
230
1.0
 70
     8
 71
     3
 72
    10
 73
     6
 74
     0
 42
0.000000001
 43
0.00000001
 40
0.0
 40
0.0
 40
0.0
 40
0.0
 40
0.1364253439632368
 40
0.5683431609378957
 40
1.0
 40
1.0
 40
1.0
 40
1.0
 10
13.84964098017453
 20
0.4929150687788933
 30
0.0
 10
13.88513441894011
 20
0.4951793143277069
 30
0.0
 10
14.03299883030653
 20
0.5046120812533229
 30
0.0
 10
14.29306984289247
 20
0.4470272364579115
 30
0.0
 10
14.51765140623237
 20
0.3563714471218514
 30
0.0
 10
14.62990825289325
 20
0.3110572508402299
 30
0.0
1001
PE_URL
1000

  0
LINE
  5
B9
330
1F
100
AcDbEntity
  8
0
  6
Continuous
 62
     1
370
    15
100
AcDbLine
 10
14.82990825288493
 20
0.1346656599111198
 30
0.0
 11
14.82990825288493
 21
0.3004968994292468
 31
0.0
1001
PE_URL
1000

  0
LINE
  5
BA
330
1F
100
AcDbEntity
  8
0
  6
Continuous
 62
     1
370
    15
100
AcDbLine
 10
14.62990825288493
 20
0.5010749287238891
 30
0.0
 11
14.38663071636384
 21
0.4018725601013763
 31
0.0
1001
PE_URL
1000

  0
LINE
  5
BC
330
1F
100
AcDbEntity
  8
0
  6
Continuous
 62
     1
370
    15
100
AcDbLine
 10
14.82990825288493
 20
-0.2983470419814584
 30
0.0
 11
14.82990825288493
 21
-0.2675391374395936
 31
0.0
1001
PE_URL
1000

  0
LINE
  5
BD
330
1F
100
AcDbEntity
  8
외형선
  6
Continuous
370
    15
100
AcDbLine
 10
12.32990825288492
 20
-0.498925071276108
 30
0.0
 11
12.32990825287916
 21
-0.4905560219091404
 31
0.0
  0
LINE
  5
BE
330
1F
100
AcDbEntity
  8
외형선
  6
Continuous
370
    15
100
AcDbLine
 10
1.99999999999999
 20
3.001074928723894
 30
0.0
 11
1.99999999999999
 21
-2.998925071276108
 31
0.0
  0
LINE
  5
BF
330
1F
100
AcDbEntity
  8
외형선
  6
Continuous
370
    15
100
AcDbLine
 10
-34.57009174711508
 20
3.001074928723893
 30
0.0
 11
-34.57009174711508
 21
-2.998925071276109
 31
0.0
  0
LINE
  5
C0
330
1F
100
AcDbEntity
  8
외형선
  6
Continuous
370
    15
100
AcDbLine
 10
-35.17009174711508
 20
2.401074928723899
 30
0.0
 11
-35.17009174711508
 21
-2.398925071276114
 31
0.0
  0
LINE
  5
C1
330
1F
100
AcDbEntity
  8
외형선
  6
Continuous
370
    15
100
AcDbLine
 10
6.555908252884922
 20
1.34285993462607
 30
0.0
 11
6.555908252884922
 21
-1.340710077178282
 31
0.0
  0
LINE
  5
C2
330
1F
100
AcDbEntity
  8
외형선
  6
Continuous
370
    15
100
AcDbLine
 10
11.32990825288492
 20
0.5010749287238944
 30
0.0
 11
11.32990825288492
 21
-0.4989250712761061
 31
0.0
  0
SPLINE
  5
C3
330
1F
100
AcDbEntity
  8
외형선
  6
Continuous
370
    15
100
AcDbSpline
210
0.0
220
0.0
230
1.0
 70
     8
 71
     3
 72
    10
 73
     6
 74
     0
 42
0.000000001
 43
0.00000001
 40
0.0
 40
0.0
 40
0.0
 40
0.0
 40
0.5
 40
0.5
 40
1.0
 40
1.0
 40
1.0
 40
1.0
 10
12.32990825287776
 20
-0.0829270623193355
 30
0.0
 10
12.24575586936805
 20
-0.0354115317368717
 30
0.0
 10
12.16262261682287
 20
0.0130762807083195
 30
0.0
 10
11.99877054426219
 20
0.107945040503216
 30
0.0
 10
11.91340175519985
 20
0.1551995009133019
 30
0.0
 10
11.8297917166702
 20
0.1993530119512724
 30
0.0
  0
SPLINE
  5
C4
330
1F
100
AcDbEntity
  8
외형선
  6
Continuous
370
    15
100
AcDbSpline
210
0.0
220
0.0
230
1.0
 70
    24
 71
     3
 72
    13
 73
     9
 74
     0
 42
0.000000001
 43
0.00000001
 40
0.0
 40
0.0
 40
0.0
 40
0.0
 40
0.0392560810712138
 40
0.2496320950484157
 40
0.4600081090252703
 40
0.67038412299334
 40
0.8807601369800458
 40
1.0
 40
1.0
 40
1.0
 40
1.0
 10
12.32990825288492
 20
-0.0829270623230139
 30
0.0
 10
12.32990825288492
 20
-0.0849414200283942
 30
0.0
 10
12.32990825288494
 20
-0.0977508579663991
 30
0.0
 10
12.32990825288485
 20
-0.151256262096289
 30
0.0
 10
12.32990825288497
 20
-0.2368198450100233
 30
0.0
 10
12.32990825288489
 20
-0.3376373154516031
 30
0.0
 10
12.3299082528849
 20
-0.4252807185970814
 30
0.0
 10
12.32990825288491
 20
-0.473215443341931
 30
0.0
 10
12.32990825288491
 20
-0.490556021909873
 30
0.0
  0
SPLINE
  5
C5
330
1F
100
AcDbEntity
  8
외형선
  6
Continuous
370
    15
100
AcDbSpline
210
0.0
220
0.0
230
1.0
 70
     8
 71
     3
 72
    10
 73
     6
 74
     0
 42
0.000000001
 43
0.00000001
 40
0.0
 40
0.0
 40
0.0
 40
0.0
 40
0.5
 40
0.5
 40
1.0
 40
1.0
 40
1.0
 40
1.0
 10
12.32990825287776
 20
-0.4905560219091261
 30
0.0
 10
12.24575586936803
 20
-0.4817739721226322
 30
0.0
 10
12.16262261682288
 20
-0.466127931273945
 30
0.0
 10
11.99877054426219
 20
-0.4227559631191739
 30
0.0
 10
11.91340175519986
 20
-0.3945436997966048
 30
0.0
 10
11.8297917166702
 20
-0.3614160619674466
 30
0.0
  0
SPLINE
  5
C6
330
1F
100
AcDbEntity
  8
외형선
  6
Continuous
370
    15
100
AcDbSpline
210
0.0
220
0.0
230
1.0
 70
     8
 71
     3
 72
     9
 73
     5
 74
     0
 42
0.000000001
 43
0.00000001
 40
0.0
 40
0.0
 40
0.0
 40
0.0
 40
0.7922418164560666
 40
0.9999999999999999
 40
0.9999999999999999
 40
0.9999999999999999
 40
0.9999999999999999
 10
11.8297917166702
 20
-0.4579303018690448
 30
0.0
 10
11.92323040378248
 20
-0.4770647049918409
 30
0.0
 10
12.04117253353555
 20
-0.5012169306448492
 30
0.0
 10
12.15899916786985
 20
-0.4963626993074854
 30
0.0
 10
12.18347861539226
 20
-0.4953541930223326
 30
0.0
  0
LINE
  5
C7
330
1F
100
AcDbEntity
  8
외형선
  6
Continuous
370
    15
100
AcDbLine
 10
11.8297917166702
 20
-0.457907951799048
 30
0.0
 11
11.8297917166702
 21
-0.498925071276106
 31
0.0
  0
SPLINE
  5
C8
330
1F
100
AcDbEntity
  8
외형선
  6
Continuous
370
    15
100
AcDbSpline
210
0.0
220
0.0
230
1.0
 70
     8
 71
     3
 72
    10
 73
     6
 74
     0
 42
0.000000001
 43
0.00000001
 40
0.0
 40
0.0
 40
0.0
 40
0.0
 40
0.5
 40
0.5
 40
1.0
 40
1.0
 40
1.0
 40
1.0
 10
12.32990825287776
 20
0.493968087025748
 30
0.0
 10
12.24575586936805
 20
0.5020659863517472
 30
0.0
 10
12.16262261682287
 20
0.5032086135025158
 30
0.0
 10
11.99877054426219
 20
0.4918508949723284
 30
0.0
 10
11.91340175519985
 20
0.4791533047907063
 30
0.0
 10
11.8297917166702
 20
0.4600801593168332
 30
0.0
  0
LINE
  5
C9
330
1F
100
AcDbEntity
  8
외형선
  6
Continuous
370
    15
100
AcDbLine
 10
11.8297917166702
 20
0.5010749287238943
 30
0.0
 11
11.82979171667021
 21
0.3454449516661999
 31
0.0
  0
SPLINE
  5
CA
330
1F
100
AcDbEntity
  8
외형선
  6
Continuous
370
    15
100
AcDbSpline
210
0.0
220
0.0
230
1.0
 70
     8
 71
     3
 72
    10
 73
     6
 74
     0
 42
0.000000001
 43
0.00000001
 40
0.0
 40
0.0
 40
0.0
 40
0.0
 40
0.5
 40
0.5
 40
1.0
 40
1.0
 40
1.0
 40
1.0
 10
12.32990825287776
 20
0.0921738221292178
 30
0.0
 10
12.24575586936803
 20
0.1395676742787806
 30
0.0
 10
12.16262261682288
 20
0.1854760064014677
 30
0.0
 10
11.99877054426219
 20
0.2706109095470883
 30
0.0
 10
11.91340175519986
 20
0.310589416563819
 30
0.0
 10
11.8297917166702
 20
0.3454588448227941
 30
0.0
  0
LINE
  5
CB
330
1F
100
AcDbEntity
  8
외형선
  6
Continuous
370
    15
100
AcDbLine
 10
11.8297917166702
 20
0.1994047433934509
 30
0.0
 11
11.82979171667021
 21
-0.3614292606294408
 31
0.0
  0
SPLINE
  5
CC
330
1F
100
AcDbEntity
  8
외형선
  6
Continuous
370
    15
100
AcDbSpline
210
0.0
220
0.0
230
1.0
 70
    24
 71
     3
 72
    12
 73
     8
 74
     0
 42
0.000000001
 43
0.00000001
 40
0.0
 40
0.0
 40
0.0
 40
0.0
 40
0.1956378688816182
 40
0.4034762270810924
 40
0.6113145852805699
 40
0.8191529434800376
 40
1.0
 40
1.0
 40
1.0
 40
1.0
 10
12.32990825288494
 20
0.4939680870258998
 30
0.0
 10
12.32990825288493
 20
0.4643942083902756
 30
0.0
 10
12.32990825288492
 20
0.4034021466781529
 30
0.0
 10
12.32990825288494
 20
0.3017308566065273
 30
0.0
 10
12.32990825288494
 20
0.2061608208368534
 30
0.0
 10
12.32990825288485
 20
0.1279245642106459
 30
0.0
 10
12.3299082528849
 20
0.0986825889241289
 30
0.0
 10
12.32990825288492
 20
0.0850769197708024
 30
0.0
  0
LINE
  5
CD
330
1F
100
AcDbEntity
  8
중심선
 62
     1
100
AcDbLine
 10
-36.67009174711508
 20
0.0010749287238892
 30
0.0
 11
16.32990825288494
 21
0.0010749287238892
 31
0.0
  0
LINE
  5
CE
330
1F
100
AcDbEntity
  8
참조1
100
AcDbLine
 10
-10.1706051146713
 20
-2.498925071276081
 30
0.0
 11
-10.1706051146713
 21
-39.9989250712761
 31
0.0
  0
LINE
  5
CF
330
1F
100
AcDbEntity
  8
참조1
100
AcDbLine
 10
-10.1706051146713
 20
-39.9989250712761
 30
0.0
 11
-25.32894856142375
 21
-39.9989250712761
 31
0.0
  0
CIRCLE
  5
D0
330
1F
100
AcDbEntity
  8
해칭선
100
AcDbCircle
 10
0.0
 20
0.0
 30
0.0
 40
2.999999999999999
  0
INSERT
  5
D1
330
1F
100
AcDbEntity
  8
0
  6
Continuous
 62
     7
100
AcDbBlockReference
 66
     1
  2
블럭10
 10
-24.11087804679651
 20
-52.04609937292004
 30
0.0
  0
ATTRIB
  5
D2
330
D1
100
AcDbEntity
  8
FORMAT
 62
     2
100
AcDbText
 10
-40.23013908623206
 20
-49.97073246008785
 30
0.0
 40
4.233333333333333
  1
SEME0101002E [ 2 FLUTE ]
 41
0.75
  7
SLDTEXTSTYLE0
 11
-40.23013908623206
 21
-52.08739912675452
 31
0.0
100
AcDbAttribute
  2
AUTOATTR0
 70
     0
 74
     1
  0
SEQEND
  5
D3
330
D1
100
AcDbEntity
  8
0
  6
Continuous
 62
     7
  0
HATCH
  5
D4
330
1F
100
AcDbEntity
  8
중심선
100
AcDbHatch
 10
0.0
 20
0.0
 30
0.0
210
0.0
220
0.0
230
1.0
  2
SOLID
 70
     1
 71
     0
 91
        1
 92
        0
 93
        4
 72
     1
 10
-18.39596874241566
 20
-35.7989250712761
 11
-21.84224398625294
 21
-35.7989250712761
 72
     1
 10
-21.84224398625294
 20
-35.7989250712761
 11
-23.97047384545696
 21
-38.3352506518487
 72
     1
 10
-23.97047384545696
 20
-38.3352506518487
 11
-20.52416551650653
 21
-38.33521122254621
 72
     1
 10
-20.52416551650653
 20
-38.33521122254621
 11
-18.39596874241566
 21
-35.7989250712761
 97
        0
 75
     0
 76
     1
 98
        1
 10
3.731653973792727
 20
0.0
  0
HATCH
  5
D5
330
1F
100
AcDbEntity
  8
중심선
100
AcDbHatch
 10
0.0
 20
0.0
 30
0.0
210
0.0
220
0.0
230
1.0
  2
SOLID
 70
     1
 71
     0
 91
        1
 92
        0
 93
        4
 72
     1
 10
-13.38320475137971
 20
-35.7989250712761
 11
-16.82947999521699
 21
-35.7989250712761
 72
     1
 10
-16.82947999521699
 20
-35.7989250712761
 11
-21.36061800357438
 21
-41.19892507127612
 72
     1
 10
-21.36061800357438
 20
-41.19892507127612
 11
-17.91434275973709
 21
-41.19892507127612
 72
     1
 10
-17.91434275973709
 20
-41.19892507127612
 11
-13.3832047513797
 21
-35.7989250712761
 97
        0
 75
     0
 76
     1
 98
        1
 10
3.731653973792727
 20
0.0
  0
HATCH
  5
D6
330
1F
100
AcDbEntity
  8
중심선
100
AcDbHatch
 10
0.0
 20
0.0
 30
0.0
210
0.0
220
0.0
230
1.0
  2
SOLID
 70
     1
 71
     0
 91
        1
 92
        0
 93
        4
 72
     1
 10
-8.370440760343811
 20
-35.79892507127613
 11
-11.81671600418093
 21
-35.7989250712761
 72
     1
 10
-11.81671600418093
 20
-35.7989250712761
 11
-18.86515290607018
 21
-44.19892507127612
 72
     1
 10
-18.86515290607018
 20
-44.19892507127612
 11
-15.41887766223289
 21
-44.19892507127612
 72
     1
 10
-15.41887766223289
 20
-44.19892507127612
 11
-8.370440760343811
 21
-35.79892507127613
 97
        0
 75
     0
 76
     1
 98
        1
 10
3.731653973792727
 20
0.0
  0
HATCH
  5
D7
330
1F
100
AcDbEntity
  8
중심선
100
AcDbHatch
 10
0.0
 20
0.0
 30
0.0
210
0.0
220
0.0
230
1.0
  2
SOLID
 70
     1
 71
     0
 91
        1
 92
        0
 93
        6
 72
     3
 10
-3.570550329331611
 20
-39.99892507132738
 11
3.960054785062284
 21
1.540882976769353E-10
 40
0.3939339440162627
 50
17.09539180608438
 51
320.0019657685081
 73
     0
 72
     1
 10
-1.887550673631015
 20
-38.58681907591441
 11
0.4177512000700223
 21
-36.65249236586649
 72
     3
 10
-3.570550329384458
 20
-39.99892507127625
 11
6.600054785286829
 21
-1.278976924368180E-13
 40
0.636358354079598
 50
39.9987384933741
 51
368.4976242363725
 73
     1
 72
     1
 10
2.854782162516152
 20
-39.03892507120613
 11
-4.890483022548534
 21
-39.0389250712061
 72
     1
 10
-4.890483022548535
 20
-39.0389250712061
 11
-4.890508066994469
 21
-40.95892507120602
 72
     1
 10
-4.890508066994469
 20
-40.95892507120602
 11
-0.4491282975224324
 21
-40.95892507120599
 97
        0
 75
     0
 76
     1
 98
        1
 10
3.731653973792727
 20
0.0
  0
POINT
  5
D8
330
1F
100
AcDbEntity
  8
치수문자_일반주서
100
AcDbPoint
 10
-45.29272174986308
 20
-7.164101193405076
 30
0.0
  0
POINT
  5
D9
330
1F
100
AcDbEntity
  8
치수문자_일반주서
100
AcDbPoint
 10
-45.29272174986308
 20
-7.164101193405048
 30
0.0
  0
DIMENSION
  5
DA
330
1F
100
AcDbEntity
  8
치수문자_일반주서
100
AcDbDimension
  2
_D
 10
12.32990825288489
 20
11.00107492872389
 30
0.0
 11
22.57990825288493
 21
11.00107492872389
 31
0.0
 70
   160
  1
<>
 71
     2
 42
2.500000000000034
  3
SLDDIMSTYLE0
100
AcDbAlignedDimension
 13
14.82990825288493
 23
0.5010749287238891
 33
0.0
 14
12.32990825288489
 24
0.4927058793501768
 34
0.0
 50
0.0000000000008142
100
AcDbRotatedDimension
1001
PE_URL
1000

1001
ACAD
1000
DSTYLE
1002
{
1070
    41
1040
2.5
1070
   271
1070
     1
1070
   140
1040
2.5
1002
}
  0
DIMENSION
  5
E7
330
1F
100
AcDbEntity
  8
치수문자_일반주서
100
AcDbDimension
  2
_D_1
 10
-43.17009174711506
 20
-2.99892507127614
 30
0.0
 11
-43.17009174711511
 21
10.43857492872387
 31
0.0
 70
   160
  1
%%c<>
 71
     2
 42
6.000000000000005
 52
-270.0
  3
SLDDIMSTYLE0
100
AcDbAlignedDimension
 13
-34.57009174711506
 23
3.001074928723896
 33
0.0
 14
-34.57009174711506
 24
-2.998925071276109
 34
0.0
 50
90.0000000000002
100
AcDbRotatedDimension
1001
PE_URL
1000

1001
ACAD
1000
DSTYLE
1002
{
1070
    41
1040
2.5
1070
   271
1070
     0
1070
   140
1040
2.5
1002
}
  0
DIMENSION
  5
F5
330
1F
100
AcDbEntity
  8
치수문자_일반주서
100
AcDbDimension
  2
_D_2
 10
-35.17009174711508
 20
19.0010749287239
 30
0.0
 11
-10.17009174711508
 21
19.0010749287239
 31
0.0
 70
   160
  1
<>
 71
     2
 42
50.00000000000001
  3
SLDDIMSTYLE0
100
AcDbAlignedDimension
 13
14.82990825288493
 23
0.5010749287238891
 33
0.0
 14
-35.17009174711508
 24
2.401074928723899
 34
0.0
 50
0.0000000000000081
100
AcDbRotatedDimension
1001
PE_URL
1000

1001
ACAD
1000
DSTYLE
1002
{
1070
    41
1040
2.5
1070
   271
1070
     0
1070
   140
1040
2.5
1002
}
  0
DIMENSION
  5
100
330
1F
100
AcDbEntity
  8
치수문자_일반주서
100
AcDbDimension
  2
_D_3
 10
22.82990825288493
 20
-0.49892507127608
 30
0.0
 11
22.8299082528849
 21
7.626074928723925
 31
0.0
 70
   160
  1
%%c<>
 71
     2
 42
1.0
 52
-270.0
  3
SLDDIMSTYLE0
100
AcDbAlignedDimension
 13
14.82990825288493
 23
0.5010749287238891
 33
0.0
 14
14.82990825288493
 24
-0.4989250712761109
 34
0.0
 50
90.0000000000002
100
AcDbRotatedDimension
1001
PE_URL
1000

1001
ACAD
1000
DSTYLE
1002
{
1070
    41
1040
2.5
1070
   271
1070
     0
1070
   140
1040
2.5
1002
}
  0
LINE
  5
10D
330
1F
100
AcDbEntity
  8
참조1
100
AcDbLine
 10
72.64339206823053
 20
7.441074928723896
 30
0.0
 11
72.64339206823053
 21
-7.438925071276109
 31
0.0
  0
LINE
  5
10E
330
1F
100
AcDbEntity
  8
참조1
100
AcDbLine
 10
85.34339206823053
 20
5.441074928723896
 30
0.0
 11
72.64339206823053
 21
5.441074928723896
 31
0.0
  0
SOLID
  5
10F
330
1F
100
AcDbEntity
  8
참조1
100
AcDbTrace
 10
72.64339206823053
 20
5.441074928723896
 30
0.0
 11
78.99339206823052
 21
4.425074928723896
 31
0.0
 12
78.99339206823052
 22
6.457074928723896
 32
0.0
 13
78.99339206823052
 23
6.457074928723896
 33
0.0
  0
LINE
  5
110
330
1F
100
AcDbEntity
  8
참조1
100
AcDbLine
 10
85.34339206823053
 20
-5.438925071276109
 30
0.0
 11
72.64339206823053
 21
-5.438925071276109
 31
0.0
  0
SOLID
  5
111
330
1F
100
AcDbEntity
  8
참조1
100
AcDbTrace
 10
72.64339206823053
 20
-5.438925071276109
 30
0.0
 11
78.99339206823052
 21
-6.454925071276109
 31
0.0
 12
78.99339206823052
 22
-4.422925071276109
 32
0.0
 13
78.99339206823052
 23
-4.422925071276109
 33
0.0
  0
MTEXT
  5
112
330
1F
100
AcDbEntity
  8
참조1
100
AcDbMText
 10
82.0408821607008
 20
10.98929157337383
 30
0.0
 40
3.5
 41
0.0
 71
     1
 72
     1
  1
A
  7
SLDTEXTSTYLE0
 73
     1
 44
1.0
  0
MTEXT
  5
113
330
1F
100
AcDbEntity
  8
참조1
100
AcDbMText
 10
82.0408821607008
 20
0.1092915733738251
 30
0.0
 40
3.5
 41
0.0
 71
     1
 72
     1
  1
A
  7
SLDTEXTSTYLE0
 73
     1
 44
1.0
  0
INSERT
  5
11A
330
1F
100
AcDbEntity
  8
해칭선
100
AcDbBlockReference
  2
SW_DOWELSYMBOL_0
 10
0.0
 20
0.0
 30
0.0
  0
ARC
  5
1F7
330
1F
100
AcDbEntity
  8
0
  6
Continuous
 62
     1
370
    15
100
AcDbCircle
 10
14.62990825288493
 20
0.3010749287238892
 30
0.0
 40
0.1999999999999999
100
AcDbArc
 50
359.9999999999998
 51
90.0
1001
PE_URL
1000

  0
ARC
  5
1F8
102
{ACAD_REACTORS
102
}
330
1F
100
AcDbEntity
  8
0
  6
Continuous
 62
     1
370
    15
100
AcDbCircle
 10
14.62990825288493
 20
-0.2989250712761109
 30
0.0
 40
0.1999999999999999
100
AcDbArc
 50
270.0
 51
0.000000000000159
1001
PE_URL
1000

  0
DIMENSION
  5
1F9
102
{ACAD_REACTORS
102
}
102
{ACAD_XDICTIONARY
360
1FA
102
}
330
1F
100
AcDbEntity
  8
치수문자_일반주서
100
AcDbDimension
  2
*D14
 10
14.62990825288493
 20
-0.2989250712761109
 30
0.0
 11
21.84313195599929
 21
-12.74037719455236
 31
0.0
 70
   164
 71
     5
 42
0.1999999999999995
  3
SLDDIMSTYLE0
100
AcDbRadialDimension
 15
14.73022253890639
 25
-0.4719483183269156
 35
0.0
 40
0.0
1001
ACAD
1000
DSTYLE
1002
{
1070
    41
1040
2.5
1070
   271
1070
     1
1070
   140
1040
2.5
1070
    78
1070
     0
1002
}
1001
ACAD_DSTYLE_DIMRADIAL_EXTENSION
1070
   387
1070
     1
1070
   388
1040
4.71238898038469
1070
   390
1040
0.0000000000000028
1001
PE_URL
1000

  0
ENDSEC
  0
SECTION
  2
OBJECTS
  0
DICTIONARY
  5
C
330
0
100
AcDbDictionary
281
     1
  3
ACAD_DETAILVIEWSTYLE
350
1DE
  3
ACAD_GROUP
350
D
  3
ACAD_LAYOUT
350
1A
  3
ACAD_MLINESTYLE
350
17
  3
ACAD_PLOTSETTINGS
350
19
  3
ACAD_PLOTSTYLENAME
350
E
  3
ACAD_SCALELIST
350
47
  3
ACAD_SECTIONVIEWSTYLE
350
1DF
  3
AcDbVariableDictionary
350
1D9
  3
APPDATA
350
13C
  3
DWGPROPS
350
206
  0
DICTIONARY
  5
1FA
330
1F9
100
AcDbDictionary
280
     1
281
     1
  0
DICTIONARY
  5
1DE
102
{ACAD_REACTORS
330
C
102
}
330
C
100
AcDbDictionary
281
     1
  0
DICTIONARY
  5
D
102
{ACAD_REACTORS
330
C
102
}
330
C
100
AcDbDictionary
281
     1
  0
DICTIONARY
  5
1A
102
{ACAD_REACTORS
330
C
102
}
330
C
100
AcDbDictionary
281
     1
  3
Layout1
350
1E
  3
Layout2
350
26
  3
Model
350
22
  0
DICTIONARY
  5
17
102
{ACAD_REACTORS
330
C
102
}
330
C
100
AcDbDictionary
281
     1
  3
Standard
350
18
  0
DICTIONARY
  5
19
102
{ACAD_REACTORS
330
C
102
}
330
C
100
AcDbDictionary
281
     1
  0
ACDBDICTIONARYWDFLT
  5
E
102
{ACAD_REACTORS
330
C
102
}
330
C
100
AcDbDictionary
281
     1
  3
Normal
350
F
100
AcDbDictionaryWithDefault
340
F
  0
DICTIONARY
  5
47
102
{ACAD_REACTORS
330
C
102
}
330
C
100
AcDbDictionary
281
     1
  3
A0
350
48
  3
A1
350
49
  3
A2
350
4A
  3
A3
350
4B
  3
A4
350
4C
  3
A5
350
4D
  3
A6
350
4E
  3
A7
350
4F
  3
A8
350
50
  3
A9
350
51
  3
B0
350
52
  3
B1
350
53
  3
B2
350
54
  3
B3
350
55
  3
B4
350
56
  3
B5
350
57
  3
B6
350
58
  3
B7
350
59
  3
B8
350
5A
  3
B9
350
5B
  3
C0
350
5C
  3
C1
350
5D
  3
C2
350
5E
  3
C3
350
5F
  3
C4
350
60
  3
C5
350
61
  3
C6
350
62
  3
C7
350
63
  3
C8
350
64
  3
C9
350
65
  3
D0
350
66
  3
D1
350
67
  3
D2
350
68
  0
DICTIONARY
  5
1DF
102
{ACAD_REACTORS
330
C
102
}
330
C
100
AcDbDictionary
281
     1
  0
DICTIONARY
  5
1D9
102
{ACAD_REACTORS
330
C
102
}
330
C
100
AcDbDictionary
281
     1
  0
DICTIONARY
  5
13C
102
{ACAD_REACTORS
330
C
102
}
330
C
100
AcDbDictionary
281
     1
  0
XRECORD
  5
206
102
{ACAD_REACTORS
330
C
102
}
330
C
100
AcDbXrecord
280
     1
  1
DWGPROPS COOKIE
  2

  3

  4

  6

  7

  8
12017044
  9

300
=
301
=
302
=
303
=
304
=
305
=
306
=
307
=
308
=
309
=
 40
0.0
 41
2458270.424275856
 42
2458271.397450289
  1

 90
        0
  0
LAYOUT
  5
1E
102
{ACAD_REACTORS
330
1A
102
}
330
1A
100
AcDbPlotSettings
  1

  2
none_device
  4

  6

 40
0.0
 41
0.0
 42
0.0
 43
0.0
 44
0.0
 45
0.0
 46
0.0
 47
0.0
 48
0.0
 49
0.0
140
0.0
141
0.0
142
1.0
143
1.0
 70
   688
 72
     1
 73
     0
 74
     5
  7

 75
    16
147
1.0
148
0.0
149
0.0
100
AcDbLayout
  1
Layout1
 70
     1
 71
     1
 10
0.0
 20
0.0
 11
420.0
 21
297.0
 12
0.0
 22
0.0
 32
0.0
 14
1.000000000000000E+20
 24
1.000000000000000E+20
 34
1.000000000000000E+20
 15
-1.000000000000000E+20
 25
-1.000000000000000E+20
 35
-1.000000000000000E+20
146
0.0
 13
0.0
 23
0.0
 33
0.0
 16
1.0
 26
0.0
 36
0.0
 17
0.0
 27
1.0
 37
0.0
 76
     0
330
1B
  0
LAYOUT
  5
26
102
{ACAD_REACTORS
330
1A
102
}
330
1A
100
AcDbPlotSettings
  1

  2
none_device
  4

  6

 40
0.0
 41
0.0
 42
0.0
 43
0.0
 44
0.0
 45
0.0
 46
0.0
 47
0.0
 48
0.0
 49
0.0
140
0.0
141
0.0
142
1.0
143
1.0
 70
   688
 72
     1
 73
     0
 74
     5
  7

 75
    16
147
1.0
148
0.0
149
0.0
100
AcDbLayout
  1
Layout2
 70
     1
 71
     2
 10
0.0
 20
0.0
 11
0.0
 21
0.0
 12
0.0
 22
0.0
 32
0.0
 14
0.0
 24
0.0
 34
0.0
 15
0.0
 25
0.0
 35
0.0
146
0.0
 13
0.0
 23
0.0
 33
0.0
 16
1.0
 26
0.0
 36
0.0
 17
0.0
 27
1.0
 37
0.0
 76
     0
330
23
  0
LAYOUT
  5
22
102
{ACAD_REACTORS
330
1A
102
}
330
1A
100
AcDbPlotSettings
  1

  2
none_device
  4
ANSI_A_(11.00_x_8.50_Inches)
  6

 40
6.35
 41
19.05
 42
6.35000508
 43
19.05000254
 44
279.4
 45
215.9
 46
109.0207137459991
 47
109.3910380819077
 48
0.0
 49
0.0
140
0.0
141
0.0
142
0.0784549620558593
143
1.0
 70
  1696
 72
     0
 73
     0
 74
     0
  7

 75
     0
147
0.0235690232323232
148
0.0
149
0.0
100
AcDbLayout
  1
Model
 70
     1
 71
     0
 10
0.0
 20
0.0
 11
420.0
 21
297.0
 12
0.0
 22
0.0
 32
0.0
 14
-46.54509174711512
 24
-49.97073246008785
 34
0.0
 15
85.34339206823051
 25
22.3760749287239
 35
0.0
146
0.0
 13
0.0
 23
0.0
 33
0.0
 16
1.0
 26
0.0
 36
0.0
 17
0.0
 27
1.0
 37
0.0
 76
     0
330
1F
331
29
  0
MLINESTYLE
  5
18
102
{ACAD_REACTORS
330
17
102
}
330
17
100
AcDbMlineStyle
  2
Standard
 70
     0
  3

 62
   256
 51
90.0
 52
90.0
 71
     2
 49
0.5
 62
   256
  6
BYLAYER
 49
-0.5
 62
   256
  6
BYLAYER
  0
ACDBPLACEHOLDER
  5
F
102
{ACAD_REACTORS
330
E
102
}
330
E
  0
SCALE
  5
48
102
{ACAD_REACTORS
330
47
102
}
330
47
100
AcDbScale
 70
     0
300
1:1
140
1.0
141
1.0
290
     1
  0
SCALE
  5
49
102
{ACAD_REACTORS
330
47
102
}
330
47
100
AcDbScale
 70
     0
300
1:2
140
1.0
141
2.0
290
     0
  0
SCALE
  5
4A
102
{ACAD_REACTORS
330
47
102
}
330
47
100
AcDbScale
 70
     0
300
1:4
140
1.0
141
4.0
290
     0
  0
SCALE
  5
4B
102
{ACAD_REACTORS
330
47
102
}
330
47
100
AcDbScale
 70
     0
300
1:5
140
1.0
141
5.0
290
     0
  0
SCALE
  5
4C
102
{ACAD_REACTORS
330
47
102
}
330
47
100
AcDbScale
 70
     0
300
1:8
140
1.0
141
8.0
290
     0
  0
SCALE
  5
4D
102
{ACAD_REACTORS
330
47
102
}
330
47
100
AcDbScale
 70
     0
300
1:10
140
1.0
141
10.0
290
     0
  0
SCALE
  5
4E
102
{ACAD_REACTORS
330
47
102
}
330
47
100
AcDbScale
 70
     0
300
1:16
140
1.0
141
16.0
290
     0
  0
SCALE
  5
4F
102
{ACAD_REACTORS
330
47
102
}
330
47
100
AcDbScale
 70
     0
300
1:20
140
1.0
141
20.0
290
     0
  0
SCALE
  5
50
102
{ACAD_REACTORS
330
47
102
}
330
47
100
AcDbScale
 70
     0
300
1:30
140
1.0
141
30.0
290
     0
  0
SCALE
  5
51
102
{ACAD_REACTORS
330
47
102
}
330
47
100
AcDbScale
 70
     0
300
1:40
140
1.0
141
40.0
290
     0
  0
SCALE
  5
52
102
{ACAD_REACTORS
330
47
102
}
330
47
100
AcDbScale
 70
     0
300
1:50
140
1.0
141
50.0
290
     0
  0
SCALE
  5
53
102
{ACAD_REACTORS
330
47
102
}
330
47
100
AcDbScale
 70
     0
300
1:100
140
1.0
141
100.0
290
     0
  0
SCALE
  5
54
102
{ACAD_REACTORS
330
47
102
}
330
47
100
AcDbScale
 70
     0
300
2:1
140
2.0
141
1.0
290
     0
  0
SCALE
  5
55
102
{ACAD_REACTORS
330
47
102
}
330
47
100
AcDbScale
 70
     0
300
4:1
140
4.0
141
1.0
290
     0
  0
SCALE
  5
56
102
{ACAD_REACTORS
330
47
102
}
330
47
100
AcDbScale
 70
     0
300
8:1
140
8.0
141
1.0
290
     0
  0
SCALE
  5
57
102
{ACAD_REACTORS
330
47
102
}
330
47
100
AcDbScale
 70
     0
300
10:1
140
10.0
141
1.0
290
     0
  0
SCALE
  5
58
102
{ACAD_REACTORS
330
47
102
}
330
47
100
AcDbScale
 70
     0
300
100:1
140
100.0
141
1.0
290
     0
  0
SCALE
  5
59
102
{ACAD_REACTORS
330
47
102
}
330
47
100
AcDbScale
 70
     0
300
1/128" = 1'-0"
140
0.0078125
141
12.0
290
     0
  0
SCALE
  5
5A
102
{ACAD_REACTORS
330
47
102
}
330
47
100
AcDbScale
 70
     0
300
1/64" = 1'-0"
140
0.015625
141
12.0
290
     0
  0
SCALE
  5
5B
102
{ACAD_REACTORS
330
47
102
}
330
47
100
AcDbScale
 70
     0
300
1/32" = 1'-0"
140
0.03125
141
12.0
290
     0
  0
SCALE
  5
5C
102
{ACAD_REACTORS
330
47
102
}
330
47
100
AcDbScale
 70
     0
300
1/16" = 1'-0"
140
0.0625
141
12.0
290
     0
  0
SCALE
  5
5D
102
{ACAD_REACTORS
330
47
102
}
330
47
100
AcDbScale
 70
     0
300
3/32" = 1'-0"
140
0.09375
141
12.0
290
     0
  0
SCALE
  5
5E
102
{ACAD_REACTORS
330
47
102
}
330
47
100
AcDbScale
 70
     0
300
1/8" = 1'-0"
140
0.125
141
12.0
290
     0
  0
SCALE
  5
5F
102
{ACAD_REACTORS
330
47
102
}
330
47
100
AcDbScale
 70
     0
300
3/16" = 1'-0"
140
0.1875
141
12.0
290
     0
  0
SCALE
  5
60
102
{ACAD_REACTORS
330
47
102
}
330
47
100
AcDbScale
 70
     0
300
1/4" = 1'-0"
140
0.25
141
12.0
290
     0
  0
SCALE
  5
61
102
{ACAD_REACTORS
330
47
102
}
330
47
100
AcDbScale
 70
     0
300
3/8" = 1'-0"
140
0.375
141
12.0
290
     0
  0
SCALE
  5
62
102
{ACAD_REACTORS
330
47
102
}
330
47
100
AcDbScale
 70
     0
300
1/2" = 1'-0"
140
0.5
141
12.0
290
     0
  0
SCALE
  5
63
102
{ACAD_REACTORS
330
47
102
}
330
47
100
AcDbScale
 70
     0
300
3/4" = 1'-0"
140
0.75
141
12.0
290
     0
  0
SCALE
  5
64
102
{ACAD_REACTORS
330
47
102
}
330
47
100
AcDbScale
 70
     0
300
1" = 1'-0"
140
1.0
141
12.0
290
     0
  0
SCALE
  5
65
102
{ACAD_REACTORS
330
47
102
}
330
47
100
AcDbScale
 70
     0
300
1-1/2" = 1'-0"
140
1.5
141
12.0
290
     0
  0
SCALE
  5
66
102
{ACAD_REACTORS
330
47
102
}
330
47
100
AcDbScale
 70
     0
300
3" = 1'-0"
140
3.0
141
12.0
290
     0
  0
SCALE
  5
67
102
{ACAD_REACTORS
330
47
102
}
330
47
100
AcDbScale
 70
     0
300
6" = 1'-0"
140
6.0
141
12.0
290
     0
  0
SCALE
  5
68
102
{ACAD_REACTORS
330
47
102
}
330
47
100
AcDbScale
 70
     0
300
1'-0" = 1'-0"
140
12.0
141
12.0
290
     0
  0
ENDSEC
  0
EOF
