  0
SECTION
  2
HEADER
  9
$ACADVER
  1
AC1015
  9
$ACADMAINTVER
 70
     6
  9
$DWGCODEPAGE
  3
ANSI_949
  9
$INSBASE
 10
0.0
 20
0.0
 30
0.0
  9
$EXTMIN
 10
-119.375
 20
-49.97180738881174
 30
0.0
  9
$EXTMAX
 10
74.88526488181991
 20
44.375
 30
0.0
  9
$LIMMIN
 10
0.0
 20
0.0
  9
$LIMMAX
 10
420.0
 20
297.0
  9
$ORTHOMODE
 70
     0
  9
$REGENMODE
 70
     1
  9
$FILLMODE
 70
     1
  9
$QTEXTMODE
 70
     0
  9
$MIRRTEXT
 70
     1
  9
$LTSCALE
 40
1.0
  9
$ATTMODE
 70
     1
  9
$TEXTSIZE
 40
3.5
  9
$TRACEWID
 40
1.0
  9
$TEXTSTYLE
  7
Standard
  9
$CLAYER
  8
0
  9
$CELTYPE
  6
ByLayer
  9
$CECOLOR
 62
   256
  9
$CELTSCALE
 40
1.0
  9
$DISPSILH
 70
     0
  9
$DIMSCALE
 40
1.0
  9
$DIMASZ
 40
3.302
  9
$DIMEXO
 40
1.0
  9
$DIMDLI
 40
3.75
  9
$DIMRND
 40
0.0
  9
$DIMDLE
 40
0.0
  9
$DIMEXE
 40
1.0
  9
$DIMTP
 40
0.0
  9
$DIMTM
 40
0.0
  9
$DIMTXT
 40
3.5
  9
$DIMCEN
 40
2.5
  9
$DIMTSZ
 40
0.0
  9
$DIMTOL
 70
     0
  9
$DIMLIM
 70
     0
  9
$DIMTIH
 70
     1
  9
$DIMTOH
 70
     1
  9
$DIMSE1
 70
     0
  9
$DIMSE2
 70
     0
  9
$DIMTAD
 70
     1
  9
$DIMZIN
 70
     0
  9
$DIMBLK
  1

  9
$DIMASO
 70
     1
  9
$DIMSHO
 70
     1
  9
$DIMPOST
  1

  9
$DIMAPOST
  1

  9
$DIMALT
 70
     0
  9
$DIMALTD
 70
     3
  9
$DIMALTF
 40
0.0393700787401575
  9
$DIMLFAC
 40
1.0
  9
$DIMTOFL
 70
     1
  9
$DIMTVP
 40
0.0
  9
$DIMTIX
 70
     0
  9
$DIMSOXD
 70
     0
  9
$DIMSAH
 70
     0
  9
$DIMBLK1
  1

  9
$DIMBLK2
  1

  9
$DIMSTYLE
  2
ISO-25
  9
$DIMCLRD
 70
     0
  9
$DIMCLRE
 70
     0
  9
$DIMCLRT
 70
     0
  9
$DIMTFAC
 40
1.0
  9
$DIMGAP
 40
1.524
  9
$DIMJUST
 70
     0
  9
$DIMSD1
 70
     0
  9
$DIMSD2
 70
     0
  9
$DIMTOLJ
 70
     0
  9
$DIMTZIN
 70
     0
  9
$DIMALTZ
 70
     0
  9
$DIMALTTZ
 70
     0
  9
$DIMUPT
 70
     0
  9
$DIMDEC
 70
     2
  9
$DIMTDEC
 70
     2
  9
$DIMALTU
 70
     2
  9
$DIMALTTD
 70
     3
  9
$DIMTXSTY
  7
Standard
  9
$DIMAUNIT
 70
     0
  9
$DIMADEC
 70
     2
  9
$DIMALTRND
 40
0.0
  9
$DIMAZIN
 70
     0
  9
$DIMDSEP
 70
    44
  9
$DIMATFIT
 70
     3
  9
$DIMFRAC
 70
     0
  9
$DIMLDRBLK
  1

  9
$DIMLUNIT
 70
     2
  9
$DIMLWD
 70
    -2
  9
$DIMLWE
 70
    -2
  9
$DIMTMOVE
 70
     0
  9
$LUNITS
 70
     2
  9
$LUPREC
 70
     2
  9
$SKETCHINC
 40
1.0
  9
$FILLETRAD
 40
10.0
  9
$AUNITS
 70
     0
  9
$AUPREC
 70
     2
  9
$MENU
  1
.
  9
$ELEVATION
 40
0.0
  9
$PELEVATION
 40
0.0
  9
$THICKNESS
 40
0.0
  9
$LIMCHECK
 70
     0
  9
$CHAMFERA
 40
0.0
  9
$CHAMFERB
 40
0.0
  9
$CHAMFERC
 40
0.0
  9
$CHAMFERD
 40
0.0
  9
$SKPOLY
 70
     0
  9
$TDCREATE
 40
2458260.593415475
  9
$TDUCREATE
 40
2458260.218415475
  9
$TDUPDATE
 40
2458268.596491042
  9
$TDUUPDATE
 40
2458268.221491042
  9
$TDINDWG
 40
0.003791412
  9
$TDUSRTIMER
 40
0.0017326042
  9
$USRTIMER
 70
     1
  9
$ANGBASE
 50
0.0
  9
$ANGDIR
 70
     0
  9
$PDMODE
 70
     0
  9
$PDSIZE
 40
-1.0
  9
$PLINEWID
 40
0.0
  9
$SPLFRAME
 70
     0
  9
$SPLINETYPE
 70
     6
  9
$SPLINESEGS
 70
     8
  9
$HANDSEED
  5
1F0
  9
$SURFTAB1
 70
     6
  9
$SURFTAB2
 70
     6
  9
$SURFTYPE
 70
     6
  9
$SURFU
 70
     6
  9
$SURFV
 70
     6
  9
$UCSBASE
  2

  9
$UCSNAME
  2

  9
$UCSORG
 10
0.0
 20
0.0
 30
0.0
  9
$UCSXDIR
 10
1.0
 20
0.0
 30
0.0
  9
$UCSYDIR
 10
0.0
 20
1.0
 30
0.0
  9
$UCSORTHOREF
  2

  9
$UCSORTHOVIEW
 70
     0
  9
$UCSORGTOP
 10
0.0
 20
0.0
 30
0.0
  9
$UCSORGBOTTOM
 10
0.0
 20
0.0
 30
0.0
  9
$UCSORGLEFT
 10
0.0
 20
0.0
 30
0.0
  9
$UCSORGRIGHT
 10
0.0
 20
0.0
 30
0.0
  9
$UCSORGFRONT
 10
0.0
 20
0.0
 30
0.0
  9
$UCSORGBACK
 10
0.0
 20
0.0
 30
0.0
  9
$PUCSBASE
  2

  9
$PUCSNAME
  2

  9
$PUCSORG
 10
0.0
 20
0.0
 30
0.0
  9
$PUCSXDIR
 10
1.0
 20
0.0
 30
0.0
  9
$PUCSYDIR
 10
0.0
 20
1.0
 30
0.0
  9
$PUCSORTHOREF
  2

  9
$PUCSORTHOVIEW
 70
     0
  9
$PUCSORGTOP
 10
0.0
 20
0.0
 30
0.0
  9
$PUCSORGBOTTOM
 10
0.0
 20
0.0
 30
0.0
  9
$PUCSORGLEFT
 10
0.0
 20
0.0
 30
0.0
  9
$PUCSORGRIGHT
 10
0.0
 20
0.0
 30
0.0
  9
$PUCSORGFRONT
 10
0.0
 20
0.0
 30
0.0
  9
$PUCSORGBACK
 10
0.0
 20
0.0
 30
0.0
  9
$USERI1
 70
     0
  9
$USERI2
 70
     0
  9
$USERI3
 70
     0
  9
$USERI4
 70
     0
  9
$USERI5
 70
     0
  9
$USERR1
 40
0.0
  9
$USERR2
 40
0.0
  9
$USERR3
 40
0.0
  9
$USERR4
 40
0.0
  9
$USERR5
 40
0.0
  9
$WORLDVIEW
 70
     1
  9
$SHADEDGE
 70
     3
  9
$SHADEDIF
 70
    70
  9
$TILEMODE
 70
     1
  9
$MAXACTVP
 70
    64
  9
$PINSBASE
 10
0.0
 20
0.0
 30
0.0
  9
$PLIMCHECK
 70
     0
  9
$PEXTMIN
 10
1.000000000000000E+20
 20
1.000000000000000E+20
 30
1.000000000000000E+20
  9
$PEXTMAX
 10
-1.000000000000000E+20
 20
-1.000000000000000E+20
 30
-1.000000000000000E+20
  9
$PLIMMIN
 10
0.0
 20
0.0
  9
$PLIMMAX
 10
0.0
 20
0.0
  9
$UNITMODE
 70
     0
  9
$VISRETAIN
 70
     1
  9
$PLINEGEN
 70
     0
  9
$PSLTSCALE
 70
     1
  9
$TREEDEPTH
 70
  3020
  9
$CMLSTYLE
  2
Standard
  9
$CMLJUST
 70
     0
  9
$CMLSCALE
 40
20.0
  9
$PROXYGRAPHICS
 70
     1
  9
$MEASUREMENT
 70
     1
  9
$CELWEIGHT
370
    -1
  9
$ENDCAPS
280
     0
  9
$JOINSTYLE
280
     0
  9
$LWDISPLAY
290
     1
  9
$INSUNITS
 70
     4
  9
$HYPERLINKBASE
  1

  9
$STYLESHEET
  1

  9
$XEDIT
290
     1
  9
$CEPSNTYPE
380
     0
  9
$PSTYLEMODE
290
     1
  9
$FINGERPRINTGUID
  2
{7B6F89B3-4B77-4311-A435-47A5E1D13E00}
  9
$VERSIONGUID
  2
{FAEB1C32-E019-11D5-929B-00C0DF256EC4}
  9
$EXTNAMES
290
     1
  9
$PSVPSCALE
 40
0.0
  9
$OLESTARTUP
290
     0
  0
ENDSEC
  0
SECTION
  2
CLASSES
  0
CLASS
  1
ACDBDICTIONARYWDFLT
  2
AcDbDictionaryWithDefault
  3
ObjectDBX Classes
 90
        0
280
     0
281
     0
  0
CLASS
  1
VISUALSTYLE
  2
AcDbVisualStyle
  3
ObjectDBX Classes
 90
     4095
280
     0
281
     0
  0
CLASS
  1
MATERIAL
  2
AcDbMaterial
  3
ObjectDBX Classes
 90
     1153
280
     0
281
     0
  0
CLASS
  1
SCALE
  2
AcDbScale
  3
ObjectDBX Classes
 90
     1153
280
     0
281
     0
  0
CLASS
  1
SUN
  2
AcDbSun
  3
SCENEOE
 90
     1153
280
     0
281
     0
  0
CLASS
  1
ACDBPLACEHOLDER
  2
AcDbPlaceHolder
  3
ObjectDBX Classes
 90
        0
280
     0
281
     0
  0
CLASS
  1
LAYOUT
  2
AcDbLayout
  3
ObjectDBX Classes
 90
        0
280
     0
281
     0
  0
CLASS
  1
TABLESTYLE
  2
AcDbTableStyle
  3
ObjectDBX Classes
 90
     4095
280
     0
281
     0
  0
CLASS
  1
MLEADERSTYLE
  2
AcDbMLeaderStyle
  3
ACDB_MLEADERSTYLE_CLASS
 90
     4095
280
     0
281
     0
  0
CLASS
  1
DICTIONARYVAR
  2
AcDbDictionaryVar
  3
ObjectDBX Classes
 90
        0
280
     0
281
     0
  0
CLASS
  1
DIMASSOC
  2
AcDbDimAssoc
  3
"AcDbDimAssoc|Product Desc:     AcDim ARX App For Dimension|Company:          Autodesk, Inc.|WEB Address:      www.autodesk.com"
 90
        0
280
     0
281
     0
  0
ENDSEC
  0
SECTION
  2
TABLES
  0
TABLE
  2
VPORT
  5
8
330
0
100
AcDbSymbolTable
 70
     1
  0
VPORT
  5
29
330
8
100
AcDbSymbolTableRecord
100
AcDbViewportTableRecord
  2
*Active
 70
     0
 10
0.0
 20
0.0
 11
1.0
 21
1.0
 12
-1.288547530262392
 22
-14.15708300581129
 13
0.0
 23
0.0
 14
10.0
 24
10.0
 15
10.0
 25
10.0
 16
0.0
 26
0.0
 36
1.0
 17
0.0
 27
0.0
 37
0.0
 40
120.2921794207349
 41
2.057409879839786
 42
50.0
 43
0.0
 44
0.0
 50
0.0
 51
0.0
 71
    16
 72
  2000
 73
     1
 74
     3
 75
     0
 76
     0
 77
     0
 78
     0
281
     0
 65
     1
110
0.0
120
0.0
130
0.0
111
1.0
121
0.0
131
0.0
112
0.0
122
1.0
132
0.0
 79
     0
146
0.0
  0
ENDTAB
  0
TABLE
  2
LTYPE
  5
5
330
0
100
AcDbSymbolTable
 70
     6
  0
LTYPE
  5
14
330
5
100
AcDbSymbolTableRecord
100
AcDbLinetypeTableRecord
  2
ByBlock
 70
     0
  3

 72
    65
 73
     0
 40
0.0
  0
LTYPE
  5
15
330
5
100
AcDbSymbolTableRecord
100
AcDbLinetypeTableRecord
  2
ByLayer
 70
     0
  3

 72
    65
 73
     0
 40
0.0
  0
LTYPE
  5
16
330
5
100
AcDbSymbolTableRecord
100
AcDbLinetypeTableRecord
  2
Continuous
 70
     0
  3
Solid line
 72
    65
 73
     0
 40
0.0
  0
LTYPE
  5
6A
330
5
100
AcDbSymbolTableRecord
100
AcDbLinetypeTableRecord
  2
HIDDEN
 70
     0
  3
Hidden __ __ __ __ __ __ __ __ __ __ __ __ __ __
 72
    65
 73
     2
 40
1.905
 49
1.27
 74
     0
 49
-0.635
 74
     0
  0
LTYPE
  5
6B
330
5
100
AcDbSymbolTableRecord
100
AcDbLinetypeTableRecord
  2
PHANTOM
 70
     0
  3
Phantom ______  __  __  ______  __  __  ______
 72
    65
 73
     6
 40
12.7
 49
6.35
 74
     0
 49
-1.27
 74
     0
 49
1.27
 74
     0
 49
-1.27
 74
     0
 49
1.27
 74
     0
 49
-1.27
 74
     0
  0
LTYPE
  5
6C
330
5
100
AcDbSymbolTableRecord
100
AcDbLinetypeTableRecord
  2
CENTER
 70
     0
  3
Center ____ _ ____ _ ____ _ ____ _ ____ _ ____
 72
    65
 73
     4
 40
10.16
 49
6.35
 74
     0
 49
-1.27
 74
     0
 49
1.27
 74
     0
 49
-1.27
 74
     0
  0
LTYPE
  5
6D
330
5
100
AcDbSymbolTableRecord
100
AcDbLinetypeTableRecord
  2
CENTERX2
 70
     0
  3
Center (2x) ________  __  ________  __  _____
 72
    65
 73
     4
 40
20.32
 49
12.7
 74
     0
 49
-2.54
 74
     0
 49
2.54
 74
     0
 49
-2.54
 74
     0
  0
LTYPE
  5
6E
330
5
100
AcDbSymbolTableRecord
100
AcDbLinetypeTableRecord
  2
DOT2
 70
     0
  3
Dot (.5x) ........................................
 72
    65
 73
     2
 40
0.635
 49
0.0
 74
     0
 49
-0.635
 74
     0
  0
ENDTAB
  0
TABLE
  2
LAYER
  5
2
102
{ACAD_XDICTIONARY
360
16A
102
}
330
0
100
AcDbSymbolTable
 70
    17
  0
LAYER
  5
10
330
2
100
AcDbSymbolTableRecord
100
AcDbLayerTableRecord
  2
0
 70
     0
 62
     7
  6
Continuous
370
    -3
390
F
  0
LAYER
  5
6F
330
2
100
AcDbSymbolTableRecord
100
AcDbLayerTableRecord
  2
FORMAT
 70
     0
 62
     2
  6
Continuous
370
    -3
390
F
  0
LAYER
  5
70
330
2
100
AcDbSymbolTableRecord
100
AcDbLayerTableRecord
  2
외형선
 70
     0
 62
   100
  6
Continuous
370
    30
390
F
  0
LAYER
  5
71
330
2
100
AcDbSymbolTableRecord
100
AcDbLayerTableRecord
  2
숨은선
 70
     0
 62
     2
  6
HIDDEN
370
    15
390
F
  0
LAYER
  5
72
330
2
100
AcDbSymbolTableRecord
100
AcDbLayerTableRecord
  2
중심선
 70
     0
 62
     1
  6
CENTERX2
370
    -3
390
F
  0
LAYER
  5
73
330
2
100
AcDbSymbolTableRecord
100
AcDbLayerTableRecord
  2
파단선
 70
     0
 62
     4
  6
Continuous
370
    -3
390
F
  0
LAYER
  5
74
330
2
100
AcDbSymbolTableRecord
100
AcDbLayerTableRecord
  2
해칭선
 70
     0
 62
     4
  6
Continuous
370
    -3
390
F
  0
LAYER
  5
75
330
2
100
AcDbSymbolTableRecord
100
AcDbLayerTableRecord
  2
가는실선
 70
     0
 62
     4
  6
Continuous
370
    -3
390
F
  0
LAYER
  5
76
330
2
100
AcDbSymbolTableRecord
100
AcDbLayerTableRecord
  2
치수_보조선
 70
     0
 62
     4
  6
Continuous
370
    -3
390
F
  0
LAYER
  5
77
330
2
100
AcDbSymbolTableRecord
100
AcDbLayerTableRecord
  2
치수문자_일반주서
 70
     0
 62
     7
  6
Continuous
370
    15
390
F
  0
LAYER
  5
78
330
2
100
AcDbSymbolTableRecord
100
AcDbLayerTableRecord
  2
개별주서
 70
     0
 62
   100
  6
Continuous
370
    30
390
F
  0
LAYER
  5
79
330
2
100
AcDbSymbolTableRecord
100
AcDbLayerTableRecord
  2
중간선
 70
     0
 62
     2
  6
Continuous
370
    15
390
F
  0
LAYER
  5
7A
330
2
100
AcDbSymbolTableRecord
100
AcDbLayerTableRecord
  2
윤곽선
 70
     0
 62
     3
  6
Continuous
370
    40
390
F
  0
LAYER
  5
7B
330
2
100
AcDbSymbolTableRecord
100
AcDbLayerTableRecord
  2
중심마크
 70
     0
 62
   100
  6
Continuous
370
    30
390
F
  0
LAYER
  5
7C
330
2
100
AcDbSymbolTableRecord
100
AcDbLayerTableRecord
  2
가상선
 70
     0
 62
     4
  6
PHANTOM
370
    -3
390
F
  0
LAYER
  5
7D
330
2
100
AcDbSymbolTableRecord
100
AcDbLayerTableRecord
  2
특수지정선
 70
     0
 62
     5
  6
CENTERX2
370
    60
390
F
  0
LAYER
  5
129
330
2
100
AcDbSymbolTableRecord
100
AcDbLayerTableRecord
  2
Defpoints
 70
     0
 62
     7
  6
Continuous
290
     0
370
    -3
390
F
  0
ENDTAB
  0
TABLE
  2
STYLE
  5
3
330
0
100
AcDbSymbolTable
 70
     2
  0
STYLE
  5
11
330
3
100
AcDbSymbolTableRecord
100
AcDbTextStyleTableRecord
  2
Standard
 70
     0
 40
0.0
 41
1.0
 50
0.0
 71
     0
 42
3.5
  3
txt
  4

  0
STYLE
  5
93
330
3
100
AcDbSymbolTableRecord
100
AcDbTextStyleTableRecord
  2
SLDTEXTSTYLE0
 70
     0
 40
0.0
 41
0.75
 50
0.0
 71
     0
 42
3.5
  3
TXT
  4

  0
ENDTAB
  0
TABLE
  2
VIEW
  5
6
330
0
100
AcDbSymbolTable
 70
     0
  0
ENDTAB
  0
TABLE
  2
UCS
  5
7
330
0
100
AcDbSymbolTable
 70
     0
  0
ENDTAB
  0
TABLE
  2
APPID
  5
9
330
0
100
AcDbSymbolTable
 70
     3
  0
APPID
  5
12
330
9
100
AcDbSymbolTableRecord
100
AcDbRegAppTableRecord
  2
ACAD
 70
     0
  0
APPID
  5
130
330
9
100
AcDbSymbolTableRecord
100
AcDbRegAppTableRecord
  2
ACAD_DSTYLE_DIMRADIAL_EXTENSION
 70
     0
  0
APPID
  5
131
330
9
100
AcDbSymbolTableRecord
100
AcDbRegAppTableRecord
  2
PE_URL
 70
     0
  0
ENDTAB
  0
TABLE
  2
DIMSTYLE
  5
A
330
0
100
AcDbSymbolTable
 70
     4
100
AcDbDimStyleTable
  0
DIMSTYLE
105
27
330
A
100
AcDbSymbolTableRecord
100
AcDbDimStyleTableRecord
  2
ISO-25
 70
     0
 41
2.5
 42
0.625
 43
3.75
 44
1.25
 73
     0
 74
     0
 77
     1
 78
     8
140
2.5
141
2.5
143
0.03937007874016
147
0.625
171
     3
172
     1
178
     0
271
     2
272
     2
274
     3
278
    44
283
     0
284
     8
340
11
  0
DIMSTYLE
105
D2
102
{ACAD_REACTORS
330
D1
330
F4
102
}
330
A
100
AcDbSymbolTableRecord
100
AcDbDimStyleTableRecord
  2
SLDDIMSTYLE0
 70
     0
 41
3.302
 44
0.0
 45
0.000000001
 73
     0
 74
     0
 77
     1
 78
    12
 79
     3
140
3.5
147
0.875
172
     1
173
     1
178
     0
271
     2
272
     2
276
     2
284
    12
289
     0
340
93
  0
DIMSTYLE
105
E0
102
{ACAD_REACTORS
330
DF
330
EA
102
}
330
A
100
AcDbSymbolTableRecord
100
AcDbDimStyleTableRecord
  2
SLDDIMSTYLE1
 70
     0
 41
3.302
 44
0.0
 45
0.000000001
 73
     0
 74
     0
 77
     1
 78
    12
 79
     3
140
3.5
147
0.875
173
     1
178
     0
271
     2
272
     2
276
     2
284
    12
340
93
  0
DIMSTYLE
105
12E
102
{ACAD_REACTORS
330
1E2
102
}
330
A
100
AcDbSymbolTableRecord
100
AcDbDimStyleTableRecord
  2
SLDDIMSTYLE2
 70
     0
 41
3.302
 44
0.0
 45
0.000000001
 73
     0
 74
     0
 77
     1
 78
    12
 79
     3
140
3.5
147
0.875
172
     1
173
     1
178
     0
271
     2
272
     2
276
     2
284
    12
289
     0
340
93
  0
ENDTAB
  0
TABLE
  2
BLOCK_RECORD
  5
1
330
0
100
AcDbSymbolTable
 70
    12
  0
BLOCK_RECORD
  5
1F
330
1
100
AcDbSymbolTableRecord
100
AcDbBlockTableRecord
  2
*Model_Space
340
22
  0
BLOCK_RECORD
  5
1B
330
1
100
AcDbSymbolTableRecord
100
AcDbBlockTableRecord
  2
*Paper_Space
340
1E
  0
BLOCK_RECORD
  5
23
330
1
100
AcDbSymbolTableRecord
100
AcDbBlockTableRecord
  2
*Paper_Space0
340
26
  0
BLOCK_RECORD
  5
7E
330
1
100
AcDbSymbolTableRecord
100
AcDbBlockTableRecord
  2
블럭10
340
0
102
{BLKREFS
331
C9
102
}
  0
BLOCK_RECORD
  5
D3
330
1
100
AcDbSymbolTableRecord
100
AcDbBlockTableRecord
  2
_D
340
0
  0
BLOCK_RECORD
  5
E1
330
1
100
AcDbSymbolTableRecord
100
AcDbBlockTableRecord
  2
_D_1
340
0
  0
BLOCK_RECORD
  5
EB
330
1
100
AcDbSymbolTableRecord
100
AcDbBlockTableRecord
  2
_D_2
340
0
  0
BLOCK_RECORD
  5
F5
330
1
100
AcDbSymbolTableRecord
100
AcDbBlockTableRecord
  2
_D_3
340
0
  0
BLOCK_RECORD
  5
FF
330
1
100
AcDbSymbolTableRecord
100
AcDbBlockTableRecord
  2
SW_DOWELSYMBOL_0
340
0
102
{BLKREFS
331
105
102
}
  0
BLOCK_RECORD
  5
161
330
1
100
AcDbSymbolTableRecord
100
AcDbBlockTableRecord
  2
*D7
340
0
  0
BLOCK_RECORD
  5
16E
330
1
100
AcDbSymbolTableRecord
100
AcDbBlockTableRecord
  2
*D8
340
0
  0
BLOCK_RECORD
  5
180
330
1
100
AcDbSymbolTableRecord
100
AcDbBlockTableRecord
  2
*D9
340
0
  0
BLOCK_RECORD
  5
18F
330
1
100
AcDbSymbolTableRecord
100
AcDbBlockTableRecord
  2
*D10
340
0
  0
BLOCK_RECORD
  5
1E5
330
1
100
AcDbSymbolTableRecord
100
AcDbBlockTableRecord
  2
*D11
340
0
  0
ENDTAB
  0
ENDSEC
  0
SECTION
  2
BLOCKS
  0
BLOCK
  5
20
330
1F
100
AcDbEntity
  8
0
100
AcDbBlockBegin
  2
*Model_Space
 70
     0
 10
0.0
 20
0.0
 30
0.0
  3
*Model_Space
  1

  0
ENDBLK
  5
21
330
1F
100
AcDbEntity
  8
0
100
AcDbBlockEnd
  0
BLOCK
  5
1C
330
1B
100
AcDbEntity
 67
     1
  8
0
100
AcDbBlockBegin
  2
*Paper_Space
 70
     0
 10
0.0
 20
0.0
 30
0.0
  3
*Paper_Space
  1

  0
ENDBLK
  5
1D
330
1B
100
AcDbEntity
 67
     1
  8
0
100
AcDbBlockEnd
  0
BLOCK
  5
24
330
23
100
AcDbEntity
  8
0
100
AcDbBlockBegin
  2
*Paper_Space0
 70
     0
 10
0.0
 20
0.0
 30
0.0
  3
*Paper_Space0
  1

  0
ENDBLK
  5
25
330
23
100
AcDbEntity
  8
0
100
AcDbBlockEnd
  0
BLOCK
  5
7F
330
7E
100
AcDbEntity
  8
0
100
AcDbBlockBegin
  2
블럭10
 70
     2
 10
0.0
 20
0.0
 30
0.0
  3
블럭10
  1

  0
ELLIPSE
  5
81
330
7E
100
AcDbEntity
  8
중심선
100
AcDbEllipse
 10
20.54032771741204
 20
12.0471743016438
 30
0.0
 11
6.600054785286829
 21
-1.261213355974178E-13
 31
0.0
210
0.0
220
0.0
230
1.0
 40
0.636358354079598
 41
0.9219305317359503
 42
6.513795318482858
  0
ELLIPSE
  5
82
330
7E
100
AcDbEntity
  8
중심선
100
AcDbEllipse
 10
20.54032771746488
 20
12.04717430159265
 30
0.0
 11
3.960054785062283
 21
1.540847449632565E-10
 31
0.0
210
0.0
220
0.0
230
1.0
 40
0.3939339440162632
 41
1.131841032648279
 42
5.62031148352944
  0
LINE
  5
83
330
7E
100
AcDbEntity
  8
중심선
100
AcDbLine
 10
2.268634060543552
 20
16.24717430164393
 30
0.0
 11
5.714909304380834
 21
16.24717430164393
 31
0.0
  0
LINE
  5
84
330
7E
100
AcDbEntity
  8
중심선
100
AcDbLine
 10
5.245725140726316
 20
7.84717430164391
 30
0.0
 11
8.692000384563599
 21
7.84717430164391
 31
0.0
  0
LINE
  5
85
330
7E
100
AcDbEntity
  8
중심선
100
AcDbLine
 10
15.74043728645272
 20
16.24717430164393
 30
0.0
 11
8.692000384563599
 21
7.84717430164391
 31
0.0
  0
LINE
  5
86
330
7E
100
AcDbEntity
  8
중심선
100
AcDbLine
 10
0.1404042013395286
 20
13.71084872107135
 30
0.0
 11
3.58671253028996
 21
13.71088815037384
 31
0.0
  0
LINE
  5
87
330
7E
100
AcDbEntity
  8
중심선
100
AcDbLine
 10
2.750260043222114
 20
10.84717430164391
 30
0.0
 11
6.196535287059397
 21
10.84717430164391
 31
0.0
  0
LINE
  5
88
330
7E
100
AcDbEntity
  8
중심선
100
AcDbLine
 10
12.29416204261559
 20
16.24717430164393
 30
0.0
 11
5.245725140726316
 21
7.84717430164391
 31
0.0
  0
LINE
  5
89
330
7E
100
AcDbEntity
  8
중심선
100
AcDbLine
 10
10.72767329541681
 20
16.24717430164393
 30
0.0
 11
6.196535287059397
 21
10.84717430164391
 31
0.0
  0
LINE
  5
8A
330
7E
100
AcDbEntity
  8
중심선
100
AcDbLine
 10
7.28139805157953
 20
16.24717430164393
 30
0.0
 11
2.750260043222114
 21
10.84717430164391
 31
0.0
  0
LINE
  5
8B
330
7E
100
AcDbEntity
  8
중심선
100
AcDbLine
 10
5.714909304380834
 20
16.24717430164393
 30
0.0
 11
3.58671253028996
 21
13.71088815037384
 31
0.0
  0
LINE
  5
8C
330
7E
100
AcDbEntity
  8
중심선
100
AcDbLine
 10
2.268634060543552
 20
16.24717430164393
 30
0.0
 11
0.1404042013395286
 21
13.71084872107135
 31
0.0
  0
LINE
  5
8D
330
7E
100
AcDbEntity
  8
중심선
100
AcDbLine
 10
7.28139805157953
 20
16.24717430164393
 30
0.0
 11
10.72767329541681
 21
16.24717430164393
 31
0.0
  0
LINE
  5
8E
330
7E
100
AcDbEntity
  8
중심선
100
AcDbLine
 10
12.29416204261559
 20
16.24717430164393
 30
0.0
 11
15.74043728645272
 21
16.24717430164393
 31
0.0
  0
LINE
  5
8F
330
7E
100
AcDbEntity
  8
중심선
100
AcDbLine
 10
19.22036997980202
 20
11.08717430171403
 30
0.0
 11
23.66174974927406
 21
11.08717430171406
 31
0.0
  0
LINE
  5
90
330
7E
100
AcDbEntity
  8
중심선
100
AcDbLine
 10
19.22039502424796
 20
13.00717430171391
 30
0.0
 11
19.22036997980202
 21
11.08717430171403
 31
0.0
  0
LINE
  5
91
330
7E
100
AcDbEntity
  8
중심선
100
AcDbLine
 10
19.22039502424796
 20
13.00717430171391
 30
0.0
 11
26.96566020931264
 21
13.00717430171391
 31
0.0
  0
LINE
  5
92
330
7E
100
AcDbEntity
  8
중심선
100
AcDbLine
 10
22.22332737316547
 20
13.45928029700563
 30
0.0
 11
24.52862924686651
 21
15.39360700705356
 31
0.0
  0
ATTDEF
  5
94
330
7E
100
AcDbEntity
  8
FORMAT
 62
     2
100
AcDbText
 10
-16.62882859820096
 20
2.075366912832191
 30
0.0
 40
4.233333333333333
  1
SEMD9920015E [ 2 FLUTE ]
 41
0.75
  7
SLDTEXTSTYLE0
 11
-16.62882859820096
 21
-0.0412997538344756
 31
0.0
100
AcDbAttributeDefinition
  3

  2
AUTOATTR0
 70
     0
 74
     1
  0
ENDBLK
  5
80
330
7E
100
AcDbEntity
  8
0
100
AcDbBlockEnd
  0
BLOCK
  5
D4
330
D3
100
AcDbEntity
  8
0
100
AcDbBlockBegin
  2
_D
 70
     0
 10
0.0
 20
0.0
 30
0.0
  3
_D
  1

  0
LINE
  5
D6
330
D3
100
AcDbEntity
  8
치수문자_일반주서
 62
     0
370
    -2
100
AcDbLine
 10
50.06250000000004
 20
-9.999999999999996
 30
0.0
 11
65.00000000000009
 21
-9.99999999999994
 31
0.0
  0
LINE
  5
D7
330
D3
100
AcDbEntity
  8
치수문자_일반주서
 62
     0
370
    -2
100
AcDbLine
 10
50.06250000000001
 20
10.0
 30
0.0
 11
65.00000000000001
 21
10.00000000000006
 31
0.0
  0
LINE
  5
D8
330
D3
100
AcDbEntity
  8
치수문자_일반주서
 62
     0
370
    -2
100
AcDbLine
 10
65.00000000000001
 20
10.00000000000006
 30
0.0
 11
64.99999999999996
 21
24.91650000000016
 31
0.0
  0
LINE
  5
D9
330
D3
100
AcDbEntity
  8
치수문자_일반주서
 62
     0
370
    -2
100
AcDbLine
 10
65.00000000000009
 20
-9.99999999999994
 30
0.0
 11
65.00000000000001
 21
10.00000000000006
 31
0.0
  0
LINE
  5
DA
330
D3
100
AcDbEntity
  8
치수문자_일반주서
 62
     0
370
    -2
100
AcDbLine
 10
65.0000000000001
 20
-13.30199999999994
 30
0.0
 11
65.00000000000011
 21
-16.60399999999994
 31
0.0
  0
LINE
  5
DB
330
D3
100
AcDbEntity
  8
치수문자_일반주서
 62
     0
370
    -2
100
AcDbLine
 10
65.0
 20
13.30200000000006
 30
0.0
 11
64.99999999999999
 21
16.60400000000006
 31
0.0
  0
SOLID
  5
DC
330
D3
100
AcDbEntity
  8
치수문자_일반주서
 62
     0
100
AcDbTrace
 10
65.55033333333343
 20
-13.30199999999994
 30
0.0
 11
64.44966666666677
 21
-13.30199999999994
 31
0.0
 12
65.00000000000009
 22
-9.99999999999994
 32
0.0
 13
65.00000000000009
 23
-9.99999999999994
 33
0.0
  0
SOLID
  5
DD
330
D3
100
AcDbEntity
  8
치수문자_일반주서
 62
     0
100
AcDbTrace
 10
64.44966666666667
 20
13.30200000000006
 30
0.0
 11
65.55033333333333
 21
13.30200000000006
 31
0.0
 12
65.00000000000001
 22
10.00000000000006
 32
0.0
 13
65.00000000000001
 23
10.00000000000006
 33
0.0
  0
MTEXT
  5
DE
330
D3
100
AcDbEntity
  8
치수문자_일반주서
 62
     0
100
AcDbMText
 10
60.62499999999997
 20
20.76025000000014
 30
0.0
 40
3.5
 41
0.0
 71
     2
 72
     1
  1
\A1;%%c20
  7
SLDTEXTSTYLE0
 11
-3.552713678800501E-15
 21
1.0
 31
0.0
 73
     1
 44
1.0
  0
POINT
  5
1B0
330
D3
100
AcDbEntity
  8
Defpoints
 62
     0
100
AcDbPoint
 10
50.00000000000004
 20
-9.999999999999996
 30
0.0
  0
POINT
  5
1B1
330
D3
100
AcDbEntity
  8
Defpoints
 62
     0
100
AcDbPoint
 10
50.00000000000001
 20
10.0
 30
0.0
  0
POINT
  5
1B2
330
D3
100
AcDbEntity
  8
Defpoints
 62
     0
100
AcDbPoint
 10
65.00000000000001
 20
10.00000000000006
 30
0.0
  0
ENDBLK
  5
D5
330
D3
100
AcDbEntity
  8
0
100
AcDbBlockEnd
  0
BLOCK
  5
E2
330
E1
100
AcDbEntity
  8
0
100
AcDbBlockBegin
  2
_D_1
 70
     0
 10
0.0
 20
0.0
 30
0.0
  3
_D_1
  1

  0
LINE
  5
E4
330
E1
100
AcDbEntity
  8
치수문자_일반주서
 62
     0
370
    -2
100
AcDbLine
 10
50.00000000000001
 20
10.0625
 30
0.0
 11
50.00000000000001
 21
25.0
 31
0.0
  0
LINE
  5
E5
330
E1
100
AcDbEntity
  8
치수문자_일반주서
 62
     0
370
    -2
100
AcDbLine
 10
12.00000000000003
 20
8.161760266415786
 30
0.0
 11
12.00000000000003
 21
25.0
 31
0.0
  0
LINE
  5
E6
330
E1
100
AcDbEntity
  8
치수문자_일반주서
 62
     0
370
    -2
100
AcDbLine
 10
46.69800000000001
 20
25.0
 30
0.0
 11
15.30200000000003
 21
25.0
 31
0.0
  0
SOLID
  5
E7
330
E1
100
AcDbEntity
  8
치수문자_일반주서
 62
     0
100
AcDbTrace
 10
46.69800000000001
 20
24.44966666666667
 30
0.0
 11
46.69800000000001
 21
25.55033333333334
 31
0.0
 12
50.00000000000001
 22
25.0
 32
0.0
 13
50.00000000000001
 23
25.0
 33
0.0
  0
SOLID
  5
E8
330
E1
100
AcDbEntity
  8
치수문자_일반주서
 62
     0
100
AcDbTrace
 10
15.30200000000003
 20
25.55033333333334
 30
0.0
 11
15.30200000000003
 21
24.44966666666667
 31
0.0
 12
12.00000000000003
 22
25.0
 32
0.0
 13
12.00000000000003
 23
25.0
 33
0.0
  0
MTEXT
  5
E9
330
E1
100
AcDbEntity
  8
치수문자_일반주서
 62
     0
100
AcDbMText
 10
31.00000000000003
 20
29.375
 30
0.0
 40
3.5
 41
0.0
 71
     2
 72
     1
  1
\A1;38
  7
SLDTEXTSTYLE0
 73
     1
 44
1.0
  0
POINT
  5
1AA
330
E1
100
AcDbEntity
  8
Defpoints
 62
     0
100
AcDbPoint
 10
50.00000000000001
 20
10.0
 30
0.0
  0
POINT
  5
1AB
330
E1
100
AcDbEntity
  8
Defpoints
 62
     0
100
AcDbPoint
 10
12.00000000000003
 20
8.099260266415786
 30
0.0
  0
POINT
  5
1AC
330
E1
100
AcDbEntity
  8
Defpoints
 62
     0
100
AcDbPoint
 10
12.00000000000003
 20
25.0
 30
0.0
  0
ENDBLK
  5
E3
330
E1
100
AcDbEntity
  8
0
100
AcDbBlockEnd
  0
BLOCK
  5
EC
330
EB
100
AcDbEntity
  8
0
100
AcDbBlockBegin
  2
_D_2
 70
     0
 10
0.0
 20
0.0
 30
0.0
  3
_D_2
  1

  0
LINE
  5
EE
330
EB
100
AcDbEntity
  8
치수문자_일반주서
 62
     0
370
    -2
100
AcDbLine
 10
50.00000000000001
 20
10.0625
 30
0.0
 11
50.00000000000003
 21
40.00000000000001
 31
0.0
  0
LINE
  5
EF
330
EB
100
AcDbEntity
  8
치수문자_일반주서
 62
     0
370
    -2
100
AcDbLine
 10
-99.99999999999997
 20
9.062499999999993
 30
0.0
 11
-99.99999999999996
 21
40.00000000000001
 31
0.0
  0
LINE
  5
F0
330
EB
100
AcDbEntity
  8
치수문자_일반주서
 62
     0
370
    -2
100
AcDbLine
 10
46.69800000000003
 20
40.00000000000001
 30
0.0
 11
-96.69799999999995
 21
40.00000000000001
 31
0.0
  0
SOLID
  5
F1
330
EB
100
AcDbEntity
  8
치수문자_일반주서
 62
     0
100
AcDbTrace
 10
46.69800000000003
 20
39.44966666666668
 30
0.0
 11
46.69800000000003
 21
40.55033333333335
 31
0.0
 12
50.00000000000003
 22
40.00000000000001
 32
0.0
 13
50.00000000000003
 23
40.00000000000001
 33
0.0
  0
SOLID
  5
F2
330
EB
100
AcDbEntity
  8
치수문자_일반주서
 62
     0
100
AcDbTrace
 10
-96.69799999999995
 20
40.55033333333335
 30
0.0
 11
-96.69799999999995
 21
39.44966666666668
 31
0.0
 12
-99.99999999999996
 22
40.00000000000001
 32
0.0
 13
-99.99999999999996
 23
40.00000000000001
 33
0.0
  0
MTEXT
  5
F3
330
EB
100
AcDbEntity
  8
치수문자_일반주서
 62
     0
100
AcDbMText
 10
-24.99999999999997
 20
44.37500000000001
 30
0.0
 40
3.5
 41
0.0
 71
     2
 72
     1
  1
\A1;150
  7
SLDTEXTSTYLE0
 73
     1
 44
1.0
  0
POINT
  5
1AD
330
EB
100
AcDbEntity
  8
Defpoints
 62
     0
100
AcDbPoint
 10
50.00000000000001
 20
10.0
 30
0.0
  0
POINT
  5
1AE
330
EB
100
AcDbEntity
  8
Defpoints
 62
     0
100
AcDbPoint
 10
-99.99999999999997
 20
8.999999999999993
 30
0.0
  0
POINT
  5
1AF
330
EB
100
AcDbEntity
  8
Defpoints
 62
     0
100
AcDbPoint
 10
-99.99999999999997
 20
40.00000000000001
 30
0.0
  0
ENDBLK
  5
ED
330
EB
100
AcDbEntity
  8
0
100
AcDbBlockEnd
  0
BLOCK
  5
F6
330
F5
100
AcDbEntity
  8
0
100
AcDbBlockBegin
  2
_D_3
 70
     0
 10
0.0
 20
0.0
 30
0.0
  3
_D_3
  1

  0
LINE
  5
F8
330
F5
100
AcDbEntity
  8
치수문자_일반주서
 62
     0
370
    -2
100
AcDbLine
 10
-99.06249999999996
 20
-9.999999999999996
 30
0.0
 11
-114.9999999999999
 21
-10.00000000000006
 31
0.0
  0
LINE
  5
F9
330
F5
100
AcDbEntity
  8
치수문자_일반주서
 62
     0
370
    -2
100
AcDbLine
 10
-99.06249999999996
 20
9.999999999999996
 30
0.0
 11
-115.0
 21
9.999999999999936
 31
0.0
  0
LINE
  5
FA
330
F5
100
AcDbEntity
  8
치수문자_일반주서
 62
     0
370
    -2
100
AcDbLine
 10
-115.0
 20
9.999999999999936
 30
0.0
 11
-115.0
 21
24.91649999999994
 31
0.0
  0
LINE
  5
FB
330
F5
100
AcDbEntity
  8
치수문자_일반주서
 62
     0
370
    -2
100
AcDbLine
 10
-114.9999999999999
 20
-10.00000000000006
 30
0.0
 11
-115.0
 21
9.999999999999936
 31
0.0
  0
LINE
  5
FC
330
F5
100
AcDbEntity
  8
치수문자_일반주서
 62
     0
370
    -2
100
AcDbLine
 10
-114.9999999999999
 20
-13.30200000000006
 30
0.0
 11
-114.9999999999999
 21
-16.60400000000006
 31
0.0
  0
LINE
  5
FD
330
F5
100
AcDbEntity
  8
치수문자_일반주서
 62
     0
370
    -2
100
AcDbLine
 10
-115.0
 20
13.30199999999994
 30
0.0
 11
-115.0
 21
16.60399999999994
 31
0.0
  0
SOLID
  5
FE
330
F5
100
AcDbEntity
  8
치수문자_일반주서
 62
     0
100
AcDbTrace
 10
-114.4496666666666
 20
-13.30200000000005
 30
0.0
 11
-115.5503333333332
 21
-13.30200000000006
 31
0.0
 12
-114.9999999999999
 22
-10.00000000000006
 32
0.0
 13
-114.9999999999999
 23
-10.00000000000006
 33
0.0
  0
SOLID
  5
1A5
330
F5
100
AcDbEntity
  8
치수문자_일반주서
 62
     0
100
AcDbTrace
 10
-115.5503333333333
 20
13.30199999999993
 30
0.0
 11
-114.4496666666667
 21
13.30199999999994
 31
0.0
 12
-115.0
 22
9.999999999999936
 32
0.0
 13
-115.0
 23
9.999999999999936
 33
0.0
  0
MTEXT
  5
1A6
330
F5
100
AcDbEntity
  8
치수문자_일반주서
 62
     0
100
AcDbMText
 10
-119.375
 20
20.76024999999992
 30
0.0
 40
3.5
 41
0.0
 71
     2
 72
     1
  1
\A1;%%c20
  7
SLDTEXTSTYLE0
 11
-3.552713678800503E-15
 21
1.0
 31
0.0
 73
     1
 44
1.0
  0
POINT
  5
1A7
330
F5
100
AcDbEntity
  8
Defpoints
 62
     0
100
AcDbPoint
 10
-98.99999999999996
 20
-9.999999999999996
 30
0.0
  0
POINT
  5
1A8
330
F5
100
AcDbEntity
  8
Defpoints
 62
     0
100
AcDbPoint
 10
-98.99999999999996
 20
9.999999999999996
 30
0.0
  0
POINT
  5
1A9
330
F5
100
AcDbEntity
  8
Defpoints
 62
     0
100
AcDbPoint
 10
-115.0
 20
9.999999999999936
 30
0.0
  0
ENDBLK
  5
F7
330
F5
100
AcDbEntity
  8
0
100
AcDbBlockEnd
  0
BLOCK
  5
100
330
FF
100
AcDbEntity
  8
0
100
AcDbBlockBegin
  2
SW_DOWELSYMBOL_0
 70
     0
 10
0.0
 20
0.0
 30
0.0
  3
SW_DOWELSYMBOL_0
  1

  0
CIRCLE
  5
102
330
FF
100
AcDbEntity
  8
외형선
 62
     0
100
AcDbCircle
 10
0.0
 20
0.0
 30
0.0
 40
3.000000000000001
  0
HATCH
  5
103
330
FF
100
AcDbEntity
  8
0
  6
Continuous
 62
     0
370
    30
100
AcDbHatch
 10
0.0
 20
0.0
 30
0.0
210
0.0
220
0.0
230
1.0
  2
SOLID
 70
     1
 71
     0
 91
        1
 92
        0
 93
        3
 72
     2
 10
-0.0000000000000069
 20
-0.0000000000000035
 40
3.000000000000001
 50
0.0
 51
90.0
 73
     1
 72
     1
 10
-0.0000000000000069
 20
2.999999999999998
 11
-0.0000000000000069
 21
-0.0000000000000036
 72
     1
 10
-0.0000000000000069
 20
-0.0000000000000035
 11
2.999999999999994
 21
-0.0000000000000035
 97
        0
 75
     0
 76
     1
 98
        1
 10
0.0
 20
0.0
  0
HATCH
  5
104
330
FF
100
AcDbEntity
  8
0
  6
Continuous
 62
     0
370
    30
100
AcDbHatch
 10
0.0
 20
0.0
 30
0.0
210
0.0
220
0.0
230
1.0
  2
SOLID
 70
     1
 71
     0
 91
        1
 92
        0
 93
        3
 72
     2
 10
-0.0000000000000069
 20
-0.0000000000000035
 40
3.000000000000001
 50
180.0
 51
270.0000000000007
 73
     1
 72
     1
 10
-0.0000000000000069
 20
-3.000000000000005
 11
-0.0000000000000069
 21
-0.0000000000000036
 72
     1
 10
-0.0000000000000069
 20
-0.0000000000000035
 11
-3.000000000000008
 21
-0.0000000000000035
 97
        0
 75
     0
 76
     1
 98
        1
 10
0.0
 20
0.0
  0
ENDBLK
  5
101
330
FF
100
AcDbEntity
  8
0
100
AcDbBlockEnd
  0
BLOCK
  5
162
330
161
100
AcDbEntity
  8
0
100
AcDbBlockBegin
  2
*D7
 70
     1
 10
0.0
 20
0.0
 30
0.0
  3
*D7
  1

  0
LINE
  5
163
330
161
100
AcDbEntity
  8
치수문자_일반주서
 62
     0
370
    -2
100
AcDbLine
 10
3.186440170087446
 20
22.82809278780842
 30
0.0
 11
22.06469775827815
 21
-0.0000000000000031
 31
0.0
  0
MTEXT
  5
164
330
161
100
AcDbEntity
  8
치수문자_일반주서
 62
     0
100
AcDbMText
 10
21.01414545688424
 20
5.781659784355693
 30
0.0
 40
4.0
 41
0.0
 71
     5
 72
     1
  1
\A1;R0.5
  7
SLDTEXTSTYLE0
 11
0.6372880340174896
 21
-0.7706256949376417
 31
0.0
 73
     1
 44
1.0
  0
LINE
  5
165
330
161
100
AcDbEntity
  8
치수문자_일반주서
 62
     0
370
    -2
100
AcDbLine
 10
0.0
 20
26.68122126249663
 30
0.0
 11
0.6372880340174873
 21
25.91059556755899
 31
0.0
  0
SOLID
  5
166
330
161
100
AcDbEntity
  8
치수문자_일반주서
 62
     0
100
AcDbTrace
 10
3.700190633379207
 20
23.25295147715342
 30
0.0
 11
2.672689706795684
 21
22.40323409846343
 31
0.0
 12
0.6372880340174873
 22
25.91059556755899
 32
0.0
 13
0.6372880340174873
 23
25.91059556755899
 33
0.0
  0
POINT
  5
167
330
161
100
AcDbEntity
  8
Defpoints
 62
     0
100
AcDbPoint
 10
0.6372880340174873
 20
25.91059556755899
 30
0.0
  0
POINT
  5
168
330
161
100
AcDbEntity
  8
Defpoints
 62
     0
100
AcDbPoint
 10
0.0
 20
26.68122126249663
 30
0.0
  0
ENDBLK
  5
169
330
161
100
AcDbEntity
  8
0
100
AcDbBlockEnd
  0
BLOCK
  5
16F
330
16E
100
AcDbEntity
  8
0
100
AcDbBlockBegin
  2
*D8
 70
     1
 10
0.0
 20
0.0
 30
0.0
  3
*D8
  1

  0
LINE
  5
171
330
16E
100
AcDbEntity
  8
치수문자_일반주서
 62
     0
370
    -2
100
AcDbLine
 10
0.8577241533997082
 20
25.76236719253982
 30
0.0
 11
15.79522415339976
 21
25.76236719253988
 31
0.0
  0
LINE
  5
172
330
16E
100
AcDbEntity
  8
치수문자_일반주서
 62
     0
370
    -2
100
AcDbLine
 10
0.8577241533997082
 20
41.76236719253982
 30
0.0
 11
15.7952241533997
 21
41.76236719253988
 31
0.0
  0
LINE
  5
173
330
16E
100
AcDbEntity
  8
치수문자_일반주서
 62
     0
370
    -2
100
AcDbLine
 10
15.7952241533997
 20
41.76236719253988
 30
0.0
 11
15.79522415339964
 21
58.51236719253997
 31
0.0
  0
LINE
  5
174
330
16E
100
AcDbEntity
  8
치수문자_일반주서
 62
     0
370
    -2
100
AcDbLine
 10
15.79522415339976
 20
25.76236719253988
 30
0.0
 11
15.7952241533997
 21
41.76236719253988
 31
0.0
  0
LINE
  5
175
330
16E
100
AcDbEntity
  8
치수문자_일반주서
 62
     0
370
    -2
100
AcDbLine
 10
15.79522415339977
 20
21.76236719253988
 30
0.0
 11
15.79522415339978
 21
17.76236719253988
 31
0.0
  0
LINE
  5
176
330
16E
100
AcDbEntity
  8
치수문자_일반주서
 62
     0
370
    -2
100
AcDbLine
 10
15.79522415339969
 20
45.76236719253988
 30
0.0
 11
15.79522415339967
 21
49.76236719253988
 31
0.0
  0
SOLID
  5
177
330
16E
100
AcDbEntity
  8
치수문자_일반주서
 62
     0
100
AcDbTrace
 10
16.46189082006644
 20
21.76236719253988
 30
0.0
 11
15.1285574867331
 21
21.76236719253988
 31
0.0
 12
15.79522415339976
 22
25.76236719253988
 32
0.0
 13
15.79522415339976
 23
25.76236719253988
 33
0.0
  0
SOLID
  5
178
330
16E
100
AcDbEntity
  8
치수문자_일반주서
 62
     0
100
AcDbTrace
 10
15.12855748673302
 20
45.76236719253988
 30
0.0
 11
16.46189082006635
 21
45.76236719253988
 31
0.0
 12
15.7952241533997
 22
41.76236719253988
 32
0.0
 13
15.7952241533997
 23
41.76236719253988
 33
0.0
  0
MTEXT
  5
179
330
16E
100
AcDbEntity
  8
치수문자_일반주서
 62
     0
100
AcDbMText
 10
10.92022415339966
 20
54.13736719253995
 30
0.0
 40
4.0
 41
0.0
 71
     2
 72
     1
  1
\A1;%%c16
  7
SLDTEXTSTYLE0
 11
-3.441691376337986E-15
 21
1.0
 31
0.0
 73
     1
 44
1.0
  0
POINT
  5
17A
330
16E
100
AcDbEntity
  8
Defpoints
 62
     0
100
AcDbPoint
 10
0.7952241533997082
 20
25.76236719253982
 30
0.0
  0
POINT
  5
17B
330
16E
100
AcDbEntity
  8
Defpoints
 62
     0
100
AcDbPoint
 10
0.7952241533997082
 20
41.76236719253982
 30
0.0
  0
POINT
  5
17C
330
16E
100
AcDbEntity
  8
Defpoints
 62
     0
100
AcDbPoint
 10
15.7952241533997
 20
41.76236719253988
 30
0.0
  0
ENDBLK
  5
170
330
16E
100
AcDbEntity
  8
0
100
AcDbBlockEnd
  0
BLOCK
  5
181
330
180
100
AcDbEntity
  8
0
100
AcDbBlockBegin
  2
*D9
 70
     1
 10
0.0
 20
0.0
 30
0.0
  3
*D9
  1

  0
LINE
  5
183
330
180
100
AcDbEntity
  8
치수문자_일반주서
 62
     0
370
    -2
100
AcDbLine
 10
58.62310828657952
 20
27.44726720919016
 30
0.0
 11
73.56060828657957
 21
27.44726720919022
 31
0.0
  0
LINE
  5
184
330
180
100
AcDbEntity
  8
치수문자_일반주서
 62
     0
370
    -2
100
AcDbLine
 10
58.62310828657952
 20
43.44726720919016
 30
0.0
 11
73.56060828657951
 21
43.44726720919022
 31
0.0
  0
LINE
  5
185
330
180
100
AcDbEntity
  8
치수문자_일반주서
 62
     0
370
    -2
100
AcDbLine
 10
73.56060828657951
 20
43.44726720919022
 30
0.0
 11
73.56060828657945
 21
60.19726720919031
 31
0.0
  0
LINE
  5
186
330
180
100
AcDbEntity
  8
치수문자_일반주서
 62
     0
370
    -2
100
AcDbLine
 10
73.56060828657957
 20
27.44726720919022
 30
0.0
 11
73.56060828657951
 21
43.44726720919022
 31
0.0
  0
LINE
  5
187
330
180
100
AcDbEntity
  8
치수문자_일반주서
 62
     0
370
    -2
100
AcDbLine
 10
73.56060828657958
 20
23.44726720919022
 30
0.0
 11
73.5606082865796
 21
19.44726720919022
 31
0.0
  0
LINE
  5
188
330
180
100
AcDbEntity
  8
치수문자_일반주서
 62
     0
370
    -2
100
AcDbLine
 10
73.5606082865795
 20
47.44726720919022
 30
0.0
 11
73.56060828657948
 21
51.44726720919022
 31
0.0
  0
SOLID
  5
189
330
180
100
AcDbEntity
  8
치수문자_일반주서
 62
     0
100
AcDbTrace
 10
74.22727495324625
 20
23.44726720919022
 30
0.0
 11
72.89394161991291
 21
23.44726720919022
 31
0.0
 12
73.56060828657957
 22
27.44726720919022
 32
0.0
 13
73.56060828657957
 23
27.44726720919022
 33
0.0
  0
SOLID
  5
18A
330
180
100
AcDbEntity
  8
치수문자_일반주서
 62
     0
100
AcDbTrace
 10
72.89394161991282
 20
47.44726720919022
 30
0.0
 11
74.22727495324617
 21
47.44726720919022
 31
0.0
 12
73.56060828657951
 22
43.44726720919022
 32
0.0
 13
73.56060828657951
 23
43.44726720919022
 33
0.0
  0
MTEXT
  5
18B
330
180
100
AcDbEntity
  8
치수문자_일반주서
 62
     0
100
AcDbMText
 10
68.68560828657947
 20
55.82226720919029
 30
0.0
 40
4.0
 41
0.0
 71
     2
 72
     1
  1
\A1;%%c16
  7
SLDTEXTSTYLE0
 11
-3.552713678800502E-15
 21
1.0
 31
0.0
 73
     1
 44
1.0
  0
POINT
  5
18C
330
180
100
AcDbEntity
  8
Defpoints
 62
     0
100
AcDbPoint
 10
58.56060828657952
 20
27.44726720919016
 30
0.0
  0
POINT
  5
18D
330
180
100
AcDbEntity
  8
Defpoints
 62
     0
100
AcDbPoint
 10
58.56060828657952
 20
43.44726720919016
 30
0.0
  0
POINT
  5
18E
330
180
100
AcDbEntity
  8
Defpoints
 62
     0
100
AcDbPoint
 10
73.56060828657951
 20
43.44726720919022
 30
0.0
  0
ENDBLK
  5
182
330
180
100
AcDbEntity
  8
0
100
AcDbBlockEnd
  0
BLOCK
  5
190
330
18F
100
AcDbEntity
  8
0
100
AcDbBlockBegin
  2
*D10
 70
     1
 10
0.0
 20
0.0
 30
0.0
  3
*D10
  1

  0
LINE
  5
192
330
18F
100
AcDbEntity
  8
치수문자_일반주서
 62
     0
370
    -2
100
AcDbLine
 10
80.60060906205742
 20
-12.6448748964541
 30
0.0
 11
99.31954464174375
 21
-35.28031126052814
 31
0.0
  0
MTEXT
  5
193
330
18F
100
AcDbEntity
  8
치수문자_일반주서
 62
     0
100
AcDbMText
 10
98.4283143488542
 20
-29.69130789990685
 30
0.0
 40
4.0
 41
0.0
 71
     5
 72
     1
  1
\A1;R1.5
  7
SLDTEXTSTYLE0
 11
0.6372880340174896
 21
-0.7706256949376417
 31
0.0
 73
     1
 44
1.0
  0
LINE
  5
194
330
18F
100
AcDbEntity
  8
치수문자_일반주서
 62
     0
370
    -2
100
AcDbLine
 10
77.41416889196996
 20
-8.791746421765893
 30
0.0
 11
78.05145692598745
 21
-9.562372116703532
 31
0.0
  0
SOLID
  5
195
330
18F
100
AcDbEntity
  8
치수문자_일반주서
 62
     0
100
AcDbTrace
 10
81.11435952534917
 20
-12.2200162071091
 30
0.0
 11
80.08685859876566
 21
-13.06973358579909
 31
0.0
 12
78.05145692598745
 22
-9.562372116703532
 32
0.0
 13
78.05145692598745
 23
-9.562372116703532
 33
0.0
  0
POINT
  5
196
330
18F
100
AcDbEntity
  8
Defpoints
 62
     0
100
AcDbPoint
 10
78.05145692598745
 20
-9.562372116703532
 30
0.0
  0
POINT
  5
197
330
18F
100
AcDbEntity
  8
Defpoints
 62
     0
100
AcDbPoint
 10
77.41416889196996
 20
-8.791746421765893
 30
0.0
  0
ENDBLK
  5
191
330
18F
100
AcDbEntity
  8
0
100
AcDbBlockEnd
  0
BLOCK
  5
1E6
330
1E5
100
AcDbEntity
  8
0
100
AcDbBlockBegin
  2
*D11
 70
     1
 10
0.0
 20
0.0
 30
0.0
  3
*D11
  1

  0
LINE
  5
1E8
330
1E5
100
AcDbEntity
  8
치수문자_일반주서
 62
     0
370
    -2
100
AcDbLine
 10
51.7794309833773
 20
-12.91535190276666
 30
0.0
 11
71.49338516990493
 21
-39.45777513708589
 31
0.0
  0
MTEXT
  5
1E9
330
1E5
100
AcDbEntity
  8
치수문자_일반주서
 62
     0
100
AcDbMText
 10
70.89464165653945
 20
-33.82991975468641
 30
0.0
 40
4.0
 41
0.0
 71
     5
 72
     1
  1
\A1;R1.5
  7
SLDTEXTSTYLE0
 11
0.5962601787958688
 21
-0.802791255048483
 31
0.0
 73
     1
 44
1.0
  0
LINE
  5
1EA
330
1E5
100
AcDbEntity
  8
치수문자_일반주서
 62
     0
370
    -2
100
AcDbLine
 10
48.50000000000002
 20
-8.499999999999998
 30
0.0
 11
49.39439026819382
 21
-9.704186882572722
 31
0.0
  0
SOLID
  5
1EB
330
1E5
100
AcDbEntity
  8
치수문자_일반주서
 62
     0
100
AcDbTrace
 10
52.31462515340962
 20
-12.51784511690274
 30
0.0
 11
51.24423681334498
 21
-13.31285868863057
 31
0.0
 12
49.39439026819382
 22
-9.704186882572722
 32
0.0
 13
49.39439026819382
 23
-9.704186882572722
 33
0.0
  0
POINT
  5
1EC
330
1E5
100
AcDbEntity
  8
Defpoints
 62
     0
100
AcDbPoint
 10
49.39439026819382
 20
-9.704186882572722
 30
0.0
  0
POINT
  5
1ED
330
1E5
100
AcDbEntity
  8
Defpoints
 62
     0
100
AcDbPoint
 10
48.50000000000002
 20
-8.499999999999998
 30
0.0
  0
ENDBLK
  5
1E7
330
1E5
100
AcDbEntity
  8
0
100
AcDbBlockEnd
  0
ENDSEC
  0
SECTION
  2
ENTITIES
  0
LINE
  5
95
330
1F
100
AcDbEntity
  8
0
  6
Continuous
 62
   131
370
    15
100
AcDbLine
 10
8.949879773513226
 20
10.0
 30
0.0
 11
-98.99999999999996
 21
9.999999999999996
 31
0.0
  0
LINE
  5
96
330
1F
100
AcDbEntity
  8
0
  6
Continuous
 62
   131
370
    15
100
AcDbLine
 10
-98.99999999999996
 20
-10.0
 30
0.0
 11
8.949879773513226
 21
-9.999999999999996
 31
0.0
  0
LINE
  5
97
330
1F
100
AcDbEntity
  8
0
  6
Continuous
 62
   131
370
    15
100
AcDbLine
 10
-98.99999999999996
 20
9.99999999999999
 30
0.0
 11
-99.99999999999997
 21
8.99999999999999
 31
0.0
  0
LINE
  5
98
330
1F
100
AcDbEntity
  8
0
  6
Continuous
 62
   131
370
    15
100
AcDbLine
 10
-99.99999999999997
 20
-8.999999999999996
 30
0.0
 11
-98.99999999999996
 21
-9.999999999999996
 31
0.0
  0
SPLINE
  5
99
330
1F
100
AcDbEntity
  8
0
  6
Continuous
 62
   131
370
    15
100
AcDbSpline
210
0.0
220
0.0
230
1.0
 70
     8
 71
     3
 72
     9
 73
     5
 74
     0
 42
0.000000001
 43
0.00000001
 40
0.0
 40
0.0
 40
0.0
 40
0.0
 40
0.5569865671250336
 40
1.0
 40
1.0
 40
1.0
 40
1.0
 10
8.949833805589241
 20
-8.04762749030322
 30
0.0
 10
9.526560706868896
 20
-8.009960221335668
 30
0.0
 10
10.56200201788024
 20
-7.942333331944107
 30
0.0
 10
11.55852633938625
 20
-7.900341947503271
 30
0.0
 10
12.00000000000003
 20
-7.881739200130965
 30
0.0
  0
SPLINE
  5
9A
330
1F
100
AcDbEntity
  8
0
  6
Continuous
 62
     1
370
    15
100
AcDbSpline
210
0.0
220
0.0
230
1.0
 70
     8
 71
     3
 72
     9
 73
     5
 74
     0
 42
0.000000001
 43
0.00000001
 40
0.0
 40
0.0
 40
0.0
 40
0.0
 40
0.5055213217907952
 40
1.0
 40
1.0
 40
1.0
 40
1.0
 10
24.09292586789877
 20
2.562456437452167
 30
0.0
 10
23.62483613794861
 20
2.78553832181741
 30
0.0
 10
22.69888166328479
 20
3.226829074055083
 30
0.0
 10
21.77499934598887
 20
3.710720481034628
 30
0.0
 10
21.31815923891152
 20
3.949994464354665
 30
0.0
  0
SPLINE
  5
9B
330
1F
100
AcDbEntity
  8
0
  6
Continuous
 62
     1
370
    15
100
AcDbSpline
210
0.0
220
0.0
230
1.0
 70
     8
 71
     3
 72
    16
 73
    12
 74
     0
 42
0.000000001
 43
0.00000001
 40
0.0
 40
0.0
 40
0.0
 40
0.0
 40
0.1828556551927357
 40
0.3383369010277168
 40
0.4692745045393732
 40
0.5837619689686286
 40
0.6663387200432055
 40
0.7422202642514771
 40
0.8227137699588036
 40
0.93363731566336
 40
1.0
 40
1.0
 40
1.0
 40
1.0
 10
20.78767664554989
 20
7.946401538192685
 30
0.0
 10
20.3024554222965
 20
7.922065452443206
 30
0.0
 10
19.40465302829677
 20
7.877036515126807
 30
0.0
 10
18.11561573595672
 20
7.836497798355979
 30
0.0
 10
16.99650566300035
 20
7.817540558024809
 30
0.0
 10
16.0833658553895
 20
7.806960713300784
 30
0.0
 10
15.32554021677091
 20
7.806002838968784
 30
0.0
 10
14.68284935683931
 20
7.81232452621648
 30
0.0
 10
13.99194187096593
 20
7.824233835010381
 30
0.0
 10
13.29176634089164
 20
7.838021181031069
 30
0.0
 10
12.80789502820836
 20
7.854836803866541
 30
0.0
 10
12.62676985466446
 20
7.861131313428255
 30
0.0
1001
PE_URL
1000

  0
SPLINE
  5
9C
330
1F
100
AcDbEntity
  8
0
  6
Continuous
 62
     1
370
    15
100
AcDbSpline
210
0.0
220
0.0
230
1.0
 70
     8
 71
     3
 72
    29
 73
    25
 74
     0
 42
0.000000001
 43
0.00000001
 40
0.0
 40
0.0
 40
0.0
 40
0.0
 40
0.063854187156197
 40
0.11394314447404
 40
0.1510749808735113
 40
0.1884062867731075
 40
0.2303112730735898
 40
0.2737021152810706
 40
0.310371443402344
 40
0.3509121885146624
 40
0.3907910166690356
 40
0.4367704013248384
 40
0.5005765542456887
 40
0.5557441177767131
 40
0.5983585397239991
 40
0.6334378516348507
 40
0.6673194248761881
 40
0.7039309717570587
 40
0.7494522156535816
 40
0.7965442259777907
 40
0.839298840016835
 40
0.8793948808018374
 40
0.9318276508443064
 40
1.0
 40
1.0
 40
1.0
 40
1.0
 10
46.28496866613349
 20
6.839527527896528
 30
0.0
 10
45.91861188524117
 20
6.809556903396488
 30
0.0
 10
45.26487490301091
 20
6.756076507678167
 30
0.0
 10
44.39087173341448
 20
6.700186666318947
 30
0.0
 10
43.6547794870723
 20
6.66090163786336
 30
0.0
 10
42.96938409229237
 20
6.630797447370838
 30
0.0
 10
42.25222133945817
 20
6.606589322253634
 30
0.0
 10
41.54249120119299
 20
6.590376045734311
 30
0.0
 10
40.8403049002876
 20
6.58150600685437
 30
0.0
 10
40.15866312593283
 20
6.579666919022485
 30
0.0
 10
39.42240849073821
 20
6.585326734428818
 30
0.0
 10
38.55036990036808
 20
6.601619608891589
 30
0.0
 10
37.58952429220962
 20
6.63304740952893
 30
0.0
 10
36.64885123835045
 20
6.678239175847661
 30
0.0
 10
35.87462132825747
 20
6.72478808737011
 30
0.0
 10
35.2247514367056
 20
6.770119861381612
 30
0.0
 10
34.61196551146129
 20
6.818059003245498
 30
0.0
 10
33.93866665785794
 20
6.876644657993928
 30
0.0
 10
33.18548924898703
 20
6.949622028574565
 30
0.0
 10
32.3941552225596
 20
7.034730769239993
 30
0.0
 10
31.63048937524505
 20
7.124764892869559
 30
0.0
 10
30.82997678499897
 20
7.226711459549556
 30
0.0
 10
29.8980782902248
 20
7.355072384426252
 30
0.0
 10
29.20578318899892
 20
7.461290564536831
 30
0.0
 10
28.8144616292399
 20
7.521330659926836
 30
0.0
  0
SPLINE
  5
9D
330
1F
100
AcDbEntity
  8
0
  6
Continuous
 62
     1
370
    15
100
AcDbSpline
210
0.0
220
0.0
230
1.0
 70
     8
 71
     3
 72
    17
 73
    13
 74
     0
 42
0.000000001
 43
0.00000001
 40
0.0
 40
0.0
 40
0.0
 40
0.0
 40
0.1467456378677522
 40
0.2630298851824714
 40
0.3511187793202655
 40
0.4390912675095757
 40
0.5359245425804368
 40
0.6354644020090138
 40
0.720370160032062
 40
0.8161003032279751
 40
0.9114943429704139
 40
1.0
 40
1.0
 40
1.0
 40
1.0
 10
28.8144616292399
 20
-7.521330659926824
 30
0.0
 10
29.17394991226348
 20
-7.466069103468839
 30
0.0
 10
29.81830406944361
 20
-7.367017158475095
 30
0.0
 10
30.68538612289206
 20
-7.24630009604561
 30
0.0
 10
31.42165260697633
 20
-7.15081571055316
 30
0.0
 10
32.10778278599888
 20
-7.067858495880417
 30
0.0
 10
32.81878001176162
 20
-6.988241170284092
 30
0.0
 10
33.51900472450588
 20
-6.91667749758713
 30
0.0
 10
34.21511818204366
 20
-6.851770027336886
 30
0.0
 10
34.89782651911467
 20
-6.794865268454501
 30
0.0
 10
35.5919911252498
 20
-6.743133461851497
 30
0.0
 10
36.04933601384175
 20
-6.715459452023904
 30
0.0
 10
36.26944301001659
 20
-6.702140743698513
 30
0.0
1001
PE_URL
1000

  0
SPLINE
  5
9E
330
1F
100
AcDbEntity
  8
0
  6
Continuous
 62
     1
370
    15
100
AcDbSpline
210
0.0
220
0.0
230
1.0
 70
     8
 71
     3
 72
    16
 73
    12
 74
     0
 42
0.000000001
 43
0.00000001
 40
0.0
 40
0.0
 40
0.0
 40
0.0
 40
0.1327858254242124
 40
0.2358177731788376
 40
0.3105846103002661
 40
0.3810676015240655
 40
0.457769472604925
 40
0.5641117859407491
 40
0.6857339017723274
 40
0.8301535152632442
 40
1.0
 40
1.0
 40
1.0
 40
1.0
 10
12.00000000000002
 20
-7.881740103570273
 30
0.0
 10
12.3902813508832
 20
-7.867843125651319
 30
0.0
 10
13.08339207098058
 20
-7.843163124029959
 30
0.0
 10
13.99199731549665
 20
-7.824059360809333
 30
0.0
 10
14.68283741511132
 20
-7.812362104737211
 30
0.0
 10
15.32554360923135
 20
-7.80599216349154
 30
0.0
 10
16.08336450876286
 20
-7.806964950898355
 30
0.0
 10
16.99650613422753
 20
-7.817539075155624
 30
0.0
 10
18.11561557613528
 20
-7.836498301285968
 30
0.0
 10
19.40465307989281
 20
-7.877036352763166
 30
0.0
 10
20.30245544039851
 20
-7.922065395479399
 30
0.0
 10
20.78767664554989
 20
-7.946401538192678
 30
0.0
1001
PE_URL
1000

  0
SPLINE
  5
9F
330
1F
100
AcDbEntity
  8
0
  6
Continuous
 62
   131
370
    15
100
AcDbSpline
210
0.0
220
0.0
230
1.0
 70
     8
 71
     3
 72
    10
 73
     6
 74
     0
 42
0.000000001
 43
0.00000001
 40
0.0
 40
0.0
 40
0.0
 40
0.0
 40
0.5
 40
0.5
 40
1.0
 40
1.0
 40
1.0
 40
1.0
 10
12.00000000000251
 20
8.099260266414944
 30
0.0
 10
11.49236433198385
 20
8.271324469499028
 30
0.0
 10
10.98616548527131
 20
8.432784912094984
 30
0.0
 10
9.967895846602966
 20
8.734109782956374
 30
0.0
 10
9.457816413870717
 20
8.873741289468558
 30
0.0
 10
8.949753915136853
 20
9.001554882250112
 30
0.0
  0
LINE
  5
A0
330
1F
100
AcDbEntity
  8
0
  6
Continuous
 62
   131
370
    15
100
AcDbLine
 10
12.00000000000003
 20
8.099260266415786
 30
0.0
 11
12.00000000000003
 21
6.164356534232738
 31
0.0
  0
SPLINE
  5
A1
330
1F
100
AcDbEntity
  8
0
  6
Continuous
 62
   131
370
    15
100
AcDbSpline
210
0.0
220
0.0
230
1.0
 70
     8
 71
     3
 72
    10
 73
     6
 74
     0
 42
0.000000001
 43
0.00000001
 40
0.0
 40
0.0
 40
0.0
 40
0.0
 40
0.5
 40
0.5
 40
1.0
 40
1.0
 40
1.0
 40
1.0
 10
8.94987977351322
 20
7.448440237916558
 30
0.0
 10
9.457921628472247
 20
7.252653299630543
 30
0.0
 10
9.967980007312274
 20
7.046969413461325
 30
0.0
 10
10.98620744852258
 20
6.618157730196
 30
0.0
 10
11.49238529074841
 20
6.395339090426898
 30
0.0
 10
12.00000000000003
 20
6.16435653423274
 30
0.0
  0
LINE
  5
A2
330
1F
100
AcDbEntity
  8
0
  6
Continuous
 62
   131
370
    15
100
AcDbLine
 10
8.949879773513226
 20
-9.999999999999996
 30
0.0
 11
8.94987977351322
 21
7.448440758862632
 31
0.0
  0
SPLINE
  5
A3
330
1F
100
AcDbEntity
  8
0
  6
Continuous
 62
   131
370
    15
100
AcDbSpline
210
0.0
220
0.0
230
1.0
 70
     8
 71
     3
 72
    10
 73
     6
 74
     0
 42
0.000000001
 43
0.00000001
 40
0.0
 40
0.0
 40
0.0
 40
0.0
 40
0.5
 40
0.5
 40
1.0
 40
1.0
 40
1.0
 40
1.0
 10
12.00000000000251
 20
-8.099260266414937
 30
0.0
 10
11.49236433198385
 20
-8.271324469499021
 30
0.0
 10
10.98616548527131
 20
-8.432784912094974
 30
0.0
 10
9.967895846602966
 20
-8.734109782956363
 30
0.0
 10
9.457816413870717
 20
-8.873741289468551
 30
0.0
 10
8.949753915136856
 20
-9.001554882250101
 30
0.0
  0
LINE
  5
A4
330
1F
100
AcDbEntity
  8
0
  6
Continuous
 62
   131
370
    15
100
AcDbLine
 10
8.949879773513224
 20
9.001741546477135
 30
0.0
 11
8.949879773513226
 21
10.0
 31
0.0
  0
LINE
  5
A5
330
1F
100
AcDbEntity
  8
0
  6
Continuous
 62
   131
370
    15
100
AcDbLine
 10
-98.99999999999996
 20
9.99999999999999
 30
0.0
 11
-98.99999999999996
 21
-10.0
 31
0.0
  0
LINE
  5
A6
330
1F
100
AcDbEntity
  8
0
  6
Continuous
 62
   131
370
    15
100
AcDbLine
 10
-99.99999999999997
 20
8.999999999999993
 30
0.0
 11
-99.99999999999997
 21
-9.000000000000004
 31
0.0
  0
SPLINE
  5
A7
330
1F
100
AcDbEntity
  8
0
  6
Continuous
 62
   131
370
    15
100
AcDbSpline
210
0.0
220
0.0
230
1.0
 70
    24
 71
     3
 72
    10
 73
     6
 74
     0
 42
0.000000001
 43
0.00000001
 40
0.0
 40
0.0
 40
0.0
 40
0.0
 40
0.5
 40
0.5
 40
1.0
 40
1.0
 40
1.0
 40
1.0
 10
12.00000000000003
 20
6.164356534232738
 30
0.0
 10
12.00000000000003
 20
5.976171270123051
 30
0.0
 10
12.00000000000003
 20
5.686449402071917
 30
0.0
 10
12.00000000000003
 20
4.962817386484935
 30
0.0
 10
12.00000000000003
 20
4.531394061185873
 30
0.0
 10
12.00000000000003
 20
4.084836208163631
 30
0.0
  0
SPLINE
  5
A8
330
1F
100
AcDbEntity
  8
0
  6
Continuous
 62
   131
370
    15
100
AcDbSpline
210
0.0
220
0.0
230
1.0
 70
     8
 71
     3
 72
    10
 73
     6
 74
     0
 42
0.000000001
 43
0.00000001
 40
0.0
 40
0.0
 40
0.0
 40
0.0
 40
0.5
 40
0.5
 40
1.0
 40
1.0
 40
1.0
 40
1.0
 10
12.00000000000004
 20
4.084836208163637
 30
0.0
 10
11.49238024020694
 20
4.251592142730185
 30
0.0
 10
10.98619733642355
 20
4.412925248654721
 30
0.0
 10
9.96795972667491
 20
4.724388244342241
 30
0.0
 10
9.457896274368695
 20
4.874295211598247
 30
0.0
 10
8.949849444767302
 20
5.017520153805346
 30
0.0
  0
SPLINE
  5
A9
330
1F
100
AcDbEntity
  8
0
  6
Continuous
 62
   131
370
    15
100
AcDbSpline
210
0.0
220
0.0
230
1.0
 70
     8
 71
     3
 72
    10
 73
     6
 74
     0
 42
0.000000001
 43
0.00000001
 40
0.0
 40
0.0
 40
0.0
 40
0.0
 40
0.5
 40
0.5
 40
1.0
 40
1.0
 40
1.0
 40
1.0
 10
12.00000000000002
 20
-6.496629018753862
 30
0.0
 10
11.49237763586823
 20
-6.359681552922235
 30
0.0
 10
10.98619212206533
 20
-6.214487445588195
 30
0.0
 10
9.967949268855715
 20
-5.907850284070148
 30
0.0
 10
9.457883200390022
 20
-5.746582955314095
 30
0.0
 10
8.949833805589241
 20
-5.578319227553149
 30
0.0
  0
SPLINE
  5
AA
330
1F
100
AcDbEntity
  8
0
  6
Continuous
 62
   131
370
    15
100
AcDbSpline
210
0.0
220
0.0
230
1.0
 70
    24
 71
     3
 72
    14
 73
    10
 74
     0
 42
0.000000001
 43
0.00000001
 40
0.0
 40
0.0
 40
0.0
 40
0.0
 40
0.25
 40
0.25
 40
0.5
 40
0.5
 40
0.75
 40
0.75
 40
1.0
 40
1.0
 40
1.0
 40
1.0
 10
12.0
 20
4.084836208163639
 30
0.0
 10
12.0
 20
3.27189905493346
 30
0.0
 10
12.0
 20
2.389718700036211
 30
0.0
 10
12.0
 20
0.555152555806066
 30
0.0
 10
12.0
 20
-0.396477898220515
 30
0.0
 10
12.0
 20
-2.277109344432581
 30
0.0
 10
12.0
 20
-3.205108257557668
 30
0.0
 10
12.0
 20
-4.949630595449554
 30
0.0
 10
12.0
 20
-5.765525156294579
 30
0.0
 10
12.0
 20
-6.496629018753856
 30
0.0
  0
SPLINE
  5
AB
330
1F
100
AcDbEntity
  8
0
  6
Continuous
 62
   131
370
    15
100
AcDbSpline
210
0.0
220
0.0
230
1.0
 70
    24
 71
     3
 72
    11
 73
     7
 74
     0
 42
0.000000001
 43
0.00000001
 40
0.0
 40
0.0
 40
0.0
 40
0.0
 40
0.221838225485451
 40
0.4465616524949438
 40
0.7732927724380727
 40
0.9999999999999999
 40
0.9999999999999999
 40
0.9999999999999999
 40
0.9999999999999999
 10
12.00000000000003
 20
-6.496629018753864
 30
0.0
 10
12.00000000000003
 20
-6.686100010752242
 30
0.0
 10
12.00000000000003
 20
-7.067506231891536
 30
0.0
 10
12.00000000000003
 20
-7.531804825944415
 30
0.0
 10
12.00000000000003
 20
-7.848981015074147
 30
0.0
 10
12.00000000000003
 20
-7.847146147477931
 30
0.0
 10
12.00000000000003
 20
-7.846394523114429
 30
0.0
  0
SPLINE
  5
AC
330
1F
100
AcDbEntity
  8
0
  6
Continuous
 62
   131
370
    15
100
AcDbSpline
210
0.0
220
0.0
230
1.0
 70
    24
 71
     3
 72
     9
 73
     5
 74
     0
 42
0.000000001
 43
0.00000001
 40
0.0
 40
0.0
 40
0.0
 40
0.0
 40
0.0521490741111591
 40
1.0
 40
1.0
 40
1.0
 40
1.0
 10
12.00000000000003
 20
-7.968008228496834
 30
0.0
 10
12.00000000000003
 20
-7.970453407674831
 30
0.0
 10
12.00000000000003
 20
-8.017341664459323
 30
0.0
 10
12.00000000000003
 20
-8.059397553264251
 30
0.0
 10
12.00000000000003
 20
-8.099260266407079
 30
0.0
  0
SPLINE
  5
AD
330
1F
100
AcDbEntity
  8
0
  6
Continuous
 62
     1
370
    15
100
AcDbSpline
210
0.0
220
0.0
230
1.0
 70
     8
 71
     3
 72
    50
 73
    46
 74
     0
 42
0.000000001
 43
0.00000001
 40
0.0
 40
0.0
 40
0.0
 40
0.0
 40
0.0624999999999998
 40
0.0624999999999998
 40
0.0937499999999998
 40
0.0937499999999998
 40
0.1249999999999998
 40
0.1249999999999998
 40
0.1874999999999997
 40
0.1874999999999997
 40
0.2499999999999997
 40
0.2499999999999997
 40
0.3124999999999996
 40
0.3124999999999996
 40
0.3749999999999994
 40
0.3749999999999994
 40
0.4062499999999994
 40
0.4062499999999994
 40
0.4374999999999994
 40
0.4374999999999994
 40
0.4999999999999996
 40
0.4999999999999996
 40
0.5312499999999996
 40
0.5312499999999996
 40
0.5624999999999996
 40
0.5624999999999996
 40
0.5937499999999996
 40
0.5937499999999996
 40
0.6249999999999996
 40
0.6249999999999996
 40
0.6874999999999998
 40
0.6874999999999998
 40
0.7499999999999999
 40
0.7499999999999999
 40
0.8125
 40
0.8125
 40
0.8437500000000001
 40
0.8437500000000001
 40
0.8750000000000002
 40
0.8750000000000002
 40
0.9375000000000003
 40
0.9375000000000003
 40
0.9687500000000001
 40
0.9687500000000001
 40
1.0
 40
1.0
 40
1.0
 40
1.0
 10
12.00000000000002
 20
6.164356534232741
 30
0.0
 10
12.75932028489082
 20
5.818839083344194
 30
0.0
 10
13.5238051056373
 20
5.454661604007893
 30
0.0
 10
14.66342064076293
 20
4.887470001417079
 30
0.0
 10
15.0414608080864
 20
4.695049832033396
 30
0.0
 10
15.80168760981487
 20
4.303007085796814
 30
0.0
 10
16.18285295122658
 20
4.103550335918579
 30
0.0
 10
17.32578896626307
 20
3.49679870677898
 30
0.0
 10
18.08243641915621
 20
3.081959893338542
 30
0.0
 10
19.6043335326249
 20
2.235330573037587
 30
0.0
 10
20.36852513839814
 20
1.803698803339795
 30
0.0
 10
21.88360818879504
 20
0.9350345250017401
 30
0.0
 10
22.64678858920497
 20
0.4956651802266704
 30
0.0
 10
24.16937882026699
 20
-0.3826907825749732
 30
0.0
 10
24.92566536903242
 20
-0.8210695398726017
 30
0.0
 10
26.06841874697013
 20
-1.474777444364004
 30
0.0
 10
26.44966875200531
 20
-1.69183264234746
 30
0.0
 10
27.21035413568389
 20
-2.122839904472453
 30
0.0
 10
27.58863605060345
 20
-2.336577507653379
 30
0.0
 10
28.72736904464237
 20
-2.973001673903174
 30
0.0
 10
29.49184460323059
 20
-3.390877618664317
 30
0.0
 10
30.63168037933924
 20
-3.999946228040819
 30
0.0
 10
31.00969842893151
 20
-4.199888450801017
 30
0.0
 10
31.76979027692587
 20
-4.59413205514458
 30
0.0
 10
32.15092701062416
 20
-4.788261794291281
 30
0.0
 10
32.91290549531087
 20
-5.169258116635699
 30
0.0
 10
33.29374545449372
 20
-5.356123811887847
 30
0.0
 10
34.05265661684452
 20
-5.721406840362931
 30
0.0
 10
34.43109842470599
 20
-5.899893796860807
 30
0.0
 10
35.57236399629475
 20
-6.42310566942175
 30
0.0
 10
36.33660758585113
 20
-6.754783687809189
 30
0.0
 10
37.8521038115909
 20
-7.375441487413181
 30
0.0
 10
38.61482142564701
 20
-7.66600173522181
 30
0.0
 10
40.13757500489338
 20
-8.200756288405529
 30
0.0
 10
40.8938016935908
 20
-8.444614769960424
 30
0.0
 10
42.03648848903741
 20
-8.773650361607764
 30
0.0
 10
42.41775545194338
 20
-8.87708813043158
 30
0.0
 10
43.17855268870763
 20
-9.07082600528177
 30
0.0
 10
43.55694259342148
 20
-9.161045644876516
 30
0.0
 10
44.69542084861504
 20
-9.411956392686136
 30
0.0
 10
45.45988216019493
 20
-9.552821299454653
 30
0.0
 10
46.58082341667274
 20
-9.75227862883833
 30
0.0
 10
46.97292252750662
 20
-9.802281302064486
 30
0.0
 10
47.71192088533703
 20
-9.913302136427246
 30
0.0
 10
48.09165066179601
 20
-9.953083351103901
 30
0.0
 10
48.50000000000004
 20
-9.999999999999998
 30
0.0
1001
PE_URL
1000

  0
SPLINE
  5
AF
330
1F
100
AcDbEntity
  8
0
  6
Continuous
 62
     1
370
    15
100
AcDbSpline
210
0.0
220
0.0
230
1.0
 70
     8
 71
     3
 72
    11
 73
     7
 74
     0
 42
0.000000001
 43
0.00000001
 40
0.0
 40
0.0
 40
0.0
 40
0.0
 40
0.1922624642080757
 40
0.4521368107797712
 40
0.7260906126271988
 40
1.0
 40
1.0
 40
1.0
 40
1.0
 10
25.16483217764117
 20
-0.9528039312697941
 30
0.0
 10
24.32113720352809
 20
-0.6140715867160902
 30
0.0
 10
22.33704968838228
 20
0.1825132412444851
 30
0.0
 10
19.15083263280192
 20
1.469556341609349
 30
0.0
 10
15.60614180570754
 20
2.849775905569924
 30
0.0
 10
13.20198230132713
 20
3.673171691133338
 30
0.0
 10
12.00000000000003
 20
4.08483620816363
 30
0.0
  0
SPLINE
  5
B0
330
1F
100
AcDbEntity
  8
0
  6
Continuous
 62
   131
370
    15
100
AcDbSpline
210
0.0
220
0.0
230
1.0
 70
    24
 71
     3
 72
    10
 73
     6
 74
     0
 42
0.000000001
 43
0.00000001
 40
0.0
 40
0.0
 40
0.0
 40
0.0
 40
0.5
 40
0.5
 40
1.0
 40
1.0
 40
1.0
 40
1.0
 10
12.00000000000003
 20
6.164356534232738
 30
0.0
 10
12.00000000000003
 20
5.976171270123049
 30
0.0
 10
12.00000000000003
 20
5.686449402071915
 30
0.0
 10
12.00000000000003
 20
4.962817386484933
 30
0.0
 10
12.00000000000003
 20
4.531394061185873
 30
0.0
 10
12.00000000000003
 20
4.084836208163631
 30
0.0
  0
SPLINE
  5
B1
330
1F
100
AcDbEntity
  8
0
  6
Continuous
 62
     1
370
    15
100
AcDbSpline
210
0.0
220
0.0
230
1.0
 70
     8
 71
     3
 72
    15
 73
    11
 74
     0
 42
0.000000001
 43
0.00000001
 40
0.0
 40
0.0
 40
0.0
 40
0.0
 40
0.1317286562010773
 40
0.2634684890426213
 40
0.3952177322163245
 40
0.5269746120387359
 40
0.658737348832762
 40
0.7905041583192405
 40
0.9222732530162547
 40
1.0
 40
1.0
 40
1.0
 40
1.0
 10
50.00000000000003
 20
-7.889722643682154
 30
0.0
 10
48.86000553342991
 20
-7.651826506225022
 30
0.0
 10
46.5799198763979
 20
-7.176014046791511
 30
0.0
 10
43.1596051551625
 20
-6.101188126568064
 30
0.0
 10
39.73901347812203
 20
-4.811077782139125
 30
0.0
 10
36.31819318310837
 20
-3.328305333493226
 30
0.0
 10
32.89719850925066
 20
-1.716511154416116
 30
0.0
 10
29.47608242981566
 20
-0.0419170936914419
 30
0.0
 10
26.52261350491588
 20
1.419178642857903
 30
0.0
 10
24.7095244864549
 20
2.263382698801503
 30
0.0
 10
24.03683566234128
 20
2.576597674967811
 30
0.0
  0
SPLINE
  5
B2
330
1F
100
AcDbEntity
  8
0
  6
Continuous
 62
     1
370
    15
100
AcDbSpline
210
0.0
220
0.0
230
1.0
 70
     8
 71
     3
 72
    18
 73
    14
 74
     0
 42
0.000000001
 43
0.00000001
 40
0.0
 40
0.0
 40
0.0
 40
0.0
 40
0.1249999999999994
 40
0.1249999999999994
 40
0.2499999999999989
 40
0.2499999999999989
 40
0.4999999999999977
 40
0.4999999999999977
 40
0.6250000000000001
 40
0.6250000000000001
 40
0.7500000000000026
 40
0.7500000000000026
 40
1.0
 40
1.0
 40
1.0
 40
1.0
 10
50.00000000000003
 20
-7.889722643682152
 30
0.0
 10
50.00000000000004
 20
-7.992548644342875
 30
0.0
 10
49.99042959224133
 20
-8.0935627898012
 30
0.0
 10
49.95157485316369
 20
-8.291714059913097
 30
0.0
 10
49.92169106531963
 20
-8.389934745670129
 30
0.0
 10
49.80401572664808
 20
-8.664789241230643
 30
0.0
 10
49.68461627584804
 20
-8.8281152423651
 30
0.0
 10
49.46599265228578
 20
-9.010755518753125
 30
0.0
 10
49.38528116599409
 20
-9.062512485000706
 30
0.0
 10
49.21791695737743
 20
-9.142700264065937
 30
0.0
 10
49.13085332727206
 20
-9.171792519394796
 30
0.0
 10
48.86105893861036
 20
-9.227747322165396
 30
0.0
 10
48.6786354447219
 20
-9.221784215587789
 30
0.0
 10
48.49999999999987
 20
-9.180963273461678
 30
0.0
  0
SPLINE
  5
B3
330
1F
100
AcDbEntity
  8
0
  6
Continuous
 62
     1
370
    15
100
AcDbSpline
210
0.0
220
0.0
230
1.0
 70
     8
 71
     3
 72
    50
 73
    46
 74
     0
 42
0.000000001
 43
0.00000001
 40
0.0
 40
0.0
 40
0.0
 40
0.0
 40
0.0312499999999999
 40
0.0312499999999999
 40
0.0624999999999998
 40
0.0624999999999998
 40
0.1249999999999996
 40
0.1249999999999996
 40
0.1562499999999997
 40
0.1562499999999997
 40
0.1874999999999999
 40
0.1874999999999999
 40
0.2499999999999999
 40
0.2499999999999999
 40
0.3125
 40
0.3125
 40
0.3750000000000002
 40
0.3750000000000002
 40
0.4062500000000002
 40
0.4062500000000002
 40
0.4375000000000003
 40
0.4375000000000003
 40
0.4687500000000004
 40
0.4687500000000004
 40
0.5000000000000004
 40
0.5000000000000004
 40
0.5625000000000003
 40
0.5625000000000003
 40
0.5937500000000002
 40
0.5937500000000002
 40
0.6250000000000002
 40
0.6250000000000002
 40
0.6875000000000002
 40
0.6875000000000002
 40
0.7500000000000001
 40
0.7500000000000001
 40
0.8125
 40
0.8125
 40
0.8749999999999999
 40
0.8749999999999999
 40
0.90625
 40
0.90625
 40
0.9375
 40
0.9375
 40
1.0
 40
1.0
 40
1.0
 40
1.0
 10
48.49999999999999
 20
-9.18096327346094
 30
0.0
 10
48.11900265255741
 20
-9.093899529228384
 30
0.0
 10
47.73789699530471
 20
-9.000175686985937
 30
0.0
 10
46.97794499153684
 20
-8.800052218056337
 30
0.0
 10
46.5999308480423
 20
-8.693745160688692
 30
0.0
 10
45.45988216019507
 20
-8.355667201997857
 30
0.0
 10
44.69542084861525
 20
-8.10494029281801
 30
0.0
 10
43.55694259342177
 20
-7.695759410704797
 30
0.0
 10
43.17855268870795
 20
-7.553852187639849
 30
0.0
 10
42.41775545194375
 20
-7.258824218615681
 30
0.0
 10
42.03648848903779
 20
-7.105837519448027
 30
0.0
 10
40.89380169359126
 20
-6.631931551914183
 30
0.0
 10
40.13757500489391
 20
-6.296686992501196
 30
0.0
 10
38.61482142564763
 20
-5.590269489482376
 30
0.0
 10
37.85210381159156
 20
-5.219605274035315
 30
0.0
 10
36.33660758585192
 20
-4.451962132553048
 30
0.0
 10
35.57236399629559
 20
-4.053040253879883
 30
0.0
 10
34.43109842470692
 20
-3.439683387661391
 30
0.0
 10
34.05265661684546
 20
-3.232954899358488
 30
0.0
 10
33.29374545449472
 20
-2.814767306348711
 30
0.0
 10
32.9129054953119
 20
-2.603234419680625
 30
0.0
 10
32.15092701062524
 20
-2.176649022782008
 30
0.0
 10
31.76979027692698
 20
-1.961597511917591
 30
0.0
 10
31.00969842893268
 20
-1.529382542408382
 30
0.0
 10
30.63168037934041
 20
-1.312400511150181
 30
0.0
 10
29.49184460323185
 20
-0.6579818292010318
 30
0.0
 10
28.72736904464369
 20
-0.2176558672485027
 30
0.0
 10
27.58863605060483
 20
0.440343385417322
 30
0.0
 10
27.21035413568531
 20
0.6592680920498604
 30
0.0
 10
26.44966875200679
 20
1.096640385657735
 30
0.0
 10
26.06841874697164
 20
1.314864880080171
 30
0.0
 10
24.92566536903401
 20
1.966020478065224
 30
0.0
 10
24.16937882026862
 20
2.394642551700538
 30
0.0
 10
22.64678858920671
 20
3.237465163330538
 30
0.0
 10
21.88360818879682
 20
3.651040335395996
 30
0.0
 10
20.36852513840004
 20
4.452753859917468
 30
0.0
 10
19.60433353262685
 20
4.843043368662078
 30
0.0
 10
18.08243641915826
 20
5.592257642965205
 30
0.0
 10
17.32578896626518
 20
5.951089046240163
 30
0.0
 10
16.18285295122877
 20
6.463240024312203
 30
0.0
 10
15.80168760981709
 20
6.6294256352711
 30
0.0
 10
15.04146080808867
 20
6.951674966204552
 30
0.0
 10
14.66342064076522
 20
7.107609100727445
 30
0.0
 10
13.5238051056397
 20
7.56043963585393
 30
0.0
 10
12.75932028489325
 20
7.841887020332282
 30
0.0
 10
12.0000000000025
 20
8.099260266414948
 30
0.0
1001
PE_URL
1000

  0
LINE
  5
B4
330
1F
100
AcDbEntity
  8
0
  6
Continuous
 62
     1
370
    15
100
AcDbLine
 10
48.50000000000004
 20
-9.999999999999998
 30
0.0
 11
48.50000000000002
 21
-9.180963273460918
 31
0.0
  0
SPLINE
  5
B5
330
1F
100
AcDbEntity
  8
0
  6
Continuous
 62
     1
370
    15
100
AcDbSpline
210
0.0
220
0.0
230
1.0
 70
     8
 71
     3
 72
     8
 73
     4
 74
     0
 42
0.000000001
 43
0.00000001
 40
0.0
 40
0.0
 40
0.0
 40
0.0
 40
1.0
 40
1.0
 40
1.0
 40
1.0
 10
41.4893232797659
 20
3.774367713232434
 30
0.0
 10
41.27862317703782
 20
4.0080075006995
 30
0.0
 10
41.08831698107646
 20
4.233967345557009
 30
0.0
 10
40.92168964886365
 20
4.45101019786725
 30
0.0
  0
LINE
  5
B6
330
1F
100
AcDbEntity
  8
0
  6
Continuous
 62
     1
370
    15
100
AcDbLine
 10
40.92168964886364
 20
4.451010197867248
 30
0.0
 11
50.00000000000003
 21
0.0000000000000097
 31
0.0
  0
LINE
  5
B7
330
1F
100
AcDbEntity
  8
0
  6
Continuous
 62
     1
370
    15
100
AcDbLine
 10
50.00000000000003
 20
0.0000000000000097
 30
0.0
 11
50.00000000000003
 21
-2.672429460296438
 31
0.0
  0
SPLINE
  5
B8
330
1F
100
AcDbEntity
  8
0
  6
Continuous
 62
     1
370
    15
100
AcDbSpline
210
0.0
220
0.0
230
1.0
 70
     8
 71
     3
 72
    14
 73
    10
 74
     0
 42
0.000000001
 43
0.00000001
 40
0.0
 40
0.0
 40
0.0
 40
0.0
 40
0.25
 40
0.25
 40
0.5
 40
0.5
 40
0.75
 40
0.75
 40
1.0
 40
1.0
 40
1.0
 40
1.0
 10
50.00000000000004
 20
-2.672429460296443
 30
0.0
 10
49.257968873053
 20
-2.185296180429959
 30
0.0
 10
48.52278646831202
 20
-1.685731907907061
 30
0.0
 10
47.06596013978324
 20
-0.6620299092673082
 30
0.0
 10
46.34431844090573
 20
-0.1378881447557966
 30
0.0
 10
44.91577026810158
 20
0.9371410263948855
 30
0.0
 10
44.20876380730287
 20
1.488020862067347
 30
0.0
 10
42.81302473603984
 20
2.622252121697789
 30
0.0
 10
42.1373019991781
 20
3.194865999891643
 30
0.0
 10
41.48932327976588
 20
3.774367713232444
 30
0.0
  0
SPLINE
  5
B9
330
1F
100
AcDbEntity
  8
0
  6
Continuous
 62
     1
370
    15
100
AcDbSpline
210
0.0
220
0.0
230
1.0
 70
     8
 71
     3
 72
    14
 73
    10
 74
     0
 42
0.000000001
 43
0.00000001
 40
0.0
 40
0.0
 40
0.0
 40
0.0
 40
0.084552086618487
 40
0.2497487807851816
 40
0.4149529209548253
 40
0.5801622389263096
 40
0.7453744624154888
 40
0.9105873168458082
 40
0.9999999999999999
 40
0.9999999999999999
 40
0.9999999999999999
 40
0.9999999999999999
 10
41.48932327975484
 20
3.774367713236941
 30
0.0
 10
40.90595330137381
 20
4.008288615718252
 30
0.0
 10
39.18280315009789
 20
4.699240933175349
 30
0.0
 10
36.31809843317125
 20
5.718600297148514
 30
0.0
 10
32.89726340847837
 20
6.720283751727421
 30
0.0
 10
29.47611329132886
 20
7.462676651368946
 30
0.0
 10
26.05494734501421
 20
7.900419026694769
 30
0.0
 10
23.15696060620076
 20
8.058457448861635
 30
0.0
 10
21.39937921116343
 20
7.946876406798221
 30
0.0
 10
20.78219811502135
 20
7.907694318250959
 30
0.0
1001
PE_URL
1000

  0
SPLINE
  5
BA
330
1F
100
AcDbEntity
  8
0
  6
Continuous
 62
     1
370
    15
100
AcDbSpline
210
0.0
220
0.0
230
1.0
 70
    24
 71
     3
 72
    10
 73
     6
 74
     0
 42
0.000000001
 43
0.00000001
 40
0.0
 40
0.0
 40
0.0
 40
0.0
 40
0.5
 40
0.5
 40
1.0
 40
1.0
 40
1.0
 40
1.0
 10
50.00000000000003
 20
-7.889722643682152
 30
0.0
 10
50.00000000000002
 20
-7.284913890038041
 30
0.0
 10
50.00000000000003
 20
-6.52071483906468
 30
0.0
 10
50.00000000000004
 20
-4.744025591506794
 30
0.0
 10
50.00000000000004
 20
-3.733074430513093
 30
0.0
 10
50.00000000000003
 20
-2.672429460296763
 30
0.0
  0
SPLINE
  5
BB
330
1F
100
AcDbEntity
  8
0
  6
Continuous
 62
     1
370
    15
100
AcDbSpline
210
0.0
220
0.0
230
1.0
 70
     8
 71
     3
 72
     9
 73
     5
 74
     0
 42
0.000000001
 43
0.00000001
 40
0.0
 40
0.0
 40
0.0
 40
0.0
 40
0.9198253904787266
 40
1.0
 40
1.0
 40
1.0
 40
1.0
 10
50.00000000000003
 20
7.000000000000011
 30
0.0
 10
48.86000982186442
 20
6.995550383568844
 30
0.0
 10
47.62065484217388
 20
6.990712925854342
 30
0.0
 10
46.38128293054771
 20
6.840847561668213
 30
0.0
 10
46.28191677148145
 20
6.828832164613827
 30
0.0
  0
SPLINE
  5
BC
330
1F
100
AcDbEntity
  8
0
  6
Continuous
 62
     1
370
    15
100
AcDbSpline
210
0.0
220
0.0
230
1.0
 70
     8
 71
     3
 72
    10
 73
     6
 74
     0
 42
0.000000001
 43
0.00000001
 40
0.0
 40
0.0
 40
0.0
 40
0.0
 40
0.5
 40
0.5
 40
1.0
 40
1.0
 40
1.0
 40
1.0
 10
50.00000000000003
 20
7.000000000000011
 30
0.0
 10
48.4764032375539
 20
6.632997155091235
 30
0.0
 10
46.95723397411726
 20
6.239935637174226
 30
0.0
 10
43.92863395325675
 20
5.399295331728514
 30
0.0
 10
42.41903832253461
 20
4.953312484722954
 30
0.0
 10
40.92168964886347
 20
4.451010197867432
 30
0.0
  0
SPLINE
  5
BD
330
1F
100
AcDbEntity
  8
0
  6
Continuous
 62
     1
370
    15
100
AcDbSpline
210
0.0
220
0.0
230
1.0
 70
     8
 71
     3
 72
    12
 73
     8
 74
     0
 42
0.000000001
 43
0.00000001
 40
0.0
 40
0.0
 40
0.0
 40
0.0
 40
0.1646441625321911
 40
0.3679857830668697
 40
0.5713253800257331
 40
0.7856796132108701
 40
1.0
 40
1.0
 40
1.0
 40
1.0
 10
28.82507245348457
 20
-7.496897599136862
 30
0.0
 10
27.90169870324684
 20
-7.633025361417617
 30
0.0
 10
25.83792427408547
 20
-7.937275936898728
 30
0.0
 10
22.63374203386455
 20
-8.04726545694757
 30
0.0
 10
19.15083899380319
 20
-7.876052538547329
 30
0.0
 10
15.60612498888682
 20
-7.386663977509689
 30
0.0
 10
13.20197838909902
 20
-6.793291721589727
 30
0.0
 10
12.00000000000002
 20
-6.49662901875386
 30
0.0
1001
PE_URL
1000

  0
SPLINE
  5
BE
330
1F
100
AcDbEntity
  8
0
  6
Continuous
 62
   131
370
    15
100
AcDbSpline
210
0.0
220
0.0
230
1.0
 70
    24
 71
     3
 72
    14
 73
    10
 74
     0
 42
0.000000001
 43
0.00000001
 40
0.0
 40
0.0
 40
0.0
 40
0.0
 40
0.25
 40
0.25
 40
0.5
 40
0.5
 40
0.75
 40
0.75
 40
1.0
 40
1.0
 40
1.0
 40
1.0
 10
12.0
 20
4.084836208163639
 30
0.0
 10
12.0
 20
3.27189905493346
 30
0.0
 10
12.0
 20
2.389718700036211
 30
0.0
 10
12.0
 20
0.555152555806066
 30
0.0
 10
12.0
 20
-0.396477898220515
 30
0.0
 10
12.0
 20
-2.277109344432581
 30
0.0
 10
12.0
 20
-3.205108257557668
 30
0.0
 10
12.0
 20
-4.949630595449554
 30
0.0
 10
12.0
 20
-5.765525156294579
 30
0.0
 10
12.0
 20
-6.496629018753856
 30
0.0
  0
LINE
  5
BF
330
1F
100
AcDbEntity
  8
0
  6
Continuous
 62
     1
370
    15
100
AcDbLine
 10
50.00000000000003
 20
0.0000000000000097
 30
0.0
 11
50.00000000000003
 21
7.000000000000012
 31
0.0
  0
SPLINE
  5
C0
330
1F
100
AcDbEntity
  8
0
  6
Continuous
 62
   131
370
    15
100
AcDbSpline
210
0.0
220
0.0
230
1.0
 70
    24
 71
     3
 72
    11
 73
     7
 74
     0
 42
0.000000001
 43
0.00000001
 40
0.0
 40
0.0
 40
0.0
 40
0.0
 40
0.2224853215158473
 40
0.4478642606095929
 40
0.7755484462845608
 40
1.0
 40
1.0
 40
1.0
 40
1.0
 10
12.00000000000003
 20
-6.496629018753864
 30
0.0
 10
12.00000000000003
 20
-6.686105582496929
 30
0.0
 10
12.00000000000003
 20
-7.067523019591039
 30
0.0
 10
12.00000000000003
 20
-7.531723744755687
 30
0.0
 10
12.00000000000003
 20
-7.848193433121833
 30
0.0
 10
12.00000000000003
 20
-7.846586945669747
 30
0.0
 10
12.00000000000003
 20
-7.845933884150775
 30
0.0
  0
LINE
  5
C1
330
1F
100
AcDbEntity
  8
0
  6
Continuous
 62
     1
370
    15
100
AcDbLine
 10
50.00000000000003
 20
-7.889722643682155
 30
0.0
 11
50.00000000000003
 21
-8.485126398170692
 31
0.0
  0
SPLINE
  5
C2
330
1F
100
AcDbEntity
  8
0
  6
Continuous
 62
     1
370
    15
100
AcDbSpline
210
0.0
220
0.0
230
1.0
 70
     8
 71
     3
 72
    11
 73
     7
 74
     0
 42
0.000000001
 43
0.00000001
 40
0.0
 40
0.0
 40
0.0
 40
0.0
 40
0.2067184918389788
 40
0.4659536328134044
 40
0.7317977334289821
 40
1.0
 40
1.0
 40
1.0
 40
1.0
 10
36.26991134290625
 20
6.702330386267406
 30
0.0
 10
37.11261932426243
 20
7.056329435300538
 30
0.0
 10
39.01212450070122
 20
7.854260677165255
 30
0.0
 10
41.99537962668327
 20
8.801982865729478
 30
0.0
 10
45.22940372727589
 20
9.576514898986275
 30
0.0
 10
47.36966420924388
 20
9.874206648929805
 30
0.0
 10
48.50000000000002
 20
10.0
 30
0.0
  0
SPLINE
  5
C4
330
1F
100
AcDbEntity
  8
0
  6
Continuous
 62
     1
370
    15
100
AcDbSpline
210
0.0
220
0.0
230
1.0
 70
    24
 71
     3
 72
     8
 73
     4
 74
     0
 42
0.000000001
 43
0.00000001
 40
0.0
 40
0.0
 40
0.0
 40
0.0
 40
1.0
 40
1.0
 40
1.0
 40
1.0
 10
50.00000000000003
 20
7.000000000000011
 30
0.0
 10
50.00000000000003
 20
7.438096251627605
 30
0.0
 10
50.00000000000002
 20
7.949683394543634
 30
0.0
 10
50.00000000000002
 20
8.48512639817358
 30
0.0
  0
LINE
  5
C5
330
1F
100
AcDbEntity
  8
0
  6
Continuous
 62
     1
370
    15
100
AcDbLine
 10
12.62676985466447
 20
-7.861131313428245
 30
0.0
 11
12.00000000000251
 21
-8.099260266414937
 31
0.0
1001
PE_URL
1000

  0
SPLINE
  5
C6
330
1F
100
AcDbEntity
  8
0
  6
Continuous
 62
   131
370
    15
100
AcDbSpline
210
0.0
220
0.0
230
1.0
 70
    24
 71
     3
 72
     9
 73
     5
 74
     0
 42
0.000000001
 43
0.00000001
 40
0.0
 40
0.0
 40
0.0
 40
0.0
 40
0.0534294701283128
 40
1.0
 40
1.0
 40
1.0
 40
1.0
 10
12.00000000000003
 20
-7.968008228496836
 30
0.0
 10
12.00000000000003
 20
-7.970451940318261
 30
0.0
 10
12.00000000000003
 20
-8.016189092784078
 30
0.0
 10
12.00000000000003
 20
-8.058864748429844
 30
0.0
 10
12.00000000000003
 20
-8.099260266407079
 30
0.0
  0
LINE
  5
C7
330
1F
100
AcDbEntity
  8
중심선
100
AcDbLine
 10
-107.0
 20
0.000000000000001
 30
0.0
 11
57.00000000000003
 21
0.000000000000001
 31
0.0
  0
CIRCLE
  5
C8
330
1F
100
AcDbEntity
  8
외형선
100
AcDbCircle
 10
0.0
 20
0.0
 30
0.0
 40
3.000000000000001
  0
INSERT
  5
C9
330
1F
100
AcDbEntity
  8
0
  6
Continuous
 62
     7
100
AcDbBlockReference
 66
     1
  2
블럭10
 10
-38.98356871123361
 20
-52.04717430164393
 30
0.0
  0
ATTRIB
  5
CA
330
C9
100
AcDbEntity
  8
FORMAT
 62
     2
100
AcDbText
 10
-55.61239730943458
 20
-49.97180738881174
 30
0.0
 40
4.233333333333333
  1
SEMD9920015E [ 2 FLUTE ]
 41
0.75
  7
SLDTEXTSTYLE0
 11
-55.61239730943458
 21
-52.08847405547841
 31
0.0
100
AcDbAttribute
  2
AUTOATTR0
 70
     0
 74
     1
  0
SEQEND
  5
CB
330
C9
100
AcDbEntity
  8
0
  6
Continuous
 62
     7
  0
HATCH
  5
CC
330
1F
100
AcDbEntity
  8
중심선
100
AcDbHatch
 10
0.0
 20
0.0
 30
0.0
210
0.0
220
0.0
230
1.0
  2
SOLID
 70
     1
 71
     0
 91
        1
 92
        0
 93
        4
 72
     1
 10
-33.26865940685276
 20
-35.8
 11
-36.71493465069004
 21
-35.8
 72
     1
 10
-36.71493465069004
 20
-35.8
 11
-38.84316450989407
 21
-38.33632558057259
 72
     1
 10
-38.84316450989407
 20
-38.33632558057259
 11
-35.39685618094363
 21
-38.3362861512701
 72
     1
 10
-35.39685618094363
 20
-38.3362861512701
 11
-33.26865940685276
 21
-35.8
 97
        0
 75
     0
 76
     1
 98
        1
 10
-12.84829686736822
 20
0.0
  0
HATCH
  5
CD
330
1F
100
AcDbEntity
  8
중심선
100
AcDbHatch
 10
0.0
 20
0.0
 30
0.0
210
0.0
220
0.0
230
1.0
  2
SOLID
 70
     1
 71
     0
 91
        1
 92
        0
 93
        4
 72
     1
 10
-28.25589541581681
 20
-35.8
 11
-31.70217065965409
 21
-35.8
 72
     1
 10
-31.70217065965409
 20
-35.8
 11
-36.23330866801147
 21
-41.20000000000002
 72
     1
 10
-36.23330866801147
 20
-41.20000000000002
 11
-32.78703342417419
 21
-41.20000000000002
 72
     1
 10
-32.7870334241742
 20
-41.20000000000002
 11
-28.25589541581681
 21
-35.8
 97
        0
 75
     0
 76
     1
 98
        1
 10
-12.84829686736822
 20
0.0
  0
HATCH
  5
CE
330
1F
100
AcDbEntity
  8
중심선
100
AcDbHatch
 10
0.0
 20
0.0
 30
0.0
210
0.0
220
0.0
230
1.0
  2
SOLID
 70
     1
 71
     0
 91
        1
 92
        0
 93
        4
 72
     1
 10
-23.24313142478091
 20
-35.80000000000003
 11
-26.68940666861803
 21
-35.8
 72
     1
 10
-26.68940666861803
 20
-35.8
 11
-33.73784357050728
 21
-44.20000000000002
 72
     1
 10
-33.73784357050728
 20
-44.20000000000002
 11
-30.29156832667
 21
-44.20000000000002
 72
     1
 10
-30.29156832666999
 20
-44.20000000000002
 11
-23.24313142478091
 21
-35.80000000000003
 97
        0
 75
     0
 76
     1
 98
        1
 10
-12.84829686736822
 20
0.0
  0
HATCH
  5
CF
330
1F
100
AcDbEntity
  8
중심선
100
AcDbHatch
 10
0.0
 20
0.0
 30
0.0
210
0.0
220
0.0
230
1.0
  2
SOLID
 70
     1
 71
     0
 91
        1
 92
        0
 93
        6
 72
     3
 10
-18.44324099376871
 20
-40.00000000005127
 11
3.960054785062283
 21
1.540882976769353E-10
 40
0.3939339440162628
 50
17.09539180608436
 51
320.0019657685081
 73
     0
 72
     1
 10
-16.76024133806812
 20
-38.5878940046383
 11
-14.45493946436708
 21
-36.65356729459038
 72
     3
 10
-18.44324099382156
 20
-40.00000000000015
 11
6.600054785286829
 21
-1.278976924368180E-13
 40
0.636358354079598
 50
39.99873849337411
 51
368.4976242363724
 73
     1
 72
     1
 10
-12.01790850192095
 20
-39.03999999993002
 11
-19.76317368698563
 21
-39.03999999992999
 72
     1
 10
-19.76317368698563
 20
-39.03999999992999
 11
-19.76319873143157
 21
-40.95999999992991
 72
     1
 10
-19.76319873143157
 20
-40.95999999992991
 11
-15.32181896195953
 21
-40.95999999992988
 97
        0
 75
     0
 76
     1
 98
        1
 10
-12.84829686736822
 20
0.0
  0
POINT
  5
D0
330
1F
100
AcDbEntity
  8
치수문자_일반주서
100
AcDbPoint
 10
7.267949192431177
 20
0.0000000000000008
 30
0.0
  0
DIMENSION
  5
D1
330
1F
100
AcDbEntity
  8
치수문자_일반주서
100
AcDbDimension
  2
_D
 10
65.00000000000001
 20
10.00000000000006
 30
0.0
 11
64.99999999999997
 21
20.76025000000016
 31
0.0
 70
   160
  1
%%c<>
 71
     2
 42
20.0
 52
-270.0
  3
SLDDIMSTYLE0
100
AcDbAlignedDimension
 13
50.00000000000004
 23
-9.999999999999996
 33
0.0
 14
50.00000000000001
 24
10.0
 34
0.0
 50
90.0000000000002
100
AcDbRotatedDimension
  0
DIMENSION
  5
DF
330
1F
100
AcDbEntity
  8
치수문자_일반주서
100
AcDbDimension
  2
_D_1
 10
12.00000000000003
 20
25.0
 30
0.0
 11
31.00000000000003
 21
25.0
 31
0.0
 70
   160
  1
<>
 71
     2
 42
37.99999999999999
  3
SLDDIMSTYLE1
100
AcDbAlignedDimension
 13
50.00000000000001
 23
10.0
 33
0.0
 14
12.00000000000003
 24
8.099260266415786
 34
0.0
100
AcDbRotatedDimension
  0
DIMENSION
  5
EA
330
1F
100
AcDbEntity
  8
치수문자_일반주서
100
AcDbDimension
  2
_D_2
 10
-99.99999999999996
 20
40.00000000000001
 30
0.0
 11
-24.99999999999997
 21
40.00000000000001
 31
0.0
 70
   160
  1
<>
 71
     2
 42
150.0
  3
SLDDIMSTYLE1
100
AcDbAlignedDimension
 13
50.00000000000001
 23
10.0
 33
0.0
 14
-99.99999999999997
 24
8.999999999999993
 34
0.0
 50
0.0000000000000054
100
AcDbRotatedDimension
  0
DIMENSION
  5
F4
330
1F
100
AcDbEntity
  8
치수문자_일반주서
100
AcDbDimension
  2
_D_3
 10
-115.0
 20
9.999999999999936
 30
0.0
 11
-115.0
 21
20.76024999999994
 31
0.0
 70
   160
  1
%%c<>
 71
     2
 42
19.99999999999999
 52
-270.0
  3
SLDDIMSTYLE0
100
AcDbAlignedDimension
 13
-98.99999999999996
 23
-9.999999999999996
 33
0.0
 14
-98.99999999999996
 24
9.999999999999996
 34
0.0
 50
90.0000000000002
100
AcDbRotatedDimension
  0
INSERT
  5
105
330
1F
100
AcDbEntity
  8
외형선
100
AcDbBlockReference
  2
SW_DOWELSYMBOL_0
 10
0.0
 20
0.0
 30
0.0
  0
ARC
  5
1E0
330
1F
100
AcDbEntity
  8
0
  6
Continuous
 62
     1
370
    15
100
AcDbCircle
 10
48.50000000000002
 20
8.5
 30
0.0
 40
1.5
100
AcDbArc
 50
0.0
 51
90.0
1001
PE_URL
1000

  0
ARC
  5
1E1
102
{ACAD_REACTORS
102
}
330
1F
100
AcDbEntity
  8
0
  6
Continuous
 62
     1
370
    15
100
AcDbCircle
 10
48.50000000000002
 20
-8.499999999999998
 30
0.0
 40
1.5
100
AcDbArc
 50
270.0
 51
0.0
1001
PE_URL
1000

  0
DIMENSION
  5
1E2
102
{ACAD_REACTORS
102
}
102
{ACAD_XDICTIONARY
360
1E3
102
}
330
1F
100
AcDbEntity
  8
치수문자_일반주서
100
AcDbDimension
  2
*D11
 10
48.50000000000002
 20
-8.499999999999998
 30
0.0
 11
68.58661679827506
 21
-35.54416776872453
 31
0.0
 70
   164
 71
     5
 42
1.499999999999999
  3
SLDDIMSTYLE2
100
AcDbRadialDimension
 15
49.39439026819382
 25
-9.704186882572722
 35
0.0
 40
0.0
1001
ACAD
1000
DSTYLE
1002
{
1070
    41
1040
4.0
1070
   140
1040
4.0
1002
}
1001
ACAD_DSTYLE_DIMRADIAL_EXTENSION
1070
   387
1070
     1
1070
   388
1040
4.71238898038469
1070
   390
1040
0.0
1001
PE_URL
1000

  0
ENDSEC
  0
SECTION
  2
OBJECTS
  0
DICTIONARY
  5
C
330
0
100
AcDbDictionary
281
     1
  3
ACAD_DETAILVIEWSTYLE
350
19D
  3
ACAD_GROUP
350
D
  3
ACAD_LAYOUT
350
1A
  3
ACAD_MLINESTYLE
350
17
  3
ACAD_PLOTSETTINGS
350
19
  3
ACAD_PLOTSTYLENAME
350
E
  3
ACAD_SCALELIST
350
47
  3
ACAD_SECTIONVIEWSTYLE
350
19E
  3
AcDbVariableDictionary
350
198
  3
APPDATA
350
127
  3
DWGPROPS
350
1EF
  0
DICTIONARY
  5
16A
330
2
100
AcDbDictionary
280
     1
281
     1
  3
ACAD_LAYERSTATES
360
16B
  0
DICTIONARY
  5
1E3
330
1E2
100
AcDbDictionary
280
     1
281
     1
  0
DICTIONARY
  5
19D
102
{ACAD_REACTORS
330
C
102
}
330
C
100
AcDbDictionary
281
     1
  0
DICTIONARY
  5
D
102
{ACAD_REACTORS
330
C
102
}
330
C
100
AcDbDictionary
281
     1
  0
DICTIONARY
  5
1A
102
{ACAD_REACTORS
330
C
102
}
330
C
100
AcDbDictionary
281
     1
  3
Layout1
350
1E
  3
Layout2
350
26
  3
Model
350
22
  0
DICTIONARY
  5
17
102
{ACAD_REACTORS
330
C
102
}
330
C
100
AcDbDictionary
281
     1
  3
Standard
350
18
  0
DICTIONARY
  5
19
102
{ACAD_REACTORS
330
C
102
}
330
C
100
AcDbDictionary
281
     1
  0
ACDBDICTIONARYWDFLT
  5
E
102
{ACAD_REACTORS
330
C
102
}
330
C
100
AcDbDictionary
281
     1
  3
Normal
350
F
100
AcDbDictionaryWithDefault
340
F
  0
DICTIONARY
  5
47
102
{ACAD_REACTORS
330
C
102
}
330
C
100
AcDbDictionary
281
     1
  3
A0
350
48
  3
A1
350
49
  3
A2
350
4A
  3
A3
350
4B
  3
A4
350
4C
  3
A5
350
4D
  3
A6
350
4E
  3
A7
350
4F
  3
A8
350
50
  3
A9
350
51
  3
B0
350
52
  3
B1
350
53
  3
B2
350
54
  3
B3
350
55
  3
B4
350
56
  3
B5
350
57
  3
B6
350
58
  3
B7
350
59
  3
B8
350
5A
  3
B9
350
5B
  3
C0
350
5C
  3
C1
350
5D
  3
C2
350
5E
  3
C3
350
5F
  3
C4
350
60
  3
C5
350
61
  3
C6
350
62
  3
C7
350
63
  3
C8
350
64
  3
C9
350
65
  3
D0
350
66
  3
D1
350
67
  3
D2
350
68
  0
DICTIONARY
  5
19E
102
{ACAD_REACTORS
330
C
102
}
330
C
100
AcDbDictionary
281
     1
  0
DICTIONARY
  5
198
102
{ACAD_REACTORS
330
C
102
}
330
C
100
AcDbDictionary
281
     1
  0
DICTIONARY
  5
127
102
{ACAD_REACTORS
330
C
102
}
330
C
100
AcDbDictionary
281
     1
  0
XRECORD
  5
1EF
102
{ACAD_REACTORS
330
C
102
}
330
C
100
AcDbXrecord
280
     1
  1
DWGPROPS COOKIE
  2

  3

  4

  6

  7

  8
12017044
  9

300
=
301
=
302
=
303
=
304
=
305
=
306
=
307
=
308
=
309
=
 40
0.0
 41
2458260.218415475
 42
2458268.221491042
  1

 90
        0
  0
DICTIONARY
  5
16B
102
{ACAD_REACTORS
330
16A
102
}
330
16A
100
AcDbDictionary
281
     1
  0
LAYOUT
  5
1E
102
{ACAD_REACTORS
330
1A
102
}
330
1A
100
AcDbPlotSettings
  1

  2
none_device
  4

  6

 40
0.0
 41
0.0
 42
0.0
 43
0.0
 44
0.0
 45
0.0
 46
0.0
 47
0.0
 48
0.0
 49
0.0
140
0.0
141
0.0
142
1.0
143
1.0
 70
   688
 72
     1
 73
     0
 74
     5
  7

 75
    16
147
1.0
148
0.0
149
0.0
100
AcDbLayout
  1
Layout1
 70
     1
 71
     1
 10
0.0
 20
0.0
 11
420.0
 21
297.0
 12
0.0
 22
0.0
 32
0.0
 14
1.000000000000000E+20
 24
1.000000000000000E+20
 34
1.000000000000000E+20
 15
-1.000000000000000E+20
 25
-1.000000000000000E+20
 35
-1.000000000000000E+20
146
0.0
 13
0.0
 23
0.0
 33
0.0
 16
1.0
 26
0.0
 36
0.0
 17
0.0
 27
1.0
 37
0.0
 76
     0
330
1B
  0
LAYOUT
  5
26
102
{ACAD_REACTORS
330
1A
102
}
330
1A
100
AcDbPlotSettings
  1

  2
none_device
  4

  6

 40
0.0
 41
0.0
 42
0.0
 43
0.0
 44
0.0
 45
0.0
 46
0.0
 47
0.0
 48
0.0
 49
0.0
140
0.0
141
0.0
142
1.0
143
1.0
 70
   688
 72
     1
 73
     0
 74
     5
  7

 75
    16
147
1.0
148
0.0
149
0.0
100
AcDbLayout
  1
Layout2
 70
     1
 71
     2
 10
0.0
 20
0.0
 11
0.0
 21
0.0
 12
0.0
 22
0.0
 32
0.0
 14
0.0
 24
0.0
 34
0.0
 15
0.0
 25
0.0
 35
0.0
146
0.0
 13
0.0
 23
0.0
 33
0.0
 16
1.0
 26
0.0
 36
0.0
 17
0.0
 27
1.0
 37
0.0
 76
     0
330
23
  0
LAYOUT
  5
22
102
{ACAD_REACTORS
330
1A
102
}
330
1A
100
AcDbPlotSettings
  1

  2
none_device
  4
ANSI_A_(11.00_x_8.50_Inches)
  6

 40
6.35
 41
19.05
 42
6.35000508
 43
19.05000254
 44
279.4
 45
215.9
 46
181.2189292867603
 47
82.97629431519978
 48
0.0
 49
0.0
140
0.0
141
0.0
142
0.0698076923076923
143
1.0
 70
  1696
 72
     0
 73
     0
 74
     0
  7

 75
     0
147
0.0235690232323232
148
0.0
149
0.0
100
AcDbLayout
  1
Model
 70
     1
 71
     0
 10
0.0
 20
0.0
 11
420.0
 21
297.0
 12
0.0
 22
0.0
 32
0.0
 14
-119.375
 24
-49.97180738881174
 34
0.0
 15
74.88526488181991
 25
44.375
 35
0.0
146
0.0
 13
0.0
 23
0.0
 33
0.0
 16
1.0
 26
0.0
 36
0.0
 17
0.0
 27
1.0
 37
0.0
 76
     0
330
1F
331
29
  0
MLINESTYLE
  5
18
102
{ACAD_REACTORS
330
17
102
}
330
17
100
AcDbMlineStyle
  2
Standard
 70
     0
  3

 62
   256
 51
90.0
 52
90.0
 71
     2
 49
0.5
 62
   256
  6
BYLAYER
 49
-0.5
 62
   256
  6
BYLAYER
  0
ACDBPLACEHOLDER
  5
F
102
{ACAD_REACTORS
330
E
102
}
330
E
  0
SCALE
  5
48
102
{ACAD_REACTORS
330
47
102
}
330
47
100
AcDbScale
 70
     0
300
1:1
140
1.0
141
1.0
290
     1
  0
SCALE
  5
49
102
{ACAD_REACTORS
330
47
102
}
330
47
100
AcDbScale
 70
     0
300
1:2
140
1.0
141
2.0
290
     0
  0
SCALE
  5
4A
102
{ACAD_REACTORS
330
47
102
}
330
47
100
AcDbScale
 70
     0
300
1:4
140
1.0
141
4.0
290
     0
  0
SCALE
  5
4B
102
{ACAD_REACTORS
330
47
102
}
330
47
100
AcDbScale
 70
     0
300
1:5
140
1.0
141
5.0
290
     0
  0
SCALE
  5
4C
102
{ACAD_REACTORS
330
47
102
}
330
47
100
AcDbScale
 70
     0
300
1:8
140
1.0
141
8.0
290
     0
  0
SCALE
  5
4D
102
{ACAD_REACTORS
330
47
102
}
330
47
100
AcDbScale
 70
     0
300
1:10
140
1.0
141
10.0
290
     0
  0
SCALE
  5
4E
102
{ACAD_REACTORS
330
47
102
}
330
47
100
AcDbScale
 70
     0
300
1:16
140
1.0
141
16.0
290
     0
  0
SCALE
  5
4F
102
{ACAD_REACTORS
330
47
102
}
330
47
100
AcDbScale
 70
     0
300
1:20
140
1.0
141
20.0
290
     0
  0
SCALE
  5
50
102
{ACAD_REACTORS
330
47
102
}
330
47
100
AcDbScale
 70
     0
300
1:30
140
1.0
141
30.0
290
     0
  0
SCALE
  5
51
102
{ACAD_REACTORS
330
47
102
}
330
47
100
AcDbScale
 70
     0
300
1:40
140
1.0
141
40.0
290
     0
  0
SCALE
  5
52
102
{ACAD_REACTORS
330
47
102
}
330
47
100
AcDbScale
 70
     0
300
1:50
140
1.0
141
50.0
290
     0
  0
SCALE
  5
53
102
{ACAD_REACTORS
330
47
102
}
330
47
100
AcDbScale
 70
     0
300
1:100
140
1.0
141
100.0
290
     0
  0
SCALE
  5
54
102
{ACAD_REACTORS
330
47
102
}
330
47
100
AcDbScale
 70
     0
300
2:1
140
2.0
141
1.0
290
     0
  0
SCALE
  5
55
102
{ACAD_REACTORS
330
47
102
}
330
47
100
AcDbScale
 70
     0
300
4:1
140
4.0
141
1.0
290
     0
  0
SCALE
  5
56
102
{ACAD_REACTORS
330
47
102
}
330
47
100
AcDbScale
 70
     0
300
8:1
140
8.0
141
1.0
290
     0
  0
SCALE
  5
57
102
{ACAD_REACTORS
330
47
102
}
330
47
100
AcDbScale
 70
     0
300
10:1
140
10.0
141
1.0
290
     0
  0
SCALE
  5
58
102
{ACAD_REACTORS
330
47
102
}
330
47
100
AcDbScale
 70
     0
300
100:1
140
100.0
141
1.0
290
     0
  0
SCALE
  5
59
102
{ACAD_REACTORS
330
47
102
}
330
47
100
AcDbScale
 70
     0
300
1/128" = 1'-0"
140
0.0078125
141
12.0
290
     0
  0
SCALE
  5
5A
102
{ACAD_REACTORS
330
47
102
}
330
47
100
AcDbScale
 70
     0
300
1/64" = 1'-0"
140
0.015625
141
12.0
290
     0
  0
SCALE
  5
5B
102
{ACAD_REACTORS
330
47
102
}
330
47
100
AcDbScale
 70
     0
300
1/32" = 1'-0"
140
0.03125
141
12.0
290
     0
  0
SCALE
  5
5C
102
{ACAD_REACTORS
330
47
102
}
330
47
100
AcDbScale
 70
     0
300
1/16" = 1'-0"
140
0.0625
141
12.0
290
     0
  0
SCALE
  5
5D
102
{ACAD_REACTORS
330
47
102
}
330
47
100
AcDbScale
 70
     0
300
3/32" = 1'-0"
140
0.09375
141
12.0
290
     0
  0
SCALE
  5
5E
102
{ACAD_REACTORS
330
47
102
}
330
47
100
AcDbScale
 70
     0
300
1/8" = 1'-0"
140
0.125
141
12.0
290
     0
  0
SCALE
  5
5F
102
{ACAD_REACTORS
330
47
102
}
330
47
100
AcDbScale
 70
     0
300
3/16" = 1'-0"
140
0.1875
141
12.0
290
     0
  0
SCALE
  5
60
102
{ACAD_REACTORS
330
47
102
}
330
47
100
AcDbScale
 70
     0
300
1/4" = 1'-0"
140
0.25
141
12.0
290
     0
  0
SCALE
  5
61
102
{ACAD_REACTORS
330
47
102
}
330
47
100
AcDbScale
 70
     0
300
3/8" = 1'-0"
140
0.375
141
12.0
290
     0
  0
SCALE
  5
62
102
{ACAD_REACTORS
330
47
102
}
330
47
100
AcDbScale
 70
     0
300
1/2" = 1'-0"
140
0.5
141
12.0
290
     0
  0
SCALE
  5
63
102
{ACAD_REACTORS
330
47
102
}
330
47
100
AcDbScale
 70
     0
300
3/4" = 1'-0"
140
0.75
141
12.0
290
     0
  0
SCALE
  5
64
102
{ACAD_REACTORS
330
47
102
}
330
47
100
AcDbScale
 70
     0
300
1" = 1'-0"
140
1.0
141
12.0
290
     0
  0
SCALE
  5
65
102
{ACAD_REACTORS
330
47
102
}
330
47
100
AcDbScale
 70
     0
300
1-1/2" = 1'-0"
140
1.5
141
12.0
290
     0
  0
SCALE
  5
66
102
{ACAD_REACTORS
330
47
102
}
330
47
100
AcDbScale
 70
     0
300
3" = 1'-0"
140
3.0
141
12.0
290
     0
  0
SCALE
  5
67
102
{ACAD_REACTORS
330
47
102
}
330
47
100
AcDbScale
 70
     0
300
6" = 1'-0"
140
6.0
141
12.0
290
     0
  0
SCALE
  5
68
102
{ACAD_REACTORS
330
47
102
}
330
47
100
AcDbScale
 70
     0
300
1'-0" = 1'-0"
140
12.0
141
12.0
290
     0
  0
ENDSEC
  0
EOF
