  0
SECTION
  2
HEADER
  9
$ACADVER
  1
AC1015
  9
$ACADMAINTVER
 70
     6
  9
$DWGCODEPAGE
  3
ANSI_949
  9
$INSBASE
 10
0.0
 20
0.0
 30
0.0
  9
$EXTMIN
 10
-119.875
 20
-49.97180738881174
 30
0.0
  9
$EXTMAX
 10
73.8419822485943
 20
44.87500000000001
 30
0.0
  9
$LIMMIN
 10
0.0
 20
0.0
  9
$LIMMAX
 10
420.0
 20
297.0
  9
$ORTHOMODE
 70
     1
  9
$REGENMODE
 70
     1
  9
$FILLMODE
 70
     1
  9
$QTEXTMODE
 70
     0
  9
$MIRRTEXT
 70
     1
  9
$LTSCALE
 40
1.0
  9
$ATTMODE
 70
     1
  9
$TEXTSIZE
 40
3.5
  9
$TRACEWID
 40
1.0
  9
$TEXTSTYLE
  7
Standard
  9
$CLAYER
  8
0
  9
$CELTYPE
  6
ByLayer
  9
$CECOLOR
 62
   256
  9
$CELTSCALE
 40
1.0
  9
$DISPSILH
 70
     0
  9
$DIMSCALE
 40
1.0
  9
$DIMASZ
 40
3.302
  9
$DIMEXO
 40
1.0
  9
$DIMDLI
 40
3.75
  9
$DIMRND
 40
0.0
  9
$DIMDLE
 40
0.0
  9
$DIMEXE
 40
1.0
  9
$DIMTP
 40
0.0
  9
$DIMTM
 40
0.0
  9
$DIMTXT
 40
3.5
  9
$DIMCEN
 40
2.5
  9
$DIMTSZ
 40
0.0
  9
$DIMTOL
 70
     0
  9
$DIMLIM
 70
     0
  9
$DIMTIH
 70
     1
  9
$DIMTOH
 70
     1
  9
$DIMSE1
 70
     0
  9
$DIMSE2
 70
     0
  9
$DIMTAD
 70
     1
  9
$DIMZIN
 70
     0
  9
$DIMBLK
  1

  9
$DIMASO
 70
     1
  9
$DIMSHO
 70
     1
  9
$DIMPOST
  1

  9
$DIMAPOST
  1

  9
$DIMALT
 70
     0
  9
$DIMALTD
 70
     3
  9
$DIMALTF
 40
0.0393700787401575
  9
$DIMLFAC
 40
1.0
  9
$DIMTOFL
 70
     1
  9
$DIMTVP
 40
0.0
  9
$DIMTIX
 70
     0
  9
$DIMSOXD
 70
     0
  9
$DIMSAH
 70
     0
  9
$DIMBLK1
  1

  9
$DIMBLK2
  1

  9
$DIMSTYLE
  2
ISO-25
  9
$DIMCLRD
 70
     0
  9
$DIMCLRE
 70
     0
  9
$DIMCLRT
 70
     0
  9
$DIMTFAC
 40
1.0
  9
$DIMGAP
 40
1.524
  9
$DIMJUST
 70
     0
  9
$DIMSD1
 70
     0
  9
$DIMSD2
 70
     0
  9
$DIMTOLJ
 70
     0
  9
$DIMTZIN
 70
     0
  9
$DIMALTZ
 70
     0
  9
$DIMALTTZ
 70
     0
  9
$DIMUPT
 70
     0
  9
$DIMDEC
 70
     2
  9
$DIMTDEC
 70
     2
  9
$DIMALTU
 70
     2
  9
$DIMALTTD
 70
     3
  9
$DIMTXSTY
  7
Standard
  9
$DIMAUNIT
 70
     0
  9
$DIMADEC
 70
     2
  9
$DIMALTRND
 40
0.0
  9
$DIMAZIN
 70
     0
  9
$DIMDSEP
 70
    44
  9
$DIMATFIT
 70
     3
  9
$DIMFRAC
 70
     0
  9
$DIMLDRBLK
  1

  9
$DIMLUNIT
 70
     2
  9
$DIMLWD
 70
    -2
  9
$DIMLWE
 70
    -2
  9
$DIMTMOVE
 70
     0
  9
$LUNITS
 70
     2
  9
$LUPREC
 70
     2
  9
$SKETCHINC
 40
1.0
  9
$FILLETRAD
 40
10.0
  9
$AUNITS
 70
     0
  9
$AUPREC
 70
     2
  9
$MENU
  1
.
  9
$ELEVATION
 40
0.0
  9
$PELEVATION
 40
0.0
  9
$THICKNESS
 40
0.0
  9
$LIMCHECK
 70
     0
  9
$CHAMFERA
 40
0.0
  9
$CHAMFERB
 40
0.0
  9
$CHAMFERC
 40
0.0
  9
$CHAMFERD
 40
0.0
  9
$SKPOLY
 70
     0
  9
$TDCREATE
 40
2458260.593227546
  9
$TDUCREATE
 40
2458260.218227546
  9
$TDUPDATE
 40
2458268.601971285
  9
$TDUUPDATE
 40
2458268.226971285
  9
$TDINDWG
 40
0.002649456
  9
$TDUSRTIMER
 40
0.0012826505
  9
$USRTIMER
 70
     1
  9
$ANGBASE
 50
0.0
  9
$ANGDIR
 70
     0
  9
$PDMODE
 70
     0
  9
$PDSIZE
 40
-1.0
  9
$PLINEWID
 40
0.0
  9
$SPLFRAME
 70
     0
  9
$SPLINETYPE
 70
     6
  9
$SPLINESEGS
 70
     8
  9
$HANDSEED
  5
1ED
  9
$SURFTAB1
 70
     6
  9
$SURFTAB2
 70
     6
  9
$SURFTYPE
 70
     6
  9
$SURFU
 70
     6
  9
$SURFV
 70
     6
  9
$UCSBASE
  2

  9
$UCSNAME
  2

  9
$UCSORG
 10
0.0
 20
0.0
 30
0.0
  9
$UCSXDIR
 10
1.0
 20
0.0
 30
0.0
  9
$UCSYDIR
 10
0.0
 20
1.0
 30
0.0
  9
$UCSORTHOREF
  2

  9
$UCSORTHOVIEW
 70
     0
  9
$UCSORGTOP
 10
0.0
 20
0.0
 30
0.0
  9
$UCSORGBOTTOM
 10
0.0
 20
0.0
 30
0.0
  9
$UCSORGLEFT
 10
0.0
 20
0.0
 30
0.0
  9
$UCSORGRIGHT
 10
0.0
 20
0.0
 30
0.0
  9
$UCSORGFRONT
 10
0.0
 20
0.0
 30
0.0
  9
$UCSORGBACK
 10
0.0
 20
0.0
 30
0.0
  9
$PUCSBASE
  2

  9
$PUCSNAME
  2

  9
$PUCSORG
 10
0.0
 20
0.0
 30
0.0
  9
$PUCSXDIR
 10
1.0
 20
0.0
 30
0.0
  9
$PUCSYDIR
 10
0.0
 20
1.0
 30
0.0
  9
$PUCSORTHOREF
  2

  9
$PUCSORTHOVIEW
 70
     0
  9
$PUCSORGTOP
 10
0.0
 20
0.0
 30
0.0
  9
$PUCSORGBOTTOM
 10
0.0
 20
0.0
 30
0.0
  9
$PUCSORGLEFT
 10
0.0
 20
0.0
 30
0.0
  9
$PUCSORGRIGHT
 10
0.0
 20
0.0
 30
0.0
  9
$PUCSORGFRONT
 10
0.0
 20
0.0
 30
0.0
  9
$PUCSORGBACK
 10
0.0
 20
0.0
 30
0.0
  9
$USERI1
 70
     0
  9
$USERI2
 70
     0
  9
$USERI3
 70
     0
  9
$USERI4
 70
     0
  9
$USERI5
 70
     0
  9
$USERR1
 40
0.0
  9
$USERR2
 40
0.0
  9
$USERR3
 40
0.0
  9
$USERR4
 40
0.0
  9
$USERR5
 40
0.0
  9
$WORLDVIEW
 70
     1
  9
$SHADEDGE
 70
     3
  9
$SHADEDIF
 70
    70
  9
$TILEMODE
 70
     1
  9
$MAXACTVP
 70
    64
  9
$PINSBASE
 10
0.0
 20
0.0
 30
0.0
  9
$PLIMCHECK
 70
     0
  9
$PEXTMIN
 10
1.000000000000000E+20
 20
1.000000000000000E+20
 30
1.000000000000000E+20
  9
$PEXTMAX
 10
-1.000000000000000E+20
 20
-1.000000000000000E+20
 30
-1.000000000000000E+20
  9
$PLIMMIN
 10
0.0
 20
0.0
  9
$PLIMMAX
 10
0.0
 20
0.0
  9
$UNITMODE
 70
     0
  9
$VISRETAIN
 70
     1
  9
$PLINEGEN
 70
     0
  9
$PSLTSCALE
 70
     1
  9
$TREEDEPTH
 70
  3020
  9
$CMLSTYLE
  2
Standard
  9
$CMLJUST
 70
     0
  9
$CMLSCALE
 40
20.0
  9
$PROXYGRAPHICS
 70
     1
  9
$MEASUREMENT
 70
     1
  9
$CELWEIGHT
370
    -1
  9
$ENDCAPS
280
     0
  9
$JOINSTYLE
280
     0
  9
$LWDISPLAY
290
     1
  9
$INSUNITS
 70
     4
  9
$HYPERLINKBASE
  1

  9
$STYLESHEET
  1

  9
$XEDIT
290
     1
  9
$CEPSNTYPE
380
     0
  9
$PSTYLEMODE
290
     1
  9
$FINGERPRINTGUID
  2
{F24669CE-5EB7-4CF8-A344-BEA9C7FCB7E3}
  9
$VERSIONGUID
  2
{FAEB1C32-E019-11D5-929B-00C0DF256EC4}
  9
$EXTNAMES
290
     1
  9
$PSVPSCALE
 40
0.0
  9
$OLESTARTUP
290
     0
  0
ENDSEC
  0
SECTION
  2
CLASSES
  0
CLASS
  1
ACDBDICTIONARYWDFLT
  2
AcDbDictionaryWithDefault
  3
ObjectDBX Classes
 90
        0
280
     0
281
     0
  0
CLASS
  1
VISUALSTYLE
  2
AcDbVisualStyle
  3
ObjectDBX Classes
 90
     4095
280
     0
281
     0
  0
CLASS
  1
MATERIAL
  2
AcDbMaterial
  3
ObjectDBX Classes
 90
     1153
280
     0
281
     0
  0
CLASS
  1
SCALE
  2
AcDbScale
  3
ObjectDBX Classes
 90
     1153
280
     0
281
     0
  0
CLASS
  1
SUN
  2
AcDbSun
  3
SCENEOE
 90
     1153
280
     0
281
     0
  0
CLASS
  1
ACDBPLACEHOLDER
  2
AcDbPlaceHolder
  3
ObjectDBX Classes
 90
        0
280
     0
281
     0
  0
CLASS
  1
LAYOUT
  2
AcDbLayout
  3
ObjectDBX Classes
 90
        0
280
     0
281
     0
  0
CLASS
  1
TABLESTYLE
  2
AcDbTableStyle
  3
ObjectDBX Classes
 90
     4095
280
     0
281
     0
  0
CLASS
  1
MLEADERSTYLE
  2
AcDbMLeaderStyle
  3
ACDB_MLEADERSTYLE_CLASS
 90
     4095
280
     0
281
     0
  0
CLASS
  1
DICTIONARYVAR
  2
AcDbDictionaryVar
  3
ObjectDBX Classes
 90
        0
280
     0
281
     0
  0
CLASS
  1
DIMASSOC
  2
AcDbDimAssoc
  3
"AcDbDimAssoc|Product Desc:     AcDim ARX App For Dimension|Company:          Autodesk, Inc.|WEB Address:      www.autodesk.com"
 90
        0
280
     0
281
     0
  0
ENDSEC
  0
SECTION
  2
TABLES
  0
TABLE
  2
VPORT
  5
8
330
0
100
AcDbSymbolTable
 70
     1
  0
VPORT
  5
29
330
8
100
AcDbSymbolTableRecord
100
AcDbViewportTableRecord
  2
*Active
 70
     0
 10
0.0
 20
0.0
 11
1.0
 21
1.0
 12
-23.01650887570284
 22
-2.548403694405863
 13
0.0
 23
0.0
 14
10.0
 24
10.0
 15
10.0
 25
10.0
 16
0.0
 26
0.0
 36
1.0
 17
0.0
 27
0.0
 37
0.0
 40
96.74374353658798
 41
2.057409879839786
 42
50.0
 43
0.0
 44
0.0
 50
0.0
 51
0.0
 71
    16
 72
  2000
 73
     1
 74
     3
 75
     0
 76
     0
 77
     0
 78
     0
281
     0
 65
     1
110
0.0
120
0.0
130
0.0
111
1.0
121
0.0
131
0.0
112
0.0
122
1.0
132
0.0
 79
     0
146
0.0
  0
ENDTAB
  0
TABLE
  2
LTYPE
  5
5
330
0
100
AcDbSymbolTable
 70
     6
  0
LTYPE
  5
14
330
5
100
AcDbSymbolTableRecord
100
AcDbLinetypeTableRecord
  2
ByBlock
 70
     0
  3

 72
    65
 73
     0
 40
0.0
  0
LTYPE
  5
15
330
5
100
AcDbSymbolTableRecord
100
AcDbLinetypeTableRecord
  2
ByLayer
 70
     0
  3

 72
    65
 73
     0
 40
0.0
  0
LTYPE
  5
16
330
5
100
AcDbSymbolTableRecord
100
AcDbLinetypeTableRecord
  2
Continuous
 70
     0
  3
Solid line
 72
    65
 73
     0
 40
0.0
  0
LTYPE
  5
6A
330
5
100
AcDbSymbolTableRecord
100
AcDbLinetypeTableRecord
  2
HIDDEN
 70
     0
  3
Hidden __ __ __ __ __ __ __ __ __ __ __ __ __ __
 72
    65
 73
     2
 40
1.905
 49
1.27
 74
     0
 49
-0.635
 74
     0
  0
LTYPE
  5
6B
330
5
100
AcDbSymbolTableRecord
100
AcDbLinetypeTableRecord
  2
PHANTOM
 70
     0
  3
Phantom ______  __  __  ______  __  __  ______
 72
    65
 73
     6
 40
12.7
 49
6.35
 74
     0
 49
-1.27
 74
     0
 49
1.27
 74
     0
 49
-1.27
 74
     0
 49
1.27
 74
     0
 49
-1.27
 74
     0
  0
LTYPE
  5
6C
330
5
100
AcDbSymbolTableRecord
100
AcDbLinetypeTableRecord
  2
CENTER
 70
     0
  3
Center ____ _ ____ _ ____ _ ____ _ ____ _ ____
 72
    65
 73
     4
 40
10.16
 49
6.35
 74
     0
 49
-1.27
 74
     0
 49
1.27
 74
     0
 49
-1.27
 74
     0
  0
LTYPE
  5
6D
330
5
100
AcDbSymbolTableRecord
100
AcDbLinetypeTableRecord
  2
CENTERX2
 70
     0
  3
Center (2x) ________  __  ________  __  _____
 72
    65
 73
     4
 40
20.32
 49
12.7
 74
     0
 49
-2.54
 74
     0
 49
2.54
 74
     0
 49
-2.54
 74
     0
  0
LTYPE
  5
6E
330
5
100
AcDbSymbolTableRecord
100
AcDbLinetypeTableRecord
  2
DOT2
 70
     0
  3
Dot (.5x) ........................................
 72
    65
 73
     2
 40
0.635
 49
0.0
 74
     0
 49
-0.635
 74
     0
  0
ENDTAB
  0
TABLE
  2
LAYER
  5
2
102
{ACAD_XDICTIONARY
360
16B
102
}
330
0
100
AcDbSymbolTable
 70
    17
  0
LAYER
  5
10
330
2
100
AcDbSymbolTableRecord
100
AcDbLayerTableRecord
  2
0
 70
     0
 62
     7
  6
Continuous
370
    -3
390
F
  0
LAYER
  5
6F
330
2
100
AcDbSymbolTableRecord
100
AcDbLayerTableRecord
  2
FORMAT
 70
     0
 62
     2
  6
Continuous
370
    -3
390
F
  0
LAYER
  5
70
330
2
100
AcDbSymbolTableRecord
100
AcDbLayerTableRecord
  2
외형선
 70
     0
 62
   100
  6
Continuous
370
    30
390
F
  0
LAYER
  5
71
330
2
100
AcDbSymbolTableRecord
100
AcDbLayerTableRecord
  2
숨은선
 70
     0
 62
     2
  6
HIDDEN
370
    15
390
F
  0
LAYER
  5
72
330
2
100
AcDbSymbolTableRecord
100
AcDbLayerTableRecord
  2
중심선
 70
     0
 62
     1
  6
CENTERX2
370
    -3
390
F
  0
LAYER
  5
73
330
2
100
AcDbSymbolTableRecord
100
AcDbLayerTableRecord
  2
파단선
 70
     0
 62
     4
  6
Continuous
370
    -3
390
F
  0
LAYER
  5
74
330
2
100
AcDbSymbolTableRecord
100
AcDbLayerTableRecord
  2
해칭선
 70
     0
 62
     4
  6
Continuous
370
    -3
390
F
  0
LAYER
  5
75
330
2
100
AcDbSymbolTableRecord
100
AcDbLayerTableRecord
  2
가는실선
 70
     0
 62
     4
  6
Continuous
370
    -3
390
F
  0
LAYER
  5
76
330
2
100
AcDbSymbolTableRecord
100
AcDbLayerTableRecord
  2
치수_보조선
 70
     0
 62
     4
  6
Continuous
370
    -3
390
F
  0
LAYER
  5
77
330
2
100
AcDbSymbolTableRecord
100
AcDbLayerTableRecord
  2
치수문자_일반주서
 70
     0
 62
     7
  6
Continuous
370
    15
390
F
  0
LAYER
  5
78
330
2
100
AcDbSymbolTableRecord
100
AcDbLayerTableRecord
  2
개별주서
 70
     0
 62
   100
  6
Continuous
370
    30
390
F
  0
LAYER
  5
79
330
2
100
AcDbSymbolTableRecord
100
AcDbLayerTableRecord
  2
중간선
 70
     0
 62
     2
  6
Continuous
370
    15
390
F
  0
LAYER
  5
7A
330
2
100
AcDbSymbolTableRecord
100
AcDbLayerTableRecord
  2
윤곽선
 70
     0
 62
     3
  6
Continuous
370
    40
390
F
  0
LAYER
  5
7B
330
2
100
AcDbSymbolTableRecord
100
AcDbLayerTableRecord
  2
중심마크
 70
     0
 62
   100
  6
Continuous
370
    30
390
F
  0
LAYER
  5
7C
330
2
100
AcDbSymbolTableRecord
100
AcDbLayerTableRecord
  2
가상선
 70
     0
 62
     4
  6
PHANTOM
370
    -3
390
F
  0
LAYER
  5
7D
330
2
100
AcDbSymbolTableRecord
100
AcDbLayerTableRecord
  2
특수지정선
 70
     0
 62
     5
  6
CENTERX2
370
    60
390
F
  0
LAYER
  5
12A
330
2
100
AcDbSymbolTableRecord
100
AcDbLayerTableRecord
  2
Defpoints
 70
     0
 62
     7
  6
Continuous
290
     0
370
    -3
390
F
  0
ENDTAB
  0
TABLE
  2
STYLE
  5
3
330
0
100
AcDbSymbolTable
 70
     2
  0
STYLE
  5
11
330
3
100
AcDbSymbolTableRecord
100
AcDbTextStyleTableRecord
  2
Standard
 70
     0
 40
0.0
 41
1.0
 50
0.0
 71
     0
 42
3.5
  3
txt
  4

  0
STYLE
  5
93
330
3
100
AcDbSymbolTableRecord
100
AcDbTextStyleTableRecord
  2
SLDTEXTSTYLE0
 70
     0
 40
0.0
 41
0.75
 50
0.0
 71
     0
 42
3.5
  3
TXT
  4

  0
ENDTAB
  0
TABLE
  2
VIEW
  5
6
330
0
100
AcDbSymbolTable
 70
     0
  0
ENDTAB
  0
TABLE
  2
UCS
  5
7
330
0
100
AcDbSymbolTable
 70
     0
  0
ENDTAB
  0
TABLE
  2
APPID
  5
9
330
0
100
AcDbSymbolTable
 70
     3
  0
APPID
  5
12
330
9
100
AcDbSymbolTableRecord
100
AcDbRegAppTableRecord
  2
ACAD
 70
     0
  0
APPID
  5
131
330
9
100
AcDbSymbolTableRecord
100
AcDbRegAppTableRecord
  2
ACAD_DSTYLE_DIMRADIAL_EXTENSION
 70
     0
  0
APPID
  5
132
330
9
100
AcDbSymbolTableRecord
100
AcDbRegAppTableRecord
  2
PE_URL
 70
     0
  0
ENDTAB
  0
TABLE
  2
DIMSTYLE
  5
A
330
0
100
AcDbSymbolTable
 70
     4
100
AcDbDimStyleTable
  0
DIMSTYLE
105
27
330
A
100
AcDbSymbolTableRecord
100
AcDbDimStyleTableRecord
  2
ISO-25
 70
     0
 41
2.5
 42
0.625
 43
3.75
 44
1.25
 73
     0
 74
     0
 77
     1
 78
     8
140
2.5
141
2.5
143
0.03937007874016
147
0.625
171
     3
172
     1
178
     0
271
     2
272
     2
274
     3
278
    44
283
     0
284
     8
340
11
  0
DIMSTYLE
105
D3
330
A
100
AcDbSymbolTableRecord
100
AcDbDimStyleTableRecord
  2
SLDDIMSTYLE0
 70
     0
 41
3.302
 44
0.0
 45
0.000000001
 73
     0
 74
     0
 77
     1
 78
    12
 79
     3
140
3.5
147
0.875
172
     1
173
     1
178
     0
271
     2
272
     2
276
     2
284
    12
289
     0
340
93
  0
DIMSTYLE
105
E1
330
A
100
AcDbSymbolTableRecord
100
AcDbDimStyleTableRecord
  2
SLDDIMSTYLE1
 70
     0
 41
3.302
 44
0.0
 45
0.000000001
 73
     0
 74
     0
 77
     1
 78
    12
 79
     3
140
3.5
147
0.875
173
     1
178
     0
271
     2
272
     2
276
     2
284
    12
340
93
  0
DIMSTYLE
105
12F
102
{ACAD_REACTORS
330
E0
330
EB
330
F5
330
D2
330
1DF
102
}
330
A
100
AcDbSymbolTableRecord
100
AcDbDimStyleTableRecord
  2
SLDDIMSTYLE2
 70
     0
 41
3.302
 44
0.0
 45
0.000000001
 73
     0
 74
     0
 77
     1
 78
    12
 79
     3
140
3.5
147
0.875
172
     1
173
     1
178
     0
271
     2
272
     2
276
     2
284
    12
289
     0
340
93
  0
ENDTAB
  0
TABLE
  2
BLOCK_RECORD
  5
1
330
0
100
AcDbSymbolTable
 70
    12
  0
BLOCK_RECORD
  5
1F
330
1
100
AcDbSymbolTableRecord
100
AcDbBlockTableRecord
  2
*Model_Space
340
22
  0
BLOCK_RECORD
  5
1B
330
1
100
AcDbSymbolTableRecord
100
AcDbBlockTableRecord
  2
*Paper_Space
340
1E
  0
BLOCK_RECORD
  5
23
330
1
100
AcDbSymbolTableRecord
100
AcDbBlockTableRecord
  2
*Paper_Space0
340
26
  0
BLOCK_RECORD
  5
7E
330
1
100
AcDbSymbolTableRecord
100
AcDbBlockTableRecord
  2
블럭10
340
0
102
{BLKREFS
331
CA
102
}
  0
BLOCK_RECORD
  5
D4
330
1
100
AcDbSymbolTableRecord
100
AcDbBlockTableRecord
  2
_D
340
0
  0
BLOCK_RECORD
  5
E2
330
1
100
AcDbSymbolTableRecord
100
AcDbBlockTableRecord
  2
_D_1
340
0
  0
BLOCK_RECORD
  5
EC
330
1
100
AcDbSymbolTableRecord
100
AcDbBlockTableRecord
  2
_D_2
340
0
  0
BLOCK_RECORD
  5
F6
330
1
100
AcDbSymbolTableRecord
100
AcDbBlockTableRecord
  2
_D_3
340
0
  0
BLOCK_RECORD
  5
100
330
1
100
AcDbSymbolTableRecord
100
AcDbBlockTableRecord
  2
SW_DOWELSYMBOL_0
340
0
102
{BLKREFS
331
106
102
}
  0
BLOCK_RECORD
  5
162
330
1
100
AcDbSymbolTableRecord
100
AcDbBlockTableRecord
  2
*D7
340
0
  0
BLOCK_RECORD
  5
16F
330
1
100
AcDbSymbolTableRecord
100
AcDbBlockTableRecord
  2
*D8
340
0
  0
BLOCK_RECORD
  5
181
330
1
100
AcDbSymbolTableRecord
100
AcDbBlockTableRecord
  2
*D9
340
0
  0
BLOCK_RECORD
  5
190
330
1
100
AcDbSymbolTableRecord
100
AcDbBlockTableRecord
  2
*D10
340
0
  0
BLOCK_RECORD
  5
1E2
330
1
100
AcDbSymbolTableRecord
100
AcDbBlockTableRecord
  2
*D11
340
0
  0
ENDTAB
  0
ENDSEC
  0
SECTION
  2
BLOCKS
  0
BLOCK
  5
20
330
1F
100
AcDbEntity
  8
0
100
AcDbBlockBegin
  2
*Model_Space
 70
     0
 10
0.0
 20
0.0
 30
0.0
  3
*Model_Space
  1

  0
ENDBLK
  5
21
330
1F
100
AcDbEntity
  8
0
100
AcDbBlockEnd
  0
BLOCK
  5
1C
330
1B
100
AcDbEntity
 67
     1
  8
0
100
AcDbBlockBegin
  2
*Paper_Space
 70
     0
 10
0.0
 20
0.0
 30
0.0
  3
*Paper_Space
  1

  0
ENDBLK
  5
1D
330
1B
100
AcDbEntity
 67
     1
  8
0
100
AcDbBlockEnd
  0
BLOCK
  5
24
330
23
100
AcDbEntity
  8
0
100
AcDbBlockBegin
  2
*Paper_Space0
 70
     0
 10
0.0
 20
0.0
 30
0.0
  3
*Paper_Space0
  1

  0
ENDBLK
  5
25
330
23
100
AcDbEntity
  8
0
100
AcDbBlockEnd
  0
BLOCK
  5
7F
330
7E
100
AcDbEntity
  8
0
100
AcDbBlockBegin
  2
블럭10
 70
     2
 10
0.0
 20
0.0
 30
0.0
  3
블럭10
  1

  0
ELLIPSE
  5
81
330
7E
100
AcDbEntity
  8
중심선
100
AcDbEllipse
 10
20.54032771741204
 20
12.0471743016438
 30
0.0
 11
6.600054785286829
 21
-1.261213355974178E-13
 31
0.0
210
0.0
220
0.0
230
1.0
 40
0.636358354079598
 41
0.9219305317359503
 42
6.513795318482858
  0
ELLIPSE
  5
82
330
7E
100
AcDbEntity
  8
중심선
100
AcDbEllipse
 10
20.54032771746488
 20
12.04717430159265
 30
0.0
 11
3.960054785062283
 21
1.540847449632565E-10
 31
0.0
210
0.0
220
0.0
230
1.0
 40
0.3939339440162632
 41
1.131841032648279
 42
5.62031148352944
  0
LINE
  5
83
330
7E
100
AcDbEntity
  8
중심선
100
AcDbLine
 10
2.268634060543552
 20
16.24717430164393
 30
0.0
 11
5.714909304380834
 21
16.24717430164393
 31
0.0
  0
LINE
  5
84
330
7E
100
AcDbEntity
  8
중심선
100
AcDbLine
 10
5.245725140726316
 20
7.84717430164391
 30
0.0
 11
8.692000384563599
 21
7.84717430164391
 31
0.0
  0
LINE
  5
85
330
7E
100
AcDbEntity
  8
중심선
100
AcDbLine
 10
15.74043728645272
 20
16.24717430164393
 30
0.0
 11
8.692000384563599
 21
7.84717430164391
 31
0.0
  0
LINE
  5
86
330
7E
100
AcDbEntity
  8
중심선
100
AcDbLine
 10
0.1404042013395286
 20
13.71084872107135
 30
0.0
 11
3.58671253028996
 21
13.71088815037384
 31
0.0
  0
LINE
  5
87
330
7E
100
AcDbEntity
  8
중심선
100
AcDbLine
 10
2.750260043222114
 20
10.84717430164391
 30
0.0
 11
6.196535287059397
 21
10.84717430164391
 31
0.0
  0
LINE
  5
88
330
7E
100
AcDbEntity
  8
중심선
100
AcDbLine
 10
12.29416204261559
 20
16.24717430164393
 30
0.0
 11
5.245725140726316
 21
7.84717430164391
 31
0.0
  0
LINE
  5
89
330
7E
100
AcDbEntity
  8
중심선
100
AcDbLine
 10
10.72767329541681
 20
16.24717430164393
 30
0.0
 11
6.196535287059397
 21
10.84717430164391
 31
0.0
  0
LINE
  5
8A
330
7E
100
AcDbEntity
  8
중심선
100
AcDbLine
 10
7.28139805157953
 20
16.24717430164393
 30
0.0
 11
2.750260043222114
 21
10.84717430164391
 31
0.0
  0
LINE
  5
8B
330
7E
100
AcDbEntity
  8
중심선
100
AcDbLine
 10
5.714909304380834
 20
16.24717430164393
 30
0.0
 11
3.58671253028996
 21
13.71088815037384
 31
0.0
  0
LINE
  5
8C
330
7E
100
AcDbEntity
  8
중심선
100
AcDbLine
 10
2.268634060543552
 20
16.24717430164393
 30
0.0
 11
0.1404042013395286
 21
13.71084872107135
 31
0.0
  0
LINE
  5
8D
330
7E
100
AcDbEntity
  8
중심선
100
AcDbLine
 10
7.28139805157953
 20
16.24717430164393
 30
0.0
 11
10.72767329541681
 21
16.24717430164393
 31
0.0
  0
LINE
  5
8E
330
7E
100
AcDbEntity
  8
중심선
100
AcDbLine
 10
12.29416204261559
 20
16.24717430164393
 30
0.0
 11
15.74043728645272
 21
16.24717430164393
 31
0.0
  0
LINE
  5
8F
330
7E
100
AcDbEntity
  8
중심선
100
AcDbLine
 10
19.22036997980202
 20
11.08717430171403
 30
0.0
 11
23.66174974927406
 21
11.08717430171406
 31
0.0
  0
LINE
  5
90
330
7E
100
AcDbEntity
  8
중심선
100
AcDbLine
 10
19.22039502424796
 20
13.00717430171391
 30
0.0
 11
19.22036997980202
 21
11.08717430171403
 31
0.0
  0
LINE
  5
91
330
7E
100
AcDbEntity
  8
중심선
100
AcDbLine
 10
19.22039502424796
 20
13.00717430171391
 30
0.0
 11
26.96566020931264
 21
13.00717430171391
 31
0.0
  0
LINE
  5
92
330
7E
100
AcDbEntity
  8
중심선
100
AcDbLine
 10
22.22332737316547
 20
13.45928029700563
 30
0.0
 11
24.52862924686651
 21
15.39360700705356
 31
0.0
  0
ATTDEF
  5
94
330
7E
100
AcDbEntity
  8
FORMAT
 62
     2
100
AcDbText
 10
-16.62882859820096
 20
2.075366912832191
 30
0.0
 40
4.233333333333333
  1
SEMD9920010E [ 2 FLUTE ]
 41
0.75
  7
SLDTEXTSTYLE0
 11
-16.62882859820096
 21
-0.0412997538344756
 31
0.0
100
AcDbAttributeDefinition
  3

  2
AUTOATTR0
 70
     0
 74
     1
  0
ENDBLK
  5
80
330
7E
100
AcDbEntity
  8
0
100
AcDbBlockEnd
  0
BLOCK
  5
D5
330
D4
100
AcDbEntity
  8
0
100
AcDbBlockBegin
  2
_D
 70
     0
 10
0.0
 20
0.0
 30
0.0
  3
_D
  1

  0
LINE
  5
D7
330
D4
100
AcDbEntity
  8
치수문자_일반주서
 62
     0
370
    -2
100
AcDbLine
 10
50.06250000000003
 20
-10.0
 30
0.0
 11
65.00000000000009
 21
-9.999999999999943
 31
0.0
  0
LINE
  5
D8
330
D4
100
AcDbEntity
  8
치수문자_일반주서
 62
     0
370
    -2
100
AcDbLine
 10
50.06250000000003
 20
10.0
 30
0.0
 11
65.00000000000001
 21
10.00000000000006
 31
0.0
  0
LINE
  5
D9
330
D4
100
AcDbEntity
  8
치수문자_일반주서
 62
     0
370
    -2
100
AcDbLine
 10
65.00000000000001
 20
10.00000000000006
 30
0.0
 11
64.99999999999996
 21
27.25000000000016
 31
0.0
  0
LINE
  5
DA
330
D4
100
AcDbEntity
  8
치수문자_일반주서
 62
     0
370
    -2
100
AcDbLine
 10
65.00000000000009
 20
-9.999999999999943
 30
0.0
 11
65.00000000000001
 21
10.00000000000006
 31
0.0
  0
LINE
  5
DB
330
D4
100
AcDbEntity
  8
치수문자_일반주서
 62
     0
370
    -2
100
AcDbLine
 10
65.0000000000001
 20
-13.99999999999994
 30
0.0
 11
65.00000000000011
 21
-17.99999999999994
 31
0.0
  0
LINE
  5
DC
330
D4
100
AcDbEntity
  8
치수문자_일반주서
 62
     0
370
    -2
100
AcDbLine
 10
65.0
 20
14.00000000000006
 30
0.0
 11
64.99999999999999
 21
18.00000000000006
 31
0.0
  0
SOLID
  5
DD
330
D4
100
AcDbEntity
  8
치수문자_일반주서
 62
     0
100
AcDbTrace
 10
65.66666666666677
 20
-13.99999999999994
 30
0.0
 11
64.33333333333343
 21
-13.99999999999994
 31
0.0
 12
65.00000000000009
 22
-9.999999999999943
 32
0.0
 13
65.00000000000009
 23
-9.999999999999943
 33
0.0
  0
SOLID
  5
DE
330
D4
100
AcDbEntity
  8
치수문자_일반주서
 62
     0
100
AcDbTrace
 10
64.33333333333333
 20
14.00000000000006
 30
0.0
 11
65.66666666666667
 21
14.00000000000006
 31
0.0
 12
65.00000000000001
 22
10.00000000000006
 32
0.0
 13
65.00000000000001
 23
10.00000000000006
 33
0.0
  0
MTEXT
  5
DF
330
D4
100
AcDbEntity
  8
치수문자_일반주서
 62
     0
100
AcDbMText
 10
60.12499999999997
 20
22.62500000000014
 30
0.0
 40
4.0
 41
0.0
 71
     2
 72
     1
  1
\A1;%%c20
  7
SLDTEXTSTYLE0
 11
-3.552713678800500E-15
 21
1.0
 31
0.0
 73
     1
 44
1.0
  0
POINT
  5
1B1
330
D4
100
AcDbEntity
  8
Defpoints
 62
     0
100
AcDbPoint
 10
50.00000000000003
 20
-10.0
 30
0.0
  0
POINT
  5
1B2
330
D4
100
AcDbEntity
  8
Defpoints
 62
     0
100
AcDbPoint
 10
50.00000000000003
 20
10.0
 30
0.0
  0
POINT
  5
1B3
330
D4
100
AcDbEntity
  8
Defpoints
 62
     0
100
AcDbPoint
 10
65.00000000000001
 20
10.00000000000006
 30
0.0
  0
ENDBLK
  5
D6
330
D4
100
AcDbEntity
  8
0
100
AcDbBlockEnd
  0
BLOCK
  5
E3
330
E2
100
AcDbEntity
  8
0
100
AcDbBlockBegin
  2
_D_1
 70
     0
 10
0.0
 20
0.0
 30
0.0
  3
_D_1
  1

  0
LINE
  5
E5
330
E2
100
AcDbEntity
  8
치수문자_일반주서
 62
     0
370
    -2
100
AcDbLine
 10
50.00000000000001
 20
10.0625
 30
0.0
 11
50.00000000000001
 21
25.0
 31
0.0
  0
LINE
  5
E6
330
E2
100
AcDbEntity
  8
치수문자_일반주서
 62
     0
370
    -2
100
AcDbLine
 10
12.00000000000003
 20
8.161760266415786
 30
0.0
 11
12.00000000000003
 21
25.0
 31
0.0
  0
LINE
  5
E7
330
E2
100
AcDbEntity
  8
치수문자_일반주서
 62
     0
370
    -2
100
AcDbLine
 10
46.00000000000001
 20
25.0
 30
0.0
 11
16.00000000000003
 21
25.0
 31
0.0
  0
SOLID
  5
E8
330
E2
100
AcDbEntity
  8
치수문자_일반주서
 62
     0
100
AcDbTrace
 10
46.00000000000001
 20
24.33333333333333
 30
0.0
 11
46.00000000000001
 21
25.66666666666667
 31
0.0
 12
50.00000000000001
 22
25.0
 32
0.0
 13
50.00000000000001
 23
25.0
 33
0.0
  0
SOLID
  5
E9
330
E2
100
AcDbEntity
  8
치수문자_일반주서
 62
     0
100
AcDbTrace
 10
16.00000000000003
 20
25.66666666666667
 30
0.0
 11
16.00000000000003
 21
24.33333333333333
 31
0.0
 12
12.00000000000003
 22
25.0
 32
0.0
 13
12.00000000000003
 23
25.0
 33
0.0
  0
MTEXT
  5
EA
330
E2
100
AcDbEntity
  8
치수문자_일반주서
 62
     0
100
AcDbMText
 10
31.00000000000003
 20
29.875
 30
0.0
 40
4.0
 41
0.0
 71
     2
 72
     1
  1
\A1;38
  7
SLDTEXTSTYLE0
 73
     1
 44
1.0
  0
POINT
  5
199
330
E2
100
AcDbEntity
  8
Defpoints
 62
     0
100
AcDbPoint
 10
50.00000000000001
 20
10.0
 30
0.0
  0
POINT
  5
19A
330
E2
100
AcDbEntity
  8
Defpoints
 62
     0
100
AcDbPoint
 10
12.00000000000003
 20
8.099260266415786
 30
0.0
  0
POINT
  5
19B
330
E2
100
AcDbEntity
  8
Defpoints
 62
     0
100
AcDbPoint
 10
12.00000000000003
 20
25.0
 30
0.0
  0
ENDBLK
  5
E4
330
E2
100
AcDbEntity
  8
0
100
AcDbBlockEnd
  0
BLOCK
  5
ED
330
EC
100
AcDbEntity
  8
0
100
AcDbBlockBegin
  2
_D_2
 70
     0
 10
0.0
 20
0.0
 30
0.0
  3
_D_2
  1

  0
LINE
  5
EF
330
EC
100
AcDbEntity
  8
치수문자_일반주서
 62
     0
370
    -2
100
AcDbLine
 10
50.00000000000001
 20
10.0625
 30
0.0
 11
50.00000000000003
 21
40.00000000000001
 31
0.0
  0
LINE
  5
F0
330
EC
100
AcDbEntity
  8
치수문자_일반주서
 62
     0
370
    -2
100
AcDbLine
 10
-99.99999999999997
 20
9.062499999999993
 30
0.0
 11
-99.99999999999996
 21
40.00000000000001
 31
0.0
  0
LINE
  5
F1
330
EC
100
AcDbEntity
  8
치수문자_일반주서
 62
     0
370
    -2
100
AcDbLine
 10
46.00000000000003
 20
40.00000000000001
 30
0.0
 11
-95.99999999999996
 21
40.00000000000001
 31
0.0
  0
SOLID
  5
F2
330
EC
100
AcDbEntity
  8
치수문자_일반주서
 62
     0
100
AcDbTrace
 10
46.00000000000003
 20
39.33333333333334
 30
0.0
 11
46.00000000000003
 21
40.66666666666667
 31
0.0
 12
50.00000000000003
 22
40.00000000000001
 32
0.0
 13
50.00000000000003
 23
40.00000000000001
 33
0.0
  0
SOLID
  5
F3
330
EC
100
AcDbEntity
  8
치수문자_일반주서
 62
     0
100
AcDbTrace
 10
-95.99999999999996
 20
40.66666666666667
 30
0.0
 11
-95.99999999999996
 21
39.33333333333334
 31
0.0
 12
-99.99999999999996
 22
40.00000000000001
 32
0.0
 13
-99.99999999999996
 23
40.00000000000001
 33
0.0
  0
MTEXT
  5
F4
330
EC
100
AcDbEntity
  8
치수문자_일반주서
 62
     0
100
AcDbMText
 10
-24.99999999999997
 20
44.87500000000001
 30
0.0
 40
4.0
 41
0.0
 71
     2
 72
     1
  1
\A1;150
  7
SLDTEXTSTYLE0
 73
     1
 44
1.0
  0
POINT
  5
19C
330
EC
100
AcDbEntity
  8
Defpoints
 62
     0
100
AcDbPoint
 10
50.00000000000001
 20
10.0
 30
0.0
  0
POINT
  5
19D
330
EC
100
AcDbEntity
  8
Defpoints
 62
     0
100
AcDbPoint
 10
-99.99999999999997
 20
8.999999999999993
 30
0.0
  0
POINT
  5
19E
330
EC
100
AcDbEntity
  8
Defpoints
 62
     0
100
AcDbPoint
 10
-99.99999999999997
 20
40.00000000000001
 30
0.0
  0
ENDBLK
  5
EE
330
EC
100
AcDbEntity
  8
0
100
AcDbBlockEnd
  0
BLOCK
  5
F7
330
F6
100
AcDbEntity
  8
0
100
AcDbBlockBegin
  2
_D_3
 70
     0
 10
0.0
 20
0.0
 30
0.0
  3
_D_3
  1

  0
LINE
  5
F9
330
F6
100
AcDbEntity
  8
치수문자_일반주서
 62
     0
370
    -2
100
AcDbLine
 10
8.887379773513226
 20
-9.999999999999996
 30
0.0
 11
-114.9999999999999
 21
-10.00000000000046
 31
0.0
  0
LINE
  5
FA
330
F6
100
AcDbEntity
  8
치수문자_일반주서
 62
     0
370
    -2
100
AcDbLine
 10
8.887379773513224
 20
10.0
 30
0.0
 11
-115.0
 21
9.99999999999954
 31
0.0
  0
LINE
  5
FB
330
F6
100
AcDbEntity
  8
치수문자_일반주서
 62
     0
370
    -2
100
AcDbLine
 10
-115.0
 20
9.99999999999954
 30
0.0
 11
-115.0
 21
27.24999999999957
 31
0.0
  0
LINE
  5
FC
330
F6
100
AcDbEntity
  8
치수문자_일반주서
 62
     0
370
    -2
100
AcDbLine
 10
-114.9999999999999
 20
-10.00000000000046
 30
0.0
 11
-115.0
 21
9.99999999999954
 31
0.0
  0
LINE
  5
FD
330
F6
100
AcDbEntity
  8
치수문자_일반주서
 62
     0
370
    -2
100
AcDbLine
 10
-114.9999999999999
 20
-14.00000000000046
 30
0.0
 11
-114.9999999999999
 21
-18.00000000000046
 31
0.0
  0
LINE
  5
FE
330
F6
100
AcDbEntity
  8
치수문자_일반주서
 62
     0
370
    -2
100
AcDbLine
 10
-115.0
 20
13.99999999999954
 30
0.0
 11
-115.0
 21
17.99999999999954
 31
0.0
  0
SOLID
  5
FF
330
F6
100
AcDbEntity
  8
치수문자_일반주서
 62
     0
100
AcDbTrace
 10
-114.3333333333332
 20
-14.00000000000046
 30
0.0
 11
-115.6666666666666
 21
-14.00000000000046
 31
0.0
 12
-114.9999999999999
 22
-10.00000000000046
 32
0.0
 13
-114.9999999999999
 23
-10.00000000000046
 33
0.0
  0
SOLID
  5
19F
330
F6
100
AcDbEntity
  8
치수문자_일반주서
 62
     0
100
AcDbTrace
 10
-115.6666666666667
 20
13.99999999999954
 30
0.0
 11
-114.3333333333333
 21
13.99999999999954
 31
0.0
 12
-115.0
 22
9.99999999999954
 32
0.0
 13
-115.0
 23
9.99999999999954
 33
0.0
  0
MTEXT
  5
1A0
330
F6
100
AcDbEntity
  8
치수문자_일반주서
 62
     0
100
AcDbMText
 10
-119.875
 20
22.62499999999955
 30
0.0
 40
4.0
 41
0.0
 71
     2
 72
     1
  1
\A1;%%c20
  7
SLDTEXTSTYLE0
 11
-3.552713678800501E-15
 21
1.0
 31
0.0
 73
     1
 44
1.0
  0
POINT
  5
1A7
330
F6
100
AcDbEntity
  8
Defpoints
 62
     0
100
AcDbPoint
 10
8.949879773513226
 20
-9.999999999999996
 30
0.0
  0
POINT
  5
1A8
330
F6
100
AcDbEntity
  8
Defpoints
 62
     0
100
AcDbPoint
 10
8.949879773513224
 20
10.0
 30
0.0
  0
POINT
  5
1A9
330
F6
100
AcDbEntity
  8
Defpoints
 62
     0
100
AcDbPoint
 10
-115.0
 20
9.99999999999954
 30
0.0
  0
ENDBLK
  5
F8
330
F6
100
AcDbEntity
  8
0
100
AcDbBlockEnd
  0
BLOCK
  5
101
330
100
100
AcDbEntity
  8
0
100
AcDbBlockBegin
  2
SW_DOWELSYMBOL_0
 70
     0
 10
0.0
 20
0.0
 30
0.0
  3
SW_DOWELSYMBOL_0
  1

  0
CIRCLE
  5
103
330
100
100
AcDbEntity
  8
외형선
 62
     0
100
AcDbCircle
 10
0.0
 20
0.0
 30
0.0
 40
3.000000000000001
  0
HATCH
  5
104
330
100
100
AcDbEntity
  8
0
  6
Continuous
 62
     0
370
    30
100
AcDbHatch
 10
0.0
 20
0.0
 30
0.0
210
0.0
220
0.0
230
1.0
  2
SOLID
 70
     1
 71
     0
 91
        1
 92
        0
 93
        3
 72
     2
 10
-0.0000000000000069
 20
-0.0000000000000035
 40
3.000000000000001
 50
0.0
 51
90.0
 73
     1
 72
     1
 10
-0.0000000000000069
 20
2.999999999999998
 11
-0.0000000000000069
 21
-0.0000000000000036
 72
     1
 10
-0.0000000000000069
 20
-0.0000000000000035
 11
2.999999999999994
 21
-0.0000000000000035
 97
        0
 75
     0
 76
     1
 98
        1
 10
0.0
 20
0.0
  0
HATCH
  5
105
330
100
100
AcDbEntity
  8
0
  6
Continuous
 62
     0
370
    30
100
AcDbHatch
 10
0.0
 20
0.0
 30
0.0
210
0.0
220
0.0
230
1.0
  2
SOLID
 70
     1
 71
     0
 91
        1
 92
        0
 93
        3
 72
     2
 10
-0.0000000000000069
 20
-0.0000000000000035
 40
3.000000000000001
 50
180.0
 51
270.0000000000007
 73
     1
 72
     1
 10
-0.0000000000000069
 20
-3.000000000000005
 11
-0.0000000000000069
 21
-0.0000000000000036
 72
     1
 10
-0.0000000000000069
 20
-0.0000000000000035
 11
-3.000000000000008
 21
-0.0000000000000035
 97
        0
 75
     0
 76
     1
 98
        1
 10
0.0
 20
0.0
  0
ENDBLK
  5
102
330
100
100
AcDbEntity
  8
0
100
AcDbBlockEnd
  0
BLOCK
  5
163
330
162
100
AcDbEntity
  8
0
100
AcDbBlockBegin
  2
*D7
 70
     1
 10
0.0
 20
0.0
 30
0.0
  3
*D7
  1

  0
LINE
  5
164
330
162
100
AcDbEntity
  8
치수문자_일반주서
 62
     0
370
    -2
100
AcDbLine
 10
3.186440170087446
 20
22.82809278780842
 30
0.0
 11
22.06469775827815
 21
-0.0000000000000031
 31
0.0
  0
MTEXT
  5
165
330
162
100
AcDbEntity
  8
치수문자_일반주서
 62
     0
100
AcDbMText
 10
21.01414545688424
 20
5.781659784355693
 30
0.0
 40
4.0
 41
0.0
 71
     5
 72
     1
  1
\A1;R0.5
  7
SLDTEXTSTYLE0
 11
0.6372880340174896
 21
-0.7706256949376417
 31
0.0
 73
     1
 44
1.0
  0
LINE
  5
166
330
162
100
AcDbEntity
  8
치수문자_일반주서
 62
     0
370
    -2
100
AcDbLine
 10
0.0
 20
26.68122126249663
 30
0.0
 11
0.6372880340174873
 21
25.91059556755899
 31
0.0
  0
SOLID
  5
167
330
162
100
AcDbEntity
  8
치수문자_일반주서
 62
     0
100
AcDbTrace
 10
3.700190633379207
 20
23.25295147715342
 30
0.0
 11
2.672689706795684
 21
22.40323409846343
 31
0.0
 12
0.6372880340174873
 22
25.91059556755899
 32
0.0
 13
0.6372880340174873
 23
25.91059556755899
 33
0.0
  0
POINT
  5
168
330
162
100
AcDbEntity
  8
Defpoints
 62
     0
100
AcDbPoint
 10
0.6372880340174873
 20
25.91059556755899
 30
0.0
  0
POINT
  5
169
330
162
100
AcDbEntity
  8
Defpoints
 62
     0
100
AcDbPoint
 10
0.0
 20
26.68122126249663
 30
0.0
  0
ENDBLK
  5
16A
330
162
100
AcDbEntity
  8
0
100
AcDbBlockEnd
  0
BLOCK
  5
170
330
16F
100
AcDbEntity
  8
0
100
AcDbBlockBegin
  2
*D8
 70
     1
 10
0.0
 20
0.0
 30
0.0
  3
*D8
  1

  0
LINE
  5
172
330
16F
100
AcDbEntity
  8
치수문자_일반주서
 62
     0
370
    -2
100
AcDbLine
 10
0.8577241533997082
 20
25.76236719253982
 30
0.0
 11
15.79522415339976
 21
25.76236719253988
 31
0.0
  0
LINE
  5
173
330
16F
100
AcDbEntity
  8
치수문자_일반주서
 62
     0
370
    -2
100
AcDbLine
 10
0.8577241533997082
 20
41.76236719253982
 30
0.0
 11
15.7952241533997
 21
41.76236719253988
 31
0.0
  0
LINE
  5
174
330
16F
100
AcDbEntity
  8
치수문자_일반주서
 62
     0
370
    -2
100
AcDbLine
 10
15.7952241533997
 20
41.76236719253988
 30
0.0
 11
15.79522415339964
 21
58.51236719253997
 31
0.0
  0
LINE
  5
175
330
16F
100
AcDbEntity
  8
치수문자_일반주서
 62
     0
370
    -2
100
AcDbLine
 10
15.79522415339976
 20
25.76236719253988
 30
0.0
 11
15.7952241533997
 21
41.76236719253988
 31
0.0
  0
LINE
  5
176
330
16F
100
AcDbEntity
  8
치수문자_일반주서
 62
     0
370
    -2
100
AcDbLine
 10
15.79522415339977
 20
21.76236719253988
 30
0.0
 11
15.79522415339978
 21
17.76236719253988
 31
0.0
  0
LINE
  5
177
330
16F
100
AcDbEntity
  8
치수문자_일반주서
 62
     0
370
    -2
100
AcDbLine
 10
15.79522415339969
 20
45.76236719253988
 30
0.0
 11
15.79522415339967
 21
49.76236719253988
 31
0.0
  0
SOLID
  5
178
330
16F
100
AcDbEntity
  8
치수문자_일반주서
 62
     0
100
AcDbTrace
 10
16.46189082006644
 20
21.76236719253988
 30
0.0
 11
15.1285574867331
 21
21.76236719253988
 31
0.0
 12
15.79522415339976
 22
25.76236719253988
 32
0.0
 13
15.79522415339976
 23
25.76236719253988
 33
0.0
  0
SOLID
  5
179
330
16F
100
AcDbEntity
  8
치수문자_일반주서
 62
     0
100
AcDbTrace
 10
15.12855748673302
 20
45.76236719253988
 30
0.0
 11
16.46189082006635
 21
45.76236719253988
 31
0.0
 12
15.7952241533997
 22
41.76236719253988
 32
0.0
 13
15.7952241533997
 23
41.76236719253988
 33
0.0
  0
MTEXT
  5
17A
330
16F
100
AcDbEntity
  8
치수문자_일반주서
 62
     0
100
AcDbMText
 10
10.92022415339966
 20
54.13736719253995
 30
0.0
 40
4.0
 41
0.0
 71
     2
 72
     1
  1
\A1;%%c16
  7
SLDTEXTSTYLE0
 11
-3.441691376337986E-15
 21
1.0
 31
0.0
 73
     1
 44
1.0
  0
POINT
  5
17B
330
16F
100
AcDbEntity
  8
Defpoints
 62
     0
100
AcDbPoint
 10
0.7952241533997082
 20
25.76236719253982
 30
0.0
  0
POINT
  5
17C
330
16F
100
AcDbEntity
  8
Defpoints
 62
     0
100
AcDbPoint
 10
0.7952241533997082
 20
41.76236719253982
 30
0.0
  0
POINT
  5
17D
330
16F
100
AcDbEntity
  8
Defpoints
 62
     0
100
AcDbPoint
 10
15.7952241533997
 20
41.76236719253988
 30
0.0
  0
ENDBLK
  5
171
330
16F
100
AcDbEntity
  8
0
100
AcDbBlockEnd
  0
BLOCK
  5
182
330
181
100
AcDbEntity
  8
0
100
AcDbBlockBegin
  2
*D9
 70
     1
 10
0.0
 20
0.0
 30
0.0
  3
*D9
  1

  0
LINE
  5
184
330
181
100
AcDbEntity
  8
치수문자_일반주서
 62
     0
370
    -2
100
AcDbLine
 10
56.38663175056525
 20
28.0436609521273
 30
0.0
 11
71.3241317505653
 21
28.04366095212736
 31
0.0
  0
LINE
  5
185
330
181
100
AcDbEntity
  8
치수문자_일반주서
 62
     0
370
    -2
100
AcDbLine
 10
56.38663175056525
 20
44.0436609521273
 30
0.0
 11
71.32413175056524
 21
44.04366095212735
 31
0.0
  0
LINE
  5
186
330
181
100
AcDbEntity
  8
치수문자_일반주서
 62
     0
370
    -2
100
AcDbLine
 10
71.32413175056524
 20
44.04366095212735
 30
0.0
 11
71.32413175056519
 21
60.79366095212745
 31
0.0
  0
LINE
  5
187
330
181
100
AcDbEntity
  8
치수문자_일반주서
 62
     0
370
    -2
100
AcDbLine
 10
71.3241317505653
 20
28.04366095212736
 30
0.0
 11
71.32413175056524
 21
44.04366095212735
 31
0.0
  0
LINE
  5
188
330
181
100
AcDbEntity
  8
치수문자_일반주서
 62
     0
370
    -2
100
AcDbLine
 10
71.32413175056531
 20
24.04366095212736
 30
0.0
 11
71.32413175056533
 21
20.04366095212736
 31
0.0
  0
LINE
  5
189
330
181
100
AcDbEntity
  8
치수문자_일반주서
 62
     0
370
    -2
100
AcDbLine
 10
71.32413175056523
 20
48.04366095212735
 30
0.0
 11
71.32413175056521
 21
52.04366095212735
 31
0.0
  0
SOLID
  5
18A
330
181
100
AcDbEntity
  8
치수문자_일반주서
 62
     0
100
AcDbTrace
 10
71.99079841723199
 20
24.04366095212736
 30
0.0
 11
70.65746508389864
 21
24.04366095212735
 31
0.0
 12
71.3241317505653
 22
28.04366095212736
 32
0.0
 13
71.3241317505653
 23
28.04366095212736
 33
0.0
  0
SOLID
  5
18B
330
181
100
AcDbEntity
  8
치수문자_일반주서
 62
     0
100
AcDbTrace
 10
70.65746508389856
 20
48.04366095212735
 30
0.0
 11
71.9907984172319
 21
48.04366095212735
 31
0.0
 12
71.32413175056524
 22
44.04366095212735
 32
0.0
 13
71.32413175056524
 23
44.04366095212735
 33
0.0
  0
MTEXT
  5
18C
330
181
100
AcDbEntity
  8
치수문자_일반주서
 62
     0
100
AcDbMText
 10
66.4491317505652
 20
56.41866095212743
 30
0.0
 40
4.0
 41
0.0
 71
     2
 72
     1
  1
\A1;%%c16
  7
SLDTEXTSTYLE0
 11
-3.552713678800502E-15
 21
1.0
 31
0.0
 73
     1
 44
1.0
  0
POINT
  5
18D
330
181
100
AcDbEntity
  8
Defpoints
 62
     0
100
AcDbPoint
 10
56.32413175056525
 20
28.0436609521273
 30
0.0
  0
POINT
  5
18E
330
181
100
AcDbEntity
  8
Defpoints
 62
     0
100
AcDbPoint
 10
56.32413175056525
 20
44.0436609521273
 30
0.0
  0
POINT
  5
18F
330
181
100
AcDbEntity
  8
Defpoints
 62
     0
100
AcDbPoint
 10
71.32413175056524
 20
44.04366095212735
 30
0.0
  0
ENDBLK
  5
183
330
181
100
AcDbEntity
  8
0
100
AcDbBlockEnd
  0
BLOCK
  5
191
330
190
100
AcDbEntity
  8
0
100
AcDbBlockBegin
  2
*D10
 70
     1
 10
0.0
 20
0.0
 30
0.0
  3
*D10
  1

  0
LINE
  5
193
330
190
100
AcDbEntity
  8
치수문자_일반주서
 62
     0
370
    -2
100
AcDbLine
 10
83.72867391180083
 20
-12.79016447200333
 30
0.0
 11
101.1730334234522
 21
-33.88434944620207
 31
0.0
  0
MTEXT
  5
194
330
190
100
AcDbEntity
  8
치수문자_일반주서
 62
     0
100
AcDbMText
 10
101.5563791985976
 20
-29.83659747545607
 30
0.0
 40
4.0
 41
0.0
 71
     5
 72
     1
  1
\A1;R1
  7
SLDTEXTSTYLE0
 11
0.6372880340174896
 21
-0.7706256949376417
 31
0.0
 73
     1
 44
1.0
  0
LINE
  5
195
330
190
100
AcDbEntity
  8
치수문자_일반주서
 62
     0
370
    -2
100
AcDbLine
 10
80.54223374171337
 20
-8.937035997315128
 30
0.0
 11
81.17952177573086
 21
-9.707661692252767
 31
0.0
  0
SOLID
  5
196
330
190
100
AcDbEntity
  8
치수문자_일반주서
 62
     0
100
AcDbTrace
 10
84.24242437509258
 20
-12.36530578265834
 30
0.0
 11
83.21492344850907
 21
-13.21502316134833
 31
0.0
 12
81.17952177573086
 22
-9.707661692252767
 32
0.0
 13
81.17952177573086
 23
-9.707661692252767
 33
0.0
  0
POINT
  5
197
330
190
100
AcDbEntity
  8
Defpoints
 62
     0
100
AcDbPoint
 10
81.17952177573086
 20
-9.707661692252767
 30
0.0
  0
POINT
  5
198
330
190
100
AcDbEntity
  8
Defpoints
 62
     0
100
AcDbPoint
 10
80.54223374171337
 20
-8.937035997315128
 30
0.0
  0
ENDBLK
  5
192
330
190
100
AcDbEntity
  8
0
100
AcDbBlockEnd
  0
BLOCK
  5
1E3
330
1E2
100
AcDbEntity
  8
0
100
AcDbBlockBegin
  2
*D11
 70
     1
 10
0.0
 20
0.0
 30
0.0
  3
*D11
  1

  0
LINE
  5
1E5
330
1E2
100
AcDbEntity
  8
치수문자_일반주서
 62
     0
370
    -2
100
AcDbLine
 10
51.76129859678325
 20
-13.16836059613404
 30
0.0
 11
70.26105792180073
 21
-41.09495567650644
 31
0.0
  0
MTEXT
  5
1E6
330
1E2
100
AcDbEntity
  8
치수문자_일반주서
 62
     0
100
AcDbMText
 10
71.07011857142743
 20
-37.110401640579
 30
0.0
 40
4.0
 41
0.0
 71
     5
 72
     1
  1
\A1;R1
  7
SLDTEXTSTYLE0
 11
0.5522597193566481
 21
-0.8336721192268075
 31
0.0
 73
     1
 44
1.0
  0
LINE
  5
1E7
330
1E2
100
AcDbEntity
  8
치수문자_일반주서
 62
     0
370
    -2
100
AcDbLine
 10
49.00000000000001
 20
-9.000000000000002
 30
0.0
 11
49.55225971935666
 21
-9.83367211922681
 31
0.0
  0
SOLID
  5
1E8
330
1E2
100
AcDbEntity
  8
치수문자_일반주서
 62
     0
100
AcDbTrace
 10
52.31708000960112
 20
-12.80018744989627
 30
0.0
 11
51.20551718396538
 21
-13.53653374237181
 31
0.0
 12
49.55225971935666
 22
-9.83367211922681
 32
0.0
 13
49.55225971935666
 23
-9.83367211922681
 33
0.0
  0
POINT
  5
1E9
330
1E2
100
AcDbEntity
  8
Defpoints
 62
     0
100
AcDbPoint
 10
49.55225971935666
 20
-9.83367211922681
 30
0.0
  0
POINT
  5
1EA
330
1E2
100
AcDbEntity
  8
Defpoints
 62
     0
100
AcDbPoint
 10
49.00000000000001
 20
-9.000000000000002
 30
0.0
  0
ENDBLK
  5
1E4
330
1E2
100
AcDbEntity
  8
0
100
AcDbBlockEnd
  0
ENDSEC
  0
SECTION
  2
ENTITIES
  0
LINE
  5
95
330
1F
100
AcDbEntity
  8
0
  6
Continuous
 62
   131
370
    15
100
AcDbLine
 10
8.949879773513226
 20
10.0
 30
0.0
 11
-98.99999999999996
 21
9.999999999999996
 31
0.0
  0
LINE
  5
96
330
1F
100
AcDbEntity
  8
0
  6
Continuous
 62
   131
370
    15
100
AcDbLine
 10
-98.99999999999996
 20
-10.0
 30
0.0
 11
8.949879773513226
 21
-9.999999999999996
 31
0.0
  0
LINE
  5
97
330
1F
100
AcDbEntity
  8
0
  6
Continuous
 62
   131
370
    15
100
AcDbLine
 10
-98.99999999999996
 20
9.99999999999999
 30
0.0
 11
-99.99999999999997
 21
8.99999999999999
 31
0.0
  0
LINE
  5
98
330
1F
100
AcDbEntity
  8
0
  6
Continuous
 62
   131
370
    15
100
AcDbLine
 10
-99.99999999999997
 20
-8.999999999999996
 30
0.0
 11
-98.99999999999996
 21
-9.999999999999996
 31
0.0
  0
SPLINE
  5
99
330
1F
100
AcDbEntity
  8
0
  6
Continuous
 62
   131
370
    15
100
AcDbSpline
210
0.0
220
0.0
230
1.0
 70
     8
 71
     3
 72
     9
 73
     5
 74
     0
 42
0.000000001
 43
0.00000001
 40
0.0
 40
0.0
 40
0.0
 40
0.0
 40
0.5569865671250336
 40
1.0
 40
1.0
 40
1.0
 40
1.0
 10
8.949833805589241
 20
-8.04762749030322
 30
0.0
 10
9.526560706868896
 20
-8.009960221335668
 30
0.0
 10
10.56200201788024
 20
-7.942333331944107
 30
0.0
 10
11.55852633938625
 20
-7.900341947503271
 30
0.0
 10
12.00000000000003
 20
-7.881739200130965
 30
0.0
  0
SPLINE
  5
9A
330
1F
100
AcDbEntity
  8
0
  6
Continuous
 62
     1
370
    15
100
AcDbSpline
210
0.0
220
0.0
230
1.0
 70
     8
 71
     3
 72
     9
 73
     5
 74
     0
 42
0.000000001
 43
0.00000001
 40
0.0
 40
0.0
 40
0.0
 40
0.0
 40
0.5055213217907907
 40
1.0
 40
1.0
 40
1.0
 40
1.0
 10
24.09292586789877
 20
2.562456437452167
 30
0.0
 10
23.62483613794861
 20
2.785538321817412
 30
0.0
 10
22.69888166328478
 20
3.226829074055091
 30
0.0
 10
21.77499934598884
 20
3.710720481034642
 30
0.0
 10
21.31815923891148
 20
3.949994464354684
 30
0.0
  0
SPLINE
  5
9B
330
1F
100
AcDbEntity
  8
0
  6
Continuous
 62
     1
370
    15
100
AcDbSpline
210
0.0
220
0.0
230
1.0
 70
     8
 71
     3
 72
    16
 73
    12
 74
     0
 42
0.000000001
 43
0.00000001
 40
0.0
 40
0.0
 40
0.0
 40
0.0
 40
0.1828339638291136
 40
0.3382967656064784
 40
0.4692188365650585
 40
0.5836927198490194
 40
0.6662596752061359
 40
0.7421322179199452
 40
0.8226161750360635
 40
0.9335265623673576
 40
1.0
 40
1.0
 40
1.0
 40
1.0
 10
20.78767664554989
 20
7.946401538192685
 30
0.0
 10
20.30245542233791
 20
7.922065452312894
 30
0.0
 10
19.40465302841481
 20
7.877036514755376
 30
0.0
 10
18.11561573559111
 20
7.836497799506518
 30
0.0
 10
16.99650566407836
 20
7.817540554632485
 30
0.0
 10
16.08336585230887
 20
7.806960722995029
 30
0.0
 10
15.32554022453175
 20
7.806002814546769
 30
0.0
 10
14.68284932952053
 20
7.812324612183891
 30
0.0
 10
13.99194199780495
 20
7.824233435870256
 30
0.0
 10
13.29144353732924
 20
7.838029279624635
 30
0.0
 10
12.80724811415703
 20
7.854857113722011
 30
0.0
 10
12.62579902052748
 20
7.861163235379898
 30
0.0
1001
PE_URL
1000

  0
SPLINE
  5
9C
330
1F
100
AcDbEntity
  8
0
  6
Continuous
 62
     1
370
    15
100
AcDbSpline
210
0.0
220
0.0
230
1.0
 70
     8
 71
     3
 72
    29
 73
    25
 74
     0
 42
0.000000001
 43
0.00000001
 40
0.0
 40
0.0
 40
0.0
 40
0.0
 40
0.063854187156197
 40
0.11394314447404
 40
0.1510749808735113
 40
0.1884062867731075
 40
0.2303112730735898
 40
0.2737021152810706
 40
0.310371443402344
 40
0.3509121885146624
 40
0.3907910166690356
 40
0.4367704013248384
 40
0.5005765542456887
 40
0.5557441177767131
 40
0.5983585397239991
 40
0.6334378516348507
 40
0.6673194248761881
 40
0.7039309717570587
 40
0.7494522156535816
 40
0.7965442259777907
 40
0.839298840016835
 40
0.8793948808018374
 40
0.9318276508443064
 40
1.0
 40
1.0
 40
1.0
 40
1.0
 10
46.28496866613349
 20
6.839527527896528
 30
0.0
 10
45.91861188524117
 20
6.809556903396488
 30
0.0
 10
45.26487490301091
 20
6.756076507678167
 30
0.0
 10
44.39087173341448
 20
6.700186666318947
 30
0.0
 10
43.6547794870723
 20
6.66090163786336
 30
0.0
 10
42.96938409229237
 20
6.630797447370838
 30
0.0
 10
42.25222133945817
 20
6.606589322253634
 30
0.0
 10
41.54249120119299
 20
6.590376045734311
 30
0.0
 10
40.8403049002876
 20
6.58150600685437
 30
0.0
 10
40.15866312593283
 20
6.579666919022485
 30
0.0
 10
39.42240849073821
 20
6.585326734428818
 30
0.0
 10
38.55036990036808
 20
6.601619608891589
 30
0.0
 10
37.58952429220962
 20
6.63304740952893
 30
0.0
 10
36.64885123835045
 20
6.678239175847661
 30
0.0
 10
35.87462132825747
 20
6.72478808737011
 30
0.0
 10
35.2247514367056
 20
6.770119861381612
 30
0.0
 10
34.61196551146129
 20
6.818059003245498
 30
0.0
 10
33.93866665785794
 20
6.876644657993928
 30
0.0
 10
33.18548924898703
 20
6.949622028574565
 30
0.0
 10
32.3941552225596
 20
7.034730769239993
 30
0.0
 10
31.63048937524505
 20
7.124764892869559
 30
0.0
 10
30.82997678499897
 20
7.226711459549556
 30
0.0
 10
29.8980782902248
 20
7.355072384426252
 30
0.0
 10
29.20578318899892
 20
7.461290564536831
 30
0.0
 10
28.8144616292399
 20
7.521330659926836
 30
0.0
  0
SPLINE
  5
9D
330
1F
100
AcDbEntity
  8
0
  6
Continuous
 62
     1
370
    15
100
AcDbSpline
210
0.0
220
0.0
230
1.0
 70
     8
 71
     3
 72
    17
 73
    13
 74
     0
 42
0.000000001
 43
0.00000001
 40
0.0
 40
0.0
 40
0.0
 40
0.0
 40
0.1468308097154532
 40
0.2631825489457497
 40
0.3513225702855832
 40
0.4393461181143811
 40
0.5362355956664645
 40
0.6358332284903575
 40
0.7207882662085051
 40
0.8165739716227924
 40
0.9120233785076047
 40
0.9999999999999999
 40
0.9999999999999999
 40
0.9999999999999999
 40
0.9999999999999999
 10
28.8144616292399
 20
-7.521330659926824
 30
0.0
 10
29.17394991225202
 20
-7.466069103380604
 30
0.0
 10
29.8183040694116
 20
-7.367017158228707
 30
0.0
 10
30.68538612298011
 20
-7.246300096723349
 30
0.0
 10
31.42165260673268
 20
-7.150815708677827
 30
0.0
 10
32.10778278695507
 20
-7.06785850323987
 30
0.0
 10
32.81878000774005
 20
-6.988241139331309
 30
0.0
 10
33.51900473897122
 20
-6.916677608921932
 30
0.0
 10
34.21511813446146
 20
-6.851769661112602
 30
0.0
 10
34.89782672292518
 20
-6.79486683711526
 30
0.0
 10
35.59055041077538
 20
-6.743235156899633
 30
0.0
 10
36.0464522947689
 20
-6.715645215807722
 30
0.0
 10
36.26511650420862
 20
-6.7024122530384
 30
0.0
1001
PE_URL
1000

  0
SPLINE
  5
9E
330
1F
100
AcDbEntity
  8
0
  6
Continuous
 62
     1
370
    15
100
AcDbSpline
210
0.0
220
0.0
230
1.0
 70
     8
 71
     3
 72
    16
 73
    12
 74
     0
 42
0.000000001
 43
0.00000001
 40
0.0
 40
0.0
 40
0.0
 40
0.0
 40
0.1327858254242124
 40
0.2358177731788376
 40
0.3105846103002661
 40
0.3810676015240655
 40
0.457769472604925
 40
0.5641117859407491
 40
0.6857339017723274
 40
0.8301535152632442
 40
1.0
 40
1.0
 40
1.0
 40
1.0
 10
12.00000000000002
 20
-7.881740103570273
 30
0.0
 10
12.3902813508832
 20
-7.867843125651319
 30
0.0
 10
13.08339207098058
 20
-7.843163124029959
 30
0.0
 10
13.99199731549665
 20
-7.824059360809333
 30
0.0
 10
14.68283741511132
 20
-7.812362104737211
 30
0.0
 10
15.32554360923135
 20
-7.80599216349154
 30
0.0
 10
16.08336450876286
 20
-7.806964950898355
 30
0.0
 10
16.99650613422753
 20
-7.817539075155624
 30
0.0
 10
18.11561557613528
 20
-7.836498301285968
 30
0.0
 10
19.40465307989281
 20
-7.877036352763166
 30
0.0
 10
20.30245544039851
 20
-7.922065395479399
 30
0.0
 10
20.78767664554989
 20
-7.946401538192678
 30
0.0
1001
PE_URL
1000

  0
SPLINE
  5
9F
330
1F
100
AcDbEntity
  8
0
  6
Continuous
 62
   131
370
    15
100
AcDbSpline
210
0.0
220
0.0
230
1.0
 70
     8
 71
     3
 72
    10
 73
     6
 74
     0
 42
0.000000001
 43
0.00000001
 40
0.0
 40
0.0
 40
0.0
 40
0.0
 40
0.5
 40
0.5
 40
1.0
 40
1.0
 40
1.0
 40
1.0
 10
12.00000000000251
 20
8.099260266414944
 30
0.0
 10
11.49236433198385
 20
8.271324469499028
 30
0.0
 10
10.98616548527131
 20
8.432784912094984
 30
0.0
 10
9.967895846602966
 20
8.734109782956374
 30
0.0
 10
9.457816413870717
 20
8.873741289468558
 30
0.0
 10
8.949753915136853
 20
9.001554882250112
 30
0.0
  0
LINE
  5
A0
330
1F
100
AcDbEntity
  8
0
  6
Continuous
 62
   131
370
    15
100
AcDbLine
 10
12.00000000000003
 20
8.099260266415786
 30
0.0
 11
12.00000000000003
 21
6.164356534232738
 31
0.0
  0
SPLINE
  5
A1
330
1F
100
AcDbEntity
  8
0
  6
Continuous
 62
   131
370
    15
100
AcDbSpline
210
0.0
220
0.0
230
1.0
 70
     8
 71
     3
 72
    10
 73
     6
 74
     0
 42
0.000000001
 43
0.00000001
 40
0.0
 40
0.0
 40
0.0
 40
0.0
 40
0.5
 40
0.5
 40
1.0
 40
1.0
 40
1.0
 40
1.0
 10
8.94987977351322
 20
7.448440237916558
 30
0.0
 10
9.457921628472247
 20
7.252653299630543
 30
0.0
 10
9.967980007312274
 20
7.046969413461325
 30
0.0
 10
10.98620744852258
 20
6.618157730196
 30
0.0
 10
11.49238529074841
 20
6.395339090426898
 30
0.0
 10
12.00000000000003
 20
6.16435653423274
 30
0.0
  0
LINE
  5
A2
330
1F
100
AcDbEntity
  8
0
  6
Continuous
 62
   131
370
    15
100
AcDbLine
 10
8.949879773513226
 20
-9.999999999999996
 30
0.0
 11
8.94987977351322
 21
7.448440758862632
 31
0.0
  0
SPLINE
  5
A3
330
1F
100
AcDbEntity
  8
0
  6
Continuous
 62
   131
370
    15
100
AcDbSpline
210
0.0
220
0.0
230
1.0
 70
     8
 71
     3
 72
    10
 73
     6
 74
     0
 42
0.000000001
 43
0.00000001
 40
0.0
 40
0.0
 40
0.0
 40
0.0
 40
0.5
 40
0.5
 40
1.0
 40
1.0
 40
1.0
 40
1.0
 10
12.00000000000251
 20
-8.099260266414937
 30
0.0
 10
11.49236433198385
 20
-8.271324469499021
 30
0.0
 10
10.98616548527131
 20
-8.432784912094974
 30
0.0
 10
9.967895846602966
 20
-8.734109782956363
 30
0.0
 10
9.457816413870717
 20
-8.873741289468551
 30
0.0
 10
8.949753915136856
 20
-9.001554882250101
 30
0.0
  0
LINE
  5
A4
330
1F
100
AcDbEntity
  8
0
  6
Continuous
 62
   131
370
    15
100
AcDbLine
 10
8.949879773513224
 20
9.001741546477135
 30
0.0
 11
8.949879773513226
 21
10.0
 31
0.0
  0
LINE
  5
A5
330
1F
100
AcDbEntity
  8
0
  6
Continuous
 62
   131
370
    15
100
AcDbLine
 10
-98.99999999999996
 20
9.99999999999999
 30
0.0
 11
-98.99999999999996
 21
-10.0
 31
0.0
  0
LINE
  5
A6
330
1F
100
AcDbEntity
  8
0
  6
Continuous
 62
   131
370
    15
100
AcDbLine
 10
-99.99999999999997
 20
8.999999999999993
 30
0.0
 11
-99.99999999999997
 21
-9.000000000000004
 31
0.0
  0
SPLINE
  5
A7
330
1F
100
AcDbEntity
  8
0
  6
Continuous
 62
   131
370
    15
100
AcDbSpline
210
0.0
220
0.0
230
1.0
 70
    24
 71
     3
 72
    10
 73
     6
 74
     0
 42
0.000000001
 43
0.00000001
 40
0.0
 40
0.0
 40
0.0
 40
0.0
 40
0.5
 40
0.5
 40
1.0
 40
1.0
 40
1.0
 40
1.0
 10
12.00000000000003
 20
6.164356534232738
 30
0.0
 10
12.00000000000003
 20
5.976171270123051
 30
0.0
 10
12.00000000000003
 20
5.686449402071917
 30
0.0
 10
12.00000000000003
 20
4.962817386484935
 30
0.0
 10
12.00000000000003
 20
4.531394061185873
 30
0.0
 10
12.00000000000003
 20
4.084836208163631
 30
0.0
  0
SPLINE
  5
A8
330
1F
100
AcDbEntity
  8
0
  6
Continuous
 62
   131
370
    15
100
AcDbSpline
210
0.0
220
0.0
230
1.0
 70
     8
 71
     3
 72
    10
 73
     6
 74
     0
 42
0.000000001
 43
0.00000001
 40
0.0
 40
0.0
 40
0.0
 40
0.0
 40
0.5
 40
0.5
 40
1.0
 40
1.0
 40
1.0
 40
1.0
 10
12.00000000000004
 20
4.084836208163637
 30
0.0
 10
11.49238024020694
 20
4.251592142730185
 30
0.0
 10
10.98619733642355
 20
4.412925248654721
 30
0.0
 10
9.96795972667491
 20
4.724388244342241
 30
0.0
 10
9.457896274368695
 20
4.874295211598247
 30
0.0
 10
8.949849444767302
 20
5.017520153805346
 30
0.0
  0
SPLINE
  5
A9
330
1F
100
AcDbEntity
  8
0
  6
Continuous
 62
   131
370
    15
100
AcDbSpline
210
0.0
220
0.0
230
1.0
 70
     8
 71
     3
 72
    10
 73
     6
 74
     0
 42
0.000000001
 43
0.00000001
 40
0.0
 40
0.0
 40
0.0
 40
0.0
 40
0.5
 40
0.5
 40
1.0
 40
1.0
 40
1.0
 40
1.0
 10
12.00000000000002
 20
-6.496629018753862
 30
0.0
 10
11.49237763586823
 20
-6.359681552922235
 30
0.0
 10
10.98619212206533
 20
-6.214487445588195
 30
0.0
 10
9.967949268855715
 20
-5.907850284070148
 30
0.0
 10
9.457883200390022
 20
-5.746582955314095
 30
0.0
 10
8.949833805589241
 20
-5.578319227553149
 30
0.0
  0
SPLINE
  5
AA
330
1F
100
AcDbEntity
  8
0
  6
Continuous
 62
   131
370
    15
100
AcDbSpline
210
0.0
220
0.0
230
1.0
 70
    24
 71
     3
 72
    14
 73
    10
 74
     0
 42
0.000000001
 43
0.00000001
 40
0.0
 40
0.0
 40
0.0
 40
0.0
 40
0.25
 40
0.25
 40
0.5
 40
0.5
 40
0.75
 40
0.75
 40
1.0
 40
1.0
 40
1.0
 40
1.0
 10
12.0
 20
4.084836208163639
 30
0.0
 10
12.0
 20
3.27189905493346
 30
0.0
 10
12.0
 20
2.389718700036211
 30
0.0
 10
12.0
 20
0.555152555806066
 30
0.0
 10
12.0
 20
-0.396477898220515
 30
0.0
 10
12.0
 20
-2.277109344432581
 30
0.0
 10
12.0
 20
-3.205108257557668
 30
0.0
 10
12.0
 20
-4.949630595449554
 30
0.0
 10
12.0
 20
-5.765525156294579
 30
0.0
 10
12.0
 20
-6.496629018753856
 30
0.0
  0
SPLINE
  5
AB
330
1F
100
AcDbEntity
  8
0
  6
Continuous
 62
   131
370
    15
100
AcDbSpline
210
0.0
220
0.0
230
1.0
 70
    24
 71
     3
 72
    11
 73
     7
 74
     0
 42
0.000000001
 43
0.00000001
 40
0.0
 40
0.0
 40
0.0
 40
0.0
 40
0.2218385944341897
 40
0.4465623951909246
 40
0.7732940585346975
 40
1.0
 40
1.0
 40
1.0
 40
1.0
 10
12.00000000000003
 20
-6.496629018753864
 30
0.0
 10
12.00000000000003
 20
-6.68610001391986
 30
0.0
 10
12.00000000000003
 20
-7.067506241435583
 30
0.0
 10
12.00000000000003
 20
-7.531804779848582
 30
0.0
 10
12.00000000000003
 20
-7.848980564421367
 30
0.0
 10
12.00000000000003
 20
-7.8471458273511
 30
0.0
 10
12.00000000000003
 20
-7.846394259710515
 30
0.0
  0
SPLINE
  5
AC
330
1F
100
AcDbEntity
  8
0
  6
Continuous
 62
   131
370
    15
100
AcDbSpline
210
0.0
220
0.0
230
1.0
 70
    24
 71
     3
 72
     9
 73
     5
 74
     0
 42
0.000000001
 43
0.00000001
 40
0.0
 40
0.0
 40
0.0
 40
0.0
 40
0.0526386963099781
 40
1.0
 40
1.0
 40
1.0
 40
1.0
 10
12.00000000000003
 20
-7.967935659343572
 30
0.0
 10
12.00000000000003
 20
-7.970405113189871
 30
0.0
 10
12.00000000000003
 20
-8.017318392192049
 30
0.0
 10
12.00000000000003
 20
-8.05939680571488
 30
0.0
 10
12.00000000000003
 20
-8.099260266407079
 30
0.0
  0
SPLINE
  5
AD
330
1F
100
AcDbEntity
  8
0
  6
Continuous
 62
     1
370
    15
100
AcDbSpline
210
0.0
220
0.0
230
1.0
 70
     8
 71
     3
 72
    50
 73
    46
 74
     0
 42
0.000000001
 43
0.00000001
 40
0.0
 40
0.0
 40
0.0
 40
0.0
 40
0.0625
 40
0.0625
 40
0.09375
 40
0.09375
 40
0.1250000000000001
 40
0.1250000000000001
 40
0.1875000000000001
 40
0.1875000000000001
 40
0.2500000000000001
 40
0.2500000000000001
 40
0.3125
 40
0.3125
 40
0.34375
 40
0.34375
 40
0.3749999999999999
 40
0.3749999999999999
 40
0.4062499999999999
 40
0.4062499999999999
 40
0.4374999999999998
 40
0.4374999999999998
 40
0.4999999999999996
 40
0.4999999999999996
 40
0.5312499999999996
 40
0.5312499999999996
 40
0.5624999999999996
 40
0.5624999999999996
 40
0.6249999999999996
 40
0.6249999999999996
 40
0.6874999999999996
 40
0.6874999999999996
 40
0.7499999999999996
 40
0.7499999999999996
 40
0.7812499999999994
 40
0.7812499999999994
 40
0.8124999999999994
 40
0.8124999999999994
 40
0.8437499999999993
 40
0.8437499999999993
 40
0.8749999999999993
 40
0.8749999999999993
 40
0.9374999999999997
 40
0.9374999999999997
 40
1.0
 40
1.0
 40
1.0
 40
1.0
 10
12.00000000000002
 20
6.164356534232741
 30
0.0
 10
12.76970384933809
 20
5.814114196112352
 30
0.0
 10
13.54471428081017
 20
5.444696085985988
 30
0.0
 10
14.699714125502
 20
4.869172376943299
 30
0.0
 10
15.08296456670603
 20
4.673872461944684
 30
0.0
 10
15.853757941589
 20
4.275899879452341
 30
0.0
 10
16.24018353420615
 20
4.073409699643922
 30
0.0
 10
17.3986754127278
 20
3.457438569525442
 30
0.0
 10
18.16544548970944
 20
3.036288758764448
 30
0.0
 10
19.70866085156179
 20
2.176721233286654
 30
0.0
 10
20.48249459933451
 20
1.738753514038516
 30
0.0
 10
22.01819188413868
 20
0.8573773824893224
 30
0.0
 10
22.79291282393451
 20
0.4115168637578812
 30
0.0
 10
23.94984607404336
 20
-0.2561452834188033
 30
0.0
 10
24.33347321608119
 20
-0.4782860866350788
 30
0.0
 10
25.1027722650649
 20
-0.9219225880025484
 30
0.0
 10
25.48884209058821
 20
-1.143493811232984
 30
0.0
 10
26.26124916605498
 20
-1.584656848885897
 30
0.0
 10
26.64758449824696
 20
-1.804247565811374
 30
0.0
 10
27.41793967982315
 20
-2.239987120861151
 30
0.0
 10
27.80112056009892
 20
-2.455982490501891
 30
0.0
 10
28.95683458488431
 20
-3.099176774152012
 30
0.0
 10
29.73180365982599
 20
-3.520833881272945
 30
0.0
 10
30.88552390899791
 20
-4.134216829036578
 30
0.0
 10
31.26926642698427
 20
-4.335620385670446
 30
0.0
 10
32.04064457002566
 20
-4.732366115643615
 30
0.0
 10
32.42715942414336
 20
-4.927507787446939
 30
0.0
 10
33.58530674460407
 20
-5.501272837046348
 30
0.0
 10
34.35181352175055
 20
-5.867662615965314
 30
0.0
 10
35.89582222608573
 20
-6.565189315872795
 30
0.0
 10
36.66742533920339
 20
-6.895362251274693
 30
0.0
 10
38.20515830196278
 20
-7.51215855539791
 30
0.0
 10
38.98008965027438
 20
-7.799904382633263
 30
0.0
 10
40.13611350780782
 20
-8.19471944791286
 30
0.0
 10
40.51932717765071
 20
-8.32010636812823
 30
0.0
 10
41.28945792618257
 20
-8.55875864441046
 30
0.0
 10
41.67574168396194
 20
-8.671939641868239
 30
0.0
 10
42.44816804012752
 20
-8.885217316951724
 30
0.0
 10
42.83430872042764
 20
-8.985313472110175
 30
0.0
 10
43.60387033536955
 20
-9.17180130307721
 30
0.0
 10
43.9873244887976
 20
-9.25821414501852
 30
0.0
 10
45.14400536811259
 20
-9.497111321098746
 30
0.0
 10
45.91880300015655
 20
-9.62875640561506
 30
0.0
 10
47.45513681339038
 20
-9.833519652078
 30
0.0
 10
48.22825998838162
 20
-9.907183511600575
 30
0.0
 10
49.00000000000001
 20
-10.0
 30
0.0
  0
SPLINE
  5
AF
330
1F
100
AcDbEntity
  8
0
  6
Continuous
 62
     1
370
    15
100
AcDbSpline
210
0.0
220
0.0
230
1.0
 70
     8
 71
     3
 72
    11
 73
     7
 74
     0
 42
0.000000001
 43
0.00000001
 40
0.0
 40
0.0
 40
0.0
 40
0.0
 40
0.1922624642080757
 40
0.4521368107797712
 40
0.7260906126271988
 40
1.0
 40
1.0
 40
1.0
 40
1.0
 10
25.16483217764117
 20
-0.9528039312697941
 30
0.0
 10
24.32113720352809
 20
-0.6140715867160902
 30
0.0
 10
22.33704968838228
 20
0.1825132412444851
 30
0.0
 10
19.15083263280192
 20
1.469556341609349
 30
0.0
 10
15.60614180570754
 20
2.849775905569924
 30
0.0
 10
13.20198230132713
 20
3.673171691133338
 30
0.0
 10
12.00000000000003
 20
4.08483620816363
 30
0.0
  0
SPLINE
  5
B0
330
1F
100
AcDbEntity
  8
0
  6
Continuous
 62
   131
370
    15
100
AcDbSpline
210
0.0
220
0.0
230
1.0
 70
    24
 71
     3
 72
    10
 73
     6
 74
     0
 42
0.000000001
 43
0.00000001
 40
0.0
 40
0.0
 40
0.0
 40
0.0
 40
0.5
 40
0.5
 40
1.0
 40
1.0
 40
1.0
 40
1.0
 10
12.00000000000003
 20
6.164356534232738
 30
0.0
 10
12.00000000000003
 20
5.976171270123049
 30
0.0
 10
12.00000000000003
 20
5.686449402071915
 30
0.0
 10
12.00000000000003
 20
4.962817386484933
 30
0.0
 10
12.00000000000003
 20
4.531394061185873
 30
0.0
 10
12.00000000000003
 20
4.084836208163631
 30
0.0
  0
SPLINE
  5
B1
330
1F
100
AcDbEntity
  8
0
  6
Continuous
 62
     1
370
    15
100
AcDbSpline
210
0.0
220
0.0
230
1.0
 70
     8
 71
     3
 72
    15
 73
    11
 74
     0
 42
0.000000001
 43
0.00000001
 40
0.0
 40
0.0
 40
0.0
 40
0.0
 40
0.131728976512835
 40
0.2634691296933139
 40
0.3952186932288341
 40
0.5269758934316319
 40
0.6587389506202862
 40
0.790506080511296
 40
0.9222754956183983
 40
1.0
 40
1.0
 40
1.0
 40
1.0
 10
50.00000000000003
 20
-7.889722643682154
 30
0.0
 10
48.86000553342991
 20
-7.651826506194753
 30
0.0
 10
46.57991987639792
 20
-7.176014046700698
 30
0.0
 10
43.15960515516249
 20
-6.101188126931357
 30
0.0
 10
39.73901347812204
 20
-4.811077780776639
 30
0.0
 10
36.31819318310834
 20
-3.328305338580248
 30
0.0
 10
32.89719850925078
 20
-1.716511135429479
 30
0.0
 10
29.47608242981524
 20
-0.0419171645535025
 30
0.0
 10
26.52263454925226
 20
1.419168450741642
 30
0.0
 10
24.70956657513074
 20
2.263362829471703
 30
0.0
 10
24.03689879535612
 20
2.576568052079923
 30
0.0
  0
SPLINE
  5
B2
330
1F
100
AcDbEntity
  8
0
  6
Continuous
 62
     1
370
    15
100
AcDbSpline
210
0.0
220
0.0
230
1.0
 70
    24
 71
     3
 72
     8
 73
     4
 74
     0
 42
0.000000001
 43
0.00000001
 40
0.0
 40
0.0
 40
0.0
 40
0.0
 40
1.0
 40
1.0
 40
1.0
 40
1.0
 10
50.00000000000003
 20
-8.416347464743954
 30
0.0
 10
50.00000000000003
 20
-8.240388761152595
 30
0.0
 10
50.00000000000003
 20
-8.064726146123704
 30
0.0
 10
50.00000000000003
 20
-7.889722643682154
 30
0.0
  0
SPLINE
  5
B3
330
1F
100
AcDbEntity
  8
0
  6
Continuous
 62
     1
370
    15
100
AcDbSpline
210
0.0
220
0.0
230
1.0
 70
     8
 71
     3
 72
    16
 73
    12
 74
     0
 42
0.000000001
 43
0.00000001
 40
0.0
 40
0.0
 40
0.0
 40
0.0
 40
0.1250000000000018
 40
0.1250000000000018
 40
0.2500000000000037
 40
0.2500000000000037
 40
0.5000000000000024
 40
0.5000000000000024
 40
0.7500000000000012
 40
0.7500000000000012
 40
1.0
 40
1.0
 40
1.0
 40
1.0
 10
50.00000000000003
 20
-8.416347464743954
 30
0.0
 10
50.00000000000002
 20
-8.485182398856036
 30
0.0
 10
49.99374181101905
 20
-8.552901698408416
 30
0.0
 10
49.96811826305253
 20
-8.68596166621328
 30
0.0
 10
49.94835394096705
 20
-8.752006621921225
 30
0.0
 10
49.87031411794302
 20
-8.93687492957294
 30
0.0
 10
49.79080071024017
 20
-9.046982813228311
 30
0.0
 10
49.59619327407628
 20
-9.211623150452386
 30
0.0
 10
49.48079619022619
 20
-9.267064701396325
 30
0.0
 10
49.24130529997691
 20
-9.319234916580552
 30
0.0
 10
49.11925385196264
 20
-9.316849429046215
 30
0.0
 10
49.0
 20
-9.291414403674548
 30
0.0
  0
SPLINE
  5
B4
330
1F
100
AcDbEntity
  8
0
  6
Continuous
 62
     1
370
    15
100
AcDbSpline
210
0.0
220
0.0
230
1.0
 70
     8
 71
     3
 72
    50
 73
    46
 74
     0
 42
0.000000001
 43
0.00000001
 40
0.0
 40
0.0
 40
0.0
 40
0.0
 40
0.0625
 40
0.0625
 40
0.125
 40
0.125
 40
0.15625
 40
0.15625
 40
0.1875
 40
0.1875
 40
0.21875
 40
0.21875
 40
0.25
 40
0.25
 40
0.3125
 40
0.3125
 40
0.375
 40
0.375
 40
0.4375
 40
0.4375
 40
0.4687500000000001
 40
0.4687500000000001
 40
0.5000000000000002
 40
0.5000000000000002
 40
0.5625000000000003
 40
0.5625000000000003
 40
0.5937500000000003
 40
0.5937500000000003
 40
0.6250000000000003
 40
0.6250000000000003
 40
0.6562500000000003
 40
0.6562500000000003
 40
0.6875000000000003
 40
0.6875000000000003
 40
0.7500000000000002
 40
0.7500000000000002
 40
0.8125000000000001
 40
0.8125000000000001
 40
0.875
 40
0.875
 40
0.90625
 40
0.90625
 40
0.9375
 40
0.9375
 40
1.0
 40
1.0
 40
1.0
 40
1.0
 10
49.0000000000001
 20
-9.291414403673762
 30
0.0
 10
48.22825998838174
 20
-9.126814045255237
 30
0.0
 10
47.45513681339057
 20
-8.93440330998839
 30
0.0
 10
45.91880300015685
 20
-8.49867548158785
 30
0.0
 10
45.14400536811291
 20
-8.25423785583818
 30
0.0
 10
43.987324488798
 20
-7.852458320984496
 30
0.0
 10
43.60387033536998
 20
-7.712852587481529
 30
0.0
 10
42.83430872042814
 20
-7.422097783455448
 30
0.0
 10
42.44816804012802
 20
-7.270929024746158
 30
0.0
 10
41.67574168396248
 20
-6.957977679252008
 30
0.0
 10
41.28945792618314
 20
-6.796195863807217
 30
0.0
 10
40.51932717765131
 20
-6.463130942470263
 30
0.0
 10
40.13611350780848
 20
-6.291953953890031
 30
0.0
 10
38.98008965027513
 20
-5.763852892204674
 30
0.0
 10
38.20515830196358
 20
-5.392897395203342
 30
0.0
 10
36.66742533920426
 20
-4.623163348746974
 30
0.0
 10
35.89582222608666
 20
-4.222956859548446
 30
0.0
 10
34.35181352175159
 20
-3.399674447212788
 30
0.0
 10
33.58530674460516
 20
-2.977695876338525
 30
0.0
 10
32.42715942414452
 20
-2.331825825636129
 30
0.0
 10
32.04064457002684
 20
-2.114553619886533
 30
0.0
 10
31.2692664269855
 20
-1.677500054856973
 30
0.0
 10
30.88552390899916
 20
-1.457934165153873
 30
0.0
 10
29.73180365982731
 20
-0.7960120956368936
 30
0.0
 10
28.95683458488569
 20
-0.3499367878444361
 30
0.0
 10
27.80112056010036
 20
0.3174644935643159
 30
0.0
 10
27.41793967982461
 20
0.5394654142487234
 30
0.0
 10
26.6475844982485
 20
0.9831052468641225
 30
0.0
 10
26.26124916605654
 20
1.204581455120872
 30
0.0
 10
25.48884209058982
 20
1.645362580377245
 30
0.0
 10
25.10277226506653
 20
1.864666405047907
 30
0.0
 10
24.33347321608287
 20
2.299647027535581
 30
0.0
 10
23.94984607404507
 20
2.515403005054372
 30
0.0
 10
22.79291282393631
 20
3.157716315434774
 30
0.0
 10
22.01819188414052
 20
3.578404833791573
 30
0.0
 10
20.48249459933642
 20
4.393633449673254
 30
0.0
 10
19.70866085156378
 20
4.790446608360543
 30
0.0
 10
18.16544548971152
 20
5.552488985909096
 30
0.0
 10
17.39867541272993
 20
5.9173647436308
 30
0.0
 10
16.24018353420836
 20
6.438019953939127
 30
0.0
 10
15.85375794159124
 20
6.606947021239233
 30
0.0
 10
15.08296456670832
 20
6.934442298201569
 30
0.0
 10
14.6997141255043
 20
7.092867196834771
 30
0.0
 10
13.54471428081256
 20
7.55273499133963
 30
0.0
 10
12.76970384934053
 20
7.838367488797459
 30
0.0
 10
12.00000000000251
 20
8.099260266414944
 30
0.0
1001
PE_URL
1000

  0
LINE
  5
B5
330
1F
100
AcDbEntity
  8
0
  6
Continuous
 62
     1
370
    15
100
AcDbLine
 10
48.99421323683356
 20
-9.999304392421045
 30
0.0
 11
49.00000000000002
 21
-9.29141440367382
 31
0.0
  0
SPLINE
  5
B6
330
1F
100
AcDbEntity
  8
0
  6
Continuous
 62
     1
370
    15
100
AcDbSpline
210
0.0
220
0.0
230
1.0
 70
     8
 71
     3
 72
     8
 73
     4
 74
     0
 42
0.000000001
 43
0.00000001
 40
0.0
 40
0.0
 40
0.0
 40
0.0
 40
1.0
 40
1.0
 40
1.0
 40
1.0
 10
41.4893232797659
 20
3.774367713232434
 30
0.0
 10
41.27862317703782
 20
4.0080075006995
 30
0.0
 10
41.08831698107646
 20
4.233967345557009
 30
0.0
 10
40.92168964886365
 20
4.45101019786725
 30
0.0
  0
LINE
  5
B7
330
1F
100
AcDbEntity
  8
0
  6
Continuous
 62
     1
370
    15
100
AcDbLine
 10
40.92168964886364
 20
4.451010197867248
 30
0.0
 11
50.00000000000003
 21
0.0000000000000097
 31
0.0
  0
LINE
  5
B8
330
1F
100
AcDbEntity
  8
0
  6
Continuous
 62
     1
370
    15
100
AcDbLine
 10
50.00000000000003
 20
0.0000000000000097
 30
0.0
 11
50.00000000000003
 21
-2.672429460296438
 31
0.0
  0
SPLINE
  5
B9
330
1F
100
AcDbEntity
  8
0
  6
Continuous
 62
     1
370
    15
100
AcDbSpline
210
0.0
220
0.0
230
1.0
 70
     8
 71
     3
 72
    14
 73
    10
 74
     0
 42
0.000000001
 43
0.00000001
 40
0.0
 40
0.0
 40
0.0
 40
0.0
 40
0.25
 40
0.25
 40
0.5
 40
0.5
 40
0.75
 40
0.75
 40
1.0
 40
1.0
 40
1.0
 40
1.0
 10
50.00000000000004
 20
-2.672429460296443
 30
0.0
 10
49.257968873053
 20
-2.185296180429959
 30
0.0
 10
48.52278646831202
 20
-1.685731907907061
 30
0.0
 10
47.06596013978324
 20
-0.6620299092673082
 30
0.0
 10
46.34431844090573
 20
-0.1378881447557966
 30
0.0
 10
44.91577026810158
 20
0.9371410263948855
 30
0.0
 10
44.20876380730287
 20
1.488020862067347
 30
0.0
 10
42.81302473603984
 20
2.622252121697789
 30
0.0
 10
42.1373019991781
 20
3.194865999891643
 30
0.0
 10
41.48932327976588
 20
3.774367713232444
 30
0.0
  0
SPLINE
  5
BA
330
1F
100
AcDbEntity
  8
0
  6
Continuous
 62
     1
370
    15
100
AcDbSpline
210
0.0
220
0.0
230
1.0
 70
     8
 71
     3
 72
    14
 73
    10
 74
     0
 42
0.000000001
 43
0.00000001
 40
0.0
 40
0.0
 40
0.0
 40
0.0
 40
0.084552086618487
 40
0.2497487807851816
 40
0.4149529209548253
 40
0.5801622389263096
 40
0.7453744624154888
 40
0.9105873168458082
 40
0.9999999999999999
 40
0.9999999999999999
 40
0.9999999999999999
 40
0.9999999999999999
 10
41.48932327975484
 20
3.774367713236941
 30
0.0
 10
40.90595330137381
 20
4.008288615718252
 30
0.0
 10
39.18280315009789
 20
4.699240933175349
 30
0.0
 10
36.31809843317125
 20
5.718600297148514
 30
0.0
 10
32.89726340847837
 20
6.720283751727421
 30
0.0
 10
29.47611329132886
 20
7.462676651368946
 30
0.0
 10
26.05494734501421
 20
7.900419026694769
 30
0.0
 10
23.15696060620076
 20
8.058457448861635
 30
0.0
 10
21.39937921116343
 20
7.946876406798221
 30
0.0
 10
20.78219811502135
 20
7.907694318250959
 30
0.0
1001
PE_URL
1000

  0
SPLINE
  5
BB
330
1F
100
AcDbEntity
  8
0
  6
Continuous
 62
     1
370
    15
100
AcDbSpline
210
0.0
220
0.0
230
1.0
 70
    24
 71
     3
 72
    10
 73
     6
 74
     0
 42
0.000000001
 43
0.00000001
 40
0.0
 40
0.0
 40
0.0
 40
0.0
 40
0.5
 40
0.5
 40
1.0
 40
1.0
 40
1.0
 40
1.0
 10
50.00000000000003
 20
-7.889722643682152
 30
0.0
 10
50.00000000000002
 20
-7.284913890038041
 30
0.0
 10
50.00000000000003
 20
-6.52071483906468
 30
0.0
 10
50.00000000000004
 20
-4.744025591506794
 30
0.0
 10
50.00000000000004
 20
-3.733074430513093
 30
0.0
 10
50.00000000000003
 20
-2.672429460296763
 30
0.0
  0
SPLINE
  5
BC
330
1F
100
AcDbEntity
  8
0
  6
Continuous
 62
     1
370
    15
100
AcDbSpline
210
0.0
220
0.0
230
1.0
 70
     8
 71
     3
 72
     9
 73
     5
 74
     0
 42
0.000000001
 43
0.00000001
 40
0.0
 40
0.0
 40
0.0
 40
0.0
 40
0.9198253904787266
 40
1.0
 40
1.0
 40
1.0
 40
1.0
 10
50.00000000000003
 20
7.000000000000011
 30
0.0
 10
48.86000982186442
 20
6.995550383568844
 30
0.0
 10
47.62065484217388
 20
6.990712925854342
 30
0.0
 10
46.38128293054771
 20
6.840847561668213
 30
0.0
 10
46.28191677148145
 20
6.828832164613827
 30
0.0
  0
SPLINE
  5
BD
330
1F
100
AcDbEntity
  8
0
  6
Continuous
 62
     1
370
    15
100
AcDbSpline
210
0.0
220
0.0
230
1.0
 70
     8
 71
     3
 72
    10
 73
     6
 74
     0
 42
0.000000001
 43
0.00000001
 40
0.0
 40
0.0
 40
0.0
 40
0.0
 40
0.5
 40
0.5
 40
1.0
 40
1.0
 40
1.0
 40
1.0
 10
50.00000000000003
 20
7.000000000000011
 30
0.0
 10
48.4764032375539
 20
6.632997155091235
 30
0.0
 10
46.95723397411726
 20
6.239935637174226
 30
0.0
 10
43.92863395325675
 20
5.399295331728514
 30
0.0
 10
42.41903832253461
 20
4.953312484722954
 30
0.0
 10
40.92168964886347
 20
4.451010197867432
 30
0.0
  0
SPLINE
  5
BE
330
1F
100
AcDbEntity
  8
0
  6
Continuous
 62
     1
370
    15
100
AcDbSpline
210
0.0
220
0.0
230
1.0
 70
     8
 71
     3
 72
    12
 73
     8
 74
     0
 42
0.000000001
 43
0.00000001
 40
0.0
 40
0.0
 40
0.0
 40
0.0
 40
0.1646441625321911
 40
0.3679857830668697
 40
0.5713253800257331
 40
0.7856796132108701
 40
1.0
 40
1.0
 40
1.0
 40
1.0
 10
28.82507245348457
 20
-7.496897599136862
 30
0.0
 10
27.90169870324684
 20
-7.633025361417617
 30
0.0
 10
25.83792427408547
 20
-7.937275936898728
 30
0.0
 10
22.63374203386455
 20
-8.04726545694757
 30
0.0
 10
19.15083899380319
 20
-7.876052538547329
 30
0.0
 10
15.60612498888682
 20
-7.386663977509689
 30
0.0
 10
13.20197838909902
 20
-6.793291721589727
 30
0.0
 10
12.00000000000002
 20
-6.49662901875386
 30
0.0
1001
PE_URL
1000

  0
SPLINE
  5
BF
330
1F
100
AcDbEntity
  8
0
  6
Continuous
 62
   131
370
    15
100
AcDbSpline
210
0.0
220
0.0
230
1.0
 70
    24
 71
     3
 72
    14
 73
    10
 74
     0
 42
0.000000001
 43
0.00000001
 40
0.0
 40
0.0
 40
0.0
 40
0.0
 40
0.25
 40
0.25
 40
0.5
 40
0.5
 40
0.75
 40
0.75
 40
1.0
 40
1.0
 40
1.0
 40
1.0
 10
12.0
 20
4.084836208163639
 30
0.0
 10
12.0
 20
3.27189905493346
 30
0.0
 10
12.0
 20
2.389718700036211
 30
0.0
 10
12.0
 20
0.555152555806066
 30
0.0
 10
12.0
 20
-0.396477898220515
 30
0.0
 10
12.0
 20
-2.277109344432581
 30
0.0
 10
12.0
 20
-3.205108257557668
 30
0.0
 10
12.0
 20
-4.949630595449554
 30
0.0
 10
12.0
 20
-5.765525156294579
 30
0.0
 10
12.0
 20
-6.496629018753856
 30
0.0
  0
LINE
  5
C0
330
1F
100
AcDbEntity
  8
0
  6
Continuous
 62
     1
370
    15
100
AcDbLine
 10
50.00000000000003
 20
0.0000000000000097
 30
0.0
 11
50.00000000000003
 21
7.000000000000012
 31
0.0
  0
SPLINE
  5
C1
330
1F
100
AcDbEntity
  8
0
  6
Continuous
 62
   131
370
    15
100
AcDbSpline
210
0.0
220
0.0
230
1.0
 70
    24
 71
     3
 72
    11
 73
     7
 74
     0
 42
0.000000001
 43
0.00000001
 40
0.0
 40
0.0
 40
0.0
 40
0.0
 40
0.2224853215158473
 40
0.4478642606095929
 40
0.7755484462845608
 40
1.0
 40
1.0
 40
1.0
 40
1.0
 10
12.00000000000003
 20
-6.496629018753864
 30
0.0
 10
12.00000000000003
 20
-6.686105582496929
 30
0.0
 10
12.00000000000003
 20
-7.067523019591039
 30
0.0
 10
12.00000000000003
 20
-7.531723744755687
 30
0.0
 10
12.00000000000003
 20
-7.848193433121833
 30
0.0
 10
12.00000000000003
 20
-7.846586945669747
 30
0.0
 10
12.00000000000003
 20
-7.845933884150775
 30
0.0
  0
LINE
  5
C2
330
1F
100
AcDbEntity
  8
0
  6
Continuous
 62
     1
370
    15
100
AcDbLine
 10
50.00000000000003
 20
-8.416347464743954
 30
0.0
 11
50.00000000000003
 21
-8.984032896024381
 31
0.0
  0
SPLINE
  5
C3
330
1F
100
AcDbEntity
  8
0
  6
Continuous
 62
     1
370
    15
100
AcDbSpline
210
0.0
220
0.0
230
1.0
 70
     8
 71
     3
 72
    13
 73
     9
 74
     0
 42
0.000000001
 43
0.00000001
 40
0.0
 40
0.0
 40
0.0
 40
0.0
 40
0.1777794706121017
 40
0.4051680447213739
 40
0.5527762004682832
 40
0.7008197412488093
 40
0.850184540642215
 40
0.9999999999999999
 40
0.9999999999999999
 40
0.9999999999999999
 40
0.9999999999999999
 10
36.26555727963105
 20
6.702592195495956
 30
0.0
 10
37.02023325771216
 20
7.020763840144221
 30
0.0
 10
38.74017645129091
 20
7.745892465536501
 30
0.0
 10
41.08664407363169
 20
8.520827392808673
 30
0.0
 10
43.30726883501762
 20
9.118445323245624
 30
0.0
 10
45.19582506016953
 20
9.514527435580437
 30
0.0
 10
47.09378947943195
 20
9.807846190020026
 30
0.0
 10
48.36395873445228
 20
9.903326997907396
 30
0.0
 10
49.00000000000001
 20
10.0
 30
0.0
  0
SPLINE
  5
C4
330
1F
100
AcDbEntity
  8
0
  6
Continuous
 62
     1
370
    15
100
AcDbSpline
210
0.0
220
0.0
230
1.0
 70
     8
 71
     3
 72
    14
 73
    10
 74
     0
 42
0.000000001
 43
0.00000001
 40
0.0
 40
0.0
 40
0.0
 40
0.0
 40
0.25
 40
0.25
 40
0.5
 40
0.5
 40
0.75
 40
0.75
 40
1.0
 40
1.0
 40
1.0
 40
1.0
 10
49.00000000000002
 20
9.951139313978011
 30
0.0
 10
49.11960193313583
 20
9.957951451301113
 30
0.0
 10
49.23984609106508
 20
9.942531044074055
 30
0.0
 10
49.47564378812321
 20
9.861269298458868
 30
0.0
 10
49.5870845304899
 20
9.796346220308148
 30
0.0
 10
49.78131970465247
 20
9.61897716419739
 30
0.0
 10
49.86170172753539
 20
9.50766918228658
 30
0.0
 10
49.97083451976766
 20
9.259750911844485
 30
0.0
 10
49.99999999999996
 20
9.122500733767605
 30
0.0
 10
50.00000000000001
 20
8.984032896023901
 30
0.0
  0
SPLINE
  5
C5
330
1F
100
AcDbEntity
  8
0
  6
Continuous
 62
     1
370
    15
100
AcDbSpline
210
0.0
220
0.0
230
1.0
 70
    24
 71
     3
 72
    10
 73
     6
 74
     0
 42
0.000000001
 43
0.00000001
 40
0.0
 40
0.0
 40
0.0
 40
0.0
 40
0.5
 40
0.5
 40
1.0
 40
1.0
 40
1.0
 40
1.0
 10
50.00000000000003
 20
7.000000000000011
 30
0.0
 10
50.00000000000003
 20
7.28652485555828
 30
0.0
 10
50.00000000000004
 20
7.603740640450789
 30
0.0
 10
50.00000000000004
 20
8.275336746200274
 30
0.0
 10
50.00000000000003
 20
8.629432738492415
 30
0.0
 10
50.00000000000002
 20
8.984032896024885
 30
0.0
  0
LINE
  5
C6
330
1F
100
AcDbEntity
  8
0
  6
Continuous
 62
     1
370
    15
100
AcDbLine
 10
12.62579902052748
 20
-7.861163235379889
 30
0.0
 11
12.00000000000251
 21
-8.099260266414937
 31
0.0
1001
PE_URL
1000

  0
SPLINE
  5
C7
330
1F
100
AcDbEntity
  8
0
  6
Continuous
 62
   131
370
    15
100
AcDbSpline
210
0.0
220
0.0
230
1.0
 70
    24
 71
     3
 72
     9
 73
     5
 74
     0
 42
0.000000001
 43
0.00000001
 40
0.0
 40
0.0
 40
0.0
 40
0.0
 40
0.0539304298367583
 40
1.0
 40
1.0
 40
1.0
 40
1.0
 10
12.00000000000003
 20
-7.967935659343574
 30
0.0
 10
12.00000000000003
 20
-7.970403617339898
 30
0.0
 10
12.00000000000003
 20
-8.016165499894761
 30
0.0
 10
12.00000000000003
 20
-8.058864264515673
 30
0.0
 10
12.00000000000003
 20
-8.099260266407079
 30
0.0
  0
LINE
  5
C8
330
1F
100
AcDbEntity
  8
중심선
100
AcDbLine
 10
-107.0
 20
0.000000000000001
 30
0.0
 11
57.00000000000003
 21
0.000000000000001
 31
0.0
  0
CIRCLE
  5
C9
330
1F
100
AcDbEntity
  8
외형선
100
AcDbCircle
 10
0.0
 20
0.0
 30
0.0
 40
3.000000000000001
  0
INSERT
  5
CA
330
1F
100
AcDbEntity
  8
0
  6
Continuous
 62
     7
100
AcDbBlockReference
 66
     1
  2
블럭10
 10
-38.99501192594744
 20
-52.04717430164393
 30
0.0
  0
ATTRIB
  5
CB
330
CA
100
AcDbEntity
  8
FORMAT
 62
     2
100
AcDbText
 10
-55.62384052414841
 20
-49.97180738881174
 30
0.0
 40
4.233333333333333
  1
SEMD9920010E [ 2 FLUTE ]
 41
0.75
  7
SLDTEXTSTYLE0
 11
-55.62384052414841
 21
-52.08847405547841
 31
0.0
100
AcDbAttribute
  2
AUTOATTR0
 70
     0
 74
     1
  0
SEQEND
  5
CC
330
CA
100
AcDbEntity
  8
0
  6
Continuous
 62
     7
  0
HATCH
  5
CD
330
1F
100
AcDbEntity
  8
중심선
100
AcDbHatch
 10
0.0
 20
0.0
 30
0.0
210
0.0
220
0.0
230
1.0
  2
SOLID
 70
     1
 71
     0
 91
        1
 92
        0
 93
        4
 72
     1
 10
-33.28010262156659
 20
-35.8
 11
-36.72637786540388
 21
-35.8
 72
     1
 10
-36.72637786540388
 20
-35.8
 11
-38.8546077246079
 21
-38.33632558057259
 72
     1
 10
-38.8546077246079
 20
-38.33632558057259
 11
-35.40829939565747
 21
-38.3362861512701
 72
     1
 10
-35.40829939565747
 20
-38.3362861512701
 11
-33.28010262156659
 21
-35.8
 97
        0
 75
     0
 76
     1
 98
        1
 10
-12.85974008208206
 20
0.0
  0
HATCH
  5
CE
330
1F
100
AcDbEntity
  8
중심선
100
AcDbHatch
 10
0.0
 20
0.0
 30
0.0
210
0.0
220
0.0
230
1.0
  2
SOLID
 70
     1
 71
     0
 91
        1
 92
        0
 93
        4
 72
     1
 10
-28.26733863053064
 20
-35.8
 11
-31.71361387436792
 21
-35.8
 72
     1
 10
-31.71361387436792
 20
-35.8
 11
-36.24475188272531
 21
-41.20000000000002
 72
     1
 10
-36.24475188272531
 20
-41.20000000000002
 11
-32.79847663888803
 21
-41.20000000000002
 72
     1
 10
-32.79847663888803
 20
-41.20000000000002
 11
-28.26733863053065
 21
-35.8
 97
        0
 75
     0
 76
     1
 98
        1
 10
-12.85974008208206
 20
0.0
  0
HATCH
  5
CF
330
1F
100
AcDbEntity
  8
중심선
100
AcDbHatch
 10
0.0
 20
0.0
 30
0.0
210
0.0
220
0.0
230
1.0
  2
SOLID
 70
     1
 71
     0
 91
        1
 92
        0
 93
        4
 72
     1
 10
-23.25457463949475
 20
-35.80000000000003
 11
-26.70084988333186
 21
-35.8
 72
     1
 10
-26.70084988333186
 20
-35.8
 11
-33.74928678522112
 21
-44.20000000000002
 72
     1
 10
-33.74928678522112
 20
-44.20000000000002
 11
-30.30301154138383
 21
-44.20000000000002
 72
     1
 10
-30.30301154138383
 20
-44.20000000000002
 11
-23.25457463949475
 21
-35.80000000000003
 97
        0
 75
     0
 76
     1
 98
        1
 10
-12.85974008208206
 20
0.0
  0
HATCH
  5
D0
330
1F
100
AcDbEntity
  8
중심선
100
AcDbHatch
 10
0.0
 20
0.0
 30
0.0
210
0.0
220
0.0
230
1.0
  2
SOLID
 70
     1
 71
     0
 91
        1
 92
        0
 93
        6
 72
     3
 10
-18.45468420848255
 20
-40.00000000005127
 11
3.960054785062283
 21
1.540882976769353E-10
 40
0.3939339440162628
 50
17.09539180608436
 51
320.0019657685081
 73
     0
 72
     1
 10
-16.77168455278195
 20
-38.5878940046383
 11
-14.46638267908092
 21
-36.65356729459038
 72
     3
 10
-18.45468420853539
 20
-40.00000000000015
 11
6.600054785286829
 21
-1.278976924368180E-13
 40
0.636358354079598
 50
39.99873849337411
 51
368.4976242363724
 73
     1
 72
     1
 10
-12.02935171663478
 20
-39.03999999993002
 11
-19.77461690169947
 21
-39.03999999992999
 72
     1
 10
-19.77461690169947
 20
-39.03999999992999
 11
-19.7746419461454
 21
-40.95999999992991
 72
     1
 10
-19.7746419461454
 20
-40.95999999992991
 11
-15.33326217667337
 21
-40.95999999992988
 97
        0
 75
     0
 76
     1
 98
        1
 10
-12.85974008208206
 20
0.0
  0
POINT
  5
D1
330
1F
100
AcDbEntity
  8
치수문자_일반주서
100
AcDbPoint
 10
7.267949192431177
 20
0.0000000000000008
 30
0.0
  0
DIMENSION
  5
D2
330
1F
100
AcDbEntity
  8
치수문자_일반주서
100
AcDbDimension
  2
_D
 10
65.00000000000001
 20
10.00000000000006
 30
0.0
 11
64.99999999999997
 21
22.62500000000016
 31
0.0
 70
   160
  1
%%c<>
 71
     2
 42
20.0
 52
-270.0
  3
SLDDIMSTYLE2
100
AcDbAlignedDimension
 13
50.00000000000003
 23
-10.0
 33
0.0
 14
50.00000000000003
 24
10.0
 34
0.0
 50
90.0000000000002
100
AcDbRotatedDimension
1001
PE_URL
1000

1001
ACAD
1000
DSTYLE
1002
{
1070
    41
1040
4.0
1070
   140
1040
4.0
1002
}
  0
DIMENSION
  5
E0
330
1F
100
AcDbEntity
  8
치수문자_일반주서
100
AcDbDimension
  2
_D_1
 10
12.00000000000003
 20
25.0
 30
0.0
 11
31.00000000000003
 21
25.0
 31
0.0
 70
   160
  1
<>
 71
     2
 42
37.99999999999999
  3
SLDDIMSTYLE2
100
AcDbAlignedDimension
 13
50.00000000000001
 23
10.0
 33
0.0
 14
12.00000000000003
 24
8.099260266415786
 34
0.0
100
AcDbRotatedDimension
1001
PE_URL
1000

1001
ACAD
1000
DSTYLE
1002
{
1070
    41
1040
4.0
1070
   140
1040
4.0
1002
}
  0
DIMENSION
  5
EB
330
1F
100
AcDbEntity
  8
치수문자_일반주서
100
AcDbDimension
  2
_D_2
 10
-99.99999999999996
 20
40.00000000000001
 30
0.0
 11
-24.99999999999997
 21
40.00000000000001
 31
0.0
 70
   160
  1
<>
 71
     2
 42
150.0
  3
SLDDIMSTYLE2
100
AcDbAlignedDimension
 13
50.00000000000001
 23
10.0
 33
0.0
 14
-99.99999999999997
 24
8.999999999999993
 34
0.0
 50
0.0000000000000054
100
AcDbRotatedDimension
1001
PE_URL
1000

1001
ACAD
1000
DSTYLE
1002
{
1070
    41
1040
4.0
1070
   140
1040
4.0
1002
}
  0
DIMENSION
  5
F5
330
1F
100
AcDbEntity
  8
치수문자_일반주서
100
AcDbDimension
  2
_D_3
 10
-115.0
 20
9.99999999999954
 30
0.0
 11
-115.0
 21
22.62499999999957
 31
0.0
 70
   160
  1
%%c<>
 71
     2
 42
20.0
 52
-270.0
  3
SLDDIMSTYLE2
100
AcDbAlignedDimension
 13
8.949879773513226
 23
-9.999999999999996
 33
0.0
 14
8.949879773513224
 24
10.0
 34
0.0
 50
90.0000000000002
100
AcDbRotatedDimension
1001
PE_URL
1000

1001
ACAD
1000
DSTYLE
1002
{
1070
    41
1040
4.0
1070
   140
1040
4.0
1002
}
  0
INSERT
  5
106
330
1F
100
AcDbEntity
  8
외형선
100
AcDbBlockReference
  2
SW_DOWELSYMBOL_0
 10
0.0
 20
0.0
 30
0.0
  0
ARC
  5
1DD
330
1F
100
AcDbEntity
  8
0
  6
Continuous
 62
     1
370
    15
100
AcDbCircle
 10
49.00000000000001
 20
9.000000000000004
 30
0.0
 40
1.0
100
AcDbArc
 50
0.0
 51
90.0
1001
PE_URL
1000

  0
ARC
  5
1DE
102
{ACAD_REACTORS
102
}
330
1F
100
AcDbEntity
  8
0
  6
Continuous
 62
     1
370
    15
100
AcDbCircle
 10
49.00000000000001
 20
-9.000000000000002
 30
0.0
 40
1.0
100
AcDbArc
 50
270.0
 51
0.0
1001
PE_URL
1000

  0
DIMENSION
  5
1DF
102
{ACAD_REACTORS
102
}
102
{ACAD_XDICTIONARY
360
1E0
102
}
330
1F
100
AcDbEntity
  8
치수문자_일반주서
100
AcDbDimension
  2
*D11
 10
49.00000000000001
 20
-9.000000000000002
 30
0.0
 11
68.67331122865036
 21
-38.69814833372936
 31
0.0
 70
   164
 71
     5
 42
1.0
  3
SLDDIMSTYLE2
100
AcDbRadialDimension
 15
49.55225971935666
 25
-9.83367211922681
 35
0.0
 40
0.0
1001
ACAD
1000
DSTYLE
1002
{
1070
    41
1040
4.0
1070
   140
1040
4.0
1002
}
1001
ACAD_DSTYLE_DIMRADIAL_EXTENSION
1070
   387
1070
     1
1070
   388
1040
4.71238898038469
1070
   390
1040
0.0
1001
PE_URL
1000

  0
ENDSEC
  0
SECTION
  2
OBJECTS
  0
DICTIONARY
  5
C
330
0
100
AcDbDictionary
281
     1
  3
ACAD_DETAILVIEWSTYLE
350
1AF
  3
ACAD_GROUP
350
D
  3
ACAD_LAYOUT
350
1A
  3
ACAD_MLINESTYLE
350
17
  3
ACAD_PLOTSETTINGS
350
19
  3
ACAD_PLOTSTYLENAME
350
E
  3
ACAD_SCALELIST
350
47
  3
ACAD_SECTIONVIEWSTYLE
350
1B0
  3
AcDbVariableDictionary
350
1AA
  3
APPDATA
350
128
  3
DWGPROPS
350
1EC
  0
DICTIONARY
  5
16B
330
2
100
AcDbDictionary
280
     1
281
     1
  3
ACAD_LAYERSTATES
360
16C
  0
DICTIONARY
  5
1E0
330
1DF
100
AcDbDictionary
280
     1
281
     1
  0
DICTIONARY
  5
1AF
102
{ACAD_REACTORS
330
C
102
}
330
C
100
AcDbDictionary
281
     1
  0
DICTIONARY
  5
D
102
{ACAD_REACTORS
330
C
102
}
330
C
100
AcDbDictionary
281
     1
  0
DICTIONARY
  5
1A
102
{ACAD_REACTORS
330
C
102
}
330
C
100
AcDbDictionary
281
     1
  3
Layout1
350
1E
  3
Layout2
350
26
  3
Model
350
22
  0
DICTIONARY
  5
17
102
{ACAD_REACTORS
330
C
102
}
330
C
100
AcDbDictionary
281
     1
  3
Standard
350
18
  0
DICTIONARY
  5
19
102
{ACAD_REACTORS
330
C
102
}
330
C
100
AcDbDictionary
281
     1
  0
ACDBDICTIONARYWDFLT
  5
E
102
{ACAD_REACTORS
330
C
102
}
330
C
100
AcDbDictionary
281
     1
  3
Normal
350
F
100
AcDbDictionaryWithDefault
340
F
  0
DICTIONARY
  5
47
102
{ACAD_REACTORS
330
C
102
}
330
C
100
AcDbDictionary
281
     1
  3
A0
350
48
  3
A1
350
49
  3
A2
350
4A
  3
A3
350
4B
  3
A4
350
4C
  3
A5
350
4D
  3
A6
350
4E
  3
A7
350
4F
  3
A8
350
50
  3
A9
350
51
  3
B0
350
52
  3
B1
350
53
  3
B2
350
54
  3
B3
350
55
  3
B4
350
56
  3
B5
350
57
  3
B6
350
58
  3
B7
350
59
  3
B8
350
5A
  3
B9
350
5B
  3
C0
350
5C
  3
C1
350
5D
  3
C2
350
5E
  3
C3
350
5F
  3
C4
350
60
  3
C5
350
61
  3
C6
350
62
  3
C7
350
63
  3
C8
350
64
  3
C9
350
65
  3
D0
350
66
  3
D1
350
67
  3
D2
350
68
  0
DICTIONARY
  5
1B0
102
{ACAD_REACTORS
330
C
102
}
330
C
100
AcDbDictionary
281
     1
  0
DICTIONARY
  5
1AA
102
{ACAD_REACTORS
330
C
102
}
330
C
100
AcDbDictionary
281
     1
  0
DICTIONARY
  5
128
102
{ACAD_REACTORS
330
C
102
}
330
C
100
AcDbDictionary
281
     1
  0
XRECORD
  5
1EC
102
{ACAD_REACTORS
330
C
102
}
330
C
100
AcDbXrecord
280
     1
  1
DWGPROPS COOKIE
  2

  3

  4

  6

  7

  8
12017044
  9

300
=
301
=
302
=
303
=
304
=
305
=
306
=
307
=
308
=
309
=
 40
0.0
 41
2458260.218227546
 42
2458268.226971285
  1

 90
        0
  0
DICTIONARY
  5
16C
102
{ACAD_REACTORS
330
16B
102
}
330
16B
100
AcDbDictionary
281
     1
  0
LAYOUT
  5
1E
102
{ACAD_REACTORS
330
1A
102
}
330
1A
100
AcDbPlotSettings
  1

  2
none_device
  4

  6

 40
0.0
 41
0.0
 42
0.0
 43
0.0
 44
0.0
 45
0.0
 46
0.0
 47
0.0
 48
0.0
 49
0.0
140
0.0
141
0.0
142
1.0
143
1.0
 70
   688
 72
     1
 73
     0
 74
     5
  7

 75
    16
147
1.0
148
0.0
149
0.0
100
AcDbLayout
  1
Layout1
 70
     1
 71
     1
 10
0.0
 20
0.0
 11
420.0
 21
297.0
 12
0.0
 22
0.0
 32
0.0
 14
1.000000000000000E+20
 24
1.000000000000000E+20
 34
1.000000000000000E+20
 15
-1.000000000000000E+20
 25
-1.000000000000000E+20
 35
-1.000000000000000E+20
146
0.0
 13
0.0
 23
0.0
 33
0.0
 16
1.0
 26
0.0
 36
0.0
 17
0.0
 27
1.0
 37
0.0
 76
     0
330
1B
  0
LAYOUT
  5
26
102
{ACAD_REACTORS
330
1A
102
}
330
1A
100
AcDbPlotSettings
  1

  2
none_device
  4

  6

 40
0.0
 41
0.0
 42
0.0
 43
0.0
 44
0.0
 45
0.0
 46
0.0
 47
0.0
 48
0.0
 49
0.0
140
0.0
141
0.0
142
1.0
143
1.0
 70
   688
 72
     1
 73
     0
 74
     5
  7

 75
    16
147
1.0
148
0.0
149
0.0
100
AcDbLayout
  1
Layout2
 70
     1
 71
     2
 10
0.0
 20
0.0
 11
0.0
 21
0.0
 12
0.0
 22
0.0
 32
0.0
 14
0.0
 24
0.0
 34
0.0
 15
0.0
 25
0.0
 35
0.0
146
0.0
 13
0.0
 23
0.0
 33
0.0
 16
1.0
 26
0.0
 36
0.0
 17
0.0
 27
1.0
 37
0.0
 76
     0
330
23
  0
LAYOUT
  5
22
102
{ACAD_REACTORS
330
1A
102
}
330
1A
100
AcDbPlotSettings
  1

  2
none_device
  4
ANSI_A_(11.00_x_8.50_Inches)
  6

 40
6.35
 41
19.05
 42
6.35000508
 43
19.05000254
 44
279.4
 45
215.9
 46
181.2189292867603
 47
82.97629431519978
 48
0.0
 49
0.0
140
0.0
141
0.0
142
0.0698076923076923
143
1.0
 70
  1696
 72
     0
 73
     0
 74
     0
  7

 75
     0
147
0.0235690232323232
148
0.0
149
0.0
100
AcDbLayout
  1
Model
 70
     1
 71
     0
 10
0.0
 20
0.0
 11
420.0
 21
297.0
 12
0.0
 22
0.0
 32
0.0
 14
-119.875
 24
-49.97180738881174
 34
0.0
 15
73.8419822485943
 25
44.87500000000001
 35
0.0
146
0.0
 13
0.0
 23
0.0
 33
0.0
 16
1.0
 26
0.0
 36
0.0
 17
0.0
 27
1.0
 37
0.0
 76
     0
330
1F
331
29
  0
MLINESTYLE
  5
18
102
{ACAD_REACTORS
330
17
102
}
330
17
100
AcDbMlineStyle
  2
Standard
 70
     0
  3

 62
   256
 51
90.0
 52
90.0
 71
     2
 49
0.5
 62
   256
  6
BYLAYER
 49
-0.5
 62
   256
  6
BYLAYER
  0
ACDBPLACEHOLDER
  5
F
102
{ACAD_REACTORS
330
E
102
}
330
E
  0
SCALE
  5
48
102
{ACAD_REACTORS
330
47
102
}
330
47
100
AcDbScale
 70
     0
300
1:1
140
1.0
141
1.0
290
     1
  0
SCALE
  5
49
102
{ACAD_REACTORS
330
47
102
}
330
47
100
AcDbScale
 70
     0
300
1:2
140
1.0
141
2.0
290
     0
  0
SCALE
  5
4A
102
{ACAD_REACTORS
330
47
102
}
330
47
100
AcDbScale
 70
     0
300
1:4
140
1.0
141
4.0
290
     0
  0
SCALE
  5
4B
102
{ACAD_REACTORS
330
47
102
}
330
47
100
AcDbScale
 70
     0
300
1:5
140
1.0
141
5.0
290
     0
  0
SCALE
  5
4C
102
{ACAD_REACTORS
330
47
102
}
330
47
100
AcDbScale
 70
     0
300
1:8
140
1.0
141
8.0
290
     0
  0
SCALE
  5
4D
102
{ACAD_REACTORS
330
47
102
}
330
47
100
AcDbScale
 70
     0
300
1:10
140
1.0
141
10.0
290
     0
  0
SCALE
  5
4E
102
{ACAD_REACTORS
330
47
102
}
330
47
100
AcDbScale
 70
     0
300
1:16
140
1.0
141
16.0
290
     0
  0
SCALE
  5
4F
102
{ACAD_REACTORS
330
47
102
}
330
47
100
AcDbScale
 70
     0
300
1:20
140
1.0
141
20.0
290
     0
  0
SCALE
  5
50
102
{ACAD_REACTORS
330
47
102
}
330
47
100
AcDbScale
 70
     0
300
1:30
140
1.0
141
30.0
290
     0
  0
SCALE
  5
51
102
{ACAD_REACTORS
330
47
102
}
330
47
100
AcDbScale
 70
     0
300
1:40
140
1.0
141
40.0
290
     0
  0
SCALE
  5
52
102
{ACAD_REACTORS
330
47
102
}
330
47
100
AcDbScale
 70
     0
300
1:50
140
1.0
141
50.0
290
     0
  0
SCALE
  5
53
102
{ACAD_REACTORS
330
47
102
}
330
47
100
AcDbScale
 70
     0
300
1:100
140
1.0
141
100.0
290
     0
  0
SCALE
  5
54
102
{ACAD_REACTORS
330
47
102
}
330
47
100
AcDbScale
 70
     0
300
2:1
140
2.0
141
1.0
290
     0
  0
SCALE
  5
55
102
{ACAD_REACTORS
330
47
102
}
330
47
100
AcDbScale
 70
     0
300
4:1
140
4.0
141
1.0
290
     0
  0
SCALE
  5
56
102
{ACAD_REACTORS
330
47
102
}
330
47
100
AcDbScale
 70
     0
300
8:1
140
8.0
141
1.0
290
     0
  0
SCALE
  5
57
102
{ACAD_REACTORS
330
47
102
}
330
47
100
AcDbScale
 70
     0
300
10:1
140
10.0
141
1.0
290
     0
  0
SCALE
  5
58
102
{ACAD_REACTORS
330
47
102
}
330
47
100
AcDbScale
 70
     0
300
100:1
140
100.0
141
1.0
290
     0
  0
SCALE
  5
59
102
{ACAD_REACTORS
330
47
102
}
330
47
100
AcDbScale
 70
     0
300
1/128" = 1'-0"
140
0.0078125
141
12.0
290
     0
  0
SCALE
  5
5A
102
{ACAD_REACTORS
330
47
102
}
330
47
100
AcDbScale
 70
     0
300
1/64" = 1'-0"
140
0.015625
141
12.0
290
     0
  0
SCALE
  5
5B
102
{ACAD_REACTORS
330
47
102
}
330
47
100
AcDbScale
 70
     0
300
1/32" = 1'-0"
140
0.03125
141
12.0
290
     0
  0
SCALE
  5
5C
102
{ACAD_REACTORS
330
47
102
}
330
47
100
AcDbScale
 70
     0
300
1/16" = 1'-0"
140
0.0625
141
12.0
290
     0
  0
SCALE
  5
5D
102
{ACAD_REACTORS
330
47
102
}
330
47
100
AcDbScale
 70
     0
300
3/32" = 1'-0"
140
0.09375
141
12.0
290
     0
  0
SCALE
  5
5E
102
{ACAD_REACTORS
330
47
102
}
330
47
100
AcDbScale
 70
     0
300
1/8" = 1'-0"
140
0.125
141
12.0
290
     0
  0
SCALE
  5
5F
102
{ACAD_REACTORS
330
47
102
}
330
47
100
AcDbScale
 70
     0
300
3/16" = 1'-0"
140
0.1875
141
12.0
290
     0
  0
SCALE
  5
60
102
{ACAD_REACTORS
330
47
102
}
330
47
100
AcDbScale
 70
     0
300
1/4" = 1'-0"
140
0.25
141
12.0
290
     0
  0
SCALE
  5
61
102
{ACAD_REACTORS
330
47
102
}
330
47
100
AcDbScale
 70
     0
300
3/8" = 1'-0"
140
0.375
141
12.0
290
     0
  0
SCALE
  5
62
102
{ACAD_REACTORS
330
47
102
}
330
47
100
AcDbScale
 70
     0
300
1/2" = 1'-0"
140
0.5
141
12.0
290
     0
  0
SCALE
  5
63
102
{ACAD_REACTORS
330
47
102
}
330
47
100
AcDbScale
 70
     0
300
3/4" = 1'-0"
140
0.75
141
12.0
290
     0
  0
SCALE
  5
64
102
{ACAD_REACTORS
330
47
102
}
330
47
100
AcDbScale
 70
     0
300
1" = 1'-0"
140
1.0
141
12.0
290
     0
  0
SCALE
  5
65
102
{ACAD_REACTORS
330
47
102
}
330
47
100
AcDbScale
 70
     0
300
1-1/2" = 1'-0"
140
1.5
141
12.0
290
     0
  0
SCALE
  5
66
102
{ACAD_REACTORS
330
47
102
}
330
47
100
AcDbScale
 70
     0
300
3" = 1'-0"
140
3.0
141
12.0
290
     0
  0
SCALE
  5
67
102
{ACAD_REACTORS
330
47
102
}
330
47
100
AcDbScale
 70
     0
300
6" = 1'-0"
140
6.0
141
12.0
290
     0
  0
SCALE
  5
68
102
{ACAD_REACTORS
330
47
102
}
330
47
100
AcDbScale
 70
     0
300
1'-0" = 1'-0"
140
12.0
141
12.0
290
     0
  0
ENDSEC
  0
EOF
