  0
SECTION
  2
HEADER
  9
$ACADVER
  1
AC1015
  9
$ACADMAINTVER
 70
     6
  9
$DWGCODEPAGE
  3
ANSI_949
  9
$INSBASE
 10
0.0
 20
0.0
 30
0.0
  9
$EXTMIN
 10
-127.8720765817611
 20
-49.97180738881174
 30
0.0
  9
$EXTMAX
 10
65.73391425938394
 20
42.875
 30
0.0
  9
$LIMMIN
 10
0.0
 20
0.0
  9
$LIMMAX
 10
420.0
 20
297.0
  9
$ORTHOMODE
 70
     1
  9
$REGENMODE
 70
     1
  9
$FILLMODE
 70
     1
  9
$QTEXTMODE
 70
     0
  9
$MIRRTEXT
 70
     1
  9
$LTSCALE
 40
1.0
  9
$ATTMODE
 70
     1
  9
$TEXTSIZE
 40
3.5
  9
$TRACEWID
 40
1.0
  9
$TEXTSTYLE
  7
Standard
  9
$CLAYER
  8
0
  9
$CELTYPE
  6
ByLayer
  9
$CECOLOR
 62
   256
  9
$CELTSCALE
 40
1.0
  9
$DISPSILH
 70
     0
  9
$DIMSCALE
 40
1.0
  9
$DIMASZ
 40
3.302
  9
$DIMEXO
 40
1.0
  9
$DIMDLI
 40
3.75
  9
$DIMRND
 40
0.0
  9
$DIMDLE
 40
0.0
  9
$DIMEXE
 40
1.0
  9
$DIMTP
 40
0.0
  9
$DIMTM
 40
0.0
  9
$DIMTXT
 40
3.5
  9
$DIMCEN
 40
2.5
  9
$DIMTSZ
 40
0.0
  9
$DIMTOL
 70
     0
  9
$DIMLIM
 70
     0
  9
$DIMTIH
 70
     1
  9
$DIMTOH
 70
     1
  9
$DIMSE1
 70
     0
  9
$DIMSE2
 70
     0
  9
$DIMTAD
 70
     1
  9
$DIMZIN
 70
     0
  9
$DIMBLK
  1

  9
$DIMASO
 70
     1
  9
$DIMSHO
 70
     1
  9
$DIMPOST
  1

  9
$DIMAPOST
  1

  9
$DIMALT
 70
     0
  9
$DIMALTD
 70
     3
  9
$DIMALTF
 40
0.0393700787401575
  9
$DIMLFAC
 40
1.0
  9
$DIMTOFL
 70
     1
  9
$DIMTVP
 40
0.0
  9
$DIMTIX
 70
     0
  9
$DIMSOXD
 70
     0
  9
$DIMSAH
 70
     0
  9
$DIMBLK1
  1

  9
$DIMBLK2
  1

  9
$DIMSTYLE
  2
ISO-25
  9
$DIMCLRD
 70
     0
  9
$DIMCLRE
 70
     0
  9
$DIMCLRT
 70
     0
  9
$DIMTFAC
 40
1.0
  9
$DIMGAP
 40
1.524
  9
$DIMJUST
 70
     0
  9
$DIMSD1
 70
     0
  9
$DIMSD2
 70
     0
  9
$DIMTOLJ
 70
     0
  9
$DIMTZIN
 70
     0
  9
$DIMALTZ
 70
     0
  9
$DIMALTTZ
 70
     0
  9
$DIMUPT
 70
     0
  9
$DIMDEC
 70
     2
  9
$DIMTDEC
 70
     2
  9
$DIMALTU
 70
     2
  9
$DIMALTTD
 70
     3
  9
$DIMTXSTY
  7
Standard
  9
$DIMAUNIT
 70
     0
  9
$DIMADEC
 70
     2
  9
$DIMALTRND
 40
0.0
  9
$DIMAZIN
 70
     0
  9
$DIMDSEP
 70
    44
  9
$DIMATFIT
 70
     3
  9
$DIMFRAC
 70
     0
  9
$DIMLDRBLK
  1

  9
$DIMLUNIT
 70
     2
  9
$DIMLWD
 70
    -2
  9
$DIMLWE
 70
    -2
  9
$DIMTMOVE
 70
     0
  9
$LUNITS
 70
     2
  9
$LUPREC
 70
     2
  9
$SKETCHINC
 40
1.0
  9
$FILLETRAD
 40
10.0
  9
$AUNITS
 70
     0
  9
$AUPREC
 70
     2
  9
$MENU
  1
.
  9
$ELEVATION
 40
0.0
  9
$PELEVATION
 40
0.0
  9
$THICKNESS
 40
0.0
  9
$LIMCHECK
 70
     0
  9
$CHAMFERA
 40
0.0
  9
$CHAMFERB
 40
0.0
  9
$CHAMFERC
 40
0.0
  9
$CHAMFERD
 40
0.0
  9
$SKPOLY
 70
     0
  9
$TDCREATE
 40
2458260.592289063
  9
$TDUCREATE
 40
2458260.217289063
  9
$TDUPDATE
 40
2459702.369081805
  9
$TDUUPDATE
 40
2459701.994081805
  9
$TDINDWG
 40
0.0045949074
  9
$TDUSRTIMER
 40
0.0001930671
  9
$USRTIMER
 70
     1
  9
$ANGBASE
 50
0.0
  9
$ANGDIR
 70
     0
  9
$PDMODE
 70
     0
  9
$PDSIZE
 40
-1.0
  9
$PLINEWID
 40
0.0
  9
$SPLFRAME
 70
     0
  9
$SPLINETYPE
 70
     6
  9
$SPLINESEGS
 70
     8
  9
$HANDSEED
  5
243
  9
$SURFTAB1
 70
     6
  9
$SURFTAB2
 70
     6
  9
$SURFTYPE
 70
     6
  9
$SURFU
 70
     6
  9
$SURFV
 70
     6
  9
$UCSBASE
  2

  9
$UCSNAME
  2

  9
$UCSORG
 10
0.0
 20
0.0
 30
0.0
  9
$UCSXDIR
 10
1.0
 20
0.0
 30
0.0
  9
$UCSYDIR
 10
0.0
 20
1.0
 30
0.0
  9
$UCSORTHOREF
  2

  9
$UCSORTHOVIEW
 70
     0
  9
$UCSORGTOP
 10
0.0
 20
0.0
 30
0.0
  9
$UCSORGBOTTOM
 10
0.0
 20
0.0
 30
0.0
  9
$UCSORGLEFT
 10
0.0
 20
0.0
 30
0.0
  9
$UCSORGRIGHT
 10
0.0
 20
0.0
 30
0.0
  9
$UCSORGFRONT
 10
0.0
 20
0.0
 30
0.0
  9
$UCSORGBACK
 10
0.0
 20
0.0
 30
0.0
  9
$PUCSBASE
  2

  9
$PUCSNAME
  2

  9
$PUCSORG
 10
0.0
 20
0.0
 30
0.0
  9
$PUCSXDIR
 10
1.0
 20
0.0
 30
0.0
  9
$PUCSYDIR
 10
0.0
 20
1.0
 30
0.0
  9
$PUCSORTHOREF
  2

  9
$PUCSORTHOVIEW
 70
     0
  9
$PUCSORGTOP
 10
0.0
 20
0.0
 30
0.0
  9
$PUCSORGBOTTOM
 10
0.0
 20
0.0
 30
0.0
  9
$PUCSORGLEFT
 10
0.0
 20
0.0
 30
0.0
  9
$PUCSORGRIGHT
 10
0.0
 20
0.0
 30
0.0
  9
$PUCSORGFRONT
 10
0.0
 20
0.0
 30
0.0
  9
$PUCSORGBACK
 10
0.0
 20
0.0
 30
0.0
  9
$USERI1
 70
     0
  9
$USERI2
 70
     0
  9
$USERI3
 70
     0
  9
$USERI4
 70
     0
  9
$USERI5
 70
     0
  9
$USERR1
 40
0.0
  9
$USERR2
 40
0.0
  9
$USERR3
 40
0.0
  9
$USERR4
 40
0.0
  9
$USERR5
 40
0.0
  9
$WORLDVIEW
 70
     1
  9
$SHADEDGE
 70
     3
  9
$SHADEDIF
 70
    70
  9
$TILEMODE
 70
     1
  9
$MAXACTVP
 70
    64
  9
$PINSBASE
 10
0.0
 20
0.0
 30
0.0
  9
$PLIMCHECK
 70
     0
  9
$PEXTMIN
 10
1.000000000000000E+20
 20
1.000000000000000E+20
 30
1.000000000000000E+20
  9
$PEXTMAX
 10
-1.000000000000000E+20
 20
-1.000000000000000E+20
 30
-1.000000000000000E+20
  9
$PLIMMIN
 10
0.0
 20
0.0
  9
$PLIMMAX
 10
0.0
 20
0.0
  9
$UNITMODE
 70
     0
  9
$VISRETAIN
 70
     1
  9
$PLINEGEN
 70
     0
  9
$PSLTSCALE
 70
     1
  9
$TREEDEPTH
 70
  3020
  9
$CMLSTYLE
  2
Standard
  9
$CMLJUST
 70
     0
  9
$CMLSCALE
 40
20.0
  9
$PROXYGRAPHICS
 70
     1
  9
$MEASUREMENT
 70
     1
  9
$CELWEIGHT
370
    -1
  9
$ENDCAPS
280
     0
  9
$JOINSTYLE
280
     0
  9
$LWDISPLAY
290
     1
  9
$INSUNITS
 70
     4
  9
$HYPERLINKBASE
  1

  9
$STYLESHEET
  1

  9
$XEDIT
290
     1
  9
$CEPSNTYPE
380
     0
  9
$PSTYLEMODE
290
     1
  9
$FINGERPRINTGUID
  2
{92FC35CB-D9D2-4D0C-B6F8-76EEB3B5ECFF}
  9
$VERSIONGUID
  2
{FAEB1C32-E019-11D5-929B-00C0DF256EC4}
  9
$EXTNAMES
290
     1
  9
$PSVPSCALE
 40
0.0
  9
$OLESTARTUP
290
     0
  0
ENDSEC
  0
SECTION
  2
CLASSES
  0
CLASS
  1
ACDBDICTIONARYWDFLT
  2
AcDbDictionaryWithDefault
  3
ObjectDBX Classes
 90
        0
280
     0
281
     0
  0
CLASS
  1
VISUALSTYLE
  2
AcDbVisualStyle
  3
ObjectDBX Classes
 90
     4095
280
     0
281
     0
  0
CLASS
  1
MATERIAL
  2
AcDbMaterial
  3
ObjectDBX Classes
 90
     1153
280
     0
281
     0
  0
CLASS
  1
SCALE
  2
AcDbScale
  3
ObjectDBX Classes
 90
     1153
280
     0
281
     0
  0
CLASS
  1
SUN
  2
AcDbSun
  3
SCENEOE
 90
     1153
280
     0
281
     0
  0
CLASS
  1
ACDBPLACEHOLDER
  2
AcDbPlaceHolder
  3
ObjectDBX Classes
 90
        0
280
     0
281
     0
  0
CLASS
  1
LAYOUT
  2
AcDbLayout
  3
ObjectDBX Classes
 90
        0
280
     0
281
     0
  0
CLASS
  1
TABLESTYLE
  2
AcDbTableStyle
  3
ObjectDBX Classes
 90
     4095
280
     0
281
     0
  0
CLASS
  1
MLEADERSTYLE
  2
AcDbMLeaderStyle
  3
ACDB_MLEADERSTYLE_CLASS
 90
     4095
280
     0
281
     0
  0
CLASS
  1
DIMASSOC
  2
AcDbDimAssoc
  3
"AcDbDimAssoc|Product Desc:     AcDim ARX App For Dimension|Company:          Autodesk, Inc.|WEB Address:      www.autodesk.com"
 90
        0
280
     0
281
     0
  0
CLASS
  1
BREAKDATA
  2
AcDbBreakData
  3
ObjectDBX Classes
 90
     1024
280
     0
281
     0
  0
ENDSEC
  0
SECTION
  2
TABLES
  0
TABLE
  2
VPORT
  5
8
330
0
100
AcDbSymbolTable
 70
     1
  0
VPORT
  5
29
330
8
100
AcDbSymbolTableRecord
100
AcDbViewportTableRecord
  2
*Active
 70
     0
 10
0.0
 20
0.0
 11
1.0
 21
1.0
 12
-32.24809950625963
 22
9.415201495306796
 13
0.0
 23
0.0
 14
10.0
 24
10.0
 15
10.0
 25
10.0
 16
0.0
 26
0.0
 36
1.0
 17
0.0
 27
0.0
 37
0.0
 40
161.1822547692
 41
1.531481481481481
 42
50.0
 43
0.0
 44
0.0
 50
0.0
 51
0.0
 71
    16
 72
  2000
 73
     1
 74
     3
 75
     0
 76
     0
 77
     0
 78
     0
281
     0
 65
     1
110
0.0
120
0.0
130
0.0
111
1.0
121
0.0
131
0.0
112
0.0
122
1.0
132
0.0
 79
     0
146
0.0
  0
ENDTAB
  0
TABLE
  2
LTYPE
  5
5
330
0
100
AcDbSymbolTable
 70
     6
  0
LTYPE
  5
14
330
5
100
AcDbSymbolTableRecord
100
AcDbLinetypeTableRecord
  2
ByBlock
 70
     0
  3

 72
    65
 73
     0
 40
0.0
  0
LTYPE
  5
15
330
5
100
AcDbSymbolTableRecord
100
AcDbLinetypeTableRecord
  2
ByLayer
 70
     0
  3

 72
    65
 73
     0
 40
0.0
  0
LTYPE
  5
16
330
5
100
AcDbSymbolTableRecord
100
AcDbLinetypeTableRecord
  2
Continuous
 70
     0
  3
Solid line
 72
    65
 73
     0
 40
0.0
  0
LTYPE
  5
6A
330
5
100
AcDbSymbolTableRecord
100
AcDbLinetypeTableRecord
  2
HIDDEN
 70
     0
  3
Hidden __ __ __ __ __ __ __ __ __ __ __ __ __ __
 72
    65
 73
     2
 40
1.905
 49
1.27
 74
     0
 49
-0.635
 74
     0
  0
LTYPE
  5
6B
330
5
100
AcDbSymbolTableRecord
100
AcDbLinetypeTableRecord
  2
PHANTOM
 70
     0
  3
Phantom ______  __  __  ______  __  __  ______
 72
    65
 73
     6
 40
12.7
 49
6.35
 74
     0
 49
-1.27
 74
     0
 49
1.27
 74
     0
 49
-1.27
 74
     0
 49
1.27
 74
     0
 49
-1.27
 74
     0
  0
LTYPE
  5
6C
330
5
100
AcDbSymbolTableRecord
100
AcDbLinetypeTableRecord
  2
CENTER
 70
     0
  3
Center ____ _ ____ _ ____ _ ____ _ ____ _ ____
 72
    65
 73
     4
 40
10.16
 49
6.35
 74
     0
 49
-1.27
 74
     0
 49
1.27
 74
     0
 49
-1.27
 74
     0
  0
LTYPE
  5
6D
330
5
100
AcDbSymbolTableRecord
100
AcDbLinetypeTableRecord
  2
CENTERX2
 70
     0
  3
Center (2x) ________  __  ________  __  _____
 72
    65
 73
     4
 40
20.32
 49
12.7
 74
     0
 49
-2.54
 74
     0
 49
2.54
 74
     0
 49
-2.54
 74
     0
  0
LTYPE
  5
6E
330
5
100
AcDbSymbolTableRecord
100
AcDbLinetypeTableRecord
  2
DOT2
 70
     0
  3
Dot (.5x) ........................................
 72
    65
 73
     2
 40
0.635
 49
0.0
 74
     0
 49
-0.635
 74
     0
  0
ENDTAB
  0
TABLE
  2
LAYER
  5
2
102
{ACAD_XDICTIONARY
360
176
102
}
330
0
100
AcDbSymbolTable
 70
    17
  0
LAYER
  5
10
330
2
100
AcDbSymbolTableRecord
100
AcDbLayerTableRecord
  2
0
 70
     0
 62
     7
  6
Continuous
370
    -3
390
F
  0
LAYER
  5
6F
330
2
100
AcDbSymbolTableRecord
100
AcDbLayerTableRecord
  2
FORMAT
 70
     0
 62
     2
  6
Continuous
370
    -3
390
F
  0
LAYER
  5
70
330
2
100
AcDbSymbolTableRecord
100
AcDbLayerTableRecord
  2
외형선
 70
     0
 62
   100
  6
Continuous
370
    30
390
F
  0
LAYER
  5
71
330
2
100
AcDbSymbolTableRecord
100
AcDbLayerTableRecord
  2
숨은선
 70
     0
 62
     2
  6
HIDDEN
370
    15
390
F
  0
LAYER
  5
72
330
2
100
AcDbSymbolTableRecord
100
AcDbLayerTableRecord
  2
중심선
 70
     0
 62
     1
  6
CENTERX2
370
    -3
390
F
  0
LAYER
  5
73
330
2
100
AcDbSymbolTableRecord
100
AcDbLayerTableRecord
  2
파단선
 70
     0
 62
     4
  6
Continuous
370
    -3
390
F
  0
LAYER
  5
74
330
2
100
AcDbSymbolTableRecord
100
AcDbLayerTableRecord
  2
해칭선
 70
     0
 62
     4
  6
Continuous
370
    -3
390
F
  0
LAYER
  5
75
330
2
100
AcDbSymbolTableRecord
100
AcDbLayerTableRecord
  2
가는실선
 70
     0
 62
     4
  6
Continuous
370
    -3
390
F
  0
LAYER
  5
76
330
2
100
AcDbSymbolTableRecord
100
AcDbLayerTableRecord
  2
치수_보조선
 70
     0
 62
     4
  6
Continuous
370
    -3
390
F
  0
LAYER
  5
77
330
2
100
AcDbSymbolTableRecord
100
AcDbLayerTableRecord
  2
치수문자_일반주서
 70
     0
 62
     7
  6
Continuous
370
    15
390
F
  0
LAYER
  5
78
330
2
100
AcDbSymbolTableRecord
100
AcDbLayerTableRecord
  2
개별주서
 70
     0
 62
   100
  6
Continuous
370
    30
390
F
  0
LAYER
  5
79
330
2
100
AcDbSymbolTableRecord
100
AcDbLayerTableRecord
  2
중간선
 70
     0
 62
     2
  6
Continuous
370
    15
390
F
  0
LAYER
  5
7A
330
2
100
AcDbSymbolTableRecord
100
AcDbLayerTableRecord
  2
윤곽선
 70
     0
 62
     3
  6
Continuous
370
    40
390
F
  0
LAYER
  5
7B
330
2
100
AcDbSymbolTableRecord
100
AcDbLayerTableRecord
  2
중심마크
 70
     0
 62
   100
  6
Continuous
370
    30
390
F
  0
LAYER
  5
7C
330
2
100
AcDbSymbolTableRecord
100
AcDbLayerTableRecord
  2
가상선
 70
     0
 62
     4
  6
PHANTOM
370
    -3
390
F
  0
LAYER
  5
7D
330
2
100
AcDbSymbolTableRecord
100
AcDbLayerTableRecord
  2
특수지정선
 70
     0
 62
     5
  6
CENTERX2
370
    60
390
F
  0
LAYER
  5
12A
330
2
100
AcDbSymbolTableRecord
100
AcDbLayerTableRecord
  2
Defpoints
 70
     0
 62
     7
  6
Continuous
290
     0
370
    -3
390
F
  0
ENDTAB
  0
TABLE
  2
STYLE
  5
3
330
0
100
AcDbSymbolTable
 70
     2
  0
STYLE
  5
11
330
3
100
AcDbSymbolTableRecord
100
AcDbTextStyleTableRecord
  2
Standard
 70
     0
 40
0.0
 41
1.0
 50
0.0
 71
     0
 42
3.5
  3
txt
  4

  0
STYLE
  5
93
330
3
100
AcDbSymbolTableRecord
100
AcDbTextStyleTableRecord
  2
SLDTEXTSTYLE0
 70
     0
 40
0.0
 41
0.75
 50
0.0
 71
     0
 42
3.5
  3
TXT
  4

  0
ENDTAB
  0
TABLE
  2
VIEW
  5
6
330
0
100
AcDbSymbolTable
 70
     0
  0
ENDTAB
  0
TABLE
  2
UCS
  5
7
330
0
100
AcDbSymbolTable
 70
     0
  0
ENDTAB
  0
TABLE
  2
APPID
  5
9
330
0
100
AcDbSymbolTable
 70
     4
  0
APPID
  5
12
330
9
100
AcDbSymbolTableRecord
100
AcDbRegAppTableRecord
  2
ACAD
 70
     0
  0
APPID
  5
131
330
9
100
AcDbSymbolTableRecord
100
AcDbRegAppTableRecord
  2
ACAD_DSTYLE_DIMRADIAL_EXTENSION
 70
     0
  0
APPID
  5
1A1
330
9
100
AcDbSymbolTableRecord
100
AcDbRegAppTableRecord
  2
PE_URL
 70
     0
  0
APPID
  5
241
330
9
100
AcDbSymbolTableRecord
100
AcDbRegAppTableRecord
  2
ENABLE_CUSTOM_SPLIT
 70
     0
  0
ENDTAB
  0
TABLE
  2
DIMSTYLE
  5
A
330
0
100
AcDbSymbolTable
 70
     4
100
AcDbDimStyleTable
  0
DIMSTYLE
105
27
330
A
100
AcDbSymbolTableRecord
100
AcDbDimStyleTableRecord
  2
ISO-25
 70
     0
 41
2.5
 42
0.625
 43
3.75
 44
1.25
 73
     0
 74
     0
 77
     1
 78
     8
140
2.5
141
2.5
143
0.03937007874016
147
0.625
171
     3
172
     1
178
     0
271
     2
272
     2
274
     3
278
    44
283
     0
284
     8
340
11
  0
DIMSTYLE
105
D3
330
A
100
AcDbSymbolTableRecord
100
AcDbDimStyleTableRecord
  2
SLDDIMSTYLE0
 70
     0
 41
3.302
 44
0.0
 45
0.000000001
 73
     0
 74
     0
 77
     1
 78
    12
 79
     3
140
3.5
147
0.875
172
     1
173
     1
178
     0
271
     2
272
     2
276
     2
284
    12
289
     0
340
93
  0
DIMSTYLE
105
E1
330
A
100
AcDbSymbolTableRecord
100
AcDbDimStyleTableRecord
  2
SLDDIMSTYLE1
 70
     0
 41
3.302
 44
0.0
 45
0.000000001
 73
     0
 74
     0
 77
     1
 78
    12
 79
     3
140
3.5
147
0.875
173
     1
178
     0
271
     2
272
     2
276
     2
284
    12
340
93
  0
DIMSTYLE
105
12F
102
{ACAD_REACTORS
330
E0
330
EB
330
D2
330
F5
330
1EB
102
}
330
A
100
AcDbSymbolTableRecord
100
AcDbDimStyleTableRecord
  2
SLDDIMSTYLE2
 70
     0
 41
3.302
 44
0.0
 45
0.000000001
 73
     0
 74
     0
 77
     1
 78
    12
 79
     3
140
3.5
147
0.875
172
     1
173
     1
178
     0
271
     2
272
     2
276
     2
284
    12
289
     0
340
93
  0
ENDTAB
  0
TABLE
  2
BLOCK_RECORD
  5
1
330
0
100
AcDbSymbolTable
 70
    15
  0
BLOCK_RECORD
  5
1F
102
{ACAD_XDICTIONARY
360
21A
102
}
330
1
100
AcDbSymbolTableRecord
100
AcDbBlockTableRecord
  2
*Model_Space
340
22
  0
BLOCK_RECORD
  5
1B
330
1
100
AcDbSymbolTableRecord
100
AcDbBlockTableRecord
  2
*Paper_Space
340
1E
  0
BLOCK_RECORD
  5
23
330
1
100
AcDbSymbolTableRecord
100
AcDbBlockTableRecord
  2
*Paper_Space0
340
26
  0
BLOCK_RECORD
  5
7E
330
1
100
AcDbSymbolTableRecord
100
AcDbBlockTableRecord
  2
블럭10
340
0
102
{BLKREFS
331
CA
102
}
  0
BLOCK_RECORD
  5
D4
330
1
100
AcDbSymbolTableRecord
100
AcDbBlockTableRecord
  2
_D
340
0
  0
BLOCK_RECORD
  5
E2
330
1
100
AcDbSymbolTableRecord
100
AcDbBlockTableRecord
  2
_D_1
340
0
  0
BLOCK_RECORD
  5
EC
330
1
100
AcDbSymbolTableRecord
100
AcDbBlockTableRecord
  2
_D_2
340
0
  0
BLOCK_RECORD
  5
F6
330
1
100
AcDbSymbolTableRecord
100
AcDbBlockTableRecord
  2
_D_3
340
0
  0
BLOCK_RECORD
  5
100
330
1
100
AcDbSymbolTableRecord
100
AcDbBlockTableRecord
  2
SW_DOWELSYMBOL_0
340
0
102
{BLKREFS
331
106
102
}
  0
BLOCK_RECORD
  5
151
330
1
100
AcDbSymbolTableRecord
100
AcDbBlockTableRecord
  2
*D7
340
0
  0
BLOCK_RECORD
  5
15B
330
1
100
AcDbSymbolTableRecord
100
AcDbBlockTableRecord
  2
*D8
340
0
  0
BLOCK_RECORD
  5
16A
330
1
100
AcDbSymbolTableRecord
100
AcDbBlockTableRecord
  2
*D9
340
0
  0
BLOCK_RECORD
  5
17E
330
1
100
AcDbSymbolTableRecord
100
AcDbBlockTableRecord
  2
*D10
340
0
  0
BLOCK_RECORD
  5
187
330
1
100
AcDbSymbolTableRecord
100
AcDbBlockTableRecord
  2
*D11
340
0
  0
BLOCK_RECORD
  5
195
330
1
100
AcDbSymbolTableRecord
100
AcDbBlockTableRecord
  2
*D12
340
0
  0
BLOCK_RECORD
  5
1AB
330
1
100
AcDbSymbolTableRecord
100
AcDbBlockTableRecord
  2
*D13
340
0
  0
BLOCK_RECORD
  5
1EE
330
1
100
AcDbSymbolTableRecord
100
AcDbBlockTableRecord
  2
*D14
340
0
  0
ENDTAB
  0
ENDSEC
  0
SECTION
  2
BLOCKS
  0
BLOCK
  5
20
330
1F
100
AcDbEntity
  8
0
100
AcDbBlockBegin
  2
*Model_Space
 70
     0
 10
0.0
 20
0.0
 30
0.0
  3
*Model_Space
  1

  0
ENDBLK
  5
21
330
1F
100
AcDbEntity
  8
0
100
AcDbBlockEnd
  0
BLOCK
  5
1C
330
1B
100
AcDbEntity
 67
     1
  8
0
100
AcDbBlockBegin
  2
*Paper_Space
 70
     0
 10
0.0
 20
0.0
 30
0.0
  3
*Paper_Space
  1

  0
ENDBLK
  5
1D
330
1B
100
AcDbEntity
 67
     1
  8
0
100
AcDbBlockEnd
  0
BLOCK
  5
24
330
23
100
AcDbEntity
  8
0
100
AcDbBlockBegin
  2
*Paper_Space0
 70
     0
 10
0.0
 20
0.0
 30
0.0
  3
*Paper_Space0
  1

  0
ENDBLK
  5
25
330
23
100
AcDbEntity
  8
0
100
AcDbBlockEnd
  0
BLOCK
  5
7F
330
7E
100
AcDbEntity
  8
0
100
AcDbBlockBegin
  2
블럭10
 70
     2
 10
0.0
 20
0.0
 30
0.0
  3
블럭10
  1

  0
ELLIPSE
  5
81
330
7E
100
AcDbEntity
  8
중심선
100
AcDbEllipse
 10
20.54032771741204
 20
12.0471743016438
 30
0.0
 11
6.600054785286829
 21
-1.261213355974178E-13
 31
0.0
210
0.0
220
0.0
230
1.0
 40
0.636358354079598
 41
0.9219305317359503
 42
6.513795318482858
  0
ELLIPSE
  5
82
330
7E
100
AcDbEntity
  8
중심선
100
AcDbEllipse
 10
20.54032771746488
 20
12.04717430159265
 30
0.0
 11
3.960054785062283
 21
1.540847449632565E-10
 31
0.0
210
0.0
220
0.0
230
1.0
 40
0.3939339440162632
 41
1.131841032648279
 42
5.62031148352944
  0
LINE
  5
83
330
7E
100
AcDbEntity
  8
중심선
100
AcDbLine
 10
2.268634060543552
 20
16.24717430164393
 30
0.0
 11
5.714909304380834
 21
16.24717430164393
 31
0.0
  0
LINE
  5
84
330
7E
100
AcDbEntity
  8
중심선
100
AcDbLine
 10
5.245725140726316
 20
7.84717430164391
 30
0.0
 11
8.692000384563599
 21
7.84717430164391
 31
0.0
  0
LINE
  5
85
330
7E
100
AcDbEntity
  8
중심선
100
AcDbLine
 10
15.74043728645272
 20
16.24717430164393
 30
0.0
 11
8.692000384563599
 21
7.84717430164391
 31
0.0
  0
LINE
  5
86
330
7E
100
AcDbEntity
  8
중심선
100
AcDbLine
 10
0.1404042013395286
 20
13.71084872107135
 30
0.0
 11
3.58671253028996
 21
13.71088815037384
 31
0.0
  0
LINE
  5
87
330
7E
100
AcDbEntity
  8
중심선
100
AcDbLine
 10
2.750260043222114
 20
10.84717430164391
 30
0.0
 11
6.196535287059397
 21
10.84717430164391
 31
0.0
  0
LINE
  5
88
330
7E
100
AcDbEntity
  8
중심선
100
AcDbLine
 10
12.29416204261559
 20
16.24717430164393
 30
0.0
 11
5.245725140726316
 21
7.84717430164391
 31
0.0
  0
LINE
  5
89
330
7E
100
AcDbEntity
  8
중심선
100
AcDbLine
 10
10.72767329541681
 20
16.24717430164393
 30
0.0
 11
6.196535287059397
 21
10.84717430164391
 31
0.0
  0
LINE
  5
8A
330
7E
100
AcDbEntity
  8
중심선
100
AcDbLine
 10
7.28139805157953
 20
16.24717430164393
 30
0.0
 11
2.750260043222114
 21
10.84717430164391
 31
0.0
  0
LINE
  5
8B
330
7E
100
AcDbEntity
  8
중심선
100
AcDbLine
 10
5.714909304380834
 20
16.24717430164393
 30
0.0
 11
3.58671253028996
 21
13.71088815037384
 31
0.0
  0
LINE
  5
8C
330
7E
100
AcDbEntity
  8
중심선
100
AcDbLine
 10
2.268634060543552
 20
16.24717430164393
 30
0.0
 11
0.1404042013395286
 21
13.71084872107135
 31
0.0
  0
LINE
  5
8D
330
7E
100
AcDbEntity
  8
중심선
100
AcDbLine
 10
7.28139805157953
 20
16.24717430164393
 30
0.0
 11
10.72767329541681
 21
16.24717430164393
 31
0.0
  0
LINE
  5
8E
330
7E
100
AcDbEntity
  8
중심선
100
AcDbLine
 10
12.29416204261559
 20
16.24717430164393
 30
0.0
 11
15.74043728645272
 21
16.24717430164393
 31
0.0
  0
LINE
  5
8F
330
7E
100
AcDbEntity
  8
중심선
100
AcDbLine
 10
19.22036997980202
 20
11.08717430171403
 30
0.0
 11
23.66174974927406
 21
11.08717430171406
 31
0.0
  0
LINE
  5
90
330
7E
100
AcDbEntity
  8
중심선
100
AcDbLine
 10
19.22039502424796
 20
13.00717430171391
 30
0.0
 11
19.22036997980202
 21
11.08717430171403
 31
0.0
  0
LINE
  5
91
330
7E
100
AcDbEntity
  8
중심선
100
AcDbLine
 10
19.22039502424796
 20
13.00717430171391
 30
0.0
 11
26.96566020931264
 21
13.00717430171391
 31
0.0
  0
LINE
  5
92
330
7E
100
AcDbEntity
  8
중심선
100
AcDbLine
 10
22.22332737316547
 20
13.45928029700563
 30
0.0
 11
24.52862924686651
 21
15.39360700705356
 31
0.0
  0
ATTDEF
  5
94
330
7E
100
AcDbEntity
  8
FORMAT
 62
     2
100
AcDbText
 10
-16.62882859820096
 20
2.075366912832191
 30
0.0
 40
4.233333333333333
  1
SEMD9916005E [ 2 FLUTE ]
 41
0.75
  7
SLDTEXTSTYLE0
 11
-16.62882859820096
 21
-0.0412997538344756
 31
0.0
100
AcDbAttributeDefinition
  3

  2
AUTOATTR0
 70
     0
 74
     1
  0
ENDBLK
  5
80
330
7E
100
AcDbEntity
  8
0
100
AcDbBlockEnd
  0
BLOCK
  5
D5
330
D4
100
AcDbEntity
  8
0
100
AcDbBlockBegin
  2
_D
 70
     0
 10
0.0
 20
0.0
 30
0.0
  3
_D
  1

  0
LINE
  5
D7
330
D4
100
AcDbEntity
  8
치수문자_일반주서
 62
     0
370
    -2
100
AcDbLine
 10
42.06542341823893
 20
-8.000000000000004
 30
0.0
 11
57.00292341823898
 21
-7.99999999999995
 31
0.0
  0
LINE
  5
D8
330
D4
100
AcDbEntity
  8
치수문자_일반주서
 62
     0
370
    -2
100
AcDbLine
 10
42.06542341823893
 20
7.999999999999996
 30
0.0
 11
57.00292341823892
 21
8.00000000000005
 31
0.0
  0
LINE
  5
D9
330
D4
100
AcDbEntity
  8
치수문자_일반주서
 62
     0
370
    -2
100
AcDbLine
 10
57.00292341823892
 20
8.00000000000005
 30
0.0
 11
57.00292341823886
 21
24.75000000000014
 31
0.0
  0
LINE
  5
DA
330
D4
100
AcDbEntity
  8
치수문자_일반주서
 62
     0
370
    -2
100
AcDbLine
 10
57.00292341823898
 20
-7.99999999999995
 30
0.0
 11
57.00292341823892
 21
8.00000000000005
 31
0.0
  0
LINE
  5
DB
330
D4
100
AcDbEntity
  8
치수문자_일반주서
 62
     0
370
    -2
100
AcDbLine
 10
57.00292341823899
 20
-11.99999999999995
 30
0.0
 11
57.00292341823901
 21
-15.99999999999995
 31
0.0
  0
LINE
  5
DC
330
D4
100
AcDbEntity
  8
치수문자_일반주서
 62
     0
370
    -2
100
AcDbLine
 10
57.00292341823891
 20
12.00000000000005
 30
0.0
 11
57.00292341823889
 21
16.00000000000005
 31
0.0
  0
SOLID
  5
DD
330
D4
100
AcDbEntity
  8
치수문자_일반주서
 62
     0
100
AcDbTrace
 10
57.66959008490566
 20
-11.99999999999995
 30
0.0
 11
56.33625675157233
 21
-11.99999999999995
 31
0.0
 12
57.00292341823898
 22
-7.99999999999995
 32
0.0
 13
57.00292341823898
 23
-7.99999999999995
 33
0.0
  0
SOLID
  5
DE
330
D4
100
AcDbEntity
  8
치수문자_일반주서
 62
     0
100
AcDbTrace
 10
56.33625675157224
 20
12.00000000000005
 30
0.0
 11
57.66959008490557
 21
12.00000000000005
 31
0.0
 12
57.00292341823892
 22
8.00000000000005
 32
0.0
 13
57.00292341823892
 23
8.00000000000005
 33
0.0
  0
MTEXT
  5
DF
330
D4
100
AcDbEntity
  8
치수문자_일반주서
 62
     0
100
AcDbMText
 10
52.12792341823888
 20
20.37500000000012
 30
0.0
 40
4.0
 41
0.0
 71
     2
 72
     1
  1
\A1;%%c16
  7
SLDTEXTSTYLE0
 11
-3.552713678800502E-15
 21
1.0
 31
0.0
 73
     1
 44
1.0
  0
POINT
  5
1BD
330
D4
100
AcDbEntity
  8
Defpoints
 62
     0
100
AcDbPoint
 10
42.00292341823893
 20
-8.000000000000004
 30
0.0
  0
POINT
  5
1BE
330
D4
100
AcDbEntity
  8
Defpoints
 62
     0
100
AcDbPoint
 10
42.00292341823893
 20
7.999999999999996
 30
0.0
  0
POINT
  5
1BF
330
D4
100
AcDbEntity
  8
Defpoints
 62
     0
100
AcDbPoint
 10
57.00292341823892
 20
8.000000000000048
 30
0.0
  0
ENDBLK
  5
D6
330
D4
100
AcDbEntity
  8
0
100
AcDbBlockEnd
  0
BLOCK
  5
E3
330
E2
100
AcDbEntity
  8
0
100
AcDbBlockBegin
  2
_D_1
 70
     0
 10
0.0
 20
0.0
 30
0.0
  3
_D_1
  1

  0
LINE
  5
E5
330
E2
100
AcDbEntity
  8
치수문자_일반주서
 62
     0
370
    -2
100
AcDbLine
 10
42.00292341823893
 20
8.062499999999996
 30
0.0
 11
42.00292341823893
 21
22.99999999999999
 31
0.0
  0
LINE
  5
E6
330
E2
100
AcDbEntity
  8
치수문자_일반주서
 62
     0
370
    -2
100
AcDbLine
 10
10.00292341823892
 20
7.039308514421555
 30
0.0
 11
10.00292341823892
 21
22.99999999999999
 31
0.0
  0
LINE
  5
E7
330
E2
100
AcDbEntity
  8
치수문자_일반주서
 62
     0
370
    -2
100
AcDbLine
 10
38.00292341823893
 20
22.99999999999999
 30
0.0
 11
14.00292341823892
 21
22.99999999999999
 31
0.0
  0
SOLID
  5
E8
330
E2
100
AcDbEntity
  8
치수문자_일반주서
 62
     0
100
AcDbTrace
 10
38.00292341823893
 20
22.33333333333333
 30
0.0
 11
38.00292341823893
 21
23.66666666666666
 31
0.0
 12
42.00292341823893
 22
22.99999999999999
 32
0.0
 13
42.00292341823893
 23
22.99999999999999
 33
0.0
  0
SOLID
  5
E9
330
E2
100
AcDbEntity
  8
치수문자_일반주서
 62
     0
100
AcDbTrace
 10
14.00292341823892
 20
23.66666666666666
 30
0.0
 11
14.00292341823892
 21
22.33333333333333
 31
0.0
 12
10.00292341823892
 22
22.99999999999999
 32
0.0
 13
10.00292341823892
 23
22.99999999999999
 33
0.0
  0
MTEXT
  5
EA
330
E2
100
AcDbEntity
  8
치수문자_일반주서
 62
     0
100
AcDbMText
 10
26.00292341823892
 20
27.87499999999999
 30
0.0
 40
4.0
 41
0.0
 71
     2
 72
     1
  1
\A1;32
  7
SLDTEXTSTYLE0
 73
     1
 44
1.0
  0
POINT
  5
1A2
330
E2
100
AcDbEntity
  8
Defpoints
 62
     0
100
AcDbPoint
 10
42.00292341823893
 20
7.999999999999996
 30
0.0
  0
POINT
  5
1A3
330
E2
100
AcDbEntity
  8
Defpoints
 62
     0
100
AcDbPoint
 10
10.00292341823892
 20
6.976808514421555
 30
0.0
  0
POINT
  5
1A4
330
E2
100
AcDbEntity
  8
Defpoints
 62
     0
100
AcDbPoint
 10
10.00292341823892
 20
22.99999999999999
 30
0.0
  0
ENDBLK
  5
E4
330
E2
100
AcDbEntity
  8
0
100
AcDbBlockEnd
  0
BLOCK
  5
ED
330
EC
100
AcDbEntity
  8
0
100
AcDbBlockBegin
  2
_D_2
 70
     0
 10
0.0
 20
0.0
 30
0.0
  3
_D_2
  1

  0
LINE
  5
EF
330
EC
100
AcDbEntity
  8
치수문자_일반주서
 62
     0
370
    -2
100
AcDbLine
 10
42.00292341823893
 20
8.062499999999996
 30
0.0
 11
42.00292341823893
 21
38.0
 31
0.0
  0
LINE
  5
F0
330
EC
100
AcDbEntity
  8
치수문자_일반주서
 62
     0
370
    -2
100
AcDbLine
 10
-107.9970765817611
 20
7.062499999999988
 30
0.0
 11
-107.9970765817611
 21
38.0
 31
0.0
  0
LINE
  5
F1
330
EC
100
AcDbEntity
  8
치수문자_일반주서
 62
     0
370
    -2
100
AcDbLine
 10
38.00292341823893
 20
38.0
 30
0.0
 11
-103.9970765817611
 21
38.0
 31
0.0
  0
SOLID
  5
F2
330
EC
100
AcDbEntity
  8
치수문자_일반주서
 62
     0
100
AcDbTrace
 10
38.00292341823893
 20
37.33333333333334
 30
0.0
 11
38.00292341823893
 21
38.66666666666666
 31
0.0
 12
42.00292341823893
 22
38.0
 32
0.0
 13
42.00292341823893
 23
38.0
 33
0.0
  0
SOLID
  5
F3
330
EC
100
AcDbEntity
  8
치수문자_일반주서
 62
     0
100
AcDbTrace
 10
-103.9970765817611
 20
38.66666666666666
 30
0.0
 11
-103.9970765817611
 21
37.33333333333334
 31
0.0
 12
-107.9970765817611
 22
38.0
 32
0.0
 13
-107.9970765817611
 23
38.0
 33
0.0
  0
MTEXT
  5
F4
330
EC
100
AcDbEntity
  8
치수문자_일반주서
 62
     0
100
AcDbMText
 10
-32.99707658176107
 20
42.875
 30
0.0
 40
4.0
 41
0.0
 71
     2
 72
     1
  1
\A1;150
  7
SLDTEXTSTYLE0
 73
     1
 44
1.0
  0
POINT
  5
1A5
330
EC
100
AcDbEntity
  8
Defpoints
 62
     0
100
AcDbPoint
 10
42.00292341823893
 20
7.999999999999996
 30
0.0
  0
POINT
  5
1A6
330
EC
100
AcDbEntity
  8
Defpoints
 62
     0
100
AcDbPoint
 10
-107.9970765817611
 20
6.999999999999988
 30
0.0
  0
POINT
  5
1A7
330
EC
100
AcDbEntity
  8
Defpoints
 62
     0
100
AcDbPoint
 10
-107.9970765817611
 20
38.0
 30
0.0
  0
ENDBLK
  5
EE
330
EC
100
AcDbEntity
  8
0
100
AcDbBlockEnd
  0
BLOCK
  5
F7
330
F6
100
AcDbEntity
  8
0
100
AcDbBlockBegin
  2
_D_3
 70
     0
 10
0.0
 20
0.0
 30
0.0
  3
_D_3
  1

  0
LINE
  5
F9
330
F6
100
AcDbEntity
  8
치수문자_일반주서
 62
     0
370
    -2
100
AcDbLine
 10
-107.0595765817611
 20
-8.000000000000007
 30
0.0
 11
-122.997076581761
 21
-8.000000000000064
 31
0.0
  0
LINE
  5
FA
330
F6
100
AcDbEntity
  8
치수문자_일반주서
 62
     0
370
    -2
100
AcDbLine
 10
-107.0595765817611
 20
7.999999999999983
 30
0.0
 11
-122.9970765817611
 21
7.999999999999927
 31
0.0
  0
LINE
  5
FB
330
F6
100
AcDbEntity
  8
치수문자_일반주서
 62
     0
370
    -2
100
AcDbLine
 10
-122.9970765817611
 20
7.999999999999927
 30
0.0
 11
-122.9970765817611
 21
24.74999999999993
 31
0.0
  0
LINE
  5
FC
330
F6
100
AcDbEntity
  8
치수문자_일반주서
 62
     0
370
    -2
100
AcDbLine
 10
-122.997076581761
 20
-8.000000000000064
 30
0.0
 11
-122.9970765817611
 21
7.999999999999927
 31
0.0
  0
LINE
  5
FD
330
F6
100
AcDbEntity
  8
치수문자_일반주서
 62
     0
370
    -2
100
AcDbLine
 10
-122.997076581761
 20
-12.00000000000006
 30
0.0
 11
-122.997076581761
 21
-16.00000000000006
 31
0.0
  0
LINE
  5
FE
330
F6
100
AcDbEntity
  8
치수문자_일반주서
 62
     0
370
    -2
100
AcDbLine
 10
-122.9970765817611
 20
11.99999999999993
 30
0.0
 11
-122.9970765817611
 21
15.99999999999993
 31
0.0
  0
SOLID
  5
FF
330
F6
100
AcDbEntity
  8
치수문자_일반주서
 62
     0
100
AcDbTrace
 10
-122.3304099150943
 20
-12.00000000000006
 30
0.0
 11
-123.6637432484277
 21
-12.00000000000007
 31
0.0
 12
-122.997076581761
 22
-8.000000000000064
 32
0.0
 13
-122.997076581761
 23
-8.000000000000064
 33
0.0
  0
SOLID
  5
1A8
330
F6
100
AcDbEntity
  8
치수문자_일반주서
 62
     0
100
AcDbTrace
 10
-123.6637432484277
 20
11.99999999999993
 30
0.0
 11
-122.3304099150944
 21
11.99999999999993
 31
0.0
 12
-122.9970765817611
 22
7.999999999999927
 32
0.0
 13
-122.9970765817611
 23
7.999999999999927
 33
0.0
  0
MTEXT
  5
1A9
330
F6
100
AcDbEntity
  8
치수문자_일반주서
 62
     0
100
AcDbMText
 10
-127.8720765817611
 20
20.37499999999991
 30
0.0
 40
4.0
 41
0.0
 71
     2
 72
     1
  1
\A1;%%c16
  7
SLDTEXTSTYLE0
 11
-3.552713678800503E-15
 21
1.0
 31
0.0
 73
     1
 44
1.0
  0
POINT
  5
1BA
330
F6
100
AcDbEntity
  8
Defpoints
 62
     0
100
AcDbPoint
 10
-106.9970765817611
 20
-8.000000000000007
 30
0.0
  0
POINT
  5
1BB
330
F6
100
AcDbEntity
  8
Defpoints
 62
     0
100
AcDbPoint
 10
-106.9970765817611
 20
7.999999999999983
 30
0.0
  0
POINT
  5
1BC
330
F6
100
AcDbEntity
  8
Defpoints
 62
     0
100
AcDbPoint
 10
-122.9970765817611
 20
7.999999999999927
 30
0.0
  0
ENDBLK
  5
F8
330
F6
100
AcDbEntity
  8
0
100
AcDbBlockEnd
  0
BLOCK
  5
101
330
100
100
AcDbEntity
  8
0
100
AcDbBlockBegin
  2
SW_DOWELSYMBOL_0
 70
     0
 10
0.0
 20
0.0
 30
0.0
  3
SW_DOWELSYMBOL_0
  1

  0
CIRCLE
  5
103
330
100
100
AcDbEntity
  8
외형선
 62
     0
100
AcDbCircle
 10
0.0
 20
0.0
 30
0.0
 40
3.000000000000001
  0
HATCH
  5
104
330
100
100
AcDbEntity
  8
0
  6
Continuous
 62
     0
370
    30
100
AcDbHatch
 10
0.0
 20
0.0
 30
0.0
210
0.0
220
0.0
230
1.0
  2
SOLID
 70
     1
 71
     0
 91
        1
 92
        0
 93
        3
 72
     2
 10
-0.0000000000000069
 20
-0.0000000000000035
 40
3.000000000000001
 50
0.0
 51
90.0
 73
     1
 72
     1
 10
-0.0000000000000069
 20
2.999999999999998
 11
-0.0000000000000069
 21
-0.0000000000000036
 72
     1
 10
-0.0000000000000069
 20
-0.0000000000000035
 11
2.999999999999994
 21
-0.0000000000000035
 97
        0
 75
     0
 76
     1
 98
        1
 10
0.0
 20
0.0
  0
HATCH
  5
105
330
100
100
AcDbEntity
  8
0
  6
Continuous
 62
     0
370
    30
100
AcDbHatch
 10
0.0
 20
0.0
 30
0.0
210
0.0
220
0.0
230
1.0
  2
SOLID
 70
     1
 71
     0
 91
        1
 92
        0
 93
        3
 72
     2
 10
-0.0000000000000069
 20
-0.0000000000000035
 40
3.000000000000001
 50
180.0
 51
270.0000000000007
 73
     1
 72
     1
 10
-0.0000000000000069
 20
-3.000000000000005
 11
-0.0000000000000069
 21
-0.0000000000000036
 72
     1
 10
-0.0000000000000069
 20
-0.0000000000000035
 11
-3.000000000000008
 21
-0.0000000000000035
 97
        0
 75
     0
 76
     1
 98
        1
 10
0.0
 20
0.0
  0
ENDBLK
  5
102
330
100
100
AcDbEntity
  8
0
100
AcDbBlockEnd
  0
BLOCK
  5
152
330
151
100
AcDbEntity
  8
0
100
AcDbBlockBegin
  2
*D7
 70
     1
 10
0.0
 20
0.0
 30
0.0
  3
*D7
  1

  0
LINE
  5
153
330
151
100
AcDbEntity
  8
치수문자_일반주서
 62
     0
370
    -2
100
AcDbLine
 10
40.18655912075932
 20
21.09418497419873
 30
0.0
 11
57.63091863241067
 21
0.0000000000000062
 31
0.0
  0
MTEXT
  5
154
330
151
100
AcDbEntity
  8
치수문자_일반주서
 62
     0
100
AcDbMText
 10
58.01426440755611
 20
4.047751970746009
 30
0.0
 40
4.0
 41
0.0
 71
     5
 72
     1
  1
\A1;R1
  7
SLDTEXTSTYLE0
 11
0.6372880340174896
 21
-0.7706256949376417
 31
0.0
 73
     1
 44
1.0
  0
LINE
  5
155
330
151
100
AcDbEntity
  8
치수문자_일반주서
 62
     0
370
    -2
100
AcDbLine
 10
37.00011895067188
 20
24.94731344888694
 30
0.0
 11
37.63740698468936
 21
24.1766877539493
 31
0.0
  0
SOLID
  5
156
330
151
100
AcDbEntity
  8
치수문자_일반주서
 62
     0
100
AcDbTrace
 10
40.70030958405108
 20
21.51904366354373
 30
0.0
 11
39.67280865746756
 21
20.66932628485374
 31
0.0
 12
37.63740698468936
 22
24.1766877539493
 32
0.0
 13
37.63740698468936
 23
24.1766877539493
 33
0.0
  0
POINT
  5
157
330
151
100
AcDbEntity
  8
Defpoints
 62
     0
100
AcDbPoint
 10
37.63740698468936
 20
24.1766877539493
 30
0.0
  0
POINT
  5
158
330
151
100
AcDbEntity
  8
Defpoints
 62
     0
100
AcDbPoint
 10
37.00011895067188
 20
24.94731344888694
 30
0.0
  0
ENDBLK
  5
159
330
151
100
AcDbEntity
  8
0
100
AcDbBlockEnd
  0
BLOCK
  5
15C
330
15B
100
AcDbEntity
  8
0
100
AcDbBlockBegin
  2
*D8
 70
     1
 10
0.0
 20
0.0
 30
0.0
  3
*D8
  1

  0
LINE
  5
15D
330
15B
100
AcDbEntity
  8
치수문자_일반주서
 62
     0
370
    -2
100
AcDbLine
 10
38.06261895067188
 20
43.94731344888694
 30
0.0
 11
54.23671304309275
 21
43.94731344888694
 31
0.0
  0
LINE
  5
15E
330
15B
100
AcDbEntity
  8
치수문자_일반주서
 62
     0
370
    -2
100
AcDbLine
 10
38.06261895067188
 20
23.94731344888694
 30
0.0
 11
54.23671304309275
 21
23.94731344888694
 31
0.0
  0
LINE
  5
15F
330
15B
100
AcDbEntity
  8
치수문자_일반주서
 62
     0
370
    -2
100
AcDbLine
 10
54.23671304309275
 20
43.94731344888694
 30
0.0
 11
54.23671304309275
 21
23.94731344888694
 31
0.0
  0
LINE
  5
160
330
15B
100
AcDbEntity
  8
치수문자_일반주서
 62
     0
370
    -2
100
AcDbLine
 10
54.23671304309275
 20
47.94731344888694
 30
0.0
 11
54.23671304309275
 21
51.94731344888694
 31
0.0
  0
LINE
  5
161
330
15B
100
AcDbEntity
  8
치수문자_일반주서
 62
     0
370
    -2
100
AcDbLine
 10
54.23671304309275
 20
19.94731344888694
 30
0.0
 11
54.23671304309275
 21
15.94731344888694
 31
0.0
  0
SOLID
  5
162
330
15B
100
AcDbEntity
  8
치수문자_일반주서
 62
     0
100
AcDbTrace
 10
53.57004637642608
 20
47.94731344888694
 30
0.0
 11
54.90337970975941
 21
47.94731344888694
 31
0.0
 12
54.23671304309275
 22
43.94731344888694
 32
0.0
 13
54.23671304309275
 23
43.94731344888694
 33
0.0
  0
SOLID
  5
163
330
15B
100
AcDbEntity
  8
치수문자_일반주서
 62
     0
100
AcDbTrace
 10
54.90337970975941
 20
19.94731344888694
 30
0.0
 11
53.57004637642608
 21
19.94731344888694
 31
0.0
 12
54.23671304309275
 22
23.94731344888694
 32
0.0
 13
54.23671304309275
 23
23.94731344888694
 33
0.0
  0
MTEXT
  5
164
330
15B
100
AcDbEntity
  8
치수문자_일반주서
 62
     0
100
AcDbMText
 10
51.36171304309275
 20
33.94731344888694
 30
0.0
 40
4.0
 41
0.0
 71
     5
 72
     1
  1
\A1;{%%c20}
  7
SLDTEXTSTYLE0
 11
0.0
 21
1.0
 31
0.0
 73
     1
 44
1.0
  0
POINT
  5
165
330
15B
100
AcDbEntity
  8
Defpoints
 62
     0
100
AcDbPoint
 10
38.00011895067188
 20
43.94731344888694
 30
0.0
  0
POINT
  5
166
330
15B
100
AcDbEntity
  8
Defpoints
 62
     0
100
AcDbPoint
 10
38.00011895067188
 20
23.94731344888694
 30
0.0
  0
POINT
  5
167
330
15B
100
AcDbEntity
  8
Defpoints
 62
     0
100
AcDbPoint
 10
54.23671304309275
 20
23.94731344888694
 30
0.0
  0
ENDBLK
  5
168
330
15B
100
AcDbEntity
  8
0
100
AcDbBlockEnd
  0
BLOCK
  5
16B
330
16A
100
AcDbEntity
  8
0
100
AcDbBlockBegin
  2
*D9
 70
     1
 10
0.0
 20
0.0
 30
0.0
  3
*D9
  1

  0
LINE
  5
16C
330
16A
100
AcDbEntity
  8
치수문자_일반주서
 62
     0
370
    -2
100
AcDbLine
 10
0.0
 20
33.65694216895076
 30
0.0
 11
0.0
 21
65.23491305160002
 31
0.0
  0
LINE
  5
16D
330
16A
100
AcDbEntity
  8
치수문자_일반주서
 62
     0
370
    -2
100
AcDbLine
 10
38.00011895067188
 20
44.07231344888694
 30
0.0
 11
38.00011895067188
 21
65.23491305160002
 31
0.0
  0
LINE
  5
16E
330
16A
100
AcDbEntity
  8
치수문자_일반주서
 62
     0
370
    -2
100
AcDbLine
 10
4.0
 20
65.23491305160002
 30
0.0
 11
34.00011895067188
 21
65.23491305160002
 31
0.0
  0
SOLID
  5
16F
330
16A
100
AcDbEntity
  8
치수문자_일반주서
 62
     0
100
AcDbTrace
 10
4.0
 20
65.90157971826669
 30
0.0
 11
4.0
 21
64.56824638493335
 31
0.0
 12
0.0
 22
65.23491305160002
 32
0.0
 13
0.0
 23
65.23491305160002
 33
0.0
  0
SOLID
  5
170
330
16A
100
AcDbEntity
  8
치수문자_일반주서
 62
     0
100
AcDbTrace
 10
34.00011895067188
 20
64.56824638493335
 30
0.0
 11
34.00011895067188
 21
65.90157971826669
 31
0.0
 12
38.00011895067188
 22
65.23491305160002
 32
0.0
 13
38.00011895067188
 23
65.23491305160002
 33
0.0
  0
MTEXT
  5
171
330
16A
100
AcDbEntity
  8
치수문자_일반주서
 62
     0
100
AcDbMText
 10
19.06814435762386
 20
70.10991305160002
 30
0.0
 40
4.0
 41
0.0
 71
     2
 72
     1
  1
\A1;38
  7
SLDTEXTSTYLE0
 73
     1
 44
1.0
  0
POINT
  5
172
330
16A
100
AcDbEntity
  8
Defpoints
 62
     0
100
AcDbPoint
 10
0.0
 20
33.59444216895076
 30
0.0
  0
POINT
  5
173
330
16A
100
AcDbEntity
  8
Defpoints
 62
     0
100
AcDbPoint
 10
38.00011895067188
 20
44.00981344888694
 30
0.0
  0
POINT
  5
174
330
16A
100
AcDbEntity
  8
Defpoints
 62
     0
100
AcDbPoint
 10
38.00011895067188
 20
65.23491305160002
 30
0.0
  0
ENDBLK
  5
175
330
16A
100
AcDbEntity
  8
0
100
AcDbBlockEnd
  0
BLOCK
  5
17F
330
17E
100
AcDbEntity
  8
0
100
AcDbBlockBegin
  2
*D10
 70
     1
 10
0.0
 20
0.0
 30
0.0
  3
*D10
  1

  0
LINE
  5
181
330
17E
100
AcDbEntity
  8
치수문자_일반주서
 62
     0
370
    -2
100
AcDbLine
 10
101.4198929731173
 20
-1.974397102173797
 30
0.0
 11
118.8642524847686
 21
-23.06858207637253
 31
0.0
  0
MTEXT
  5
182
330
17E
100
AcDbEntity
  8
치수문자_일반주서
 62
     0
100
AcDbMText
 10
119.2475982599141
 20
-19.02083010562652
 30
0.0
 40
4.0
 41
0.0
 71
     5
 72
     1
  1
\A1;R1
  7
SLDTEXTSTYLE0
 11
0.6372880340174896
 21
-0.7706256949376417
 31
0.0
 73
     1
 44
1.0
  0
LINE
  5
183
330
17E
100
AcDbEntity
  8
치수문자_일반주서
 62
     0
370
    -2
100
AcDbLine
 10
98.23345280302982
 20
1.878731372514409
 30
0.0
 11
98.87074083704731
 21
1.10810567757677
 31
0.0
  0
SOLID
  5
184
330
17E
100
AcDbEntity
  8
치수문자_일반주서
 62
     0
100
AcDbTrace
 10
101.933643436409
 20
-1.549538412828804
 30
0.0
 11
100.9061425098255
 21
-2.39925579151879
 31
0.0
 12
98.87074083704731
 22
1.10810567757677
 32
0.0
 13
98.87074083704731
 23
1.10810567757677
 33
0.0
  0
POINT
  5
185
330
17E
100
AcDbEntity
  8
Defpoints
 62
     0
100
AcDbPoint
 10
98.87074083704731
 20
1.10810567757677
 30
0.0
  0
POINT
  5
186
330
17E
100
AcDbEntity
  8
Defpoints
 62
     0
100
AcDbPoint
 10
98.23345280302982
 20
1.878731372514409
 30
0.0
  0
ENDBLK
  5
180
330
17E
100
AcDbEntity
  8
0
100
AcDbBlockEnd
  0
BLOCK
  5
188
330
187
100
AcDbEntity
  8
0
100
AcDbBlockBegin
  2
*D11
 70
     1
 10
0.0
 20
0.0
 30
0.0
  3
*D11
  1

  0
LINE
  5
18A
330
187
100
AcDbEntity
  8
치수문자_일반주서
 62
     0
370
    -2
100
AcDbLine
 10
99.29595280302982
 20
20.87873137251441
 30
0.0
 11
115.4700468954507
 21
20.87873137251441
 31
0.0
  0
LINE
  5
18B
330
187
100
AcDbEntity
  8
치수문자_일반주서
 62
     0
370
    -2
100
AcDbLine
 10
99.29595280302982
 20
0.8787313725144088
 30
0.0
 11
115.4700468954507
 21
0.8787313725144078
 31
0.0
  0
LINE
  5
18C
330
187
100
AcDbEntity
  8
치수문자_일반주서
 62
     0
370
    -2
100
AcDbLine
 10
115.4700468954507
 20
20.87873137251441
 30
0.0
 11
115.4700468954507
 21
0.8787313725144078
 31
0.0
  0
LINE
  5
18D
330
187
100
AcDbEntity
  8
치수문자_일반주서
 62
     0
370
    -2
100
AcDbLine
 10
115.4700468954507
 20
24.87873137251441
 30
0.0
 11
115.4700468954507
 21
28.87873137251441
 31
0.0
  0
LINE
  5
18E
330
187
100
AcDbEntity
  8
치수문자_일반주서
 62
     0
370
    -2
100
AcDbLine
 10
115.4700468954507
 20
-3.121268627485592
 30
0.0
 11
115.4700468954507
 21
-7.121268627485592
 31
0.0
  0
SOLID
  5
18F
330
187
100
AcDbEntity
  8
치수문자_일반주서
 62
     0
100
AcDbTrace
 10
114.803380228784
 20
24.87873137251441
 30
0.0
 11
116.1367135621174
 21
24.87873137251441
 31
0.0
 12
115.4700468954507
 22
20.87873137251441
 32
0.0
 13
115.4700468954507
 23
20.87873137251441
 33
0.0
  0
SOLID
  5
190
330
187
100
AcDbEntity
  8
치수문자_일반주서
 62
     0
100
AcDbTrace
 10
116.1367135621174
 20
-3.121268627485592
 30
0.0
 11
114.803380228784
 21
-3.121268627485592
 31
0.0
 12
115.4700468954507
 22
0.8787313725144078
 32
0.0
 13
115.4700468954507
 23
0.8787313725144078
 33
0.0
  0
MTEXT
  5
191
330
187
100
AcDbEntity
  8
치수문자_일반주서
 62
     0
100
AcDbMText
 10
112.5950468954507
 20
10.87873137251441
 30
0.0
 40
4.0
 41
0.0
 71
     5
 72
     1
  1
\A1;{%%c20}
  7
SLDTEXTSTYLE0
 11
0.0
 21
1.0
 31
0.0
 73
     1
 44
1.0
  0
POINT
  5
192
330
187
100
AcDbEntity
  8
Defpoints
 62
     0
100
AcDbPoint
 10
99.23345280302982
 20
20.87873137251441
 30
0.0
  0
POINT
  5
193
330
187
100
AcDbEntity
  8
Defpoints
 62
     0
100
AcDbPoint
 10
99.23345280302982
 20
0.8787313725144088
 30
0.0
  0
POINT
  5
194
330
187
100
AcDbEntity
  8
Defpoints
 62
     0
100
AcDbPoint
 10
115.4700468954507
 20
0.8787313725144078
 30
0.0
  0
ENDBLK
  5
189
330
187
100
AcDbEntity
  8
0
100
AcDbBlockEnd
  0
BLOCK
  5
196
330
195
100
AcDbEntity
  8
0
100
AcDbBlockBegin
  2
*D12
 70
     1
 10
0.0
 20
0.0
 30
0.0
  3
*D12
  1

  0
LINE
  5
198
330
195
100
AcDbEntity
  8
치수문자_일반주서
 62
     0
370
    -2
100
AcDbLine
 10
61.23333385235794
 20
10.58836009257823
 30
0.0
 11
61.23333385235794
 21
42.16633097522749
 31
0.0
  0
LINE
  5
199
330
195
100
AcDbEntity
  8
치수문자_일반주서
 62
     0
370
    -2
100
AcDbLine
 10
99.23345280302982
 20
21.00373137251441
 30
0.0
 11
99.23345280302982
 21
42.16633097522749
 31
0.0
  0
LINE
  5
19A
330
195
100
AcDbEntity
  8
치수문자_일반주서
 62
     0
370
    -2
100
AcDbLine
 10
65.23333385235794
 20
42.16633097522749
 30
0.0
 11
95.23345280302982
 21
42.16633097522749
 31
0.0
  0
SOLID
  5
19B
330
195
100
AcDbEntity
  8
치수문자_일반주서
 62
     0
100
AcDbTrace
 10
65.23333385235794
 20
42.83299764189415
 30
0.0
 11
65.23333385235794
 21
41.49966430856082
 31
0.0
 12
61.23333385235794
 22
42.16633097522749
 32
0.0
 13
61.23333385235794
 23
42.16633097522749
 33
0.0
  0
SOLID
  5
19C
330
195
100
AcDbEntity
  8
치수문자_일반주서
 62
     0
100
AcDbTrace
 10
95.23345280302982
 20
41.49966430856082
 30
0.0
 11
95.23345280302982
 21
42.83299764189415
 31
0.0
 12
99.23345280302982
 22
42.16633097522749
 32
0.0
 13
99.23345280302982
 23
42.16633097522749
 33
0.0
  0
MTEXT
  5
19D
330
195
100
AcDbEntity
  8
치수문자_일반주서
 62
     0
100
AcDbMText
 10
80.30147820998181
 20
47.04133097522749
 30
0.0
 40
4.0
 41
0.0
 71
     2
 72
     1
  1
\A1;38
  7
SLDTEXTSTYLE0
 73
     1
 44
1.0
  0
POINT
  5
19E
330
195
100
AcDbEntity
  8
Defpoints
 62
     0
100
AcDbPoint
 10
61.23333385235794
 20
10.52586009257823
 30
0.0
  0
POINT
  5
19F
330
195
100
AcDbEntity
  8
Defpoints
 62
     0
100
AcDbPoint
 10
99.23345280302982
 20
20.94123137251441
 30
0.0
  0
POINT
  5
1A0
330
195
100
AcDbEntity
  8
Defpoints
 62
     0
100
AcDbPoint
 10
99.23345280302982
 20
42.16633097522749
 30
0.0
  0
ENDBLK
  5
197
330
195
100
AcDbEntity
  8
0
100
AcDbBlockEnd
  0
BLOCK
  5
1AC
330
1AB
100
AcDbEntity
  8
0
100
AcDbBlockBegin
  2
*D13
 70
     1
 10
0.0
 20
0.0
 30
0.0
  3
*D13
  1

  0
LINE
  5
1AE
330
1AB
100
AcDbEntity
  8
치수문자_일반주서
 62
     0
370
    -2
100
AcDbLine
 10
73.72350900574432
 20
-10.9342744047314
 30
0.0
 11
92.60176659393503
 21
-33.76236719253983
 31
0.0
  0
MTEXT
  5
1AF
330
1AB
100
AcDbEntity
  8
치수문자_일반주서
 62
     0
100
AcDbMText
 10
91.5512142925411
 20
-27.98070740818414
 30
0.0
 40
4.0
 41
0.0
 71
     5
 72
     1
  1
\A1;R0.5
  7
SLDTEXTSTYLE0
 11
0.6372880340174896
 21
-0.7706256949376417
 31
0.0
 73
     1
 44
1.0
  0
LINE
  5
1B0
330
1AB
100
AcDbEntity
  8
치수문자_일반주서
 62
     0
370
    -2
100
AcDbLine
 10
70.53706883565687
 20
-7.081145930043199
 30
0.0
 11
71.17435686967436
 21
-7.851771624980838
 31
0.0
  0
SOLID
  5
1B1
330
1AB
100
AcDbEntity
  8
치수문자_일반주서
 62
     0
100
AcDbTrace
 10
74.23725946903608
 20
-10.50941571538641
 30
0.0
 11
73.20975854245256
 21
-11.3591330940764
 31
0.0
 12
71.17435686967436
 22
-7.851771624980838
 32
0.0
 13
71.17435686967436
 23
-7.851771624980838
 33
0.0
  0
POINT
  5
1B2
330
1AB
100
AcDbEntity
  8
Defpoints
 62
     0
100
AcDbPoint
 10
71.17435686967436
 20
-7.851771624980838
 30
0.0
  0
POINT
  5
1B3
330
1AB
100
AcDbEntity
  8
Defpoints
 62
     0
100
AcDbPoint
 10
70.53706883565687
 20
-7.081145930043199
 30
0.0
  0
ENDBLK
  5
1AD
330
1AB
100
AcDbEntity
  8
0
100
AcDbBlockEnd
  0
BLOCK
  5
1EF
330
1EE
100
AcDbEntity
  8
0
100
AcDbBlockBegin
  2
*D14
 70
     1
 10
0.0
 20
0.0
 30
0.0
  3
*D14
  1

  0
LINE
  5
1F1
330
1EE
100
AcDbEntity
  8
치수문자_일반주서
 62
     0
370
    -2
100
AcDbLine
 10
43.98837644525518
 20
-11.25133619534371
 30
0.0
 11
62.15324924745919
 21
-38.66788524536801
 31
0.0
  0
MTEXT
  5
1F2
330
1EE
100
AcDbEntity
  8
치수문자_일반주서
 62
     0
100
AcDbMText
 10
61.71928142482695
 20
-32.80760181118842
 30
0.0
 40
4.0
 41
0.0
 71
     5
 72
     1
  1
\A1;R0.5
  7
SLDTEXTSTYLE0
 11
0.5523228948924995
 21
-0.8336302656319341
 31
0.0
 73
     1
 44
1.0
  0
LINE
  5
1F3
330
1EE
100
AcDbEntity
  8
치수문자_일반주서
 62
     0
370
    -2
100
AcDbLine
 10
41.50292341823893
 20
-7.500000000000009
 30
0.0
 11
41.77908486568518
 21
-7.916815132815975
 31
0.0
  0
SOLID
  5
1F4
330
1EE
100
AcDbEntity
  8
치수문자_일반주서
 62
     0
100
AcDbTrace
 10
44.54412995567647
 20
-10.88312093208205
 30
0.0
 11
43.43262293483389
 21
-11.61955145860538
 31
0.0
 12
41.77908486568518
 22
-7.916815132815975
 32
0.0
 13
41.77908486568518
 23
-7.916815132815975
 33
0.0
  0
POINT
  5
1F5
330
1EE
100
AcDbEntity
  8
Defpoints
 62
     0
100
AcDbPoint
 10
41.77908486568518
 20
-7.916815132815975
 30
0.0
  0
POINT
  5
1F6
330
1EE
100
AcDbEntity
  8
Defpoints
 62
     0
100
AcDbPoint
 10
41.50292341823893
 20
-7.500000000000009
 30
0.0
  0
ENDBLK
  5
1F0
330
1EE
100
AcDbEntity
  8
0
100
AcDbBlockEnd
  0
ENDSEC
  0
SECTION
  2
ENTITIES
  0
LINE
  5
95
330
1F
100
AcDbEntity
  8
0
  6
Continuous
 62
   131
370
    15
100
AcDbLine
 10
6.952825882165656
 20
8.0
 30
0.0
 11
-106.9970765817611
 21
7.999999999999993
 31
0.0
  0
LINE
  5
96
330
1F
100
AcDbEntity
  8
0
  6
Continuous
 62
   131
370
    15
100
AcDbLine
 10
-106.9970765817611
 20
-8.000000000000007
 30
0.0
 11
6.952825882165659
 21
-8.0
 31
0.0
  0
LINE
  5
97
330
1F
100
AcDbEntity
  8
0
  6
Continuous
 62
   131
370
    15
100
AcDbLine
 10
-106.9970765817611
 20
7.999999999999983
 30
0.0
 11
-107.9970765817611
 21
6.999999999999988
 31
0.0
  0
LINE
  5
98
330
1F
100
AcDbEntity
  8
0
  6
Continuous
 62
   131
370
    15
100
AcDbLine
 10
-107.9970765817611
 20
-7.000000000000001
 30
0.0
 11
-106.9970765817611
 21
-7.999999999999996
 31
0.0
  0
SPLINE
  5
99
330
1F
100
AcDbEntity
  8
0
  6
Continuous
 62
   131
370
    15
100
AcDbSpline
210
0.0
220
0.0
230
1.0
 70
     8
 71
     3
 72
     9
 73
     5
 74
     0
 42
0.000000001
 43
0.00000001
 40
0.0
 40
0.0
 40
0.0
 40
0.0
 40
0.5558911996446149
 40
1.0
 40
1.0
 40
1.0
 40
1.0
 10
6.952788602658446
 20
-6.616073838713897
 30
0.0
 10
7.520023464468596
 20
-6.566860413326403
 30
0.0
 10
8.540429727731599
 20
-6.478329734267346
 30
0.0
 10
9.55316068688607
 20
-6.413165106083976
 30
0.0
 10
10.00292341823892
 20
-6.384224921235856
 30
0.0
  0
SPLINE
  5
9A
330
1F
100
AcDbEntity
  8
0
  6
Continuous
 62
     1
370
    15
100
AcDbSpline
210
0.0
220
0.0
230
1.0
 70
     8
 71
     3
 72
     9
 73
     5
 74
     0
 42
0.000000001
 43
0.00000001
 40
0.0
 40
0.0
 40
0.0
 40
0.0
 40
0.4404870499434014
 40
1.0
 40
1.0
 40
1.0
 40
1.0
 10
21.27632201372271
 20
2.049941855457877
 30
0.0
 10
20.94991211889186
 20
2.205291635339797
 30
0.0
 10
20.20889170779742
 20
2.557968927219048
 30
0.0
 10
19.47094603828633
 20
2.943981642702147
 30
0.0
 10
19.05805587975669
 20
3.159960755901454
 30
0.0
1001
PE_URL
1000

  0
SPLINE
  5
9B
330
1F
100
AcDbEntity
  8
0
  6
Continuous
 62
     1
370
    15
100
AcDbSpline
210
0.0
220
0.0
230
1.0
 70
     8
 71
     3
 72
    19
 73
    15
 74
     0
 42
0.000000001
 43
0.00000001
 40
0.0
 40
0.0
 40
0.0
 40
0.0
 40
0.1351792384349551
 40
0.237419312685931
 40
0.3202878677409732
 40
0.4201974073182964
 40
0.5330572501929289
 40
0.6412498985025343
 40
0.718868527690361
 40
0.7910264625458587
 40
0.8587587896857194
 40
0.9235945017746213
 40
0.9861979702795701
 40
1.0
 40
1.0
 40
1.0
 40
1.0
 10
18.63173858036051
 20
6.357102943431546
 30
0.0
 10
18.33937397532584
 20
6.342381655975896
 30
0.0
 10
17.82588533324843
 20
6.316526221442924
 30
0.0
 10
17.12529252663057
 20
6.290273173092356
 30
0.0
 10
16.49326554661589
 20
6.271622994402113
 30
0.0
 10
15.8440000430198
 20
6.257495745050618
 30
0.0
 10
15.14061616302044
 20
6.248647717528342
 30
0.0
 10
14.47666905307059
 20
6.246693829849194
 30
0.0
 10
13.90184405814899
 20
6.248229270939652
 30
0.0
 10
13.42022353914362
 20
6.253682233045805
 30
0.0
 10
12.98749222136115
 20
6.262854418042767
 30
0.0
 10
12.5858116113465
 20
6.273203433727431
 30
0.0
 10
12.28138880749496
 20
6.281451028272562
 30
0.0
 10
12.11408247051797
 20
6.287327349176095
 30
0.0
 10
12.08385994610538
 20
6.28838885859153
 30
0.0
1001
PE_URL
1000

  0
SPLINE
  5
9C
330
1F
100
AcDbEntity
  8
0
  6
Continuous
 62
     1
370
    15
100
AcDbSpline
210
0.0
220
0.0
230
1.0
 70
     8
 71
     3
 72
    27
 73
    23
 74
     0
 42
0.000000001
 43
0.00000001
 40
0.0
 40
0.0
 40
0.0
 40
0.0
 40
0.0660649185158602
 40
0.1161607285526871
 40
0.150051210377667
 40
0.180672462522369
 40
0.2193863119978751
 40
0.2652009600995992
 40
0.3078257245667234
 40
0.3716582029716754
 40
0.425618636599625
 40
0.4793761179438288
 40
0.5329424826368028
 40
0.5927696782637075
 40
0.6566950123830868
 40
0.7105372697381661
 40
0.7403873230998888
 40
0.7678494102513395
 40
0.7956745393478708
 40
0.84197002868268
 40
0.9102246851806617
 40
1.0
 40
1.0
 40
1.0
 40
1.0
 10
39.0308006810881
 20
5.471619534617123
 30
0.0
 10
38.7242075939393
 20
5.446619958984008
 30
0.0
 10
38.1851306197677
 20
5.402663665927298
 30
0.0
 10
37.48847425140541
 20
5.358866460111758
 30
0.0
 10
36.95246086283365
 20
5.330267289940639
 30
0.0
 10
36.46788236748166
 20
5.30842248249146
 30
0.0
 10
35.93034150567787
 20
5.288962870610715
 30
0.0
 10
35.33786957544861
 20
5.273977798212863
 30
0.0
 10
34.62868463170477
 20
5.264053348501255
 30
0.0
 10
33.88183161334548
 20
5.263793116736691
 30
0.0
 10
33.08288432749256
 20
5.27567220561943
 30
0.0
 10
32.33101183586178
 20
5.297182113557446
 30
0.0
 10
31.55275593850723
 20
5.330035071651253
 30
0.0
 10
30.72358950450142
 20
5.37717399887158
 30
0.0
 10
29.88852871912413
 20
5.437255465900883
 30
0.0
 10
29.20105232707602
 20
5.496794324415811
 30
0.0
 10
28.69147384514348
 20
5.546106401357694
 30
0.0
 10
28.29998141315472
 20
5.586658780890136
 30
0.0
 10
27.83192150621229
 20
5.637985022553978
 30
0.0
 10
27.16901638534375
 20
5.716336061621108
 30
0.0
 10
26.21573312434021
 20
5.840138869805256
 30
0.0
 10
25.47595816413888
 20
5.95297152275963
 30
0.0
 10
25.05569908673779
 20
6.017070673423526
 30
0.0
1001
PE_URL
1000

  0
SPLINE
  5
9D
330
1F
100
AcDbEntity
  8
0
  6
Continuous
 62
     1
370
    15
100
AcDbSpline
210
0.0
220
0.0
230
1.0
 70
     8
 71
     3
 72
    16
 73
    12
 74
     0
 42
0.000000001
 43
0.00000001
 40
0.0
 40
0.0
 40
0.0
 40
0.0
 40
0.1698106417099655
 40
0.2949071710949646
 40
0.3818584177867009
 40
0.4819532242942708
 40
0.6043684163889591
 40
0.7206992391153236
 40
0.8638780818289327
 40
0.9873553828164775
 40
1.0
 40
1.0
 40
1.0
 40
1.0
 10
25.05569908673779
 20
-6.017070673423523
 30
0.0
 10
25.39023230598295
 20
-5.965682758851194
 30
0.0
 10
25.97121029612204
 20
-5.876438266501419
 30
0.0
 10
26.72539043912653
 20
-5.773853998854279
 30
0.0
 10
27.35054055798981
 20
-5.69477041458282
 30
0.0
 10
27.96725814857464
 20
-5.622288106312388
 30
0.0
 10
28.63908848517079
 20
-5.550396057816394
 30
0.0
 10
29.39561960769965
 20
-5.478577786429229
 30
0.0
 10
30.15547625352491
 20
-5.417824064515259
 30
0.0
 10
30.706401988513
 20
-5.378396178940009
 30
0.0
 10
30.9755781478746
 20
-5.363970390347768
 30
0.0
 10
31.00058242004317
 20
-5.362630352117552
 30
0.0
1001
PE_URL
1000

  0
SPLINE
  5
9E
330
1F
100
AcDbEntity
  8
0
  6
Continuous
 62
     1
370
    15
100
AcDbSpline
210
0.0
220
0.0
230
1.0
 70
     8
 71
     3
 72
    21
 73
    17
 74
     0
 42
0.000000001
 43
0.00000001
 40
0.0
 40
0.0
 40
0.0
 40
0.0
 40
0.1141856972151699
 40
0.1973553085212386
 40
0.2510460381485799
 40
0.2985893480877906
 40
0.3478279035318616
 40
0.3992662519016471
 40
0.4540655648364748
 40
0.5130119240823966
 40
0.5951772854364721
 40
0.6808870810375753
 40
0.7567619537793788
 40
0.8196952942361455
 40
0.8973400582469093
 40
1.0
 40
1.0
 40
1.0
 40
1.0
 10
10.00292341823892
 20
-6.384224921235856
 30
0.0
 10
10.33237634950235
 20
-6.36581195501525
 30
0.0
 10
10.90179341730023
 20
-6.333987508364884
 30
0.0
 10
11.62509039425413
 20
-6.303889499511594
 30
0.0
 10
12.15795436305175
 20
-6.285323566207039
 30
0.0
 10
12.58602367881481
 20
-6.273058299778748
 30
0.0
 10
12.98743182580659
 20
-6.262895751328749
 30
0.0
 10
13.42024116623945
 20
-6.253670169479237
 30
0.0
 10
13.90183885560353
 20
-6.24823283143845
 30
0.0
 10
14.47667112741971
 20
-6.24669241021382
 30
0.0
 10
15.14061549885482
 20
-6.248648172067552
 30
0.0
 10
15.84400020217112
 20
-6.257495636131223
 30
0.0
 10
16.49326551411075
 20
-6.271623016647871
 30
0.0
 10
17.12529253665165
 20
-6.290273166234152
 30
0.0
 10
17.82588532949472
 20
-6.316526224011874
 30
0.0
 10
18.33937397396399
 20
-6.342381656907914
 30
0.0
 10
18.63173858036051
 20
-6.357102943431546
 30
0.0
1001
PE_URL
1000

  0
SPLINE
  5
9F
330
1F
100
AcDbEntity
  8
0
  6
Continuous
 62
   131
370
    15
100
AcDbSpline
210
0.0
220
0.0
230
1.0
 70
     8
 71
     3
 72
    10
 73
     6
 74
     0
 42
0.000000001
 43
0.00000001
 40
0.0
 40
0.0
 40
0.0
 40
0.0
 40
0.5
 40
0.5
 40
1.0
 40
1.0
 40
1.0
 40
1.0
 10
10.00292341825103
 20
6.97680851441813
 30
0.0
 10
9.494301628358546
 20
7.120458891460879
 30
0.0
 10
8.989147704216927
 20
7.249722589781111
 30
0.0
 10
7.970828723138437
 20
7.479147149147448
 30
0.0
 10
7.460198361124184
 20
7.579038022687685
 30
0.0
 10
6.952723826515281
 20
7.663252224098638
 30
0.0
  0
LINE
  5
A0
330
1F
100
AcDbEntity
  8
0
  6
Continuous
 62
   131
370
    15
100
AcDbLine
 10
10.00292341823892
 20
6.976808514421555
 30
0.0
 11
10.00292341823892
 21
5.624311459327614
 31
0.0
  0
SPLINE
  5
A1
330
1F
100
AcDbEntity
  8
0
  6
Continuous
 62
   131
370
    15
100
AcDbSpline
210
0.0
220
0.0
230
1.0
 70
     8
 71
     3
 72
    10
 73
     6
 74
     0
 42
0.000000001
 43
0.00000001
 40
0.0
 40
0.0
 40
0.0
 40
0.0
 40
0.5
 40
0.5
 40
1.0
 40
1.0
 40
1.0
 40
1.0
 10
6.952825882165669
 20
6.730875140027466
 30
0.0
 10
7.460283829687806
 20
6.572333257972053
 30
0.0
 10
7.970897084833728
 20
6.399848195567357
 30
0.0
 10
8.989181736960388
 20
6.030032015429038
 30
0.0
 10
9.49431867606958
 20
5.83307571877121
 30
0.0
 10
10.00292341823892
 20
5.624311459327612
 30
0.0
  0
LINE
  5
A2
330
1F
100
AcDbEntity
  8
0
  6
Continuous
 62
   131
370
    15
100
AcDbLine
 10
6.952825882165659
 20
-8.0
 30
0.0
 11
6.952825882165673
 21
6.730874673358142
 31
0.0
  0
SPLINE
  5
A3
330
1F
100
AcDbEntity
  8
0
  6
Continuous
 62
   131
370
    15
100
AcDbSpline
210
0.0
220
0.0
230
1.0
 70
     8
 71
     3
 72
    10
 73
     6
 74
     0
 42
0.000000001
 43
0.00000001
 40
0.0
 40
0.0
 40
0.0
 40
0.0
 40
0.5
 40
0.5
 40
1.0
 40
1.0
 40
1.0
 40
1.0
 10
10.00292341825104
 20
-6.97680851441813
 30
0.0
 10
9.49430162835855
 20
-7.120458891460879
 30
0.0
 10
8.989147704216927
 20
-7.24972258978111
 30
0.0
 10
7.970828723138437
 20
-7.479147149147447
 30
0.0
 10
7.460198361124184
 20
-7.579038022687685
 30
0.0
 10
6.952723826515281
 20
-7.663252224098638
 30
0.0
  0
LINE
  5
A4
330
1F
100
AcDbEntity
  8
0
  6
Continuous
 62
   131
370
    15
100
AcDbLine
 10
6.952825882165663
 20
7.663350644684362
 30
0.0
 11
6.952825882165656
 21
8.0
 31
0.0
  0
LINE
  5
A5
330
1F
100
AcDbEntity
  8
0
  6
Continuous
 62
   131
370
    15
100
AcDbLine
 10
-106.9970765817611
 20
7.999999999999983
 30
0.0
 11
-106.9970765817611
 21
-8.000000000000007
 31
0.0
  0
LINE
  5
A6
330
1F
100
AcDbEntity
  8
0
  6
Continuous
 62
   131
370
    15
100
AcDbLine
 10
-107.9970765817611
 20
6.999999999999988
 30
0.0
 11
-107.9970765817611
 21
-7.000000000000001
 31
0.0
  0
SPLINE
  5
A7
330
1F
100
AcDbEntity
  8
0
  6
Continuous
 62
   131
370
    15
100
AcDbSpline
210
0.0
220
0.0
230
1.0
 70
    24
 71
     3
 72
    14
 73
    10
 74
     0
 42
0.000000001
 43
0.00000001
 40
0.0
 40
0.0
 40
0.0
 40
0.0
 40
0.25
 40
0.25
 40
0.5
 40
0.5
 40
0.75
 40
0.75
 40
1.0
 40
1.0
 40
1.0
 40
1.0
 10
10.00292341823892
 20
3.76999034849253
 30
0.0
 10
10.00292341823892
 20
3.156403519762835
 30
0.0
 10
10.00292341823892
 20
2.479649199054305
 30
0.0
 10
10.00292341823892
 20
1.049134643391109
 30
0.0
 10
10.00292341823892
 20
0.295920094717433
 30
0.0
 10
10.00292341823892
 20
-1.215212901673544
 30
0.0
 10
10.00292341823892
 20
-1.972326154552586
 30
0.0
 10
10.00292341823892
 20
-3.417696032934753
 30
0.0
 10
10.00292341823892
 20
-4.105386107054571
 30
0.0
 10
10.00292341823892
 20
-4.732473697169124
 30
0.0
  0
SPLINE
  5
A8
330
1F
100
AcDbEntity
  8
0
  6
Continuous
 62
   131
370
    15
100
AcDbSpline
210
0.0
220
0.0
230
1.0
 70
     8
 71
     3
 72
    10
 73
     6
 74
     0
 42
0.000000001
 43
0.00000001
 40
0.0
 40
0.0
 40
0.0
 40
0.0
 40
0.5
 40
0.5
 40
1.0
 40
1.0
 40
1.0
 40
1.0
 10
10.00292341823892
 20
-4.732473697169127
 30
0.0
 10
9.494312448776222
 20
-4.574370148109933
 30
0.0
 10
8.989169305275272
 20
-4.407088285570052
 30
0.0
 10
7.970872113264694
 20
-4.054535503034861
 30
0.0
 10
7.460252609217992
 20
-3.869513551947689
 30
0.0
 10
6.952788602658446
 20
-3.67744948480536
 30
0.0
  0
SPLINE
  5
A9
330
1F
100
AcDbEntity
  8
0
  6
Continuous
 62
   131
370
    15
100
AcDbSpline
210
0.0
220
0.0
230
1.0
 70
     8
 71
     3
 72
    10
 73
     6
 74
     0
 42
0.000000001
 43
0.00000001
 40
0.0
 40
0.0
 40
0.0
 40
0.0
 40
0.5
 40
0.5
 40
1.0
 40
1.0
 40
1.0
 40
1.0
 10
10.00292341823892
 20
3.769990348492529
 30
0.0
 10
9.49431456719223
 20
3.92194146186928
 30
0.0
 10
8.989173534316771
 20
4.065950274583575
 30
0.0
 10
7.970880608154706
 20
4.337733410950436
 30
0.0
 10
7.46026322987416
 20
4.465236169982743
 30
0.0
 10
6.952801284491859
 20
4.583223772031162
 30
0.0
  0
SPLINE
  5
AA
330
1F
100
AcDbEntity
  8
0
  6
Continuous
 62
   131
370
    15
100
AcDbSpline
210
0.0
220
0.0
230
1.0
 70
    24
 71
     3
 72
    10
 73
     6
 74
     0
 42
0.000000001
 43
0.00000001
 40
0.0
 40
0.0
 40
0.0
 40
0.0
 40
0.5
 40
0.5
 40
1.0
 40
1.0
 40
1.0
 40
1.0
 10
10.00292341823892
 20
5.624311459327616
 30
0.0
 10
10.00292341823892
 20
5.430393375591718
 30
0.0
 10
10.00292341823892
 20
5.158202013015031
 30
0.0
 10
10.00292341823892
 20
4.513669434639871
 30
0.0
 10
10.00292341823892
 20
4.143439577033258
 30
0.0
 10
10.00292341823892
 20
3.769990348492528
 30
0.0
  0
SPLINE
  5
AB
330
1F
100
AcDbEntity
  8
0
  6
Continuous
 62
   131
370
    15
100
AcDbSpline
210
0.0
220
0.0
230
1.0
 70
    24
 71
     3
 72
    12
 73
     8
 74
     0
 42
0.000000001
 43
0.00000001
 40
0.0
 40
0.0
 40
0.0
 40
0.0
 40
0.1811629531875967
 40
0.3646847611640494
 40
0.6313602082039683
 40
0.9057692612739235
 40
1.0
 40
1.0
 40
1.0
 40
1.0
 10
10.00292341823892
 20
-4.732473697169127
 30
0.0
 10
10.00292341823892
 20
-4.916690523657861
 30
0.0
 10
10.00292341823892
 20
-5.287522794761744
 30
0.0
 10
10.00292341823892
 20
-5.7891625790369
 30
0.0
 10
10.00292341823892
 20
-6.189518184754911
 30
0.0
 10
10.00292341823892
 20
-6.389884867423556
 30
0.0
 10
10.00292341823892
 20
-6.366577828995019
 30
0.0
 10
10.00292341823892
 20
-6.36062014483418
 30
0.0
  0
SPLINE
  5
AC
330
1F
100
AcDbEntity
  8
0
  6
Continuous
 62
   131
370
    15
100
AcDbSpline
210
0.0
220
0.0
230
1.0
 70
    24
 71
     3
 72
    10
 73
     6
 74
     0
 42
0.000000001
 43
0.00000001
 40
0.0
 40
0.0
 40
0.0
 40
0.0
 40
0.0710084769761409
 40
0.760955526636762
 40
1.0
 40
1.0
 40
1.0
 40
1.0
 10
10.00292341823892
 20
-6.46425926516554
 30
0.0
 10
10.00292341823892
 20
-6.477461162175681
 30
0.0
 10
10.00292341823892
 20
-6.618938024090768
 30
0.0
 10
10.00292341823892
 20
-6.787272663788769
 30
0.0
 10
10.00292341823892
 20
-6.938019044108691
 30
0.0
 10
10.00292341823892
 20
-6.976808514412679
 30
0.0
  0
SPLINE
  5
AD
330
1F
100
AcDbEntity
  8
0
  6
Continuous
 62
     1
370
    15
100
AcDbSpline
210
0.0
220
0.0
230
1.0
 70
     8
 71
     3
 72
    15
 73
    11
 74
     0
 42
0.000000001
 43
0.00000001
 40
0.0
 40
0.0
 40
0.0
 40
0.0
 40
0.1405837812432188
 40
0.2811827438781302
 40
0.4217942928163899
 40
0.5624158202126542
 40
0.7030447080908959
 40
0.8436783309927409
 40
0.9843140586420976
 40
1.0
 40
1.0
 40
1.0
 40
1.0
 10
42.00292341823893
 20
-6.311778114945722
 30
0.0
 10
41.02959300752531
 20
-6.106934901207451
 30
0.0
 10
39.08282707788371
 20
-5.697226353077754
 30
0.0
 10
36.16247700882614
 20
-4.755706011801274
 30
0.0
 10
33.24183070488289
 20
-3.623494525145464
 30
0.0
 10
30.32094540607826
 20
-2.326248896204025
 30
0.0
 10
27.39988472155899
 20
-0.9245402198587993
 30
0.0
 10
24.47871149522243
 20
0.5076954174197378
 30
0.0
 10
22.42262259554025
 20
1.528269454780336
 30
0.0
 10
21.34026857525247
 20
2.016676584693669
 30
0.0
 10
21.23166084480446
 20
2.06568530912231
 30
0.0
1001
PE_URL
1000

  0
SPLINE
  5
AE
330
1F
100
AcDbEntity
  8
0
  6
Continuous
 62
     1
370
    15
100
AcDbSpline
210
0.0
220
0.0
230
1.0
 70
    24
 71
     3
 72
     8
 73
     4
 74
     0
 42
0.000000001
 43
0.00000001
 40
0.0
 40
0.0
 40
0.0
 40
0.0
 40
1.0
 40
1.0
 40
1.0
 40
1.0
 10
42.00292341823893
 20
-7.052700766019722
 30
0.0
 10
42.00292341823893
 20
-6.805153355823832
 30
0.0
 10
42.00292341823893
 20
-6.557651211643246
 30
0.0
 10
42.00292341823893
 20
-6.311778114945722
 30
0.0
  0
SPLINE
  5
AF
330
1F
100
AcDbEntity
  8
0
  6
Continuous
 62
     1
370
    15
100
AcDbSpline
210
0.0
220
0.0
230
1.0
 70
     8
 71
     3
 72
    14
 73
    10
 74
     0
 42
0.000000001
 43
0.00000001
 40
0.0
 40
0.0
 40
0.0
 40
0.0
 40
0.25
 40
0.25
 40
0.5
 40
0.5
 40
0.75
 40
0.75
 40
1.0
 40
1.0
 40
1.0
 40
1.0
 10
42.00292341823893
 20
-7.052700766019722
 30
0.0
 10
42.00292341823894
 20
-7.121634948419784
 30
0.0
 10
41.99027823453444
 20
-7.190170240048143
 30
0.0
 10
41.93847155172315
 20
-7.314194761580975
 30
0.0
 10
41.89875291590334
 20
-7.369712050156192
 30
0.0
 10
41.80131905795358
 20
-7.4529112517331
 30
0.0
 10
41.74345006946049
 20
-7.481033250873421
 30
0.0
 10
41.62380395003984
 20
-7.508024597747936
 30
0.0
 10
41.56261081691778
 20
-7.507422727070945
 30
0.0
 10
41.50292341823899
 20
-7.495373581295138
 30
0.0
  0
SPLINE
  5
B0
330
1F
100
AcDbEntity
  8
0
  6
Continuous
 62
     1
370
    15
100
AcDbSpline
210
0.0
220
0.0
230
1.0
 70
     8
 71
     3
 72
    48
 73
    44
 74
     0
 42
0.000000001
 43
0.00000001
 40
0.0
 40
0.0
 40
0.0
 40
0.0
 40
0.0625
 40
0.0625
 40
0.0937499999999999
 40
0.0937499999999999
 40
0.1249999999999999
 40
0.1249999999999999
 40
0.1874999999999999
 40
0.1874999999999999
 40
0.2499999999999998
 40
0.2499999999999998
 40
0.3124999999999998
 40
0.3124999999999998
 40
0.3437499999999998
 40
0.3437499999999998
 40
0.3749999999999998
 40
0.3749999999999998
 40
0.4062499999999997
 40
0.4062499999999997
 40
0.4374999999999997
 40
0.4374999999999997
 40
0.4999999999999997
 40
0.4999999999999997
 40
0.5624999999999997
 40
0.5624999999999997
 40
0.6249999999999996
 40
0.6249999999999996
 40
0.6562499999999996
 40
0.6562499999999996
 40
0.6874999999999996
 40
0.6874999999999996
 40
0.7499999999999996
 40
0.7499999999999996
 40
0.7812499999999996
 40
0.7812499999999996
 40
0.8124999999999997
 40
0.8124999999999997
 40
0.8749999999999998
 40
0.8749999999999998
 40
0.9374999999999998
 40
0.9374999999999998
 40
1.0
 40
1.0
 40
1.0
 40
1.0
 10
41.50292341823896
 20
-7.495373581294734
 30
0.0
 10
40.84703804888603
 20
-7.362969445706764
 30
0.0
 10
40.18681103207092
 20
-7.204942101069762
 30
0.0
 10
39.20487767346517
 20
-6.933107931807196
 30
0.0
 10
38.87836340302212
 20
-6.836680423916329
 30
0.0
 10
38.22159221657733
 20
-6.632118223526821
 30
0.0
 10
37.89241331698093
 20
-6.524080725478791
 30
0.0
 10
36.90623355621371
 20
-6.18390838978831
 30
0.0
 10
36.2541485216588
 20
-5.936192386411357
 30
0.0
 10
34.93938661419995
 20
-5.401212280263835
 30
0.0
 10
34.28250700111279
 20
-5.114657418531945
 30
0.0
 10
32.97369371945411
 20
-4.509912666622927
 30
0.0
 10
32.3134946922555
 20
-4.190412580355747
 30
0.0
 10
31.32942512535952
 20
-3.692636640485242
 30
0.0
 10
31.00343421885264
 20
-3.523816409100338
 30
0.0
 10
30.34780146061007
 20
-3.179915956168227
 30
0.0
 10
30.01882943639368
 20
-3.0049429557422
 30
0.0
 10
29.36106013373668
 20
-2.650258005627406
 30
0.0
 10
29.03226495006413
 20
-2.470547189834678
 30
0.0
 10
28.37733511027549
 20
-2.107766083157891
 30
0.0
 10
28.05104218667909
 20
-1.924671977636284
 30
0.0
 10
27.06616555416941
 20
-1.369879229469161
 30
0.0
 10
26.40613509343589
 20
-0.9934944807861981
 30
0.0
 10
25.09905543081585
 20
-0.2390540110548086
 30
0.0
 10
24.44028802301127
 20
0.1412438001873339
 30
0.0
 10
23.12619155369566
 20
0.8976835580089197
 30
0.0
 10
22.47390750422742
 20
1.273244184821362
 30
0.0
 10
21.48741834945082
 20
1.829807915898473
 30
0.0
 10
21.15831297007259
 20
2.013994034850115
 30
0.0
 10
20.50204027796461
 20
2.37830909090809
 30
0.0
 10
20.175972445536
 20
2.558240551039944
 30
0.0
 10
19.19292577158044
 20
3.092026928011646
 30
0.0
 10
18.53265843390798
 20
3.439521871677544
 30
0.0
 10
17.54982573548855
 20
3.940370176761786
 30
0.0
 10
17.22369661167592
 20
4.103904314072423
 30
0.0
 10
16.56731472890047
 20
4.424484492627649
 30
0.0
 10
16.23819037876998
 20
4.581334959758135
 30
0.0
 10
15.25175190114842
 20
5.039765557110486
 30
0.0
 10
14.59953362496026
 20
5.328627607512756
 30
0.0
 10
13.28528599988347
 20
5.870057883843968
 30
0.0
 10
12.62692684263569
 20
6.122014246089604
 30
0.0
 10
11.31947952056167
 20
6.582057563703083
 30
0.0
 10
10.65940667541748
 20
6.791397528714699
 30
0.0
 10
10.00292341825104
 20
6.97680851441813
 30
0.0
1001
PE_URL
1000

  0
SPLINE
  5
B1
330
1F
100
AcDbEntity
  8
0
  6
Continuous
 62
     1
370
    15
100
AcDbSpline
210
0.0
220
0.0
230
1.0
 70
     8
 71
     3
 72
    48
 73
    44
 74
     0
 42
0.000000001
 43
0.00000001
 40
0.0
 40
0.0
 40
0.0
 40
0.0
 40
0.0625000000000001
 40
0.0625000000000001
 40
0.1250000000000002
 40
0.1250000000000002
 40
0.1875000000000002
 40
0.1875000000000002
 40
0.2187500000000003
 40
0.2187500000000003
 40
0.2500000000000003
 40
0.2500000000000003
 40
0.3125000000000002
 40
0.3125000000000002
 40
0.3437500000000001
 40
0.3437500000000001
 40
0.3750000000000001
 40
0.3750000000000001
 40
0.4375000000000001
 40
0.4375000000000001
 40
0.5000000000000002
 40
0.5000000000000002
 40
0.5625000000000003
 40
0.5625000000000003
 40
0.5937500000000002
 40
0.5937500000000002
 40
0.6250000000000002
 40
0.6250000000000002
 40
0.6562500000000001
 40
0.6562500000000001
 40
0.6875
 40
0.6875
 40
0.7500000000000001
 40
0.7500000000000001
 40
0.8125000000000002
 40
0.8125000000000002
 40
0.8750000000000002
 40
0.8750000000000002
 40
0.9062500000000002
 40
0.9062500000000002
 40
0.9375000000000001
 40
0.9375000000000001
 40
1.0
 40
1.0
 40
1.0
 40
1.0
 10
10.00292341823893
 20
5.624311459327612
 30
0.0
 10
10.65940667540557
 20
5.354848299320578
 30
0.0
 10
11.31947952055003
 20
5.065878929044695
 30
0.0
 10
12.6269268426247
 20
4.45777972976659
 30
0.0
 10
13.28528599987259
 20
4.136976820939326
 30
0.0
 10
14.59953362494994
 20
3.470067519587446
 30
0.0
 10
15.25175190113832
 20
3.124657918238936
 30
0.0
 10
16.23819037876023
 20
2.591112817214745
 30
0.0
 10
16.56731472889086
 20
2.410873534568143
 30
0.0
 10
17.22369661166659
 20
2.046985056021014
 30
0.0
 10
17.54982573547936
 20
1.863550730168314
 30
0.0
 10
18.53265843389909
 20
1.308189837188668
 30
0.0
 10
19.19292577157182
 20
0.9313367476590187
 30
0.0
 10
20.17597244552779
 20
0.3646543818048634
 30
0.0
 10
20.50204027795652
 20
0.175605815375286
 30
0.0
 10
21.15831297006473
 20
-0.2032642433038604
 30
0.0
 10
21.48741834944308
 20
-0.3928739182160434
 30
0.0
 10
22.47390750422007
 20
-0.9600731090754334
 30
0.0
 10
23.12619155368858
 20
-1.335217607510996
 30
0.0
 10
24.44028802300465
 20
-2.075830276227059
 30
0.0
 10
25.09905543080958
 20
-2.440686309175256
 30
0.0
 10
26.40613509343004
 20
-3.149684498150097
 30
0.0
 10
27.0661655541638
 20
-3.49592616103265
 30
0.0
 10
28.05104218667388
 20
-3.995002566159835
 30
0.0
 10
28.37733511027042
 20
-4.157807843739243
 30
0.0
 10
29.03226495005928
 20
-4.476558008027605
 30
0.0
 10
29.36106013373197
 20
-4.632518024849449
 30
0.0
 10
30.01882943638921
 20
-4.93639579235496
 30
0.0
 10
30.34780146060574
 20
-5.084312567985277
 30
0.0
 10
31.00343421884858
 20
-5.371010439797185
 30
0.0
 10
31.32942512535557
 20
-5.509709219188891
 30
0.0
 10
32.31349469225191
 20
-5.912430555904482
 30
0.0
 10
32.97369371945076
 20
-6.162393084733609
 30
0.0
 10
34.28250700110998
 20
-6.617850539854678
 30
0.0
 10
34.93938661419736
 20
-6.824357302167343
 30
0.0
 10
36.25414852165671
 20
-7.19015764261559
 30
0.0
 10
36.90623355621187
 20
-7.349011202917928
 30
0.0
 10
37.89241331697946
 20
-7.550103562323844
 30
0.0
 10
38.22159221657599
 20
-7.610855698345929
 30
0.0
 10
38.87836340302105
 20
-7.719356074546104
 30
0.0
 10
39.20487767346424
 20
-7.767061893631509
 30
0.0
 10
40.18681103207035
 20
-7.890637652580182
 30
0.0
 10
40.84703804888571
 20
-7.946897456146343
 30
0.0
 10
41.50292341823893
 20
-8.000000000000009
 30
0.0
  0
SPLINE
  5
B3
330
1F
100
AcDbEntity
  8
0
  6
Continuous
 62
     1
370
    15
100
AcDbSpline
210
0.0
220
0.0
230
1.0
 70
     8
 71
     3
 72
    12
 73
     8
 74
     0
 42
0.000000001
 43
0.00000001
 40
0.0
 40
0.0
 40
0.0
 40
0.0
 40
0.0461343867017847
 40
0.2872868426173132
 40
0.52843365959483
 40
0.7642199156596116
 40
1.0
 40
1.0
 40
1.0
 40
1.0
 10
22.11638262391137
 20
-0.7536623217298872
 30
0.0
 10
21.93009820876862
 20
-0.6801923288685469
 30
0.0
 10
20.77007278562572
 20
-0.2226819166745452
 30
0.0
 10
18.63633266679311
 20
0.6532026657867169
 30
0.0
 10
15.7367929610636
 20
1.797251899588141
 30
0.0
 10
12.85902759481334
 20
2.870237684020797
 30
0.0
 10
10.95494983709004
 20
3.470075410503062
 30
0.0
 10
10.00292341823893
 20
3.769990348492528
 30
0.0
1001
PE_URL
1000

  0
SPLINE
  5
B4
330
1F
100
AcDbEntity
  8
0
  6
Continuous
 62
   131
370
    15
100
AcDbSpline
210
0.0
220
0.0
230
1.0
 70
    24
 71
     3
 72
    10
 73
     6
 74
     0
 42
0.000000001
 43
0.00000001
 40
0.0
 40
0.0
 40
0.0
 40
0.0
 40
0.5
 40
0.5
 40
1.0
 40
1.0
 40
1.0
 40
1.0
 10
10.00292341823893
 20
5.624311459327614
 30
0.0
 10
10.00292341823893
 20
5.430393375591716
 30
0.0
 10
10.00292341823893
 20
5.158202013015029
 30
0.0
 10
10.00292341823893
 20
4.513669434639867
 30
0.0
 10
10.00292341823893
 20
4.143439577033257
 30
0.0
 10
10.00292341823893
 20
3.769990348492526
 30
0.0
  0
LINE
  5
B5
330
1F
100
AcDbEntity
  8
0
  6
Continuous
 62
     1
370
    15
100
AcDbLine
 10
41.50292341823893
 20
-8.000000000000009
 30
0.0
 11
41.50292341823893
 21
-7.495373581294761
 31
0.0
  0
SPLINE
  5
B6
330
1F
100
AcDbEntity
  8
0
  6
Continuous
 62
     1
370
    15
100
AcDbSpline
210
0.0
220
0.0
230
1.0
 70
     8
 71
     3
 72
     8
 73
     4
 74
     0
 42
0.000000001
 43
0.00000001
 40
0.0
 40
0.0
 40
0.0
 40
0.0
 40
1.0
 40
1.0
 40
1.0
 40
1.0
 10
35.19398203987276
 20
3.019864326945589
 30
0.0
 10
35.02555868282694
 20
3.206654443686947
 30
0.0
 10
34.87345188850429
 20
3.387297393970786
 30
0.0
 10
34.74027155696812
 20
3.560809913711473
 30
0.0
  0
LINE
  5
B7
330
1F
100
AcDbEntity
  8
0
  6
Continuous
 62
     1
370
    15
100
AcDbLine
 10
34.74027155696811
 20
3.560809913711471
 30
0.0
 11
42.00292341823893
 21
0.0000000000000045
 31
0.0
  0
LINE
  5
B8
330
1F
100
AcDbEntity
  8
0
  6
Continuous
 62
     1
370
    15
100
AcDbLine
 10
42.00292341823893
 20
0.0000000000000045
 30
0.0
 11
42.00292341823893
 21
-2.137943568237155
 31
0.0
  0
SPLINE
  5
B9
330
1F
100
AcDbEntity
  8
0
  6
Continuous
 62
     1
370
    15
100
AcDbSpline
210
0.0
220
0.0
230
1.0
 70
     8
 71
     3
 72
    12
 73
     8
 74
     0
 42
0.000000001
 43
0.00000001
 40
0.0
 40
0.0
 40
0.0
 40
0.0
 40
0.5000000000000004
 40
0.5000000000000004
 40
0.7500000000000002
 40
0.7500000000000002
 40
1.0
 40
1.0
 40
1.0
 40
1.0
 10
42.00292341823893
 20
-2.137943568237155
 30
0.0
 10
40.8155941418069
 20
-1.358476954296164
 30
0.0
 10
39.64963611035679
 20
-0.5402116479919141
 30
0.0
 10
37.93526113147905
 20
0.7499324479877754
 30
0.0
 10
37.36960071532565
 20
1.19067612691289
 30
0.0
 10
36.25294734558862
 20
2.098111138456273
 30
0.0
 10
35.71238483984408
 20
2.556237713318987
 30
0.0
 10
35.19398203987274
 20
3.019864326945599
 30
0.0
  0
SPLINE
  5
BA
330
1F
100
AcDbEntity
  8
0
  6
Continuous
 62
     1
370
    15
100
AcDbSpline
210
0.0
220
0.0
230
1.0
 70
     8
 71
     3
 72
    14
 73
    10
 74
     0
 42
0.000000001
 43
0.00000001
 40
0.0
 40
0.0
 40
0.0
 40
0.0
 40
0.1178907251088737
 40
0.2942451567695751
 40
0.4706089482265317
 40
0.6469787611057866
 40
0.8233512508900559
 40
0.9997230703295817
 40
1.0
 40
1.0
 40
1.0
 40
1.0
 10
35.19398203975479
 20
3.019864326993551
 30
0.0
 10
34.54332849788204
 20
3.279006602226973
 30
0.0
 10
32.91935296245109
 20
3.925803534990462
 30
0.0
 10
30.32090087212708
 20
4.81367566702494
 30
0.0
 10
27.3999287102364
 20
5.604118861993141
 30
0.0
 10
24.47873849070164
 20
6.153580402808678
 30
0.0
 10
21.55752766722513
 20
6.39682457525881
 30
0.0
 10
19.60850837695063
 20
6.45561799190757
 30
0.0
 10
18.63324152797535
 20
6.357036960793712
 30
0.0
 10
18.63171261634469
 20
6.356882416747443
 30
0.0
1001
PE_URL
1000

  0
SPLINE
  5
BB
330
1F
100
AcDbEntity
  8
0
  6
Continuous
 62
     1
370
    15
100
AcDbSpline
210
0.0
220
0.0
230
1.0
 70
    24
 71
     3
 72
    10
 73
     6
 74
     0
 42
0.000000001
 43
0.00000001
 40
0.0
 40
0.0
 40
0.0
 40
0.0
 40
0.5
 40
0.5
 40
1.0
 40
1.0
 40
1.0
 40
1.0
 10
42.00292341823893
 20
-6.311778114945722
 30
0.0
 10
42.00292341823893
 20
-5.827931112030435
 30
0.0
 10
42.00292341823894
 20
-5.216571871251744
 30
0.0
 10
42.00292341823892
 20
-3.795220473205437
 30
0.0
 10
42.00292341823893
 20
-2.986459544410476
 30
0.0
 10
42.00292341823894
 20
-2.137943568237412
 30
0.0
  0
SPLINE
  5
BC
330
1F
100
AcDbEntity
  8
0
  6
Continuous
 62
     1
370
    15
100
AcDbSpline
210
0.0
220
0.0
230
1.0
 70
     8
 71
     3
 72
     9
 73
     5
 74
     0
 42
0.000000001
 43
0.00000001
 40
0.0
 40
0.0
 40
0.0
 40
0.0
 40
0.9822387836911277
 40
1.0
 40
1.0
 40
1.0
 40
1.0
 10
42.00292341823893
 20
5.600000000000008
 30
0.0
 10
41.02959728230283
 20
5.598364919929899
 30
0.0
 10
40.0386710919538
 20
5.59670027371835
 30
0.0
 10
39.04772767395251
 20
5.471671210098443
 30
0.0
 10
39.03012731355554
 20
5.469450541854595
 30
0.0
  0
SPLINE
  5
BD
330
1F
100
AcDbEntity
  8
0
  6
Continuous
 62
     1
370
    15
100
AcDbSpline
210
0.0
220
0.0
230
1.0
 70
     8
 71
     3
 72
    10
 73
     6
 74
     0
 42
0.000000001
 43
0.00000001
 40
0.0
 40
0.0
 40
0.0
 40
0.0
 40
0.5
 40
0.5
 40
1.0
 40
1.0
 40
1.0
 40
1.0
 10
42.00292341823893
 20
5.600000000000008
 30
0.0
 10
40.78405273182107
 20
5.306359680126934
 30
0.0
 10
39.56871274963927
 20
4.991936873426649
 30
0.0
 10
37.14582508720088
 20
4.319471564879882
 30
0.0
 10
35.93808525779716
 20
3.962962459586929
 30
0.0
 10
34.74027155696798
 20
3.560809913711613
 30
0.0
  0
SPLINE
  5
BE
330
1F
100
AcDbEntity
  8
0
  6
Continuous
 62
     1
370
    15
100
AcDbSpline
210
0.0
220
0.0
230
1.0
 70
     8
 71
     3
 72
    13
 73
     9
 74
     0
 42
0.000000001
 43
0.00000001
 40
0.0
 40
0.0
 40
0.0
 40
0.0
 40
0.0389556746611835
 40
0.2328929641518465
 40
0.426829516538652
 40
0.6207616519743233
 40
0.8103832428836594
 40
1.0
 40
1.0
 40
1.0
 40
1.0
 10
25.06553689853103
 20
-5.994352579366936
 30
0.0
 10
24.86994371646676
 20
-6.031744188705695
 30
0.0
 10
23.70060763552268
 20
-6.255286530329885
 30
0.0
 10
21.55752387700476
 20
-6.40384215805592
 30
0.0
 10
18.63632413893461
 20
-6.409108766757659
 30
0.0
 10
15.73677762007332
 20
-6.106067131756619
 30
0.0
 10
12.85902253035038
 20
-5.562524444944972
 30
0.0
 10
10.95494836579781
 20
-5.009154928668238
 30
0.0
 10
10.00292341823892
 20
-4.732473697169127
 30
0.0
1001
PE_URL
1000

  0
SPLINE
  5
BF
330
1F
100
AcDbEntity
  8
0
  6
Continuous
 62
   131
370
    15
100
AcDbSpline
210
0.0
220
0.0
230
1.0
 70
    24
 71
     3
 72
    14
 73
    10
 74
     0
 42
0.000000001
 43
0.00000001
 40
0.0
 40
0.0
 40
0.0
 40
0.0
 40
0.25
 40
0.25
 40
0.5
 40
0.5
 40
0.75
 40
0.75
 40
1.0
 40
1.0
 40
1.0
 40
1.0
 10
10.00292341823893
 20
3.769990348492528
 30
0.0
 10
10.00292341823893
 20
3.156403519762832
 30
0.0
 10
10.00292341823893
 20
2.4796491990543
 30
0.0
 10
10.00292341823893
 20
1.049134643391105
 30
0.0
 10
10.00292341823893
 20
0.2959200947174296
 30
0.0
 10
10.00292341823893
 20
-1.215212901673548
 30
0.0
 10
10.00292341823893
 20
-1.97232615455259
 30
0.0
 10
10.00292341823893
 20
-3.417696032934756
 30
0.0
 10
10.00292341823893
 20
-4.105386107054574
 30
0.0
 10
10.00292341823893
 20
-4.732473697169126
 30
0.0
  0
LINE
  5
C0
330
1F
100
AcDbEntity
  8
0
  6
Continuous
 62
     1
370
    15
100
AcDbLine
 10
42.00292341823893
 20
0.0000000000000045
 30
0.0
 11
42.00292341823893
 21
5.600000000000008
 31
0.0
  0
SPLINE
  5
C1
330
1F
100
AcDbEntity
  8
0
  6
Continuous
 62
   131
370
    15
100
AcDbSpline
210
0.0
220
0.0
230
1.0
 70
    24
 71
     3
 72
    12
 73
     8
 74
     0
 42
0.000000001
 43
0.00000001
 40
0.0
 40
0.0
 40
0.0
 40
0.0
 40
0.1813524020232168
 40
0.3650661255774421
 40
0.6320204450470779
 40
0.906716457866103
 40
1.0
 40
1.0
 40
1.0
 40
1.0
 10
10.00292341823893
 20
-4.732473697169129
 30
0.0
 10
10.00292341823893
 20
-4.916689755929434
 30
0.0
 10
10.00292341823893
 20
-5.287520481580158
 30
0.0
 10
10.00292341823893
 20
-5.78917374819075
 30
0.0
 10
10.00292341823893
 20
-6.189453845566026
 30
0.0
 10
10.00292341823893
 20
-6.389731573800678
 30
0.0
 10
10.00292341823893
 20
-6.366584911592338
 30
0.0
 10
10.00292341823893
 20
-6.360717187121485
 30
0.0
  0
LINE
  5
C2
330
1F
100
AcDbEntity
  8
0
  6
Continuous
 62
     1
370
    15
100
AcDbLine
 10
42.00292341823893
 20
-7.052700766019722
 30
0.0
 11
42.00292341823892
 21
-7.488471275550993
 31
0.0
  0
SPLINE
  5
C3
330
1F
100
AcDbEntity
  8
0
  6
Continuous
 62
     1
370
    15
100
AcDbSpline
210
0.0
220
0.0
230
1.0
 70
     8
 71
     3
 72
    13
 73
     9
 74
     0
 42
0.000000001
 43
0.00000001
 40
0.0
 40
0.0
 40
0.0
 40
0.0
 40
0.0208732096706205
 40
0.2414495960916685
 40
0.4286748733813964
 40
0.6168483920159943
 40
0.8079219723054963
 40
1.0
 40
1.0
 40
1.0
 40
1.0
 10
31.00231034729951
 20
5.363412073157854
 30
0.0
 10
31.07537668232949
 20
5.396648435437252
 30
0.0
 10
31.92056711347418
 20
5.78110805494713
 30
0.0
 10
33.42139283506337
 20
6.334900918871834
 30
0.0
 10
35.5071971409531
 20
7.008199115603557
 30
0.0
 10
37.48947145217388
 20
7.491152827468338
 30
0.0
 10
39.48919085709671
 20
7.837906905705395
 30
0.0
 10
40.83050712627899
 20
7.9299782679935
 30
0.0
 10
41.50292341823893
 20
8.000000000000002
 30
0.0
  0
SPLINE
  5
C5
330
1F
100
AcDbEntity
  8
0
  6
Continuous
 62
     1
370
    15
100
AcDbSpline
210
0.0
220
0.0
230
1.0
 70
    24
 71
     3
 72
    10
 73
     6
 74
     0
 42
0.000000001
 43
0.00000001
 40
0.0
 40
0.0
 40
0.0
 40
0.0
 40
0.5
 40
0.5
 40
1.0
 40
1.0
 40
1.0
 40
1.0
 10
42.00292341823893
 20
5.600000000000006
 30
0.0
 10
42.00292341823892
 20
5.869867430825426
 30
0.0
 10
42.00292341823894
 20
6.17402062772905
 30
0.0
 10
42.00292341823892
 20
6.817639151719498
 30
0.0
 10
42.00292341823893
 20
7.156519194544434
 30
0.0
 10
42.00292341823892
 20
7.488471275547959
 30
0.0
  0
LINE
  5
C6
330
1F
100
AcDbEntity
  8
0
  6
Continuous
 62
     1
370
    15
100
AcDbLine
 10
12.08385994610537
 20
-6.288388858591528
 30
0.0
 11
10.00292341825104
 21
-6.97680851441813
 31
0.0
1001
PE_URL
1000

  0
SPLINE
  5
C7
330
1F
100
AcDbEntity
  8
0
  6
Continuous
 62
   131
370
    15
100
AcDbSpline
210
0.0
220
0.0
230
1.0
 70
    24
 71
     3
 72
    11
 73
     7
 74
     0
 42
0.000000001
 43
0.00000001
 40
0.0
 40
0.0
 40
0.0
 40
0.0
 40
0.0721680353836291
 40
0.4165232152807494
 40
0.7612797102493285
 40
0.9999999999999999
 40
0.9999999999999999
 40
0.9999999999999999
 40
0.9999999999999999
 10
10.00292341823893
 20
-6.464259265165542
 30
0.0
 10
10.00292341823893
 20
-6.477459289648421
 30
0.0
 10
10.00292341823893
 20
-6.553644218476912
 30
0.0
 10
10.00292341823893
 20
-6.686135219249927
 30
0.0
 10
10.00292341823893
 20
-6.843660731610886
 30
0.0
 10
10.00292341823893
 20
-6.938149805598134
 30
0.0
 10
10.00292341823893
 20
-6.97680851441268
 30
0.0
  0
LINE
  5
C8
330
1F
100
AcDbEntity
  8
중심선
100
AcDbLine
 10
-114.9970765817611
 20
-0.0000000000000035
 30
0.0
 11
49.00292341823896
 21
-0.0000000000000035
 31
0.0
  0
CIRCLE
  5
C9
330
1F
100
AcDbEntity
  8
외형선
100
AcDbCircle
 10
-1.997076581761084
 20
-0.0000000000000013
 30
0.0
 40
3.000000000000001
  0
INSERT
  5
CA
330
1F
100
AcDbEntity
  8
0
  6
Continuous
 62
     7
100
AcDbBlockReference
 66
     1
  2
블럭10
 10
-46.84592316360946
 20
-52.04717430164393
 30
0.0
  0
ATTRIB
  5
CB
330
CA
100
AcDbEntity
  8
FORMAT
 62
     2
100
AcDbText
 10
-63.47475176181043
 20
-49.97180738881174
 30
0.0
 40
4.233333333333333
  1
SEMD9916005E [ 2 FLUTE ]
 41
0.75
  7
SLDTEXTSTYLE0
 11
-63.47475176181043
 21
-52.08847405547841
 31
0.0
100
AcDbAttribute
  2
AUTOATTR0
 70
     0
 74
     1
  0
SEQEND
  5
CC
330
CA
100
AcDbEntity
  8
0
  6
Continuous
 62
     7
  0
HATCH
  5
CD
330
1F
100
AcDbEntity
  8
중심선
100
AcDbHatch
 10
0.0
 20
0.0
 30
0.0
210
0.0
220
0.0
230
1.0
  2
SOLID
 70
     1
 71
     0
 91
        1
 92
        0
 93
        4
 72
     1
 10
-41.13101385922861
 20
-35.8
 11
-44.57728910306589
 21
-35.8
 72
     1
 10
-44.57728910306589
 20
-35.8
 11
-46.70551896226992
 21
-38.33632558057259
 72
     1
 10
-46.70551896226992
 20
-38.33632558057259
 11
-43.25921063331948
 21
-38.3362861512701
 72
     1
 10
-43.25921063331948
 20
-38.3362861512701
 11
-41.13101385922861
 21
-35.8
 97
        0
 75
     0
 76
     1
 98
        1
 10
-20.71065131974407
 20
0.0
  0
HATCH
  5
CE
330
1F
100
AcDbEntity
  8
중심선
100
AcDbHatch
 10
0.0
 20
0.0
 30
0.0
210
0.0
220
0.0
230
1.0
  2
SOLID
 70
     1
 71
     0
 91
        1
 92
        0
 93
        4
 72
     1
 10
-36.11824986819266
 20
-35.8
 11
-39.56452511202994
 21
-35.8
 72
     1
 10
-39.56452511202994
 20
-35.8
 11
-44.09566312038733
 21
-41.20000000000002
 72
     1
 10
-44.09566312038733
 20
-41.20000000000002
 11
-40.64938787655004
 21
-41.20000000000002
 72
     1
 10
-40.64938787655005
 20
-41.20000000000002
 11
-36.11824986819266
 21
-35.8
 97
        0
 75
     0
 76
     1
 98
        1
 10
-20.71065131974407
 20
0.0
  0
HATCH
  5
CF
330
1F
100
AcDbEntity
  8
중심선
100
AcDbHatch
 10
0.0
 20
0.0
 30
0.0
210
0.0
220
0.0
230
1.0
  2
SOLID
 70
     1
 71
     0
 91
        1
 92
        0
 93
        4
 72
     1
 10
-31.10548587715677
 20
-35.80000000000003
 11
-34.55176112099388
 21
-35.8
 72
     1
 10
-34.55176112099388
 20
-35.8
 11
-41.60019802288313
 21
-44.20000000000002
 72
     1
 10
-41.60019802288313
 20
-44.20000000000002
 11
-38.15392277904585
 21
-44.20000000000002
 72
     1
 10
-38.15392277904584
 20
-44.20000000000002
 11
-31.10548587715676
 21
-35.80000000000003
 97
        0
 75
     0
 76
     1
 98
        1
 10
-20.71065131974407
 20
0.0
  0
HATCH
  5
D0
330
1F
100
AcDbEntity
  8
중심선
100
AcDbHatch
 10
0.0
 20
0.0
 30
0.0
210
0.0
220
0.0
230
1.0
  2
SOLID
 70
     1
 71
     0
 91
        1
 92
        0
 93
        6
 72
     3
 10
-26.30559544614457
 20
-40.00000000005127
 11
3.960054785062283
 21
1.540882976769353E-10
 40
0.3939339440162628
 50
17.09539180608436
 51
320.0019657685081
 73
     0
 72
     1
 10
-24.62259579044397
 20
-38.5878940046383
 11
-22.31729391674293
 21
-36.65356729459038
 72
     3
 10
-26.30559544619741
 20
-40.00000000000015
 11
6.600054785286829
 21
-1.278976924368180E-13
 40
0.636358354079598
 50
39.99873849337411
 51
368.4976242363724
 73
     1
 72
     1
 10
-19.8802629542968
 20
-39.03999999993002
 11
-27.62552813936149
 21
-39.03999999992999
 72
     1
 10
-27.62552813936149
 20
-39.03999999992999
 11
-27.62555318380742
 21
-40.95999999992991
 72
     1
 10
-27.62555318380742
 20
-40.95999999992991
 11
-23.18417341433539
 21
-40.95999999992988
 97
        0
 75
     0
 76
     1
 98
        1
 10
-20.71065131974407
 20
0.0
  0
POINT
  5
D1
330
1F
100
AcDbEntity
  8
치수문자_일반주서
100
AcDbPoint
 10
5.270872610670073
 20
-0.0000000000000036
 30
0.0
  0
DIMENSION
  5
D2
330
1F
100
AcDbEntity
  8
치수문자_일반주서
100
AcDbDimension
  2
_D
 10
57.00292341823892
 20
8.00000000000005
 30
0.0
 11
57.00292341823888
 21
20.37500000000014
 31
0.0
 70
   160
  1
%%c<>
 71
     2
 42
16.0
  3
SLDDIMSTYLE2
100
AcDbAlignedDimension
 13
42.00292341823893
 23
-8.000000000000004
 33
0.0
 14
42.00292341823893
 24
7.999999999999996
 34
0.0
 50
90.0000000000002
100
AcDbRotatedDimension
1001
PE_URL
1000

1001
ACAD
1000
DSTYLE
1002
{
1070
    41
1040
4.0
1070
   140
1040
4.0
1002
}
  0
DIMENSION
  5
E0
330
1F
100
AcDbEntity
  8
치수문자_일반주서
100
AcDbDimension
  2
_D_1
 10
10.00292341823892
 20
22.99999999999999
 30
0.0
 11
26.00292341823892
 21
22.99999999999999
 31
0.0
 70
   160
  1
<>
 71
     2
 42
32.00000000000001
  3
SLDDIMSTYLE2
100
AcDbAlignedDimension
 13
42.00292341823893
 23
7.999999999999996
 33
0.0
 14
10.00292341823892
 24
6.976808514421555
 34
0.0
100
AcDbRotatedDimension
1001
PE_URL
1000

1001
ACAD
1000
DSTYLE
1002
{
1070
    41
1040
4.0
1070
   140
1040
4.0
1002
}
  0
DIMENSION
  5
EB
330
1F
100
AcDbEntity
  8
치수문자_일반주서
100
AcDbDimension
  2
_D_2
 10
-107.9970765817611
 20
38.0
 30
0.0
 11
-32.99707658176107
 21
38.0
 31
0.0
 70
   160
  1
<>
 71
     2
 42
150.0
  3
SLDDIMSTYLE2
100
AcDbAlignedDimension
 13
42.00292341823893
 23
7.999999999999996
 33
0.0
 14
-107.9970765817611
 24
6.999999999999988
 34
0.0
 50
0.0000000000000054
100
AcDbRotatedDimension
1001
PE_URL
1000

1001
ACAD
1000
DSTYLE
1002
{
1070
    41
1040
4.0
1070
   140
1040
4.0
1002
}
  0
DIMENSION
  5
F5
102
{ACAD_XDICTIONARY
360
23F
102
}
330
1F
100
AcDbEntity
  8
치수문자_일반주서
100
AcDbDimension
  2
_D_3
 10
-122.9970765817611
 20
7.999999999999927
 30
0.0
 11
-122.9970765817611
 21
20.37499999999993
 31
0.0
 70
   160
  1
%%c<>
 71
     2
 42
15.99999999999999
  3
SLDDIMSTYLE2
100
AcDbAlignedDimension
 13
-106.9970765817611
 23
-8.000000000000007
 33
0.0
 14
-106.9970765817611
 24
7.999999999999983
 34
0.0
 50
90.0000000000002
100
AcDbRotatedDimension
1001
PE_URL
1000

1001
ACAD
1000
DSTYLE
1002
{
1070
    41
1040
4.0
1070
   140
1040
4.0
1002
}
1001
ENABLE_CUSTOM_SPLIT
1070
     1
  0
INSERT
  5
106
330
1F
100
AcDbEntity
  8
외형선
100
AcDbBlockReference
  2
SW_DOWELSYMBOL_0
 10
-1.997076581761084
 20
-0.0000000000000013
 30
0.0
  0
ARC
  5
1E9
330
1F
100
AcDbEntity
  8
0
  6
Continuous
 62
     1
370
    15
100
AcDbCircle
 10
41.50292341823893
 20
7.500000000000002
 30
0.0
 40
0.5
100
AcDbArc
 50
0.0
 51
90.0
1001
PE_URL
1000

  0
ARC
  5
1EA
330
1F
100
AcDbEntity
  8
0
  6
Continuous
 62
     1
370
    15
100
AcDbCircle
 10
41.50292341823893
 20
-7.500000000000009
 30
0.0
 40
0.5
100
AcDbArc
 50
270.0
 51
0.0
1001
PE_URL
1000

  0
DIMENSION
  5
1EB
330
1F
100
AcDbEntity
  8
치수문자_일반주서
100
AcDbDimension
  2
*D14
 10
41.50292341823893
 20
-7.500000000000009
 30
0.0
 11
59.32259441113514
 21
-34.39553013400435
 31
0.0
 70
   164
 71
     5
 42
0.4999999999999987
  3
SLDDIMSTYLE2
100
AcDbRadialDimension
 15
41.77908486568518
 25
-7.916815132815975
 35
0.0
 40
0.0
1001
ACAD
1000
DSTYLE
1002
{
1070
    78
1070
     8
1070
    41
1040
4.0
1070
   140
1040
4.0
1002
}
1001
ACAD_DSTYLE_DIMRADIAL_EXTENSION
1070
   387
1070
     1
1070
   388
1040
4.71238898038469
1070
   390
1040
0.0
1001
PE_URL
1000

  0
ENDSEC
  0
SECTION
  2
OBJECTS
  0
DICTIONARY
  5
C
330
0
100
AcDbDictionary
281
     1
  3
ACAD_GROUP
350
D
  3
ACAD_LAYOUT
350
1A
  3
ACAD_MLINESTYLE
350
17
  3
ACAD_PLOTSETTINGS
350
19
  3
ACAD_PLOTSTYLENAME
350
E
  3
ACAD_SCALELIST
350
47
  3
APPDATA
350
128
  3
DWGPROPS
350
242
  0
DICTIONARY
  5
176
330
2
100
AcDbDictionary
280
     1
281
     1
  3
ACAD_LAYERSTATES
360
177
  0
DICTIONARY
  5
21A
330
1F
100
AcDbDictionary
280
     1
281
     1
  3
DIM_BOUNDING_BOXES_V1
360
21B
  0
DICTIONARY
  5
23F
330
F5
100
AcDbDictionary
280
     1
281
     1
  3
ACAD_CUSTOM_BREAKDATA
360
240
  0
DICTIONARY
  5
D
102
{ACAD_REACTORS
330
C
102
}
330
C
100
AcDbDictionary
281
     1
  0
DICTIONARY
  5
1A
102
{ACAD_REACTORS
330
C
102
}
330
C
100
AcDbDictionary
281
     1
  3
Layout1
350
1E
  3
Layout2
350
26
  3
Model
350
22
  0
DICTIONARY
  5
17
102
{ACAD_REACTORS
330
C
102
}
330
C
100
AcDbDictionary
281
     1
  3
Standard
350
18
  0
DICTIONARY
  5
19
102
{ACAD_REACTORS
330
C
102
}
330
C
100
AcDbDictionary
281
     1
  0
ACDBDICTIONARYWDFLT
  5
E
102
{ACAD_REACTORS
330
C
102
}
330
C
100
AcDbDictionary
281
     1
  3
Normal
350
F
100
AcDbDictionaryWithDefault
340
F
  0
DICTIONARY
  5
47
102
{ACAD_REACTORS
330
C
102
}
330
C
100
AcDbDictionary
281
     1
  3
A0
350
48
  3
A1
350
49
  3
A2
350
4A
  3
A3
350
4B
  3
A4
350
4C
  3
A5
350
4D
  3
A6
350
4E
  3
A7
350
4F
  3
A8
350
50
  3
A9
350
51
  3
B0
350
52
  3
B1
350
53
  3
B2
350
54
  3
B3
350
55
  3
B4
350
56
  3
B5
350
57
  3
B6
350
58
  3
B7
350
59
  3
B8
350
5A
  3
B9
350
5B
  3
C0
350
5C
  3
C1
350
5D
  3
C2
350
5E
  3
C3
350
5F
  3
C4
350
60
  3
C5
350
61
  3
C6
350
62
  3
C7
350
63
  3
C8
350
64
  3
C9
350
65
  3
D0
350
66
  3
D1
350
67
  3
D2
350
68
  0
DICTIONARY
  5
128
102
{ACAD_REACTORS
330
C
102
}
330
C
100
AcDbDictionary
281
     1
  0
XRECORD
  5
242
102
{ACAD_REACTORS
330
C
102
}
330
C
100
AcDbXrecord
280
     1
  1
DWGPROPS COOKIE
  2

  3

  4

  6

  7

  8
12016016
  9

300
=
301
=
302
=
303
=
304
=
305
=
306
=
307
=
308
=
309
=
 40
0.0
 41
2458260.217289063
 42
2459701.994081805
  1

 90
        0
  0
DICTIONARY
  5
177
102
{ACAD_REACTORS
330
176
102
}
330
176
100
AcDbDictionary
281
     1
  0
DICTIONARY
  5
21B
102
{ACAD_REACTORS
330
21A
102
}
330
21A
100
AcDbDictionary
281
     1
  0
BREAKDATA
  5
240
102
{ACAD_REACTORS
330
23F
102
}
330
23F
100
AcDbBreakData
 70
     0
330
F5
 90
        0
  0
LAYOUT
  5
1E
102
{ACAD_REACTORS
330
1A
102
}
330
1A
100
AcDbPlotSettings
  1

  2
none_device
  4

  6

 40
0.0
 41
0.0
 42
0.0
 43
0.0
 44
0.0
 45
0.0
 46
0.0
 47
0.0
 48
0.0
 49
0.0
140
0.0
141
0.0
142
1.0
143
1.0
 70
   688
 72
     1
 73
     0
 74
     5
  7

 75
    16
147
1.0
148
0.0
149
0.0
100
AcDbLayout
  1
Layout1
 70
     1
 71
     1
 10
0.0
 20
0.0
 11
420.0
 21
297.0
 12
0.0
 22
0.0
 32
0.0
 14
1.000000000000000E+20
 24
1.000000000000000E+20
 34
1.000000000000000E+20
 15
-1.000000000000000E+20
 25
-1.000000000000000E+20
 35
-1.000000000000000E+20
146
0.0
 13
0.0
 23
0.0
 33
0.0
 16
1.0
 26
0.0
 36
0.0
 17
0.0
 27
1.0
 37
0.0
 76
     0
330
1B
  0
LAYOUT
  5
26
102
{ACAD_REACTORS
330
1A
102
}
330
1A
100
AcDbPlotSettings
  1

  2
none_device
  4

  6

 40
0.0
 41
0.0
 42
0.0
 43
0.0
 44
0.0
 45
0.0
 46
0.0
 47
0.0
 48
0.0
 49
0.0
140
0.0
141
0.0
142
1.0
143
1.0
 70
   688
 72
     1
 73
     0
 74
     5
  7

 75
    16
147
1.0
148
0.0
149
0.0
100
AcDbLayout
  1
Layout2
 70
     1
 71
     2
 10
0.0
 20
0.0
 11
0.0
 21
0.0
 12
0.0
 22
0.0
 32
0.0
 14
0.0
 24
0.0
 34
0.0
 15
0.0
 25
0.0
 35
0.0
146
0.0
 13
0.0
 23
0.0
 33
0.0
 16
1.0
 26
0.0
 36
0.0
 17
0.0
 27
1.0
 37
0.0
 76
     0
330
23
  0
LAYOUT
  5
22
102
{ACAD_REACTORS
330
1A
102
}
330
1A
100
AcDbPlotSettings
  1

  2
none_device
  4
ANSI_A_(11.00_x_8.50_Inches)
  6

 40
6.35
 41
19.05
 42
6.35000508
 43
19.05000254
 44
279.4
 45
215.9
 46
191.8576215944525
 47
84.21747508443055
 48
0.0
 49
0.0
140
0.0
141
0.0
142
0.0698076923076923
143
1.0
 70
  1696
 72
     0
 73
     0
 74
     0
  7

 75
     0
147
0.0235690232323232
148
0.0
149
0.0
100
AcDbLayout
  1
Model
 70
     1
 71
     0
 10
0.0
 20
0.0
 11
420.0
 21
297.0
 12
0.0
 22
0.0
 32
0.0
 14
-127.8720765817611
 24
-49.97180738881174
 34
0.0
 15
65.73391425938394
 25
42.875
 35
0.0
146
0.0
 13
0.0
 23
0.0
 33
0.0
 16
1.0
 26
0.0
 36
0.0
 17
0.0
 27
1.0
 37
0.0
 76
     0
330
1F
331
29
  0
MLINESTYLE
  5
18
102
{ACAD_REACTORS
330
17
102
}
330
17
100
AcDbMlineStyle
  2
Standard
 70
     0
  3

 62
   256
 51
90.0
 52
90.0
 71
     2
 49
0.5
 62
   256
  6
BYLAYER
 49
-0.5
 62
   256
  6
BYLAYER
  0
ACDBPLACEHOLDER
  5
F
102
{ACAD_REACTORS
330
E
102
}
330
E
  0
SCALE
  5
48
102
{ACAD_REACTORS
330
47
102
}
330
47
100
AcDbScale
 70
     0
300
1:1
140
1.0
141
1.0
290
     1
  0
SCALE
  5
49
102
{ACAD_REACTORS
330
47
102
}
330
47
100
AcDbScale
 70
     0
300
1:2
140
1.0
141
2.0
290
     0
  0
SCALE
  5
4A
102
{ACAD_REACTORS
330
47
102
}
330
47
100
AcDbScale
 70
     0
300
1:4
140
1.0
141
4.0
290
     0
  0
SCALE
  5
4B
102
{ACAD_REACTORS
330
47
102
}
330
47
100
AcDbScale
 70
     0
300
1:5
140
1.0
141
5.0
290
     0
  0
SCALE
  5
4C
102
{ACAD_REACTORS
330
47
102
}
330
47
100
AcDbScale
 70
     0
300
1:8
140
1.0
141
8.0
290
     0
  0
SCALE
  5
4D
102
{ACAD_REACTORS
330
47
102
}
330
47
100
AcDbScale
 70
     0
300
1:10
140
1.0
141
10.0
290
     0
  0
SCALE
  5
4E
102
{ACAD_REACTORS
330
47
102
}
330
47
100
AcDbScale
 70
     0
300
1:16
140
1.0
141
16.0
290
     0
  0
SCALE
  5
4F
102
{ACAD_REACTORS
330
47
102
}
330
47
100
AcDbScale
 70
     0
300
1:20
140
1.0
141
20.0
290
     0
  0
SCALE
  5
50
102
{ACAD_REACTORS
330
47
102
}
330
47
100
AcDbScale
 70
     0
300
1:30
140
1.0
141
30.0
290
     0
  0
SCALE
  5
51
102
{ACAD_REACTORS
330
47
102
}
330
47
100
AcDbScale
 70
     0
300
1:40
140
1.0
141
40.0
290
     0
  0
SCALE
  5
52
102
{ACAD_REACTORS
330
47
102
}
330
47
100
AcDbScale
 70
     0
300
1:50
140
1.0
141
50.0
290
     0
  0
SCALE
  5
53
102
{ACAD_REACTORS
330
47
102
}
330
47
100
AcDbScale
 70
     0
300
1:100
140
1.0
141
100.0
290
     0
  0
SCALE
  5
54
102
{ACAD_REACTORS
330
47
102
}
330
47
100
AcDbScale
 70
     0
300
2:1
140
2.0
141
1.0
290
     0
  0
SCALE
  5
55
102
{ACAD_REACTORS
330
47
102
}
330
47
100
AcDbScale
 70
     0
300
4:1
140
4.0
141
1.0
290
     0
  0
SCALE
  5
56
102
{ACAD_REACTORS
330
47
102
}
330
47
100
AcDbScale
 70
     0
300
8:1
140
8.0
141
1.0
290
     0
  0
SCALE
  5
57
102
{ACAD_REACTORS
330
47
102
}
330
47
100
AcDbScale
 70
     0
300
10:1
140
10.0
141
1.0
290
     0
  0
SCALE
  5
58
102
{ACAD_REACTORS
330
47
102
}
330
47
100
AcDbScale
 70
     0
300
100:1
140
100.0
141
1.0
290
     0
  0
SCALE
  5
59
102
{ACAD_REACTORS
330
47
102
}
330
47
100
AcDbScale
 70
     0
300
1/128" = 1'-0"
140
0.0078125
141
12.0
290
     0
  0
SCALE
  5
5A
102
{ACAD_REACTORS
330
47
102
}
330
47
100
AcDbScale
 70
     0
300
1/64" = 1'-0"
140
0.015625
141
12.0
290
     0
  0
SCALE
  5
5B
102
{ACAD_REACTORS
330
47
102
}
330
47
100
AcDbScale
 70
     0
300
1/32" = 1'-0"
140
0.03125
141
12.0
290
     0
  0
SCALE
  5
5C
102
{ACAD_REACTORS
330
47
102
}
330
47
100
AcDbScale
 70
     0
300
1/16" = 1'-0"
140
0.0625
141
12.0
290
     0
  0
SCALE
  5
5D
102
{ACAD_REACTORS
330
47
102
}
330
47
100
AcDbScale
 70
     0
300
3/32" = 1'-0"
140
0.09375
141
12.0
290
     0
  0
SCALE
  5
5E
102
{ACAD_REACTORS
330
47
102
}
330
47
100
AcDbScale
 70
     0
300
1/8" = 1'-0"
140
0.125
141
12.0
290
     0
  0
SCALE
  5
5F
102
{ACAD_REACTORS
330
47
102
}
330
47
100
AcDbScale
 70
     0
300
3/16" = 1'-0"
140
0.1875
141
12.0
290
     0
  0
SCALE
  5
60
102
{ACAD_REACTORS
330
47
102
}
330
47
100
AcDbScale
 70
     0
300
1/4" = 1'-0"
140
0.25
141
12.0
290
     0
  0
SCALE
  5
61
102
{ACAD_REACTORS
330
47
102
}
330
47
100
AcDbScale
 70
     0
300
3/8" = 1'-0"
140
0.375
141
12.0
290
     0
  0
SCALE
  5
62
102
{ACAD_REACTORS
330
47
102
}
330
47
100
AcDbScale
 70
     0
300
1/2" = 1'-0"
140
0.5
141
12.0
290
     0
  0
SCALE
  5
63
102
{ACAD_REACTORS
330
47
102
}
330
47
100
AcDbScale
 70
     0
300
3/4" = 1'-0"
140
0.75
141
12.0
290
     0
  0
SCALE
  5
64
102
{ACAD_REACTORS
330
47
102
}
330
47
100
AcDbScale
 70
     0
300
1" = 1'-0"
140
1.0
141
12.0
290
     0
  0
SCALE
  5
65
102
{ACAD_REACTORS
330
47
102
}
330
47
100
AcDbScale
 70
     0
300
1-1/2" = 1'-0"
140
1.5
141
12.0
290
     0
  0
SCALE
  5
66
102
{ACAD_REACTORS
330
47
102
}
330
47
100
AcDbScale
 70
     0
300
3" = 1'-0"
140
3.0
141
12.0
290
     0
  0
SCALE
  5
67
102
{ACAD_REACTORS
330
47
102
}
330
47
100
AcDbScale
 70
     0
300
6" = 1'-0"
140
6.0
141
12.0
290
     0
  0
SCALE
  5
68
102
{ACAD_REACTORS
330
47
102
}
330
47
100
AcDbScale
 70
     0
300
1'-0" = 1'-0"
140
12.0
141
12.0
290
     0
  0
ENDSEC
  0
EOF
