  0
SECTION
  2
HEADER
  9
$ACADVER
  1
AC1015
  9
$ACADMAINTVER
 70
    20
  9
$DWGCODEPAGE
  3
ANSI_949
  9
$INSBASE
 10
0.0
 20
0.0
 30
0.0
  9
$EXTMIN
 10
-0.0109854899475295
 20
-0.5076440700884178
 30
-0.0015258207003583
  9
$EXTMAX
 10
349.821167818528
 20
242.0189825075435
 30
0.0000000349246037
  9
$LIMMIN
 10
0.0
 20
0.0
  9
$LIMMAX
 10
360.0
 20
250.0
  9
$ORTHOMODE
 70
     0
  9
$REGENMODE
 70
     1
  9
$FILLMODE
 70
     1
  9
$QTEXTMODE
 70
     0
  9
$MIRRTEXT
 70
     1
  9
$LTSCALE
 40
7.0
  9
$ATTMODE
 70
     1
  9
$TEXTSIZE
 40
3.0
  9
$TRACEWID
 40
1.0
  9
$TEXTSTYLE
  7
STANDARD
  9
$CLAYER
  8
0
  9
$CELTYPE
  6
BYLAYER
  9
$CECOLOR
 62
   256
  9
$CELTSCALE
 40
1.0
  9
$DISPSILH
 70
     0
  9
$DIMSCALE
 40
1.0
  9
$DIMASZ
 40
2.5
  9
$DIMEXO
 40
0.3
  9
$DIMDLI
 40
1.0
  9
$DIMRND
 40
0.0
  9
$DIMDLE
 40
0.0
  9
$DIMEXE
 40
1.0
  9
$DIMTP
 40
0.1
  9
$DIMTM
 40
0.1
  9
$DIMTXT
 40
3.0
  9
$DIMCEN
 40
-0.3
  9
$DIMTSZ
 40
0.0
  9
$DIMTOL
 70
     0
  9
$DIMLIM
 70
     0
  9
$DIMTIH
 70
     0
  9
$DIMTOH
 70
     0
  9
$DIMSE1
 70
     0
  9
$DIMSE2
 70
     0
  9
$DIMTAD
 70
     1
  9
$DIMZIN
 70
     8
  9
$DIMBLK
  1

  9
$DIMASO
 70
     1
  9
$DIMSHO
 70
     1
  9
$DIMPOST
  1

  9
$DIMAPOST
  1

  9
$DIMALT
 70
     0
  9
$DIMALTD
 70
     2
  9
$DIMALTF
 40
0.0394
  9
$DIMLFAC
 40
1.0
  9
$DIMTOFL
 70
     1
  9
$DIMTVP
 40
1.0
  9
$DIMTIX
 70
     0
  9
$DIMSOXD
 70
     0
  9
$DIMSAH
 70
     0
  9
$DIMBLK1
  1

  9
$DIMBLK2
  1

  9
$DIMSTYLE
  2
ISO-25
  9
$DIMCLRD
 70
     2
  9
$DIMCLRE
 70
     2
  9
$DIMCLRT
 70
     3
  9
$DIMTFAC
 40
0.7
  9
$DIMGAP
 40
0.6
  9
$DIMJUST
 70
     0
  9
$DIMSD1
 70
     0
  9
$DIMSD2
 70
     0
  9
$DIMTOLJ
 70
     0
  9
$DIMTZIN
 70
     8
  9
$DIMALTZ
 70
     0
  9
$DIMALTTZ
 70
     0
  9
$DIMUPT
 70
     0
  9
$DIMDEC
 70
     3
  9
$DIMTDEC
 70
     3
  9
$DIMALTU
 70
     2
  9
$DIMALTTD
 70
     2
  9
$DIMTXSTY
  7
STANDARD
  9
$DIMAUNIT
 70
     1
  9
$DIMADEC
 70
     0
  9
$DIMALTRND
 40
0.0
  9
$DIMAZIN
 70
     0
  9
$DIMDSEP
 70
    46
  9
$DIMATFIT
 70
     2
  9
$DIMFRAC
 70
     0
  9
$DIMLDRBLK
  1

  9
$DIMLUNIT
 70
     2
  9
$DIMLWD
 70
    -2
  9
$DIMLWE
 70
    -2
  9
$DIMTMOVE
 70
     0
  9
$LUNITS
 70
     2
  9
$LUPREC
 70
     4
  9
$SKETCHINC
 40
1.0
  9
$FILLETRAD
 40
0.0
  9
$AUNITS
 70
     0
  9
$AUPREC
 70
     0
  9
$MENU
  1
acad
  9
$ELEVATION
 40
0.0
  9
$PELEVATION
 40
0.0
  9
$THICKNESS
 40
0.0
  9
$LIMCHECK
 70
     0
  9
$CHAMFERA
 40
0.5
  9
$CHAMFERB
 40
0.5
  9
$CHAMFERC
 40
45.0
  9
$CHAMFERD
 40
0.7853981633974483
  9
$SKPOLY
 70
     0
  9
$TDCREATE
 40
2450166.869212963
  9
$TDUCREATE
 40
2450166.494215625
  9
$TDUPDATE
 40
2460621.705925926
  9
$TDUUPDATE
 40
2460621.330925926
  9
$TDINDWG
 40
17.3767934259
  9
$TDUSRTIMER
 40
17.3767934259
  9
$USRTIMER
 70
     1
  9
$ANGBASE
 50
0.0
  9
$ANGDIR
 70
     0
  9
$PDMODE
 70
     0
  9
$PDSIZE
 40
0.0
  9
$PLINEWID
 40
1.0
  9
$SPLFRAME
 70
     0
  9
$SPLINETYPE
 70
     6
  9
$SPLINESEGS
 70
     8
  9
$HANDSEED
  5
5847
  9
$SURFTAB1
 70
     6
  9
$SURFTAB2
 70
     6
  9
$SURFTYPE
 70
     6
  9
$SURFU
 70
     6
  9
$SURFV
 70
     6
  9
$UCSBASE
  2

  9
$UCSNAME
  2

  9
$UCSORG
 10
0.0
 20
0.0
 30
0.0
  9
$UCSXDIR
 10
1.0
 20
0.0
 30
0.0
  9
$UCSYDIR
 10
0.0
 20
1.0
 30
0.0
  9
$UCSORTHOREF
  2

  9
$UCSORTHOVIEW
 70
     0
  9
$UCSORGTOP
 10
0.0
 20
0.0
 30
0.0
  9
$UCSORGBOTTOM
 10
0.0
 20
0.0
 30
0.0
  9
$UCSORGLEFT
 10
0.0
 20
0.0
 30
0.0
  9
$UCSORGRIGHT
 10
0.0
 20
0.0
 30
0.0
  9
$UCSORGFRONT
 10
0.0
 20
0.0
 30
0.0
  9
$UCSORGBACK
 10
0.0
 20
0.0
 30
0.0
  9
$PUCSBASE
  2

  9
$PUCSNAME
  2

  9
$PUCSORG
 10
0.0
 20
0.0
 30
0.0
  9
$PUCSXDIR
 10
1.0
 20
0.0
 30
0.0
  9
$PUCSYDIR
 10
0.0
 20
1.0
 30
0.0
  9
$PUCSORTHOREF
  2

  9
$PUCSORTHOVIEW
 70
     0
  9
$PUCSORGTOP
 10
0.0
 20
0.0
 30
0.0
  9
$PUCSORGBOTTOM
 10
0.0
 20
0.0
 30
0.0
  9
$PUCSORGLEFT
 10
0.0
 20
0.0
 30
0.0
  9
$PUCSORGRIGHT
 10
0.0
 20
0.0
 30
0.0
  9
$PUCSORGFRONT
 10
0.0
 20
0.0
 30
0.0
  9
$PUCSORGBACK
 10
0.0
 20
0.0
 30
0.0
  9
$USERI1
 70
     0
  9
$USERI2
 70
     0
  9
$USERI3
 70
     0
  9
$USERI4
 70
     0
  9
$USERI5
 70
     0
  9
$USERR1
 40
0.0
  9
$USERR2
 40
0.0
  9
$USERR3
 40
0.0
  9
$USERR4
 40
0.0
  9
$USERR5
 40
0.0
  9
$WORLDVIEW
 70
     1
  9
$SHADEDGE
 70
     3
  9
$SHADEDIF
 70
    70
  9
$TILEMODE
 70
     1
  9
$MAXACTVP
 70
    16
  9
$PINSBASE
 10
0.0
 20
0.0
 30
0.0
  9
$PLIMCHECK
 70
     0
  9
$PEXTMIN
 10
1.000000000000000E+20
 20
1.000000000000000E+20
 30
1.000000000000000E+20
  9
$PEXTMAX
 10
-1.000000000000000E+20
 20
-1.000000000000000E+20
 30
-1.000000000000000E+20
  9
$PLIMMIN
 10
0.0
 20
0.0
  9
$PLIMMAX
 10
420.0
 20
297.0
  9
$UNITMODE
 70
     0
  9
$VISRETAIN
 70
     0
  9
$PLINEGEN
 70
     0
  9
$PSLTSCALE
 70
     1
  9
$TREEDEPTH
 70
  3020
  9
$CMLSTYLE
  2
STANDARD
  9
$CMLJUST
 70
     0
  9
$CMLSCALE
 40
1.0
  9
$PROXYGRAPHICS
 70
     1
  9
$MEASUREMENT
 70
     0
  9
$CELWEIGHT
370
    -1
  9
$ENDCAPS
280
     0
  9
$JOINSTYLE
280
     0
  9
$LWDISPLAY
290
     0
  9
$INSUNITS
 70
     0
  9
$HYPERLINKBASE
  1

  9
$STYLESHEET
  1

  9
$XEDIT
290
     1
  9
$CEPSNTYPE
380
     0
  9
$PSTYLEMODE
290
     1
  9
$FINGERPRINTGUID
  2
{669AB030-BC98-4745-922B-3D1484E037AE}
  9
$VERSIONGUID
  2
{79645561-984E-D640-88CE-6C3FE5D83D50}
  9
$EXTNAMES
290
     1
  9
$PSVPSCALE
 40
0.0
  9
$OLESTARTUP
290
     0
  0
ENDSEC
  0
SECTION
  2
CLASSES
  0
CLASS
  1
ACDBDICTIONARYWDFLT
  2
AcDbDictionaryWithDefault
  3
ObjectDBX Classes
 90
        0
280
     0
281
     0
  0
CLASS
  1
DICTIONARYVAR
  2
AcDbDictionaryVar
  3
ObjectDBX Classes
 90
        0
280
     0
281
     0
  0
CLASS
  1
IMAGEDEF
  2
AcDbRasterImageDef
  3
ISM
 90
    32768
280
     0
281
     0
  0
CLASS
  1
MATERIAL
  2
AcDbMaterial
  3
ObjectDBX Classes
 90
     1153
280
     0
281
     0
  0
CLASS
  1
VISUALSTYLE
  2
AcDbVisualStyle
  3
ObjectDBX Classes
 90
     4095
280
     0
281
     0
  0
CLASS
  1
TABLESTYLE
  2
AcDbTableStyle
  3
ObjectDBX Classes
 90
     4095
280
     0
281
     0
  0
CLASS
  1
SCALE
  2
AcDbScale
  3
ObjectDBX Classes
 90
     1153
280
     0
281
     0
  0
CLASS
  1
MLEADERSTYLE
  2
AcDbMLeaderStyle
  3
ACDB_MLEADERSTYLE_CLASS
 90
     4095
280
     0
281
     0
  0
CLASS
  1
CELLSTYLEMAP
  2
AcDbCellStyleMap
  3
ObjectDBX Classes
 90
     1152
280
     0
281
     0
  0
CLASS
  1
SORTENTSTABLE
  2
AcDbSortentsTable
  3
ObjectDBX Classes
 90
        0
280
     0
281
     0
  0
CLASS
  1
EXACXREFPANELOBJECT
  2
ExAcXREFPanelObject
  3
EXAC_ESW
 90
    33793
280
     1
281
     0
  0
CLASS
  1
NPOCOLLECTION
  2
AcDbImpNonPersistentObjectsCollection
  3
ObjectDBX Classes
 90
    33921
280
     0
281
     0
  0
CLASS
  1
AEC_REFEDIT_STATUS_TRACKER
  2
AecDbRefEditStatusTracker
  3
AecArchBase50|Product Desc: Autodesk Architectural Desktop 2007 |Company: Autodesk,Inc. |WEB Address: www.autodesk.com
 90
    32897
280
     0
281
     0
  0
CLASS
  1
ACAD_EVALUATION_GRAPH
  2
AcDbEvalGraph
  3
ObjectDBX Classes
 90
    33921
280
     0
281
     0
  0
CLASS
  1
BLOCKLOOKUPPARAMETER
  2
AcDbBlockLookupParameter
  3
ObjectDBX Classes
 90
    33921
280
     0
281
     0
  0
CLASS
  1
BLOCKLOOKUPGRIP
  2
AcDbBlockLookupGrip
  3
ObjectDBX Classes
 90
    33921
280
     0
281
     0
  0
CLASS
  1
BLOCKGRIPLOCATIONCOMPONENT
  2
AcDbBlockGripExpr
  3
ObjectDBX Classes
 90
    33921
280
     0
281
     0
  0
CLASS
  1
BLOCKLOOKUPACTION
  2
AcDbBlockLookupAction
  3
ObjectDBX Classes
 90
    33921
280
     0
281
     0
  0
CLASS
  1
BLOCKLINEARPARAMETER
  2
AcDbBlockLinearParameter
  3
ObjectDBX Classes
 90
    33921
280
     0
281
     0
  0
CLASS
  1
BLOCKSCALEACTION
  2
AcDbBlockScaleAction
  3
ObjectDBX Classes
 90
    33921
280
     0
281
     0
  0
CLASS
  1
ACDB_DYNAMICBLOCKPURGEPREVENTER_VERSION
  2
AcDbDynamicBlockPurgePreventer
  3
ObjectDBX Classes
 90
    33921
280
     0
281
     0
  0
CLASS
  1
ACDB_BLOCKREPRESENTATION_DATA
  2
AcDbBlockRepresentationData
  3
ObjectDBX Classes
 90
    33921
280
     0
281
     0
  0
CLASS
  1
BLOCKSTRETCHACTION
  2
AcDbBlockStretchAction
  3
ObjectDBX Classes
 90
    33921
280
     0
281
     0
  0
CLASS
  1
BLOCKVISIBILITYPARAMETER
  2
AcDbBlockVisibilityParameter
  3
ObjectDBX Classes
 90
    33921
280
     0
281
     0
  0
CLASS
  1
BLOCKLINEARGRIP
  2
AcDbBlockLinearGrip
  3
ObjectDBX Classes
 90
    33921
280
     0
281
     0
  0
CLASS
  1
MULTILEADER
  2
AcDbMLeader
  3
ACDB_MLEADER_CLASS
 90
    33793
280
     0
281
     1
  0
CLASS
  1
BLOCKVISIBILITYGRIP
  2
AcDbBlockVisibilityGrip
  3
ObjectDBX Classes
 90
    33921
280
     0
281
     0
  0
CLASS
  1
ACDB_BLKREFOBJECTCONTEXTDATA_CLASS
  2
AcDbBlkRefObjectContextData
  3
ObjectDBX Classes
 90
    33921
280
     0
281
     0
  0
CLASS
  1
ACDB_MTEXTATTRIBUTEOBJECTCONTEXTDATA_CLASS
  2
AcDbMTextAttributeObjectContextData
  3
ObjectDBX Classes
 90
    33921
280
     0
281
     0
  0
CLASS
  1
SOLID_BACKGROUND
  2
AcDbSolidBackground
  3
SCENEOE
 90
    36863
280
     0
281
     0
  0
CLASS
  1
LARGE_RADIAL_DIMENSION
  2
AcDbRadialDimensionLarge
  3
ObjectDBX Classes
 90
    33793
280
     0
281
     1
  0
CLASS
  1
ACDBSECTIONVIEWSTYLE
  2
AcDbSectionViewStyle
  3
ObjectDBX Classes
 90
     1025
280
     0
281
     0
  0
CLASS
  1
ACDBDETAILVIEWSTYLE
  2
AcDbDetailViewStyle
  3
ObjectDBX Classes
 90
     1025
280
     0
281
     0
  0
CLASS
  1
AMGSETTINGSOBJ
  2
AmgSettingsObj
  3
"AcadM|Product Description: AutoCAD Mechanical|Company: Autodesk, Inc."
 90
     1024
280
     0
281
     0
  0
CLASS
  1
ACME_DOCUMENT
  2
AcMeDbDoc
  3
AcMeServices
 90
     1024
280
     0
281
     0
  0
CLASS
  1
ACMESCOPE
  2
AcMeScope
  3
AcMeServices
 90
     1024
280
     0
281
     0
  0
CLASS
  1
ACMECOMMANDHISTORY
  2
AcMeCommandHistory
  3
AcMeServices
 90
     1024
280
     0
281
     0
  0
CLASS
  1
ACIMSYSVARMAN
  2
AcImSysVarManager
  3
AcMeServices
 90
     1024
280
     0
281
     0
  0
CLASS
  1
ACIMINTSYSVAR
  2
AcImIntSysVar
  3
AcMeServices
 90
     1024
280
     0
281
     0
  0
CLASS
  1
ACMESTATEMGR
  2
AcMeStateMgr
  3
AcMeServices
 90
     1024
280
     0
281
     0
  0
CLASS
  1
ACDBENTITYCACHE
  2
AcMeEntityCache
  3
AcMeServices
 90
     1024
280
     0
281
     0
  0
CLASS
  1
ACGREFMASTER
  2
AcGrefMaster
  3
AcAttribServices
 90
     1024
280
     0
281
     0
  0
CLASS
  1
ACME_DATABASE
  2
AcMeDbDatabase
  3
AcMeServices
 90
     1024
280
     0
281
     0
  0
CLASS
  1
ACRFINSADJUSTERMGR
  2
AcRfInsAdjusterMgr
  3
AcMeServices
 90
     1024
280
     0
281
     0
  0
CLASS
  1
ACGREFACADMASTER
  2
AcGrefacadMaster
  3
AcGrefServices
 90
     1024
280
     0
281
     0
  0
CLASS
  1
AMIMASTER
  2
AmiMaster
  3
AmiServices
 90
     1024
280
     0
281
     0
  0
CLASS
  1
AMDTMENUSTATEMGR
  2
AmdtMenuStateMgr
  3
McadcomServices
 90
     1024
280
     0
281
     0
  0
CLASS
  1
AMDTMCOMMENUSTATE
  2
AmdtMcomMenuState
  3
McadcomServices
 90
     1024
280
     0
281
     0
  0
CLASS
  1
MAPIAMMOUDLE
  2
MApiAmModule
  3
MApiAmServices
 90
     1024
280
     0
281
     0
  0
CLASS
  1
ACIMSTRSYSVAR
  2
AcImStrSysVar
  3
AcMeServices
 90
     1024
280
     0
281
     0
  0
CLASS
  1
AMDTAMMENUSTATE
  2
AmdtAmMenuState
  3
DesignerAssemblies_arx
 90
     1024
280
     0
281
     0
  0
CLASS
  1
ACAMPROJECT
  2
AcAmProject
  3
DesignerAssemblies
 90
     1024
280
     0
281
     0
  0
CLASS
  1
ACAMGRCOMPDEF
  2
AcAmGrCompDef
  3
DesignerAssemblies
 90
     1024
280
     0
281
     0
  0
CLASS
  1
ACAMCOMPDEF
  2
AcAmCompDef
  3
DesignerAssemblies
 90
     1024
280
     0
281
     0
  0
CLASS
  1
ACAMCOMPDEFMGR
  2
AcAmCompDefMgr
  3
DesignerAssemblies
 90
     1024
280
     0
281
     0
  0
CLASS
  1
AMCONTEXTMGR
  2
AcAmContextMgr
  3
DesignerAssemblies
 90
     1024
280
     0
281
     0
  0
CLASS
  1
ACAMCONTEXTMODELER
  2
AcAmContextModeler
  3
DesignerAssemblies
 90
     1024
280
     0
281
     0
  0
CLASS
  1
ACMDATADICTIONARY
  2
AcmDataDictionary
  3
"AcmSymBB|Product Description: AutoCAD Mechanical|Company: Autodesk, Inc."
 90
     1024
280
     0
281
     0
  0
CLASS
  1
ACAMGRCOMPDEFSET
  2
AcAmGrCompDefSet
  3
DesignerAssemblies
 90
     1024
280
     0
281
     0
  0
CLASS
  1
AMDTBROWSERDBTAB
  2
AmdtBrowserDbTab
  3
McadcomServices
 90
     1024
280
     0
281
     0
  0
CLASS
  1
CBROWSERAPPOBJECT
  2
CBrowserAppObject
  3
McadcomServices
 90
     1024
280
     0
281
     0
  0
CLASS
  1
DM_PLACEHOLDER
  2
AcDmSelsetPlaceholder
  3
McadcomServices
 90
     1024
280
     0
281
     0
  0
CLASS
  1
ACMSTANDARDANSI
  2
AcmStandardANSI
  3
"Amdt_StdImp|Product Description: AutoCAD Mechanical|Company: Autodesk, Inc."
 90
     1024
280
     0
281
     0
  0
CLASS
  1
ACMSURFSTANDARDANSI
  2
AcmSurfTextStdANSI
  3
"Amdt_StdImp|Product Description: AutoCAD Mechanical|Company: Autodesk, Inc."
 90
     1024
280
     0
281
     0
  0
CLASS
  1
ACMFCFSTANDARDANSI
  2
AcmFCFStdANSI
  3
"Amdt_StdImp|Product Description: AutoCAD Mechanical|Company: Autodesk, Inc."
 90
     1024
280
     0
281
     0
  0
CLASS
  1
ACMWELDSTANDARDANSI
  2
AcmWeldingStdANSI
  3
"Amdt_StdImp|Product Description: AutoCAD Mechanical|Company: Autodesk, Inc."
 90
     1024
280
     0
281
     0
  0
CLASS
  1
ACMIDSTANDARDANSI
  2
AcmIdStdANSI
  3
"Amdt_StdImp|Product Description: AutoCAD Mechanical|Company: Autodesk, Inc."
 90
     1024
280
     0
281
     0
  0
CLASS
  1
ACMDATUMSTANDARDANSI
  2
AcmDatumStdANSI
  3
"Amdt_StdImp|Product Description: AutoCAD Mechanical|Company: Autodesk, Inc."
 90
     1024
280
     0
281
     0
  0
CLASS
  1
ACMBOMSTANDARDANSI
  2
AcmBOMStdANSI
  3
"Amdt_StdImp|Product Description: AutoCAD Mechanical|Company: Autodesk, Inc."
 90
     1024
280
     0
281
     0
  0
CLASS
  1
ACMDETAILSTANDARDANSI
  2
AmdtDetailSymStdANSI
  3
"Amdt_StdImp|Product Description: AutoCAD Mechanical|Company: Autodesk, Inc."
 90
     1024
280
     0
281
     0
  0
CLASS
  1
ACMSECTIONSTANDARDANSI
  2
AmdtSectionSymStdANSI
  3
"Amdt_StdImp|Product Description: AutoCAD Mechanical|Company: Autodesk, Inc."
 90
     1024
280
     0
281
     0
  0
CLASS
  1
ACMCENTERLINESTANDARDANSI
  2
AmdtCenterLineStdANSI
  3
"Amdt_StdImp|Product Description: AutoCAD Mechanical|Company: Autodesk, Inc."
 90
     1024
280
     0
281
     0
  0
CLASS
  1
ACMTHREADLINESTANDARDANSI
  2
AmdtThreadLineStdANSI
  3
"Amdt_StdImp|Product Description: AutoCAD Mechanical|Company: Autodesk, Inc."
 90
     1024
280
     0
281
     0
  0
CLASS
  1
ACMNOTESTANDARDANSI
  2
AmdtNoteStdANSI
  3
"Amdt_StdImp|Product Description: AutoCAD Mechanical|Company: Autodesk, Inc."
 90
     1024
280
     0
281
     0
  0
CLASS
  1
ACMTAPERSTANDARDANSI
  2
AcmTaperStdANSI
  3
"Amdt_StdImp|Product Description: AutoCAD Mechanical|Company: Autodesk, Inc."
 90
     1024
280
     0
281
     0
  0
CLASS
  1
ACMANOOTATIONVIEWSTANDARDANSI
  2
AmdtAnViewStdANSI
  3
"Amdt_StdImp|Product Description: AutoCAD Mechanical|Company: Autodesk, Inc."
 90
     1024
280
     0
281
     0
  0
CLASS
  1
ACAMGLAYSTD
  2
AcAmgLayStd
  3
"AmgLay|Product Description: AutoCAD Mechanical|Company: Autodesk, Inc."
 90
     1024
280
     0
281
     0
  0
CLASS
  1
ACAMGTITLESTD
  2
AcAmgTitleStd
  3
"AmgTitle|Product Description: AutoCAD Mechanical|Company: Autodesk, Inc."
 90
     1024
280
     0
281
     0
  0
CLASS
  1
ACAMGDIMSTD
  2
AcAmgDimStd
  3
"AmgDim|Product Description: AutoCAD Mechanical|Company: Autodesk, Inc."
 90
     1024
280
     0
281
     0
  0
CLASS
  1
AMGOBJPROPCFG
  2
AmgObjPropCfg
  3
"AmgLay|Product Description: AutoCAD Mechanical|Company: Autodesk, Inc."
 90
     1024
280
     0
281
     0
  0
CLASS
  1
ACAMGHOLECHARTSTDANSI
  2
AcAmgHoleChartStdANSI
  3
"AmgDim" "Product Description: AutoCAD Mechanical|Company: Autodesk, Inc."
 90
     1024
280
     0
281
     0
  0
CLASS
  1
ACMSECTIONSTANDARDCUSTOM
  2
AmdtSectionSymStdCustom
  3
"Amdt_StdImp|Product Description: AutoCAD Mechanical|Company: Autodesk, Inc."
 90
     1024
280
     0
281
     0
  0
CLASS
  1
ACMDETAILTANDARDCUSTOM
  2
AmdtDetailSymStdCustom
  3
"Amdt_StdImp|Product Description: AutoCAD Mechanical|Company: Autodesk, Inc."
 90
     1024
280
     0
281
     0
  0
CLASS
  1
FIELD
  2
AcDbField
  3
ObjectDBX Classes
 90
     1152
280
     0
281
     0
  0
CLASS
  1
FIELDLIST
  2
AcDbFieldList
  3
ObjectDBX Classes
 90
     1152
280
     0
281
     0
  0
CLASS
  1
AMDTNOTETEMPLATEDB
  2
AmdtNoteTemplateDB
  3
"AcmSymBB" "Product Description: AutoCAD Mechanical|Company: Autodesk, Inc."
 90
     1024
280
     0
281
     0
  0
CLASS
  1
ACAMGFILTERDAT
  2
AcAmgFilterDat
  3
"AcadM|Product Description: AutoCAD Mechanical|Company: Autodesk, Inc."
 90
     1024
280
     0
281
     0
  0
CLASS
  1
ACDBPLACEHOLDER
  2
AcDbPlaceHolder
  3
ObjectDBX Classes
 90
        0
280
     0
281
     0
  0
CLASS
  1
LAYOUT
  2
AcDbLayout
  3
ObjectDBX Classes
 90
        0
280
     0
281
     0
  0
ENDSEC
  0
SECTION
  2
TABLES
  0
TABLE
  2
VPORT
  5
29
102
{ACAD_XDICTIONARY
360
2D
102
}
330
0
100
AcDbSymbolTable
 70
     1
  0
VPORT
  5
2A
330
29
100
AcDbSymbolTableRecord
100
AcDbViewportTableRecord
  2
*Active
 70
     0
 10
0.0
 20
0.0
 11
1.0
 21
1.0
 12
174.9050911642902
 22
120.7556692187275
 13
0.0
 23
0.0
 14
1.0
 24
1.0
 15
2.0
 25
2.0
 16
0.0
 26
0.0
 36
1.0
 17
0.0
 27
0.0
 37
0.0
 40
249.6955706125235
 41
1.920650095602294
 42
50.0
 43
0.0
 44
0.0
 50
0.0
 51
0.0
 71
     0
 72
   100
 73
     1
 74
     1
 75
     0
 76
     0
 77
     0
 78
     1
281
     0
 65
     0
110
0.0
120
0.0
130
0.0
111
1.0
121
0.0
131
0.0
112
0.0
122
1.0
132
0.0
 79
     0
146
0.0
1001
ACAD_NAV_VCDISPLAY
1070
     3
  0
ENDTAB
  0
TABLE
  2
LTYPE
  5
24
330
0
100
AcDbSymbolTable
 70
    18
  0
LTYPE
  5
25
330
24
100
AcDbSymbolTableRecord
100
AcDbLinetypeTableRecord
  2
BYBLOCK
 70
     0
  3

 72
    65
 73
     0
 40
0.0
  0
LTYPE
  5
26
330
24
100
AcDbSymbolTableRecord
100
AcDbLinetypeTableRecord
  2
BYLAYER
 70
     0
  3

 72
    65
 73
     0
 40
0.0
  0
LTYPE
  5
15
330
24
100
AcDbSymbolTableRecord
100
AcDbLinetypeTableRecord
  2
CONTINUOUS
 70
     0
  3
Solid line
 72
    65
 73
     0
 40
0.0
  0
LTYPE
  5
71
330
24
100
AcDbSymbolTableRecord
100
AcDbLinetypeTableRecord
  2
CENTER
 70
     0
  3
____ _ ____ _ ____ _ ____ _ ____ _ ____ _ ____ 
 72
    65
 73
     4
 40
2.0
 49
1.25
 74
     0
 49
-0.25
 74
     0
 49
0.25
 74
     0
 49
-0.25
 74
     0
  0
LTYPE
  5
504F
330
24
100
AcDbSymbolTableRecord
100
AcDbLinetypeTableRecord
  2
HIDDEN
 70
     0
  3
Hidden __ __ __ __ __ __ __ __ __ __ __ __ __ _
 72
    65
 73
     2
 40
0.375
 49
0.25
 74
     0
 49
-0.125
 74
     0
  0
LTYPE
  5
5050
330
24
100
AcDbSymbolTableRecord
100
AcDbLinetypeTableRecord
  2
PHANTOM2
 70
     0
  3
Phantom (.5x) ___ _ _ ___ _ _ ___ _ _ ___ _ _
 72
    65
 73
     6
 40
1.25
 49
0.625
 74
     0
 49
-0.125
 74
     0
 49
0.125
 74
     0
 49
-0.125
 74
     0
 49
0.125
 74
     0
 49
-0.125
 74
     0
  0
LTYPE
  5
5089
330
24
100
AcDbSymbolTableRecord
100
AcDbLinetypeTableRecord
  2
AM_ISO02W050
 70
     0
  3
__ __ __ __ __ __ __ __ __ __ __ __ __ __ __
 72
    65
 73
     2
 40
7.5
 49
6.0
 74
     0
 49
-1.5
 74
     0
  0
LTYPE
  5
508A
330
24
100
AcDbSymbolTableRecord
100
AcDbLinetypeTableRecord
  2
AM_ISO08W050
 70
     0
  3
____ . ____ . ____ . ____ . ____ . ____ . ____
 72
    65
 73
     4
 40
18.0
 49
12.0
 74
     0
 49
-1.5
 74
     0
 49
3.0
 74
     0
 49
-1.5
 74
     0
  0
LTYPE
  5
508B
330
24
100
AcDbSymbolTableRecord
100
AcDbLinetypeTableRecord
  2
AM_ISO09W050
 70
     0
  3
_____ . . _____ . . _____ . . ____ .. ____
 72
    65
 73
     6
 40
22.5
 49
12.0
 74
     0
 49
-1.5
 74
     0
 49
3.0
 74
     0
 49
-1.5
 74
     0
 49
3.0
 74
     0
 49
-1.5
 74
     0
  0
LTYPE
  5
508C
330
24
100
AcDbSymbolTableRecord
100
AcDbLinetypeTableRecord
  2
Amconstr
 70
     0
  3
_______________________
 72
    65
 73
     2
 40
9999.0
 49
9999.0
 74
     0
 49
0.0
 74
     0
  0
LTYPE
  5
508D
330
24
100
AcDbSymbolTableRecord
100
AcDbLinetypeTableRecord
  2
AM_ISO08W050x2
 70
     0
  3
__ . __ . __ . __ . __ . __
 72
    65
 73
     4
 40
9.0
 49
6.0
 74
     0
 49
-0.75
 74
     0
 49
1.5
 74
     0
 49
-0.75
 74
     0
  0
LTYPE
  5
508E
330
24
100
AcDbSymbolTableRecord
100
AcDbLinetypeTableRecord
  2
AM_ISO02W050x2
 70
     0
  3
 _ _ _ _ _ _ _ _ _ _ _ _
 72
    65
 73
     2
 40
3.75
 49
3.0
 74
     0
 49
-0.75
 74
     0
  0
LTYPE
  5
5091
330
24
100
AcDbSymbolTableRecord
100
AcDbLinetypeTableRecord
  2
Amzigzag
 70
     0
  3
/\/-/\/-/\/-/\/-/\/-/\/
 72
    65
 73
     2
 40
11.0001
 49
0.0001
 74
     4
 75
   136
340
5090
 46
0.04
 50
0.0
 44
0.0
 45
0.0
 49
-11.0
 74
     0
  0
LTYPE
  5
5092
330
24
100
AcDbSymbolTableRecord
100
AcDbLinetypeTableRecord
  2
CENTER2
 70
     0
  3
Center (.5x) ___ _ ___ _ ___ _ ___ _ ___ _ ___
 72
    65
 73
     4
 40
1.125
 49
0.75
 74
     0
 49
-0.125
 74
     0
 49
0.125
 74
     0
 49
-0.125
 74
     0
  0
LTYPE
  5
5093
330
24
100
AcDbSymbolTableRecord
100
AcDbLinetypeTableRecord
  2
HIDDEN2
 70
     0
  3
Hidden (.5x) _ _ _ _ _ _ _ _ _ _ _ _ _ _ _ _ _
 72
    65
 73
     2
 40
0.1875
 49
0.125
 74
     0
 49
-0.0625
 74
     0
  0
LTYPE
  5
5094
330
24
100
AcDbSymbolTableRecord
100
AcDbLinetypeTableRecord
  2
Amzigzag2
 70
     0
  3
/\/-/\/-/\/-/\/-/\/-/\/
 72
    65
 73
     2
 40
0.4401
 49
0.0001
 74
     4
 75
   136
340
5090
 46
0.0016
 50
0.0
 44
0.0
 45
0.0
 49
-0.4400000000000001
 74
     0
  0
LTYPE
  5
50A3
330
24
100
AcDbSymbolTableRecord
100
AcDbLinetypeTableRecord
  2
ACANSTGB
 70
     0
  3
__ . . __ . .
 72
    65
 73
     6
 40
0.35433070866
 49
0.15748031496
 74
     0
 49
-0.03937007874
 74
     0
 49
0.03937007874
 74
     0
 49
-0.03937007874
 74
     0
 49
0.03937007874
 74
     0
 49
-0.03937007874
 74
     0
  0
LTYPE
  5
50A4
330
24
100
AcDbSymbolTableRecord
100
AcDbLinetypeTableRecord
  2
ACANSTGL
 70
     0
  3
_ _ _ _ _
 72
    65
 73
     2
 40
0.11811023622
 49
0.07874015748
 74
     0
 49
-0.03937007874
 74
     0
  0
LTYPE
  5
53B7
330
24
100
AcDbSymbolTableRecord
100
AcDbLinetypeTableRecord
  2
PHANTOM
 70
     0
  3
Phantom ______  __  __  ______  __  __  ______
 72
    65
 73
     6
 40
2.5
 49
1.25
 74
     0
 49
-0.25
 74
     0
 49
0.25
 74
     0
 49
-0.25
 74
     0
 49
0.25
 74
     0
 49
-0.25
 74
     0
  0
ENDTAB
  0
TABLE
  2
LAYER
  5
1E
102
{ACAD_XDICTIONARY
360
1F
102
}
330
0
100
AcDbSymbolTable
 70
     7
  0
LAYER
  5
6
102
{ACAD_XDICTIONARY
360
7
102
}
330
1E
100
AcDbSymbolTableRecord
100
AcDbLayerTableRecord
  2
0
 70
     0
 62
     7
  6
CONTINUOUS
370
    -3
390
9
  0
LAYER
  5
75
330
1E
100
AcDbSymbolTableRecord
100
AcDbLayerTableRecord
  2
DEFPOINTS
 70
     0
 62
     7
  6
CONTINUOUS
290
     0
370
    -3
390
9
  0
LAYER
  5
5128
102
{ACAD_XDICTIONARY
360
5129
102
}
330
1E
100
AcDbSymbolTableRecord
100
AcDbLayerTableRecord
  2
SSK-가는실선
 70
     0
 62
     3
  6
CONTINUOUS
370
    15
390
9
1001
AcAecLayerStandard
1000

1000

  0
LAYER
  5
512A
102
{ACAD_XDICTIONARY
360
512B
102
}
330
1E
100
AcDbSymbolTableRecord
100
AcDbLayerTableRecord
  2
SSK-문자
 70
     0
 62
     2
  6
CONTINUOUS
370
    15
390
9
1001
AcAecLayerStandard
1000

1000

  0
LAYER
  5
512C
102
{ACAD_XDICTIONARY
360
512D
102
}
330
1E
100
AcDbSymbolTableRecord
100
AcDbLayerTableRecord
  2
SSK-해칭
 70
     0
 62
     2
  6
CONTINUOUS
370
    15
390
9
1001
AcAecLayerStandard
1000

1000

  0
LAYER
  5
512E
102
{ACAD_XDICTIONARY
360
512F
102
}
330
1E
100
AcDbSymbolTableRecord
100
AcDbLayerTableRecord
  2
SSK-숨은선
 70
     0
 62
     3
  6
HIDDEN
370
    18
390
9
1001
AcAecLayerStandard
1000

1000

  0
LAYER
  5
53B8
330
1E
100
AcDbSymbolTableRecord
100
AcDbLayerTableRecord
  2
PT2
 70
     0
 62
     2
  6
PHANTOM2
370
    -3
390
9
  0
ENDTAB
  0
TABLE
  2
STYLE
  5
21
330
0
100
AcDbSymbolTable
 70
     5
  0
STYLE
  5
22
330
21
100
AcDbSymbolTableRecord
100
AcDbTextStyleTableRecord
  2
STANDARD
 70
     0
 40
3.0
 41
1.0
 50
0.0
 71
     0
 42
3.0
  3
ISOCP
  4
WHGTXT.SHX
  0
STYLE
  5
5090
330
21
100
AcDbSymbolTableRecord
100
AcDbTextStyleTableRecord
  2

 70
     1
 40
0.0
 41
1.0
 50
0.0
 71
     0
 42
3.0
  3
genltshp.shx
  4

  0
STYLE
  5
50A1
330
21
100
AcDbSymbolTableRecord
100
AcDbTextStyleTableRecord
  2
ACANSTS
 70
     0
 40
0.0
 41
1.0
 50
0.0
 71
     0
 42
3.0
  3
romans.shx
  4

  0
STYLE
  5
50A2
330
21
100
AcDbSymbolTableRecord
100
AcDbTextStyleTableRecord
  2
ACANSGDT
 70
     0
 40
0.0
 41
1.0
 50
0.0
 71
     0
 42
3.0
  3
amgdt.shx
  4

  0
STYLE
  5
5130
330
21
100
AcDbSymbolTableRecord
100
AcDbTextStyleTableRecord
  2
SSK-치수
 70
     0
 40
0.0
 41
0.7
 50
0.0
 71
     0
 42
0.2
  3

  4

1001
ACAD
1000
Gulim
1071
        0
  0
ENDTAB
  0
TABLE
  2
VIEW
  5
27
330
0
100
AcDbSymbolTable
 70
     0
  0
ENDTAB
  0
TABLE
  2
UCS
  5
28
330
0
100
AcDbSymbolTable
 70
     0
  0
ENDTAB
  0
TABLE
  2
APPID
  5
2E
330
0
100
AcDbSymbolTable
 70
    24
  0
APPID
  5
2F
330
2E
100
AcDbSymbolTableRecord
100
AcDbRegAppTableRecord
  2
ACAD
 70
     0
  0
APPID
  5
19
330
2E
100
AcDbSymbolTableRecord
100
AcDbRegAppTableRecord
  2
ACAD_PSEXT
 70
     0
  0
APPID
  5
1B1
330
2E
100
AcDbSymbolTableRecord
100
AcDbRegAppTableRecord
  2
ACAD_MLEADERVER
 70
     0
  0
APPID
  5
1D9
330
2E
100
AcDbSymbolTableRecord
100
AcDbRegAppTableRecord
  2
ACAD_EXEMPT_FROM_CAD_STANDARDS
 70
     0
  0
APPID
  5
495
330
2E
100
AcDbSymbolTableRecord
100
AcDbRegAppTableRecord
  2
ACAD_DSTYLE_DIMRADIAL_EXTENSION
 70
     0
  0
APPID
  5
2D4A
330
2E
100
AcDbSymbolTableRecord
100
AcDbRegAppTableRecord
  2
ACAD_DSTYLE_DIMJAG
 70
     0
  0
APPID
  5
2D4B
330
2E
100
AcDbSymbolTableRecord
100
AcDbRegAppTableRecord
  2
ACAD_DSTYLE_DIMBREAK
 70
     0
  0
APPID
  5
2D4C
330
2E
100
AcDbSymbolTableRecord
100
AcDbRegAppTableRecord
  2
ACAD_DSTYLE_DIMTALN
 70
     0
  0
APPID
  5
4EB3
330
2E
100
AcDbSymbolTableRecord
100
AcDbRegAppTableRecord
  2
ACAD_NAV_VCDISPLAY
 70
     0
  0
APPID
  5
5048
330
2E
100
AcDbSymbolTableRecord
100
AcDbRegAppTableRecord
  2
MCAD_NO_VIS
 70
     0
  0
APPID
  5
5049
330
2E
100
AcDbSymbolTableRecord
100
AcDbRegAppTableRecord
  2
ACAD_TEMP_GRAPHIC
 70
     0
  0
APPID
  5
5055
330
2E
100
AcDbSymbolTableRecord
100
AcDbRegAppTableRecord
  2
ACATTRIBSERVICES
 70
     0
  0
APPID
  5
506D
330
2E
100
AcDbSymbolTableRecord
100
AcDbRegAppTableRecord
  2
DESIGNERASSEMBLIES
 70
     0
  0
APPID
  5
5133
330
2E
100
AcDbSymbolTableRecord
100
AcDbRegAppTableRecord
  2
AcAecLayerStandard
 70
     0
  0
APPID
  5
5134
330
2E
100
AcDbSymbolTableRecord
100
AcDbRegAppTableRecord
  2
GENIUS_GENODEF_13
 70
     0
  0
APPID
  5
5135
330
2E
100
AcDbSymbolTableRecord
100
AcDbRegAppTableRecord
  2
GENIUS_GENOBJ-N-FIL_13
 70
     0
  0
APPID
  5
5136
330
2E
100
AcDbSymbolTableRecord
100
AcDbRegAppTableRecord
  2
REVCLOUDPROPS
 70
     0
  0
APPID
  5
5137
330
2E
100
AcDbSymbolTableRecord
100
AcDbRegAppTableRecord
  2
GradientColor1ACI
 70
     0
  0
APPID
  5
5138
330
2E
100
AcDbSymbolTableRecord
100
AcDbRegAppTableRecord
  2
GradientColor2ACI
 70
     0
  0
APPID
  5
5139
330
2E
100
AcDbSymbolTableRecord
100
AcDbRegAppTableRecord
  2
Acad_TC
 70
     0
  0
APPID
  5
5843
330
2E
100
AcDbSymbolTableRecord
100
AcDbRegAppTableRecord
  2
ACAD_DSTYLE_DIMARC_LENGTH_SYMBOL
 70
     0
  0
APPID
  5
5844
330
2E
100
AcDbSymbolTableRecord
100
AcDbRegAppTableRecord
  2
ACAD_DSTYLE_DIM_LINETYPE
 70
     0
  0
APPID
  5
5845
330
2E
100
AcDbSymbolTableRecord
100
AcDbRegAppTableRecord
  2
ACAD_DSTYLE_DIM_EXT1_LINETYPE
 70
     0
  0
APPID
  5
5846
330
2E
100
AcDbSymbolTableRecord
100
AcDbRegAppTableRecord
  2
ACAD_DSTYLE_DIM_EXT2_LINETYPE
 70
     0
  0
ENDTAB
  0
TABLE
  2
DIMSTYLE
  5
30
330
0
100
AcDbSymbolTable
 70
     9
100
AcDbDimStyleTable
 71
     1
340
31
  0
DIMSTYLE
105
31
102
{ACAD_REACTORS
330
56A0
330
569F
102
}
330
30
100
AcDbSymbolTableRecord
100
AcDbDimStyleTableRecord
  2
ISO-25
 70
     0
 41
2.5
 42
0.625
 43
3.75
 44
1.25
 74
     0
 77
     1
 78
     8
140
2.5
141
2.5
143
0.0394
145
1.0
147
0.625
172
     1
176
     2
177
     2
340
22
  0
DIMSTYLE
105
5087
102
{ACAD_REACTORS
330
5076
102
}
330
30
100
AcDbSymbolTableRecord
100
AcDbDimStyleTableRecord
  2
AM_ANSI
 70
     0
  4
mm
 41
0.12
 42
0.05
 43
0.5
 44
0.1
 47
0.1
 48
0.1
 78
     7
 79
     2
140
0.12
141
0.0
146
0.71
147
0.06
176
   256
177
   256
178
     2
274
     4
284
     7
340
22
371
    -1
372
    -1
1001
ACAD_DSTYLE_DIMJAG
1070
   388
1040
1.5
1001
ACAD_DSTYLE_DIMBREAK
1070
   391
1040
0.125
1001
ACAD_DSTYLE_DIMARC_LENGTH_SYMBOL
1070
   379
1070
     1
1001
ACAD_DSTYLE_DIM_LINETYPE
1070
   380
1005
25
1001
ACAD_DSTYLE_DIM_EXT1_LINETYPE
1070
   381
1005
25
1001
ACAD_DSTYLE_DIM_EXT2_LINETYPE
1070
   382
1005
25
  0
DIMSTYLE
105
5095
330
30
100
AcDbSymbolTableRecord
100
AcDbDimStyleTableRecord
  2
AM_ANSI$3
 70
     0
  4
mm
 41
0.12
 42
0.05
 43
0.5
 44
0.1
 47
0.1
 48
0.1
 78
     7
 79
     2
140
0.12
141
0.0
146
0.71
147
0.06
176
   256
177
   256
178
     2
274
     4
284
     7
288
     1
289
     0
340
22
371
    -1
372
    -1
1001
ACAD_DSTYLE_DIMBREAK
1070
   391
1040
0.125
1001
ACAD_DSTYLE_DIMJAG
1070
   388
1040
1.5
1001
ACAD_DSTYLE_DIMARC_LENGTH_SYMBOL
1070
   379
1070
     1
1001
ACAD_DSTYLE_DIM_LINETYPE
1070
   380
1005
25
1001
ACAD_DSTYLE_DIM_EXT1_LINETYPE
1070
   381
1005
25
1001
ACAD_DSTYLE_DIM_EXT2_LINETYPE
1070
   382
1005
25
  0
DIMSTYLE
105
5096
330
30
100
AcDbSymbolTableRecord
100
AcDbDimStyleTableRecord
  2
AM_ANSI$4
 70
     0
  4
mm
 41
0.12
 42
0.05
 43
0.5
 44
0.1
 47
0.1
 48
0.1
 78
     7
 79
     2
140
0.12
141
0.0
146
0.71
147
0.06
176
   256
177
   256
178
     2
274
     4
284
     7
288
     1
289
     0
340
22
371
    -1
372
    -1
1001
ACAD_DSTYLE_DIMBREAK
1070
   391
1040
0.125
1001
ACAD_DSTYLE_DIMJAG
1070
   388
1040
1.5
1001
ACAD_DSTYLE_DIMARC_LENGTH_SYMBOL
1070
   379
1070
     1
1001
ACAD_DSTYLE_DIM_LINETYPE
1070
   380
1005
25
1001
ACAD_DSTYLE_DIM_EXT1_LINETYPE
1070
   381
1005
25
1001
ACAD_DSTYLE_DIM_EXT2_LINETYPE
1070
   382
1005
25
  0
DIMSTYLE
105
5097
330
30
100
AcDbSymbolTableRecord
100
AcDbDimStyleTableRecord
  2
AM_ANSI$7
 70
     0
  4
mm
 41
0.12
 42
0.05
 43
0.5
 44
0.1
 47
0.1
 48
0.1
 78
     7
 79
     2
140
0.12
141
0.0
146
0.71
147
0.06
176
   256
177
   256
178
     2
274
     4
284
     7
340
22
371
    -1
372
    -1
1001
ACAD_DSTYLE_DIMBREAK
1070
   391
1040
0.125
1001
ACAD_DSTYLE_DIMJAG
1070
   388
1040
1.5
1001
ACAD_DSTYLE_DIMARC_LENGTH_SYMBOL
1070
   379
1070
     1
1001
ACAD_DSTYLE_DIM_LINETYPE
1070
   380
1005
25
1001
ACAD_DSTYLE_DIM_EXT1_LINETYPE
1070
   381
1005
25
1001
ACAD_DSTYLE_DIM_EXT2_LINETYPE
1070
   382
1005
25
  0
DIMSTYLE
105
5098
330
30
100
AcDbSymbolTableRecord
100
AcDbDimStyleTableRecord
  2
AM_ANSI$SF
 70
     0
  4
mm
 41
0.12
 42
0.05
 43
0.5
 44
0.1
 47
0.1
 48
0.1
 75
     1
 76
     1
 78
     7
 79
     2
140
0.12
141
0.0
146
0.71
147
0.06
176
   256
177
   256
178
     2
274
     4
284
     7
340
22
371
    -1
372
    -1
1001
ACAD_DSTYLE_DIMBREAK
1070
   391
1040
0.125
1001
ACAD_DSTYLE_DIMJAG
1070
   388
1040
1.5
1001
ACAD_DSTYLE_DIMARC_LENGTH_SYMBOL
1070
   379
1070
     1
1001
ACAD_DSTYLE_DIM_LINETYPE
1070
   380
1005
25
1001
ACAD_DSTYLE_DIM_EXT1_LINETYPE
1070
   381
1005
25
1001
ACAD_DSTYLE_DIM_EXT2_LINETYPE
1070
   382
1005
25
  0
DIMSTYLE
105
509D
330
30
100
AcDbSymbolTableRecord
100
AcDbDimStyleTableRecord
  2
AM_ANSI$SH
 70
     0
  4
mm
 41
0.12
 42
0.05
 43
0.5
 44
0.1
 47
0.1
 48
0.1
 75
     1
 76
     1
 78
     7
 79
     2
140
0.12
141
0.0
146
0.71
147
0.06
173
     1
176
   256
177
   256
178
     2
274
     4
284
     7
340
22
343
5099
371
    -1
372
    -1
1001
ACAD_DSTYLE_DIMBREAK
1070
   391
1040
0.125
1001
ACAD_DSTYLE_DIMJAG
1070
   388
1040
1.5
1001
ACAD_DSTYLE_DIMARC_LENGTH_SYMBOL
1070
   379
1070
     1
1001
ACAD_DSTYLE_DIM_LINETYPE
1070
   380
1005
25
1001
ACAD_DSTYLE_DIM_EXT1_LINETYPE
1070
   381
1005
25
1001
ACAD_DSTYLE_DIM_EXT2_LINETYPE
1070
   382
1005
25
  0
DIMSTYLE
105
5131
102
{ACAD_REACTORS
330
51E3
330
51DF
102
}
330
30
100
AcDbSymbolTableRecord
100
AcDbDimStyleTableRecord
  2
ISO-25$0
 70
     0
 41
2.5
 42
0.625
 43
3.75
 44
1.25
 73
     0
 74
     0
 77
     1
 78
     8
140
3.0
141
2.5
143
0.0394
145
1.0
147
0.625
172
     1
176
     2
177
     2
178
     3
340
22
1001
ACAD_DSTYLE_DIMBREAK
1070
   391
1040
0.125
1001
ACAD_DSTYLE_DIMJAG
1070
   388
1040
1.5
1001
ACAD_DSTYLE_DIMTALN
1070
   392
1070
     0
  0
DIMSTYLE
105
5132
102
{ACAD_REACTORS
330
51DE
102
}
330
30
100
AcDbSymbolTableRecord
100
AcDbDimStyleTableRecord
  2
ISO-25$2
 70
     0
 41
2.5
 42
0.625
 43
3.75
 44
1.25
 74
     0
 77
     1
 78
     8
140
2.5
141
2.5
143
0.0394
145
1.0
147
0.625
172
     1
176
     2
177
     2
340
22
1001
ACAD_DSTYLE_DIMBREAK
1070
   391
1040
0.125
1001
ACAD_DSTYLE_DIMJAG
1070
   388
1040
1.5
  0
ENDTAB
  0
TABLE
  2
BLOCK_RECORD
  5
1
330
0
100
AcDbSymbolTable
 70
    39
  0
BLOCK_RECORD
  5
2
102
{ACAD_XDICTIONARY
360
3
102
}
330
1
100
AcDbSymbolTableRecord
100
AcDbBlockTableRecord
  2
*MODEL_SPACE
340
17
  0
BLOCK_RECORD
  5
1A
330
1
100
AcDbSymbolTableRecord
100
AcDbBlockTableRecord
  2
*PAPER_SPACE
340
1D
  0
BLOCK_RECORD
  5
4E53
330
1
100
AcDbSymbolTableRecord
100
AcDbBlockTableRecord
  2
*D0
340
0
  0
BLOCK_RECORD
  5
4E6A
330
1
100
AcDbSymbolTableRecord
100
AcDbBlockTableRecord
  2
*D1
340
0
  0
BLOCK_RECORD
  5
4F42
330
1
100
AcDbSymbolTableRecord
100
AcDbBlockTableRecord
  2
*D2
340
0
  0
BLOCK_RECORD
  5
4F9E
330
1
100
AcDbSymbolTableRecord
100
AcDbBlockTableRecord
  2
*D3
340
0
  0
BLOCK_RECORD
  5
5099
330
1
100
AcDbSymbolTableRecord
100
AcDbBlockTableRecord
  2
GENAXEH
340
0
  0
BLOCK_RECORD
  5
50A6
330
1
100
AcDbSymbolTableRecord
100
AcDbBlockTableRecord
  2
_ACMFILLEDHALF
340
0
  0
BLOCK_RECORD
  5
50BA
330
1
100
AcDbSymbolTableRecord
100
AcDbBlockTableRecord
  2
_ClosedBlank
340
0
  0
BLOCK_RECORD
  5
50C0
330
1
100
AcDbSymbolTableRecord
100
AcDbBlockTableRecord
  2
*D8
340
0
  0
BLOCK_RECORD
  5
50CE
330
1
100
AcDbSymbolTableRecord
100
AcDbBlockTableRecord
  2
*D9
340
0
  0
BLOCK_RECORD
  5
50D8
330
1
100
AcDbSymbolTableRecord
100
AcDbBlockTableRecord
  2
*D10
340
0
  0
BLOCK_RECORD
  5
50E2
330
1
100
AcDbSymbolTableRecord
100
AcDbBlockTableRecord
  2
*D11
340
0
  0
BLOCK_RECORD
  5
50EE
330
1
100
AcDbSymbolTableRecord
100
AcDbBlockTableRecord
  2
*D12
340
0
  0
BLOCK_RECORD
  5
50F7
330
1
100
AcDbSymbolTableRecord
100
AcDbBlockTableRecord
  2
*D13
340
0
  0
BLOCK_RECORD
  5
5105
330
1
100
AcDbSymbolTableRecord
100
AcDbBlockTableRecord
  2
*D14
340
0
  0
BLOCK_RECORD
  5
5113
330
1
100
AcDbSymbolTableRecord
100
AcDbBlockTableRecord
  2
*D15
340
0
  0
BLOCK_RECORD
  5
511F
102
{ACAD_XDICTIONARY
360
5120
102
}
330
1
100
AcDbSymbolTableRecord
100
AcDbBlockTableRecord
  2
A$C22495c43
340
0
102
{BLKREFS
102
}
1001
ACAD
1000
DesignCenter Data
1002
{
1070
     1
1070
     1
1002
}
  0
BLOCK_RECORD
  5
52E7
330
1
100
AcDbSymbolTableRecord
100
AcDbBlockTableRecord
  2
*D18
340
0
  0
BLOCK_RECORD
  5
52F1
330
1
100
AcDbSymbolTableRecord
100
AcDbBlockTableRecord
  2
*D19
340
0
  0
BLOCK_RECORD
  5
52FD
330
1
100
AcDbSymbolTableRecord
100
AcDbBlockTableRecord
  2
*D20
340
0
  0
BLOCK_RECORD
  5
5306
330
1
100
AcDbSymbolTableRecord
100
AcDbBlockTableRecord
  2
*D21
340
0
  0
BLOCK_RECORD
  5
5314
330
1
100
AcDbSymbolTableRecord
100
AcDbBlockTableRecord
  2
*D22
340
0
  0
BLOCK_RECORD
  5
5322
330
1
100
AcDbSymbolTableRecord
100
AcDbBlockTableRecord
  2
*D23
340
0
  0
BLOCK_RECORD
  5
532E
330
1
100
AcDbSymbolTableRecord
100
AcDbBlockTableRecord
  2
*D24
340
0
  0
BLOCK_RECORD
  5
533C
330
1
100
AcDbSymbolTableRecord
100
AcDbBlockTableRecord
  2
*D25
340
0
  0
BLOCK_RECORD
  5
538D
330
1
100
AcDbSymbolTableRecord
100
AcDbBlockTableRecord
  2
*D26
340
0
  0
BLOCK_RECORD
  5
5397
330
1
100
AcDbSymbolTableRecord
100
AcDbBlockTableRecord
  2
*D27
340
0
  0
BLOCK_RECORD
  5
53A1
330
1
100
AcDbSymbolTableRecord
100
AcDbBlockTableRecord
  2
*D28
340
0
  0
BLOCK_RECORD
  5
53AB
330
1
100
AcDbSymbolTableRecord
100
AcDbBlockTableRecord
  2
*D29
340
0
  0
BLOCK_RECORD
  5
558B
330
1
100
AcDbSymbolTableRecord
100
AcDbBlockTableRecord
  2
*D31
340
0
  0
BLOCK_RECORD
  5
5595
330
1
100
AcDbSymbolTableRecord
100
AcDbBlockTableRecord
  2
*D32
340
0
  0
BLOCK_RECORD
  5
559F
330
1
100
AcDbSymbolTableRecord
100
AcDbBlockTableRecord
  2
*D33
340
0
  0
BLOCK_RECORD
  5
55A9
330
1
100
AcDbSymbolTableRecord
100
AcDbBlockTableRecord
  2
*D34
340
0
  0
BLOCK_RECORD
  5
56A3
330
1
100
AcDbSymbolTableRecord
100
AcDbBlockTableRecord
  2
*D35
340
0
  0
BLOCK_RECORD
  5
56AF
330
1
100
AcDbSymbolTableRecord
100
AcDbBlockTableRecord
  2
*D36
340
0
  0
BLOCK_RECORD
  5
56BB
330
1
100
AcDbSymbolTableRecord
100
AcDbBlockTableRecord
  2
*D37
340
0
  0
BLOCK_RECORD
  5
56C7
330
1
100
AcDbSymbolTableRecord
100
AcDbBlockTableRecord
  2
*D38
340
0
  0
ENDTAB
  0
ENDSEC
  0
SECTION
  2
BLOCKS
  0
BLOCK
  5
5
330
2
100
AcDbEntity
  8
0
100
AcDbBlockBegin
  2
*MODEL_SPACE
 70
     0
 10
0.0
 20
0.0
 30
0.0
  3
*MODEL_SPACE
  1

  0
ENDBLK
  5
16
330
2
100
AcDbEntity
  8
0
100
AcDbBlockEnd
  0
BLOCK
  5
1B
330
1A
100
AcDbEntity
 67
     1
  8
0
100
AcDbBlockBegin
  2
*PAPER_SPACE
 70
     0
 10
0.0
 20
0.0
 30
0.0
  3
*PAPER_SPACE
  1

  0
ENDBLK
  5
1C
330
1A
100
AcDbEntity
 67
     1
  8
0
100
AcDbBlockEnd
  0
BLOCK
  5
4E54
330
4E53
100
AcDbEntity
  8
0
100
AcDbBlockBegin
  2
*D0
 70
     1
 10
0.0
 20
0.0
 30
0.0
  3
*D0
  1

  0
LINE
  5
4E60
330
4E53
100
AcDbEntity
  8
0
 62
     2
370
    -2
100
AcDbLine
 10
144.63423294908
 20
107.534916718526
 30
0.0
 11
144.63423294908
 21
75.03072116780515
 31
0.0
  0
LINE
  5
4E61
330
4E53
100
AcDbEntity
  8
0
 62
     2
370
    -2
100
AcDbLine
 10
264.6342329490799
 20
106.0278659109574
 30
0.0
 11
264.6342329490799
 21
75.03072116780515
 31
0.0
  0
LINE
  5
4E62
330
4E53
100
AcDbEntity
  8
0
 62
     2
370
    -2
100
AcDbLine
 10
147.13423294908
 20
76.03072116780515
 30
0.0
 11
262.1342329490799
 21
76.03072116780515
 31
0.0
  0
SOLID
  5
4E63
330
4E53
100
AcDbEntity
  8
0
 62
     2
100
AcDbTrace
 10
147.13423294908
 20
76.44738783447181
 30
0.0
 11
147.13423294908
 21
75.61405450113849
 31
0.0
 12
144.63423294908
 22
76.03072116780515
 32
0.0
 13
144.63423294908
 23
76.03072116780515
 33
0.0
  0
SOLID
  5
4E64
330
4E53
100
AcDbEntity
  8
0
 62
     2
100
AcDbTrace
 10
262.1342329490799
 20
76.44738783447181
 30
0.0
 11
262.1342329490799
 21
75.61405450113849
 31
0.0
 12
264.6342329490799
 22
76.03072116780515
 32
0.0
 13
264.6342329490799
 23
76.03072116780515
 33
0.0
  0
MTEXT
  5
4E65
330
4E53
100
AcDbEntity
  8
0
 62
     3
100
AcDbMText
 10
204.63423294908
 20
78.13101644339569
 30
0.0
 40
3.0
 41
0.0
 71
     5
 72
     1
  1
120
 73
     1
 44
1.0
1001
ACAD
1000
MTEXTBEGIN
1070
    73
1070
     1
1070
    44
1040
1.0
1070
    74
1070
     0
1000
MTEXTEND
  0
POINT
  5
4E66
330
4E53
100
AcDbEntity
  8
DEFPOINTS
 62
     0
100
AcDbPoint
 10
144.63423294908
 20
107.834916718526
 30
0.0
  0
POINT
  5
4E67
330
4E53
100
AcDbEntity
  8
DEFPOINTS
 62
     0
100
AcDbPoint
 10
264.6342329490799
 20
106.3278659109573
 30
0.0
  0
POINT
  5
4E68
330
4E53
100
AcDbEntity
  8
DEFPOINTS
 62
     0
100
AcDbPoint
 10
264.6342329490799
 20
76.03072116780515
 30
0.0
  0
ENDBLK
  5
4E55
330
4E53
100
AcDbEntity
  8
0
100
AcDbBlockEnd
  0
BLOCK
  5
4E6B
330
4E6A
100
AcDbEntity
  8
0
100
AcDbBlockBegin
  2
*D1
 70
     1
 10
0.0
 20
0.0
 30
0.0
  3
*D1
  1

  0
LINE
  5
4E76
330
4E6A
100
AcDbEntity
  8
0
 62
     2
370
    -2
100
AcDbLine
 10
260.0267556609682
 20
98.5599167185261
 30
0.0
 11
280.1743845270348
 21
98.5599167185261
 31
0.0
  0
LINE
  5
4E77
330
4E6A
100
AcDbEntity
  8
0
 62
     2
370
    -2
100
AcDbLine
 10
260.0267556609682
 20
161.559916718526
 30
0.0
 11
280.1743845270348
 21
161.559916718526
 31
0.0
  0
LINE
  5
4E78
330
4E6A
100
AcDbEntity
  8
0
 62
     2
370
    -2
100
AcDbLine
 10
279.1743845270348
 20
101.0599167185261
 30
0.0
 11
279.1743845270348
 21
159.059916718526
 31
0.0
  0
SOLID
  5
4E79
330
4E6A
100
AcDbEntity
  8
0
 62
     2
100
AcDbTrace
 10
278.7577178603681
 20
101.0599167185261
 30
0.0
 11
279.5910511937015
 21
101.0599167185261
 31
0.0
 12
279.1743845270348
 22
98.5599167185261
 32
0.0
 13
279.1743845270348
 23
98.5599167185261
 33
0.0
  0
SOLID
  5
4E7A
330
4E6A
100
AcDbEntity
  8
0
 62
     2
100
AcDbTrace
 10
278.7577178603681
 20
159.059916718526
 30
0.0
 11
279.5910511937015
 21
159.059916718526
 31
0.0
 12
279.1743845270348
 22
161.559916718526
 32
0.0
 13
279.1743845270348
 23
161.559916718526
 33
0.0
  0
MTEXT
  5
4E7B
330
4E6A
100
AcDbEntity
  8
0
 62
     3
100
AcDbMText
 10
277.0743845270347
 20
130.0599167185261
 30
0.0
 40
3.0
 41
0.0
 71
     5
 72
     1
  1
%%C63
 11
0.0000000000000001
 21
1.0
 31
0.0
 73
     1
 44
1.0
1001
ACAD
1000
MTEXTBEGIN
1070
    73
1070
     1
1070
    44
1040
1.0
1070
    74
1070
     0
1000
MTEXTEND
  0
POINT
  5
4E7C
330
4E6A
100
AcDbEntity
  8
DEFPOINTS
 62
     0
100
AcDbPoint
 10
259.7267556609681
 20
98.5599167185261
 30
0.0
  0
POINT
  5
4E7D
330
4E6A
100
AcDbEntity
  8
DEFPOINTS
 62
     0
100
AcDbPoint
 10
259.7267556609681
 20
161.559916718526
 30
0.0
  0
POINT
  5
4E7E
330
4E6A
100
AcDbEntity
  8
DEFPOINTS
 62
     0
100
AcDbPoint
 10
279.1743845270348
 20
161.559916718526
 30
0.0
  0
ENDBLK
  5
4E6C
330
4E6A
100
AcDbEntity
  8
0
100
AcDbBlockEnd
  0
BLOCK
  5
4F43
330
4F42
100
AcDbEntity
  8
0
100
AcDbBlockBegin
  2
*D2
 70
     1
 10
0.0
 20
0.0
 30
0.0
  3
*D2
  1

  0
LINE
  5
4F45
330
4F42
100
AcDbEntity
  8
0
 62
     2
370
    -2
100
AcDbLine
 10
144.63423294908
 20
107.5349167185259
 30
0.0
 11
144.63423294908
 21
75.09285408023448
 31
0.0
  0
LINE
  5
4F46
330
4F42
100
AcDbEntity
  8
0
 62
     2
370
    -2
100
AcDbLine
 10
76.23423294907991
 20
118.3528114224229
 30
0.0
 11
76.23423294907991
 21
75.09285408023448
 31
0.0
  0
LINE
  5
4F47
330
4F42
100
AcDbEntity
  8
0
 62
     2
370
    -2
100
AcDbLine
 10
142.13423294908
 20
76.09285408023447
 30
0.0
 11
78.73423294907991
 21
76.09285408023447
 31
0.0
  0
SOLID
  5
4F48
330
4F42
100
AcDbEntity
  8
0
 62
     2
100
AcDbTrace
 10
142.13423294908
 20
76.50952074690114
 30
0.0
 11
142.13423294908
 21
75.6761874135678
 31
0.0
 12
144.63423294908
 22
76.09285408023447
 32
0.0
 13
144.63423294908
 23
76.09285408023447
 33
0.0
  0
SOLID
  5
4F49
330
4F42
100
AcDbEntity
  8
0
 62
     2
100
AcDbTrace
 10
78.73423294907991
 20
76.50952074690114
 30
0.0
 11
78.73423294907991
 21
75.6761874135678
 31
0.0
 12
76.23423294907991
 22
76.09285408023447
 32
0.0
 13
76.23423294907991
 23
76.09285408023447
 33
0.0
  0
MTEXT
  5
4F4A
330
4F42
100
AcDbEntity
  8
0
 62
     3
100
AcDbMText
 10
110.4342329490799
 20
78.19285408023445
 30
0.0
 40
3.0
 41
0.0
 71
     5
 72
     1
  1
68.4
 73
     1
 44
1.0
1001
ACAD
1000
MTEXTBEGIN
1070
    73
1070
     1
1070
    44
1040
1.0
1070
    74
1070
     0
1000
MTEXTEND
  0
POINT
  5
4F4B
330
4F42
100
AcDbEntity
  8
DEFPOINTS
 62
     0
100
AcDbPoint
 10
144.63423294908
 20
107.8349167185259
 30
0.0
  0
POINT
  5
4F4C
330
4F42
100
AcDbEntity
  8
DEFPOINTS
 62
     0
100
AcDbPoint
 10
76.23423294907991
 20
118.6528114224229
 30
0.0
  0
POINT
  5
4F4D
330
4F42
100
AcDbEntity
  8
DEFPOINTS
 62
     0
100
AcDbPoint
 10
76.23423294907991
 20
76.09285408023447
 30
0.0
  0
ENDBLK
  5
4F44
330
4F42
100
AcDbEntity
  8
0
100
AcDbBlockEnd
  0
BLOCK
  5
4F9F
330
4F9E
100
AcDbEntity
  8
0
100
AcDbBlockBegin
  2
*D3
 70
     1
 10
0.0
 20
0.0
 30
0.0
  3
*D3
  1

  0
LINE
  5
4FA1
330
4F9E
100
AcDbEntity
  8
0
 62
     2
370
    -2
100
AcDbLine
 10
76.23423294907991
 20
118.3528114224229
 30
0.0
 11
76.23423294907991
 21
64.19297838873196
 31
0.0
  0
LINE
  5
4FA2
330
4F9E
100
AcDbEntity
  8
0
 62
     2
370
    -2
100
AcDbLine
 10
264.6342329490799
 20
106.0278659109573
 30
0.0
 11
264.6342329490799
 21
64.19297838873196
 31
0.0
  0
LINE
  5
4FA3
330
4F9E
100
AcDbEntity
  8
0
 62
     2
370
    -2
100
AcDbLine
 10
78.73423294907991
 20
65.19297838873194
 30
0.0
 11
262.1342329490799
 21
65.19297838873194
 31
0.0
  0
SOLID
  5
4FA4
330
4F9E
100
AcDbEntity
  8
0
 62
     2
100
AcDbTrace
 10
78.73423294907991
 20
65.6096450553986
 30
0.0
 11
78.73423294907991
 21
64.77631172206527
 31
0.0
 12
76.23423294907991
 22
65.19297838873194
 32
0.0
 13
76.23423294907991
 23
65.19297838873194
 33
0.0
  0
SOLID
  5
4FA5
330
4F9E
100
AcDbEntity
  8
0
 62
     2
100
AcDbTrace
 10
262.1342329490799
 20
65.6096450553986
 30
0.0
 11
262.1342329490799
 21
64.77631172206527
 31
0.0
 12
264.6342329490799
 22
65.19297838873194
 32
0.0
 13
264.6342329490799
 23
65.19297838873194
 33
0.0
  0
MTEXT
  5
4FA6
330
4F9E
100
AcDbEntity
  8
0
 62
     3
100
AcDbMText
 10
170.4342329490799
 20
67.29297838873192
 30
0.0
 40
3.0
 41
0.0
 71
     5
 72
     1
  1
188.4
 73
     1
 44
1.0
1001
ACAD
1000
MTEXTBEGIN
1070
    73
1070
     1
1070
    44
1040
1.0
1070
    74
1070
     0
1000
MTEXTEND
  0
POINT
  5
4FA7
330
4F9E
100
AcDbEntity
  8
DEFPOINTS
 62
     0
100
AcDbPoint
 10
76.23423294907991
 20
118.6528114224229
 30
0.0
  0
POINT
  5
4FA8
330
4F9E
100
AcDbEntity
  8
DEFPOINTS
 62
     0
100
AcDbPoint
 10
264.6342329490799
 20
106.3278659109573
 30
0.0
  0
POINT
  5
4FA9
330
4F9E
100
AcDbEntity
  8
DEFPOINTS
 62
     0
100
AcDbPoint
 10
264.6342329490799
 20
65.19297838873194
 30
0.0
  0
ENDBLK
  5
4FA0
330
4F9E
100
AcDbEntity
  8
0
100
AcDbBlockEnd
  0
BLOCK
  5
509B
330
5099
100
AcDbEntity
  8
0
100
AcDbBlockBegin
  2
GENAXEH
 70
     0
 10
0.0
 20
0.0
 30
0.0
  3
GENAXEH
  1

  0
LINE
  5
509A
330
5099
100
AcDbEntity
  8
0
100
AcDbLine
 10
-1.0
 20
0.0
 30
0.0
 11
1.0
 21
0.0
 31
0.0
  0
ENDBLK
  5
509C
330
5099
100
AcDbEntity
  8
0
100
AcDbBlockEnd
  0
BLOCK
  5
50A7
330
50A6
100
AcDbEntity
  8
0
100
AcDbBlockBegin
  2
_ACMFILLEDHALF
 70
     0
 10
0.0
 20
0.0
 30
0.0
  3
_ACMFILLEDHALF
  1

  0
TRACE
  5
50A9
330
50A6
100
AcDbEntity
  8
0
 62
     0
100
AcDbTrace
 10
-0.8
 20
0.0
 30
0.0
 11
-1.0
 21
0.166666666
 31
0.0
 12
0.0
 22
0.0
 32
0.0
 13
0.0
 23
0.0
 33
0.0
  0
LINE
  5
50AA
330
50A6
100
AcDbEntity
  8
0
 62
     0
100
AcDbLine
 10
-1.0
 20
0.0
 30
0.0
 11
-0.8
 21
0.0
 31
0.0
  0
ENDBLK
  5
50A8
330
50A6
100
AcDbEntity
  8
0
100
AcDbBlockEnd
  0
BLOCK
  5
50BB
330
50BA
100
AcDbEntity
  8
0
100
AcDbBlockBegin
  2
_ClosedBlank
 70
     0
 10
0.0
 20
0.0
 30
0.0
  3
_ClosedBlank
  1

  0
LINE
  5
50BC
330
50BA
100
AcDbEntity
  8
0
  6
ByBlock
 62
     0
370
    -2
100
AcDbLine
 10
-1.0
 20
0.1666666666666666
 30
0.0
 11
0.0
 21
0.0
 31
0.0
  0
LINE
  5
50BD
330
50BA
100
AcDbEntity
  8
0
  6
ByBlock
 62
     0
370
    -2
100
AcDbLine
 10
0.0
 20
0.0
 30
0.0
 11
-1.0
 21
-0.1666666666666666
 31
0.0
  0
LINE
  5
50BE
330
50BA
100
AcDbEntity
  8
0
  6
ByBlock
 62
     0
370
    -2
100
AcDbLine
 10
-1.0
 20
0.1666666666666666
 30
0.0
 11
-1.0
 21
-0.1666666666666666
 31
0.0
  0
ENDBLK
  5
50BF
330
50BA
100
AcDbEntity
  8
0
100
AcDbBlockEnd
  0
BLOCK
  5
50C1
330
50C0
100
AcDbEntity
  8
0
100
AcDbBlockBegin
  2
*D8
 70
     1
 10
0.0
 20
0.0
 30
0.0
  3
*D8
  1

  0
LINE
  5
50C2
330
50C0
100
AcDbEntity
  8
0
  6
Continuous
 62
     2
370
    -2
100
AcDbLine
 10
47.74000320676321
 20
111.2391418999032
 30
0.0
 11
47.74000320676321
 21
126.6546427121685
 31
0.0
  0
LINE
  5
50C3
330
50C0
100
AcDbEntity
  8
0
  6
Continuous
 62
     2
370
    -2
100
AcDbLine
 10
42.94000320676326
 20
114.063736643293
 30
0.0
 11
42.94000320676326
 21
126.6546427121685
 31
0.0
  0
LINE
  5
50C4
330
50C0
100
AcDbEntity
  8
0
  6
Continuous
 62
     2
370
    -2
100
AcDbLine
 10
50.24000320676321
 20
125.6546427121685
 30
0.0
 11
52.74000320676321
 21
125.6546427121685
 31
0.0
  0
LINE
  5
50C5
330
50C0
100
AcDbEntity
  8
0
  6
Continuous
 62
     2
370
    -2
100
AcDbLine
 10
40.44000320676326
 20
125.6546427121685
 30
0.0
 11
27.25387919101524
 21
125.6546427121685
 31
0.0
  0
LINE
  5
50C6
330
50C0
100
AcDbEntity
  8
0
  6
Continuous
 62
     2
370
    -2
100
AcDbLine
 10
47.74000320676321
 20
125.6546427121685
 30
0.0
 11
42.94000320676326
 21
125.6546427121685
 31
0.0
  0
SOLID
  5
50C7
330
50C0
100
AcDbEntity
  8
0
  6
Continuous
 62
     2
100
AcDbTrace
 10
50.24000320676321
 20
126.0713093788352
 30
0.0
 11
50.24000320676321
 21
125.2379760455018
 31
0.0
 12
47.74000320676321
 22
125.6546427121685
 32
0.0
 13
47.74000320676321
 23
125.6546427121685
 33
0.0
  0
SOLID
  5
50C8
330
50C0
100
AcDbEntity
  8
0
  6
Continuous
 62
     2
100
AcDbTrace
 10
40.44000320676326
 20
126.0713093788352
 30
0.0
 11
40.44000320676326
 21
125.2379760455018
 31
0.0
 12
42.94000320676326
 22
125.6546427121685
 32
0.0
 13
42.94000320676326
 23
125.6546427121685
 33
0.0
  0
MTEXT
  5
50C9
330
50C0
100
AcDbEntity
  8
0
  6
Continuous
 62
     3
100
AcDbMText
 10
32.59694119888925
 20
128.5485895625622
 30
0.0
 40
3.0
 41
0.0
 71
     5
 72
     1
  1
4.8{\H2.100000;\S+0^ -0.2;}
 73
     1
 44
1.0
1001
ACAD
1000
MTEXTBEGIN
1070
    73
1070
     1
1070
    44
1040
1.0
1070
    74
1070
     0
1000
MTEXTEND
  0
POINT
  5
50CA
330
50C0
100
AcDbEntity
  8
DEFPOINTS
  6
Continuous
 62
     0
100
AcDbPoint
 10
47.74000320676321
 20
110.6391418999032
 30
0.0
  0
POINT
  5
50CB
330
50C0
100
AcDbEntity
  8
DEFPOINTS
  6
Continuous
 62
     0
100
AcDbPoint
 10
42.94000320676326
 20
113.463736643293
 30
0.0
  0
POINT
  5
50CC
330
50C0
100
AcDbEntity
  8
DEFPOINTS
  6
Continuous
 62
     0
100
AcDbPoint
 10
42.94000320676326
 20
125.6546427121685
 30
0.0
  0
ENDBLK
  5
50CD
330
50C0
100
AcDbEntity
  8
0
100
AcDbBlockEnd
  0
BLOCK
  5
50CF
330
50CE
100
AcDbEntity
  8
0
100
AcDbBlockBegin
  2
*D9
 70
     1
 10
0.0
 20
0.0
 30
0.0
  3
*D9
  1

  0
LINE
  5
50D0
330
50CE
100
AcDbEntity
  8
0
  6
Continuous
 62
     2
370
    -2
100
AcDbLine
 10
44.07205401433215
 20
110.639141899903
 30
0.0
 11
30.29457226724238
 21
110.639141899903
 31
0.0
  0
LINE
  5
50D1
330
50CE
100
AcDbEntity
  8
0
  6
Continuous
 62
     2
370
    -2
100
AcDbLine
 10
31.29457226724238
 20
108.139141899903
 30
0.0
 11
31.29457226724237
 21
94.20286032832658
 31
0.0
  0
SOLID
  5
50D2
330
50CE
100
AcDbEntity
  8
0
  6
Continuous
 62
     2
100
AcDbTrace
 10
30.87790560057571
 20
108.139141899903
 30
0.0
 11
31.71123893390904
 21
108.139141899903
 31
0.0
 12
31.29457226724238
 22
110.639141899903
 32
0.0
 13
31.29457226724238
 23
110.639141899903
 33
0.0
  0
MTEXT
  5
50D3
330
50CE
100
AcDbEntity
  8
0
  6
Continuous
 62
     3
100
AcDbMText
 10
28.40983968571287
 20
101.4763527523757
 30
0.0
 40
3.0
 41
0.0
 71
     5
 72
     1
  1
%%C16.3{\H2.100000;\S+0.3^ -0;}
 11
0.0000000000000001
 21
1.0
 31
0.0
 73
     1
 44
1.0
1001
ACAD
1000
MTEXTBEGIN
1070
    73
1070
     1
1070
    44
1040
1.0
1070
    74
1070
     0
1000
MTEXTEND
  0
POINT
  5
50D4
330
50CE
100
AcDbEntity
  8
DEFPOINTS
  6
Continuous
 62
     0
100
AcDbPoint
 10
32.36937623584044
 20
94.33914189990307
 30
0.0
  0
POINT
  5
50D5
330
50CE
100
AcDbEntity
  8
DEFPOINTS
  6
Continuous
 62
     0
100
AcDbPoint
 10
44.67205401433216
 20
110.639141899903
 30
0.0
  0
POINT
  5
50D6
330
50CE
100
AcDbEntity
  8
DEFPOINTS
  6
Continuous
 62
     0
100
AcDbPoint
 10
31.29457226724238
 20
110.639141899903
 30
0.0
  0
ENDBLK
  5
50D7
330
50CE
100
AcDbEntity
  8
0
100
AcDbBlockEnd
  0
BLOCK
  5
50D9
330
50D8
100
AcDbEntity
  8
0
100
AcDbBlockBegin
  2
*D10
 70
     1
 10
0.0
 20
0.0
 30
0.0
  3
*D10
  1

  0
LINE
  5
50DA
330
50D8
100
AcDbEntity
  8
0
  6
Continuous
 62
     2
370
    -2
100
AcDbLine
 10
105.5235705428648
 20
109.239141899903
 30
0.0
 11
82.36158857732252
 21
109.239141899903
 31
0.0
  0
LINE
  5
50DB
330
50D8
100
AcDbEntity
  8
0
  6
Continuous
 62
     2
370
    -2
100
AcDbLine
 10
83.36158857732252
 20
106.739141899903
 30
0.0
 11
83.36158857732252
 21
97.6270098655471
 31
0.0
  0
SOLID
  5
50DC
330
50D8
100
AcDbEntity
  8
0
  6
Continuous
 62
     2
100
AcDbTrace
 10
82.94492191065584
 20
106.739141899903
 30
0.0
 11
83.7782552439892
 21
106.739141899903
 31
0.0
 12
83.36158857732252
 22
109.239141899903
 32
0.0
 13
83.36158857732252
 23
109.239141899903
 33
0.0
  0
MTEXT
  5
50DD
330
50D8
100
AcDbEntity
  8
0
  6
Continuous
 62
     3
100
AcDbMText
 10
81.26158857732249
 20
102.4891418999031
 30
0.0
 40
3.0
 41
0.0
 71
     5
 72
     1
  1
%%C13.5
 11
0.0000000000000001
 21
1.0
 31
0.0
 73
     1
 44
1.0
1001
ACAD
1000
MTEXTBEGIN
1070
    73
1070
     1
1070
    44
1040
1.0
1070
    74
1070
     0
1000
MTEXTEND
  0
POINT
  5
50DE
330
50D8
100
AcDbEntity
  8
DEFPOINTS
  6
Continuous
 62
     0
100
AcDbPoint
 10
104.8541558591841
 20
95.73914189990302
 30
0.0
  0
POINT
  5
50DF
330
50D8
100
AcDbEntity
  8
DEFPOINTS
  6
Continuous
 62
     0
100
AcDbPoint
 10
106.1235705428648
 20
109.239141899903
 30
0.0
  0
POINT
  5
50E0
330
50D8
100
AcDbEntity
  8
DEFPOINTS
  6
Continuous
 62
     0
100
AcDbPoint
 10
83.36158857732252
 20
109.239141899903
 30
0.0
  0
ENDBLK
  5
50E1
330
50D8
100
AcDbEntity
  8
0
100
AcDbBlockEnd
  0
BLOCK
  5
50E3
330
50E2
100
AcDbEntity
  8
0
100
AcDbBlockBegin
  2
*D11
 70
     1
 10
0.0
 20
0.0
 30
0.0
  3
*D11
  1

  0
LINE
  5
50E4
330
50E2
100
AcDbEntity
  8
0
  6
Continuous
 62
     2
370
    -2
100
AcDbLine
 10
110.5900032067632
 20
124.714141899903
 30
0.0
 11
103.8322747290243
 21
124.714141899903
 31
0.0
  0
LINE
  5
50E5
330
50E2
100
AcDbEntity
  8
0
  6
Continuous
 62
     2
370
    -2
100
AcDbLine
 10
110.5900032067632
 20
80.26414189990308
 30
0.0
 11
103.8322747290243
 21
80.26414189990308
 31
0.0
  0
LINE
  5
50E6
330
50E2
100
AcDbEntity
  8
0
  6
Continuous
 62
     2
370
    -2
100
AcDbLine
 10
104.8322747290243
 20
122.214141899903
 30
0.0
 11
104.8322747290243
 21
82.76414189990308
 31
0.0
  0
SOLID
  5
50E7
330
50E2
100
AcDbEntity
  8
0
  6
Continuous
 62
     2
100
AcDbTrace
 10
104.4156080623576
 20
122.214141899903
 30
0.0
 11
105.248941395691
 21
122.214141899903
 31
0.0
 12
104.8322747290243
 22
124.714141899903
 32
0.0
 13
104.8322747290243
 23
124.714141899903
 33
0.0
  0
SOLID
  5
50E8
330
50E2
100
AcDbEntity
  8
0
  6
Continuous
 62
     2
100
AcDbTrace
 10
104.4156080623576
 20
82.76414189990308
 30
0.0
 11
105.2489413956909
 21
82.76414189990308
 31
0.0
 12
104.8322747290243
 22
80.26414189990308
 32
0.0
 13
104.8322747290243
 23
80.26414189990308
 33
0.0
  0
MTEXT
  5
50E9
330
50E2
100
AcDbEntity
  8
0
  6
Continuous
 62
     3
100
AcDbMText
 10
102.7322747290243
 20
94.16222741204775
 30
0.0
 40
3.0
 41
0.0
 71
     5
 72
     1
  1
%%C44.45
 11
0.0000000000000001
 21
1.0
 31
0.0
 73
     1
 44
1.0
1001
ACAD
1000
MTEXTBEGIN
1070
    73
1070
     1
1070
    44
1040
1.0
1070
    74
1070
     0
1000
MTEXTEND
  0
POINT
  5
50EA
330
50E2
100
AcDbEntity
  8
DEFPOINTS
  6
Continuous
 62
     0
100
AcDbPoint
 10
111.1900032067632
 20
124.714141899903
 30
0.0
  0
POINT
  5
50EB
330
50E2
100
AcDbEntity
  8
DEFPOINTS
  6
Continuous
 62
     0
100
AcDbPoint
 10
111.1900032067632
 20
80.26414189990308
 30
0.0
  0
POINT
  5
50EC
330
50E2
100
AcDbEntity
  8
DEFPOINTS
  6
Continuous
 62
     0
100
AcDbPoint
 10
104.8322747290243
 20
80.26414189990308
 30
0.0
  0
ENDBLK
  5
50ED
330
50E2
100
AcDbEntity
  8
0
100
AcDbBlockEnd
  0
BLOCK
  5
50EF
330
50EE
100
AcDbEntity
  8
0
100
AcDbBlockBegin
  2
*D12
 70
     1
 10
0.0
 20
0.0
 30
0.0
  3
*D12
  1

  0
LINE
  5
50F0
330
50EE
100
AcDbEntity
  8
0
  6
ByBlock
 62
     2
370
    -2
100
AcDbLine
 10
41.04914788183205
 20
89.10895326535438
 30
0.0
 11
29.81611004781347
 21
81.44221595281349
 31
0.0
  0
LINE
  5
50F1
330
50EE
100
AcDbEntity
  8
0
  6
ByBlock
 62
     2
370
    -2
100
AcDbLine
 10
43.94000320676332
 20
91.08201066196418
 30
0.0
 11
43.11404454249724
 21
90.51827997721852
 31
0.0
  0
SOLID
  5
50F2
330
50EE
100
AcDbEntity
  8
0
  6
Continuous
 62
     2
100
AcDbTrace
 10
40.81426009652136
 20
89.45310270879858
 30
0.0
 11
41.28403566714275
 21
88.76480382191019
 31
0.0
 12
43.11404454249724
 22
90.51827997721852
 32
0.0
 13
43.11404454249724
 23
90.51827997721852
 33
0.0
  0
MTEXT
  5
50F3
330
50EE
100
AcDbEntity
  8
0
  6
Continuous
 62
     3
100
AcDbMText
 10
33.2163461965243
 20
86.30543444811062
 30
0.0
 40
3.0
 41
0.0
 71
     5
 72
     1
  1
R1max
 11
0.8259586642660735
 21
0.5637306847456537
 31
0.0
 73
     1
 44
1.0
1001
ACAD
1000
MTEXTBEGIN
1070
    73
1070
     1
1070
    44
1040
1.0
1070
    74
1070
     0
1000
MTEXTEND
  0
POINT
  5
50F4
330
50EE
100
AcDbEntity
  8
DEFPOINTS
  6
Continuous
 62
     0
100
AcDbPoint
 10
43.11404454249724
 20
90.51827997721852
 30
0.0
  0
POINT
  5
50F5
330
50EE
100
AcDbEntity
  8
DEFPOINTS
  6
Continuous
 62
     0
100
AcDbPoint
 10
43.94000320676332
 20
91.08201066196418
 30
0.0
  0
ENDBLK
  5
50F6
330
50EE
100
AcDbEntity
  8
0
100
AcDbBlockEnd
  0
BLOCK
  5
50F8
330
50F7
100
AcDbEntity
  8
0
100
AcDbBlockBegin
  2
*D13
 70
     1
 10
0.0
 20
0.0
 30
0.0
  3
*D13
  1

  0
LINE
  5
50F9
330
50F7
100
AcDbEntity
  8
0
  6
ByBlock
 62
     2
370
    -2
100
AcDbLine
 10
42.4203879644926
 20
111.939141899903
 30
0.0
 11
38.20303794995333
 21
114.374030066064
 31
0.0
  0
LINE
  5
50FA
330
50F7
100
AcDbEntity
  8
0
  6
ByBlock
 62
     2
370
    -2
100
AcDbLine
 10
40.34000320676327
 20
102.489141899903
 30
0.0
 11
35.01849176369645
 21
102.489141899903
 31
0.0
  0
ARC
  5
50FB
330
50F7
100
AcDbEntity
  8
0
  6
ByBlock
 62
     2
370
    -2
100
AcDbCircle
 10
58.78826809601938
 20
102.489141899903
 30
0.0
 40
22.76977633232294
100
AcDbArc
 50
156.2939350671604
 51
173.706064932841
  0
SOLID
  5
50FC
330
50F7
100
AcDbEntity
  8
0
  6
Continuous
 62
     2
100
AcDbTrace
 10
37.56806784969278
 20
111.831819595043
 30
0.0
 11
38.31154127294526
 21
111.4553999975701
 31
0.0
 12
39.06906335373778
 22
113.874030066064
 32
0.0
 13
39.06906335373778
 23
113.874030066064
 33
0.0
  0
SOLID
  5
50FD
330
50F7
100
AcDbEntity
  8
0
  6
Continuous
 62
     2
100
AcDbTrace
 10
36.57177343204937
 20
104.9624980219719
 30
0.0
 11
35.73969676173768
 21
105.0082457997043
 31
0.0
 12
36.01849176369644
 22
102.489141899903
 32
0.0
 13
36.01849176369644
 23
102.489141899903
 33
0.0
  0
MTEXT
  5
50FE
330
50F7
100
AcDbEntity
  8
0
  6
Continuous
 62
     3
100
AcDbMText
 10
34.76590884259598
 20
108.9259136621479
 30
0.0
 40
3.0
 41
0.0
 71
     5
 72
     1
  1
30°
 11
0.2588190451025132
 21
0.9659258262890702
 31
0.0
 73
     1
 44
1.0
1001
ACAD
1000
MTEXTBEGIN
1070
    73
1070
     1
1070
    44
1040
1.0
1070
    74
1070
     0
1000
MTEXTEND
  0
POINT
  5
50FF
330
50F7
100
AcDbEntity
  8
DEFPOINTS
  6
Continuous
 62
     0
100
AcDbPoint
 10
37.39167729958977
 20
110.2768640645772
 30
0.0
  0
POINT
  5
5100
330
50F7
100
AcDbEntity
  8
DEFPOINTS
  6
Continuous
 62
     0
100
AcDbPoint
 10
40.94000320676327
 20
102.489141899903
 30
0.0
  0
POINT
  5
5101
330
50F7
100
AcDbEntity
  8
DEFPOINTS
  6
Continuous
 62
     0
100
AcDbPoint
 10
42.94000320676327
 20
111.639141899903
 30
0.0
  0
POINT
  5
5102
330
50F7
100
AcDbEntity
  8
DEFPOINTS
  6
Continuous
 62
     0
100
AcDbPoint
 10
44.67205401433223
 20
110.639141899903
 30
0.0
  0
POINT
  5
5103
330
50F7
100
AcDbEntity
  8
DEFPOINTS
  6
Continuous
 62
     0
100
AcDbPoint
 10
147.4892226261461
 20
102.4891418999031
 30
0.0
  0
ENDBLK
  5
5104
330
50F7
100
AcDbEntity
  8
0
100
AcDbBlockEnd
  0
BLOCK
  5
5106
330
5105
100
AcDbEntity
  8
0
100
AcDbBlockBegin
  2
*D14
 70
     1
 10
0.0
 20
0.0
 30
0.0
  3
*D14
  1

  0
LINE
  5
5107
330
5105
100
AcDbEntity
  8
0
  6
ByBlock
 62
     2
370
    -2
100
AcDbLine
 10
120.3975032067632
 20
72.9249880662278
 30
0.0
 11
120.3975032067632
 21
58.86174078664499
 31
0.0
  0
LINE
  5
5108
330
5105
100
AcDbEntity
  8
0
  6
ByBlock
 62
     2
370
    -2
100
AcDbLine
 10
124.2329032067633
 20
72.92498806622777
 30
0.0
 11
124.2329032067633
 21
58.86174078664499
 31
0.0
  0
LINE
  5
5109
330
5105
100
AcDbEntity
  8
0
  6
ByBlock
 62
     2
370
    -2
100
AcDbLine
 10
117.8975032067632
 20
59.86174078664499
 30
0.0
 11
115.3975032067632
 21
59.86174078664499
 31
0.0
  0
LINE
  5
510A
330
5105
100
AcDbEntity
  8
0
  6
ByBlock
 62
     2
370
    -2
100
AcDbLine
 10
126.7329032067633
 20
59.86174078664499
 30
0.0
 11
145.6130803721177
 21
59.86174078664499
 31
0.0
  0
LINE
  5
510B
330
5105
100
AcDbEntity
  8
0
  6
ByBlock
 62
     2
370
    -2
100
AcDbLine
 10
120.3975032067632
 20
59.86174078664499
 30
0.0
 11
124.2329032067633
 21
59.86174078664499
 31
0.0
  0
SOLID
  5
510C
330
5105
100
AcDbEntity
  8
0
  6
Continuous
 62
     2
100
AcDbTrace
 10
117.8975032067632
 20
60.27840745331165
 30
0.0
 11
117.8975032067632
 21
59.44507411997832
 31
0.0
 12
120.3975032067632
 22
59.86174078664499
 32
0.0
 13
120.3975032067632
 23
59.86174078664499
 33
0.0
  0
SOLID
  5
510D
330
5105
100
AcDbEntity
  8
0
  6
Continuous
 62
     2
100
AcDbTrace
 10
126.7329032067633
 20
60.27840745331165
 30
0.0
 11
126.7329032067633
 21
59.44507411997832
 31
0.0
 12
124.2329032067633
 22
59.86174078664499
 32
0.0
 13
124.2329032067633
 23
59.86174078664499
 33
0.0
  0
MTEXT
  5
510E
330
5105
100
AcDbEntity
  8
0
  6
Continuous
 62
     3
100
AcDbMText
 10
137.4229917894405
 20
61.96203606223554
 30
0.0
 40
3.0
 41
0.0
 71
     5
 72
     1
  1
3.83%%P0.12
 73
     1
 44
1.0
1001
ACAD
1000
MTEXTBEGIN
1070
    73
1070
     1
1070
    44
1040
1.0
1070
    74
1070
     0
1000
MTEXTEND
  0
POINT
  5
510F
330
5105
100
AcDbEntity
  8
DEFPOINTS
  6
Continuous
 62
     0
100
AcDbPoint
 10
120.3975032067632
 20
73.52498806622779
 30
0.0
  0
POINT
  5
5110
330
5105
100
AcDbEntity
  8
DEFPOINTS
  6
Continuous
 62
     0
100
AcDbPoint
 10
124.2329032067633
 20
73.52498806622776
 30
0.0
  0
POINT
  5
5111
330
5105
100
AcDbEntity
  8
DEFPOINTS
  6
Continuous
 62
     0
100
AcDbPoint
 10
124.2329032067633
 20
59.86174078664499
 30
0.0
  0
ENDBLK
  5
5112
330
5105
100
AcDbEntity
  8
0
100
AcDbBlockEnd
  0
BLOCK
  5
5114
330
5113
100
AcDbEntity
  8
0
100
AcDbBlockBegin
  2
*D15
 70
     1
 10
0.0
 20
0.0
 30
0.0
  3
*D15
  1

  0
LINE
  5
5115
330
5113
100
AcDbEntity
  8
0
  6
ByBlock
 62
     2
370
    -2
100
AcDbLine
 10
114.2650032067633
 20
70.73914189990301
 30
0.0
 11
95.83227472902429
 21
70.73914189990303
 31
0.0
  0
LINE
  5
5116
330
5113
100
AcDbEntity
  8
0
  6
ByBlock
 62
     2
370
    -2
100
AcDbLine
 10
114.2650032067633
 20
134.239141899903
 30
0.0
 11
95.8322747290243
 21
134.239141899903
 31
0.0
  0
LINE
  5
5117
330
5113
100
AcDbEntity
  8
0
  6
ByBlock
 62
     2
370
    -2
100
AcDbLine
 10
96.8322747290243
 20
73.23914189990301
 30
0.0
 11
96.8322747290243
 21
131.739141899903
 31
0.0
  0
SOLID
  5
5118
330
5113
100
AcDbEntity
  8
0
  6
Continuous
 62
     2
100
AcDbTrace
 10
96.41560806235762
 20
73.23914189990301
 30
0.0
 11
97.24894139569096
 21
73.23914189990301
 31
0.0
 12
96.8322747290243
 22
70.73914189990301
 32
0.0
 13
96.8322747290243
 23
70.73914189990301
 33
0.0
  0
SOLID
  5
5119
330
5113
100
AcDbEntity
  8
0
  6
Continuous
 62
     2
100
AcDbTrace
 10
96.41560806235764
 20
131.739141899903
 30
0.0
 11
97.24894139569098
 21
131.739141899903
 31
0.0
 12
96.8322747290243
 22
134.239141899903
 32
0.0
 13
96.8322747290243
 23
134.239141899903
 33
0.0
  0
MTEXT
  5
511A
330
5113
100
AcDbEntity
  8
0
  6
Continuous
 62
     3
100
AcDbMText
 10
93.89545553332157
 20
93.57492086598302
 30
0.0
 40
3.0
 41
0.0
 71
     5
 72
     1
  1
%%C63.5{\H0.7x;\S 0^ -0.05;}
 11
0.0000000000000001
 21
1.0
 31
0.0
 73
     1
 44
1.0
1001
ACAD
1000
MTEXTBEGIN
1070
    73
1070
     1
1070
    44
1040
1.0
1070
    74
1070
     0
1000
MTEXTEND
  0
POINT
  5
511B
330
5113
100
AcDbEntity
  8
DEFPOINTS
  6
Continuous
 62
     0
100
AcDbPoint
 10
114.8650032067632
 20
70.73914189990301
 30
0.0
  0
POINT
  5
511C
330
5113
100
AcDbEntity
  8
DEFPOINTS
  6
Continuous
 62
     0
100
AcDbPoint
 10
114.8650032067632
 20
134.239141899903
 30
0.0
  0
POINT
  5
511D
330
5113
100
AcDbEntity
  8
DEFPOINTS
  6
Continuous
 62
     0
100
AcDbPoint
 10
96.8322747290243
 20
134.239141899903
 30
0.0
  0
ENDBLK
  5
511E
330
5113
100
AcDbEntity
  8
0
100
AcDbBlockEnd
  0
BLOCK
  5
5122
330
511F
100
AcDbEntity
  8
0
100
AcDbBlockBegin
  2
A$C22495c43
 70
     0
 10
0.0
 20
0.0
 30
0.0
  3
A$C22495c43
  1

  0
LINE
  5
5123
330
511F
100
AcDbEntity
  8
SSK-가는실선
 62
     3
100
AcDbLine
 10
5.099481935996209
 20
0.2788016944135165
 30
0.0
 11
-0.0000000649019967
 21
0.2788016944135165
 31
0.0
  0
TEXT
  5
5124
330
511F
100
AcDbEntity
  8
SSK-문자
100
AcDbText
 10
1.316478053870014
 20
0.6428468749585932
 30
0.0
 40
3.2
  1
4
  7
SSK-치수
100
AcDbText
  0
LINE
  5
5125
330
511F
100
AcDbEntity
  8
SSK-가는실선
 62
     3
100
AcDbLine
 10
-0.0000000649019967
 20
0.2788016944135165
 30
0.0
 11
2.549740935547106
 21
5.646479595488528
 31
0.0
  0
LINE
  5
5126
330
511F
100
AcDbEntity
  8
SSK-가는실선
 62
     3
100
AcDbLine
 10
2.549740935547106
 20
5.646479595488528
 30
0.0
 11
5.099481935996209
 21
0.2788016944135165
 31
0.0
  0
ENDBLK
  5
5127
330
511F
100
AcDbEntity
  8
0
100
AcDbBlockEnd
  0
BLOCK
  5
52E8
330
52E7
100
AcDbEntity
  8
0
100
AcDbBlockBegin
  2
*D18
 70
     1
 10
0.0
 20
0.0
 30
0.0
  3
*D18
  1

  0
LINE
  5
5346
330
52E7
100
AcDbEntity
  8
0
  6
Continuous
 62
     2
370
    -2
100
AcDbLine
 10
144.4467804992952
 20
-107.7283575915956
 30
0.0
 11
121.2847985337529
 21
-107.7283575915956
 31
0.0
  0
LINE
  5
5347
330
52E7
100
AcDbEntity
  8
0
  6
Continuous
 62
     2
370
    -2
100
AcDbLine
 10
122.2847985337529
 20
-110.2283575915956
 30
0.0
 11
122.2847985337529
 21
-119.3404896259515
 31
0.0
  0
SOLID
  5
5348
330
52E7
100
AcDbEntity
  8
0
  6
Continuous
 62
     2
100
AcDbTrace
 10
121.8681318670862
 20
-110.2283575915956
 30
0.0
 11
122.7014652004196
 21
-110.2283575915956
 31
0.0
 12
122.2847985337529
 22
-107.7283575915956
 32
0.0
 13
122.2847985337529
 23
-107.7283575915956
 33
0.0
  0
MTEXT
  5
5349
330
52E7
100
AcDbEntity
  8
0
  6
Continuous
 62
     3
100
AcDbMText
 10
120.1847985337528
 20
-114.4783575915955
 30
0.0
 40
3.0
 41
0.0
 71
     5
 72
     1
  1
%%C13.5
 11
0.0000000000000001
 21
1.0
 31
0.0
 73
     1
 44
1.0
1001
ACAD
1000
MTEXTBEGIN
1070
    73
1070
     1
1070
    44
1040
1.0
1070
    74
1070
     0
1000
MTEXTEND
  0
POINT
  5
534A
330
52E7
100
AcDbEntity
  8
DEFPOINTS
  6
Continuous
 62
     0
100
AcDbPoint
 10
143.7773658156145
 20
-121.2283575915957
 30
0.0
  0
POINT
  5
534B
330
52E7
100
AcDbEntity
  8
DEFPOINTS
  6
Continuous
 62
     0
100
AcDbPoint
 10
145.0467804992952
 20
-107.7283575915956
 30
0.0
  0
POINT
  5
534C
330
52E7
100
AcDbEntity
  8
DEFPOINTS
  6
Continuous
 62
     0
100
AcDbPoint
 10
122.2847985337529
 20
-107.7283575915956
 30
0.0
  0
ENDBLK
  5
52E9
330
52E7
100
AcDbEntity
  8
0
100
AcDbBlockEnd
  0
BLOCK
  5
52F2
330
52F1
100
AcDbEntity
  8
0
100
AcDbBlockBegin
  2
*D19
 70
     1
 10
0.0
 20
0.0
 30
0.0
  3
*D19
  1

  0
LINE
  5
534D
330
52F1
100
AcDbEntity
  8
0
  6
Continuous
 62
     2
370
    -2
100
AcDbLine
 10
149.5132131631937
 20
-92.25335759159566
 30
0.0
 11
142.7554846854547
 21
-92.25335759159566
 31
0.0
  0
LINE
  5
534E
330
52F1
100
AcDbEntity
  8
0
  6
Continuous
 62
     2
370
    -2
100
AcDbLine
 10
149.5132131631937
 20
-136.7033575915956
 30
0.0
 11
142.7554846854547
 21
-136.7033575915956
 31
0.0
  0
LINE
  5
534F
330
52F1
100
AcDbEntity
  8
0
  6
Continuous
 62
     2
370
    -2
100
AcDbLine
 10
143.7554846854547
 20
-94.75335759159566
 30
0.0
 11
143.7554846854547
 21
-134.2033575915956
 31
0.0
  0
SOLID
  5
5350
330
52F1
100
AcDbEntity
  8
0
  6
Continuous
 62
     2
100
AcDbTrace
 10
143.338818018788
 20
-94.75335759159566
 30
0.0
 11
144.1721513521213
 21
-94.75335759159566
 31
0.0
 12
143.7554846854547
 22
-92.25335759159566
 32
0.0
 13
143.7554846854547
 23
-92.25335759159566
 33
0.0
  0
SOLID
  5
5351
330
52F1
100
AcDbEntity
  8
0
  6
Continuous
 62
     2
100
AcDbTrace
 10
143.338818018788
 20
-134.2033575915956
 30
0.0
 11
144.1721513521213
 21
-134.2033575915956
 31
0.0
 12
143.7554846854547
 22
-136.7033575915956
 32
0.0
 13
143.7554846854547
 23
-136.7033575915956
 33
0.0
  0
MTEXT
  5
5352
330
52F1
100
AcDbEntity
  8
0
  6
Continuous
 62
     3
100
AcDbMText
 10
141.6554846854546
 20
-122.8052720794509
 30
0.0
 40
3.0
 41
0.0
 71
     5
 72
     1
  1
%%C44.45
 11
0.0000000000000001
 21
1.0
 31
0.0
 73
     1
 44
1.0
1001
ACAD
1000
MTEXTBEGIN
1070
    73
1070
     1
1070
    44
1040
1.0
1070
    74
1070
     0
1000
MTEXTEND
  0
POINT
  5
5353
330
52F1
100
AcDbEntity
  8
DEFPOINTS
  6
Continuous
 62
     0
100
AcDbPoint
 10
150.1132131631937
 20
-92.25335759159566
 30
0.0
  0
POINT
  5
5354
330
52F1
100
AcDbEntity
  8
DEFPOINTS
  6
Continuous
 62
     0
100
AcDbPoint
 10
150.1132131631937
 20
-136.7033575915956
 30
0.0
  0
POINT
  5
5355
330
52F1
100
AcDbEntity
  8
DEFPOINTS
  6
Continuous
 62
     0
100
AcDbPoint
 10
143.7554846854547
 20
-136.7033575915956
 30
0.0
  0
ENDBLK
  5
52F3
330
52F1
100
AcDbEntity
  8
0
100
AcDbBlockEnd
  0
BLOCK
  5
52FE
330
52FD
100
AcDbEntity
  8
0
100
AcDbBlockBegin
  2
*D20
 70
     1
 10
0.0
 20
0.0
 30
0.0
  3
*D20
  1

  0
LINE
  5
5356
330
52FD
100
AcDbEntity
  8
0
  6
ByBlock
 62
     2
370
    -2
100
AcDbLine
 10
79.97235783826244
 20
-127.8585462261442
 30
0.0
 11
68.73932000424384
 21
-135.5252835386851
 31
0.0
  0
LINE
  5
5357
330
52FD
100
AcDbEntity
  8
0
  6
ByBlock
 62
     2
370
    -2
100
AcDbLine
 10
82.86321316319369
 20
-125.8854888295344
 30
0.0
 11
82.03725449892763
 21
-126.4492195142801
 31
0.0
  0
SOLID
  5
5358
330
52FD
100
AcDbEntity
  8
0
  6
Continuous
 62
     2
100
AcDbTrace
 10
79.73747005295175
 20
-127.5143967827
 30
0.0
 11
80.20724562357312
 21
-128.2026956695884
 31
0.0
 12
82.03725449892763
 22
-126.4492195142801
 32
0.0
 13
82.03725449892763
 23
-126.4492195142801
 33
0.0
  0
MTEXT
  5
5359
330
52FD
100
AcDbEntity
  8
0
  6
Continuous
 62
     3
100
AcDbMText
 10
72.13955615295467
 20
-130.662065043388
 30
0.0
 40
3.0
 41
0.0
 71
     5
 72
     1
  1
R1max
 11
0.8259586642660735
 21
0.5637306847456537
 31
0.0
 73
     1
 44
1.0
1001
ACAD
1000
MTEXTBEGIN
1070
    73
1070
     1
1070
    44
1040
1.0
1070
    74
1070
     0
1000
MTEXTEND
  0
POINT
  5
535A
330
52FD
100
AcDbEntity
  8
DEFPOINTS
  6
Continuous
 62
     0
100
AcDbPoint
 10
82.03725449892763
 20
-126.4492195142801
 30
0.0
  0
POINT
  5
535B
330
52FD
100
AcDbEntity
  8
DEFPOINTS
  6
Continuous
 62
     0
100
AcDbPoint
 10
82.86321316319369
 20
-125.8854888295344
 30
0.0
  0
ENDBLK
  5
52FF
330
52FD
100
AcDbEntity
  8
0
100
AcDbBlockEnd
  0
BLOCK
  5
5307
330
5306
100
AcDbEntity
  8
0
100
AcDbBlockBegin
  2
*D21
 70
     1
 10
0.0
 20
0.0
 30
0.0
  3
*D21
  1

  0
LINE
  5
535C
330
5306
100
AcDbEntity
  8
0
  6
ByBlock
 62
     2
370
    -2
100
AcDbLine
 10
81.34359792092302
 20
-105.0283575915956
 30
0.0
 11
77.12624790638392
 21
-102.5934694254345
 31
0.0
  0
LINE
  5
535D
330
5306
100
AcDbEntity
  8
0
  6
ByBlock
 62
     2
370
    -2
100
AcDbLine
 10
79.26321316319368
 20
-114.4783575915956
 30
0.0
 11
73.9417017201268
 21
-114.4783575915956
 31
0.0
  0
ARC
  5
535E
330
5306
100
AcDbEntity
  8
0
  6
ByBlock
 62
     2
370
    -2
100
AcDbCircle
 10
97.71147805244863
 20
-114.4783575915956
 30
0.0
 40
22.76977633232183
100
AcDbArc
 50
156.2939350671589
 51
173.7060649328407
  0
SOLID
  5
535F
330
5306
100
AcDbEntity
  8
0
  6
Continuous
 62
     2
100
AcDbTrace
 10
76.49127780612328
 20
-105.1356798964555
 30
0.0
 11
77.23475122937576
 21
-105.5120994939284
 31
0.0
 12
77.99227331016834
 22
-103.0934694254345
 32
0.0
 13
77.99227331016834
 23
-103.0934694254345
 33
0.0
  0
SOLID
  5
5360
330
5306
100
AcDbEntity
  8
0
  6
Continuous
 62
     2
100
AcDbTrace
 10
75.49498338847974
 20
-112.0050014695267
 30
0.0
 11
74.66290671816804
 21
-111.9592536917943
 31
0.0
 12
74.9417017201268
 22
-114.4783575915956
 32
0.0
 13
74.9417017201268
 23
-114.4783575915956
 33
0.0
  0
MTEXT
  5
5361
330
5306
100
AcDbEntity
  8
0
  6
Continuous
 62
     3
100
AcDbMText
 10
73.6891187990264
 20
-108.0415858293507
 30
0.0
 40
3.0
 41
0.0
 71
     5
 72
     1
  1
30\U+00B0
 11
0.2588190451025252
 21
0.965925826289067
 31
0.0
 73
     1
 44
1.0
1001
ACAD
1000
MTEXTBEGIN
1070
    73
1070
     1
1070
    44
1040
1.0
1070
    74
1070
     0
1000
MTEXTEND
  0
POINT
  5
5362
330
5306
100
AcDbEntity
  8
DEFPOINTS
  6
Continuous
 62
     0
100
AcDbPoint
 10
76.31488725602022
 20
-106.6906354269214
 30
0.0
  0
POINT
  5
5363
330
5306
100
AcDbEntity
  8
DEFPOINTS
  6
Continuous
 62
     0
100
AcDbPoint
 10
79.86321316319368
 20
-114.4783575915956
 30
0.0
  0
POINT
  5
5364
330
5306
100
AcDbEntity
  8
DEFPOINTS
  6
Continuous
 62
     0
100
AcDbPoint
 10
81.86321316319368
 20
-105.3283575915956
 30
0.0
  0
POINT
  5
5365
330
5306
100
AcDbEntity
  8
DEFPOINTS
  6
Continuous
 62
     0
100
AcDbPoint
 10
83.59526397076251
 20
-106.3283575915956
 30
0.0
  0
POINT
  5
5366
330
5306
100
AcDbEntity
  8
DEFPOINTS
  6
Continuous
 62
     0
100
AcDbPoint
 10
186.4124325825764
 20
-114.4783575915956
 30
0.0
  0
ENDBLK
  5
5308
330
5306
100
AcDbEntity
  8
0
100
AcDbBlockEnd
  0
BLOCK
  5
5315
330
5314
100
AcDbEntity
  8
0
100
AcDbBlockBegin
  2
*D22
 70
     1
 10
0.0
 20
0.0
 30
0.0
  3
*D22
  1

  0
LINE
  5
5367
330
5314
100
AcDbEntity
  8
0
  6
ByBlock
 62
     2
370
    -2
100
AcDbLine
 10
159.3207131631935
 20
-144.0425114252708
 30
0.0
 11
159.3207131631935
 21
-158.1057587048536
 31
0.0
  0
LINE
  5
5368
330
5314
100
AcDbEntity
  8
0
  6
ByBlock
 62
     2
370
    -2
100
AcDbLine
 10
163.1561131631937
 20
-144.0425114252708
 30
0.0
 11
163.1561131631937
 21
-158.1057587048536
 31
0.0
  0
LINE
  5
5369
330
5314
100
AcDbEntity
  8
0
  6
ByBlock
 62
     2
370
    -2
100
AcDbLine
 10
156.8207131631935
 20
-157.1057587048536
 30
0.0
 11
154.3207131631935
 21
-157.1057587048536
 31
0.0
  0
LINE
  5
536A
330
5314
100
AcDbEntity
  8
0
  6
ByBlock
 62
     2
370
    -2
100
AcDbLine
 10
165.6561131631937
 20
-157.1057587048536
 30
0.0
 11
184.536290328548
 21
-157.1057587048536
 31
0.0
  0
LINE
  5
536B
330
5314
100
AcDbEntity
  8
0
  6
ByBlock
 62
     2
370
    -2
100
AcDbLine
 10
159.3207131631935
 20
-157.1057587048536
 30
0.0
 11
163.1561131631937
 21
-157.1057587048536
 31
0.0
  0
SOLID
  5
536C
330
5314
100
AcDbEntity
  8
0
  6
Continuous
 62
     2
100
AcDbTrace
 10
156.8207131631935
 20
-156.689092038187
 30
0.0
 11
156.8207131631935
 21
-157.5224253715203
 31
0.0
 12
159.3207131631935
 22
-157.1057587048536
 32
0.0
 13
159.3207131631935
 23
-157.1057587048536
 33
0.0
  0
SOLID
  5
536D
330
5314
100
AcDbEntity
  8
0
  6
Continuous
 62
     2
100
AcDbTrace
 10
165.6561131631937
 20
-156.689092038187
 30
0.0
 11
165.6561131631937
 21
-157.5224253715203
 31
0.0
 12
163.1561131631937
 22
-157.1057587048536
 32
0.0
 13
163.1561131631937
 23
-157.1057587048536
 33
0.0
  0
MTEXT
  5
536E
330
5314
100
AcDbEntity
  8
0
  6
Continuous
 62
     3
100
AcDbMText
 10
176.3462017458708
 20
-155.0054634292631
 30
0.0
 40
3.0
 41
0.0
 71
     5
 72
     1
  1
3.83%%P0.12
 73
     1
 44
1.0
1001
ACAD
1000
MTEXTBEGIN
1070
    73
1070
     1
1070
    44
1040
1.0
1070
    74
1070
     0
1000
MTEXTEND
  0
POINT
  5
536F
330
5314
100
AcDbEntity
  8
DEFPOINTS
  6
Continuous
 62
     0
100
AcDbPoint
 10
159.3207131631935
 20
-143.4425114252708
 30
0.0
  0
POINT
  5
5370
330
5314
100
AcDbEntity
  8
DEFPOINTS
  6
Continuous
 62
     0
100
AcDbPoint
 10
163.1561131631937
 20
-143.4425114252709
 30
0.0
  0
POINT
  5
5371
330
5314
100
AcDbEntity
  8
DEFPOINTS
  6
Continuous
 62
     0
100
AcDbPoint
 10
163.1561131631937
 20
-157.1057587048536
 30
0.0
  0
ENDBLK
  5
5316
330
5314
100
AcDbEntity
  8
0
100
AcDbBlockEnd
  0
BLOCK
  5
5323
330
5322
100
AcDbEntity
  8
0
100
AcDbBlockBegin
  2
*D23
 70
     1
 10
0.0
 20
0.0
 30
0.0
  3
*D23
  1

  0
LINE
  5
5372
330
5322
100
AcDbEntity
  8
0
  6
ByBlock
 62
     2
370
    -2
100
AcDbLine
 10
153.1882131631937
 20
-146.2283575915957
 30
0.0
 11
134.7554846854547
 21
-146.2283575915957
 31
0.0
  0
LINE
  5
5373
330
5322
100
AcDbEntity
  8
0
  6
ByBlock
 62
     2
370
    -2
100
AcDbLine
 10
153.1882131631937
 20
-82.72835759159562
 30
0.0
 11
134.7554846854547
 21
-82.72835759159562
 31
0.0
  0
LINE
  5
5374
330
5322
100
AcDbEntity
  8
0
  6
ByBlock
 62
     2
370
    -2
100
AcDbLine
 10
135.7554846854547
 20
-143.7283575915957
 30
0.0
 11
135.7554846854547
 21
-85.22835759159562
 31
0.0
  0
SOLID
  5
5375
330
5322
100
AcDbEntity
  8
0
  6
Continuous
 62
     2
100
AcDbTrace
 10
135.338818018788
 20
-143.7283575915957
 30
0.0
 11
136.1721513521213
 21
-143.7283575915957
 31
0.0
 12
135.7554846854547
 22
-146.2283575915957
 32
0.0
 13
135.7554846854547
 23
-146.2283575915957
 33
0.0
  0
SOLID
  5
5376
330
5322
100
AcDbEntity
  8
0
  6
Continuous
 62
     2
100
AcDbTrace
 10
135.338818018788
 20
-85.22835759159562
 30
0.0
 11
136.1721513521213
 21
-85.22835759159562
 31
0.0
 12
135.7554846854547
 22
-82.72835759159562
 32
0.0
 13
135.7554846854547
 23
-82.72835759159562
 33
0.0
  0
MTEXT
  5
5377
330
5322
100
AcDbEntity
  8
0
  6
Continuous
 62
     3
100
AcDbMText
 10
132.8186654897519
 20
-123.3925786255156
 30
0.0
 40
3.0
 41
0.0
 71
     5
 72
     1
  1
%%C63.5{\H0.7x;\S 0^ -0.05;}
 11
0.0000000000000001
 21
1.0
 31
0.0
 73
     1
 44
1.0
1001
ACAD
1000
MTEXTBEGIN
1070
    73
1070
     1
1070
    44
1040
1.0
1070
    74
1070
     0
1000
MTEXTEND
  0
POINT
  5
5378
330
5322
100
AcDbEntity
  8
DEFPOINTS
  6
Continuous
 62
     0
100
AcDbPoint
 10
153.7882131631937
 20
-146.2283575915957
 30
0.0
  0
POINT
  5
5379
330
5322
100
AcDbEntity
  8
DEFPOINTS
  6
Continuous
 62
     0
100
AcDbPoint
 10
153.7882131631937
 20
-82.72835759159562
 30
0.0
  0
POINT
  5
537A
330
5322
100
AcDbEntity
  8
DEFPOINTS
  6
Continuous
 62
     0
100
AcDbPoint
 10
135.7554846854547
 20
-82.72835759159562
 30
0.0
  0
ENDBLK
  5
5324
330
5322
100
AcDbEntity
  8
0
100
AcDbBlockEnd
  0
BLOCK
  5
532F
330
532E
100
AcDbEntity
  8
0
100
AcDbBlockBegin
  2
*D24
 70
     1
 10
0.0
 20
0.0
 30
0.0
  3
*D24
  1

  0
LINE
  5
537B
330
532E
100
AcDbEntity
  8
0
  6
Continuous
 62
     2
370
    -2
100
AcDbLine
 10
86.66321316319363
 20
-105.7283575915954
 30
0.0
 11
86.66321316319363
 21
-90.31285677933013
 31
0.0
  0
LINE
  5
537C
330
532E
100
AcDbEntity
  8
0
  6
Continuous
 62
     2
370
    -2
100
AcDbLine
 10
81.86321316319368
 20
-102.9037628482056
 30
0.0
 11
81.86321316319368
 21
-90.31285677933013
 31
0.0
  0
LINE
  5
537D
330
532E
100
AcDbEntity
  8
0
  6
Continuous
 62
     2
370
    -2
100
AcDbLine
 10
89.16321316319363
 20
-91.31285677933012
 30
0.0
 11
91.66321316319363
 21
-91.31285677933012
 31
0.0
  0
LINE
  5
537E
330
532E
100
AcDbEntity
  8
0
  6
Continuous
 62
     2
370
    -2
100
AcDbLine
 10
79.36321316319368
 20
-91.31285677933012
 30
0.0
 11
66.17708914744565
 21
-91.31285677933012
 31
0.0
  0
LINE
  5
537F
330
532E
100
AcDbEntity
  8
0
  6
Continuous
 62
     2
370
    -2
100
AcDbLine
 10
86.66321316319363
 20
-91.31285677933012
 30
0.0
 11
81.86321316319368
 21
-91.31285677933012
 31
0.0
  0
SOLID
  5
5380
330
532E
100
AcDbEntity
  8
0
  6
Continuous
 62
     2
100
AcDbTrace
 10
89.16321316319363
 20
-90.89619011266346
 30
0.0
 11
89.16321316319363
 21
-91.7295234459968
 31
0.0
 12
86.66321316319363
 22
-91.31285677933012
 32
0.0
 13
86.66321316319363
 23
-91.31285677933012
 33
0.0
  0
SOLID
  5
5381
330
532E
100
AcDbEntity
  8
0
  6
Continuous
 62
     2
100
AcDbTrace
 10
79.36321316319368
 20
-90.89619011266346
 30
0.0
 11
79.36321316319368
 21
-91.7295234459968
 31
0.0
 12
81.86321316319368
 22
-91.31285677933012
 32
0.0
 13
81.86321316319368
 23
-91.31285677933012
 33
0.0
  0
MTEXT
  5
5382
330
532E
100
AcDbEntity
  8
0
  6
Continuous
 62
     3
100
AcDbMText
 10
71.52015115531966
 20
-88.41890992893643
 30
0.0
 40
3.0
 41
0.0
 71
     5
 72
     1
  1
4.8{\H2.1;\S+0^ -0.2;}
 73
     1
 44
1.0
1001
ACAD
1000
MTEXTBEGIN
1070
    73
1070
     1
1070
    44
1040
1.0
1070
    74
1070
     0
1000
MTEXTEND
  0
POINT
  5
5383
330
532E
100
AcDbEntity
  8
DEFPOINTS
  6
Continuous
 62
     0
100
AcDbPoint
 10
86.66321316319363
 20
-106.3283575915954
 30
0.0
  0
POINT
  5
5384
330
532E
100
AcDbEntity
  8
DEFPOINTS
  6
Continuous
 62
     0
100
AcDbPoint
 10
81.86321316319368
 20
-103.5037628482056
 30
0.0
  0
POINT
  5
5385
330
532E
100
AcDbEntity
  8
DEFPOINTS
  6
Continuous
 62
     0
100
AcDbPoint
 10
81.86321316319368
 20
-91.31285677933012
 30
0.0
  0
ENDBLK
  5
5330
330
532E
100
AcDbEntity
  8
0
100
AcDbBlockEnd
  0
BLOCK
  5
533D
330
533C
100
AcDbEntity
  8
0
100
AcDbBlockBegin
  2
*D25
 70
     1
 10
0.0
 20
0.0
 30
0.0
  3
*D25
  1

  0
LINE
  5
5386
330
533C
100
AcDbEntity
  8
0
  6
Continuous
 62
     2
370
    -2
100
AcDbLine
 10
82.99526397076254
 20
-106.3283575915956
 30
0.0
 11
69.2177822236727
 21
-106.3283575915956
 31
0.0
  0
LINE
  5
5387
330
533C
100
AcDbEntity
  8
0
  6
Continuous
 62
     2
370
    -2
100
AcDbLine
 10
70.2177822236727
 20
-108.8283575915957
 30
0.0
 11
70.2177822236727
 21
-122.7646391631721
 31
0.0
  0
SOLID
  5
5388
330
533C
100
AcDbEntity
  8
0
  6
Continuous
 62
     2
100
AcDbTrace
 10
69.80111555700602
 20
-108.8283575915957
 30
0.0
 11
70.63444889033937
 21
-108.8283575915957
 31
0.0
 12
70.2177822236727
 22
-106.3283575915956
 32
0.0
 13
70.2177822236727
 23
-106.3283575915956
 33
0.0
  0
MTEXT
  5
5389
330
533C
100
AcDbEntity
  8
0
  6
Continuous
 62
     3
100
AcDbMText
 10
67.33304964214316
 20
-115.4911467391229
 30
0.0
 40
3.0
 41
0.0
 71
     5
 72
     1
  1
%%C16.3{\H2.1;\S+0.3^ -0;}
 11
0.0000000000000001
 21
1.0
 31
0.0
 73
     1
 44
1.0
1001
ACAD
1000
MTEXTBEGIN
1070
    73
1070
     1
1070
    44
1040
1.0
1070
    74
1070
     0
1000
MTEXTEND
  0
POINT
  5
538A
330
533C
100
AcDbEntity
  8
DEFPOINTS
  6
Continuous
 62
     0
100
AcDbPoint
 10
71.29258619227087
 20
-122.6283575915956
 30
0.0
  0
POINT
  5
538B
330
533C
100
AcDbEntity
  8
DEFPOINTS
  6
Continuous
 62
     0
100
AcDbPoint
 10
83.59526397076255
 20
-106.3283575915956
 30
0.0
  0
POINT
  5
538C
330
533C
100
AcDbEntity
  8
DEFPOINTS
  6
Continuous
 62
     0
100
AcDbPoint
 10
70.2177822236727
 20
-106.3283575915956
 30
0.0
  0
ENDBLK
  5
533E
330
533C
100
AcDbEntity
  8
0
100
AcDbBlockEnd
  0
BLOCK
  5
538E
330
538D
100
AcDbEntity
  8
0
100
AcDbBlockBegin
  2
*D26
 70
     1
 10
0.0
 20
0.0
 30
0.0
  3
*D26
  1

  0
LINE
  5
538F
330
538D
100
AcDbEntity
  8
0
  6
Continuous
 62
     2
370
    -2
100
AcDbLine
 10
159.2716079126663
 20
132.6763323713797
 30
0.0
 11
191.5630863430623
 21
132.6763323713797
 31
0.0
  0
LINE
  5
5390
330
538D
100
AcDbEntity
  8
0
  6
Continuous
 62
     2
370
    -2
100
AcDbLine
 10
190.5630863430623
 20
130.1763323713797
 30
0.0
 11
190.5630863430623
 21
112.5713323713797
 31
0.0
  0
SOLID
  5
5391
330
538D
100
AcDbEntity
  8
0
  6
Continuous
 62
     2
100
AcDbTrace
 10
190.1464196763957
 20
130.1763323713797
 30
0.0
 11
190.979753009729
 21
130.1763323713797
 31
0.0
 12
190.5630863430623
 22
132.6763323713797
 32
0.0
 13
190.5630863430623
 23
132.6763323713797
 33
0.0
  0
MTEXT
  5
5392
330
538D
100
AcDbEntity
  8
0
  6
Continuous
 62
     3
100
AcDbMText
 10
187.67074866135
 20
120.1763323713797
 30
0.0
 40
3.0
 41
0.0
 71
     5
 72
     1
  1
%%C25{\H0.7x;\S+0.009^ +0.004;}
 11
0.0000000000000001
 21
1.0
 31
0.0
 73
     1
 44
1.0
1001
ACAD
1000
MTEXTBEGIN
1070
    73
1070
     1
1070
    44
1040
1.0
1070
    74
1070
     0
1000
MTEXTEND
  0
POINT
  5
5393
330
538D
100
AcDbEntity
  8
DEFPOINTS
  6
Continuous
 62
     0
100
AcDbPoint
 10
154.0716079126664
 20
107.6763323713797
 30
0.0
  0
POINT
  5
5394
330
538D
100
AcDbEntity
  8
DEFPOINTS
  6
Continuous
 62
     0
100
AcDbPoint
 10
158.6716079126663
 20
132.6763323713797
 30
0.0
  0
POINT
  5
5395
330
538D
100
AcDbEntity
  8
DEFPOINTS
  6
Continuous
 62
     0
100
AcDbPoint
 10
190.5630863430623
 20
132.6763323713797
 30
0.0
  0
ENDBLK
  5
5396
330
538D
100
AcDbEntity
  8
0
100
AcDbBlockEnd
  0
BLOCK
  5
5398
330
5397
100
AcDbEntity
  8
0
100
AcDbBlockBegin
  2
*D27
 70
     1
 10
0.0
 20
0.0
 30
0.0
  3
*D27
  1

  0
LINE
  5
5399
330
5397
100
AcDbEntity
  8
0
  6
Continuous
 62
     2
370
    -2
100
AcDbLine
 10
167.7716079126664
 20
145.1763323713797
 30
0.0
 11
199.5630863430623
 21
145.1763323713797
 31
0.0
  0
LINE
  5
539A
330
5397
100
AcDbEntity
  8
0
  6
Continuous
 62
     2
370
    -2
100
AcDbLine
 10
198.5630863430623
 20
142.6763323713797
 30
0.0
 11
198.5630863430623
 21
112.6328399473306
 31
0.0
  0
SOLID
  5
539B
330
5397
100
AcDbEntity
  8
0
  6
Continuous
 62
     2
100
AcDbTrace
 10
198.1464196763956
 20
142.6763323713797
 30
0.0
 11
198.9797530097289
 21
142.6763323713797
 31
0.0
 12
198.5630863430623
 22
145.1763323713797
 32
0.0
 13
198.5630863430623
 23
145.1763323713797
 33
0.0
  0
MTEXT
  5
539C
330
5397
100
AcDbEntity
  8
0
  6
Continuous
 62
     3
100
AcDbMText
 10
195.6783537615328
 20
120.1763323713798
 30
0.0
 40
3.0
 41
0.0
 71
     5
 72
     1
  1
%%C50{\H0.7x;\S+0.007^ +0.003;}
 11
0.0000000000000001
 21
1.0
 31
0.0
 73
     1
 44
1.0
1001
ACAD
1000
MTEXTBEGIN
1070
    73
1070
     1
1070
    44
1040
1.0
1070
    74
1070
     0
1000
MTEXTEND
  0
POINT
  5
539D
330
5397
100
AcDbEntity
  8
DEFPOINTS
  6
Continuous
 62
     0
100
AcDbPoint
 10
167.1716079126663
 20
95.17633237137978
 30
0.0
  0
POINT
  5
539E
330
5397
100
AcDbEntity
  8
DEFPOINTS
  6
Continuous
 62
     0
100
AcDbPoint
 10
167.1716079126664
 20
145.1763323713797
 30
0.0
  0
POINT
  5
539F
330
5397
100
AcDbEntity
  8
DEFPOINTS
  6
Continuous
 62
     0
100
AcDbPoint
 10
198.5630863430623
 20
145.1763323713797
 30
0.0
  0
ENDBLK
  5
53A0
330
5397
100
AcDbEntity
  8
0
100
AcDbBlockEnd
  0
BLOCK
  5
53A2
330
53A1
100
AcDbEntity
  8
0
100
AcDbBlockBegin
  2
*D28
 70
     1
 10
0.0
 20
0.0
 30
0.0
  3
*D28
  1

  0
LINE
  5
53A3
330
53A1
100
AcDbEntity
  8
0
  6
Continuous
 62
     2
370
    -2
100
AcDbLine
 10
142.2216079126661
 20
95.17633237137978
 30
0.0
 11
144.7396851977999
 21
95.17633237137978
 31
0.0
  0
LINE
  5
53A4
330
53A1
100
AcDbEntity
  8
0
  6
Continuous
 62
     2
370
    -2
100
AcDbLine
 10
143.7396851977999
 20
97.67633237137978
 30
0.0
 11
143.7396851977999
 21
114.3281040249231
 31
0.0
  0
SOLID
  5
53A5
330
53A1
100
AcDbEntity
  8
0
  6
Continuous
 62
     2
100
AcDbTrace
 10
143.3230185311332
 20
97.67633237137978
 30
0.0
 11
144.1563518644665
 21
97.67633237137978
 31
0.0
 12
143.7396851977999
 22
95.17633237137978
 32
0.0
 13
143.7396851977999
 23
95.17633237137978
 33
0.0
  0
MTEXT
  5
53A6
330
53A1
100
AcDbEntity
  8
0
  6
Continuous
 62
     3
100
AcDbMText
 10
141.6396851977999
 20
110.7269229225609
 30
0.0
 40
3.0
 41
0.0
 71
     5
 72
     1
  1
%%C50
 11
0.0000000000000001
 21
1.0
 31
0.0
 73
     1
 44
1.0
1001
ACAD
1000
MTEXTBEGIN
1070
    73
1070
     1
1070
    44
1040
1.0
1070
    74
1070
     0
1000
MTEXTEND
  0
POINT
  5
53A7
330
53A1
100
AcDbEntity
  8
DEFPOINTS
  6
Continuous
 62
     0
100
AcDbPoint
 10
141.6216079126661
 20
95.17633237137978
 30
0.0
  0
POINT
  5
53A8
330
53A1
100
AcDbEntity
  8
DEFPOINTS
  6
Continuous
 62
     0
100
AcDbPoint
 10
141.6216079126661
 20
145.1763323713797
 30
0.0
  0
POINT
  5
53A9
330
53A1
100
AcDbEntity
  8
DEFPOINTS
  6
Continuous
 62
     0
100
AcDbPoint
 10
143.7396851977999
 20
145.1763323713797
 30
0.0
  0
ENDBLK
  5
53AA
330
53A1
100
AcDbEntity
  8
0
100
AcDbBlockEnd
  0
BLOCK
  5
53AC
330
53AB
100
AcDbEntity
  8
0
100
AcDbBlockBegin
  2
*D29
 70
     1
 10
0.0
 20
0.0
 30
0.0
  3
*D29
  1

  0
LINE
  5
53AD
330
53AB
100
AcDbEntity
  8
0
  6
Continuous
 62
     2
370
    -2
100
AcDbLine
 10
158.2716079126664
 20
90.57633237137981
 30
0.0
 11
158.2716079126664
 21
80.38508320131358
 31
0.0
  0
LINE
  5
53AE
330
53AB
100
AcDbEntity
  8
0
  6
Continuous
 62
     2
370
    -2
100
AcDbLine
 10
167.6716079126663
 20
91.0763323713798
 30
0.0
 11
167.6716079126663
 21
80.38508320131358
 31
0.0
  0
LINE
  5
53AF
330
53AB
100
AcDbEntity
  8
0
  6
Continuous
 62
     2
370
    -2
100
AcDbLine
 10
160.7716079126664
 20
81.38508320131357
 30
0.0
 11
165.1716079126663
 21
81.38508320131357
 31
0.0
  0
SOLID
  5
53B0
330
53AB
100
AcDbEntity
  8
0
  6
Continuous
 62
     2
100
AcDbTrace
 10
160.7716079126664
 20
81.80174986798025
 30
0.0
 11
160.7716079126664
 21
80.96841653464691
 31
0.0
 12
158.2716079126664
 22
81.38508320131357
 32
0.0
 13
158.2716079126664
 23
81.38508320131357
 33
0.0
  0
SOLID
  5
53B1
330
53AB
100
AcDbEntity
  8
0
  6
Continuous
 62
     2
100
AcDbTrace
 10
165.1716079126663
 20
81.80174986798025
 30
0.0
 11
165.1716079126663
 21
80.96841653464691
 31
0.0
 12
167.6716079126663
 22
81.38508320131357
 32
0.0
 13
167.6716079126663
 23
81.38508320131357
 33
0.0
  0
MTEXT
  5
53B2
330
53AB
100
AcDbEntity
  8
0
  6
Continuous
 62
     3
100
AcDbMText
 10
162.9716079126664
 20
83.48508320131356
 30
0.0
 40
3.0
 41
0.0
 71
     5
 72
     1
  1
9.4
 73
     1
 44
1.0
1001
ACAD
1000
MTEXTBEGIN
1070
    73
1070
     1
1070
    44
1040
1.0
1070
    74
1070
     0
1000
MTEXTEND
  0
POINT
  5
53B3
330
53AB
100
AcDbEntity
  8
DEFPOINTS
  6
Continuous
 62
     0
100
AcDbPoint
 10
158.2716079126664
 20
91.1763323713798
 30
0.0
  0
POINT
  5
53B4
330
53AB
100
AcDbEntity
  8
DEFPOINTS
  6
Continuous
 62
     0
100
AcDbPoint
 10
167.6716079126663
 20
91.67633237137978
 30
0.0
  0
POINT
  5
53B5
330
53AB
100
AcDbEntity
  8
DEFPOINTS
  6
Continuous
 62
     0
100
AcDbPoint
 10
167.6716079126663
 20
81.38508320131357
 30
0.0
  0
ENDBLK
  5
53B6
330
53AB
100
AcDbEntity
  8
0
100
AcDbBlockEnd
  0
BLOCK
  5
558C
330
558B
100
AcDbEntity
  8
0
100
AcDbBlockBegin
  2
*D31
 70
     1
 10
0.0
 20
0.0
 30
0.0
  3
*D31
  1

  0
LINE
  5
55B5
330
558B
100
AcDbEntity
  8
0
  6
Continuous
 62
     2
370
    -2
100
AcDbLine
 10
450.5906209106602
 20
-144.0562173892053
 30
0.0
 11
482.8820993410562
 21
-144.0562173892053
 31
0.0
  0
LINE
  5
55B6
330
558B
100
AcDbEntity
  8
0
  6
Continuous
 62
     2
370
    -2
100
AcDbLine
 10
481.8820993410561
 20
-146.5562173892053
 30
0.0
 11
481.8820993410561
 21
-164.1612173892051
 31
0.0
  0
SOLID
  5
55B7
330
558B
100
AcDbEntity
  8
0
  6
Continuous
 62
     2
100
AcDbTrace
 10
481.4654326743895
 20
-146.5562173892053
 30
0.0
 11
482.2987660077228
 21
-146.5562173892053
 31
0.0
 12
481.8820993410561
 22
-144.0562173892053
 32
0.0
 13
481.8820993410561
 23
-144.0562173892053
 33
0.0
  0
MTEXT
  5
55B8
330
558B
100
AcDbEntity
  8
0
  6
Continuous
 62
     3
100
AcDbMText
 10
478.9897616593436
 20
-156.5562173892052
 30
0.0
 40
3.0
 41
0.0
 71
     5
 72
     1
  1
%%C25{\H0.7x;\S+0.009^ +0.004;}
 11
0.0000000000000001
 21
1.0
 31
0.0
 73
     1
 44
1.0
1001
ACAD
1000
MTEXTBEGIN
1070
    73
1070
     1
1070
    44
1040
1.0
1070
    74
1070
     0
1000
MTEXTEND
  0
POINT
  5
55B9
330
558B
100
AcDbEntity
  8
DEFPOINTS
  6
Continuous
 62
     0
100
AcDbPoint
 10
445.3906209106603
 20
-169.0562173892053
 30
0.0
  0
POINT
  5
55BA
330
558B
100
AcDbEntity
  8
DEFPOINTS
  6
Continuous
 62
     0
100
AcDbPoint
 10
449.9906209106602
 20
-144.0562173892053
 30
0.0
  0
POINT
  5
55BB
330
558B
100
AcDbEntity
  8
DEFPOINTS
  6
Continuous
 62
     0
100
AcDbPoint
 10
481.8820993410561
 20
-144.0562173892053
 30
0.0
  0
ENDBLK
  5
558D
330
558B
100
AcDbEntity
  8
0
100
AcDbBlockEnd
  0
BLOCK
  5
5596
330
5595
100
AcDbEntity
  8
0
100
AcDbBlockBegin
  2
*D32
 70
     1
 10
0.0
 20
0.0
 30
0.0
  3
*D32
  1

  0
LINE
  5
55BC
330
5595
100
AcDbEntity
  8
0
  6
Continuous
 62
     2
370
    -2
100
AcDbLine
 10
459.0906209106604
 20
-131.5562173892053
 30
0.0
 11
490.8820993410563
 21
-131.5562173892053
 31
0.0
  0
LINE
  5
55BD
330
5595
100
AcDbEntity
  8
0
  6
Continuous
 62
     2
370
    -2
100
AcDbLine
 10
489.8820993410563
 20
-134.0562173892053
 30
0.0
 11
489.8820993410563
 21
-164.0997098132544
 31
0.0
  0
SOLID
  5
55BE
330
5595
100
AcDbEntity
  8
0
  6
Continuous
 62
     2
100
AcDbTrace
 10
489.4654326743896
 20
-134.0562173892053
 30
0.0
 11
490.2987660077229
 21
-134.0562173892053
 31
0.0
 12
489.8820993410563
 22
-131.5562173892053
 32
0.0
 13
489.8820993410563
 23
-131.5562173892053
 33
0.0
  0
MTEXT
  5
55BF
330
5595
100
AcDbEntity
  8
0
  6
Continuous
 62
     3
100
AcDbMText
 10
486.9973667595266
 20
-156.5562173892054
 30
0.0
 40
3.0
 41
0.0
 71
     5
 72
     1
  1
%%C50{\H0.7x;\S+0.007^ +0.003;}
 11
0.0000000000000001
 21
1.0
 31
0.0
 73
     1
 44
1.0
1001
ACAD
1000
MTEXTBEGIN
1070
    73
1070
     1
1070
    44
1040
1.0
1070
    74
1070
     0
1000
MTEXTEND
  0
POINT
  5
55C0
330
5595
100
AcDbEntity
  8
DEFPOINTS
  6
Continuous
 62
     0
100
AcDbPoint
 10
458.4906209106602
 20
-181.5562173892052
 30
0.0
  0
POINT
  5
55C1
330
5595
100
AcDbEntity
  8
DEFPOINTS
  6
Continuous
 62
     0
100
AcDbPoint
 10
458.4906209106604
 20
-131.5562173892053
 30
0.0
  0
POINT
  5
55C2
330
5595
100
AcDbEntity
  8
DEFPOINTS
  6
Continuous
 62
     0
100
AcDbPoint
 10
489.8820993410563
 20
-131.5562173892053
 30
0.0
  0
ENDBLK
  5
5597
330
5595
100
AcDbEntity
  8
0
100
AcDbBlockEnd
  0
BLOCK
  5
55A0
330
559F
100
AcDbEntity
  8
0
100
AcDbBlockBegin
  2
*D33
 70
     1
 10
0.0
 20
0.0
 30
0.0
  3
*D33
  1

  0
LINE
  5
55C3
330
559F
100
AcDbEntity
  8
0
  6
Continuous
 62
     2
370
    -2
100
AcDbLine
 10
433.5406209106601
 20
-181.5562173892052
 30
0.0
 11
436.0586981957937
 21
-181.5562173892052
 31
0.0
  0
LINE
  5
55C4
330
559F
100
AcDbEntity
  8
0
  6
Continuous
 62
     2
370
    -2
100
AcDbLine
 10
435.0586981957937
 20
-179.0562173892053
 30
0.0
 11
435.0586981957937
 21
-162.4044457356618
 31
0.0
  0
SOLID
  5
55C5
330
559F
100
AcDbEntity
  8
0
  6
Continuous
 62
     2
100
AcDbTrace
 10
434.642031529127
 20
-179.0562173892053
 30
0.0
 11
435.4753648624604
 21
-179.0562173892053
 31
0.0
 12
435.0586981957937
 22
-181.5562173892052
 32
0.0
 13
435.0586981957937
 23
-181.5562173892052
 33
0.0
  0
MTEXT
  5
55C6
330
559F
100
AcDbEntity
  8
0
  6
Continuous
 62
     3
100
AcDbMText
 10
432.9586981957935
 20
-166.0056268380241
 30
0.0
 40
3.0
 41
0.0
 71
     5
 72
     1
  1
%%C50
 11
0.0000000000000001
 21
1.0
 31
0.0
 73
     1
 44
1.0
1001
ACAD
1000
MTEXTBEGIN
1070
    73
1070
     1
1070
    44
1040
1.0
1070
    74
1070
     0
1000
MTEXTEND
  0
POINT
  5
55C7
330
559F
100
AcDbEntity
  8
DEFPOINTS
  6
Continuous
 62
     0
100
AcDbPoint
 10
432.9406209106601
 20
-181.5562173892052
 30
0.0
  0
POINT
  5
55C8
330
559F
100
AcDbEntity
  8
DEFPOINTS
  6
Continuous
 62
     0
100
AcDbPoint
 10
432.9406209106601
 20
-131.5562173892053
 30
0.0
  0
POINT
  5
55C9
330
559F
100
AcDbEntity
  8
DEFPOINTS
  6
Continuous
 62
     0
100
AcDbPoint
 10
435.0586981957937
 20
-131.5562173892053
 30
0.0
  0
ENDBLK
  5
55A1
330
559F
100
AcDbEntity
  8
0
100
AcDbBlockEnd
  0
BLOCK
  5
55AA
330
55A9
100
AcDbEntity
  8
0
100
AcDbBlockBegin
  2
*D34
 70
     1
 10
0.0
 20
0.0
 30
0.0
  3
*D34
  1

  0
LINE
  5
55CA
330
55A9
100
AcDbEntity
  8
0
  6
Continuous
 62
     2
370
    -2
100
AcDbLine
 10
449.5906209106601
 20
-186.1562173892052
 30
0.0
 11
449.5906209106601
 21
-196.3474665592714
 31
0.0
  0
LINE
  5
55CB
330
55A9
100
AcDbEntity
  8
0
  6
Continuous
 62
     2
370
    -2
100
AcDbLine
 10
458.99062091066
 20
-185.6562173892052
 30
0.0
 11
458.99062091066
 21
-196.3474665592714
 31
0.0
  0
LINE
  5
55CC
330
55A9
100
AcDbEntity
  8
0
  6
Continuous
 62
     2
370
    -2
100
AcDbLine
 10
452.0906209106601
 20
-195.3474665592714
 30
0.0
 11
456.49062091066
 21
-195.3474665592714
 31
0.0
  0
SOLID
  5
55CD
330
55A9
100
AcDbEntity
  8
0
  6
Continuous
 62
     2
100
AcDbTrace
 10
452.0906209106601
 20
-194.9307998926047
 30
0.0
 11
452.0906209106601
 21
-195.7641332259381
 31
0.0
 12
449.5906209106601
 22
-195.3474665592714
 32
0.0
 13
449.5906209106601
 23
-195.3474665592714
 33
0.0
  0
SOLID
  5
55CE
330
55A9
100
AcDbEntity
  8
0
  6
Continuous
 62
     2
100
AcDbTrace
 10
456.49062091066
 20
-194.9307998926047
 30
0.0
 11
456.49062091066
 21
-195.7641332259381
 31
0.0
 12
458.99062091066
 22
-195.3474665592714
 32
0.0
 13
458.99062091066
 23
-195.3474665592714
 33
0.0
  0
MTEXT
  5
55CF
330
55A9
100
AcDbEntity
  8
0
  6
Continuous
 62
     3
100
AcDbMText
 10
454.29062091066
 20
-193.2474665592714
 30
0.0
 40
3.0
 41
0.0
 71
     5
 72
     1
  1
9.4
 73
     1
 44
1.0
1001
ACAD
1000
MTEXTBEGIN
1070
    73
1070
     1
1070
    44
1040
1.0
1070
    74
1070
     0
1000
MTEXTEND
  0
POINT
  5
55D0
330
55A9
100
AcDbEntity
  8
DEFPOINTS
  6
Continuous
 62
     0
100
AcDbPoint
 10
449.5906209106601
 20
-185.5562173892051
 30
0.0
  0
POINT
  5
55D1
330
55A9
100
AcDbEntity
  8
DEFPOINTS
  6
Continuous
 62
     0
100
AcDbPoint
 10
458.99062091066
 20
-185.0562173892052
 30
0.0
  0
POINT
  5
55D2
330
55A9
100
AcDbEntity
  8
DEFPOINTS
  6
Continuous
 62
     0
100
AcDbPoint
 10
458.99062091066
 20
-195.3474665592714
 30
0.0
  0
ENDBLK
  5
55AB
330
55A9
100
AcDbEntity
  8
0
100
AcDbBlockEnd
  0
BLOCK
  5
56A4
330
56A3
100
AcDbEntity
  8
0
100
AcDbBlockBegin
  2
*D35
 70
     1
 10
0.0
 20
0.0
 30
0.0
  3
*D35
  1

  0
LINE
  5
570D
330
56A3
100
AcDbEntity
  8
0
 62
     2
370
    -2
100
AcDbLine
 10
247.9336660067203
 20
111.5847597509829
 30
0.0
 11
268.0812948727874
 21
111.5847597509829
 31
0.0
  0
LINE
  5
570E
330
56A3
100
AcDbEntity
  8
0
 62
     2
370
    -2
100
AcDbLine
 10
247.9336660067203
 20
174.5847597509828
 30
0.0
 11
268.0812948727873
 21
174.5847597509828
 31
0.0
  0
LINE
  5
570F
330
56A3
100
AcDbEntity
  8
0
 62
     2
370
    -2
100
AcDbLine
 10
267.0812948727873
 20
114.0847597509829
 30
0.0
 11
267.0812948727873
 21
172.0847597509828
 31
0.0
  0
SOLID
  5
5710
330
56A3
100
AcDbEntity
  8
0
 62
     2
100
AcDbTrace
 10
266.6646282061206
 20
114.0847597509829
 30
0.0
 11
267.497961539454
 21
114.0847597509829
 31
0.0
 12
267.0812948727873
 22
111.5847597509829
 32
0.0
 13
267.0812948727873
 23
111.5847597509829
 33
0.0
  0
SOLID
  5
5711
330
56A3
100
AcDbEntity
  8
0
 62
     2
100
AcDbTrace
 10
266.6646282061206
 20
172.0847597509828
 30
0.0
 11
267.497961539454
 21
172.0847597509828
 31
0.0
 12
267.0812948727873
 22
174.5847597509828
 32
0.0
 13
267.0812948727873
 23
174.5847597509828
 33
0.0
  0
MTEXT
  5
5712
330
56A3
100
AcDbEntity
  8
0
 62
     3
100
AcDbMText
 10
264.9812948727872
 20
143.0847597509828
 30
0.0
 40
3.0
 41
0.0
 71
     5
 72
     1
  1
%%C63
 11
0.0000000000000001
 21
1.0
 31
0.0
 73
     1
 44
1.0
1001
ACAD
1000
MTEXTBEGIN
1070
    73
1070
     1
1070
    44
1040
1.0
1070
    74
1070
     0
1000
MTEXTEND
  0
POINT
  5
5713
330
56A3
100
AcDbEntity
  8
DEFPOINTS
 62
     0
100
AcDbPoint
 10
247.6336660067203
 20
111.5847597509829
 30
0.0
  0
POINT
  5
5714
330
56A3
100
AcDbEntity
  8
DEFPOINTS
 62
     0
100
AcDbPoint
 10
247.6336660067203
 20
174.5847597509828
 30
0.0
  0
POINT
  5
5715
330
56A3
100
AcDbEntity
  8
DEFPOINTS
 62
     0
100
AcDbPoint
 10
267.0812948727873
 20
174.5847597509828
 30
0.0
  0
ENDBLK
  5
56A5
330
56A3
100
AcDbEntity
  8
0
100
AcDbBlockEnd
  0
BLOCK
  5
56B0
330
56AF
100
AcDbEntity
  8
0
100
AcDbBlockBegin
  2
*D36
 70
     1
 10
0.0
 20
0.0
 30
0.0
  3
*D36
  1

  0
LINE
  5
5716
330
56AF
100
AcDbEntity
  8
0
 62
     2
370
    -2
100
AcDbLine
 10
132.5411432948321
 20
120.5597597509826
 30
0.0
 11
132.5411432948321
 21
88.11769711269125
 31
0.0
  0
LINE
  5
5717
330
56AF
100
AcDbEntity
  8
0
 62
     2
370
    -2
100
AcDbLine
 10
64.14114329483203
 20
131.3776544548796
 30
0.0
 11
64.14114329483203
 21
88.11769711269125
 31
0.0
  0
LINE
  5
5718
330
56AF
100
AcDbEntity
  8
0
 62
     2
370
    -2
100
AcDbLine
 10
130.0411432948321
 20
89.11769711269124
 30
0.0
 11
66.64114329483203
 21
89.11769711269124
 31
0.0
  0
SOLID
  5
5719
330
56AF
100
AcDbEntity
  8
0
 62
     2
100
AcDbTrace
 10
130.0411432948321
 20
89.53436377935792
 30
0.0
 11
130.0411432948321
 21
88.70103044602457
 31
0.0
 12
132.5411432948321
 22
89.11769711269124
 32
0.0
 13
132.5411432948321
 23
89.11769711269124
 33
0.0
  0
SOLID
  5
571A
330
56AF
100
AcDbEntity
  8
0
 62
     2
100
AcDbTrace
 10
66.64114329483203
 20
89.53436377935792
 30
0.0
 11
66.64114329483203
 21
88.70103044602457
 31
0.0
 12
64.14114329483203
 22
89.11769711269124
 32
0.0
 13
64.14114329483203
 23
89.11769711269124
 33
0.0
  0
MTEXT
  5
571B
330
56AF
100
AcDbEntity
  8
0
 62
     3
100
AcDbMText
 10
98.34114329483208
 20
91.21769711269124
 30
0.0
 40
3.0
 41
0.0
 71
     5
 72
     1
  1
68.4
 73
     1
 44
1.0
1001
ACAD
1000
MTEXTBEGIN
1070
    73
1070
     1
1070
    44
1040
1.0
1070
    74
1070
     0
1000
MTEXTEND
  0
POINT
  5
571C
330
56AF
100
AcDbEntity
  8
DEFPOINTS
 62
     0
100
AcDbPoint
 10
132.5411432948321
 20
120.8597597509827
 30
0.0
  0
POINT
  5
571D
330
56AF
100
AcDbEntity
  8
DEFPOINTS
 62
     0
100
AcDbPoint
 10
64.14114329483203
 20
131.6776544548796
 30
0.0
  0
POINT
  5
571E
330
56AF
100
AcDbEntity
  8
DEFPOINTS
 62
     0
100
AcDbPoint
 10
64.14114329483203
 20
89.11769711269124
 30
0.0
  0
ENDBLK
  5
56B1
330
56AF
100
AcDbEntity
  8
0
100
AcDbBlockEnd
  0
BLOCK
  5
56BC
330
56BB
100
AcDbEntity
  8
0
100
AcDbBlockBegin
  2
*D37
 70
     1
 10
0.0
 20
0.0
 30
0.0
  3
*D37
  1

  0
LINE
  5
571F
330
56BB
100
AcDbEntity
  8
0
 62
     2
370
    -2
100
AcDbLine
 10
64.14114329483203
 20
131.3776544548796
 30
0.0
 11
64.14114329483203
 21
77.21782142118872
 31
0.0
  0
LINE
  5
5720
330
56BB
100
AcDbEntity
  8
0
 62
     2
370
    -2
100
AcDbLine
 10
252.541143294832
 20
119.0527089434141
 30
0.0
 11
252.541143294832
 21
77.21782142118872
 31
0.0
  0
LINE
  5
5721
330
56BB
100
AcDbEntity
  8
0
 62
     2
370
    -2
100
AcDbLine
 10
66.64114329483203
 20
78.21782142118872
 30
0.0
 11
250.041143294832
 21
78.21782142118872
 31
0.0
  0
SOLID
  5
5722
330
56BB
100
AcDbEntity
  8
0
 62
     2
100
AcDbTrace
 10
66.64114329483203
 20
78.63448808785538
 30
0.0
 11
66.64114329483203
 21
77.80115475452205
 31
0.0
 12
64.14114329483203
 22
78.21782142118872
 32
0.0
 13
64.14114329483203
 23
78.21782142118872
 33
0.0
  0
SOLID
  5
5723
330
56BB
100
AcDbEntity
  8
0
 62
     2
100
AcDbTrace
 10
250.041143294832
 20
78.63448808785538
 30
0.0
 11
250.041143294832
 21
77.80115475452205
 31
0.0
 12
252.541143294832
 22
78.21782142118872
 32
0.0
 13
252.541143294832
 23
78.21782142118872
 33
0.0
  0
MTEXT
  5
5724
330
56BB
100
AcDbEntity
  8
0
 62
     3
100
AcDbMText
 10
158.341143294832
 20
80.31782142118871
 30
0.0
 40
3.0
 41
0.0
 71
     5
 72
     1
  1
188.4
 73
     1
 44
1.0
1001
ACAD
1000
MTEXTBEGIN
1070
    73
1070
     1
1070
    44
1040
1.0
1070
    74
1070
     0
1000
MTEXTEND
  0
POINT
  5
5725
330
56BB
100
AcDbEntity
  8
DEFPOINTS
 62
     0
100
AcDbPoint
 10
64.14114329483203
 20
131.6776544548796
 30
0.0
  0
POINT
  5
5726
330
56BB
100
AcDbEntity
  8
DEFPOINTS
 62
     0
100
AcDbPoint
 10
252.541143294832
 20
119.3527089434141
 30
0.0
  0
POINT
  5
5727
330
56BB
100
AcDbEntity
  8
DEFPOINTS
 62
     0
100
AcDbPoint
 10
252.541143294832
 20
78.21782142118872
 30
0.0
  0
ENDBLK
  5
56BD
330
56BB
100
AcDbEntity
  8
0
100
AcDbBlockEnd
  0
BLOCK
  5
56C8
330
56C7
100
AcDbEntity
  8
0
100
AcDbBlockBegin
  2
*D38
 70
     1
 10
0.0
 20
0.0
 30
0.0
  3
*D38
  1

  0
LINE
  5
5704
330
56C7
100
AcDbEntity
  8
0
 62
     2
370
    -2
100
AcDbLine
 10
132.5411432948321
 20
120.5597597509828
 30
0.0
 11
132.5411432948321
 21
88.05556420026192
 31
0.0
  0
LINE
  5
5705
330
56C7
100
AcDbEntity
  8
0
 62
     2
370
    -2
100
AcDbLine
 10
252.541143294832
 20
119.0527089434141
 30
0.0
 11
252.541143294832
 21
88.05556420026192
 31
0.0
  0
LINE
  5
5706
330
56C7
100
AcDbEntity
  8
0
 62
     2
370
    -2
100
AcDbLine
 10
135.0411432948321
 20
89.05556420026192
 30
0.0
 11
250.041143294832
 21
89.05556420026192
 31
0.0
  0
SOLID
  5
5707
330
56C7
100
AcDbEntity
  8
0
 62
     2
100
AcDbTrace
 10
135.0411432948321
 20
89.4722308669286
 30
0.0
 11
135.0411432948321
 21
88.63889753359526
 31
0.0
 12
132.5411432948321
 22
89.05556420026192
 32
0.0
 13
132.5411432948321
 23
89.05556420026192
 33
0.0
  0
SOLID
  5
5708
330
56C7
100
AcDbEntity
  8
0
 62
     2
100
AcDbTrace
 10
250.041143294832
 20
89.4722308669286
 30
0.0
 11
250.041143294832
 21
88.63889753359526
 31
0.0
 12
252.541143294832
 22
89.05556420026192
 32
0.0
 13
252.541143294832
 23
89.05556420026192
 33
0.0
  0
MTEXT
  5
5709
330
56C7
100
AcDbEntity
  8
0
 62
     3
100
AcDbMText
 10
192.541143294832
 20
91.15585947585248
 30
0.0
 40
3.0
 41
0.0
 71
     5
 72
     1
  1
120
 73
     1
 44
1.0
1001
ACAD
1000
MTEXTBEGIN
1070
    73
1070
     1
1070
    44
1040
1.0
1070
    74
1070
     0
1000
MTEXTEND
  0
POINT
  5
570A
330
56C7
100
AcDbEntity
  8
DEFPOINTS
 62
     0
100
AcDbPoint
 10
132.5411432948321
 20
120.8597597509828
 30
0.0
  0
POINT
  5
570B
330
56C7
100
AcDbEntity
  8
DEFPOINTS
 62
     0
100
AcDbPoint
 10
252.541143294832
 20
119.3527089434141
 30
0.0
  0
POINT
  5
570C
330
56C7
100
AcDbEntity
  8
DEFPOINTS
 62
     0
100
AcDbPoint
 10
252.541143294832
 20
89.05556420026192
 30
0.0
  0
ENDBLK
  5
56C9
330
56C7
100
AcDbEntity
  8
0
100
AcDbBlockEnd
  0
ENDSEC
  0
SECTION
  2
ENTITIES
  0
LWPOLYLINE
  5
107
330
2
100
AcDbEntity
  8
0
100
AcDbPolyline
 90
        2
 70
     0
 43
1.0
 10
349.2999999999993
 20
0.0
 10
349.2999999999993
 20
242.0
  0
LWPOLYLINE
  5
108
330
2
100
AcDbEntity
  8
0
100
AcDbPolyline
 90
        2
 70
     0
 43
1.0
 10
0.5
 20
241.0
 10
0.5
 20
-0.5
  0
LINE
  5
109
330
2
100
AcDbEntity
  8
0
 62
     2
100
AcDbLine
 10
150.9402968419163
 20
12.5
 30
0.0
 11
0.5
 21
12.5
 31
0.0
  0
LWPOLYLINE
  5
10A
330
2
100
AcDbEntity
  8
0
100
AcDbPolyline
 90
        2
 70
     0
 43
1.0
 10
0.0
 20
0.0
 10
349.7999999999994
 20
0.0
  0
LWPOLYLINE
  5
10B
330
2
100
AcDbEntity
  8
0
100
AcDbPolyline
 90
        2
 70
     0
 43
0.5
 10
349.2999999999993
 20
24.0
 10
0.5
 20
24.0
  0
TEXT
  5
10C
330
2
100
AcDbEntity
  8
0
 62
     7
100
AcDbText
 10
1.77561802396849
 20
9.493990896709872
 30
0.0
 40
2.0
  1
KIND
100
AcDbText
  0
TEXT
  5
10D
330
2
100
AcDbEntity
  8
0
 62
     7
100
AcDbText
 10
1.690675817148076
 20
20.70213863111485
 30
0.0
 40
2.0
  1
DESCRIPTION
100
AcDbText
  0
TEXT
  5
10E
330
2
100
AcDbEntity
  8
0
 62
     7
100
AcDbText
 10
80.3907740203649
 20
20.75390639207035
 30
0.0
 40
2.0
  1
MATERIAL
100
AcDbText
  0
TEXT
  5
10F
330
2
100
AcDbEntity
  8
0
 62
     7
100
AcDbText
 10
80.32611596025162
 20
9.626871654648311
 30
0.0
 40
2.0
  1
HARDNESS
100
AcDbText
  0
LINE
  5
110
330
2
100
AcDbEntity
  8
0
 62
     2
100
AcDbLine
 10
79.5
 20
24.0
 30
0.0
 11
79.5
 21
0.0
 31
0.0
  0
LINE
  5
111
330
2
100
AcDbEntity
  8
0
 62
     2
100
AcDbLine
 10
106.5
 20
24.0
 30
0.0
 11
106.5
 21
0.0
 31
0.0
  0
TEXT
  5
112
330
2
100
AcDbEntity
  8
0
 62
     7
100
AcDbText
 10
107.4355084051567
 20
9.460848940782851
 30
0.0
 40
2.0
  1
ORDER MAKER
100
AcDbText
  0
TEXT
  5
113
330
2
100
AcDbEntity
  8
0
 62
     7
100
AcDbText
 10
107.6221638096285
 20
20.57165332765089
 30
0.0
 40
2.0
  1
SURFACE TREATMENT
100
AcDbText
  0
LINE
  5
114
330
2
100
AcDbEntity
  8
0
 62
     2
100
AcDbLine
 10
198.859703158083
 20
16.5
 30
0.0
 11
289.2999999999993
 21
16.5
 31
0.0
  0
LINE
  5
115
330
2
100
AcDbEntity
  8
0
 62
     2
100
AcDbLine
 10
301.7402968419156
 20
7.0
 30
0.0
 11
198.859703158083
 21
7.0
 31
0.0
  0
TEXT
  5
116
330
2
100
AcDbEntity
  8
0
 62
     7
100
AcDbText
 10
199.7292951126801
 20
1.485594785188368
 30
0.0
 40
4.0
  1
LOT NO :
100
AcDbText
  0
LINE
  5
117
330
2
100
AcDbEntity
  8
0
 62
     2
100
AcDbLine
 10
198.859703158083
 20
24.0
 30
0.0
 11
198.859703158083
 21
0.0
 31
0.0
  0
LINE
  5
118
330
2
100
AcDbEntity
  8
0
 62
     2
100
AcDbLine
 10
150.9402968419163
 20
24.0
 30
0.0
 11
150.9402968419163
 21
0.0
 31
0.0
  0
LINE
  5
119
330
2
100
AcDbEntity
  8
0
 62
     2
100
AcDbLine
 10
150.9402968419163
 20
16.5
 30
0.0
 11
198.859703158083
 21
16.5
 31
0.0
  0
TEXT
  5
11A
330
2
100
AcDbEntity
  8
0
 62
     7
100
AcDbText
 10
151.840574089334
 20
19.158473131155
 30
0.0
 40
2.0
  1
DATE
100
AcDbText
  0
TEXT
  5
11B
330
2
100
AcDbEntity
  8
0
 62
     7
100
AcDbText
 10
254.5752770571525
 20
2.269955000430853
 30
0.0
 40
2.0
  1
SCALE
100
AcDbText
  0
LINE
  5
11C
330
2
100
AcDbEntity
  8
0
 62
     2
100
AcDbLine
 10
254.2999999999993
 20
7.0
 30
0.0
 11
254.2999999999993
 21
0.0
 31
0.0
  0
TEXT
  5
11D
330
2
100
AcDbEntity
  8
0
  6
Continuous
 62
     7
100
AcDbText
 10
214.0501246930344
 20
17.6589835237819
 30
0.0
 40
4.0
  1
SSK CONTROL NUMBER
100
AcDbText
  0
TEXT
  5
11E
330
2
100
AcDbEntity
  8
0
 62
     7
100
AcDbText
 10
330.4903347100443
 20
20.88389332104907
 30
0.0
 40
2.0
  1
APPROVE
100
AcDbText
  0
LINE
  5
11F
330
2
100
AcDbEntity
  8
0
 62
     2
100
AcDbLine
 10
301.7402968419156
 20
7.0
 30
0.0
 11
349.2999999999993
 21
7.0
 31
0.0
  0
LINE
  5
120
330
2
100
AcDbEntity
  8
0
 62
     2
100
AcDbLine
 10
329.2999999999993
 20
24.25
 30
0.0
 11
329.2999999999993
 21
7.0
 31
0.0
  0
LINE
  5
121
330
2
100
AcDbEntity
  8
0
 62
     2
100
AcDbLine
 10
309.2999999999993
 20
24.25
 30
0.0
 11
309.2999999999993
 21
7.0
 31
0.0
  0
LINE
  5
122
330
2
100
AcDbEntity
  8
0
 62
     2
100
AcDbLine
 10
289.2999999999993
 20
24.25
 30
0.0
 11
289.2999999999993
 21
7.0
 31
0.0
  0
TEXT
  5
123
330
2
100
AcDbEntity
  8
0
 62
     7
100
AcDbText
 10
290.0454977608679
 20
2.25741143783307
 30
0.0
 40
2.0
  1
CUTTING SIZE :
100
AcDbText
  0
LINE
  5
124
330
2
100
AcDbEntity
  8
0
 62
     2
100
AcDbLine
 10
289.2999999999993
 20
7.0
 30
0.0
 11
289.2999999999993
 21
0.0
 31
0.0
  0
TEXT
  5
125
330
2
100
AcDbEntity
  8
0
 62
     7
100
AcDbText
 10
290.8372266287097
 20
20.7469419072163
 30
0.0
 40
2.0
  1
DESIGN
100
AcDbText
  0
TEXT
  5
126
330
2
100
AcDbEntity
  8
0
 62
     7
100
AcDbText
 10
310.2693814868562
 20
20.88389332104907
 30
0.0
 40
2.0
  1
CHECK
100
AcDbText
  0
LWPOLYLINE
  5
127
330
2
100
AcDbEntity
  8
0
100
AcDbPolyline
 90
        2
 70
     0
 43
1.0
 10
0.0
 20
241.5
 10
349.7850032782043
 20
241.5
  0
LINE
  5
128
330
2
100
AcDbEntity
  8
0
  6
Continuous
 62
     2
100
AcDbLine
 10
0.5
 20
216.1238507014641
 30
0.0
 11
80.5
 21
216.1238507014641
 31
0.0
  0
LINE
  5
129
330
2
100
AcDbEntity
  8
0
  6
Continuous
 62
     2
100
AcDbLine
 10
10.5
 20
228.7
 30
0.0
 11
80.5
 21
228.6999999999998
 31
0.0
  0
LINE
  5
12A
330
2
100
AcDbEntity
  8
0
  6
Continuous
 62
     2
100
AcDbLine
 10
10.5
 20
222.2999999999999
 30
0.0
 11
80.5
 21
222.2999999999999
 31
0.0
  0
LINE
  5
12B
330
2
100
AcDbEntity
  8
0
  6
Continuous
 62
     2
100
AcDbLine
 10
10.5
 20
235.0999999999999
 30
0.0
 11
80.5
 21
235.0999999999999
 31
0.0
  0
TEXT
  5
12C
330
2
100
AcDbEntity
  8
0
  6
Continuous
100
AcDbText
 10
13.98536966858592
 20
217.8543913088049
 30
0.0
 40
3.0
  1
전장
100
AcDbText
  0
LINE
  5
12D
330
2
100
AcDbEntity
  8
0
  6
Continuous
 62
     2
100
AcDbLine
 10
24.17135975013663
 20
228.9238507014643
 30
0.0
 11
24.17135975013663
 21
216.1238507014641
 31
0.0
  0
TEXT
  5
12E
330
2
100
AcDbEntity
  8
0
  6
Continuous
100
AcDbText
 10
3.164767608170221
 20
218.2742179534373
 30
0.0
 40
3.0
  1
mm
100
AcDbText
  0
LINE
  5
12F
330
2
100
AcDbEntity
  8
0
  6
Continuous
 62
     2
100
AcDbLine
 10
10.5
 20
216.1238507014641
 30
0.0
 11
10.5
 21
241.5
 31
0.0
  0
LINE
  5
130
330
2
100
AcDbEntity
  8
0
  6
Continuous
 62
     2
100
AcDbLine
 10
24.17135975013663
 20
241.5
 30
0.0
 11
24.17135975013663
 21
222.2999999999999
 31
0.0
  0
TEXT
  5
131
330
2
100
AcDbEntity
  8
0
  6
Continuous
100
AcDbText
 10
4.21593199160088
 20
231.2461905260552
 30
0.0
 40
3.0
  1
본
100
AcDbText
  0
TEXT
  5
132
330
2
100
AcDbEntity
  8
0
  6
Continuous
100
AcDbText
 10
4.21593199160088
 20
222.2461905260552
 30
0.0
 40
3.0
  1
차
100
AcDbText
  0
TEXT
  5
133
330
2
100
AcDbEntity
  8
0
  6
Continuous
100
AcDbText
 10
4.21593199160088
 20
226.7461905260552
 30
0.0
 40
3.0
  1
공
100
AcDbText
  0
TEXT
  5
134
330
2
100
AcDbEntity
  8
0
  6
Continuous
100
AcDbText
 10
13.98536966858592
 20
224.022246368974
 30
0.0
 40
3.0
  1
외경
100
AcDbText
  0
TEXT
  5
135
330
2
100
AcDbEntity
  8
0
  6
Continuous
100
AcDbText
 10
13.98536966858592
 20
230.2633509700074
 30
0.0
 40
3.0
  1
내경
100
AcDbText
  0
TEXT
  5
136
330
2
100
AcDbEntity
  8
0
  6
Continuous
100
AcDbText
 10
4.21593199160088
 20
235.7461905260552
 30
0.0
 40
3.0
  1
기
100
AcDbText
  0
TEXT
  5
137
330
2
100
AcDbEntity
  8
0
  6
Continuous
100
AcDbText
 10
13.98536966858592
 20
236.5044555710406
 30
0.0
 40
3.0
  1
구분 
100
AcDbText
  0
TEXT
  5
138
330
2
100
AcDbEntity
  8
0
  6
Continuous
 62
     3
100
AcDbText
 10
67.54848688752281
 20
217.7577750216367
 30
0.0
 40
3.0
  1
%%P0.35
100
AcDbText
  0
LINE
  5
139
330
2
100
AcDbEntity
  8
0
  6
Continuous
 62
     2
100
AcDbLine
 10
80.5
 20
241.5
 30
0.0
 11
80.5
 21
216.1238507014641
 31
0.0
  0
TEXT
  5
13A
330
2
100
AcDbEntity
  8
0
  6
Continuous
 62
     3
100
AcDbText
 10
50.83685703793161
 20
217.7577750216367
 30
0.0
 40
3.0
  1
%%P0.25
100
AcDbText
  0
TEXT
  5
13B
330
2
100
AcDbEntity
  8
0
  6
Continuous
 62
     3
100
AcDbText
 10
25.45606948151726
 20
217.7577750216367
 30
0.0
 40
3.0
  1
%%P0.1
100
AcDbText
  0
TEXT
  5
13C
330
2
100
AcDbEntity
  8
0
  6
Continuous
 62
     3
100
AcDbText
 10
36.3186287580229
 20
217.7577750216367
 30
0.0
 40
3.0
  1
%%P0.15
100
AcDbText
  0
LINE
  5
13D
330
2
100
AcDbEntity
  8
0
  6
Continuous
 62
     2
100
AcDbLine
 10
33.60298851980224
 20
241.5
 30
0.0
 11
33.60298851980224
 21
216.1238507014641
 31
0.0
  0
LINE
  5
13E
330
2
100
AcDbEntity
  8
0
  6
Continuous
 62
     2
100
AcDbLine
 10
47.59897896936124
 20
241.5
 30
0.0
 11
47.59897896936124
 21
216.1238507014641
 31
0.0
  0
LINE
  5
13F
330
2
100
AcDbEntity
  8
0
  6
Continuous
 62
     2
100
AcDbLine
 10
63.47502694928515
 20
241.5
 30
0.0
 11
63.47502694928515
 21
216.1238507014641
 31
0.0
  0
TEXT
  5
140
330
2
100
AcDbEntity
  8
0
  6
Continuous
 62
     7
100
AcDbText
 10
46.07791313761663
 20
236.6565042912882
 30
0.0
 40
3.0
  1
 100-250
100
AcDbText
  0
TEXT
  5
141
330
2
100
AcDbEntity
  8
0
  6
Continuous
 62
     3
100
AcDbText
 10
51.98578210872256
 20
232.0612640121638
 30
0.0
 40
2.0
  1
+0.25
100
AcDbText
  0
TEXT
  5
142
330
2
100
AcDbEntity
  8
0
  6
Continuous
 62
     3
100
AcDbText
 10
52.19467757613893
 20
225.7969618979166
 30
0.0
 40
2.0
  1
+0.0
100
AcDbText
  0
TEXT
  5
143
330
2
100
AcDbEntity
  8
0
  6
Continuous
 62
     3
100
AcDbText
 10
52.19467757613893
 20
223.2912414152556
 30
0.0
 40
2.0
  1
-0.25
100
AcDbText
  0
TEXT
  5
144
330
2
100
AcDbEntity
  8
0
  6
Continuous
 62
     3
100
AcDbText
 10
51.98578210872256
 20
229.5555435295028
 30
0.0
 40
2.0
  1
-0.0
100
AcDbText
  0
TEXT
  5
145
330
2
100
AcDbEntity
  8
0
  6
Continuous
 62
     3
100
AcDbText
 10
37.57200072433079
 20
232.0612640121638
 30
0.0
 40
2.0
  1
+0.15
100
AcDbText
  0
TEXT
  5
146
330
2
100
AcDbEntity
  8
0
  6
Continuous
 62
     3
100
AcDbText
 10
37.57200072433079
 20
225.6925570542826
 30
0.0
 40
2.0
  1
+0.0
100
AcDbText
  0
TEXT
  5
147
330
2
100
AcDbEntity
  8
0
  6
Continuous
 62
     3
100
AcDbText
 10
37.57200072433079
 20
223.1868365716214
 30
0.0
 40
2.0
  1
-0.15
100
AcDbText
  0
TEXT
  5
148
330
2
100
AcDbEntity
  8
0
  6
Continuous
 62
     3
100
AcDbText
 10
37.57200072433079
 20
229.5555435295028
 30
0.0
 40
2.0
  1
-0.0
100
AcDbText
  0
TEXT
  5
149
330
2
100
AcDbEntity
  8
0
  6
Continuous
 62
     3
100
AcDbText
 10
26.50054598040879
 20
225.6925570542826
 30
0.0
 40
2.0
  1
+0.0
100
AcDbText
  0
TEXT
  5
14A
330
2
100
AcDbEntity
  8
0
  6
Continuous
 62
     3
100
AcDbText
 10
26.50054598040879
 20
223.1868365716214
 30
0.0
 40
2.0
  1
-0.1
100
AcDbText
  0
TEXT
  5
14B
330
2
100
AcDbEntity
  8
0
  6
Continuous
 62
     3
100
AcDbText
 10
26.39609824670151
 20
232.0612640121638
 30
0.0
 40
2.0
  1
+0.1
100
AcDbText
  0
TEXT
  5
14C
330
2
100
AcDbEntity
  8
0
  6
Continuous
 62
     3
100
AcDbText
 10
26.50054598040879
 20
229.5555435295028
 30
0.0
 40
2.0
  1
-0.0
100
AcDbText
  0
TEXT
  5
14D
330
2
100
AcDbEntity
  8
0
  6
Continuous
 62
     7
100
AcDbText
 10
34.36026770508032
 20
236.6565042912882
 30
0.0
 40
3.0
  1
50-100
100
AcDbText
  0
TEXT
  5
14E
330
2
100
AcDbEntity
  8
0
  6
Continuous
 62
     7
100
AcDbText
 10
24.79814577365142
 20
236.6565042912882
 30
0.0
 40
3.0
  1
1-50
100
AcDbText
  0
TEXT
  5
14F
330
2
100
AcDbEntity
  8
0
  6
Continuous
 62
     3
100
AcDbText
 10
68.94511584458451
 20
232.0612640121638
 30
0.0
 40
2.0
  1
+0.35
100
AcDbText
  0
TEXT
  5
150
330
2
100
AcDbEntity
  8
0
  6
Continuous
 62
     3
100
AcDbText
 10
69.01075432124708
 20
225.7969618979166
 30
0.0
 40
2.0
  1
+0.0
100
AcDbText
  0
TEXT
  5
151
330
2
100
AcDbEntity
  8
0
  6
Continuous
 62
     3
100
AcDbText
 10
69.01075432124708
 20
223.2912414152556
 30
0.0
 40
2.0
  1
-0.35
100
AcDbText
  0
TEXT
  5
152
330
2
100
AcDbEntity
  8
0
  6
Continuous
 62
     3
100
AcDbText
 10
68.94511584458451
 20
229.5555435295028
 30
0.0
 40
2.0
  1
-0.0
100
AcDbText
  0
TEXT
  5
153
330
2
100
AcDbEntity
  8
0
  6
Continuous
 62
     7
100
AcDbText
 10
64.37116836681162
 20
236.6565042912882
 30
0.0
 40
3.0
  1
250-500
100
AcDbText
  0
TEXT
  5
154
330
2
100
AcDbEntity
  8
0
 62
     7
100
AcDbText
 10
270.3469778881045
 20
236.7501487527704
 30
0.0
 40
2.5
  1
NO.
100
AcDbText
  0
LINE
  5
155
330
2
100
AcDbEntity
  8
0
  6
Continuous
 62
     2
100
AcDbLine
 10
269.2999999999993
 20
222.2999999999999
 30
0.0
 11
349.2999999999993
 21
222.2999999999999
 31
0.0
  0
LINE
  5
156
330
2
100
AcDbEntity
  8
0
  6
Continuous
 62
     2
100
AcDbLine
 10
269.2999999999993
 20
216.1238507014641
 30
0.0
 11
349.2999999999993
 21
216.1238507014641
 31
0.0
  0
LINE
  5
157
330
2
100
AcDbEntity
  8
0
  6
Continuous
 62
     2
100
AcDbLine
 10
269.2999999999993
 20
228.6999999999991
 30
0.0
 11
349.2999999999993
 21
228.6999999999989
 31
0.0
  0
LINE
  5
158
330
2
100
AcDbEntity
  8
0
  6
Continuous
 62
     2
100
AcDbLine
 10
269.2999999999993
 20
235.0999999999999
 30
0.0
 11
349.2999999999993
 21
235.0999999999999
 31
0.0
  0
TEXT
  5
159
330
2
100
AcDbEntity
  8
0
 62
     7
100
AcDbText
 10
271.360494268567
 20
218.2400725705427
 30
0.0
 40
2.5
  1
3.
100
AcDbText
  0
LINE
  5
15A
330
2
100
AcDbEntity
  8
0
 62
     2
100
AcDbLine
 10
269.2999999999993
 20
241.5
 30
0.0
 11
269.2999999999993
 21
216.1238507014641
 31
0.0
  0
TEXT
  5
15B
330
2
100
AcDbEntity
  8
0
 62
     7
100
AcDbText
 10
271.360494268567
 20
224.0855929990733
 30
0.0
 40
2.5
  1
2.
100
AcDbText
  0
TEXT
  5
15C
330
2
100
AcDbEntity
  8
0
 62
     7
100
AcDbText
 10
271.360494268567
 20
230.7948680755489
 30
0.0
 40
2.5
  1
1.
100
AcDbText
  0
LINE
  5
15D
330
2
100
AcDbEntity
  8
0
 62
     2
100
AcDbLine
 10
331.2999999999993
 20
241.5
 30
0.0
 11
331.2999999999993
 21
216.1238507014641
 31
0.0
  0
LINE
  5
15E
330
2
100
AcDbEntity
  8
0
 62
     2
100
AcDbLine
 10
317.2999999999993
 20
241.5
 30
0.0
 11
317.2999999999993
 21
216.1238507014641
 31
0.0
  0
LINE
  5
15F
330
2
100
AcDbEntity
  8
0
 62
     2
100
AcDbLine
 10
275.2999999999993
 20
241.5
 30
0.0
 11
275.2999999999993
 21
216.1238507014641
 31
0.0
  0
TEXT
  5
160
330
2
100
AcDbEntity
  8
0
 62
     7
100
AcDbText
 10
333.8388271456024
 20
236.6451559764227
 30
0.0
 40
2.5
  1
DEVISER
100
AcDbText
  0
TEXT
  5
161
330
2
100
AcDbEntity
  8
0
 62
     7
100
AcDbText
 10
287.8764354435734
 20
236.5401664710821
 30
0.0
 40
2.5
  1
REVISIONS
100
AcDbText
  0
TEXT
  5
162
330
2
100
AcDbEntity
  8
0
 62
     7
100
AcDbText
 10
320.1493574442229
 20
236.5401664710821
 30
0.0
 40
2.5
  1
DATE
100
AcDbText
  0
TEXT
  5
163
330
2
100
AcDbEntity
  8
0
  6
Continuous
 62
     3
100
AcDbText
 10
212.3819591930673
 20
9.521935078108072
 30
0.0
 40
4.0
  1
CAT40AD/B-SYTER33-120
100
AcDbText
  0
LINE
  5
521D
330
2
100
AcDbEntity
  8
0
  6
CENTER
 62
     2
100
AcDbLine
 10
62.29114329483263
 20
143.0847597509828
 30
0.0
 11
168.8403627142154
 21
143.0847597509828
 31
0.0
  0
LINE
  5
5220
330
2
100
AcDbEntity
  8
0
  6
Continuous
 62
     7
100
AcDbLine
 10
132.5411432948325
 20
165.3097597509827
 30
0.0
 11
65.14683641097519
 21
155.4814239713286
 31
0.0
1001
ACAD
1000
ASC_BOUNDS
1002
{
1070
    19
1002
}
  0
LINE
  5
5222
330
2
100
AcDbEntity
  8
0
  6
Continuous
 62
     7
100
AcDbLine
 10
132.5411432948325
 20
120.8597597509828
 30
0.0
 11
65.14683641097531
 21
130.6880955306369
 31
0.0
1001
ACAD
1000
ASC_BOUNDS
1002
{
1070
    19
1002
}
  0
LINE
  5
522C
330
2
100
AcDbEntity
  8
0
  6
Continuous
100
AcDbLine
 10
64.29114329483264
 20
143.0847597509828
 30
0.0
 11
64.29114329483264
 21
131.6776285130439
 31
0.0
  0
ARC
  5
522D
330
2
100
AcDbEntity
  8
0
  6
Continuous
100
AcDbCircle
 10
65.29114329483263
 20
131.6776285130439
 30
0.0
 40
1.0
100
AcDbArc
 50
180.0
 51
261.7028555636873
1001
GENIUS_GENODEF_13
1002
{
1000
HIER
1070
     0
1002
}
1002
{
1000
MANEDIT
1070
     0
1002
}
1002
{
1000
NOSEL
1070
     0
1002
}
1002
{
1000
BEHIND
1070
     0
1002
}
1002
{
1000
OTHER
1070
     0
1002
}
1002
{
1000
REACTOR
1002
}
1001
GENIUS_GENOBJ-N-FIL_13
1002
{
1000
OWNER
1000
GEN
1002
}
  0
LINE
  5
5230
330
2
100
AcDbEntity
  8
0
  6
Continuous
100
AcDbLine
 10
64.29114329483264
 20
143.0847597509828
 30
0.0
 11
64.29114329483264
 21
154.4918909889216
 31
0.0
  0
POINT
  5
5231
330
2
100
AcDbEntity
  8
DEFPOINTS
  6
ByBlock
 62
     0
100
AcDbPoint
 10
64.29114329483264
 20
143.0847597509828
 30
0.0
  0
ARC
  5
5233
330
2
100
AcDbEntity
  8
0
  6
Continuous
100
AcDbCircle
 10
65.29114329483263
 20
154.4918909889216
 30
0.0
 40
1.0
100
AcDbArc
 50
98.29714443631273
 51
180.0
1001
GENIUS_GENODEF_13
1002
{
1000
HIER
1070
     0
1002
}
1002
{
1000
MANEDIT
1070
     0
1002
}
1002
{
1000
NOSEL
1070
     0
1002
}
1002
{
1000
BEHIND
1070
     0
1002
}
1002
{
1000
OTHER
1070
     0
1002
}
1002
{
1000
REACTOR
1002
}
1001
GENIUS_GENOBJ-N-FIL_13
1002
{
1000
OWNER
1000
GEN
1002
}
  0
LINE
  5
523A
330
2
100
AcDbEntity
  8
0
  6
Continuous
100
AcDbLine
 10
139.8484591261891
 20
111.3347597509828
 30
0.0
 11
136.2161432948326
 21
111.3347597509827
 31
0.0
  0
LINE
  5
523B
330
2
100
AcDbEntity
  8
0
  6
Continuous
100
AcDbLine
 10
132.5411432948325
 20
120.8597597509828
 30
0.0
 11
132.5411432948325
 21
143.0847597509828
 31
0.0
  0
LINE
  5
525C
330
2
100
AcDbEntity
  8
0
  6
Continuous
100
AcDbLine
 10
140.1522342607842
 20
111.4265114605192
 30
0.0
 11
140.152234260784
 21
134.9097597509825
 31
0.0
  0
LINE
  5
525D
330
2
100
AcDbEntity
  8
0
  6
Continuous
100
AcDbLine
 10
141.7486432948326
 20
134.9097597509826
 30
0.0
 11
141.7486432948325
 21
114.1206059173075
 31
0.0
  0
LINE
  5
525E
330
2
100
AcDbEntity
  8
0
  6
Continuous
100
AcDbLine
 10
147.2343523288809
 20
111.4265114605192
 30
0.0
 11
147.234352328881
 21
134.9097597509826
 31
0.0
  0
LINE
  5
525F
330
2
100
AcDbEntity
  8
0
  6
Continuous
100
AcDbLine
 10
145.5840432948326
 20
134.9097597509826
 30
0.0
 11
145.5840432948327
 21
114.1206059173075
 31
0.0
  0
LINE
  5
5260
330
2
100
AcDbEntity
  8
0
  6
Continuous
100
AcDbLine
 10
151.0911432948324
 20
111.3347597509827
 30
0.0
 11
147.478027463476
 21
111.3347597509827
 31
0.0
  0
POINT
  5
5261
330
2
100
AcDbEntity
  8
DEFPOINTS
  6
ByBlock
 62
     0
100
AcDbPoint
 10
150.5911432948326
 20
111.3347597509828
 30
0.0
  0
LINE
  5
5263
330
2
100
AcDbEntity
  8
0
  6
Continuous
100
AcDbLine
 10
141.7663432948327
 20
114.9347597509829
 30
0.0
 11
145.5663432948324
 21
114.9347597509829
 31
0.0
  0
LINE
  5
5264
330
2
100
AcDbEntity
  8
0
  6
Continuous
100
AcDbLine
 10
141.7486432948325
 20
114.1206059173075
 30
0.0
 11
140.2845718280814
 21
111.5847597509828
 31
0.0
  0
ARC
  5
5265
330
2
100
AcDbEntity
  8
0
  6
Continuous
100
AcDbCircle
 10
139.8515591261891
 20
111.8347597509828
 30
0.0
 40
0.5
100
AcDbArc
 50
270.0
 51
330.0000000000004
  0
LINE
  5
5267
330
2
100
AcDbEntity
  8
0
  6
Continuous
100
AcDbLine
 10
145.5840432948327
 20
114.1206059173075
 30
0.0
 11
147.0481147615837
 21
111.5847597509828
 31
0.0
  0
POINT
  5
526A
330
2
100
AcDbEntity
  8
DEFPOINTS
  6
ByBlock
 62
     0
100
AcDbPoint
 10
145.6082432948324
 20
114.9347597509829
 30
0.0
  0
ARC
  5
526B
330
2
100
AcDbEntity
  8
0
  6
Continuous
100
AcDbCircle
 10
147.481127463476
 20
111.8347597509828
 30
0.0
 40
0.5
100
AcDbArc
 50
209.9999999999995
 51
270.0
  0
POINT
  5
5274
330
2
100
AcDbEntity
  8
DEFPOINTS
  6
ByBlock
 62
     0
100
AcDbPoint
 10
167.0411432948326
 20
165.3097597509828
 30
0.0
  0
LINE
  5
5279
330
2
100
AcDbEntity
  8
0
  6
Continuous
100
AcDbLine
 10
139.8484591261891
 20
174.8347597509828
 30
0.0
 11
136.2161432948326
 21
174.8347597509828
 31
0.0
  0
LINE
  5
5291
330
2
100
AcDbEntity
  8
0
  6
Continuous
100
AcDbLine
 10
141.7663432948327
 20
171.2347597509828
 30
0.0
 11
145.5663432948324
 21
171.2347597509828
 31
0.0
  0
ARC
  5
5293
330
2
100
AcDbEntity
  8
0
  6
Continuous
100
AcDbCircle
 10
139.8515591261891
 20
174.3347597509828
 30
0.0
 40
0.5
100
AcDbArc
 50
29.99999999999963
 51
90.0
  0
LINE
  5
5294
330
2
100
AcDbEntity
  8
0
  6
Continuous
100
AcDbLine
 10
141.7486432948298
 20
151.259759750983
 30
0.0
 11
141.7486432948327
 21
172.0489135846578
 31
0.0
  0
LINE
  5
5295
330
2
100
AcDbEntity
  8
0
  6
Continuous
100
AcDbLine
 10
141.7486432948326
 20
172.0489135846579
 30
0.0
 11
140.2845718280814
 21
174.5847597509828
 31
0.0
  0
LINE
  5
5299
330
2
100
AcDbEntity
  8
0
  6
Continuous
100
AcDbLine
 10
145.5840432948325
 20
151.259759750983
 30
0.0
 11
145.5840432948325
 21
172.0489135846578
 31
0.0
  0
POINT
  5
529A
330
2
100
AcDbEntity
  8
DEFPOINTS
  6
ByBlock
 62
     0
100
AcDbPoint
 10
145.6082432948324
 20
171.2347597509828
 30
0.0
  0
LINE
  5
529B
330
2
100
AcDbEntity
  8
0
  6
Continuous
100
AcDbLine
 10
145.5840432948325
 20
172.048913584658
 30
0.0
 11
147.0481147615837
 21
174.5847597509828
 31
0.0
  0
ARC
  5
529C
330
2
100
AcDbEntity
  8
0
  6
Continuous
100
AcDbCircle
 10
147.481127463476
 20
174.3347597509828
 30
0.0
 40
0.5
100
AcDbArc
 50
90.0
 51
150.0000000000004
  0
LINE
  5
529D
330
2
100
AcDbEntity
  8
0
  6
Continuous
100
AcDbLine
 10
151.0911432948324
 20
174.8347597509828
 30
0.0
 11
147.478027463476
 21
174.8347597509828
 31
0.0
  0
LINE
  5
52C0
330
2
100
AcDbEntity
  8
0
  6
Continuous
100
AcDbLine
 10
151.5911432948326
 20
111.8347597509828
 30
0.0
 11
151.5911432948326
 21
143.0847597509828
 31
0.0
  0
LINE
  5
52C3
330
2
100
AcDbEntity
  8
0
  6
Continuous
100
AcDbLine
 10
151.5911432948326
 20
111.8347597509828
 30
0.0
 11
151.0911432948325
 21
111.3347597509828
 31
0.0
  0
LINE
  5
52C7
330
2
100
AcDbEntity
  8
0
  6
Continuous
100
AcDbLine
 10
135.7161432948322
 20
143.0847597509828
 30
0.0
 11
135.7161432948326
 21
174.3347597509828
 31
0.0
  0
LINE
  5
52C8
330
2
100
AcDbEntity
  8
0
  6
Continuous
100
AcDbLine
 10
135.7161432948325
 20
143.0847597509828
 30
0.0
 11
135.7161432948326
 21
111.8347597509828
 31
0.0
  0
ARC
  5
52C9
330
2
100
AcDbEntity
  8
0
  6
Continuous
100
AcDbCircle
 10
135.2161432948325
 20
120.7840319913465
 30
0.0
 40
0.5
100
AcDbArc
 50
0.0
 51
90.0
  0
LINE
  5
52CA
330
2
100
AcDbEntity
  8
0
  6
Continuous
100
AcDbLine
 10
132.5411432948325
 20
120.8597597509828
 30
0.0
 11
134.1245488521112
 21
121.2840319913466
 31
0.0
  0
LINE
  5
52CB
330
2
100
AcDbEntity
  8
0
  6
Continuous
100
AcDbLine
 10
134.1245488521112
 20
121.2840319913466
 30
0.0
 11
135.2161432948325
 21
121.2840319913466
 31
0.0
  0
ARC
  5
52CC
330
2
100
AcDbEntity
  8
0
  6
Continuous
100
AcDbCircle
 10
136.2161432948326
 20
111.8347597509828
 30
0.0
 40
0.5
100
AcDbArc
 50
180.0
 51
270.0
  0
ARC
  5
52CD
330
2
100
AcDbEntity
  8
0
  6
Continuous
100
AcDbCircle
 10
135.2161432948325
 20
165.3854875106189
 30
0.0
 40
0.5
100
AcDbArc
 50
270.0
 51
0.0
  0
LINE
  5
52CE
330
2
100
AcDbEntity
  8
0
  6
Continuous
100
AcDbLine
 10
134.1245488521112
 20
164.8854875106189
 30
0.0
 11
135.2161432948325
 21
164.8854875106189
 31
0.0
  0
LINE
  5
52CF
330
2
100
AcDbEntity
  8
0
  6
Continuous
100
AcDbLine
 10
132.5411432948325
 20
165.3097597509827
 30
0.0
 11
134.1245488521112
 21
164.8854875106189
 31
0.0
  0
ARC
  5
52D0
330
2
100
AcDbEntity
  8
0
  6
Continuous
100
AcDbCircle
 10
136.2161432948326
 20
174.3347597509828
 30
0.0
 40
0.5
100
AcDbArc
 50
90.0
 51
180.0
  0
LINE
  5
52D1
330
2
100
AcDbEntity
  8
0
  6
Continuous
 62
     3
100
AcDbLine
 10
134.1245488521112
 20
121.2840319913466
 30
0.0
 11
134.1245488521112
 21
143.0847597509828
 31
0.0
  0
LINE
  5
561D
330
2
100
AcDbEntity
  8
0
100
AcDbLine
 10
168.5411432948322
 20
174.0847597509828
 30
0.0
 11
171.5411432948322
 21
174.0847597509828
 31
0.0
1001
ACAD
1000
ASC_BOUNDS
1002
{
1070
    19
1002
}
  0
ARC
  5
561E
330
2
100
AcDbEntity
  8
0
  6
Continuous
100
AcDbCircle
 10
168.5411432948322
 20
173.0847597509828
 30
0.0
 40
1.0
100
AcDbArc
 50
90.0
 51
180.0
1001
ACAD
1000
ASC_BOUNDS
1002
{
1070
    19
1002
}
  0
LINE
  5
561F
330
2
100
AcDbEntity
  8
0
100
AcDbLine
 10
152.5911432948323
 20
168.0847597509828
 30
0.0
 11
166.5411432948322
 21
168.0847597509828
 31
0.0
1001
ACAD
1000
ASC_BOUNDS
1002
{
1070
    19
1002
}
  0
LINE
  5
5620
330
2
100
AcDbEntity
  8
0
  6
Continuous
100
AcDbLine
 10
167.5411432948322
 20
143.0847597509828
 30
0.0
 11
167.5411432948322
 21
173.0847597509828
 31
0.0
  0
ARC
  5
5621
330
2
100
AcDbEntity
  8
0
  6
Continuous
100
AcDbCircle
 10
166.5411432948322
 20
169.0847597509828
 30
0.0
 40
1.0
100
AcDbArc
 50
270.0
 51
0.0
  0
LINE
  5
5622
330
2
100
AcDbEntity
  8
0
  6
Continuous
100
AcDbLine
 10
172.0411432948321
 20
172.0847597509827
 30
0.0
 11
172.0411432948321
 21
173.5847597509828
 31
0.0
  0
LINE
  5
5623
330
2
100
AcDbEntity
  8
0
  6
Continuous
100
AcDbLine
 10
171.5411432948322
 20
174.0847597509828
 30
0.0
 11
172.0411432948321
 21
173.5847597509828
 31
0.0
  0
LINE
  5
5624
330
2
100
AcDbEntity
  8
0
100
AcDbLine
 10
168.5411432948322
 20
112.0847597509828
 30
0.0
 11
171.5411432948322
 21
112.0847597509828
 31
0.0
1001
ACAD
1000
ASC_BOUNDS
1002
{
1070
    19
1002
}
  0
ARC
  5
5625
330
2
100
AcDbEntity
  8
0
  6
Continuous
100
AcDbCircle
 10
168.5411432948322
 20
113.0847597509828
 30
0.0
 40
1.0
100
AcDbArc
 50
180.0
 51
270.0
1001
ACAD
1000
ASC_BOUNDS
1002
{
1070
    19
1002
}
  0
LINE
  5
5626
330
2
100
AcDbEntity
  8
0
100
AcDbLine
 10
152.5911432948323
 20
118.0847597509828
 30
0.0
 11
166.5411432948322
 21
118.0847597509828
 31
0.0
1001
ACAD
1000
ASC_BOUNDS
1002
{
1070
    19
1002
}
  0
LINE
  5
5627
330
2
100
AcDbEntity
  8
0
  6
Continuous
100
AcDbLine
 10
167.5411432948319
 20
143.0847597509828
 30
0.0
 11
167.5411432948322
 21
113.0847597509828
 31
0.0
  0
ARC
  5
5628
330
2
100
AcDbEntity
  8
0
  6
Continuous
100
AcDbCircle
 10
166.5411432948322
 20
117.0847597509828
 30
0.0
 40
1.0
100
AcDbArc
 50
0.0
 51
90.0
  0
LINE
  5
5629
330
2
100
AcDbEntity
  8
0
  6
Continuous
100
AcDbLine
 10
171.5411432948322
 20
112.0847597509828
 30
0.0
 11
172.0411432948321
 21
112.5847597509828
 31
0.0
  0
ARC
  5
562B
330
2
100
AcDbEntity
  8
0
  6
Continuous
100
AcDbCircle
 10
152.5911432948323
 20
117.0847597509828
 30
0.0
 40
1.0
100
AcDbArc
 50
90.0
 51
180.0
  0
LINE
  5
562C
330
2
100
AcDbEntity
  8
0
  6
Continuous
100
AcDbLine
 10
151.5911432948326
 20
134.9097597509826
 30
0.0
 11
135.7161432948325
 21
134.9097597509825
 31
0.0
  0
ARC
  5
562D
330
2
100
AcDbEntity
  8
0
  6
Continuous
100
AcDbCircle
 10
143.6811432948324
 20
143.0847597509827
 30
0.0
 40
4.7625
100
AcDbArc
 50
180.0
 51
0.0
  0
LINE
  5
562F
330
2
100
AcDbEntity
  8
0
  6
Continuous
100
AcDbLine
 10
172.0411432948321
 20
143.0847597509828
 30
0.0
 11
172.0411432948321
 21
112.5847597509828
 31
0.0
  0
LINE
  5
5630
330
2
100
AcDbEntity
  8
0
  6
Continuous
100
AcDbLine
 10
171.5411432948321
 20
112.0847597509828
 30
0.0
 11
172.0411432948321
 21
112.5847597509828
 31
0.0
  0
LINE
  5
5631
330
2
100
AcDbEntity
  8
0
  6
Continuous
100
AcDbLine
 10
171.5411432948321
 20
112.0847597509828
 30
0.0
 11
171.5411432948321
 21
143.0847597509828
 31
0.0
  0
LINE
  5
5632
330
2
100
AcDbEntity
  8
0
  6
Continuous
100
AcDbLine
 10
173.0411432948305
 20
143.0847597509828
 30
0.0
 11
173.0411432948296
 21
112.5847597509844
 31
0.0
  0
LINE
  5
5633
330
2
100
AcDbEntity
  8
0
  6
Continuous
100
AcDbLine
 10
192.0411432948332
 20
112.5847597509851
 30
0.0
 11
192.0411432948323
 21
143.0847597509828
 31
0.0
  0
LINE
  5
5634
330
2
100
AcDbEntity
  8
0
  6
Continuous
100
AcDbLine
 10
173.5411432948314
 20
112.0847597509826
 30
0.0
 11
173.0411432948314
 21
112.5847597509826
 31
0.0
  0
LINE
  5
5635
330
2
100
AcDbEntity
  8
0
  6
Continuous
100
AcDbLine
 10
191.5411432948314
 20
112.0847597509833
 30
0.0
 11
192.0411432948314
 21
112.5847597509833
 31
0.0
  0
LINE
  5
5636
330
2
100
AcDbEntity
  8
0
  6
Continuous
100
AcDbLine
 10
173.5411432948314
 20
112.0847597509826
 30
0.0
 11
191.5411432948314
 21
112.0847597509833
 31
0.0
  0
LINE
  5
5637
330
2
100
AcDbEntity
  8
0
  6
Continuous
100
AcDbLine
 10
173.5411432948314
 20
112.0847597509826
 30
0.0
 11
173.5411432948312
 21
143.0847597509828
 31
0.0
  0
LINE
  5
5638
330
2
100
AcDbEntity
  8
0
  6
Continuous
100
AcDbLine
 10
191.5411432948314
 20
112.0847597509833
 30
0.0
 11
191.5411432948313
 21
143.0847597509828
 31
0.0
  0
LINE
  5
5639
330
2
100
AcDbEntity
  8
0
  6
Continuous
100
AcDbLine
 10
192.5411432948323
 20
112.0847597509827
 30
0.0
 11
212.7996914105052
 21
112.0847597509827
 31
0.0
  0
LINE
  5
563A
330
2
100
AcDbEntity
  8
0
  6
Continuous
100
AcDbLine
 10
192.0411432948323
 20
112.5847597509827
 30
0.0
 11
192.5411432948323
 21
112.0847597509827
 31
0.0
  0
LINE
  5
563B
330
2
100
AcDbEntity
  8
0
  6
Continuous
100
AcDbLine
 10
192.0411432948323
 20
112.5847597509827
 30
0.0
 11
192.0411432948323
 21
143.0847597509828
 31
0.0
  0
LINE
  5
563C
330
2
100
AcDbEntity
  8
0
  6
Continuous
100
AcDbLine
 10
216.5524681602376
 20
117.5847597509827
 30
0.0
 11
213.6657168142896
 21
112.5847597509827
 31
0.0
  0
ARC
  5
563D
330
2
100
AcDbEntity
  8
0
  6
Continuous
100
AcDbCircle
 10
212.7996914105052
 20
113.0847597509827
 30
0.0
 40
1.0
100
AcDbArc
 50
270.0
 51
330.0
  0
LINE
  5
563E
330
2
100
AcDbEntity
  8
0
100
AcDbLine
 10
219.8411432948325
 20
119.0047597509827
 30
0.0
 11
227.0411432948321
 21
119.0047597509827
 31
0.0
1001
ACAD
1000
ASC_BOUNDS
1002
{
1070
    19
1002
}
  0
LINE
  5
563F
330
2
100
AcDbEntity
  8
0
100
AcDbLine
 10
217.4184935640222
 20
118.0847597509827
 30
0.0
 11
227.0411432948321
 21
118.0847597509827
 31
0.0
1001
ACAD
1000
ASC_BOUNDS
1002
{
1070
    19
1002
}
  0
ARC
  5
5640
330
2
100
AcDbEntity
  8
0
  6
Continuous
100
AcDbCircle
 10
217.4184935640222
 20
117.0847597509827
 30
0.0
 40
1.0
100
AcDbArc
 50
90.0
 51
149.9999999999996
1001
ACAD
1000
ASC_BOUNDS
1002
{
1070
    19
1002
}
  0
LINE
  5
5641
330
2
100
AcDbEntity
  8
0
  6
Continuous
100
AcDbLine
 10
219.8411432948325
 20
119.0047597509827
 30
0.0
 11
218.247656551869
 21
118.0847597509827
 31
0.0
  0
LINE
  5
5642
330
2
100
AcDbEntity
  8
0
  6
Continuous
100
AcDbLine
 10
192.5411432948323
 20
112.0847597509827
 30
0.0
 11
192.5411432948323
 21
143.0847597509828
 31
0.0
  0
LINE
  5
5643
330
2
100
AcDbEntity
  8
0
  6
Continuous
100
AcDbLine
 10
216.8411432948325
 20
117.9012563319103
 30
0.0
 11
216.8411432948325
 21
143.0847597509826
 31
0.0
  0
LINE
  5
5644
330
2
100
AcDbEntity
  8
0
  6
Continuous
100
AcDbLine
 10
197.8411432948324
 20
129.7806250553325
 30
0.0
 11
197.8411432948325
 21
143.0847597509826
 31
0.0
  0
LINE
  5
5645
330
2
100
AcDbEntity
  8
0
  6
Continuous
100
AcDbLine
 10
213.3770416796949
 20
129.7806250553325
 30
0.0
 11
197.8411432948324
 21
129.7806250553325
 31
0.0
  0
ARC
  5
5646
330
2
100
AcDbEntity
  8
0
  6
Continuous
100
AcDbCircle
 10
163.1475682601944
 20
143.0847597509826
 30
0.0
 40
51.96152422706928
100
AcDbArc
 50
345.1648884180242
 51
0.0
  0
ARC
  5
5647
330
2
100
AcDbEntity
  8
0
  6
Continuous
100
AcDbCircle
 10
248.0706167143311
 20
143.0847597509826
 30
0.0
 40
51.96152422706751
100
AcDbArc
 50
180.0
 51
194.8351115819758
  0
LINE
  5
5648
330
2
100
AcDbEntity
  8
0
  6
Continuous
100
AcDbLine
 10
205.6090924872633
 20
143.0847597509826
 30
0.0
 11
197.8411432948324
 21
129.7806250553325
 31
0.0
  0
LINE
  5
5649
330
2
100
AcDbEntity
  8
0
  6
Continuous
100
AcDbLine
 10
213.3770416796949
 20
129.7806250553325
 30
0.0
 11
205.6090924872636
 21
143.0847597509828
 31
0.0
  0
LINE
  5
564A
330
2
100
AcDbEntity
  8
0
  6
Continuous
100
AcDbLine
 10
213.3770416796949
 20
112.0847597509827
 30
0.0
 11
213.3770416796949
 21
129.7806250553325
 31
0.0
  0
LINE
  5
564B
330
2
100
AcDbEntity
  8
0
  6
Continuous
100
AcDbLine
 10
219.8411432948325
 20
118.0847597509827
 30
0.0
 11
219.8411432948325
 21
143.0847597509826
 31
0.0
  0
ELLIPSE
  5
564C
330
2
100
AcDbEntity
  8
0
  6
Continuous
100
AcDbEllipse
 10
172.5411432948317
 20
113.3347597509827
 30
0.0
 11
0.0
 21
0.7500000000000569
 31
0.0
210
0.0
220
0.0
230
-1.0
 40
0.6666666666660857
 41
1.570796326794896
 42
4.712388980384688
  0
LINE
  5
564D
330
2
100
AcDbEntity
  8
0
  6
Continuous
100
AcDbLine
 10
173.0411432948297
 20
113.3347597509827
 30
0.0
 11
173.0411432948297
 21
143.0847597509828
 31
0.0
  0
LINE
  5
564E
330
2
100
AcDbEntity
  8
0
  6
Continuous
100
AcDbLine
 10
172.0411432948321
 20
113.3347597509827
 30
0.0
 11
172.0411432948321
 21
143.0847597509828
 31
0.0
  0
LINE
  5
564F
330
2
100
AcDbEntity
  8
0
  6
Continuous
100
AcDbLine
 10
247.6336660067202
 20
111.5847597509828
 30
0.0
 11
228.0411432948321
 21
111.5847597509828
 31
0.0
  0
LINE
  5
5650
330
2
100
AcDbEntity
  8
0
  6
Continuous
100
AcDbLine
 10
252.541143294832
 20
119.3527089434141
 30
0.0
 11
252.541143294832
 21
143.0847597509828
 31
0.0
  0
LINE
  5
5651
330
2
100
AcDbEntity
  8
0
  6
Continuous
100
AcDbLine
 10
252.4071686986165
 20
118.8527089434141
 30
0.0
 11
248.4996914105046
 21
112.0847597509829
 31
0.0
  0
LINE
  5
5652
330
2
100
AcDbEntity
  8
0
  6
Continuous
100
AcDbLine
 10
227.0411432948321
 20
112.5847597509828
 30
0.0
 11
227.0411432948321
 21
143.0847597509828
 31
0.0
  0
LINE
  5
5653
330
2
100
AcDbEntity
  8
0
  6
Continuous
100
AcDbLine
 10
228.0411432948321
 20
111.5847597509828
 30
0.0
 11
227.0411432948321
 21
112.5847597509828
 31
0.0
  0
ARC
  5
5654
330
2
100
AcDbEntity
  8
0
  6
Continuous
100
AcDbCircle
 10
247.6336660067202
 20
112.5847597509828
 30
0.0
 40
1.0
100
AcDbArc
 50
270.0
 51
330.0
  0
ARC
  5
5655
330
2
100
AcDbEntity
  8
0
  6
Continuous
100
AcDbCircle
 10
251.541143294832
 20
119.3527089434141
 30
0.0
 40
1.0
100
AcDbArc
 50
330.0
 51
0.0
  0
LINE
  5
5656
330
2
100
AcDbEntity
  8
0
  6
Continuous
100
AcDbLine
 10
228.0411432948321
 20
111.5847597509828
 30
0.0
 11
228.0411432948321
 21
143.0847597509828
 31
0.0
  0
LINE
  5
5657
330
2
100
AcDbEntity
  8
0
  6
Continuous
100
AcDbLine
 10
248.2110162759099
 20
111.7682631700551
 30
0.0
 11
248.2110162759099
 21
114.1771722411408
 31
0.0
  0
LINE
  5
5658
330
2
100
AcDbEntity
  8
0
  6
Continuous
100
AcDbLine
 10
248.2110162759099
 20
117.4327468224053
 30
0.0
 11
248.2110162759099
 21
139.8681867408501
 31
0.0
  0
LINE
  5
5659
330
2
100
AcDbEntity
  8
0
  6
Continuous
100
AcDbLine
 10
249.943067083479
 20
140.5297922932463
 30
0.0
 11
241.5961107525685
 21
140.5297922932463
 31
0.0
  0
LINE
  5
565A
330
2
100
AcDbEntity
  8
0
  6
Continuous
100
AcDbLine
 10
248.2110162759103
 20
139.8681867408503
 30
0.0
 11
241.4816334570527
 21
139.8681867408502
 31
0.0
  0
LINE
  5
565B
330
2
100
AcDbEntity
  8
0
  6
Continuous
100
AcDbLine
 10
249.7724933770887
 20
140.5297922932463
 30
0.0
 11
248.2110162759103
 21
139.8681867408502
 31
0.0
  0
LINE
  5
565C
330
2
100
AcDbEntity
  8
0
  6
Continuous
100
AcDbLine
 10
249.943067083479
 20
143.0847597509828
 30
0.0
 11
249.943067083479
 21
140.5297922932463
 31
0.0
  0
ARC
  5
565D
330
2
100
AcDbEntity
  8
0
  6
Continuous
100
AcDbCircle
 10
241.5961107525685
 20
143.0847597509828
 30
0.0
 40
2.554967457736522
100
AcDbArc
 50
180.0
 51
270.0
  0
ARC
  5
565E
330
2
100
AcDbEntity
  8
0
  6
Continuous
100
AcDbCircle
 10
241.4816334570526
 20
143.084759750983
 30
0.0
 40
3.216573010132584
100
AcDbArc
 50
180.0
 51
270.0
  0
LINE
  5
565F
330
2
100
AcDbEntity
  8
0
  6
Continuous
100
AcDbLine
 10
241.4816334570526
 20
117.4327468224053
 30
0.0
 11
248.2110162759099
 21
117.4327468224053
 31
0.0
  0
ELLIPSE
  5
5660
330
2
100
AcDbEntity
  8
0
  6
Continuous
100
AcDbEllipse
 10
241.4816334570526
 20
115.8049595317729
 30
0.0
 11
-3.216573010132606
 21
0.0
 31
0.0
210
0.0
220
0.0
230
1.0
 40
0.5060625969019226
 41
4.712388980384688
 42
7.853981633974482
  0
LINE
  5
5661
330
2
100
AcDbEntity
  8
0
  6
Continuous
100
AcDbLine
 10
241.4816334570526
 20
114.1771722411407
 30
0.0
 11
248.2110162759099
 21
114.1771722411407
 31
0.0
  0
LINE
  5
5662
330
2
100
AcDbEntity
  8
0
  6
Continuous
100
AcDbLine
 10
249.943067083479
 20
119.4246589124087
 30
0.0
 11
249.943067083479
 21
116.8696914546724
 31
0.0
  0
LINE
  5
5663
330
2
100
AcDbEntity
  8
0
  6
Continuous
100
AcDbLine
 10
248.2110162759099
 20
114.1771722411407
 30
0.0
 11
249.943067083479
 21
116.8696914546724
 31
0.0
  0
ELLIPSE
  5
5664
330
2
100
AcDbEntity
  8
0
  6
Continuous
100
AcDbEllipse
 10
241.5961107525685
 20
118.1471751835407
 30
0.0
 11
-2.554967457736405
 21
0.0000000000000121
 31
0.0
210
0.0
220
0.0
230
1.0
 40
0.4999999999999615
 41
0.8231319473725109
 42
1.570796326794898
  0
LINE
  5
5665
330
2
100
AcDbEntity
  8
0
  6
Continuous
100
AcDbLine
 10
241.5961107525685
 20
116.8696914546726
 30
0.0
 11
249.943067083479
 21
116.8696914546724
 31
0.0
  0
LINE
  5
5666
330
2
100
AcDbEntity
  8
0
  6
Continuous
100
AcDbLine
 10
248.2110162759099
 20
117.4327468224053
 30
0.0
 11
249.943067083479
 21
119.4246589124087
 31
0.0
  0
LINE
  5
5667
330
2
100
AcDbEntity
  8
0
  6
Continuous
100
AcDbLine
 10
172.0411432948321
 20
143.0847597509828
 30
0.0
 11
172.0411432948321
 21
173.5847597509828
 31
0.0
  0
LINE
  5
5668
330
2
100
AcDbEntity
  8
0
  6
Continuous
100
AcDbLine
 10
171.5411432948321
 20
174.0847597509828
 30
0.0
 11
172.0411432948321
 21
173.5847597509828
 31
0.0
  0
LINE
  5
5669
330
2
100
AcDbEntity
  8
0
  6
Continuous
100
AcDbLine
 10
171.5411432948321
 20
174.0847597509828
 30
0.0
 11
171.5411432948321
 21
143.0847597509828
 31
0.0
  0
LINE
  5
566A
330
2
100
AcDbEntity
  8
0
  6
Continuous
100
AcDbLine
 10
173.0411432948305
 20
143.0847597509828
 30
0.0
 11
173.0411432948296
 21
173.5847597509811
 31
0.0
  0
LINE
  5
566B
330
2
100
AcDbEntity
  8
0
  6
Continuous
100
AcDbLine
 10
192.0411432948332
 20
173.5847597509803
 30
0.0
 11
192.0411432948323
 21
143.0847597509828
 31
0.0
  0
LINE
  5
566C
330
2
100
AcDbEntity
  8
0
  6
Continuous
100
AcDbLine
 10
173.5411432948314
 20
174.0847597509828
 30
0.0
 11
173.0411432948314
 21
173.5847597509829
 31
0.0
  0
LINE
  5
566D
330
2
100
AcDbEntity
  8
0
  6
Continuous
100
AcDbLine
 10
191.5411432948314
 20
174.0847597509822
 30
0.0
 11
192.0411432948314
 21
173.5847597509822
 31
0.0
  0
LINE
  5
566E
330
2
100
AcDbEntity
  8
0
  6
Continuous
100
AcDbLine
 10
173.5411432948314
 20
174.0847597509828
 30
0.0
 11
191.5411432948314
 21
174.0847597509822
 31
0.0
  0
LINE
  5
566F
330
2
100
AcDbEntity
  8
0
  6
Continuous
100
AcDbLine
 10
173.5411432948314
 20
174.0847597509828
 30
0.0
 11
173.5411432948312
 21
143.0847597509828
 31
0.0
  0
LINE
  5
5670
330
2
100
AcDbEntity
  8
0
  6
Continuous
100
AcDbLine
 10
191.5411432948314
 20
174.0847597509822
 30
0.0
 11
191.5411432948313
 21
143.0847597509828
 31
0.0
  0
LINE
  5
5671
330
2
100
AcDbEntity
  8
0
  6
Continuous
100
AcDbLine
 10
192.5411432948323
 20
174.0847597509828
 30
0.0
 11
212.7996914105052
 21
174.0847597509828
 31
0.0
  0
LINE
  5
5672
330
2
100
AcDbEntity
  8
0
  6
Continuous
100
AcDbLine
 10
192.0411432948323
 20
173.5847597509828
 30
0.0
 11
192.5411432948323
 21
174.0847597509828
 31
0.0
  0
LINE
  5
5673
330
2
100
AcDbEntity
  8
0
  6
Continuous
100
AcDbLine
 10
192.0411432948323
 20
173.5847597509828
 30
0.0
 11
192.0411432948323
 21
143.0847597509828
 31
0.0
  0
LINE
  5
5674
330
2
100
AcDbEntity
  8
0
  6
Continuous
100
AcDbLine
 10
216.5524681602376
 20
168.5847597509829
 30
0.0
 11
213.6657168142896
 21
173.5847597509828
 31
0.0
  0
ARC
  5
5675
330
2
100
AcDbEntity
  8
0
  6
Continuous
100
AcDbCircle
 10
212.7996914105052
 20
173.0847597509828
 30
0.0
 40
1.0
100
AcDbArc
 50
30.00000000000003
 51
90.0
  0
LINE
  5
5676
330
2
100
AcDbEntity
  8
0
100
AcDbLine
 10
219.8411432948325
 20
167.1647597509829
 30
0.0
 11
227.0411432948321
 21
167.1647597509829
 31
0.0
1001
ACAD
1000
ASC_BOUNDS
1002
{
1070
    19
1002
}
  0
LINE
  5
5677
330
2
100
AcDbEntity
  8
0
100
AcDbLine
 10
217.4184935640222
 20
168.0847597509828
 30
0.0
 11
227.0411432948321
 21
168.0847597509828
 31
0.0
1001
ACAD
1000
ASC_BOUNDS
1002
{
1070
    19
1002
}
  0
ARC
  5
5678
330
2
100
AcDbEntity
  8
0
  6
Continuous
100
AcDbCircle
 10
217.4184935640222
 20
169.0847597509828
 30
0.0
 40
1.0
100
AcDbArc
 50
210.0
 51
270.0
1001
ACAD
1000
ASC_BOUNDS
1002
{
1070
    19
1002
}
  0
LINE
  5
5679
330
2
100
AcDbEntity
  8
0
  6
Continuous
100
AcDbLine
 10
219.8411432948325
 20
167.1647597509829
 30
0.0
 11
218.247656551869
 21
168.0847597509828
 31
0.0
  0
LINE
  5
567A
330
2
100
AcDbEntity
  8
0
  6
Continuous
100
AcDbLine
 10
192.5411432948323
 20
174.0847597509828
 30
0.0
 11
192.5411432948323
 21
143.0847597509828
 31
0.0
  0
LINE
  5
567B
330
2
100
AcDbEntity
  8
0
  6
Continuous
100
AcDbLine
 10
216.8411432948325
 20
168.2682631700552
 30
0.0
 11
216.8411432948325
 21
143.0847597509828
 31
0.0
  0
LINE
  5
567C
330
2
100
AcDbEntity
  8
0
  6
Continuous
100
AcDbLine
 10
197.8411432948324
 20
156.3888944466331
 30
0.0
 11
197.8411432948325
 21
143.0847597509828
 31
0.0
  0
LINE
  5
567D
330
2
100
AcDbEntity
  8
0
  6
Continuous
100
AcDbLine
 10
213.3770416796949
 20
156.3888944466331
 30
0.0
 11
197.8411432948324
 21
156.3888944466331
 31
0.0
  0
ARC
  5
567E
330
2
100
AcDbEntity
  8
0
  6
Continuous
100
AcDbCircle
 10
163.1475682601944
 20
143.0847597509828
 30
0.0
 40
51.96152422706928
100
AcDbArc
 50
0.0
 51
14.83511158197582
  0
ARC
  5
567F
330
2
100
AcDbEntity
  8
0
  6
Continuous
100
AcDbCircle
 10
248.0706167143311
 20
143.0847597509828
 30
0.0
 40
51.96152422706751
100
AcDbArc
 50
165.1648884180242
 51
180.0
  0
LINE
  5
5680
330
2
100
AcDbEntity
  8
0
  6
Continuous
100
AcDbLine
 10
205.6090924872633
 20
143.0847597509828
 30
0.0
 11
197.8411432948324
 21
156.3888944466331
 31
0.0
  0
LINE
  5
5681
330
2
100
AcDbEntity
  8
0
  6
Continuous
100
AcDbLine
 10
213.3770416796949
 20
156.3888944466331
 30
0.0
 11
205.6090924872636
 21
143.0847597509828
 31
0.0
  0
LINE
  5
5682
330
2
100
AcDbEntity
  8
0
  6
Continuous
100
AcDbLine
 10
213.3770416796949
 20
174.0847597509828
 30
0.0
 11
213.3770416796949
 21
156.3888944466331
 31
0.0
  0
LINE
  5
5683
330
2
100
AcDbEntity
  8
0
  6
Continuous
100
AcDbLine
 10
219.8411432948325
 20
168.0847597509828
 30
0.0
 11
219.8411432948325
 21
143.0847597509828
 31
0.0
  0
ELLIPSE
  5
5684
330
2
100
AcDbEntity
  8
0
  6
Continuous
100
AcDbEllipse
 10
172.5411432948317
 20
172.8347597509829
 30
0.0
 11
0.0
 21
-0.7500000000000569
 31
0.0
210
0.0
220
0.0
230
1.0
 40
0.6666666666660857
 41
1.570796326794896
 42
4.712388980384688
  0
LINE
  5
5685
330
2
100
AcDbEntity
  8
0
  6
Continuous
100
AcDbLine
 10
173.0411432948297
 20
172.8347597509829
 30
0.0
 11
173.0411432948297
 21
143.0847597509828
 31
0.0
  0
LINE
  5
5686
330
2
100
AcDbEntity
  8
0
  6
Continuous
100
AcDbLine
 10
172.0411432948321
 20
172.8347597509829
 30
0.0
 11
172.0411432948321
 21
143.0847597509828
 31
0.0
  0
LINE
  5
5687
330
2
100
AcDbEntity
  8
0
  6
Continuous
100
AcDbLine
 10
247.6336660067202
 20
174.5847597509827
 30
0.0
 11
228.0411432948321
 21
174.5847597509827
 31
0.0
  0
LINE
  5
5688
330
2
100
AcDbEntity
  8
0
  6
Continuous
100
AcDbLine
 10
252.541143294832
 20
166.8168105585514
 30
0.0
 11
252.541143294832
 21
143.0847597509828
 31
0.0
  0
LINE
  5
5689
330
2
100
AcDbEntity
  8
0
  6
Continuous
100
AcDbLine
 10
252.4071686986165
 20
167.3168105585514
 30
0.0
 11
248.4996914105046
 21
174.0847597509828
 31
0.0
  0
LINE
  5
568A
330
2
100
AcDbEntity
  8
0
  6
Continuous
100
AcDbLine
 10
227.0411432948321
 20
173.5847597509828
 30
0.0
 11
227.0411432948321
 21
143.0847597509828
 31
0.0
  0
LINE
  5
568B
330
2
100
AcDbEntity
  8
0
  6
Continuous
100
AcDbLine
 10
228.0411432948321
 20
174.5847597509827
 30
0.0
 11
227.0411432948321
 21
173.5847597509828
 31
0.0
  0
ARC
  5
568C
330
2
100
AcDbEntity
  8
0
  6
Continuous
100
AcDbCircle
 10
247.6336660067202
 20
173.5847597509828
 30
0.0
 40
1.0
100
AcDbArc
 50
30.00000000000003
 51
90.0
  0
ARC
  5
568D
330
2
100
AcDbEntity
  8
0
  6
Continuous
100
AcDbCircle
 10
251.541143294832
 20
166.8168105585514
 30
0.0
 40
1.0
100
AcDbArc
 50
0.0
 51
30.00000000000003
  0
LINE
  5
568E
330
2
100
AcDbEntity
  8
0
  6
Continuous
100
AcDbLine
 10
228.0411432948321
 20
174.5847597509827
 30
0.0
 11
228.0411432948321
 21
143.0847597509828
 31
0.0
  0
LINE
  5
568F
330
2
100
AcDbEntity
  8
0
  6
Continuous
100
AcDbLine
 10
248.2110162759099
 20
174.4012563319103
 30
0.0
 11
248.2110162759099
 21
171.9923472608248
 31
0.0
  0
LINE
  5
5690
330
2
100
AcDbEntity
  8
0
  6
Continuous
100
AcDbLine
 10
248.2110162759099
 20
168.7367726795602
 30
0.0
 11
248.2110162759099
 21
146.3013327611155
 31
0.0
  0
LINE
  5
5691
330
2
100
AcDbEntity
  8
0
  6
Continuous
100
AcDbLine
 10
249.943067083479
 20
145.6397272087191
 30
0.0
 11
241.5961107525685
 21
145.6397272087191
 31
0.0
  0
LINE
  5
5692
330
2
100
AcDbEntity
  8
0
  6
Continuous
100
AcDbLine
 10
248.2110162759103
 20
146.3013327611152
 30
0.0
 11
241.4816334570527
 21
146.3013327611153
 31
0.0
  0
LINE
  5
5693
330
2
100
AcDbEntity
  8
0
  6
Continuous
100
AcDbLine
 10
249.7724933770887
 20
145.6397272087191
 30
0.0
 11
248.2110162759103
 21
146.3013327611153
 31
0.0
  0
LINE
  5
5694
330
2
100
AcDbEntity
  8
0
  6
Continuous
100
AcDbLine
 10
249.943067083479
 20
143.0847597509828
 30
0.0
 11
249.943067083479
 21
145.6397272087191
 31
0.0
  0
ARC
  5
5695
330
2
100
AcDbEntity
  8
0
  6
Continuous
100
AcDbCircle
 10
241.5961107525685
 20
143.0847597509828
 30
0.0
 40
2.554967457736522
100
AcDbArc
 50
90.0
 51
180.0
  0
ARC
  5
5696
330
2
100
AcDbEntity
  8
0
  6
Continuous
100
AcDbCircle
 10
241.4816334570526
 20
143.0847597509826
 30
0.0
 40
3.216573010132584
100
AcDbArc
 50
90.0
 51
180.0
  0
LINE
  5
5697
330
2
100
AcDbEntity
  8
0
  6
Continuous
100
AcDbLine
 10
241.4816334570526
 20
168.7367726795602
 30
0.0
 11
248.2110162759099
 21
168.7367726795602
 31
0.0
  0
ELLIPSE
  5
5698
330
2
100
AcDbEntity
  8
0
  6
Continuous
100
AcDbEllipse
 10
241.4816334570526
 20
170.3645599701926
 30
0.0
 11
-3.216573010132606
 21
0.0
 31
0.0
210
0.0
220
0.0
230
-1.0
 40
0.5060625969019226
 41
4.712388980384688
 42
7.853981633974482
  0
LINE
  5
5699
330
2
100
AcDbEntity
  8
0
  6
Continuous
100
AcDbLine
 10
241.4816334570526
 20
171.9923472608249
 30
0.0
 11
248.2110162759099
 21
171.9923472608249
 31
0.0
  0
LINE
  5
569A
330
2
100
AcDbEntity
  8
0
  6
Continuous
100
AcDbLine
 10
249.943067083479
 20
166.7448605895567
 30
0.0
 11
249.943067083479
 21
169.2998280472932
 31
0.0
  0
LINE
  5
569B
330
2
100
AcDbEntity
  8
0
  6
Continuous
100
AcDbLine
 10
248.2110162759099
 20
171.9923472608249
 30
0.0
 11
249.943067083479
 21
169.2998280472932
 31
0.0
  0
ELLIPSE
  5
569C
330
2
100
AcDbEntity
  8
0
  6
Continuous
100
AcDbEllipse
 10
241.5961107525685
 20
168.0223443184248
 30
0.0
 11
-2.554967457736259
 21
0.0000000000000779
 31
0.0
210
0.0
220
0.0
230
-1.0
 40
0.4999999999999899
 41
0.8231319473724415
 42
1.570796326794881
  0
LINE
  5
569D
330
2
100
AcDbEntity
  8
0
  6
Continuous
100
AcDbLine
 10
241.5961107525685
 20
169.2998280472929
 30
0.0
 11
249.943067083479
 21
169.2998280472932
 31
0.0
  0
LINE
  5
569E
330
2
100
AcDbEntity
  8
0
  6
Continuous
100
AcDbLine
 10
248.2110162759099
 20
168.7367726795602
 30
0.0
 11
249.943067083479
 21
166.7448605895567
 31
0.0
  0
DIMENSION
  5
569F
330
2
100
AcDbEntity
  8
0
100
AcDbDimension
  2
*D38
 10
252.541143294832
 20
89.05556420026192
 30
0.0
 11
192.541143294832
 21
91.15585947585248
 31
0.0
 70
    32
 71
     5
 42
119.9999999999999
  3
ISO-25
100
AcDbAlignedDimension
 13
132.5411432948321
 23
120.8597597509828
 33
0.0
 14
252.541143294832
 24
119.3527089434141
 34
0.0
100
AcDbRotatedDimension
1001
ACAD
1000
DSTYLE
1002
{
1070
    42
1040
0.3
1070
    43
1040
1.0
1070
    44
1040
1.0
1070
    47
1040
0.1
1070
    48
1040
0.1
1070
    73
1070
     0
1070
   140
1040
3.0
1070
   141
1040
-0.3
1070
   146
1040
0.7
1070
   147
1040
0.6
1070
   178
1070
     3
1070
   271
1070
     3
1070
   272
1070
     3
1070
   275
1070
     1
1070
   283
1070
     0
1070
   284
1070
     8
1070
   289
1070
     2
1002
}
  0
DIMENSION
  5
56A0
330
2
100
AcDbEntity
  8
0
100
AcDbDimension
  2
*D35
 10
267.0812948727873
 20
174.5847597509828
 30
0.0
 11
264.9812948727872
 21
143.0847597509828
 31
0.0
 70
    32
 71
     5
 42
62.99999999999991
  3
ISO-25
100
AcDbAlignedDimension
 13
247.6336660067202
 23
111.5847597509828
 33
0.0
 14
247.6336660067202
 24
174.5847597509827
 34
0.0
 50
90.0
100
AcDbRotatedDimension
1001
ACAD
1000
DSTYLE
1002
{
1070
     3
1000
%%C<>
1070
    42
1040
0.3
1070
    43
1040
1.0
1070
    44
1040
1.0
1070
    47
1040
0.1
1070
    48
1040
0.1
1070
    73
1070
     0
1070
   140
1040
3.0
1070
   141
1040
-0.3
1070
   146
1040
0.7
1070
   147
1040
0.6
1070
   178
1070
     3
1070
   271
1070
     3
1070
   272
1070
     3
1070
   275
1070
     1
1070
   283
1070
     0
1070
   284
1070
     8
1070
   289
1070
     2
1002
}
  0
POINT
  5
56F7
330
2
100
AcDbEntity
  8
DEFPOINTS
  6
ByBlock
 62
     0
100
AcDbPoint
 10
150.5911432948326
 20
174.8347597509827
 30
0.0
  0
LINE
  5
56F8
330
2
100
AcDbEntity
  8
0
  6
Continuous
100
AcDbLine
 10
151.5911432948326
 20
174.3347597509827
 30
0.0
 11
151.5911432948326
 21
143.0847597509827
 31
0.0
  0
LINE
  5
56F9
330
2
100
AcDbEntity
  8
0
  6
Continuous
100
AcDbLine
 10
151.5911432948326
 20
174.3347597509827
 30
0.0
 11
151.0911432948325
 21
174.8347597509827
 31
0.0
  0
ARC
  5
56FA
330
2
100
AcDbEntity
  8
0
  6
Continuous
100
AcDbCircle
 10
152.5911432948323
 20
169.0847597509827
 30
0.0
 40
1.0
100
AcDbArc
 50
180.0
 51
270.0
  0
LINE
  5
56FB
330
2
100
AcDbEntity
  8
0
  6
Continuous
100
AcDbLine
 10
140.1522342607842
 20
174.7430080414464
 30
0.0
 11
140.152234260784
 21
151.2597597509831
 31
0.0
  0
LINE
  5
56FC
330
2
100
AcDbEntity
  8
0
  6
Continuous
100
AcDbLine
 10
147.2343523288809
 20
174.7430080414464
 30
0.0
 11
147.234352328881
 21
151.259759750983
 31
0.0
  0
LINE
  5
56FD
330
2
100
AcDbEntity
  8
0
  6
Continuous
100
AcDbLine
 10
151.5911432948326
 20
151.259759750983
 30
0.0
 11
135.7161432948325
 21
151.2597597509831
 31
0.0
  0
ARC
  5
56FE
330
2
100
AcDbEntity
  8
0
  6
Continuous
100
AcDbCircle
 10
143.6811432948324
 20
143.0847597509828
 30
0.0
 40
4.7625
100
AcDbArc
 50
0.0
 51
180.0
  0
LINE
  5
56FF
330
2
100
AcDbEntity
  8
0
  6
Continuous
100
AcDbLine
 10
132.5411432948325
 20
165.3097597509827
 30
0.0
 11
132.5411432948325
 21
143.0847597509828
 31
0.0
  0
ARC
  5
5700
330
2
100
AcDbEntity
  8
0
  6
Continuous
100
AcDbCircle
 10
135.2161432948325
 20
165.385487510619
 30
0.0
 40
0.5
100
AcDbArc
 50
270.0
 51
0.0
  0
LINE
  5
5701
330
2
100
AcDbEntity
  8
0
  6
Continuous
100
AcDbLine
 10
132.5411432948325
 20
165.3097597509827
 30
0.0
 11
134.1245488521112
 21
164.8854875106189
 31
0.0
  0
LINE
  5
5702
330
2
100
AcDbEntity
  8
0
  6
Continuous
100
AcDbLine
 10
134.1245488521112
 20
164.8854875106189
 30
0.0
 11
135.2161432948325
 21
164.885487510619
 31
0.0
  0
LINE
  5
5703
330
2
100
AcDbEntity
  8
0
  6
Continuous
 62
     3
100
AcDbLine
 10
134.1245488521112
 20
164.8854875106189
 30
0.0
 11
134.1245488521112
 21
143.0847597509827
 31
0.0
  0
ENDSEC
  0
SECTION
  2
OBJECTS
  0
DICTIONARY
  5
B
330
0
100
AcDbDictionary
281
     1
  3
ACAD_CIP_PREVIOUS_PRODUCT_INFO
350
4EB1
  3
ACAD_COLOR
350
46
  3
ACAD_DETAILVIEWSTYLE
350
4EAE
  3
ACAD_FIELDLIST
350
50B0
  3
ACAD_GROUP
350
33
  3
ACAD_LAYOUT
350
18
  3
ACAD_MATERIAL
350
D
  3
ACAD_MLEADERSTYLE
350
1AF
  3
ACAD_MLINESTYLE
350
34
  3
ACAD_PLOTSETTINGS
350
35
  3
ACAD_PLOTSTYLENAME
350
A
  3
ACAD_SCALELIST
350
47
  3
ACAD_SECTIONVIEWSTYLE
350
4EAC
  3
ACAD_TABLESTYLE
350
48
  3
ACAD_VISUALSTYLE
350
2C
  3
ACDB_RECOMPOSE_DATA
350
5802
  3
AcDbVariableDictionary
350
198
  3
ACGREF_MASTER
350
5052
  3
ACGREFACAD_MASTER
350
5056
  3
AcmDictionary
350
506E
  3
AcmSystemVariableManager
350
5841
  3
AEC_PROPERTY_SET_DEFS
350
294
  3
AMG
350
5043
  3
AMGSNAPSETTINGS
350
5210
  3
AMI_MASTER
350
5057
  3
DWGPROPS
350
5803
  3
GREFAM_MODULE
350
505A
  0
DICTIONARY
  5
2D
330
29
100
AcDbDictionary
280
     1
281
     1
  0
DICTIONARY
  5
1F
330
1E
100
AcDbDictionary
280
     1
281
     1
  3
ACAD_LAYERSTATES
360
20
  0
DICTIONARY
  5
7
330
6
100
AcDbDictionary
280
     1
281
     1
  3
ADSK_XREC_LAYER_RECONCILED
360
8
  0
DICTIONARY
  5
5129
330
5128
100
AcDbDictionary
280
     1
281
     1
  0
DICTIONARY
  5
512B
330
512A
100
AcDbDictionary
280
     1
281
     1
  0
DICTIONARY
  5
512D
330
512C
100
AcDbDictionary
280
     1
281
     1
  0
DICTIONARY
  5
512F
330
512E
100
AcDbDictionary
280
     1
281
     1
  0
DICTIONARY
  5
3
330
2
100
AcDbDictionary
280
     1
281
     1
  3
ACAD_SORTENTS
360
18B
  0
DICTIONARY
  5
5120
330
511F
100
AcDbDictionary
280
     1
281
     1
  3
ACAD_SORTENTS
360
5121
  0
XRECORD
  5
4EB1
102
{ACAD_REACTORS
330
B
102
}
330
B
100
AcDbXrecord
280
     1
300
AMECH_PP
300
2022
300

  0
DICTIONARY
  5
46
102
{ACAD_REACTORS
330
B
102
}
330
B
100
AcDbDictionary
281
     1
  0
DICTIONARY
  5
4EAE
102
{ACAD_REACTORS
330
B
102
}
330
B
100
AcDbDictionary
281
     1
  3
Imperial24
350
4EAF
  0
FIELDLIST
  5
50B0
102
{ACAD_REACTORS
330
B
102
}
330
B
100
AcDbIdSet
 90
        4
330
50AE
330
50AF
330
50B1
330
50B2
100
AcDbFieldList
  0
DICTIONARY
  5
33
102
{ACAD_REACTORS
330
B
102
}
330
B
100
AcDbDictionary
281
     1
  0
DICTIONARY
  5
18
102
{ACAD_REACTORS
330
B
102
}
330
B
100
AcDbDictionary
281
     1
  3
Layout1
350
1D
  3
Model
350
17
  0
DICTIONARY
  5
D
102
{ACAD_REACTORS
330
B
102
}
330
B
100
AcDbDictionary
281
     1
  3
ByBlock
350
3E
  3
ByLayer
350
36
  3
Global
350
C
  0
DICTIONARY
  5
1AF
102
{ACAD_REACTORS
330
B
102
}
330
B
100
AcDbDictionary
281
     1
  3
Standard
350
1B0
  0
DICTIONARY
  5
34
102
{ACAD_REACTORS
330
B
102
}
330
B
100
AcDbDictionary
281
     1
  3
STANDARD
350
49
  0
DICTIONARY
  5
35
102
{ACAD_REACTORS
330
B
102
}
330
B
100
AcDbDictionary
281
     1
  0
ACDBDICTIONARYWDFLT
  5
A
102
{ACAD_REACTORS
330
B
102
}
330
B
100
AcDbDictionary
281
     1
  3
Normal
350
9
100
AcDbDictionaryWithDefault
340
9
  0
DICTIONARY
  5
47
102
{ACAD_REACTORS
330
B
102
}
330
B
100
AcDbDictionary
281
     1
  3
A0
350
4E
  3
A1
350
4F
  3
A2
350
50
  3
A3
350
51
  3
A4
350
52
  3
A5
350
53
  3
A6
350
54
  3
A7
350
55
  3
A8
350
56
  3
A9
350
57
  3
B0
350
58
  3
B1
350
59
  3
B2
350
5A
  3
B3
350
5B
  3
B4
350
5C
  3
B5
350
5D
  3
B6
350
5E
  3
B7
350
5F
  3
B8
350
60
  3
B9
350
61
  3
C0
350
62
  3
C1
350
63
  3
C2
350
64
  3
C3
350
65
  3
C4
350
66
  3
C5
350
67
  3
C6
350
68
  3
C7
350
69
  3
C8
350
6A
  3
C9
350
6B
  3
D0
350
6C
  3
D1
350
6D
  3
D2
350
6E
  0
DICTIONARY
  5
4EAC
102
{ACAD_REACTORS
330
B
102
}
330
B
100
AcDbDictionary
281
     1
  3
Imperial24
350
4EAD
  0
DICTIONARY
  5
48
102
{ACAD_REACTORS
330
B
102
}
330
B
100
AcDbDictionary
281
     1
  3
Standard
350
4A
  0
DICTIONARY
  5
2C
102
{ACAD_REACTORS
330
B
102
}
330
B
100
AcDbDictionary
281
     1
  3
2dWireframe
350
2B
  3
3D Hidden
350
1A7
  3
3dWireframe
350
4D
  3
Basic
350
1A6
  3
Brighten
350
1AA
  3
ColorChange
350
1AE
  3
Conceptual
350
1A8
  3
Dim
350
1A9
  3
EdgeColorOff
350
4EAB
  3
Facepattern
350
1AD
  3
Flat
350
1A2
  3
FlatWithEdges
350
1A3
  3
Gouraud
350
1A4
  3
GouraudWithEdges
350
1A5
  3
Hidden
350
4EA3
  3
JitterOff
350
4EA9
  3
Linepattern
350
1AC
  3
OverhangOff
350
4EAA
  3
Realistic
350
4C
  3
Shaded
350
4EA8
  3
Shaded with edges
350
4EA7
  3
Shades of Gray
350
4EA4
  3
Sketchy
350
4EA5
  3
Thicken
350
1AB
  3
Wireframe
350
4EA2
  3
X-Ray
350
4EA6
  0
XRECORD
  5
5802
102
{ACAD_REACTORS
330
B
102
}
330
B
100
AcDbXrecord
280
     1
 90
        1
330
4A
  0
DICTIONARY
  5
198
102
{ACAD_REACTORS
330
B
102
}
330
B
100
AcDbDictionary
281
     1
  3
CANNOSCALE
350
19C
  3
CMLEADERSTYLE
350
19A
  3
CTABLESTYLE
350
199
  3
CVIEWDETAILSTYLE
350
4FF9
  3
CVIEWSECTIONSTYLE
350
4FFA
  3
DIMASSOC
350
1A0
  3
HIDETEXT
350
19F
  3
INDEXCTL
350
19E
  3
LAYEREVAL
350
57B9
  3
LAYERNOTIFY
350
57BA
  3
LIGHTINGUNITS
350
57B8
  3
MSLTSCALE
350
19B
  3
SORTENTS
350
19D
  3
XCLIPFRAME
350
5771
  0
DICTIONARY
  5
506E
102
{ACAD_REACTORS
330
B
102
}
330
B
100
AcDbDictionary
281
     1
  3
AcmStdDictionary
350
5075
  0
DICTIONARY
  5
294
102
{ACAD_REACTORS
330
B
102
}
330
B
100
AcDbDictionary
281
     1
  0
DICTIONARY
  5
5043
102
{ACAD_REACTORS
330
B
102
}
330
B
100
AcDbDictionary
281
     1
  3
AcMgSettings
350
5044
  0
DICTIONARY
  5
5210
102
{ACAD_REACTORS
330
B
102
}
330
B
100
AcDbDictionary
281
     1
  3
FEA
350
5214
  3
간단한 용접
350
5216
  3
기호
350
5213
  3
치수
350
5215
  3
해치(1)
350
5211
  3
해치(2)
350
5212
  0
XRECORD
  5
5803
102
{ACAD_REACTORS
330
B
102
}
330
B
100
AcDbXrecord
280
     1
  1
DWGPROPS COOKIE
  2

  3

  4

  6

  7

  8
SSKT
  9

300
=
301
=
302
=
303
=
304
=
305
=
306
=
307
=
308
=
309
=
 40
17.37679342592592
 41
2450166.869212963
 42
2460621.705925926
  1

 90
        0
  0
DICTIONARY
  5
20
102
{ACAD_REACTORS
330
1F
102
}
330
1F
100
AcDbDictionary
281
     1
  0
XRECORD
  5
8
102
{ACAD_REACTORS
330
7
102
}
330
7
100
AcDbXrecord
280
     1
290
     1
  0
SORTENTSTABLE
  5
18B
102
{ACAD_REACTORS
330
3
102
}
330
3
100
AcDbSortentsTable
330
2
  0
SORTENTSTABLE
  5
5121
102
{ACAD_REACTORS
330
5120
102
}
330
5120
100
AcDbSortentsTable
330
511F
  0
ACDBDETAILVIEWSTYLE
  5
4EAF
102
{ACAD_XDICTIONARY
360
583F
102
}
102
{ACAD_REACTORS
330
4EAE
330
50A0
102
}
330
4EAE
100
AcDbModelDocViewStyle
 70
     0
  3
Imperial24
290
     0
100
AcDbDetailViewStyle
 70
     0
 71
     0
 90
        3
 71
     1
340
22
 40
0.24
340
0
 40
0.24
300

 40
0.36
280
     3
 71
     2
340
15
 90
       25
 71
     3
340
22
 40
0.24
 90
        1
 40
0.75
 90
        1
300
%<\AcVar ViewType \f "%tc1">% %<\AcVar ViewDetailId>%\PSCALE %<\AcVar ViewScale \f "%sn">%
 71
     4
340
15
 90
       25
340
15
 90
       25
280
     0
  0
LAYOUT
  5
1D
102
{ACAD_XDICTIONARY
360
5806
102
}
102
{ACAD_REACTORS
330
18
102
}
330
18
100
AcDbPlotSettings
  1

  2
None
  4

  6

 40
0.0
 41
0.0
 42
0.0
 43
0.0
 44
0.0
 45
0.0
 46
0.0
 47
0.0
 48
0.0
 49
0.0
140
0.0
141
0.0
142
1.0
143
1.0
 70
   688
 72
     0
 73
     0
 74
     5
  7
acad.ctb
 75
    16
147
1.0
148
0.0
149
0.0
100
AcDbLayout
  1
Layout1
 70
     1
 71
     1
 10
0.0
 20
0.0
 11
420.0
 21
297.0
 12
0.0
 22
0.0
 32
0.0
 14
1.000000000000000E+20
 24
1.000000000000000E+20
 34
1.000000000000000E+20
 15
-1.000000000000000E+20
 25
-1.000000000000000E+20
 35
-1.000000000000000E+20
146
0.0
 13
0.0
 23
0.0
 33
0.0
 16
1.0
 26
0.0
 36
0.0
 17
0.0
 27
1.0
 37
0.0
 76
     0
330
1A
  0
LAYOUT
  5
17
102
{ACAD_XDICTIONARY
360
5804
102
}
102
{ACAD_REACTORS
330
18
102
}
330
18
100
AcDbPlotSettings
  1

  2
iR3300
  4
A3
  6

 40
6.805083274841307
 41
5.365739345550537
 42
7.228424072265625
 43
5.027069091796875
 44
296.9259948730469
 45
419.9466552734373
 46
0.0
 47
0.3228074333883342
 48
-2296.53692555602
 49
-1297.706990034927
140
-1596.936925556019
141
-813.7069900349272
142
1.0
143
1.710897324396495
 70
  3764
 72
     1
 73
     1
 74
     4
  7
autocad LT 2009(20081001).ctb
 75
     0
147
0.5844886105907851
148
2296.53692555602
149
1297.706990034927
100
AcDbLayout
  1
Model
 70
     1
 71
     0
 10
0.0
 20
0.0
 11
12.0
 21
9.0
 12
0.0
 22
0.0
 32
0.0
 14
0.0
 24
0.0
 34
0.0
 15
0.0
 25
0.0
 35
0.0
146
0.0
 13
0.0
 23
0.0
 33
0.0
 16
1.0
 26
0.0
 36
0.0
 17
0.0
 27
1.0
 37
0.0
 76
     0
330
2
331
2A
1001
ACAD_PSEXT
1000
iR3300
1000
Canon iR2200-3300 PCL5e
1000
IP_192.168.1.170
1000

1070
     0
  0
MATERIAL
  5
3E
102
{ACAD_XDICTIONARY
360
3F
102
}
102
{ACAD_REACTORS
330
D
102
}
330
D
100
AcDbMaterial
  1
ByBlock
 72
     0
 43
0.0208333333333333
 43
0.0
 43
0.0
 43
0.0
 43
0.0
 43
0.0208333333333333
 43
0.0
 43
0.0
 43
0.0
 43
0.0
 43
1.0
 43
0.0
 43
0.0
 43
0.0
 43
0.0
 43
1.0
 77
     0
 47
0.0208333333333333
 47
0.0
 47
0.0
 47
0.0
 47
0.0
 47
0.0208333333333333
 47
0.0
 47
0.0
 47
0.0
 47
0.0
 47
1.0
 47
0.0
 47
0.0
 47
0.0
 47
0.0
 47
1.0
171
     0
 49
0.0208333333333333
 49
0.0
 49
0.0
 49
0.0
 49
0.0
 49
0.0208333333333333
 49
0.0
 49
0.0
 49
0.0
 49
0.0
 49
1.0
 49
0.0
 49
0.0
 49
0.0
 49
0.0
 49
1.0
175
     0
142
0.0208333333333333
142
0.0
142
0.0
142
0.0
142
0.0
142
0.0208333333333333
142
0.0
142
0.0
142
0.0
142
0.0
142
1.0
142
0.0
142
0.0
142
0.0
142
0.0
142
1.0
179
     0
144
0.0208333333333333
144
0.0
144
0.0
144
0.0
144
0.0
144
0.0208333333333333
144
0.0
144
0.0
144
0.0
144
0.0
144
1.0
144
0.0
144
0.0
144
0.0
144
0.0
144
1.0
147
0.0208333333333333
147
0.0
147
0.0
147
0.0
147
0.0
147
0.0208333333333333
147
0.0
147
0.0
147
0.0
147
0.0
147
1.0
147
0.0
147
0.0
147
0.0
147
0.0
147
1.0
  0
MATERIAL
  5
36
102
{ACAD_XDICTIONARY
360
37
102
}
102
{ACAD_REACTORS
330
D
102
}
330
D
100
AcDbMaterial
  1
ByLayer
 72
     0
 43
0.0208333333333333
 43
0.0
 43
0.0
 43
0.0
 43
0.0
 43
0.0208333333333333
 43
0.0
 43
0.0
 43
0.0
 43
0.0
 43
1.0
 43
0.0
 43
0.0
 43
0.0
 43
0.0
 43
1.0
 77
     0
 47
0.0208333333333333
 47
0.0
 47
0.0
 47
0.0
 47
0.0
 47
0.0208333333333333
 47
0.0
 47
0.0
 47
0.0
 47
0.0
 47
1.0
 47
0.0
 47
0.0
 47
0.0
 47
0.0
 47
1.0
171
     0
 49
0.0208333333333333
 49
0.0
 49
0.0
 49
0.0
 49
0.0
 49
0.0208333333333333
 49
0.0
 49
0.0
 49
0.0
 49
0.0
 49
1.0
 49
0.0
 49
0.0
 49
0.0
 49
0.0
 49
1.0
175
     0
142
0.0208333333333333
142
0.0
142
0.0
142
0.0
142
0.0
142
0.0208333333333333
142
0.0
142
0.0
142
0.0
142
0.0
142
1.0
142
0.0
142
0.0
142
0.0
142
0.0
142
1.0
179
     0
144
0.0208333333333333
144
0.0
144
0.0
144
0.0
144
0.0
144
0.0208333333333333
144
0.0
144
0.0
144
0.0
144
0.0
144
1.0
144
0.0
144
0.0
144
0.0
144
0.0
144
1.0
147
0.0208333333333333
147
0.0
147
0.0
147
0.0
147
0.0
147
0.0208333333333333
147
0.0
147
0.0
147
0.0
147
0.0
147
1.0
147
0.0
147
0.0
147
0.0
147
0.0
147
1.0
  0
MATERIAL
  5
C
102
{ACAD_XDICTIONARY
360
E
102
}
102
{ACAD_REACTORS
330
D
102
}
330
D
100
AcDbMaterial
  1
Global
 72
     0
 43
0.0208333333333333
 43
0.0
 43
0.0
 43
0.0
 43
0.0
 43
0.0208333333333333
 43
0.0
 43
0.0
 43
0.0
 43
0.0
 43
1.0
 43
0.0
 43
0.0
 43
0.0
 43
0.0
 43
1.0
 77
     0
 47
0.0208333333333333
 47
0.0
 47
0.0
 47
0.0
 47
0.0
 47
0.0208333333333333
 47
0.0
 47
0.0
 47
0.0
 47
0.0
 47
1.0
 47
0.0
 47
0.0
 47
0.0
 47
0.0
 47
1.0
171
     0
 49
0.0208333333333333
 49
0.0
 49
0.0
 49
0.0
 49
0.0
 49
0.0208333333333333
 49
0.0
 49
0.0
 49
0.0
 49
0.0
 49
1.0
 49
0.0
 49
0.0
 49
0.0
 49
0.0
 49
1.0
175
     0
142
0.0208333333333333
142
0.0
142
0.0
142
0.0
142
0.0
142
0.0208333333333333
142
0.0
142
0.0
142
0.0
142
0.0
142
1.0
142
0.0
142
0.0
142
0.0
142
0.0
142
1.0
179
     0
144
0.0208333333333333
144
0.0
144
0.0
144
0.0
144
0.0
144
0.0208333333333333
144
0.0
144
0.0
144
0.0
144
0.0
144
1.0
144
0.0
144
0.0
144
0.0
144
0.0
144
1.0
147
0.0208333333333333
147
0.0
147
0.0
147
0.0
147
0.0
147
0.0208333333333333
147
0.0
147
0.0
147
0.0
147
0.0
147
1.0
147
0.0
147
0.0
147
0.0
147
0.0
147
1.0
  0
MLEADERSTYLE
  5
1B0
102
{ACAD_REACTORS
330
1AF
102
}
330
1AF
100
AcDbMLeaderStyle
170
     2
171
     1
172
     0
 90
        2
 40
0.0
 41
0.0
173
     1
 91
-1056964608
340
25
 92
       -2
290
     1
 42
0.09
291
     1
 43
0.36
  3
Standard
 44
0.18
300

342
22
174
     1
178
     6
175
     1
176
     0
 93
-1056964608
 45
0.18
292
     0
297
     0
 46
0.18
 94
-1056964608
 47
1.0
 49
1.0
140
1.0
293
     1
141
0.0
294
     1
177
     0
142
1.0
295
     0
296
     0
143
0.125
1001
ACAD_MLEADERVER
1070
     2
  0
MLINESTYLE
  5
49
102
{ACAD_REACTORS
330
34
102
}
330
34
100
AcDbMlineStyle
  2
STANDARD
 70
     0
  3

 62
     0
 51
90.0
 52
90.0
 71
     2
 49
0.5
 62
   256
  6
BYLAYER
 49
-0.5
 62
   256
  6
BYLAYER
  0
ACDBPLACEHOLDER
  5
9
102
{ACAD_REACTORS
330
A
102
}
330
A
  0
SCALE
  5
4E
102
{ACAD_REACTORS
330
47
102
}
330
47
100
AcDbScale
 70
     0
300
1:1
140
1.0
141
1.0
290
     1
  0
SCALE
  5
4F
102
{ACAD_REACTORS
330
47
102
}
330
47
100
AcDbScale
 70
     0
300
1:2
140
1.0
141
2.0
290
     0
  0
SCALE
  5
50
102
{ACAD_REACTORS
330
47
102
}
330
47
100
AcDbScale
 70
     0
300
1:4
140
1.0
141
4.0
290
     0
  0
SCALE
  5
51
102
{ACAD_REACTORS
330
47
102
}
330
47
100
AcDbScale
 70
     0
300
1:5
140
1.0
141
5.0
290
     0
  0
SCALE
  5
52
102
{ACAD_REACTORS
330
47
102
}
330
47
100
AcDbScale
 70
     0
300
1:8
140
1.0
141
8.0
290
     0
  0
SCALE
  5
53
102
{ACAD_REACTORS
330
47
102
}
330
47
100
AcDbScale
 70
     0
300
1:10
140
1.0
141
10.0
290
     0
  0
SCALE
  5
54
102
{ACAD_REACTORS
330
47
102
}
330
47
100
AcDbScale
 70
     0
300
1:16
140
1.0
141
16.0
290
     0
  0
SCALE
  5
55
102
{ACAD_REACTORS
330
47
102
}
330
47
100
AcDbScale
 70
     0
300
1:20
140
1.0
141
20.0
290
     0
  0
SCALE
  5
56
102
{ACAD_REACTORS
330
47
102
}
330
47
100
AcDbScale
 70
     0
300
1:30
140
1.0
141
30.0
290
     0
  0
SCALE
  5
57
102
{ACAD_REACTORS
330
47
102
}
330
47
100
AcDbScale
 70
     0
300
1:40
140
1.0
141
40.0
290
     0
  0
SCALE
  5
58
102
{ACAD_REACTORS
330
47
102
}
330
47
100
AcDbScale
 70
     0
300
1:50
140
1.0
141
50.0
290
     0
  0
SCALE
  5
59
102
{ACAD_REACTORS
330
47
102
}
330
47
100
AcDbScale
 70
     0
300
1:100
140
1.0
141
100.0
290
     0
  0
SCALE
  5
5A
102
{ACAD_REACTORS
330
47
102
}
330
47
100
AcDbScale
 70
     0
300
2:1
140
2.0
141
1.0
290
     0
  0
SCALE
  5
5B
102
{ACAD_REACTORS
330
47
102
}
330
47
100
AcDbScale
 70
     0
300
4:1
140
4.0
141
1.0
290
     0
  0
SCALE
  5
5C
102
{ACAD_REACTORS
330
47
102
}
330
47
100
AcDbScale
 70
     0
300
8:1
140
8.0
141
1.0
290
     0
  0
SCALE
  5
5D
102
{ACAD_REACTORS
330
47
102
}
330
47
100
AcDbScale
 70
     0
300
10:1
140
10.0
141
1.0
290
     0
  0
SCALE
  5
5E
102
{ACAD_REACTORS
330
47
102
}
330
47
100
AcDbScale
 70
     0
300
100:1
140
100.0
141
1.0
290
     0
  0
SCALE
  5
5F
102
{ACAD_REACTORS
330
47
102
}
330
47
100
AcDbScale
 70
     0
300
1/128" = 1'-0"
140
0.0078125
141
12.0
290
     0
  0
SCALE
  5
60
102
{ACAD_REACTORS
330
47
102
}
330
47
100
AcDbScale
 70
     0
300
1/64" = 1'-0"
140
0.015625
141
12.0
290
     0
  0
SCALE
  5
61
102
{ACAD_REACTORS
330
47
102
}
330
47
100
AcDbScale
 70
     0
300
1/32" = 1'-0"
140
0.03125
141
12.0
290
     0
  0
SCALE
  5
62
102
{ACAD_REACTORS
330
47
102
}
330
47
100
AcDbScale
 70
     0
300
1/16" = 1'-0"
140
0.0625
141
12.0
290
     0
  0
SCALE
  5
63
102
{ACAD_REACTORS
330
47
102
}
330
47
100
AcDbScale
 70
     0
300
3/32" = 1'-0"
140
0.09375
141
12.0
290
     0
  0
SCALE
  5
64
102
{ACAD_REACTORS
330
47
102
}
330
47
100
AcDbScale
 70
     0
300
1/8" = 1'-0"
140
0.125
141
12.0
290
     0
  0
SCALE
  5
65
102
{ACAD_REACTORS
330
47
102
}
330
47
100
AcDbScale
 70
     0
300
3/16" = 1'-0"
140
0.1875
141
12.0
290
     0
  0
SCALE
  5
66
102
{ACAD_REACTORS
330
47
102
}
330
47
100
AcDbScale
 70
     0
300
1/4" = 1'-0"
140
0.25
141
12.0
290
     0
  0
SCALE
  5
67
102
{ACAD_REACTORS
330
47
102
}
330
47
100
AcDbScale
 70
     0
300
3/8" = 1'-0"
140
0.375
141
12.0
290
     0
  0
SCALE
  5
68
102
{ACAD_REACTORS
330
47
102
}
330
47
100
AcDbScale
 70
     0
300
1/2" = 1'-0"
140
0.5
141
12.0
290
     0
  0
SCALE
  5
69
102
{ACAD_REACTORS
330
47
102
}
330
47
100
AcDbScale
 70
     0
300
3/4" = 1'-0"
140
0.75
141
12.0
290
     0
  0
SCALE
  5
6A
102
{ACAD_REACTORS
330
47
102
}
330
47
100
AcDbScale
 70
     0
300
1" = 1'-0"
140
1.0
141
12.0
290
     0
  0
SCALE
  5
6B
102
{ACAD_REACTORS
330
47
102
}
330
47
100
AcDbScale
 70
     0
300
1-1/2" = 1'-0"
140
1.5
141
12.0
290
     0
  0
SCALE
  5
6C
102
{ACAD_REACTORS
330
47
102
}
330
47
100
AcDbScale
 70
     0
300
3" = 1'-0"
140
3.0
141
12.0
290
     0
  0
SCALE
  5
6D
102
{ACAD_REACTORS
330
47
102
}
330
47
100
AcDbScale
 70
     0
300
6" = 1'-0"
140
6.0
141
12.0
290
     0
  0
SCALE
  5
6E
102
{ACAD_REACTORS
330
47
102
}
330
47
100
AcDbScale
 70
     0
300
1'-0" = 1'-0"
140
12.0
141
12.0
290
     0
  0
ACDBSECTIONVIEWSTYLE
  5
4EAD
102
{ACAD_XDICTIONARY
360
583D
102
}
102
{ACAD_REACTORS
330
4EAC
330
509F
102
}
330
4EAC
100
AcDbModelDocViewStyle
 70
     0
  3
Imperial24
290
     0
100
AcDbSectionViewStyle
 70
     0
 71
     0
 90
       78
 71
     1
340
22
 40
0.24
340
0
340
0
 40
0.24
300
I, O, Q, S, X, Z
 40
0.48
 90
        3
 40
0.18
 90
        1
 71
     2
340
15
 90
       25
340
15
 90
       50
 40
0.24
 40
0.0
 40
0.24
 71
     3
340
22
 40
0.24
 90
        1
 40
0.75
 90
        1
300
%<\AcVar ViewType \f "%tc1">% %<\AcVar ViewSectionStartId>%-%<\AcVar ViewSectionEndId>%\PSCALE %<\AcVar ViewScale \f "%sn">%
 71
     4
300
ANSI31
 40
1.0
 90
        0
290
     0
290
     0
 90
        6
 40
0.0
 40
1.570796326794896
 40
0.2617993877991494
 40
1.308996938995747
 40
-0.2617993877991494
 40
1.832595714594045
  0
TABLESTYLE
  5
4A
102
{ACAD_XDICTIONARY
360
4B
102
}
102
{ACAD_REACTORS
330
48
102
}
330
48
100
AcDbTableStyle
  3
Standard
 70
     0
 71
     0
 40
0.06
 41
0.06
280
     0
281
     0
  7
STANDARD
140
0.18
170
     2
 62
     0
 63
     7
283
     0
274
    -2
284
     1
 64
     0
275
    -2
285
     1
 65
     0
276
    -2
286
     1
 66
     0
277
    -2
287
     1
 67
     0
278
    -2
288
     1
 68
     0
279
    -2
289
     1
 69
     0
  7
STANDARD
140
0.25
170
     5
 62
     0
 63
     7
283
     0
274
    -2
284
     1
 64
     0
275
    -2
285
     1
 65
     0
276
    -2
286
     1
 66
     0
277
    -2
287
     1
 67
     0
278
    -2
288
     1
 68
     0
279
    -2
289
     1
 69
     0
  7
STANDARD
140
0.18
170
     5
 62
     0
 63
     7
283
     0
274
    -2
284
     1
 64
     0
275
    -2
285
     1
 65
     0
276
    -2
286
     1
 66
     0
277
    -2
287
     1
 67
     0
278
    -2
288
     1
 68
     0
279
    -2
289
     1
 69
     0
  0
VISUALSTYLE
  5
2B
102
{ACAD_XDICTIONARY
360
5808
102
}
102
{ACAD_REACTORS
330
2C
102
}
330
2C
100
AcDbVisualStyle
  2

 70
     4
 71
     0
 72
     2
 73
     0
 90
        0
 40
-0.6
 41
-30.0
 62
     5
 63
     7
 74
     1
 91
        4
 64
     7
 65
   257
 75
     1
175
     1
 42
1.0
 92
        0
 66
   257
 43
1.0
 76
     1
 77
     6
 78
     2
 67
     7
 79
     5
170
     0
171
     0
290
     0
174
     0
 93
        1
 44
0.0
173
     0
291
     0
 45
0.0
1001
ACAD
1000
AcDbSavedByObjectVersion
1070
     0
  0
VISUALSTYLE
  5
1A7
102
{ACAD_XDICTIONARY
360
5819
102
}
102
{ACAD_REACTORS
330
2C
102
}
330
2C
100
AcDbVisualStyle
  2

 70
     6
 71
     1
 72
     2
 73
     2
 90
        0
 40
-0.6
 41
-30.0
 62
     5
 63
     7
 74
     2
 91
        2
 64
     7
 65
   257
 75
     2
175
     1
 42
40.0
 92
        0
 66
   257
 43
1.0
 76
     1
 77
     6
 78
     2
 67
     7
 79
     3
170
     0
171
     0
290
     0
174
     0
 93
        1
 44
0.0
173
     0
291
     0
 45
0.0
1001
ACAD
1000
AcDbSavedByObjectVersion
1070
     0
  0
VISUALSTYLE
  5
4D
102
{ACAD_XDICTIONARY
360
580D
102
}
102
{ACAD_REACTORS
330
2C
102
}
330
2C
100
AcDbVisualStyle
  2

 70
     5
 71
     0
 72
     2
 73
     0
 90
        0
 40
-0.6
 41
-30.0
 62
     5
 63
     7
 74
     1
 91
        4
 64
     7
 65
   257
 75
     1
175
     1
 42
1.0
 92
        0
 66
   257
 43
1.0
 76
     1
 77
     6
 78
     2
 67
     7
 79
     5
170
     0
171
     0
290
     0
174
     0
 93
        1
 44
0.0
173
     0
291
     0
 45
0.0
1001
ACAD
1000
AcDbSavedByObjectVersion
1070
     0
  0
VISUALSTYLE
  5
1A6
102
{ACAD_XDICTIONARY
360
5817
102
}
102
{ACAD_REACTORS
330
2C
102
}
330
2C
100
AcDbVisualStyle
  2

 70
     7
 71
     1
 72
     0
 73
     1
 90
        0
 40
-0.6
 41
-30.0
 62
     5
 63
     7
 74
     0
 91
        4
 64
     7
 65
   257
 75
     1
175
     1
 42
1.0
 92
        8
 66
     7
 43
1.0
 76
     1
 77
     6
 78
     2
 67
     7
 79
     5
170
     0
171
     0
290
     0
174
     0
 93
        1
 44
0.0
173
     0
291
     1
 45
0.0
1001
ACAD
1000
AcDbSavedByObjectVersion
1070
     0
  0
VISUALSTYLE
  5
1AA
102
{ACAD_XDICTIONARY
360
581F
102
}
102
{ACAD_REACTORS
330
2C
102
}
330
2C
100
AcDbVisualStyle
  2

 70
    12
 71
     2
 72
     2
 73
     0
 90
        0
 40
-0.6
 41
-30.0
 62
     5
 63
     7
 74
     1
 91
        4
 64
     7
 65
   257
 75
     1
175
     1
 42
1.0
 92
        8
 66
     7
 43
1.0
 76
     1
 77
     6
 78
     2
 67
     7
 79
     5
170
     0
171
     0
290
     0
174
     0
 93
        1
 44
50.0
173
     0
291
     1
 45
0.0
1001
ACAD
1000
AcDbSavedByObjectVersion
1070
     0
  0
VISUALSTYLE
  5
1AE
102
{ACAD_XDICTIONARY
360
5827
102
}
102
{ACAD_REACTORS
330
2C
102
}
330
2C
100
AcDbVisualStyle
  2

 70
    16
 71
     2
 72
     2
 73
     3
 90
        0
 40
-0.6
 41
-30.0
 62
     5
 63
     8
 74
     1
 91
        4
 64
     7
 65
   257
 75
     1
175
     1
 42
1.0
 92
        8
 66
     8
 43
1.0
 76
     1
 77
     6
 78
     2
 67
     7
 79
     5
170
     0
171
     0
290
     0
174
     0
 93
        1
 44
0.0
173
     0
291
     1
 45
0.0
1001
ACAD
1000
AcDbSavedByObjectVersion
1070
     0
  0
VISUALSTYLE
  5
1A8
102
{ACAD_XDICTIONARY
360
581B
102
}
102
{ACAD_REACTORS
330
2C
102
}
330
2C
100
AcDbVisualStyle
  2

 70
     9
 71
     3
 72
     2
 73
     0
 90
        0
 40
-0.6
 41
-30.0
 62
     5
 63
     7
 74
     2
 91
        2
 64
     7
 65
   257
 75
     1
175
     1
 42
40.0
 92
        8
 66
     7
 43
1.0
 76
     1
 77
     6
 78
     2
 67
     7
 79
     3
170
     0
171
     0
290
     0
174
     0
 93
        1
 44
0.0
173
     0
291
     0
 45
0.0
1001
ACAD
1000
AcDbSavedByObjectVersion
1070
     0
  0
VISUALSTYLE
  5
1A9
102
{ACAD_XDICTIONARY
360
581D
102
}
102
{ACAD_REACTORS
330
2C
102
}
330
2C
100
AcDbVisualStyle
  2

 70
    11
 71
     2
 72
     2
 73
     0
 90
        0
 40
-0.6
 41
-30.0
 62
     5
 63
     7
 74
     1
 91
        4
 64
     7
 65
   257
 75
     1
175
     1
 42
1.0
 92
        8
 66
     7
 43
1.0
 76
     1
 77
     6
 78
     2
 67
     7
 79
     5
170
     0
171
     0
290
     0
174
     0
 93
        1
 44
-50.0
173
     0
291
     1
 45
0.0
1001
ACAD
1000
AcDbSavedByObjectVersion
1070
     0
  0
VISUALSTYLE
  5
4EAB
102
{ACAD_XDICTIONARY
360
583B
102
}
102
{ACAD_REACTORS
330
2C
102
}
330
2C
100
AcDbVisualStyle
  2

 70
    22
 71
     2
 72
     2
 73
     0
 90
        0
 40
-0.6
 41
-30.0
 62
     5
 63
     7
 74
     1
 91
        4
 64
     7
 65
   257
 75
     1
175
     1
 42
1.0
 92
        8
 66
     7
 43
1.0
 76
     1
 77
     6
 78
     2
 67
     7
 79
     5
170
     0
171
     0
290
     0
174
     0
 93
        1
 44
0.0
173
     0
291
     1
 45
0.0
1001
ACAD
1000
AcDbSavedByObjectVersion
1070
     0
  0
VISUALSTYLE
  5
1AD
102
{ACAD_XDICTIONARY
360
5825
102
}
102
{ACAD_REACTORS
330
2C
102
}
330
2C
100
AcDbVisualStyle
  2

 70
    15
 71
     2
 72
     2
 73
     0
 90
        0
 40
-0.6
 41
-30.0
 62
     5
 63
     7
 74
     1
 91
        4
 64
     7
 65
   257
 75
     1
175
     1
 42
1.0
 92
        8
 66
     7
 43
1.0
 76
     1
 77
     6
 78
     2
 67
     7
 79
     5
170
     0
171
     0
290
     0
174
     0
 93
        1
 44
0.0
173
     0
291
     1
 45
0.0
1001
ACAD
1000
AcDbSavedByObjectVersion
1070
     0
  0
VISUALSTYLE
  5
1A2
102
{ACAD_XDICTIONARY
360
580F
102
}
102
{ACAD_REACTORS
330
2C
102
}
330
2C
100
AcDbVisualStyle
  2

 70
     0
 71
     2
 72
     1
 73
     1
 90
        2
 40
-0.6
 41
30.0
 62
     5
 63
     7
 74
     0
 91
        4
 64
     7
 65
   257
 75
     1
175
     1
 42
1.0
 92
        8
 66
     7
 43
1.0
 76
     1
 77
     6
 78
     2
 67
     7
 79
     5
170
     0
171
     0
290
     0
174
     0
 93
       13
 44
0.0
173
     0
291
     1
 45
0.0
1001
ACAD
1000
AcDbSavedByObjectVersion
1070
     0
  0
VISUALSTYLE
  5
1A3
102
{ACAD_XDICTIONARY
360
5811
102
}
102
{ACAD_REACTORS
330
2C
102
}
330
2C
100
AcDbVisualStyle
  2

 70
     1
 71
     2
 72
     1
 73
     1
 90
        2
 40
-0.6
 41
30.0
 62
     5
 63
     7
 74
     1
 91
        4
 64
     7
 65
   257
 75
     1
175
     1
 42
1.0
 92
        0
 66
   257
 43
1.0
 76
     1
 77
     6
 78
     2
 67
     7
 79
     5
170
     0
171
     0
290
     0
174
     0
 93
       13
 44
0.0
173
     0
291
     1
 45
0.0
1001
ACAD
1000
AcDbSavedByObjectVersion
1070
     0
  0
VISUALSTYLE
  5
1A4
102
{ACAD_XDICTIONARY
360
5813
102
}
102
{ACAD_REACTORS
330
2C
102
}
330
2C
100
AcDbVisualStyle
  2

 70
     2
 71
     2
 72
     2
 73
     1
 90
        2
 40
-0.6
 41
30.0
 62
     5
 63
     7
 74
     0
 91
        4
 64
     7
 65
   257
 75
     1
175
     1
 42
1.0
 92
        0
 66
     7
 43
1.0
 76
     1
 77
     6
 78
     2
 67
     7
 79
     5
170
     0
171
     0
290
     0
174
     0
 93
       13
 44
0.0
173
     0
291
     1
 45
0.0
1001
ACAD
1000
AcDbSavedByObjectVersion
1070
     0
  0
VISUALSTYLE
  5
1A5
102
{ACAD_XDICTIONARY
360
5815
102
}
102
{ACAD_REACTORS
330
2C
102
}
330
2C
100
AcDbVisualStyle
  2

 70
     3
 71
     2
 72
     2
 73
     1
 90
        2
 40
-0.6
 41
30.0
 62
     5
 63
     7
 74
     1
 91
        4
 64
     7
 65
   257
 75
     1
175
     1
 42
1.0
 92
        0
 66
   257
 43
1.0
 76
     1
 77
     6
 78
     2
 67
     7
 79
     5
170
     0
171
     0
290
     0
174
     0
 93
       13
 44
0.0
173
     0
291
     1
 45
0.0
1001
ACAD
1000
AcDbSavedByObjectVersion
1070
     0
  0
VISUALSTYLE
  5
4EA3
102
{ACAD_XDICTIONARY
360
582B
102
}
102
{ACAD_REACTORS
330
2C
102
}
330
2C
100
AcDbVisualStyle
  2

 70
     6
 71
     1
 72
     2
 73
     2
 90
        0
 40
-0.6
 41
-30.0
 62
     5
 63
     7
 74
     2
 91
        2
 64
     7
 65
   257
 75
     2
175
     1
 42
40.0
 92
        0
 66
   257
 43
1.0
 76
     1
 77
     6
 78
     2
 67
     7
 79
     3
170
     0
171
     0
290
     0
174
     0
 93
        1
 44
0.0
173
     0
291
     0
 45
0.0
1001
ACAD
1000
AcDbSavedByObjectVersion
1070
     0
  0
VISUALSTYLE
  5
4EA9
102
{ACAD_XDICTIONARY
360
5837
102
}
102
{ACAD_REACTORS
330
2C
102
}
330
2C
100
AcDbVisualStyle
  2

 70
    20
 71
     2
 72
     2
 73
     0
 90
        0
 40
-0.6
 41
-30.0
 62
     5
 63
     7
 74
     1
 91
        4
 64
     7
 65
   257
 75
     1
175
     1
 42
1.0
 92
       10
 66
     7
 43
1.0
 76
     1
 77
     6
 78
     2
 67
     7
 79
     5
170
     0
171
     0
290
     0
174
     0
 93
        1
 44
0.0
173
     0
291
     1
 45
0.0
1001
ACAD
1000
AcDbSavedByObjectVersion
1070
     0
  0
VISUALSTYLE
  5
1AC
102
{ACAD_XDICTIONARY
360
5823
102
}
102
{ACAD_REACTORS
330
2C
102
}
330
2C
100
AcDbVisualStyle
  2

 70
    14
 71
     2
 72
     2
 73
     0
 90
        0
 40
-0.6
 41
-30.0
 62
     5
 63
     7
 74
     1
 91
        4
 64
     7
 65
   257
 75
     7
175
     7
 42
1.0
 92
        8
 66
     7
 43
1.0
 76
     1
 77
     6
 78
     2
 67
     7
 79
     5
170
     0
171
     0
290
     0
174
     0
 93
        1
 44
0.0
173
     0
291
     1
 45
0.0
1001
ACAD
1000
AcDbSavedByObjectVersion
1070
     0
  0
VISUALSTYLE
  5
4EAA
102
{ACAD_XDICTIONARY
360
5839
102
}
102
{ACAD_REACTORS
330
2C
102
}
330
2C
100
AcDbVisualStyle
  2

 70
    21
 71
     2
 72
     2
 73
     0
 90
        0
 40
-0.6
 41
-30.0
 62
     5
 63
     7
 74
     1
 91
        4
 64
     7
 65
   257
 75
     1
175
     1
 42
1.0
 92
        9
 66
     7
 43
1.0
 76
     1
 77
     6
 78
     2
 67
     7
 79
     5
170
     0
171
     0
290
     0
174
     0
 93
        1
 44
0.0
173
     0
291
     1
 45
0.0
1001
ACAD
1000
AcDbSavedByObjectVersion
1070
     0
  0
VISUALSTYLE
  5
4C
102
{ACAD_XDICTIONARY
360
580B
102
}
102
{ACAD_REACTORS
330
2C
102
}
330
2C
100
AcDbVisualStyle
  2

 70
     8
 71
     2
 72
     2
 73
     0
 90
        0
 40
-0.6
 41
-30.0
 62
     5
 63
     7
 74
     1
 91
        0
 64
     7
 65
   257
 75
     1
175
     1
 42
1.0
 92
        8
 66
     8
 43
1.0
 76
     1
 77
     6
 78
     2
 67
     7
 79
     5
170
     0
171
     0
290
     0
174
     0
 93
       13
 44
0.0
173
     0
291
     0
 45
0.0
1001
ACAD
1000
AcDbSavedByObjectVersion
1070
     0
  0
VISUALSTYLE
  5
4EA8
102
{ACAD_XDICTIONARY
360
5835
102
}
102
{ACAD_REACTORS
330
2C
102
}
330
2C
100
AcDbVisualStyle
  2

 70
    27
 71
     2
 72
     2
 73
     1
 90
        2
 40
-0.6
 41
30.0
 62
     5
 63
     7
 74
     0
 91
        4
 64
     7
 65
   257
 75
     1
175
     1
 42
1.0
 92
        8
 66
   257
 43
1.0
 76
     1
 77
     6
 78
     2
 67
     8
 79
     3
170
     0
171
     0
290
     0
174
     0
 93
        5
 44
0.0
173
     0
291
     0
 45
0.0
1001
ACAD
1000
AcDbSavedByObjectVersion
1070
     0
  0
VISUALSTYLE
  5
4EA7
102
{ACAD_XDICTIONARY
360
5833
102
}
102
{ACAD_REACTORS
330
2C
102
}
330
2C
100
AcDbVisualStyle
  2

 70
    26
 71
     2
 72
     2
 73
     1
 90
        2
 40
-0.6
 41
30.0
 62
     5
 63
     7
 74
     1
 91
        2
 64
     7
 65
   257
 75
     2
175
     1
 42
1.0
 92
        8
 66
   257
 43
1.0
 76
     1
 77
     6
 78
     2
 67
     7
 79
     3
170
     0
171
     0
290
     0
174
     0
 93
        5
 44
0.0
173
     0
291
     0
 45
0.0
1001
ACAD
1000
AcDbSavedByObjectVersion
1070
     0
  0
VISUALSTYLE
  5
4EA4
102
{ACAD_XDICTIONARY
360
582D
102
}
102
{ACAD_REACTORS
330
2C
102
}
330
2C
100
AcDbVisualStyle
  2

 70
    23
 71
     2
 72
     2
 73
     3
 90
        0
 40
-0.6
 41
-30.0
 62
     5
 63
     7
 74
     2
 91
        2
 64
     7
 65
     7
 75
     1
175
     1
 42
40.0
 92
        8
 66
     7
 43
1.0
 76
     1
 77
     6
 78
     2
 67
     7
 79
     3
170
     0
171
     0
290
     0
174
     0
 93
        1
 44
0.0
173
     0
291
     0
 45
0.0
1001
ACAD
1000
AcDbSavedByObjectVersion
1070
     0
  0
VISUALSTYLE
  5
4EA5
102
{ACAD_XDICTIONARY
360
582F
102
}
102
{ACAD_REACTORS
330
2C
102
}
330
2C
100
AcDbVisualStyle
  2

 70
    24
 71
     1
 72
     2
 73
     2
 90
        0
 40
-0.6
 41
-30.0
 62
     5
 63
     7
 74
     2
 91
        2
 64
     7
 65
     7
 75
     1
175
     1
 42
40.0
 92
       11
 66
     7
 43
1.0
 76
     1
 77
     6
 78
     2
 67
     7
 79
     6
170
     0
171
     0
290
     0
174
     0
 93
        1
 44
0.0
173
     0
291
     0
 45
0.0
1001
ACAD
1000
AcDbSavedByObjectVersion
1070
     0
  0
VISUALSTYLE
  5
1AB
102
{ACAD_XDICTIONARY
360
5821
102
}
102
{ACAD_REACTORS
330
2C
102
}
330
2C
100
AcDbVisualStyle
  2

 70
    13
 71
     2
 72
     2
 73
     0
 90
        0
 40
-0.6
 41
-30.0
 62
     5
 63
     7
 74
     1
 91
        4
 64
     7
 65
   257
 75
     1
175
     1
 42
1.0
 92
       12
 66
     7
 43
1.0
 76
     1
 77
     6
 78
     2
 67
     7
 79
     5
170
     0
171
     0
290
     0
174
     0
 93
        1
 44
0.0
173
     0
291
     1
 45
0.0
1001
ACAD
1000
AcDbSavedByObjectVersion
1070
     0
  0
VISUALSTYLE
  5
4EA2
102
{ACAD_XDICTIONARY
360
5829
102
}
102
{ACAD_REACTORS
330
2C
102
}
330
2C
100
AcDbVisualStyle
  2

 70
     5
 71
     0
 72
     2
 73
     0
 90
        0
 40
-0.6
 41
-30.0
 62
     5
 63
     7
 74
     1
 91
        4
 64
     7
 65
   257
 75
     1
175
     1
 42
1.0
 92
        0
 66
   257
 43
1.0
 76
     1
 77
     6
 78
     2
 67
     7
 79
     3
170
     0
171
     0
290
     0
174
     0
 93
        1
 44
0.0
173
     0
291
     0
 45
0.0
1001
ACAD
1000
AcDbSavedByObjectVersion
1070
     0
  0
VISUALSTYLE
  5
4EA6
102
{ACAD_XDICTIONARY
360
5831
102
}
102
{ACAD_REACTORS
330
2C
102
}
330
2C
100
AcDbVisualStyle
  2

 70
    25
 71
     2
 72
     2
 73
     1
 90
        1
 40
0.5
 41
-30.0
 62
     5
 63
     7
 74
     1
 91
        0
 64
     7
 65
   257
 75
     1
175
     1
 42
1.0
 92
        8
 66
     7
 43
1.0
 76
     1
 77
     6
 78
     2
 67
     7
 79
     3
170
     0
171
     0
290
     0
174
     0
 93
       13
 44
0.0
173
     0
291
     0
 45
0.0
1001
ACAD
1000
AcDbSavedByObjectVersion
1070
     0
  0
DICTIONARYVAR
  5
19C
102
{ACAD_REACTORS
330
198
102
}
330
198
100
DictionaryVariables
280
     0
  1
1:1
  0
DICTIONARYVAR
  5
19A
102
{ACAD_REACTORS
330
198
102
}
330
198
100
DictionaryVariables
280
     0
  1
STANDARD
  0
DICTIONARYVAR
  5
199
102
{ACAD_REACTORS
330
198
102
}
330
198
100
DictionaryVariables
280
     0
  1
STANDARD
  0
DICTIONARYVAR
  5
4FF9
102
{ACAD_REACTORS
330
198
102
}
330
198
100
DictionaryVariables
280
     0
  1
ASME Y14.35 - 1987
  0
DICTIONARYVAR
  5
4FFA
102
{ACAD_REACTORS
330
198
102
}
330
198
100
DictionaryVariables
280
     0
  1
ASME Y14.3 - 2003
  0
DICTIONARYVAR
  5
1A0
102
{ACAD_REACTORS
330
198
102
}
330
198
100
DictionaryVariables
280
     0
  1
1
  0
DICTIONARYVAR
  5
19F
102
{ACAD_REACTORS
330
198
102
}
330
198
100
DictionaryVariables
280
     0
  1
1
  0
DICTIONARYVAR
  5
19E
102
{ACAD_REACTORS
330
198
102
}
330
198
100
DictionaryVariables
280
     0
  1
0
  0
DICTIONARYVAR
  5
57B9
102
{ACAD_REACTORS
330
198
102
}
330
198
100
DictionaryVariables
280
     0
  1
1
  0
DICTIONARYVAR
  5
57BA
102
{ACAD_REACTORS
330
198
102
}
330
198
100
DictionaryVariables
280
     0
  1
15
  0
DICTIONARYVAR
  5
57B8
102
{ACAD_REACTORS
330
198
102
}
330
198
100
DictionaryVariables
280
     0
  1
0
  0
DICTIONARYVAR
  5
19B
102
{ACAD_REACTORS
330
198
102
}
330
198
100
DictionaryVariables
280
     0
  1
1
  0
DICTIONARYVAR
  5
19D
102
{ACAD_REACTORS
330
198
102
}
330
198
100
DictionaryVariables
280
     0
  1
127
  0
DICTIONARYVAR
  5
5771
102
{ACAD_REACTORS
330
198
102
}
330
198
100
DictionaryVariables
280
     0
  1
0
  0
DICTIONARY
  5
5075
102
{ACAD_REACTORS
330
506E
102
}
330
506E
100
AcDbDictionary
281
     1
  0
DICTIONARY
  5
5044
102
{ACAD_REACTORS
330
5043
102
}
330
5043
100
AcDbDictionary
281
     1
  3
DWGSETTINGS
350
5045
  3
TRANSSETTINGS
350
5046
  0
ACAMGFILTERDAT
  5
5214
102
{ACAD_REACTORS
330
5210
102
}
330
5210
100
AcAmgFilterDat
 70
    15
  1
*
  2
AM_FEA-AM_*
  3
*
  4
*
  5
*
290
     1
  0
ACAMGFILTERDAT
  5
5216
102
{ACAD_REACTORS
330
5210
102
}
330
5210
100
AcAmgFilterDat
 70
    15
  1
ARC
  2
AM_5
  3
*
  4
2
  5
INSERT
290
     0
  0
ACAMGFILTERDAT
  5
5213
102
{ACAD_REACTORS
330
5210
102
}
330
5210
100
AcAmgFilterDat
 70
    15
  1
ACMFCFRAME,ACMDATUMTARGET,ACMDATUMID,ACMWELDSYM,ACMSURFSYM,ACMFEATID,ACMPARTREF,ACMBALLOON,AMDTEDGESYM,AMGSCREWCALCTABLE,ACMMARKSTAMP
  2
*
  3
*
  4
*
  5
*
290
     1
  0
ACAMGFILTERDAT
  5
5215
102
{ACAD_REACTORS
330
5210
102
}
330
5210
100
AcAmgFilterDat
 70
    15
  1
DIMENSION,AMDT_*_DIM
  2
*
  3
*
  4
*
  5
*
290
     1
  0
ACAMGFILTERDAT
  5
5211
102
{ACAD_REACTORS
330
5210
102
}
330
5210
100
AcAmgFilterDat
 70
    15
  1
HATCH
  2
*
  3
*
  4
*
  5
*
290
     1
  0
ACAMGFILTERDAT
  5
5212
102
{ACAD_REACTORS
330
5210
102
}
330
5210
100
AcAmgFilterDat
 70
    15
  1
LINE
  2
8,8N,*-8,*-8N,AM_8,AM_8N,*-AM_8,*-AM_8N
  3
*
  4
*
  5
INSERT,STDPART2D
290
     1
  0
DICTIONARY
  5
583F
330
4EAF
100
AcDbDictionary
280
     1
281
     1
  3
ACAD_XREC_ROUNDTRIP
360
5840
  0
DICTIONARY
  5
5806
330
1D
100
AcDbDictionary
280
     1
281
     1
  3
ACAD_XREC_ROUNDTRIP
360
5807
  0
DICTIONARY
  5
5804
330
17
100
AcDbDictionary
280
     1
281
     1
  3
ACAD_XREC_ROUNDTRIP
360
5805
  0
DICTIONARY
  5
3F
330
3E
100
AcDbDictionary
280
     1
281
     1
  3
ACAD_XREC_ROUNDTRIP
360
4E9C
  3
BUMPTILE
360
40
  3
DIFFUSETILE
360
41
  3
OPACITYTILE
360
42
  3
REFLECTIONTILE
360
43
  3
REFRACTIONTILE
360
44
  3
SPECULARTILE
360
45
  0
DICTIONARY
  5
37
330
36
100
AcDbDictionary
280
     1
281
     1
  3
ACAD_XREC_ROUNDTRIP
360
4E9B
  3
BUMPTILE
360
38
  3
DIFFUSETILE
360
39
  3
OPACITYTILE
360
3A
  3
REFLECTIONTILE
360
3B
  3
REFRACTIONTILE
360
3C
  3
SPECULARTILE
360
3D
  0
DICTIONARY
  5
E
330
C
100
AcDbDictionary
280
     1
281
     1
  3
ACAD_XREC_ROUNDTRIP
360
4E9A
  3
BUMPTILE
360
F
  3
DIFFUSETILE
360
10
  3
OPACITYTILE
360
11
  3
REFLECTIONTILE
360
12
  3
REFRACTIONTILE
360
13
  3
SPECULARTILE
360
14
  0
DICTIONARY
  5
583D
330
4EAD
100
AcDbDictionary
280
     1
281
     1
  3
ACAD_XREC_ROUNDTRIP
360
583E
  0
DICTIONARY
  5
4B
330
4A
100
AcDbDictionary
280
     1
281
     1
  3
ACAD_ROUNDTRIP_2008_TABLESTYLE_CELLSTYLEMAP
360
5801
  3
ACAD_XREC_ROUNDTRIP
360
580A
  0
DICTIONARY
  5
5808
330
2B
100
AcDbDictionary
280
     1
281
     1
  3
ACAD_XREC_ROUNDTRIP
360
5809
  0
DICTIONARY
  5
5819
330
1A7
100
AcDbDictionary
280
     1
281
     1
  3
ACAD_XREC_ROUNDTRIP
360
581A
  0
DICTIONARY
  5
580D
330
4D
100
AcDbDictionary
280
     1
281
     1
  3
ACAD_XREC_ROUNDTRIP
360
580E
  0
DICTIONARY
  5
5817
330
1A6
100
AcDbDictionary
280
     1
281
     1
  3
ACAD_XREC_ROUNDTRIP
360
5818
  0
DICTIONARY
  5
581F
330
1AA
100
AcDbDictionary
280
     1
281
     1
  3
ACAD_XREC_ROUNDTRIP
360
5820
  0
DICTIONARY
  5
5827
330
1AE
100
AcDbDictionary
280
     1
281
     1
  3
ACAD_XREC_ROUNDTRIP
360
5828
  0
DICTIONARY
  5
581B
330
1A8
100
AcDbDictionary
280
     1
281
     1
  3
ACAD_XREC_ROUNDTRIP
360
581C
  0
DICTIONARY
  5
581D
330
1A9
100
AcDbDictionary
280
     1
281
     1
  3
ACAD_XREC_ROUNDTRIP
360
581E
  0
DICTIONARY
  5
583B
330
4EAB
100
AcDbDictionary
280
     1
281
     1
  3
ACAD_XREC_ROUNDTRIP
360
583C
  0
DICTIONARY
  5
5825
330
1AD
100
AcDbDictionary
280
     1
281
     1
  3
ACAD_XREC_ROUNDTRIP
360
5826
  0
DICTIONARY
  5
580F
330
1A2
100
AcDbDictionary
280
     1
281
     1
  3
ACAD_XREC_ROUNDTRIP
360
5810
  0
DICTIONARY
  5
5811
330
1A3
100
AcDbDictionary
280
     1
281
     1
  3
ACAD_XREC_ROUNDTRIP
360
5812
  0
DICTIONARY
  5
5813
330
1A4
100
AcDbDictionary
280
     1
281
     1
  3
ACAD_XREC_ROUNDTRIP
360
5814
  0
DICTIONARY
  5
5815
330
1A5
100
AcDbDictionary
280
     1
281
     1
  3
ACAD_XREC_ROUNDTRIP
360
5816
  0
DICTIONARY
  5
582B
330
4EA3
100
AcDbDictionary
280
     1
281
     1
  3
ACAD_XREC_ROUNDTRIP
360
582C
  0
DICTIONARY
  5
5837
330
4EA9
100
AcDbDictionary
280
     1
281
     1
  3
ACAD_XREC_ROUNDTRIP
360
5838
  0
DICTIONARY
  5
5823
330
1AC
100
AcDbDictionary
280
     1
281
     1
  3
ACAD_XREC_ROUNDTRIP
360
5824
  0
DICTIONARY
  5
5839
330
4EAA
100
AcDbDictionary
280
     1
281
     1
  3
ACAD_XREC_ROUNDTRIP
360
583A
  0
DICTIONARY
  5
580B
330
4C
100
AcDbDictionary
280
     1
281
     1
  3
ACAD_XREC_ROUNDTRIP
360
580C
  0
DICTIONARY
  5
5835
330
4EA8
100
AcDbDictionary
280
     1
281
     1
  3
ACAD_XREC_ROUNDTRIP
360
5836
  0
DICTIONARY
  5
5833
330
4EA7
100
AcDbDictionary
280
     1
281
     1
  3
ACAD_XREC_ROUNDTRIP
360
5834
  0
DICTIONARY
  5
582D
330
4EA4
100
AcDbDictionary
280
     1
281
     1
  3
ACAD_XREC_ROUNDTRIP
360
582E
  0
DICTIONARY
  5
582F
330
4EA5
100
AcDbDictionary
280
     1
281
     1
  3
ACAD_XREC_ROUNDTRIP
360
5830
  0
DICTIONARY
  5
5821
330
1AB
100
AcDbDictionary
280
     1
281
     1
  3
ACAD_XREC_ROUNDTRIP
360
5822
  0
DICTIONARY
  5
5829
330
4EA2
100
AcDbDictionary
280
     1
281
     1
  3
ACAD_XREC_ROUNDTRIP
360
582A
  0
DICTIONARY
  5
5831
330
4EA6
100
AcDbDictionary
280
     1
281
     1
  3
ACAD_XREC_ROUNDTRIP
360
5832
  0
XRECORD
  5
5840
102
{ACAD_REACTORS
330
583F
102
}
330
583F
100
AcDbXrecord
280
     1
102
DISPLAYNAME
  1
Imperial24
102
FLAGS
 90
        0
  0
XRECORD
  5
5807
102
{ACAD_REACTORS
330
5806
102
}
330
5806
100
AcDbXrecord
280
     1
102
SHADEPLOT
 70
     0
102
SHADEPLOTRESLEVEL
 70
     2
102
SHADEPLOTCUSTOMDPI
 70
   300
  0
XRECORD
  5
5805
102
{ACAD_REACTORS
330
5804
102
}
330
5804
100
AcDbXrecord
280
     1
102
SHADEPLOT
 70
     1
102
SHADEPLOTRESLEVEL
 70
     2
102
SHADEPLOTCUSTOMDPI
 70
   300
  0
XRECORD
  5
4E9C
102
{ACAD_REACTORS
330
3F
102
}
330
3F
100
AcDbXrecord
280
     1
102
MATERIAL
148
0.0
149
0.0
149
0.0
 93
        0
 94
      127
282
     0
 72
     0
 77
     0
171
     0
175
     0
179
     0
273
     0
  0
XRECORD
  5
40
102
{ACAD_REACTORS
330
3F
102
}
330
3F
100
AcDbXrecord
280
     1
270
     1
271
     1
  0
XRECORD
  5
41
102
{ACAD_REACTORS
330
3F
102
}
330
3F
100
AcDbXrecord
280
     1
270
     1
271
     1
  0
XRECORD
  5
42
102
{ACAD_REACTORS
330
3F
102
}
330
3F
100
AcDbXrecord
280
     1
270
     1
271
     1
  0
XRECORD
  5
43
102
{ACAD_REACTORS
330
3F
102
}
330
3F
100
AcDbXrecord
280
     1
270
     1
271
     1
  0
XRECORD
  5
44
102
{ACAD_REACTORS
330
3F
102
}
330
3F
100
AcDbXrecord
280
     1
270
     1
271
     1
  0
XRECORD
  5
45
102
{ACAD_REACTORS
330
3F
102
}
330
3F
100
AcDbXrecord
280
     1
270
     1
271
     1
  0
XRECORD
  5
4E9B
102
{ACAD_REACTORS
330
37
102
}
330
37
100
AcDbXrecord
280
     1
102
MATERIAL
148
0.0
149
0.0
149
0.0
 93
        0
 94
      127
282
     0
 72
     0
 77
     0
171
     0
175
     0
179
     0
273
     0
  0
XRECORD
  5
38
102
{ACAD_REACTORS
330
37
102
}
330
37
100
AcDbXrecord
280
     1
270
     1
271
     1
  0
XRECORD
  5
39
102
{ACAD_REACTORS
330
37
102
}
330
37
100
AcDbXrecord
280
     1
270
     1
271
     1
  0
XRECORD
  5
3A
102
{ACAD_REACTORS
330
37
102
}
330
37
100
AcDbXrecord
280
     1
270
     1
271
     1
  0
XRECORD
  5
3B
102
{ACAD_REACTORS
330
37
102
}
330
37
100
AcDbXrecord
280
     1
270
     1
271
     1
  0
XRECORD
  5
3C
102
{ACAD_REACTORS
330
37
102
}
330
37
100
AcDbXrecord
280
     1
270
     1
271
     1
  0
XRECORD
  5
3D
102
{ACAD_REACTORS
330
37
102
}
330
37
100
AcDbXrecord
280
     1
270
     1
271
     1
  0
XRECORD
  5
4E9A
102
{ACAD_REACTORS
330
E
102
}
330
E
100
AcDbXrecord
280
     1
102
MATERIAL
148
0.0
149
0.0
149
0.0
 93
        0
 94
      127
282
     0
 72
     0
 77
     0
171
     0
175
     0
179
     0
273
     0
  0
XRECORD
  5
F
102
{ACAD_REACTORS
330
E
102
}
330
E
100
AcDbXrecord
280
     1
270
     1
271
     1
  0
XRECORD
  5
10
102
{ACAD_REACTORS
330
E
102
}
330
E
100
AcDbXrecord
280
     1
270
     1
271
     1
  0
XRECORD
  5
11
102
{ACAD_REACTORS
330
E
102
}
330
E
100
AcDbXrecord
280
     1
270
     1
271
     1
  0
XRECORD
  5
12
102
{ACAD_REACTORS
330
E
102
}
330
E
100
AcDbXrecord
280
     1
270
     1
271
     1
  0
XRECORD
  5
13
102
{ACAD_REACTORS
330
E
102
}
330
E
100
AcDbXrecord
280
     1
270
     1
271
     1
  0
XRECORD
  5
14
102
{ACAD_REACTORS
330
E
102
}
330
E
100
AcDbXrecord
280
     1
270
     1
271
     1
  0
XRECORD
  5
583E
102
{ACAD_REACTORS
330
583D
102
}
330
583D
100
AcDbXrecord
280
     1
102
DISPLAYNAME
  1
Imperial24
102
FLAGS
 90
        0
  0
CELLSTYLEMAP
  5
5801
102
{ACAD_REACTORS
330
4B
102
}
330
4B
100
AcDbCellStyleMap
 90
        3
300
CELLSTYLE
  1
TABLEFORMAT_BEGIN
 90
        5
170
     1
 91
        0
 92
    32768
 62
   257
 93
        1
300
CONTENTFORMAT
  1
CONTENTFORMAT_BEGIN
 90
        0
 91
        0
 92
      512
 93
        0
300

 40
0.0
140
1.0
 94
        5
 62
     0
340
22
144
0.25
309
CONTENTFORMAT_END
171
     1
301
MARGIN
  1
CELLMARGIN_BEGIN
 40
0.06
 40
0.06
 40
0.06
 40
0.06
 40
0.18
 40
0.18
309
CELLMARGIN_END
 94
        6
 95
        1
302
GRIDFORMAT
  1
GRIDFORMAT_BEGIN
 90
        0
 91
        1
 62
     0
 92
       -2
340
0
 93
        0
 40
0.045
309
GRIDFORMAT_END
 95
        2
302
GRIDFORMAT
  1
GRIDFORMAT_BEGIN
 90
        0
 91
        1
 62
     0
 92
       -2
340
0
 93
        0
 40
0.045
309
GRIDFORMAT_END
 95
        4
302
GRIDFORMAT
  1
GRIDFORMAT_BEGIN
 90
        0
 91
        1
 62
     0
 92
       -2
340
0
 93
        0
 40
0.045
309
GRIDFORMAT_END
 95
        8
302
GRIDFORMAT
  1
GRIDFORMAT_BEGIN
 90
        0
 91
        1
 62
     0
 92
       -2
340
0
 93
        0
 40
0.045
309
GRIDFORMAT_END
 95
       16
302
GRIDFORMAT
  1
GRIDFORMAT_BEGIN
 90
        0
 91
        1
 62
     0
 92
       -2
340
0
 93
        0
 40
0.045
309
GRIDFORMAT_END
 95
       32
302
GRIDFORMAT
  1
GRIDFORMAT_BEGIN
 90
        0
 91
        1
 62
     0
 92
       -2
340
0
 93
        0
 40
0.045
309
GRIDFORMAT_END
309
TABLEFORMAT_END
  1
CELLSTYLE_BEGIN
 90
        1
 91
        1
300
_TITLE
309
CELLSTYLE_END
300
CELLSTYLE
  1
TABLEFORMAT_BEGIN
 90
        5
170
     1
 91
        0
 92
        0
 62
   257
 93
        1
300
CONTENTFORMAT
  1
CONTENTFORMAT_BEGIN
 90
        0
 91
        0
 92
      512
 93
        0
300

 40
0.0
140
1.0
 94
        5
 62
     0
340
22
144
0.18
309
CONTENTFORMAT_END
171
     1
301
MARGIN
  1
CELLMARGIN_BEGIN
 40
0.06
 40
0.06
 40
0.06
 40
0.06
 40
0.18
 40
0.18
309
CELLMARGIN_END
 94
        6
 95
        1
302
GRIDFORMAT
  1
GRIDFORMAT_BEGIN
 90
        0
 91
        1
 62
     0
 92
       -2
340
0
 93
        0
 40
0.045
309
GRIDFORMAT_END
 95
        2
302
GRIDFORMAT
  1
GRIDFORMAT_BEGIN
 90
        0
 91
        1
 62
     0
 92
       -2
340
0
 93
        0
 40
0.045
309
GRIDFORMAT_END
 95
        4
302
GRIDFORMAT
  1
GRIDFORMAT_BEGIN
 90
        0
 91
        1
 62
     0
 92
       -2
340
0
 93
        0
 40
0.045
309
GRIDFORMAT_END
 95
        8
302
GRIDFORMAT
  1
GRIDFORMAT_BEGIN
 90
        0
 91
        1
 62
     0
 92
       -2
340
0
 93
        0
 40
0.045
309
GRIDFORMAT_END
 95
       16
302
GRIDFORMAT
  1
GRIDFORMAT_BEGIN
 90
        0
 91
        1
 62
     0
 92
       -2
340
0
 93
        0
 40
0.045
309
GRIDFORMAT_END
 95
       32
302
GRIDFORMAT
  1
GRIDFORMAT_BEGIN
 90
        0
 91
        1
 62
     0
 92
       -2
340
0
 93
        0
 40
0.045
309
GRIDFORMAT_END
309
TABLEFORMAT_END
  1
CELLSTYLE_BEGIN
 90
        2
 91
        1
300
_HEADER
309
CELLSTYLE_END
300
CELLSTYLE
  1
TABLEFORMAT_BEGIN
 90
        5
170
     1
 91
        0
 92
        0
 62
   257
 93
        1
300
CONTENTFORMAT
  1
CONTENTFORMAT_BEGIN
 90
        0
 91
        0
 92
      512
 93
        0
300

 40
0.0
140
1.0
 94
        2
 62
     0
340
22
144
0.18
309
CONTENTFORMAT_END
171
     1
301
MARGIN
  1
CELLMARGIN_BEGIN
 40
0.06
 40
0.06
 40
0.06
 40
0.06
 40
0.18
 40
0.18
309
CELLMARGIN_END
 94
        6
 95
        1
302
GRIDFORMAT
  1
GRIDFORMAT_BEGIN
 90
        0
 91
        1
 62
     0
 92
       -2
340
0
 93
        0
 40
0.045
309
GRIDFORMAT_END
 95
        2
302
GRIDFORMAT
  1
GRIDFORMAT_BEGIN
 90
        0
 91
        1
 62
     0
 92
       -2
340
0
 93
        0
 40
0.045
309
GRIDFORMAT_END
 95
        4
302
GRIDFORMAT
  1
GRIDFORMAT_BEGIN
 90
        0
 91
        1
 62
     0
 92
       -2
340
0
 93
        0
 40
0.045
309
GRIDFORMAT_END
 95
        8
302
GRIDFORMAT
  1
GRIDFORMAT_BEGIN
 90
        0
 91
        1
 62
     0
 92
       -2
340
0
 93
        0
 40
0.045
309
GRIDFORMAT_END
 95
       16
302
GRIDFORMAT
  1
GRIDFORMAT_BEGIN
 90
        0
 91
        1
 62
     0
 92
       -2
340
0
 93
        0
 40
0.045
309
GRIDFORMAT_END
 95
       32
302
GRIDFORMAT
  1
GRIDFORMAT_BEGIN
 90
        0
 91
        1
 62
     0
 92
       -2
340
0
 93
        0
 40
0.045
309
GRIDFORMAT_END
309
TABLEFORMAT_END
  1
CELLSTYLE_BEGIN
 90
        3
 91
        2
300
_DATA
309
CELLSTYLE_END
  0
XRECORD
  5
580A
102
{ACAD_REACTORS
330
4B
102
}
330
4B
100
AcDbXrecord
280
     1
102
ACAD_ROUNDTRIP_PRE2007_TABLESTYLE
 90
      512
 91
        0
  1

 92
      512
 93
        0
  2

 94
      512
 95
        0
  3

  0
XRECORD
  5
5809
102
{ACAD_REACTORS
330
5808
102
}
330
5808
100
AcDbXrecord
280
     1
102
RTVSPost2010Prop28
280
     1
102
RTVSPost2010PropOp28
 70
     1
102
RTVSPost2010Prop29
280
     1
102
RTVSPost2010PropOp29
 70
     1
102
RTVSPost2010Prop30
280
     0
102
RTVSPost2010PropOp30
 70
     1
102
RTVSPost2010Prop31
280
     0
102
RTVSPost2010PropOp31
 70
     1
102
RTVSPost2010Prop32
280
     0
102
RTVSPost2010PropOp32
 70
     1
102
RTVSPost2010Prop33
280
     0
102
RTVSPost2010PropOp33
 70
     1
102
RTVSPost2010Prop34
280
     0
102
RTVSPost2010PropOp34
 70
     1
102
RTVSPost2010Prop35
280
     0
102
RTVSPost2010PropOp35
 70
     1
102
RTVSPost2010Prop36
280
     0
102
RTVSPost2010PropOp36
 70
     1
102
RTVSPost2010Prop37
 90
       50
102
RTVSPost2010PropOp37
 70
     1
102
RTVSPost2010Prop38
140
0.0
102
RTVSPost2010PropOp38
 70
     1
102
RTVSPost2010Prop39
140
1.0
102
RTVSPost2010PropOp39
 70
     1
102
RTVSPost2010Prop40
 90
        0
102
RTVSPost2010PropOp40
 70
     1
102
RTVSPost2010Prop41ColorIndex
 90
       18
102
RTVSPost2010Prop41ColorRGB
 90
        0
102
RTVSPost2010PropOp41
 70
     1
102
RTVSPost2010Prop42
 90
       50
102
RTVSPost2010PropOp42
 70
     1
102
RTVSPost2010Prop43
 90
        3
102
RTVSPost2010PropOp43
 70
     1
102
RTVSPost2010Prop44ColorIndex
 90
        5
102
RTVSPost2010Prop44ColorRGB
 90
      255
102
RTVSPost2010PropOp44
 70
     1
102
RTVSPost2010Prop45
280
     0
102
RTVSPost2010PropOp45
 70
     1
102
RTVSPost2010Prop46
 90
       50
102
RTVSPost2010PropOp46
 70
     1
102
RTVSPost2010Prop47
 90
       50
102
RTVSPost2010PropOp47
 70
     1
102
RTVSPost2010Prop48
 90
       50
102
RTVSPost2010PropOp48
 70
     1
102
RTVSPost2010Prop49
280
     0
102
RTVSPost2010PropOp49
 70
     1
102
RTVSPost2010Prop50
 90
       50
102
RTVSPost2010PropOp50
 70
     1
102
RTVSPost2010Prop51ColorIndex
 90
      256
102
RTVSPost2010Prop51ColorRGB
 90
-16777216
102
RTVSPost2010PropOp51
 70
     0
102
RTVSPost2010Prop52
140
1.0
102
RTVSPost2010PropOp52
 70
     0
102
RTVSPost2010Prop53
 90
        2
102
RTVSPost2010PropOp53
 70
     1
102
RTVSPost2010Prop54
  1
strokes_ogs.tif
102
RTVSPost2010PropOp54
 70
     1
102
RTVSPost2010Prop55
280
     0
102
RTVSPost2010PropOp55
 70
     1
102
RTVSPost2010Prop56
140
1.0
102
RTVSPost2010PropOp56
 70
     1
102
RTVSPost2010Prop57
140
1.0
102
RTVSPost2010PropOp57
 70
     1
102
RTVSPropertyOp0
 70
     1
102
RTVSPropertyOp1
 70
     1
102
RTVSPropertyOp2
 70
     1
102
RTVSPropertyOp3
 70
     1
102
RTVSPropertyOp4
 70
     1
102
RTVSPropertyOp5
 70
     1
102
RTVSPropertyOp6
 70
     1
102
RTVSPropertyOp7
 70
     1
102
RTVSPropertyOp8
 70
     1
102
RTVSPropertyOp9
 70
     1
102
RTVSPropertyOp10
 70
     1
102
RTVSPropertyOp11
 70
     1
102
RTVSPropertyOp12
 70
     1
102
RTVSPropertyOp13
 70
     1
102
RTVSPropertyOp14
 70
     1
102
RTVSPropertyOp15
 70
     1
102
RTVSPropertyOp16
 70
     1
102
RTVSPropertyOp17
 70
     1
102
RTVSPropertyOp18
 70
     1
102
RTVSPropertyOp19
 70
     1
102
RTVSPropertyOp20
 70
     1
102
RTVSPropertyOp21
 70
     1
102
RTVSPropertyOp22
 70
     1
102
RTVSPropertyOp23
 70
     1
102
RTVSPropertyOp24
 70
     1
102
RTVSPropertyOp25
 70
     1
102
RTVSPropertyOp26
 70
     1
102
RTVSPropertyOp27
 70
     1
102
RTVSPropertyOp28
 70
     1
102
RTVSPropertyOp29
 70
     1
102
RTVSPropertyOp30
 70
     1
102
RTVSPropertyOp31
 70
     1
102
RTVSPropertyOp32
 70
     1
102
RTVSPropertyOp33
 70
     1
102
RTVSPropertyOp34
 70
     1
102
RTVSPropertyOp35
 70
     1
102
RTVSPropertyOp36
 70
     1
102
RTVSPropertyOp37
 70
     1
102
RTVSPropertyOp38
 70
     1
102
RTVSPropertyOp39
 70
     1
102
RTVSPropertyOp40
 70
     1
102
RTVSPropertyOp41
 70
     1
102
RTVSPropertyOp42
 70
     1
102
RTVSPropertyOp43
 70
     1
102
RTVSPropertyOp44
 70
     1
102
RTVSPropertyOp45
 70
     1
102
RTVSPropertyOp46
 70
     1
102
RTVSPropertyOp47
 70
     1
102
RTVSPropertyOp48
 70
     1
102
RTVSPropertyOp49
 70
     1
102
RTVSPropertyOp50
 70
     1
102
RTVSPropertyOp51
 70
     0
102
RTVSPropertyOp52
 70
     0
102
RTVSPropertyOp53
 70
     1
102
RTVSPropertyOp54
 70
     1
102
RTVSPropertyOp55
 70
     1
102
RTVSPropertyOp56
 70
     1
102
RTVSPropertyOp57
 70
     1
102
RTVSPropertyOp58
 70
     1
102
RTVSPropertyOp59
 70
     1
102
RTVSPropertyOp60
 70
     1
102
RTVSPropertyOp61
 70
     1
102
RTVSPropertyOp62
 70
     1
  0
XRECORD
  5
581A
102
{ACAD_REACTORS
330
5819
102
}
330
5819
100
AcDbXrecord
280
     1
102
RTVSPost2010Prop28
280
     0
102
RTVSPost2010PropOp28
 70
     1
102
RTVSPost2010Prop29
280
     1
102
RTVSPost2010PropOp29
 70
     1
102
RTVSPost2010Prop30
280
     1
102
RTVSPost2010PropOp30
 70
     1
102
RTVSPost2010Prop31
280
     0
102
RTVSPost2010PropOp31
 70
     1
102
RTVSPost2010Prop32
280
     0
102
RTVSPost2010PropOp32
 70
     1
102
RTVSPost2010Prop33
280
     0
102
RTVSPost2010PropOp33
 70
     1
102
RTVSPost2010Prop34
280
     0
102
RTVSPost2010PropOp34
 70
     1
102
RTVSPost2010Prop35
280
     0
102
RTVSPost2010PropOp35
 70
     1
102
RTVSPost2010Prop36
280
     0
102
RTVSPost2010PropOp36
 70
     1
102
RTVSPost2010Prop37
 90
       50
102
RTVSPost2010PropOp37
 70
     1
102
RTVSPost2010Prop38
140
0.0
102
RTVSPost2010PropOp38
 70
     1
102
RTVSPost2010Prop39
140
1.0
102
RTVSPost2010PropOp39
 70
     1
102
RTVSPost2010Prop40
 90
        0
102
RTVSPost2010PropOp40
 70
     1
102
RTVSPost2010Prop41ColorIndex
 90
       18
102
RTVSPost2010Prop41ColorRGB
 90
        0
102
RTVSPost2010PropOp41
 70
     1
102
RTVSPost2010Prop42
 90
       50
102
RTVSPost2010PropOp42
 70
     1
102
RTVSPost2010Prop43
 90
        3
102
RTVSPost2010PropOp43
 70
     1
102
RTVSPost2010Prop44ColorIndex
 90
        5
102
RTVSPost2010Prop44ColorRGB
 90
      255
102
RTVSPost2010PropOp44
 70
     1
102
RTVSPost2010Prop45
280
     0
102
RTVSPost2010PropOp45
 70
     1
102
RTVSPost2010Prop46
 90
       50
102
RTVSPost2010PropOp46
 70
     1
102
RTVSPost2010Prop47
 90
       50
102
RTVSPost2010PropOp47
 70
     1
102
RTVSPost2010Prop48
 90
       50
102
RTVSPost2010PropOp48
 70
     1
102
RTVSPost2010Prop49
280
     0
102
RTVSPost2010PropOp49
 70
     1
102
RTVSPost2010Prop50
 90
       50
102
RTVSPost2010PropOp50
 70
     1
102
RTVSPost2010Prop51ColorIndex
 90
      256
102
RTVSPost2010Prop51ColorRGB
 90
-16777216
102
RTVSPost2010PropOp51
 70
     0
102
RTVSPost2010Prop52
140
1.0
102
RTVSPost2010PropOp52
 70
     0
102
RTVSPost2010Prop53
 90
        2
102
RTVSPost2010PropOp53
 70
     1
102
RTVSPost2010Prop54
  1
strokes_ogs.tif
102
RTVSPost2010PropOp54
 70
     1
102
RTVSPost2010Prop55
280
     0
102
RTVSPost2010PropOp55
 70
     1
102
RTVSPost2010Prop56
140
1.0
102
RTVSPost2010PropOp56
 70
     1
102
RTVSPost2010Prop57
140
1.0
102
RTVSPost2010PropOp57
 70
     1
102
RTVSPropertyOp0
 70
     1
102
RTVSPropertyOp1
 70
     1
102
RTVSPropertyOp2
 70
     1
102
RTVSPropertyOp3
 70
     1
102
RTVSPropertyOp4
 70
     1
102
RTVSPropertyOp5
 70
     1
102
RTVSPropertyOp6
 70
     1
102
RTVSPropertyOp7
 70
     1
102
RTVSPropertyOp8
 70
     1
102
RTVSPropertyOp9
 70
     1
102
RTVSPropertyOp10
 70
     1
102
RTVSPropertyOp11
 70
     1
102
RTVSPropertyOp12
 70
     1
102
RTVSPropertyOp13
 70
     1
102
RTVSPropertyOp14
 70
     1
102
RTVSPropertyOp15
 70
     1
102
RTVSPropertyOp16
 70
     1
102
RTVSPropertyOp17
 70
     1
102
RTVSPropertyOp18
 70
     1
102
RTVSPropertyOp19
 70
     1
102
RTVSPropertyOp20
 70
     1
102
RTVSPropertyOp21
 70
     1
102
RTVSPropertyOp22
 70
     1
102
RTVSPropertyOp23
 70
     1
102
RTVSPropertyOp24
 70
     1
102
RTVSPropertyOp25
 70
     1
102
RTVSPropertyOp26
 70
     1
102
RTVSPropertyOp27
 70
     1
102
RTVSPropertyOp28
 70
     1
102
RTVSPropertyOp29
 70
     1
102
RTVSPropertyOp30
 70
     1
102
RTVSPropertyOp31
 70
     1
102
RTVSPropertyOp32
 70
     1
102
RTVSPropertyOp33
 70
     1
102
RTVSPropertyOp34
 70
     1
102
RTVSPropertyOp35
 70
     1
102
RTVSPropertyOp36
 70
     1
102
RTVSPropertyOp37
 70
     1
102
RTVSPropertyOp38
 70
     1
102
RTVSPropertyOp39
 70
     1
102
RTVSPropertyOp40
 70
     1
102
RTVSPropertyOp41
 70
     1
102
RTVSPropertyOp42
 70
     1
102
RTVSPropertyOp43
 70
     1
102
RTVSPropertyOp44
 70
     1
102
RTVSPropertyOp45
 70
     1
102
RTVSPropertyOp46
 70
     1
102
RTVSPropertyOp47
 70
     1
102
RTVSPropertyOp48
 70
     1
102
RTVSPropertyOp49
 70
     1
102
RTVSPropertyOp50
 70
     1
102
RTVSPropertyOp51
 70
     0
102
RTVSPropertyOp52
 70
     0
102
RTVSPropertyOp53
 70
     1
102
RTVSPropertyOp54
 70
     1
102
RTVSPropertyOp55
 70
     1
102
RTVSPropertyOp56
 70
     1
102
RTVSPropertyOp57
 70
     1
102
RTVSPropertyOp58
 70
     1
102
RTVSPropertyOp59
 70
     1
102
RTVSPropertyOp60
 70
     1
102
RTVSPropertyOp61
 70
     1
102
RTVSPropertyOp62
 70
     1
  0
XRECORD
  5
580E
102
{ACAD_REACTORS
330
580D
102
}
330
580D
100
AcDbXrecord
280
     1
102
RTVSPost2010Prop28
280
     0
102
RTVSPost2010PropOp28
 70
     1
102
RTVSPost2010Prop29
280
     1
102
RTVSPost2010PropOp29
 70
     1
102
RTVSPost2010Prop30
280
     1
102
RTVSPost2010PropOp30
 70
     1
102
RTVSPost2010Prop31
280
     0
102
RTVSPost2010PropOp31
 70
     1
102
RTVSPost2010Prop32
280
     0
102
RTVSPost2010PropOp32
 70
     1
102
RTVSPost2010Prop33
280
     0
102
RTVSPost2010PropOp33
 70
     1
102
RTVSPost2010Prop34
280
     0
102
RTVSPost2010PropOp34
 70
     1
102
RTVSPost2010Prop35
280
     0
102
RTVSPost2010PropOp35
 70
     1
102
RTVSPost2010Prop36
280
     0
102
RTVSPost2010PropOp36
 70
     1
102
RTVSPost2010Prop37
 90
       50
102
RTVSPost2010PropOp37
 70
     1
102
RTVSPost2010Prop38
140
0.0
102
RTVSPost2010PropOp38
 70
     1
102
RTVSPost2010Prop39
140
1.0
102
RTVSPost2010PropOp39
 70
     1
102
RTVSPost2010Prop40
 90
        0
102
RTVSPost2010PropOp40
 70
     1
102
RTVSPost2010Prop41ColorIndex
 90
       18
102
RTVSPost2010Prop41ColorRGB
 90
        0
102
RTVSPost2010PropOp41
 70
     1
102
RTVSPost2010Prop42
 90
       50
102
RTVSPost2010PropOp42
 70
     1
102
RTVSPost2010Prop43
 90
        3
102
RTVSPost2010PropOp43
 70
     1
102
RTVSPost2010Prop44ColorIndex
 90
        5
102
RTVSPost2010Prop44ColorRGB
 90
      255
102
RTVSPost2010PropOp44
 70
     1
102
RTVSPost2010Prop45
280
     0
102
RTVSPost2010PropOp45
 70
     1
102
RTVSPost2010Prop46
 90
       50
102
RTVSPost2010PropOp46
 70
     1
102
RTVSPost2010Prop47
 90
       50
102
RTVSPost2010PropOp47
 70
     1
102
RTVSPost2010Prop48
 90
       50
102
RTVSPost2010PropOp48
 70
     1
102
RTVSPost2010Prop49
280
     0
102
RTVSPost2010PropOp49
 70
     1
102
RTVSPost2010Prop50
 90
       50
102
RTVSPost2010PropOp50
 70
     1
102
RTVSPost2010Prop51ColorIndex
 90
      256
102
RTVSPost2010Prop51ColorRGB
 90
-16777216
102
RTVSPost2010PropOp51
 70
     0
102
RTVSPost2010Prop52
140
1.0
102
RTVSPost2010PropOp52
 70
     0
102
RTVSPost2010Prop53
 90
        2
102
RTVSPost2010PropOp53
 70
     1
102
RTVSPost2010Prop54
  1
strokes_ogs.tif
102
RTVSPost2010PropOp54
 70
     1
102
RTVSPost2010Prop55
280
     0
102
RTVSPost2010PropOp55
 70
     1
102
RTVSPost2010Prop56
140
1.0
102
RTVSPost2010PropOp56
 70
     1
102
RTVSPost2010Prop57
140
1.0
102
RTVSPost2010PropOp57
 70
     1
102
RTVSPropertyOp0
 70
     1
102
RTVSPropertyOp1
 70
     1
102
RTVSPropertyOp2
 70
     1
102
RTVSPropertyOp3
 70
     1
102
RTVSPropertyOp4
 70
     1
102
RTVSPropertyOp5
 70
     1
102
RTVSPropertyOp6
 70
     1
102
RTVSPropertyOp7
 70
     1
102
RTVSPropertyOp8
 70
     1
102
RTVSPropertyOp9
 70
     1
102
RTVSPropertyOp10
 70
     1
102
RTVSPropertyOp11
 70
     1
102
RTVSPropertyOp12
 70
     1
102
RTVSPropertyOp13
 70
     1
102
RTVSPropertyOp14
 70
     1
102
RTVSPropertyOp15
 70
     1
102
RTVSPropertyOp16
 70
     1
102
RTVSPropertyOp17
 70
     1
102
RTVSPropertyOp18
 70
     1
102
RTVSPropertyOp19
 70
     1
102
RTVSPropertyOp20
 70
     1
102
RTVSPropertyOp21
 70
     1
102
RTVSPropertyOp22
 70
     1
102
RTVSPropertyOp23
 70
     1
102
RTVSPropertyOp24
 70
     1
102
RTVSPropertyOp25
 70
     1
102
RTVSPropertyOp26
 70
     1
102
RTVSPropertyOp27
 70
     1
102
RTVSPropertyOp28
 70
     1
102
RTVSPropertyOp29
 70
     1
102
RTVSPropertyOp30
 70
     1
102
RTVSPropertyOp31
 70
     1
102
RTVSPropertyOp32
 70
     1
102
RTVSPropertyOp33
 70
     1
102
RTVSPropertyOp34
 70
     1
102
RTVSPropertyOp35
 70
     1
102
RTVSPropertyOp36
 70
     1
102
RTVSPropertyOp37
 70
     1
102
RTVSPropertyOp38
 70
     1
102
RTVSPropertyOp39
 70
     1
102
RTVSPropertyOp40
 70
     1
102
RTVSPropertyOp41
 70
     1
102
RTVSPropertyOp42
 70
     1
102
RTVSPropertyOp43
 70
     1
102
RTVSPropertyOp44
 70
     1
102
RTVSPropertyOp45
 70
     1
102
RTVSPropertyOp46
 70
     1
102
RTVSPropertyOp47
 70
     1
102
RTVSPropertyOp48
 70
     1
102
RTVSPropertyOp49
 70
     1
102
RTVSPropertyOp50
 70
     1
102
RTVSPropertyOp51
 70
     0
102
RTVSPropertyOp52
 70
     0
102
RTVSPropertyOp53
 70
     1
102
RTVSPropertyOp54
 70
     1
102
RTVSPropertyOp55
 70
     1
102
RTVSPropertyOp56
 70
     1
102
RTVSPropertyOp57
 70
     1
102
RTVSPropertyOp58
 70
     1
102
RTVSPropertyOp59
 70
     1
102
RTVSPropertyOp60
 70
     1
102
RTVSPropertyOp61
 70
     1
102
RTVSPropertyOp62
 70
     1
  0
XRECORD
  5
5818
102
{ACAD_REACTORS
330
5817
102
}
330
5817
100
AcDbXrecord
280
     1
102
RTVSPost2010Prop28
280
     0
102
RTVSPost2010PropOp28
 70
     1
102
RTVSPost2010Prop29
280
     1
102
RTVSPost2010PropOp29
 70
     1
102
RTVSPost2010Prop30
280
     1
102
RTVSPost2010PropOp30
 70
     1
102
RTVSPost2010Prop31
280
     0
102
RTVSPost2010PropOp31
 70
     1
102
RTVSPost2010Prop32
280
     0
102
RTVSPost2010PropOp32
 70
     1
102
RTVSPost2010Prop33
280
     0
102
RTVSPost2010PropOp33
 70
     1
102
RTVSPost2010Prop34
280
     0
102
RTVSPost2010PropOp34
 70
     1
102
RTVSPost2010Prop35
280
     0
102
RTVSPost2010PropOp35
 70
     1
102
RTVSPost2010Prop36
280
     0
102
RTVSPost2010PropOp36
 70
     1
102
RTVSPost2010Prop37
 90
       50
102
RTVSPost2010PropOp37
 70
     1
102
RTVSPost2010Prop38
140
0.0
102
RTVSPost2010PropOp38
 70
     1
102
RTVSPost2010Prop39
140
1.0
102
RTVSPost2010PropOp39
 70
     1
102
RTVSPost2010Prop40
 90
        0
102
RTVSPost2010PropOp40
 70
     1
102
RTVSPost2010Prop41ColorIndex
 90
       18
102
RTVSPost2010Prop41ColorRGB
 90
        0
102
RTVSPost2010PropOp41
 70
     1
102
RTVSPost2010Prop42
 90
       50
102
RTVSPost2010PropOp42
 70
     1
102
RTVSPost2010Prop43
 90
        3
102
RTVSPost2010PropOp43
 70
     1
102
RTVSPost2010Prop44ColorIndex
 90
        5
102
RTVSPost2010Prop44ColorRGB
 90
      255
102
RTVSPost2010PropOp44
 70
     1
102
RTVSPost2010Prop45
280
     0
102
RTVSPost2010PropOp45
 70
     1
102
RTVSPost2010Prop46
 90
       50
102
RTVSPost2010PropOp46
 70
     1
102
RTVSPost2010Prop47
 90
       50
102
RTVSPost2010PropOp47
 70
     1
102
RTVSPost2010Prop48
 90
       50
102
RTVSPost2010PropOp48
 70
     1
102
RTVSPost2010Prop49
280
     0
102
RTVSPost2010PropOp49
 70
     1
102
RTVSPost2010Prop50
 90
       50
102
RTVSPost2010PropOp50
 70
     1
102
RTVSPost2010Prop51ColorIndex
 90
      256
102
RTVSPost2010Prop51ColorRGB
 90
-16777216
102
RTVSPost2010PropOp51
 70
     0
102
RTVSPost2010Prop52
140
1.0
102
RTVSPost2010PropOp52
 70
     0
102
RTVSPost2010Prop53
 90
        2
102
RTVSPost2010PropOp53
 70
     1
102
RTVSPost2010Prop54
  1
strokes_ogs.tif
102
RTVSPost2010PropOp54
 70
     1
102
RTVSPost2010Prop55
280
     0
102
RTVSPost2010PropOp55
 70
     1
102
RTVSPost2010Prop56
140
1.0
102
RTVSPost2010PropOp56
 70
     1
102
RTVSPost2010Prop57
140
1.0
102
RTVSPost2010PropOp57
 70
     1
102
RTVSPropertyOp0
 70
     1
102
RTVSPropertyOp1
 70
     1
102
RTVSPropertyOp2
 70
     1
102
RTVSPropertyOp3
 70
     1
102
RTVSPropertyOp4
 70
     1
102
RTVSPropertyOp5
 70
     1
102
RTVSPropertyOp6
 70
     1
102
RTVSPropertyOp7
 70
     1
102
RTVSPropertyOp8
 70
     1
102
RTVSPropertyOp9
 70
     1
102
RTVSPropertyOp10
 70
     1
102
RTVSPropertyOp11
 70
     1
102
RTVSPropertyOp12
 70
     1
102
RTVSPropertyOp13
 70
     1
102
RTVSPropertyOp14
 70
     1
102
RTVSPropertyOp15
 70
     1
102
RTVSPropertyOp16
 70
     1
102
RTVSPropertyOp17
 70
     1
102
RTVSPropertyOp18
 70
     1
102
RTVSPropertyOp19
 70
     1
102
RTVSPropertyOp20
 70
     1
102
RTVSPropertyOp21
 70
     1
102
RTVSPropertyOp22
 70
     1
102
RTVSPropertyOp23
 70
     1
102
RTVSPropertyOp24
 70
     1
102
RTVSPropertyOp25
 70
     1
102
RTVSPropertyOp26
 70
     1
102
RTVSPropertyOp27
 70
     1
102
RTVSPropertyOp28
 70
     1
102
RTVSPropertyOp29
 70
     1
102
RTVSPropertyOp30
 70
     1
102
RTVSPropertyOp31
 70
     1
102
RTVSPropertyOp32
 70
     1
102
RTVSPropertyOp33
 70
     1
102
RTVSPropertyOp34
 70
     1
102
RTVSPropertyOp35
 70
     1
102
RTVSPropertyOp36
 70
     1
102
RTVSPropertyOp37
 70
     1
102
RTVSPropertyOp38
 70
     1
102
RTVSPropertyOp39
 70
     1
102
RTVSPropertyOp40
 70
     1
102
RTVSPropertyOp41
 70
     1
102
RTVSPropertyOp42
 70
     1
102
RTVSPropertyOp43
 70
     1
102
RTVSPropertyOp44
 70
     1
102
RTVSPropertyOp45
 70
     1
102
RTVSPropertyOp46
 70
     1
102
RTVSPropertyOp47
 70
     1
102
RTVSPropertyOp48
 70
     1
102
RTVSPropertyOp49
 70
     1
102
RTVSPropertyOp50
 70
     1
102
RTVSPropertyOp51
 70
     0
102
RTVSPropertyOp52
 70
     0
102
RTVSPropertyOp53
 70
     1
102
RTVSPropertyOp54
 70
     1
102
RTVSPropertyOp55
 70
     1
102
RTVSPropertyOp56
 70
     1
102
RTVSPropertyOp57
 70
     1
102
RTVSPropertyOp58
 70
     1
102
RTVSPropertyOp59
 70
     1
102
RTVSPropertyOp60
 70
     1
102
RTVSPropertyOp61
 70
     1
102
RTVSPropertyOp62
 70
     1
  0
XRECORD
  5
5820
102
{ACAD_REACTORS
330
581F
102
}
330
581F
100
AcDbXrecord
280
     1
102
RTVSPost2010Prop28
280
     0
102
RTVSPost2010PropOp28
 70
     1
102
RTVSPost2010Prop29
280
     1
102
RTVSPost2010PropOp29
 70
     1
102
RTVSPost2010Prop30
280
     1
102
RTVSPost2010PropOp30
 70
     1
102
RTVSPost2010Prop31
280
     0
102
RTVSPost2010PropOp31
 70
     1
102
RTVSPost2010Prop32
280
     0
102
RTVSPost2010PropOp32
 70
     1
102
RTVSPost2010Prop33
280
     0
102
RTVSPost2010PropOp33
 70
     1
102
RTVSPost2010Prop34
280
     0
102
RTVSPost2010PropOp34
 70
     1
102
RTVSPost2010Prop35
280
     0
102
RTVSPost2010PropOp35
 70
     1
102
RTVSPost2010Prop36
280
     0
102
RTVSPost2010PropOp36
 70
     1
102
RTVSPost2010Prop37
 90
       50
102
RTVSPost2010PropOp37
 70
     1
102
RTVSPost2010Prop38
140
0.0
102
RTVSPost2010PropOp38
 70
     1
102
RTVSPost2010Prop39
140
1.0
102
RTVSPost2010PropOp39
 70
     1
102
RTVSPost2010Prop40
 90
        0
102
RTVSPost2010PropOp40
 70
     1
102
RTVSPost2010Prop41ColorIndex
 90
       18
102
RTVSPost2010Prop41ColorRGB
 90
        0
102
RTVSPost2010PropOp41
 70
     1
102
RTVSPost2010Prop42
 90
       50
102
RTVSPost2010PropOp42
 70
     1
102
RTVSPost2010Prop43
 90
        3
102
RTVSPost2010PropOp43
 70
     1
102
RTVSPost2010Prop44ColorIndex
 90
        5
102
RTVSPost2010Prop44ColorRGB
 90
      255
102
RTVSPost2010PropOp44
 70
     1
102
RTVSPost2010Prop45
280
     0
102
RTVSPost2010PropOp45
 70
     1
102
RTVSPost2010Prop46
 90
       50
102
RTVSPost2010PropOp46
 70
     1
102
RTVSPost2010Prop47
 90
       50
102
RTVSPost2010PropOp47
 70
     1
102
RTVSPost2010Prop48
 90
       50
102
RTVSPost2010PropOp48
 70
     1
102
RTVSPost2010Prop49
280
     0
102
RTVSPost2010PropOp49
 70
     1
102
RTVSPost2010Prop50
 90
       50
102
RTVSPost2010PropOp50
 70
     1
102
RTVSPost2010Prop51ColorIndex
 90
      256
102
RTVSPost2010Prop51ColorRGB
 90
-16777216
102
RTVSPost2010PropOp51
 70
     0
102
RTVSPost2010Prop52
140
1.0
102
RTVSPost2010PropOp52
 70
     0
102
RTVSPost2010Prop53
 90
        2
102
RTVSPost2010PropOp53
 70
     1
102
RTVSPost2010Prop54
  1
strokes_ogs.tif
102
RTVSPost2010PropOp54
 70
     1
102
RTVSPost2010Prop55
280
     0
102
RTVSPost2010PropOp55
 70
     1
102
RTVSPost2010Prop56
140
1.0
102
RTVSPost2010PropOp56
 70
     1
102
RTVSPost2010Prop57
140
1.0
102
RTVSPost2010PropOp57
 70
     1
102
RTVSPropertyOp0
 70
     1
102
RTVSPropertyOp1
 70
     1
102
RTVSPropertyOp2
 70
     1
102
RTVSPropertyOp3
 70
     1
102
RTVSPropertyOp4
 70
     1
102
RTVSPropertyOp5
 70
     1
102
RTVSPropertyOp6
 70
     1
102
RTVSPropertyOp7
 70
     1
102
RTVSPropertyOp8
 70
     1
102
RTVSPropertyOp9
 70
     1
102
RTVSPropertyOp10
 70
     1
102
RTVSPropertyOp11
 70
     1
102
RTVSPropertyOp12
 70
     1
102
RTVSPropertyOp13
 70
     1
102
RTVSPropertyOp14
 70
     1
102
RTVSPropertyOp15
 70
     1
102
RTVSPropertyOp16
 70
     1
102
RTVSPropertyOp17
 70
     1
102
RTVSPropertyOp18
 70
     1
102
RTVSPropertyOp19
 70
     1
102
RTVSPropertyOp20
 70
     1
102
RTVSPropertyOp21
 70
     1
102
RTVSPropertyOp22
 70
     1
102
RTVSPropertyOp23
 70
     1
102
RTVSPropertyOp24
 70
     1
102
RTVSPropertyOp25
 70
     1
102
RTVSPropertyOp26
 70
     1
102
RTVSPropertyOp27
 70
     1
102
RTVSPropertyOp28
 70
     1
102
RTVSPropertyOp29
 70
     1
102
RTVSPropertyOp30
 70
     1
102
RTVSPropertyOp31
 70
     1
102
RTVSPropertyOp32
 70
     1
102
RTVSPropertyOp33
 70
     1
102
RTVSPropertyOp34
 70
     1
102
RTVSPropertyOp35
 70
     1
102
RTVSPropertyOp36
 70
     1
102
RTVSPropertyOp37
 70
     1
102
RTVSPropertyOp38
 70
     1
102
RTVSPropertyOp39
 70
     1
102
RTVSPropertyOp40
 70
     1
102
RTVSPropertyOp41
 70
     1
102
RTVSPropertyOp42
 70
     1
102
RTVSPropertyOp43
 70
     1
102
RTVSPropertyOp44
 70
     1
102
RTVSPropertyOp45
 70
     1
102
RTVSPropertyOp46
 70
     1
102
RTVSPropertyOp47
 70
     1
102
RTVSPropertyOp48
 70
     1
102
RTVSPropertyOp49
 70
     1
102
RTVSPropertyOp50
 70
     1
102
RTVSPropertyOp51
 70
     0
102
RTVSPropertyOp52
 70
     0
102
RTVSPropertyOp53
 70
     1
102
RTVSPropertyOp54
 70
     1
102
RTVSPropertyOp55
 70
     1
102
RTVSPropertyOp56
 70
     1
102
RTVSPropertyOp57
 70
     1
102
RTVSPropertyOp58
 70
     1
102
RTVSPropertyOp59
 70
     1
102
RTVSPropertyOp60
 70
     1
102
RTVSPropertyOp61
 70
     1
102
RTVSPropertyOp62
 70
     1
  0
XRECORD
  5
5828
102
{ACAD_REACTORS
330
5827
102
}
330
5827
100
AcDbXrecord
280
     1
102
RTVSPost2010Prop28
280
     0
102
RTVSPost2010PropOp28
 70
     1
102
RTVSPost2010Prop29
280
     1
102
RTVSPost2010PropOp29
 70
     1
102
RTVSPost2010Prop30
280
     1
102
RTVSPost2010PropOp30
 70
     1
102
RTVSPost2010Prop31
280
     0
102
RTVSPost2010PropOp31
 70
     1
102
RTVSPost2010Prop32
280
     0
102
RTVSPost2010PropOp32
 70
     1
102
RTVSPost2010Prop33
280
     0
102
RTVSPost2010PropOp33
 70
     1
102
RTVSPost2010Prop34
280
     0
102
RTVSPost2010PropOp34
 70
     1
102
RTVSPost2010Prop35
280
     0
102
RTVSPost2010PropOp35
 70
     1
102
RTVSPost2010Prop36
280
     0
102
RTVSPost2010PropOp36
 70
     1
102
RTVSPost2010Prop37
 90
       50
102
RTVSPost2010PropOp37
 70
     1
102
RTVSPost2010Prop38
140
0.0
102
RTVSPost2010PropOp38
 70
     1
102
RTVSPost2010Prop39
140
1.0
102
RTVSPost2010PropOp39
 70
     1
102
RTVSPost2010Prop40
 90
        0
102
RTVSPost2010PropOp40
 70
     1
102
RTVSPost2010Prop41ColorIndex
 90
       18
102
RTVSPost2010Prop41ColorRGB
 90
        0
102
RTVSPost2010PropOp41
 70
     1
102
RTVSPost2010Prop42
 90
       50
102
RTVSPost2010PropOp42
 70
     1
102
RTVSPost2010Prop43
 90
        3
102
RTVSPost2010PropOp43
 70
     1
102
RTVSPost2010Prop44ColorIndex
 90
        5
102
RTVSPost2010Prop44ColorRGB
 90
      255
102
RTVSPost2010PropOp44
 70
     1
102
RTVSPost2010Prop45
280
     0
102
RTVSPost2010PropOp45
 70
     1
102
RTVSPost2010Prop46
 90
       50
102
RTVSPost2010PropOp46
 70
     1
102
RTVSPost2010Prop47
 90
       50
102
RTVSPost2010PropOp47
 70
     1
102
RTVSPost2010Prop48
 90
       50
102
RTVSPost2010PropOp48
 70
     1
102
RTVSPost2010Prop49
280
     0
102
RTVSPost2010PropOp49
 70
     1
102
RTVSPost2010Prop50
 90
       50
102
RTVSPost2010PropOp50
 70
     1
102
RTVSPost2010Prop51ColorIndex
 90
      256
102
RTVSPost2010Prop51ColorRGB
 90
-16777216
102
RTVSPost2010PropOp51
 70
     0
102
RTVSPost2010Prop52
140
1.0
102
RTVSPost2010PropOp52
 70
     0
102
RTVSPost2010Prop53
 90
        2
102
RTVSPost2010PropOp53
 70
     1
102
RTVSPost2010Prop54
  1
strokes_ogs.tif
102
RTVSPost2010PropOp54
 70
     1
102
RTVSPost2010Prop55
280
     0
102
RTVSPost2010PropOp55
 70
     1
102
RTVSPost2010Prop56
140
1.0
102
RTVSPost2010PropOp56
 70
     1
102
RTVSPost2010Prop57
140
1.0
102
RTVSPost2010PropOp57
 70
     1
102
RTVSPropertyOp0
 70
     1
102
RTVSPropertyOp1
 70
     1
102
RTVSPropertyOp2
 70
     1
102
RTVSPropertyOp3
 70
     1
102
RTVSPropertyOp4
 70
     1
102
RTVSPropertyOp5
 70
     1
102
RTVSPropertyOp6
 70
     1
102
RTVSPropertyOp7
 70
     1
102
RTVSPropertyOp8
 70
     1
102
RTVSPropertyOp9
 70
     1
102
RTVSPropertyOp10
 70
     1
102
RTVSPropertyOp11
 70
     1
102
RTVSPropertyOp12
 70
     1
102
RTVSPropertyOp13
 70
     1
102
RTVSPropertyOp14
 70
     1
102
RTVSPropertyOp15
 70
     1
102
RTVSPropertyOp16
 70
     1
102
RTVSPropertyOp17
 70
     1
102
RTVSPropertyOp18
 70
     1
102
RTVSPropertyOp19
 70
     1
102
RTVSPropertyOp20
 70
     1
102
RTVSPropertyOp21
 70
     1
102
RTVSPropertyOp22
 70
     1
102
RTVSPropertyOp23
 70
     1
102
RTVSPropertyOp24
 70
     1
102
RTVSPropertyOp25
 70
     1
102
RTVSPropertyOp26
 70
     1
102
RTVSPropertyOp27
 70
     1
102
RTVSPropertyOp28
 70
     1
102
RTVSPropertyOp29
 70
     1
102
RTVSPropertyOp30
 70
     1
102
RTVSPropertyOp31
 70
     1
102
RTVSPropertyOp32
 70
     1
102
RTVSPropertyOp33
 70
     1
102
RTVSPropertyOp34
 70
     1
102
RTVSPropertyOp35
 70
     1
102
RTVSPropertyOp36
 70
     1
102
RTVSPropertyOp37
 70
     1
102
RTVSPropertyOp38
 70
     1
102
RTVSPropertyOp39
 70
     1
102
RTVSPropertyOp40
 70
     1
102
RTVSPropertyOp41
 70
     1
102
RTVSPropertyOp42
 70
     1
102
RTVSPropertyOp43
 70
     1
102
RTVSPropertyOp44
 70
     1
102
RTVSPropertyOp45
 70
     1
102
RTVSPropertyOp46
 70
     1
102
RTVSPropertyOp47
 70
     1
102
RTVSPropertyOp48
 70
     1
102
RTVSPropertyOp49
 70
     1
102
RTVSPropertyOp50
 70
     1
102
RTVSPropertyOp51
 70
     0
102
RTVSPropertyOp52
 70
     0
102
RTVSPropertyOp53
 70
     1
102
RTVSPropertyOp54
 70
     1
102
RTVSPropertyOp55
 70
     1
102
RTVSPropertyOp56
 70
     1
102
RTVSPropertyOp57
 70
     1
102
RTVSPropertyOp58
 70
     1
102
RTVSPropertyOp59
 70
     1
102
RTVSPropertyOp60
 70
     1
102
RTVSPropertyOp61
 70
     1
102
RTVSPropertyOp62
 70
     1
  0
XRECORD
  5
581C
102
{ACAD_REACTORS
330
581B
102
}
330
581B
100
AcDbXrecord
280
     1
102
RTVSPost2010Prop28
280
     0
102
RTVSPost2010PropOp28
 70
     1
102
RTVSPost2010Prop29
280
     1
102
RTVSPost2010PropOp29
 70
     1
102
RTVSPost2010Prop30
280
     1
102
RTVSPost2010PropOp30
 70
     1
102
RTVSPost2010Prop31
280
     0
102
RTVSPost2010PropOp31
 70
     1
102
RTVSPost2010Prop32
280
     0
102
RTVSPost2010PropOp32
 70
     1
102
RTVSPost2010Prop33
280
     0
102
RTVSPost2010PropOp33
 70
     1
102
RTVSPost2010Prop34
280
     0
102
RTVSPost2010PropOp34
 70
     1
102
RTVSPost2010Prop35
280
     0
102
RTVSPost2010PropOp35
 70
     1
102
RTVSPost2010Prop36
280
     0
102
RTVSPost2010PropOp36
 70
     1
102
RTVSPost2010Prop37
 90
       50
102
RTVSPost2010PropOp37
 70
     1
102
RTVSPost2010Prop38
140
0.0
102
RTVSPost2010PropOp38
 70
     1
102
RTVSPost2010Prop39
140
1.0
102
RTVSPost2010PropOp39
 70
     1
102
RTVSPost2010Prop40
 90
        0
102
RTVSPost2010PropOp40
 70
     1
102
RTVSPost2010Prop41ColorIndex
 90
       18
102
RTVSPost2010Prop41ColorRGB
 90
        0
102
RTVSPost2010PropOp41
 70
     1
102
RTVSPost2010Prop42
 90
       50
102
RTVSPost2010PropOp42
 70
     1
102
RTVSPost2010Prop43
 90
        3
102
RTVSPost2010PropOp43
 70
     1
102
RTVSPost2010Prop44ColorIndex
 90
        5
102
RTVSPost2010Prop44ColorRGB
 90
      255
102
RTVSPost2010PropOp44
 70
     1
102
RTVSPost2010Prop45
280
     0
102
RTVSPost2010PropOp45
 70
     1
102
RTVSPost2010Prop46
 90
       50
102
RTVSPost2010PropOp46
 70
     1
102
RTVSPost2010Prop47
 90
       50
102
RTVSPost2010PropOp47
 70
     1
102
RTVSPost2010Prop48
 90
       50
102
RTVSPost2010PropOp48
 70
     1
102
RTVSPost2010Prop49
280
     0
102
RTVSPost2010PropOp49
 70
     1
102
RTVSPost2010Prop50
 90
       50
102
RTVSPost2010PropOp50
 70
     1
102
RTVSPost2010Prop51ColorIndex
 90
      256
102
RTVSPost2010Prop51ColorRGB
 90
-16777216
102
RTVSPost2010PropOp51
 70
     0
102
RTVSPost2010Prop52
140
1.0
102
RTVSPost2010PropOp52
 70
     0
102
RTVSPost2010Prop53
 90
        2
102
RTVSPost2010PropOp53
 70
     1
102
RTVSPost2010Prop54
  1
strokes_ogs.tif
102
RTVSPost2010PropOp54
 70
     1
102
RTVSPost2010Prop55
280
     0
102
RTVSPost2010PropOp55
 70
     1
102
RTVSPost2010Prop56
140
1.0
102
RTVSPost2010PropOp56
 70
     1
102
RTVSPost2010Prop57
140
1.0
102
RTVSPost2010PropOp57
 70
     1
102
RTVSPropertyOp0
 70
     1
102
RTVSPropertyOp1
 70
     1
102
RTVSPropertyOp2
 70
     1
102
RTVSPropertyOp3
 70
     1
102
RTVSPropertyOp4
 70
     1
102
RTVSPropertyOp5
 70
     1
102
RTVSPropertyOp6
 70
     1
102
RTVSPropertyOp7
 70
     1
102
RTVSPropertyOp8
 70
     1
102
RTVSPropertyOp9
 70
     1
102
RTVSPropertyOp10
 70
     1
102
RTVSPropertyOp11
 70
     1
102
RTVSPropertyOp12
 70
     1
102
RTVSPropertyOp13
 70
     1
102
RTVSPropertyOp14
 70
     1
102
RTVSPropertyOp15
 70
     1
102
RTVSPropertyOp16
 70
     1
102
RTVSPropertyOp17
 70
     1
102
RTVSPropertyOp18
 70
     1
102
RTVSPropertyOp19
 70
     1
102
RTVSPropertyOp20
 70
     1
102
RTVSPropertyOp21
 70
     1
102
RTVSPropertyOp22
 70
     1
102
RTVSPropertyOp23
 70
     1
102
RTVSPropertyOp24
 70
     1
102
RTVSPropertyOp25
 70
     1
102
RTVSPropertyOp26
 70
     1
102
RTVSPropertyOp27
 70
     1
102
RTVSPropertyOp28
 70
     1
102
RTVSPropertyOp29
 70
     1
102
RTVSPropertyOp30
 70
     1
102
RTVSPropertyOp31
 70
     1
102
RTVSPropertyOp32
 70
     1
102
RTVSPropertyOp33
 70
     1
102
RTVSPropertyOp34
 70
     1
102
RTVSPropertyOp35
 70
     1
102
RTVSPropertyOp36
 70
     1
102
RTVSPropertyOp37
 70
     1
102
RTVSPropertyOp38
 70
     1
102
RTVSPropertyOp39
 70
     1
102
RTVSPropertyOp40
 70
     1
102
RTVSPropertyOp41
 70
     1
102
RTVSPropertyOp42
 70
     1
102
RTVSPropertyOp43
 70
     1
102
RTVSPropertyOp44
 70
     1
102
RTVSPropertyOp45
 70
     1
102
RTVSPropertyOp46
 70
     1
102
RTVSPropertyOp47
 70
     1
102
RTVSPropertyOp48
 70
     1
102
RTVSPropertyOp49
 70
     1
102
RTVSPropertyOp50
 70
     1
102
RTVSPropertyOp51
 70
     0
102
RTVSPropertyOp52
 70
     0
102
RTVSPropertyOp53
 70
     1
102
RTVSPropertyOp54
 70
     1
102
RTVSPropertyOp55
 70
     1
102
RTVSPropertyOp56
 70
     1
102
RTVSPropertyOp57
 70
     1
102
RTVSPropertyOp58
 70
     1
102
RTVSPropertyOp59
 70
     1
102
RTVSPropertyOp60
 70
     1
102
RTVSPropertyOp61
 70
     1
102
RTVSPropertyOp62
 70
     1
  0
XRECORD
  5
581E
102
{ACAD_REACTORS
330
581D
102
}
330
581D
100
AcDbXrecord
280
     1
102
RTVSPost2010Prop28
280
     0
102
RTVSPost2010PropOp28
 70
     1
102
RTVSPost2010Prop29
280
     1
102
RTVSPost2010PropOp29
 70
     1
102
RTVSPost2010Prop30
280
     1
102
RTVSPost2010PropOp30
 70
     1
102
RTVSPost2010Prop31
280
     0
102
RTVSPost2010PropOp31
 70
     1
102
RTVSPost2010Prop32
280
     0
102
RTVSPost2010PropOp32
 70
     1
102
RTVSPost2010Prop33
280
     0
102
RTVSPost2010PropOp33
 70
     1
102
RTVSPost2010Prop34
280
     0
102
RTVSPost2010PropOp34
 70
     1
102
RTVSPost2010Prop35
280
     0
102
RTVSPost2010PropOp35
 70
     1
102
RTVSPost2010Prop36
280
     0
102
RTVSPost2010PropOp36
 70
     1
102
RTVSPost2010Prop37
 90
       50
102
RTVSPost2010PropOp37
 70
     1
102
RTVSPost2010Prop38
140
0.0
102
RTVSPost2010PropOp38
 70
     1
102
RTVSPost2010Prop39
140
1.0
102
RTVSPost2010PropOp39
 70
     1
102
RTVSPost2010Prop40
 90
        0
102
RTVSPost2010PropOp40
 70
     1
102
RTVSPost2010Prop41ColorIndex
 90
       18
102
RTVSPost2010Prop41ColorRGB
 90
        0
102
RTVSPost2010PropOp41
 70
     1
102
RTVSPost2010Prop42
 90
       50
102
RTVSPost2010PropOp42
 70
     1
102
RTVSPost2010Prop43
 90
        3
102
RTVSPost2010PropOp43
 70
     1
102
RTVSPost2010Prop44ColorIndex
 90
        5
102
RTVSPost2010Prop44ColorRGB
 90
      255
102
RTVSPost2010PropOp44
 70
     1
102
RTVSPost2010Prop45
280
     0
102
RTVSPost2010PropOp45
 70
     1
102
RTVSPost2010Prop46
 90
       50
102
RTVSPost2010PropOp46
 70
     1
102
RTVSPost2010Prop47
 90
       50
102
RTVSPost2010PropOp47
 70
     1
102
RTVSPost2010Prop48
 90
       50
102
RTVSPost2010PropOp48
 70
     1
102
RTVSPost2010Prop49
280
     0
102
RTVSPost2010PropOp49
 70
     1
102
RTVSPost2010Prop50
 90
       50
102
RTVSPost2010PropOp50
 70
     1
102
RTVSPost2010Prop51ColorIndex
 90
      256
102
RTVSPost2010Prop51ColorRGB
 90
-16777216
102
RTVSPost2010PropOp51
 70
     0
102
RTVSPost2010Prop52
140
1.0
102
RTVSPost2010PropOp52
 70
     0
102
RTVSPost2010Prop53
 90
        2
102
RTVSPost2010PropOp53
 70
     1
102
RTVSPost2010Prop54
  1
strokes_ogs.tif
102
RTVSPost2010PropOp54
 70
     1
102
RTVSPost2010Prop55
280
     0
102
RTVSPost2010PropOp55
 70
     1
102
RTVSPost2010Prop56
140
1.0
102
RTVSPost2010PropOp56
 70
     1
102
RTVSPost2010Prop57
140
1.0
102
RTVSPost2010PropOp57
 70
     1
102
RTVSPropertyOp0
 70
     1
102
RTVSPropertyOp1
 70
     1
102
RTVSPropertyOp2
 70
     1
102
RTVSPropertyOp3
 70
     1
102
RTVSPropertyOp4
 70
     1
102
RTVSPropertyOp5
 70
     1
102
RTVSPropertyOp6
 70
     1
102
RTVSPropertyOp7
 70
     1
102
RTVSPropertyOp8
 70
     1
102
RTVSPropertyOp9
 70
     1
102
RTVSPropertyOp10
 70
     1
102
RTVSPropertyOp11
 70
     1
102
RTVSPropertyOp12
 70
     1
102
RTVSPropertyOp13
 70
     1
102
RTVSPropertyOp14
 70
     1
102
RTVSPropertyOp15
 70
     1
102
RTVSPropertyOp16
 70
     1
102
RTVSPropertyOp17
 70
     1
102
RTVSPropertyOp18
 70
     1
102
RTVSPropertyOp19
 70
     1
102
RTVSPropertyOp20
 70
     1
102
RTVSPropertyOp21
 70
     1
102
RTVSPropertyOp22
 70
     1
102
RTVSPropertyOp23
 70
     1
102
RTVSPropertyOp24
 70
     1
102
RTVSPropertyOp25
 70
     1
102
RTVSPropertyOp26
 70
     1
102
RTVSPropertyOp27
 70
     1
102
RTVSPropertyOp28
 70
     1
102
RTVSPropertyOp29
 70
     1
102
RTVSPropertyOp30
 70
     1
102
RTVSPropertyOp31
 70
     1
102
RTVSPropertyOp32
 70
     1
102
RTVSPropertyOp33
 70
     1
102
RTVSPropertyOp34
 70
     1
102
RTVSPropertyOp35
 70
     1
102
RTVSPropertyOp36
 70
     1
102
RTVSPropertyOp37
 70
     1
102
RTVSPropertyOp38
 70
     1
102
RTVSPropertyOp39
 70
     1
102
RTVSPropertyOp40
 70
     1
102
RTVSPropertyOp41
 70
     1
102
RTVSPropertyOp42
 70
     1
102
RTVSPropertyOp43
 70
     1
102
RTVSPropertyOp44
 70
     1
102
RTVSPropertyOp45
 70
     1
102
RTVSPropertyOp46
 70
     1
102
RTVSPropertyOp47
 70
     1
102
RTVSPropertyOp48
 70
     1
102
RTVSPropertyOp49
 70
     1
102
RTVSPropertyOp50
 70
     1
102
RTVSPropertyOp51
 70
     0
102
RTVSPropertyOp52
 70
     0
102
RTVSPropertyOp53
 70
     1
102
RTVSPropertyOp54
 70
     1
102
RTVSPropertyOp55
 70
     1
102
RTVSPropertyOp56
 70
     1
102
RTVSPropertyOp57
 70
     1
102
RTVSPropertyOp58
 70
     1
102
RTVSPropertyOp59
 70
     1
102
RTVSPropertyOp60
 70
     1
102
RTVSPropertyOp61
 70
     1
102
RTVSPropertyOp62
 70
     1
  0
XRECORD
  5
583C
102
{ACAD_REACTORS
330
583B
102
}
330
583B
100
AcDbXrecord
280
     1
102
RTVSPost2010Prop28
280
     0
102
RTVSPost2010PropOp28
 70
     1
102
RTVSPost2010Prop29
280
     1
102
RTVSPost2010PropOp29
 70
     1
102
RTVSPost2010Prop30
280
     1
102
RTVSPost2010PropOp30
 70
     1
102
RTVSPost2010Prop31
280
     0
102
RTVSPost2010PropOp31
 70
     1
102
RTVSPost2010Prop32
280
     0
102
RTVSPost2010PropOp32
 70
     1
102
RTVSPost2010Prop33
280
     0
102
RTVSPost2010PropOp33
 70
     1
102
RTVSPost2010Prop34
280
     0
102
RTVSPost2010PropOp34
 70
     1
102
RTVSPost2010Prop35
280
     0
102
RTVSPost2010PropOp35
 70
     1
102
RTVSPost2010Prop36
280
     0
102
RTVSPost2010PropOp36
 70
     1
102
RTVSPost2010Prop37
 90
       50
102
RTVSPost2010PropOp37
 70
     0
102
RTVSPost2010Prop38
140
0.0
102
RTVSPost2010PropOp38
 70
     0
102
RTVSPost2010Prop39
140
1.0
102
RTVSPost2010PropOp39
 70
     0
102
RTVSPost2010Prop40
 90
        0
102
RTVSPost2010PropOp40
 70
     0
102
RTVSPost2010Prop41ColorIndex
 90
       18
102
RTVSPost2010Prop41ColorRGB
 90
        0
102
RTVSPost2010PropOp41
 70
     0
102
RTVSPost2010Prop42
 90
       50
102
RTVSPost2010PropOp42
 70
     0
102
RTVSPost2010Prop43
 90
        3
102
RTVSPost2010PropOp43
 70
     0
102
RTVSPost2010Prop44ColorIndex
 90
        5
102
RTVSPost2010Prop44ColorRGB
 90
      255
102
RTVSPost2010PropOp44
 70
     0
102
RTVSPost2010Prop45
280
     0
102
RTVSPost2010PropOp45
 70
     1
102
RTVSPost2010Prop46
 90
       50
102
RTVSPost2010PropOp46
 70
     0
102
RTVSPost2010Prop47
 90
       50
102
RTVSPost2010PropOp47
 70
     0
102
RTVSPost2010Prop48
 90
       50
102
RTVSPost2010PropOp48
 70
     0
102
RTVSPost2010Prop49
280
     0
102
RTVSPost2010PropOp49
 70
     1
102
RTVSPost2010Prop50
 90
       50
102
RTVSPost2010PropOp50
 70
     0
102
RTVSPost2010Prop51ColorIndex
 90
      256
102
RTVSPost2010Prop51ColorRGB
 90
-16777216
102
RTVSPost2010PropOp51
 70
     0
102
RTVSPost2010Prop52
140
1.0
102
RTVSPost2010PropOp52
 70
     0
102
RTVSPost2010Prop53
 90
        2
102
RTVSPost2010PropOp53
 70
     0
102
RTVSPost2010Prop54
  1
strokes_ogs.tif
102
RTVSPost2010PropOp54
 70
     0
102
RTVSPost2010Prop55
280
     0
102
RTVSPost2010PropOp55
 70
     1
102
RTVSPost2010Prop56
140
1.0
102
RTVSPost2010PropOp56
 70
     0
102
RTVSPost2010Prop57
140
1.0
102
RTVSPost2010PropOp57
 70
     0
102
RTVSPropertyOp0
 70
     0
102
RTVSPropertyOp1
 70
     0
102
RTVSPropertyOp2
 70
     0
102
RTVSPropertyOp3
 70
     0
102
RTVSPropertyOp4
 70
     0
102
RTVSPropertyOp5
 70
     0
102
RTVSPropertyOp6
 70
     0
102
RTVSPropertyOp7
 70
     0
102
RTVSPropertyOp8
 70
     0
102
RTVSPropertyOp9
 70
     0
102
RTVSPropertyOp10
 70
     0
102
RTVSPropertyOp11
 70
     0
102
RTVSPropertyOp12
 70
     0
102
RTVSPropertyOp13
 70
     0
102
RTVSPropertyOp14
 70
     2
102
RTVSPropertyOp15
 70
     0
102
RTVSPropertyOp16
 70
     0
102
RTVSPropertyOp17
 70
     0
102
RTVSPropertyOp18
 70
     0
102
RTVSPropertyOp19
 70
     0
102
RTVSPropertyOp20
 70
     0
102
RTVSPropertyOp21
 70
     0
102
RTVSPropertyOp22
 70
     0
102
RTVSPropertyOp23
 70
     0
102
RTVSPropertyOp24
 70
     0
102
RTVSPropertyOp25
 70
     0
102
RTVSPropertyOp26
 70
     0
102
RTVSPropertyOp27
 70
     0
102
RTVSPropertyOp28
 70
     1
102
RTVSPropertyOp29
 70
     1
102
RTVSPropertyOp30
 70
     1
102
RTVSPropertyOp31
 70
     1
102
RTVSPropertyOp32
 70
     1
102
RTVSPropertyOp33
 70
     1
102
RTVSPropertyOp34
 70
     1
102
RTVSPropertyOp35
 70
     1
102
RTVSPropertyOp36
 70
     1
102
RTVSPropertyOp37
 70
     0
102
RTVSPropertyOp38
 70
     0
102
RTVSPropertyOp39
 70
     0
102
RTVSPropertyOp40
 70
     0
102
RTVSPropertyOp41
 70
     0
102
RTVSPropertyOp42
 70
     0
102
RTVSPropertyOp43
 70
     0
102
RTVSPropertyOp44
 70
     0
102
RTVSPropertyOp45
 70
     1
102
RTVSPropertyOp46
 70
     0
102
RTVSPropertyOp47
 70
     0
102
RTVSPropertyOp48
 70
     0
102
RTVSPropertyOp49
 70
     1
102
RTVSPropertyOp50
 70
     0
102
RTVSPropertyOp51
 70
     0
102
RTVSPropertyOp52
 70
     0
102
RTVSPropertyOp53
 70
     0
102
RTVSPropertyOp54
 70
     0
102
RTVSPropertyOp55
 70
     1
102
RTVSPropertyOp56
 70
     0
102
RTVSPropertyOp57
 70
     0
102
RTVSPropertyOp58
 70
     0
102
RTVSPropertyOp59
 70
     0
102
RTVSPropertyOp60
 70
     0
102
RTVSPropertyOp61
 70
     0
102
RTVSPropertyOp62
 70
     0
  0
XRECORD
  5
5826
102
{ACAD_REACTORS
330
5825
102
}
330
5825
100
AcDbXrecord
280
     1
102
RTVSPost2010Prop28
280
     0
102
RTVSPost2010PropOp28
 70
     1
102
RTVSPost2010Prop29
280
     1
102
RTVSPost2010PropOp29
 70
     1
102
RTVSPost2010Prop30
280
     1
102
RTVSPost2010PropOp30
 70
     1
102
RTVSPost2010Prop31
280
     0
102
RTVSPost2010PropOp31
 70
     1
102
RTVSPost2010Prop32
280
     0
102
RTVSPost2010PropOp32
 70
     1
102
RTVSPost2010Prop33
280
     0
102
RTVSPost2010PropOp33
 70
     1
102
RTVSPost2010Prop34
280
     0
102
RTVSPost2010PropOp34
 70
     1
102
RTVSPost2010Prop35
280
     0
102
RTVSPost2010PropOp35
 70
     1
102
RTVSPost2010Prop36
280
     0
102
RTVSPost2010PropOp36
 70
     1
102
RTVSPost2010Prop37
 90
       50
102
RTVSPost2010PropOp37
 70
     1
102
RTVSPost2010Prop38
140
0.0
102
RTVSPost2010PropOp38
 70
     1
102
RTVSPost2010Prop39
140
1.0
102
RTVSPost2010PropOp39
 70
     1
102
RTVSPost2010Prop40
 90
        0
102
RTVSPost2010PropOp40
 70
     1
102
RTVSPost2010Prop41ColorIndex
 90
       18
102
RTVSPost2010Prop41ColorRGB
 90
        0
102
RTVSPost2010PropOp41
 70
     1
102
RTVSPost2010Prop42
 90
       50
102
RTVSPost2010PropOp42
 70
     1
102
RTVSPost2010Prop43
 90
        3
102
RTVSPost2010PropOp43
 70
     1
102
RTVSPost2010Prop44ColorIndex
 90
        5
102
RTVSPost2010Prop44ColorRGB
 90
      255
102
RTVSPost2010PropOp44
 70
     1
102
RTVSPost2010Prop45
280
     0
102
RTVSPost2010PropOp45
 70
     1
102
RTVSPost2010Prop46
 90
       50
102
RTVSPost2010PropOp46
 70
     1
102
RTVSPost2010Prop47
 90
       50
102
RTVSPost2010PropOp47
 70
     1
102
RTVSPost2010Prop48
 90
       50
102
RTVSPost2010PropOp48
 70
     1
102
RTVSPost2010Prop49
280
     0
102
RTVSPost2010PropOp49
 70
     1
102
RTVSPost2010Prop50
 90
       50
102
RTVSPost2010PropOp50
 70
     1
102
RTVSPost2010Prop51ColorIndex
 90
      256
102
RTVSPost2010Prop51ColorRGB
 90
-16777216
102
RTVSPost2010PropOp51
 70
     0
102
RTVSPost2010Prop52
140
1.0
102
RTVSPost2010PropOp52
 70
     0
102
RTVSPost2010Prop53
 90
        2
102
RTVSPost2010PropOp53
 70
     1
102
RTVSPost2010Prop54
  1
strokes_ogs.tif
102
RTVSPost2010PropOp54
 70
     1
102
RTVSPost2010Prop55
280
     0
102
RTVSPost2010PropOp55
 70
     1
102
RTVSPost2010Prop56
140
1.0
102
RTVSPost2010PropOp56
 70
     1
102
RTVSPost2010Prop57
140
1.0
102
RTVSPost2010PropOp57
 70
     1
102
RTVSPropertyOp0
 70
     1
102
RTVSPropertyOp1
 70
     1
102
RTVSPropertyOp2
 70
     1
102
RTVSPropertyOp3
 70
     1
102
RTVSPropertyOp4
 70
     1
102
RTVSPropertyOp5
 70
     1
102
RTVSPropertyOp6
 70
     1
102
RTVSPropertyOp7
 70
     1
102
RTVSPropertyOp8
 70
     1
102
RTVSPropertyOp9
 70
     1
102
RTVSPropertyOp10
 70
     1
102
RTVSPropertyOp11
 70
     1
102
RTVSPropertyOp12
 70
     1
102
RTVSPropertyOp13
 70
     1
102
RTVSPropertyOp14
 70
     1
102
RTVSPropertyOp15
 70
     1
102
RTVSPropertyOp16
 70
     1
102
RTVSPropertyOp17
 70
     1
102
RTVSPropertyOp18
 70
     1
102
RTVSPropertyOp19
 70
     1
102
RTVSPropertyOp20
 70
     1
102
RTVSPropertyOp21
 70
     1
102
RTVSPropertyOp22
 70
     1
102
RTVSPropertyOp23
 70
     1
102
RTVSPropertyOp24
 70
     1
102
RTVSPropertyOp25
 70
     1
102
RTVSPropertyOp26
 70
     1
102
RTVSPropertyOp27
 70
     1
102
RTVSPropertyOp28
 70
     1
102
RTVSPropertyOp29
 70
     1
102
RTVSPropertyOp30
 70
     1
102
RTVSPropertyOp31
 70
     1
102
RTVSPropertyOp32
 70
     1
102
RTVSPropertyOp33
 70
     1
102
RTVSPropertyOp34
 70
     1
102
RTVSPropertyOp35
 70
     1
102
RTVSPropertyOp36
 70
     1
102
RTVSPropertyOp37
 70
     1
102
RTVSPropertyOp38
 70
     1
102
RTVSPropertyOp39
 70
     1
102
RTVSPropertyOp40
 70
     1
102
RTVSPropertyOp41
 70
     1
102
RTVSPropertyOp42
 70
     1
102
RTVSPropertyOp43
 70
     1
102
RTVSPropertyOp44
 70
     1
102
RTVSPropertyOp45
 70
     1
102
RTVSPropertyOp46
 70
     1
102
RTVSPropertyOp47
 70
     1
102
RTVSPropertyOp48
 70
     1
102
RTVSPropertyOp49
 70
     1
102
RTVSPropertyOp50
 70
     1
102
RTVSPropertyOp51
 70
     0
102
RTVSPropertyOp52
 70
     0
102
RTVSPropertyOp53
 70
     1
102
RTVSPropertyOp54
 70
     1
102
RTVSPropertyOp55
 70
     1
102
RTVSPropertyOp56
 70
     1
102
RTVSPropertyOp57
 70
     1
102
RTVSPropertyOp58
 70
     1
102
RTVSPropertyOp59
 70
     1
102
RTVSPropertyOp60
 70
     1
102
RTVSPropertyOp61
 70
     1
102
RTVSPropertyOp62
 70
     1
  0
XRECORD
  5
5810
102
{ACAD_REACTORS
330
580F
102
}
330
580F
100
AcDbXrecord
280
     1
102
RTVSPost2010Prop28
280
     0
102
RTVSPost2010PropOp28
 70
     1
102
RTVSPost2010Prop29
280
     1
102
RTVSPost2010PropOp29
 70
     1
102
RTVSPost2010Prop30
280
     1
102
RTVSPost2010PropOp30
 70
     1
102
RTVSPost2010Prop31
280
     0
102
RTVSPost2010PropOp31
 70
     1
102
RTVSPost2010Prop32
280
     0
102
RTVSPost2010PropOp32
 70
     1
102
RTVSPost2010Prop33
280
     0
102
RTVSPost2010PropOp33
 70
     1
102
RTVSPost2010Prop34
280
     0
102
RTVSPost2010PropOp34
 70
     1
102
RTVSPost2010Prop35
280
     0
102
RTVSPost2010PropOp35
 70
     1
102
RTVSPost2010Prop36
280
     0
102
RTVSPost2010PropOp36
 70
     1
102
RTVSPost2010Prop37
 90
       50
102
RTVSPost2010PropOp37
 70
     1
102
RTVSPost2010Prop38
140
0.0
102
RTVSPost2010PropOp38
 70
     1
102
RTVSPost2010Prop39
140
1.0
102
RTVSPost2010PropOp39
 70
     1
102
RTVSPost2010Prop40
 90
        0
102
RTVSPost2010PropOp40
 70
     1
102
RTVSPost2010Prop41ColorIndex
 90
       18
102
RTVSPost2010Prop41ColorRGB
 90
        0
102
RTVSPost2010PropOp41
 70
     1
102
RTVSPost2010Prop42
 90
       50
102
RTVSPost2010PropOp42
 70
     1
102
RTVSPost2010Prop43
 90
        3
102
RTVSPost2010PropOp43
 70
     1
102
RTVSPost2010Prop44ColorIndex
 90
        5
102
RTVSPost2010Prop44ColorRGB
 90
      255
102
RTVSPost2010PropOp44
 70
     1
102
RTVSPost2010Prop45
280
     0
102
RTVSPost2010PropOp45
 70
     1
102
RTVSPost2010Prop46
 90
       50
102
RTVSPost2010PropOp46
 70
     1
102
RTVSPost2010Prop47
 90
       50
102
RTVSPost2010PropOp47
 70
     1
102
RTVSPost2010Prop48
 90
       50
102
RTVSPost2010PropOp48
 70
     1
102
RTVSPost2010Prop49
280
     0
102
RTVSPost2010PropOp49
 70
     1
102
RTVSPost2010Prop50
 90
       50
102
RTVSPost2010PropOp50
 70
     1
102
RTVSPost2010Prop51ColorIndex
 90
      256
102
RTVSPost2010Prop51ColorRGB
 90
-16777216
102
RTVSPost2010PropOp51
 70
     0
102
RTVSPost2010Prop52
140
1.0
102
RTVSPost2010PropOp52
 70
     0
102
RTVSPost2010Prop53
 90
        2
102
RTVSPost2010PropOp53
 70
     1
102
RTVSPost2010Prop54
  1
strokes_ogs.tif
102
RTVSPost2010PropOp54
 70
     1
102
RTVSPost2010Prop55
280
     0
102
RTVSPost2010PropOp55
 70
     1
102
RTVSPost2010Prop56
140
1.0
102
RTVSPost2010PropOp56
 70
     1
102
RTVSPost2010Prop57
140
1.0
102
RTVSPost2010PropOp57
 70
     1
102
RTVSPropertyOp0
 70
     1
102
RTVSPropertyOp1
 70
     1
102
RTVSPropertyOp2
 70
     1
102
RTVSPropertyOp3
 70
     1
102
RTVSPropertyOp4
 70
     1
102
RTVSPropertyOp5
 70
     1
102
RTVSPropertyOp6
 70
     1
102
RTVSPropertyOp7
 70
     1
102
RTVSPropertyOp8
 70
     1
102
RTVSPropertyOp9
 70
     1
102
RTVSPropertyOp10
 70
     1
102
RTVSPropertyOp11
 70
     1
102
RTVSPropertyOp12
 70
     1
102
RTVSPropertyOp13
 70
     1
102
RTVSPropertyOp14
 70
     1
102
RTVSPropertyOp15
 70
     1
102
RTVSPropertyOp16
 70
     1
102
RTVSPropertyOp17
 70
     1
102
RTVSPropertyOp18
 70
     1
102
RTVSPropertyOp19
 70
     1
102
RTVSPropertyOp20
 70
     1
102
RTVSPropertyOp21
 70
     1
102
RTVSPropertyOp22
 70
     1
102
RTVSPropertyOp23
 70
     1
102
RTVSPropertyOp24
 70
     1
102
RTVSPropertyOp25
 70
     1
102
RTVSPropertyOp26
 70
     1
102
RTVSPropertyOp27
 70
     1
102
RTVSPropertyOp28
 70
     1
102
RTVSPropertyOp29
 70
     1
102
RTVSPropertyOp30
 70
     1
102
RTVSPropertyOp31
 70
     1
102
RTVSPropertyOp32
 70
     1
102
RTVSPropertyOp33
 70
     1
102
RTVSPropertyOp34
 70
     1
102
RTVSPropertyOp35
 70
     1
102
RTVSPropertyOp36
 70
     1
102
RTVSPropertyOp37
 70
     1
102
RTVSPropertyOp38
 70
     1
102
RTVSPropertyOp39
 70
     1
102
RTVSPropertyOp40
 70
     1
102
RTVSPropertyOp41
 70
     1
102
RTVSPropertyOp42
 70
     1
102
RTVSPropertyOp43
 70
     1
102
RTVSPropertyOp44
 70
     1
102
RTVSPropertyOp45
 70
     1
102
RTVSPropertyOp46
 70
     1
102
RTVSPropertyOp47
 70
     1
102
RTVSPropertyOp48
 70
     1
102
RTVSPropertyOp49
 70
     1
102
RTVSPropertyOp50
 70
     1
102
RTVSPropertyOp51
 70
     0
102
RTVSPropertyOp52
 70
     0
102
RTVSPropertyOp53
 70
     1
102
RTVSPropertyOp54
 70
     1
102
RTVSPropertyOp55
 70
     1
102
RTVSPropertyOp56
 70
     1
102
RTVSPropertyOp57
 70
     1
102
RTVSPropertyOp58
 70
     1
102
RTVSPropertyOp59
 70
     1
102
RTVSPropertyOp60
 70
     1
102
RTVSPropertyOp61
 70
     1
102
RTVSPropertyOp62
 70
     1
  0
XRECORD
  5
5812
102
{ACAD_REACTORS
330
5811
102
}
330
5811
100
AcDbXrecord
280
     1
102
RTVSPost2010Prop28
280
     0
102
RTVSPost2010PropOp28
 70
     1
102
RTVSPost2010Prop29
280
     1
102
RTVSPost2010PropOp29
 70
     1
102
RTVSPost2010Prop30
280
     1
102
RTVSPost2010PropOp30
 70
     1
102
RTVSPost2010Prop31
280
     0
102
RTVSPost2010PropOp31
 70
     1
102
RTVSPost2010Prop32
280
     0
102
RTVSPost2010PropOp32
 70
     1
102
RTVSPost2010Prop33
280
     0
102
RTVSPost2010PropOp33
 70
     1
102
RTVSPost2010Prop34
280
     0
102
RTVSPost2010PropOp34
 70
     1
102
RTVSPost2010Prop35
280
     0
102
RTVSPost2010PropOp35
 70
     1
102
RTVSPost2010Prop36
280
     0
102
RTVSPost2010PropOp36
 70
     1
102
RTVSPost2010Prop37
 90
       50
102
RTVSPost2010PropOp37
 70
     1
102
RTVSPost2010Prop38
140
0.0
102
RTVSPost2010PropOp38
 70
     1
102
RTVSPost2010Prop39
140
1.0
102
RTVSPost2010PropOp39
 70
     1
102
RTVSPost2010Prop40
 90
        0
102
RTVSPost2010PropOp40
 70
     1
102
RTVSPost2010Prop41ColorIndex
 90
       18
102
RTVSPost2010Prop41ColorRGB
 90
        0
102
RTVSPost2010PropOp41
 70
     1
102
RTVSPost2010Prop42
 90
       50
102
RTVSPost2010PropOp42
 70
     1
102
RTVSPost2010Prop43
 90
        3
102
RTVSPost2010PropOp43
 70
     1
102
RTVSPost2010Prop44ColorIndex
 90
        5
102
RTVSPost2010Prop44ColorRGB
 90
      255
102
RTVSPost2010PropOp44
 70
     1
102
RTVSPost2010Prop45
280
     0
102
RTVSPost2010PropOp45
 70
     1
102
RTVSPost2010Prop46
 90
       50
102
RTVSPost2010PropOp46
 70
     1
102
RTVSPost2010Prop47
 90
       50
102
RTVSPost2010PropOp47
 70
     1
102
RTVSPost2010Prop48
 90
       50
102
RTVSPost2010PropOp48
 70
     1
102
RTVSPost2010Prop49
280
     0
102
RTVSPost2010PropOp49
 70
     1
102
RTVSPost2010Prop50
 90
       50
102
RTVSPost2010PropOp50
 70
     1
102
RTVSPost2010Prop51ColorIndex
 90
      256
102
RTVSPost2010Prop51ColorRGB
 90
-16777216
102
RTVSPost2010PropOp51
 70
     0
102
RTVSPost2010Prop52
140
1.0
102
RTVSPost2010PropOp52
 70
     0
102
RTVSPost2010Prop53
 90
        2
102
RTVSPost2010PropOp53
 70
     1
102
RTVSPost2010Prop54
  1
strokes_ogs.tif
102
RTVSPost2010PropOp54
 70
     1
102
RTVSPost2010Prop55
280
     0
102
RTVSPost2010PropOp55
 70
     1
102
RTVSPost2010Prop56
140
1.0
102
RTVSPost2010PropOp56
 70
     1
102
RTVSPost2010Prop57
140
1.0
102
RTVSPost2010PropOp57
 70
     1
102
RTVSPropertyOp0
 70
     1
102
RTVSPropertyOp1
 70
     1
102
RTVSPropertyOp2
 70
     1
102
RTVSPropertyOp3
 70
     1
102
RTVSPropertyOp4
 70
     1
102
RTVSPropertyOp5
 70
     1
102
RTVSPropertyOp6
 70
     1
102
RTVSPropertyOp7
 70
     1
102
RTVSPropertyOp8
 70
     1
102
RTVSPropertyOp9
 70
     1
102
RTVSPropertyOp10
 70
     1
102
RTVSPropertyOp11
 70
     1
102
RTVSPropertyOp12
 70
     1
102
RTVSPropertyOp13
 70
     1
102
RTVSPropertyOp14
 70
     1
102
RTVSPropertyOp15
 70
     1
102
RTVSPropertyOp16
 70
     1
102
RTVSPropertyOp17
 70
     1
102
RTVSPropertyOp18
 70
     1
102
RTVSPropertyOp19
 70
     1
102
RTVSPropertyOp20
 70
     1
102
RTVSPropertyOp21
 70
     1
102
RTVSPropertyOp22
 70
     1
102
RTVSPropertyOp23
 70
     1
102
RTVSPropertyOp24
 70
     1
102
RTVSPropertyOp25
 70
     1
102
RTVSPropertyOp26
 70
     1
102
RTVSPropertyOp27
 70
     1
102
RTVSPropertyOp28
 70
     1
102
RTVSPropertyOp29
 70
     1
102
RTVSPropertyOp30
 70
     1
102
RTVSPropertyOp31
 70
     1
102
RTVSPropertyOp32
 70
     1
102
RTVSPropertyOp33
 70
     1
102
RTVSPropertyOp34
 70
     1
102
RTVSPropertyOp35
 70
     1
102
RTVSPropertyOp36
 70
     1
102
RTVSPropertyOp37
 70
     1
102
RTVSPropertyOp38
 70
     1
102
RTVSPropertyOp39
 70
     1
102
RTVSPropertyOp40
 70
     1
102
RTVSPropertyOp41
 70
     1
102
RTVSPropertyOp42
 70
     1
102
RTVSPropertyOp43
 70
     1
102
RTVSPropertyOp44
 70
     1
102
RTVSPropertyOp45
 70
     1
102
RTVSPropertyOp46
 70
     1
102
RTVSPropertyOp47
 70
     1
102
RTVSPropertyOp48
 70
     1
102
RTVSPropertyOp49
 70
     1
102
RTVSPropertyOp50
 70
     1
102
RTVSPropertyOp51
 70
     0
102
RTVSPropertyOp52
 70
     0
102
RTVSPropertyOp53
 70
     1
102
RTVSPropertyOp54
 70
     1
102
RTVSPropertyOp55
 70
     1
102
RTVSPropertyOp56
 70
     1
102
RTVSPropertyOp57
 70
     1
102
RTVSPropertyOp58
 70
     1
102
RTVSPropertyOp59
 70
     1
102
RTVSPropertyOp60
 70
     1
102
RTVSPropertyOp61
 70
     1
102
RTVSPropertyOp62
 70
     1
  0
XRECORD
  5
5814
102
{ACAD_REACTORS
330
5813
102
}
330
5813
100
AcDbXrecord
280
     1
102
RTVSPost2010Prop28
280
     0
102
RTVSPost2010PropOp28
 70
     1
102
RTVSPost2010Prop29
280
     1
102
RTVSPost2010PropOp29
 70
     1
102
RTVSPost2010Prop30
280
     1
102
RTVSPost2010PropOp30
 70
     1
102
RTVSPost2010Prop31
280
     0
102
RTVSPost2010PropOp31
 70
     1
102
RTVSPost2010Prop32
280
     0
102
RTVSPost2010PropOp32
 70
     1
102
RTVSPost2010Prop33
280
     0
102
RTVSPost2010PropOp33
 70
     1
102
RTVSPost2010Prop34
280
     0
102
RTVSPost2010PropOp34
 70
     1
102
RTVSPost2010Prop35
280
     0
102
RTVSPost2010PropOp35
 70
     1
102
RTVSPost2010Prop36
280
     0
102
RTVSPost2010PropOp36
 70
     1
102
RTVSPost2010Prop37
 90
       50
102
RTVSPost2010PropOp37
 70
     1
102
RTVSPost2010Prop38
140
0.0
102
RTVSPost2010PropOp38
 70
     1
102
RTVSPost2010Prop39
140
1.0
102
RTVSPost2010PropOp39
 70
     1
102
RTVSPost2010Prop40
 90
        0
102
RTVSPost2010PropOp40
 70
     1
102
RTVSPost2010Prop41ColorIndex
 90
       18
102
RTVSPost2010Prop41ColorRGB
 90
        0
102
RTVSPost2010PropOp41
 70
     1
102
RTVSPost2010Prop42
 90
       50
102
RTVSPost2010PropOp42
 70
     1
102
RTVSPost2010Prop43
 90
        3
102
RTVSPost2010PropOp43
 70
     1
102
RTVSPost2010Prop44ColorIndex
 90
        5
102
RTVSPost2010Prop44ColorRGB
 90
      255
102
RTVSPost2010PropOp44
 70
     1
102
RTVSPost2010Prop45
280
     0
102
RTVSPost2010PropOp45
 70
     1
102
RTVSPost2010Prop46
 90
       50
102
RTVSPost2010PropOp46
 70
     1
102
RTVSPost2010Prop47
 90
       50
102
RTVSPost2010PropOp47
 70
     1
102
RTVSPost2010Prop48
 90
       50
102
RTVSPost2010PropOp48
 70
     1
102
RTVSPost2010Prop49
280
     0
102
RTVSPost2010PropOp49
 70
     1
102
RTVSPost2010Prop50
 90
       50
102
RTVSPost2010PropOp50
 70
     1
102
RTVSPost2010Prop51ColorIndex
 90
      256
102
RTVSPost2010Prop51ColorRGB
 90
-16777216
102
RTVSPost2010PropOp51
 70
     0
102
RTVSPost2010Prop52
140
1.0
102
RTVSPost2010PropOp52
 70
     0
102
RTVSPost2010Prop53
 90
        2
102
RTVSPost2010PropOp53
 70
     1
102
RTVSPost2010Prop54
  1
strokes_ogs.tif
102
RTVSPost2010PropOp54
 70
     1
102
RTVSPost2010Prop55
280
     0
102
RTVSPost2010PropOp55
 70
     1
102
RTVSPost2010Prop56
140
1.0
102
RTVSPost2010PropOp56
 70
     1
102
RTVSPost2010Prop57
140
1.0
102
RTVSPost2010PropOp57
 70
     1
102
RTVSPropertyOp0
 70
     1
102
RTVSPropertyOp1
 70
     1
102
RTVSPropertyOp2
 70
     1
102
RTVSPropertyOp3
 70
     1
102
RTVSPropertyOp4
 70
     1
102
RTVSPropertyOp5
 70
     1
102
RTVSPropertyOp6
 70
     1
102
RTVSPropertyOp7
 70
     1
102
RTVSPropertyOp8
 70
     1
102
RTVSPropertyOp9
 70
     1
102
RTVSPropertyOp10
 70
     1
102
RTVSPropertyOp11
 70
     1
102
RTVSPropertyOp12
 70
     1
102
RTVSPropertyOp13
 70
     1
102
RTVSPropertyOp14
 70
     1
102
RTVSPropertyOp15
 70
     1
102
RTVSPropertyOp16
 70
     1
102
RTVSPropertyOp17
 70
     1
102
RTVSPropertyOp18
 70
     1
102
RTVSPropertyOp19
 70
     1
102
RTVSPropertyOp20
 70
     1
102
RTVSPropertyOp21
 70
     1
102
RTVSPropertyOp22
 70
     1
102
RTVSPropertyOp23
 70
     1
102
RTVSPropertyOp24
 70
     1
102
RTVSPropertyOp25
 70
     1
102
RTVSPropertyOp26
 70
     1
102
RTVSPropertyOp27
 70
     1
102
RTVSPropertyOp28
 70
     1
102
RTVSPropertyOp29
 70
     1
102
RTVSPropertyOp30
 70
     1
102
RTVSPropertyOp31
 70
     1
102
RTVSPropertyOp32
 70
     1
102
RTVSPropertyOp33
 70
     1
102
RTVSPropertyOp34
 70
     1
102
RTVSPropertyOp35
 70
     1
102
RTVSPropertyOp36
 70
     1
102
RTVSPropertyOp37
 70
     1
102
RTVSPropertyOp38
 70
     1
102
RTVSPropertyOp39
 70
     1
102
RTVSPropertyOp40
 70
     1
102
RTVSPropertyOp41
 70
     1
102
RTVSPropertyOp42
 70
     1
102
RTVSPropertyOp43
 70
     1
102
RTVSPropertyOp44
 70
     1
102
RTVSPropertyOp45
 70
     1
102
RTVSPropertyOp46
 70
     1
102
RTVSPropertyOp47
 70
     1
102
RTVSPropertyOp48
 70
     1
102
RTVSPropertyOp49
 70
     1
102
RTVSPropertyOp50
 70
     1
102
RTVSPropertyOp51
 70
     0
102
RTVSPropertyOp52
 70
     0
102
RTVSPropertyOp53
 70
     1
102
RTVSPropertyOp54
 70
     1
102
RTVSPropertyOp55
 70
     1
102
RTVSPropertyOp56
 70
     1
102
RTVSPropertyOp57
 70
     1
102
RTVSPropertyOp58
 70
     1
102
RTVSPropertyOp59
 70
     1
102
RTVSPropertyOp60
 70
     1
102
RTVSPropertyOp61
 70
     1
102
RTVSPropertyOp62
 70
     1
  0
XRECORD
  5
5816
102
{ACAD_REACTORS
330
5815
102
}
330
5815
100
AcDbXrecord
280
     1
102
RTVSPost2010Prop28
280
     0
102
RTVSPost2010PropOp28
 70
     1
102
RTVSPost2010Prop29
280
     1
102
RTVSPost2010PropOp29
 70
     1
102
RTVSPost2010Prop30
280
     1
102
RTVSPost2010PropOp30
 70
     1
102
RTVSPost2010Prop31
280
     0
102
RTVSPost2010PropOp31
 70
     1
102
RTVSPost2010Prop32
280
     0
102
RTVSPost2010PropOp32
 70
     1
102
RTVSPost2010Prop33
280
     0
102
RTVSPost2010PropOp33
 70
     1
102
RTVSPost2010Prop34
280
     0
102
RTVSPost2010PropOp34
 70
     1
102
RTVSPost2010Prop35
280
     0
102
RTVSPost2010PropOp35
 70
     1
102
RTVSPost2010Prop36
280
     0
102
RTVSPost2010PropOp36
 70
     1
102
RTVSPost2010Prop37
 90
       50
102
RTVSPost2010PropOp37
 70
     1
102
RTVSPost2010Prop38
140
0.0
102
RTVSPost2010PropOp38
 70
     1
102
RTVSPost2010Prop39
140
1.0
102
RTVSPost2010PropOp39
 70
     1
102
RTVSPost2010Prop40
 90
        0
102
RTVSPost2010PropOp40
 70
     1
102
RTVSPost2010Prop41ColorIndex
 90
       18
102
RTVSPost2010Prop41ColorRGB
 90
        0
102
RTVSPost2010PropOp41
 70
     1
102
RTVSPost2010Prop42
 90
       50
102
RTVSPost2010PropOp42
 70
     1
102
RTVSPost2010Prop43
 90
        3
102
RTVSPost2010PropOp43
 70
     1
102
RTVSPost2010Prop44ColorIndex
 90
        5
102
RTVSPost2010Prop44ColorRGB
 90
      255
102
RTVSPost2010PropOp44
 70
     1
102
RTVSPost2010Prop45
280
     0
102
RTVSPost2010PropOp45
 70
     1
102
RTVSPost2010Prop46
 90
       50
102
RTVSPost2010PropOp46
 70
     1
102
RTVSPost2010Prop47
 90
       50
102
RTVSPost2010PropOp47
 70
     1
102
RTVSPost2010Prop48
 90
       50
102
RTVSPost2010PropOp48
 70
     1
102
RTVSPost2010Prop49
280
     0
102
RTVSPost2010PropOp49
 70
     1
102
RTVSPost2010Prop50
 90
       50
102
RTVSPost2010PropOp50
 70
     1
102
RTVSPost2010Prop51ColorIndex
 90
      256
102
RTVSPost2010Prop51ColorRGB
 90
-16777216
102
RTVSPost2010PropOp51
 70
     0
102
RTVSPost2010Prop52
140
1.0
102
RTVSPost2010PropOp52
 70
     0
102
RTVSPost2010Prop53
 90
        2
102
RTVSPost2010PropOp53
 70
     1
102
RTVSPost2010Prop54
  1
strokes_ogs.tif
102
RTVSPost2010PropOp54
 70
     1
102
RTVSPost2010Prop55
280
     0
102
RTVSPost2010PropOp55
 70
     1
102
RTVSPost2010Prop56
140
1.0
102
RTVSPost2010PropOp56
 70
     1
102
RTVSPost2010Prop57
140
1.0
102
RTVSPost2010PropOp57
 70
     1
102
RTVSPropertyOp0
 70
     1
102
RTVSPropertyOp1
 70
     1
102
RTVSPropertyOp2
 70
     1
102
RTVSPropertyOp3
 70
     1
102
RTVSPropertyOp4
 70
     1
102
RTVSPropertyOp5
 70
     1
102
RTVSPropertyOp6
 70
     1
102
RTVSPropertyOp7
 70
     1
102
RTVSPropertyOp8
 70
     1
102
RTVSPropertyOp9
 70
     1
102
RTVSPropertyOp10
 70
     1
102
RTVSPropertyOp11
 70
     1
102
RTVSPropertyOp12
 70
     1
102
RTVSPropertyOp13
 70
     1
102
RTVSPropertyOp14
 70
     1
102
RTVSPropertyOp15
 70
     1
102
RTVSPropertyOp16
 70
     1
102
RTVSPropertyOp17
 70
     1
102
RTVSPropertyOp18
 70
     1
102
RTVSPropertyOp19
 70
     1
102
RTVSPropertyOp20
 70
     1
102
RTVSPropertyOp21
 70
     1
102
RTVSPropertyOp22
 70
     1
102
RTVSPropertyOp23
 70
     1
102
RTVSPropertyOp24
 70
     1
102
RTVSPropertyOp25
 70
     1
102
RTVSPropertyOp26
 70
     1
102
RTVSPropertyOp27
 70
     1
102
RTVSPropertyOp28
 70
     1
102
RTVSPropertyOp29
 70
     1
102
RTVSPropertyOp30
 70
     1
102
RTVSPropertyOp31
 70
     1
102
RTVSPropertyOp32
 70
     1
102
RTVSPropertyOp33
 70
     1
102
RTVSPropertyOp34
 70
     1
102
RTVSPropertyOp35
 70
     1
102
RTVSPropertyOp36
 70
     1
102
RTVSPropertyOp37
 70
     1
102
RTVSPropertyOp38
 70
     1
102
RTVSPropertyOp39
 70
     1
102
RTVSPropertyOp40
 70
     1
102
RTVSPropertyOp41
 70
     1
102
RTVSPropertyOp42
 70
     1
102
RTVSPropertyOp43
 70
     1
102
RTVSPropertyOp44
 70
     1
102
RTVSPropertyOp45
 70
     1
102
RTVSPropertyOp46
 70
     1
102
RTVSPropertyOp47
 70
     1
102
RTVSPropertyOp48
 70
     1
102
RTVSPropertyOp49
 70
     1
102
RTVSPropertyOp50
 70
     1
102
RTVSPropertyOp51
 70
     0
102
RTVSPropertyOp52
 70
     0
102
RTVSPropertyOp53
 70
     1
102
RTVSPropertyOp54
 70
     1
102
RTVSPropertyOp55
 70
     1
102
RTVSPropertyOp56
 70
     1
102
RTVSPropertyOp57
 70
     1
102
RTVSPropertyOp58
 70
     1
102
RTVSPropertyOp59
 70
     1
102
RTVSPropertyOp60
 70
     1
102
RTVSPropertyOp61
 70
     1
102
RTVSPropertyOp62
 70
     1
  0
XRECORD
  5
582C
102
{ACAD_REACTORS
330
582B
102
}
330
582B
100
AcDbXrecord
280
     1
102
RTVSPost2010Prop28
280
     0
102
RTVSPost2010PropOp28
 70
     1
102
RTVSPost2010Prop29
280
     1
102
RTVSPost2010PropOp29
 70
     1
102
RTVSPost2010Prop30
280
     1
102
RTVSPost2010PropOp30
 70
     1
102
RTVSPost2010Prop31
280
     0
102
RTVSPost2010PropOp31
 70
     1
102
RTVSPost2010Prop32
280
     0
102
RTVSPost2010PropOp32
 70
     1
102
RTVSPost2010Prop33
280
     0
102
RTVSPost2010PropOp33
 70
     1
102
RTVSPost2010Prop34
280
     0
102
RTVSPost2010PropOp34
 70
     1
102
RTVSPost2010Prop35
280
     0
102
RTVSPost2010PropOp35
 70
     1
102
RTVSPost2010Prop36
280
     0
102
RTVSPost2010PropOp36
 70
     1
102
RTVSPost2010Prop37
 90
       50
102
RTVSPost2010PropOp37
 70
     1
102
RTVSPost2010Prop38
140
0.0
102
RTVSPost2010PropOp38
 70
     1
102
RTVSPost2010Prop39
140
1.0
102
RTVSPost2010PropOp39
 70
     1
102
RTVSPost2010Prop40
 90
        0
102
RTVSPost2010PropOp40
 70
     1
102
RTVSPost2010Prop41ColorIndex
 90
       18
102
RTVSPost2010Prop41ColorRGB
 90
        0
102
RTVSPost2010PropOp41
 70
     1
102
RTVSPost2010Prop42
 90
       50
102
RTVSPost2010PropOp42
 70
     1
102
RTVSPost2010Prop43
 90
        3
102
RTVSPost2010PropOp43
 70
     1
102
RTVSPost2010Prop44ColorIndex
 90
        5
102
RTVSPost2010Prop44ColorRGB
 90
      255
102
RTVSPost2010PropOp44
 70
     1
102
RTVSPost2010Prop45
280
     0
102
RTVSPost2010PropOp45
 70
     1
102
RTVSPost2010Prop46
 90
       50
102
RTVSPost2010PropOp46
 70
     1
102
RTVSPost2010Prop47
 90
       50
102
RTVSPost2010PropOp47
 70
     1
102
RTVSPost2010Prop48
 90
       50
102
RTVSPost2010PropOp48
 70
     1
102
RTVSPost2010Prop49
280
     0
102
RTVSPost2010PropOp49
 70
     1
102
RTVSPost2010Prop50
 90
       50
102
RTVSPost2010PropOp50
 70
     1
102
RTVSPost2010Prop51ColorIndex
 90
      256
102
RTVSPost2010Prop51ColorRGB
 90
-16777216
102
RTVSPost2010PropOp51
 70
     0
102
RTVSPost2010Prop52
140
1.0
102
RTVSPost2010PropOp52
 70
     0
102
RTVSPost2010Prop53
 90
        2
102
RTVSPost2010PropOp53
 70
     1
102
RTVSPost2010Prop54
  1
strokes_ogs.tif
102
RTVSPost2010PropOp54
 70
     1
102
RTVSPost2010Prop55
280
     0
102
RTVSPost2010PropOp55
 70
     1
102
RTVSPost2010Prop56
140
1.0
102
RTVSPost2010PropOp56
 70
     1
102
RTVSPost2010Prop57
140
1.0
102
RTVSPost2010PropOp57
 70
     1
102
RTVSPropertyOp0
 70
     1
102
RTVSPropertyOp1
 70
     1
102
RTVSPropertyOp2
 70
     1
102
RTVSPropertyOp3
 70
     1
102
RTVSPropertyOp4
 70
     1
102
RTVSPropertyOp5
 70
     1
102
RTVSPropertyOp6
 70
     1
102
RTVSPropertyOp7
 70
     1
102
RTVSPropertyOp8
 70
     1
102
RTVSPropertyOp9
 70
     1
102
RTVSPropertyOp10
 70
     1
102
RTVSPropertyOp11
 70
     1
102
RTVSPropertyOp12
 70
     1
102
RTVSPropertyOp13
 70
     1
102
RTVSPropertyOp14
 70
     1
102
RTVSPropertyOp15
 70
     1
102
RTVSPropertyOp16
 70
     1
102
RTVSPropertyOp17
 70
     1
102
RTVSPropertyOp18
 70
     1
102
RTVSPropertyOp19
 70
     1
102
RTVSPropertyOp20
 70
     1
102
RTVSPropertyOp21
 70
     1
102
RTVSPropertyOp22
 70
     1
102
RTVSPropertyOp23
 70
     1
102
RTVSPropertyOp24
 70
     1
102
RTVSPropertyOp25
 70
     1
102
RTVSPropertyOp26
 70
     1
102
RTVSPropertyOp27
 70
     1
102
RTVSPropertyOp28
 70
     1
102
RTVSPropertyOp29
 70
     1
102
RTVSPropertyOp30
 70
     1
102
RTVSPropertyOp31
 70
     1
102
RTVSPropertyOp32
 70
     1
102
RTVSPropertyOp33
 70
     1
102
RTVSPropertyOp34
 70
     1
102
RTVSPropertyOp35
 70
     1
102
RTVSPropertyOp36
 70
     1
102
RTVSPropertyOp37
 70
     1
102
RTVSPropertyOp38
 70
     1
102
RTVSPropertyOp39
 70
     1
102
RTVSPropertyOp40
 70
     1
102
RTVSPropertyOp41
 70
     1
102
RTVSPropertyOp42
 70
     1
102
RTVSPropertyOp43
 70
     1
102
RTVSPropertyOp44
 70
     1
102
RTVSPropertyOp45
 70
     1
102
RTVSPropertyOp46
 70
     1
102
RTVSPropertyOp47
 70
     1
102
RTVSPropertyOp48
 70
     1
102
RTVSPropertyOp49
 70
     1
102
RTVSPropertyOp50
 70
     1
102
RTVSPropertyOp51
 70
     0
102
RTVSPropertyOp52
 70
     0
102
RTVSPropertyOp53
 70
     1
102
RTVSPropertyOp54
 70
     1
102
RTVSPropertyOp55
 70
     1
102
RTVSPropertyOp56
 70
     1
102
RTVSPropertyOp57
 70
     1
102
RTVSPropertyOp58
 70
     1
102
RTVSPropertyOp59
 70
     1
102
RTVSPropertyOp60
 70
     1
102
RTVSPropertyOp61
 70
     1
102
RTVSPropertyOp62
 70
     1
  0
XRECORD
  5
5838
102
{ACAD_REACTORS
330
5837
102
}
330
5837
100
AcDbXrecord
280
     1
102
RTVSPost2010Prop28
280
     0
102
RTVSPost2010PropOp28
 70
     1
102
RTVSPost2010Prop29
280
     1
102
RTVSPost2010PropOp29
 70
     1
102
RTVSPost2010Prop30
280
     1
102
RTVSPost2010PropOp30
 70
     1
102
RTVSPost2010Prop31
280
     0
102
RTVSPost2010PropOp31
 70
     1
102
RTVSPost2010Prop32
280
     0
102
RTVSPost2010PropOp32
 70
     1
102
RTVSPost2010Prop33
280
     0
102
RTVSPost2010PropOp33
 70
     1
102
RTVSPost2010Prop34
280
     0
102
RTVSPost2010PropOp34
 70
     1
102
RTVSPost2010Prop35
280
     0
102
RTVSPost2010PropOp35
 70
     1
102
RTVSPost2010Prop36
280
     0
102
RTVSPost2010PropOp36
 70
     1
102
RTVSPost2010Prop37
 90
       50
102
RTVSPost2010PropOp37
 70
     0
102
RTVSPost2010Prop38
140
0.0
102
RTVSPost2010PropOp38
 70
     0
102
RTVSPost2010Prop39
140
1.0
102
RTVSPost2010PropOp39
 70
     0
102
RTVSPost2010Prop40
 90
        0
102
RTVSPost2010PropOp40
 70
     0
102
RTVSPost2010Prop41ColorIndex
 90
       18
102
RTVSPost2010Prop41ColorRGB
 90
        0
102
RTVSPost2010PropOp41
 70
     0
102
RTVSPost2010Prop42
 90
       50
102
RTVSPost2010PropOp42
 70
     0
102
RTVSPost2010Prop43
 90
        3
102
RTVSPost2010PropOp43
 70
     0
102
RTVSPost2010Prop44ColorIndex
 90
        5
102
RTVSPost2010Prop44ColorRGB
 90
      255
102
RTVSPost2010PropOp44
 70
     0
102
RTVSPost2010Prop45
280
     0
102
RTVSPost2010PropOp45
 70
     1
102
RTVSPost2010Prop46
 90
       50
102
RTVSPost2010PropOp46
 70
     0
102
RTVSPost2010Prop47
 90
       50
102
RTVSPost2010PropOp47
 70
     0
102
RTVSPost2010Prop48
 90
       50
102
RTVSPost2010PropOp48
 70
     0
102
RTVSPost2010Prop49
280
     0
102
RTVSPost2010PropOp49
 70
     1
102
RTVSPost2010Prop50
 90
       50
102
RTVSPost2010PropOp50
 70
     0
102
RTVSPost2010Prop51ColorIndex
 90
      256
102
RTVSPost2010Prop51ColorRGB
 90
-16777216
102
RTVSPost2010PropOp51
 70
     0
102
RTVSPost2010Prop52
140
1.0
102
RTVSPost2010PropOp52
 70
     0
102
RTVSPost2010Prop53
 90
        2
102
RTVSPost2010PropOp53
 70
     0
102
RTVSPost2010Prop54
  1
strokes_ogs.tif
102
RTVSPost2010PropOp54
 70
     0
102
RTVSPost2010Prop55
280
     0
102
RTVSPost2010PropOp55
 70
     1
102
RTVSPost2010Prop56
140
1.0
102
RTVSPost2010PropOp56
 70
     0
102
RTVSPost2010Prop57
140
1.0
102
RTVSPost2010PropOp57
 70
     0
102
RTVSPropertyOp0
 70
     0
102
RTVSPropertyOp1
 70
     0
102
RTVSPropertyOp2
 70
     0
102
RTVSPropertyOp3
 70
     0
102
RTVSPropertyOp4
 70
     0
102
RTVSPropertyOp5
 70
     0
102
RTVSPropertyOp6
 70
     0
102
RTVSPropertyOp7
 70
     0
102
RTVSPropertyOp8
 70
     0
102
RTVSPropertyOp9
 70
     0
102
RTVSPropertyOp10
 70
     0
102
RTVSPropertyOp11
 70
     0
102
RTVSPropertyOp12
 70
     0
102
RTVSPropertyOp13
 70
     0
102
RTVSPropertyOp14
 70
     2
102
RTVSPropertyOp15
 70
     0
102
RTVSPropertyOp16
 70
     0
102
RTVSPropertyOp17
 70
     0
102
RTVSPropertyOp18
 70
     0
102
RTVSPropertyOp19
 70
     0
102
RTVSPropertyOp20
 70
     0
102
RTVSPropertyOp21
 70
     0
102
RTVSPropertyOp22
 70
     0
102
RTVSPropertyOp23
 70
     0
102
RTVSPropertyOp24
 70
     0
102
RTVSPropertyOp25
 70
     0
102
RTVSPropertyOp26
 70
     0
102
RTVSPropertyOp27
 70
     0
102
RTVSPropertyOp28
 70
     1
102
RTVSPropertyOp29
 70
     1
102
RTVSPropertyOp30
 70
     1
102
RTVSPropertyOp31
 70
     1
102
RTVSPropertyOp32
 70
     1
102
RTVSPropertyOp33
 70
     1
102
RTVSPropertyOp34
 70
     1
102
RTVSPropertyOp35
 70
     1
102
RTVSPropertyOp36
 70
     1
102
RTVSPropertyOp37
 70
     0
102
RTVSPropertyOp38
 70
     0
102
RTVSPropertyOp39
 70
     0
102
RTVSPropertyOp40
 70
     0
102
RTVSPropertyOp41
 70
     0
102
RTVSPropertyOp42
 70
     0
102
RTVSPropertyOp43
 70
     0
102
RTVSPropertyOp44
 70
     0
102
RTVSPropertyOp45
 70
     1
102
RTVSPropertyOp46
 70
     0
102
RTVSPropertyOp47
 70
     0
102
RTVSPropertyOp48
 70
     0
102
RTVSPropertyOp49
 70
     1
102
RTVSPropertyOp50
 70
     0
102
RTVSPropertyOp51
 70
     0
102
RTVSPropertyOp52
 70
     0
102
RTVSPropertyOp53
 70
     0
102
RTVSPropertyOp54
 70
     0
102
RTVSPropertyOp55
 70
     1
102
RTVSPropertyOp56
 70
     0
102
RTVSPropertyOp57
 70
     0
102
RTVSPropertyOp58
 70
     0
102
RTVSPropertyOp59
 70
     0
102
RTVSPropertyOp60
 70
     0
102
RTVSPropertyOp61
 70
     0
102
RTVSPropertyOp62
 70
     0
  0
XRECORD
  5
5824
102
{ACAD_REACTORS
330
5823
102
}
330
5823
100
AcDbXrecord
280
     1
102
RTVSPost2010Prop28
280
     0
102
RTVSPost2010PropOp28
 70
     1
102
RTVSPost2010Prop29
280
     1
102
RTVSPost2010PropOp29
 70
     1
102
RTVSPost2010Prop30
280
     1
102
RTVSPost2010PropOp30
 70
     1
102
RTVSPost2010Prop31
280
     0
102
RTVSPost2010PropOp31
 70
     1
102
RTVSPost2010Prop32
280
     0
102
RTVSPost2010PropOp32
 70
     1
102
RTVSPost2010Prop33
280
     0
102
RTVSPost2010PropOp33
 70
     1
102
RTVSPost2010Prop34
280
     0
102
RTVSPost2010PropOp34
 70
     1
102
RTVSPost2010Prop35
280
     0
102
RTVSPost2010PropOp35
 70
     1
102
RTVSPost2010Prop36
280
     0
102
RTVSPost2010PropOp36
 70
     1
102
RTVSPost2010Prop37
 90
       50
102
RTVSPost2010PropOp37
 70
     1
102
RTVSPost2010Prop38
140
0.0
102
RTVSPost2010PropOp38
 70
     1
102
RTVSPost2010Prop39
140
1.0
102
RTVSPost2010PropOp39
 70
     1
102
RTVSPost2010Prop40
 90
        0
102
RTVSPost2010PropOp40
 70
     1
102
RTVSPost2010Prop41ColorIndex
 90
       18
102
RTVSPost2010Prop41ColorRGB
 90
        0
102
RTVSPost2010PropOp41
 70
     1
102
RTVSPost2010Prop42
 90
       50
102
RTVSPost2010PropOp42
 70
     1
102
RTVSPost2010Prop43
 90
        3
102
RTVSPost2010PropOp43
 70
     1
102
RTVSPost2010Prop44ColorIndex
 90
        5
102
RTVSPost2010Prop44ColorRGB
 90
      255
102
RTVSPost2010PropOp44
 70
     1
102
RTVSPost2010Prop45
280
     0
102
RTVSPost2010PropOp45
 70
     1
102
RTVSPost2010Prop46
 90
       50
102
RTVSPost2010PropOp46
 70
     1
102
RTVSPost2010Prop47
 90
       50
102
RTVSPost2010PropOp47
 70
     1
102
RTVSPost2010Prop48
 90
       50
102
RTVSPost2010PropOp48
 70
     1
102
RTVSPost2010Prop49
280
     0
102
RTVSPost2010PropOp49
 70
     1
102
RTVSPost2010Prop50
 90
       50
102
RTVSPost2010PropOp50
 70
     1
102
RTVSPost2010Prop51ColorIndex
 90
      256
102
RTVSPost2010Prop51ColorRGB
 90
-16777216
102
RTVSPost2010PropOp51
 70
     0
102
RTVSPost2010Prop52
140
1.0
102
RTVSPost2010PropOp52
 70
     0
102
RTVSPost2010Prop53
 90
        2
102
RTVSPost2010PropOp53
 70
     1
102
RTVSPost2010Prop54
  1
strokes_ogs.tif
102
RTVSPost2010PropOp54
 70
     1
102
RTVSPost2010Prop55
280
     0
102
RTVSPost2010PropOp55
 70
     1
102
RTVSPost2010Prop56
140
1.0
102
RTVSPost2010PropOp56
 70
     1
102
RTVSPost2010Prop57
140
1.0
102
RTVSPost2010PropOp57
 70
     1
102
RTVSPropertyOp0
 70
     1
102
RTVSPropertyOp1
 70
     1
102
RTVSPropertyOp2
 70
     1
102
RTVSPropertyOp3
 70
     1
102
RTVSPropertyOp4
 70
     1
102
RTVSPropertyOp5
 70
     1
102
RTVSPropertyOp6
 70
     1
102
RTVSPropertyOp7
 70
     1
102
RTVSPropertyOp8
 70
     1
102
RTVSPropertyOp9
 70
     1
102
RTVSPropertyOp10
 70
     1
102
RTVSPropertyOp11
 70
     1
102
RTVSPropertyOp12
 70
     1
102
RTVSPropertyOp13
 70
     1
102
RTVSPropertyOp14
 70
     1
102
RTVSPropertyOp15
 70
     1
102
RTVSPropertyOp16
 70
     1
102
RTVSPropertyOp17
 70
     1
102
RTVSPropertyOp18
 70
     1
102
RTVSPropertyOp19
 70
     1
102
RTVSPropertyOp20
 70
     1
102
RTVSPropertyOp21
 70
     1
102
RTVSPropertyOp22
 70
     1
102
RTVSPropertyOp23
 70
     1
102
RTVSPropertyOp24
 70
     1
102
RTVSPropertyOp25
 70
     1
102
RTVSPropertyOp26
 70
     1
102
RTVSPropertyOp27
 70
     1
102
RTVSPropertyOp28
 70
     1
102
RTVSPropertyOp29
 70
     1
102
RTVSPropertyOp30
 70
     1
102
RTVSPropertyOp31
 70
     1
102
RTVSPropertyOp32
 70
     1
102
RTVSPropertyOp33
 70
     1
102
RTVSPropertyOp34
 70
     1
102
RTVSPropertyOp35
 70
     1
102
RTVSPropertyOp36
 70
     1
102
RTVSPropertyOp37
 70
     1
102
RTVSPropertyOp38
 70
     1
102
RTVSPropertyOp39
 70
     1
102
RTVSPropertyOp40
 70
     1
102
RTVSPropertyOp41
 70
     1
102
RTVSPropertyOp42
 70
     1
102
RTVSPropertyOp43
 70
     1
102
RTVSPropertyOp44
 70
     1
102
RTVSPropertyOp45
 70
     1
102
RTVSPropertyOp46
 70
     1
102
RTVSPropertyOp47
 70
     1
102
RTVSPropertyOp48
 70
     1
102
RTVSPropertyOp49
 70
     1
102
RTVSPropertyOp50
 70
     1
102
RTVSPropertyOp51
 70
     0
102
RTVSPropertyOp52
 70
     0
102
RTVSPropertyOp53
 70
     1
102
RTVSPropertyOp54
 70
     1
102
RTVSPropertyOp55
 70
     1
102
RTVSPropertyOp56
 70
     1
102
RTVSPropertyOp57
 70
     1
102
RTVSPropertyOp58
 70
     1
102
RTVSPropertyOp59
 70
     1
102
RTVSPropertyOp60
 70
     1
102
RTVSPropertyOp61
 70
     1
102
RTVSPropertyOp62
 70
     1
  0
XRECORD
  5
583A
102
{ACAD_REACTORS
330
5839
102
}
330
5839
100
AcDbXrecord
280
     1
102
RTVSPost2010Prop28
280
     0
102
RTVSPost2010PropOp28
 70
     1
102
RTVSPost2010Prop29
280
     1
102
RTVSPost2010PropOp29
 70
     1
102
RTVSPost2010Prop30
280
     1
102
RTVSPost2010PropOp30
 70
     1
102
RTVSPost2010Prop31
280
     0
102
RTVSPost2010PropOp31
 70
     1
102
RTVSPost2010Prop32
280
     0
102
RTVSPost2010PropOp32
 70
     1
102
RTVSPost2010Prop33
280
     0
102
RTVSPost2010PropOp33
 70
     1
102
RTVSPost2010Prop34
280
     0
102
RTVSPost2010PropOp34
 70
     1
102
RTVSPost2010Prop35
280
     0
102
RTVSPost2010PropOp35
 70
     1
102
RTVSPost2010Prop36
280
     0
102
RTVSPost2010PropOp36
 70
     1
102
RTVSPost2010Prop37
 90
       50
102
RTVSPost2010PropOp37
 70
     0
102
RTVSPost2010Prop38
140
0.0
102
RTVSPost2010PropOp38
 70
     0
102
RTVSPost2010Prop39
140
1.0
102
RTVSPost2010PropOp39
 70
     0
102
RTVSPost2010Prop40
 90
        0
102
RTVSPost2010PropOp40
 70
     0
102
RTVSPost2010Prop41ColorIndex
 90
       18
102
RTVSPost2010Prop41ColorRGB
 90
        0
102
RTVSPost2010PropOp41
 70
     0
102
RTVSPost2010Prop42
 90
       50
102
RTVSPost2010PropOp42
 70
     0
102
RTVSPost2010Prop43
 90
        3
102
RTVSPost2010PropOp43
 70
     0
102
RTVSPost2010Prop44ColorIndex
 90
        5
102
RTVSPost2010Prop44ColorRGB
 90
      255
102
RTVSPost2010PropOp44
 70
     0
102
RTVSPost2010Prop45
280
     0
102
RTVSPost2010PropOp45
 70
     1
102
RTVSPost2010Prop46
 90
       50
102
RTVSPost2010PropOp46
 70
     0
102
RTVSPost2010Prop47
 90
       50
102
RTVSPost2010PropOp47
 70
     0
102
RTVSPost2010Prop48
 90
       50
102
RTVSPost2010PropOp48
 70
     0
102
RTVSPost2010Prop49
280
     0
102
RTVSPost2010PropOp49
 70
     1
102
RTVSPost2010Prop50
 90
       50
102
RTVSPost2010PropOp50
 70
     0
102
RTVSPost2010Prop51ColorIndex
 90
      256
102
RTVSPost2010Prop51ColorRGB
 90
-16777216
102
RTVSPost2010PropOp51
 70
     0
102
RTVSPost2010Prop52
140
1.0
102
RTVSPost2010PropOp52
 70
     0
102
RTVSPost2010Prop53
 90
        2
102
RTVSPost2010PropOp53
 70
     0
102
RTVSPost2010Prop54
  1
strokes_ogs.tif
102
RTVSPost2010PropOp54
 70
     0
102
RTVSPost2010Prop55
280
     0
102
RTVSPost2010PropOp55
 70
     1
102
RTVSPost2010Prop56
140
1.0
102
RTVSPost2010PropOp56
 70
     0
102
RTVSPost2010Prop57
140
1.0
102
RTVSPost2010PropOp57
 70
     0
102
RTVSPropertyOp0
 70
     0
102
RTVSPropertyOp1
 70
     0
102
RTVSPropertyOp2
 70
     0
102
RTVSPropertyOp3
 70
     0
102
RTVSPropertyOp4
 70
     0
102
RTVSPropertyOp5
 70
     0
102
RTVSPropertyOp6
 70
     0
102
RTVSPropertyOp7
 70
     0
102
RTVSPropertyOp8
 70
     0
102
RTVSPropertyOp9
 70
     0
102
RTVSPropertyOp10
 70
     0
102
RTVSPropertyOp11
 70
     0
102
RTVSPropertyOp12
 70
     0
102
RTVSPropertyOp13
 70
     0
102
RTVSPropertyOp14
 70
     2
102
RTVSPropertyOp15
 70
     0
102
RTVSPropertyOp16
 70
     0
102
RTVSPropertyOp17
 70
     0
102
RTVSPropertyOp18
 70
     0
102
RTVSPropertyOp19
 70
     0
102
RTVSPropertyOp20
 70
     0
102
RTVSPropertyOp21
 70
     0
102
RTVSPropertyOp22
 70
     0
102
RTVSPropertyOp23
 70
     0
102
RTVSPropertyOp24
 70
     0
102
RTVSPropertyOp25
 70
     0
102
RTVSPropertyOp26
 70
     0
102
RTVSPropertyOp27
 70
     0
102
RTVSPropertyOp28
 70
     1
102
RTVSPropertyOp29
 70
     1
102
RTVSPropertyOp30
 70
     1
102
RTVSPropertyOp31
 70
     1
102
RTVSPropertyOp32
 70
     1
102
RTVSPropertyOp33
 70
     1
102
RTVSPropertyOp34
 70
     1
102
RTVSPropertyOp35
 70
     1
102
RTVSPropertyOp36
 70
     1
102
RTVSPropertyOp37
 70
     0
102
RTVSPropertyOp38
 70
     0
102
RTVSPropertyOp39
 70
     0
102
RTVSPropertyOp40
 70
     0
102
RTVSPropertyOp41
 70
     0
102
RTVSPropertyOp42
 70
     0
102
RTVSPropertyOp43
 70
     0
102
RTVSPropertyOp44
 70
     0
102
RTVSPropertyOp45
 70
     1
102
RTVSPropertyOp46
 70
     0
102
RTVSPropertyOp47
 70
     0
102
RTVSPropertyOp48
 70
     0
102
RTVSPropertyOp49
 70
     1
102
RTVSPropertyOp50
 70
     0
102
RTVSPropertyOp51
 70
     0
102
RTVSPropertyOp52
 70
     0
102
RTVSPropertyOp53
 70
     0
102
RTVSPropertyOp54
 70
     0
102
RTVSPropertyOp55
 70
     1
102
RTVSPropertyOp56
 70
     0
102
RTVSPropertyOp57
 70
     0
102
RTVSPropertyOp58
 70
     0
102
RTVSPropertyOp59
 70
     0
102
RTVSPropertyOp60
 70
     0
102
RTVSPropertyOp61
 70
     0
102
RTVSPropertyOp62
 70
     0
  0
XRECORD
  5
580C
102
{ACAD_REACTORS
330
580B
102
}
330
580B
100
AcDbXrecord
280
     1
102
RTVSPost2010Prop28
280
     0
102
RTVSPost2010PropOp28
 70
     1
102
RTVSPost2010Prop29
280
     1
102
RTVSPost2010PropOp29
 70
     1
102
RTVSPost2010Prop30
280
     1
102
RTVSPost2010PropOp30
 70
     1
102
RTVSPost2010Prop31
280
     0
102
RTVSPost2010PropOp31
 70
     1
102
RTVSPost2010Prop32
280
     0
102
RTVSPost2010PropOp32
 70
     1
102
RTVSPost2010Prop33
280
     0
102
RTVSPost2010PropOp33
 70
     1
102
RTVSPost2010Prop34
280
     0
102
RTVSPost2010PropOp34
 70
     1
102
RTVSPost2010Prop35
280
     0
102
RTVSPost2010PropOp35
 70
     1
102
RTVSPost2010Prop36
280
     0
102
RTVSPost2010PropOp36
 70
     1
102
RTVSPost2010Prop37
 90
       50
102
RTVSPost2010PropOp37
 70
     1
102
RTVSPost2010Prop38
140
0.0
102
RTVSPost2010PropOp38
 70
     1
102
RTVSPost2010Prop39
140
1.0
102
RTVSPost2010PropOp39
 70
     1
102
RTVSPost2010Prop40
 90
        0
102
RTVSPost2010PropOp40
 70
     1
102
RTVSPost2010Prop41ColorIndex
 90
       18
102
RTVSPost2010Prop41ColorRGB
 90
        0
102
RTVSPost2010PropOp41
 70
     1
102
RTVSPost2010Prop42
 90
       50
102
RTVSPost2010PropOp42
 70
     1
102
RTVSPost2010Prop43
 90
        3
102
RTVSPost2010PropOp43
 70
     1
102
RTVSPost2010Prop44ColorIndex
 90
        5
102
RTVSPost2010Prop44ColorRGB
 90
      255
102
RTVSPost2010PropOp44
 70
     1
102
RTVSPost2010Prop45
280
     0
102
RTVSPost2010PropOp45
 70
     1
102
RTVSPost2010Prop46
 90
       50
102
RTVSPost2010PropOp46
 70
     1
102
RTVSPost2010Prop47
 90
       50
102
RTVSPost2010PropOp47
 70
     1
102
RTVSPost2010Prop48
 90
       50
102
RTVSPost2010PropOp48
 70
     1
102
RTVSPost2010Prop49
280
     0
102
RTVSPost2010PropOp49
 70
     1
102
RTVSPost2010Prop50
 90
       50
102
RTVSPost2010PropOp50
 70
     1
102
RTVSPost2010Prop51ColorIndex
 90
      256
102
RTVSPost2010Prop51ColorRGB
 90
-16777216
102
RTVSPost2010PropOp51
 70
     0
102
RTVSPost2010Prop52
140
1.0
102
RTVSPost2010PropOp52
 70
     0
102
RTVSPost2010Prop53
 90
        2
102
RTVSPost2010PropOp53
 70
     1
102
RTVSPost2010Prop54
  1
strokes_ogs.tif
102
RTVSPost2010PropOp54
 70
     1
102
RTVSPost2010Prop55
280
     0
102
RTVSPost2010PropOp55
 70
     1
102
RTVSPost2010Prop56
140
1.0
102
RTVSPost2010PropOp56
 70
     1
102
RTVSPost2010Prop57
140
1.0
102
RTVSPost2010PropOp57
 70
     1
102
RTVSPropertyOp0
 70
     1
102
RTVSPropertyOp1
 70
     1
102
RTVSPropertyOp2
 70
     1
102
RTVSPropertyOp3
 70
     1
102
RTVSPropertyOp4
 70
     1
102
RTVSPropertyOp5
 70
     1
102
RTVSPropertyOp6
 70
     1
102
RTVSPropertyOp7
 70
     1
102
RTVSPropertyOp8
 70
     1
102
RTVSPropertyOp9
 70
     1
102
RTVSPropertyOp10
 70
     1
102
RTVSPropertyOp11
 70
     1
102
RTVSPropertyOp12
 70
     1
102
RTVSPropertyOp13
 70
     1
102
RTVSPropertyOp14
 70
     1
102
RTVSPropertyOp15
 70
     1
102
RTVSPropertyOp16
 70
     1
102
RTVSPropertyOp17
 70
     1
102
RTVSPropertyOp18
 70
     1
102
RTVSPropertyOp19
 70
     1
102
RTVSPropertyOp20
 70
     1
102
RTVSPropertyOp21
 70
     1
102
RTVSPropertyOp22
 70
     1
102
RTVSPropertyOp23
 70
     1
102
RTVSPropertyOp24
 70
     1
102
RTVSPropertyOp25
 70
     1
102
RTVSPropertyOp26
 70
     1
102
RTVSPropertyOp27
 70
     1
102
RTVSPropertyOp28
 70
     1
102
RTVSPropertyOp29
 70
     1
102
RTVSPropertyOp30
 70
     1
102
RTVSPropertyOp31
 70
     1
102
RTVSPropertyOp32
 70
     1
102
RTVSPropertyOp33
 70
     1
102
RTVSPropertyOp34
 70
     1
102
RTVSPropertyOp35
 70
     1
102
RTVSPropertyOp36
 70
     1
102
RTVSPropertyOp37
 70
     1
102
RTVSPropertyOp38
 70
     1
102
RTVSPropertyOp39
 70
     1
102
RTVSPropertyOp40
 70
     1
102
RTVSPropertyOp41
 70
     1
102
RTVSPropertyOp42
 70
     1
102
RTVSPropertyOp43
 70
     1
102
RTVSPropertyOp44
 70
     1
102
RTVSPropertyOp45
 70
     1
102
RTVSPropertyOp46
 70
     1
102
RTVSPropertyOp47
 70
     1
102
RTVSPropertyOp48
 70
     1
102
RTVSPropertyOp49
 70
     1
102
RTVSPropertyOp50
 70
     1
102
RTVSPropertyOp51
 70
     0
102
RTVSPropertyOp52
 70
     0
102
RTVSPropertyOp53
 70
     1
102
RTVSPropertyOp54
 70
     1
102
RTVSPropertyOp55
 70
     1
102
RTVSPropertyOp56
 70
     1
102
RTVSPropertyOp57
 70
     1
102
RTVSPropertyOp58
 70
     1
102
RTVSPropertyOp59
 70
     1
102
RTVSPropertyOp60
 70
     1
102
RTVSPropertyOp61
 70
     1
102
RTVSPropertyOp62
 70
     1
  0
XRECORD
  5
5836
102
{ACAD_REACTORS
330
5835
102
}
330
5835
100
AcDbXrecord
280
     1
102
RTVSPost2010Prop28
280
     0
102
RTVSPost2010PropOp28
 70
     1
102
RTVSPost2010Prop29
280
     1
102
RTVSPost2010PropOp29
 70
     1
102
RTVSPost2010Prop30
280
     1
102
RTVSPost2010PropOp30
 70
     1
102
RTVSPost2010Prop31
280
     0
102
RTVSPost2010PropOp31
 70
     1
102
RTVSPost2010Prop32
280
     0
102
RTVSPost2010PropOp32
 70
     1
102
RTVSPost2010Prop33
280
     0
102
RTVSPost2010PropOp33
 70
     1
102
RTVSPost2010Prop34
280
     0
102
RTVSPost2010PropOp34
 70
     1
102
RTVSPost2010Prop35
280
     0
102
RTVSPost2010PropOp35
 70
     1
102
RTVSPost2010Prop36
280
     0
102
RTVSPost2010PropOp36
 70
     1
102
RTVSPost2010Prop37
 90
       50
102
RTVSPost2010PropOp37
 70
     1
102
RTVSPost2010Prop38
140
0.0
102
RTVSPost2010PropOp38
 70
     1
102
RTVSPost2010Prop39
140
1.0
102
RTVSPost2010PropOp39
 70
     1
102
RTVSPost2010Prop40
 90
        0
102
RTVSPost2010PropOp40
 70
     1
102
RTVSPost2010Prop41ColorIndex
 90
       18
102
RTVSPost2010Prop41ColorRGB
 90
        0
102
RTVSPost2010PropOp41
 70
     1
102
RTVSPost2010Prop42
 90
       50
102
RTVSPost2010PropOp42
 70
     1
102
RTVSPost2010Prop43
 90
        3
102
RTVSPost2010PropOp43
 70
     1
102
RTVSPost2010Prop44ColorIndex
 90
        5
102
RTVSPost2010Prop44ColorRGB
 90
      255
102
RTVSPost2010PropOp44
 70
     1
102
RTVSPost2010Prop45
280
     0
102
RTVSPost2010PropOp45
 70
     1
102
RTVSPost2010Prop46
 90
       50
102
RTVSPost2010PropOp46
 70
     1
102
RTVSPost2010Prop47
 90
       50
102
RTVSPost2010PropOp47
 70
     1
102
RTVSPost2010Prop48
 90
       50
102
RTVSPost2010PropOp48
 70
     1
102
RTVSPost2010Prop49
280
     0
102
RTVSPost2010PropOp49
 70
     1
102
RTVSPost2010Prop50
 90
       50
102
RTVSPost2010PropOp50
 70
     1
102
RTVSPost2010Prop51ColorIndex
 90
      256
102
RTVSPost2010Prop51ColorRGB
 90
-16777216
102
RTVSPost2010PropOp51
 70
     0
102
RTVSPost2010Prop52
140
1.0
102
RTVSPost2010PropOp52
 70
     0
102
RTVSPost2010Prop53
 90
        2
102
RTVSPost2010PropOp53
 70
     1
102
RTVSPost2010Prop54
  1
strokes_ogs.tif
102
RTVSPost2010PropOp54
 70
     1
102
RTVSPost2010Prop55
280
     0
102
RTVSPost2010PropOp55
 70
     1
102
RTVSPost2010Prop56
140
1.0
102
RTVSPost2010PropOp56
 70
     1
102
RTVSPost2010Prop57
140
1.0
102
RTVSPost2010PropOp57
 70
     1
102
RTVSPropertyOp0
 70
     1
102
RTVSPropertyOp1
 70
     1
102
RTVSPropertyOp2
 70
     1
102
RTVSPropertyOp3
 70
     1
102
RTVSPropertyOp4
 70
     1
102
RTVSPropertyOp5
 70
     1
102
RTVSPropertyOp6
 70
     1
102
RTVSPropertyOp7
 70
     1
102
RTVSPropertyOp8
 70
     1
102
RTVSPropertyOp9
 70
     1
102
RTVSPropertyOp10
 70
     1
102
RTVSPropertyOp11
 70
     1
102
RTVSPropertyOp12
 70
     1
102
RTVSPropertyOp13
 70
     1
102
RTVSPropertyOp14
 70
     1
102
RTVSPropertyOp15
 70
     1
102
RTVSPropertyOp16
 70
     1
102
RTVSPropertyOp17
 70
     1
102
RTVSPropertyOp18
 70
     1
102
RTVSPropertyOp19
 70
     1
102
RTVSPropertyOp20
 70
     1
102
RTVSPropertyOp21
 70
     1
102
RTVSPropertyOp22
 70
     1
102
RTVSPropertyOp23
 70
     1
102
RTVSPropertyOp24
 70
     1
102
RTVSPropertyOp25
 70
     1
102
RTVSPropertyOp26
 70
     1
102
RTVSPropertyOp27
 70
     1
102
RTVSPropertyOp28
 70
     1
102
RTVSPropertyOp29
 70
     1
102
RTVSPropertyOp30
 70
     1
102
RTVSPropertyOp31
 70
     1
102
RTVSPropertyOp32
 70
     1
102
RTVSPropertyOp33
 70
     1
102
RTVSPropertyOp34
 70
     1
102
RTVSPropertyOp35
 70
     1
102
RTVSPropertyOp36
 70
     1
102
RTVSPropertyOp37
 70
     1
102
RTVSPropertyOp38
 70
     1
102
RTVSPropertyOp39
 70
     1
102
RTVSPropertyOp40
 70
     1
102
RTVSPropertyOp41
 70
     1
102
RTVSPropertyOp42
 70
     1
102
RTVSPropertyOp43
 70
     1
102
RTVSPropertyOp44
 70
     1
102
RTVSPropertyOp45
 70
     1
102
RTVSPropertyOp46
 70
     1
102
RTVSPropertyOp47
 70
     1
102
RTVSPropertyOp48
 70
     1
102
RTVSPropertyOp49
 70
     1
102
RTVSPropertyOp50
 70
     1
102
RTVSPropertyOp51
 70
     0
102
RTVSPropertyOp52
 70
     0
102
RTVSPropertyOp53
 70
     1
102
RTVSPropertyOp54
 70
     1
102
RTVSPropertyOp55
 70
     1
102
RTVSPropertyOp56
 70
     1
102
RTVSPropertyOp57
 70
     1
102
RTVSPropertyOp58
 70
     1
102
RTVSPropertyOp59
 70
     1
102
RTVSPropertyOp60
 70
     1
102
RTVSPropertyOp61
 70
     1
102
RTVSPropertyOp62
 70
     1
  0
XRECORD
  5
5834
102
{ACAD_REACTORS
330
5833
102
}
330
5833
100
AcDbXrecord
280
     1
102
RTVSPost2010Prop28
280
     0
102
RTVSPost2010PropOp28
 70
     1
102
RTVSPost2010Prop29
280
     1
102
RTVSPost2010PropOp29
 70
     1
102
RTVSPost2010Prop30
280
     1
102
RTVSPost2010PropOp30
 70
     1
102
RTVSPost2010Prop31
280
     0
102
RTVSPost2010PropOp31
 70
     1
102
RTVSPost2010Prop32
280
     0
102
RTVSPost2010PropOp32
 70
     1
102
RTVSPost2010Prop33
280
     0
102
RTVSPost2010PropOp33
 70
     1
102
RTVSPost2010Prop34
280
     0
102
RTVSPost2010PropOp34
 70
     1
102
RTVSPost2010Prop35
280
     0
102
RTVSPost2010PropOp35
 70
     1
102
RTVSPost2010Prop36
280
     0
102
RTVSPost2010PropOp36
 70
     1
102
RTVSPost2010Prop37
 90
       50
102
RTVSPost2010PropOp37
 70
     1
102
RTVSPost2010Prop38
140
0.0
102
RTVSPost2010PropOp38
 70
     1
102
RTVSPost2010Prop39
140
1.0
102
RTVSPost2010PropOp39
 70
     1
102
RTVSPost2010Prop40
 90
        0
102
RTVSPost2010PropOp40
 70
     1
102
RTVSPost2010Prop41ColorIndex
 90
       18
102
RTVSPost2010Prop41ColorRGB
 90
        0
102
RTVSPost2010PropOp41
 70
     1
102
RTVSPost2010Prop42
 90
       50
102
RTVSPost2010PropOp42
 70
     1
102
RTVSPost2010Prop43
 90
        3
102
RTVSPost2010PropOp43
 70
     1
102
RTVSPost2010Prop44ColorIndex
 90
        5
102
RTVSPost2010Prop44ColorRGB
 90
      255
102
RTVSPost2010PropOp44
 70
     1
102
RTVSPost2010Prop45
280
     0
102
RTVSPost2010PropOp45
 70
     1
102
RTVSPost2010Prop46
 90
       50
102
RTVSPost2010PropOp46
 70
     1
102
RTVSPost2010Prop47
 90
       50
102
RTVSPost2010PropOp47
 70
     1
102
RTVSPost2010Prop48
 90
       50
102
RTVSPost2010PropOp48
 70
     1
102
RTVSPost2010Prop49
280
     0
102
RTVSPost2010PropOp49
 70
     1
102
RTVSPost2010Prop50
 90
       50
102
RTVSPost2010PropOp50
 70
     1
102
RTVSPost2010Prop51ColorIndex
 90
      256
102
RTVSPost2010Prop51ColorRGB
 90
-16777216
102
RTVSPost2010PropOp51
 70
     0
102
RTVSPost2010Prop52
140
1.0
102
RTVSPost2010PropOp52
 70
     0
102
RTVSPost2010Prop53
 90
        2
102
RTVSPost2010PropOp53
 70
     1
102
RTVSPost2010Prop54
  1
strokes_ogs.tif
102
RTVSPost2010PropOp54
 70
     1
102
RTVSPost2010Prop55
280
     0
102
RTVSPost2010PropOp55
 70
     1
102
RTVSPost2010Prop56
140
1.0
102
RTVSPost2010PropOp56
 70
     1
102
RTVSPost2010Prop57
140
1.0
102
RTVSPost2010PropOp57
 70
     1
102
RTVSPropertyOp0
 70
     1
102
RTVSPropertyOp1
 70
     1
102
RTVSPropertyOp2
 70
     1
102
RTVSPropertyOp3
 70
     1
102
RTVSPropertyOp4
 70
     1
102
RTVSPropertyOp5
 70
     1
102
RTVSPropertyOp6
 70
     1
102
RTVSPropertyOp7
 70
     1
102
RTVSPropertyOp8
 70
     1
102
RTVSPropertyOp9
 70
     1
102
RTVSPropertyOp10
 70
     1
102
RTVSPropertyOp11
 70
     1
102
RTVSPropertyOp12
 70
     1
102
RTVSPropertyOp13
 70
     1
102
RTVSPropertyOp14
 70
     1
102
RTVSPropertyOp15
 70
     1
102
RTVSPropertyOp16
 70
     1
102
RTVSPropertyOp17
 70
     1
102
RTVSPropertyOp18
 70
     1
102
RTVSPropertyOp19
 70
     1
102
RTVSPropertyOp20
 70
     1
102
RTVSPropertyOp21
 70
     1
102
RTVSPropertyOp22
 70
     1
102
RTVSPropertyOp23
 70
     1
102
RTVSPropertyOp24
 70
     1
102
RTVSPropertyOp25
 70
     1
102
RTVSPropertyOp26
 70
     1
102
RTVSPropertyOp27
 70
     1
102
RTVSPropertyOp28
 70
     1
102
RTVSPropertyOp29
 70
     1
102
RTVSPropertyOp30
 70
     1
102
RTVSPropertyOp31
 70
     1
102
RTVSPropertyOp32
 70
     1
102
RTVSPropertyOp33
 70
     1
102
RTVSPropertyOp34
 70
     1
102
RTVSPropertyOp35
 70
     1
102
RTVSPropertyOp36
 70
     1
102
RTVSPropertyOp37
 70
     1
102
RTVSPropertyOp38
 70
     1
102
RTVSPropertyOp39
 70
     1
102
RTVSPropertyOp40
 70
     1
102
RTVSPropertyOp41
 70
     1
102
RTVSPropertyOp42
 70
     1
102
RTVSPropertyOp43
 70
     1
102
RTVSPropertyOp44
 70
     1
102
RTVSPropertyOp45
 70
     1
102
RTVSPropertyOp46
 70
     1
102
RTVSPropertyOp47
 70
     1
102
RTVSPropertyOp48
 70
     1
102
RTVSPropertyOp49
 70
     1
102
RTVSPropertyOp50
 70
     1
102
RTVSPropertyOp51
 70
     0
102
RTVSPropertyOp52
 70
     0
102
RTVSPropertyOp53
 70
     1
102
RTVSPropertyOp54
 70
     1
102
RTVSPropertyOp55
 70
     1
102
RTVSPropertyOp56
 70
     1
102
RTVSPropertyOp57
 70
     1
102
RTVSPropertyOp58
 70
     1
102
RTVSPropertyOp59
 70
     1
102
RTVSPropertyOp60
 70
     1
102
RTVSPropertyOp61
 70
     1
102
RTVSPropertyOp62
 70
     1
  0
XRECORD
  5
582E
102
{ACAD_REACTORS
330
582D
102
}
330
582D
100
AcDbXrecord
280
     1
102
RTVSPost2010Prop28
280
     0
102
RTVSPost2010PropOp28
 70
     1
102
RTVSPost2010Prop29
280
     1
102
RTVSPost2010PropOp29
 70
     1
102
RTVSPost2010Prop30
280
     1
102
RTVSPost2010PropOp30
 70
     1
102
RTVSPost2010Prop31
280
     0
102
RTVSPost2010PropOp31
 70
     1
102
RTVSPost2010Prop32
280
     0
102
RTVSPost2010PropOp32
 70
     1
102
RTVSPost2010Prop33
280
     0
102
RTVSPost2010PropOp33
 70
     1
102
RTVSPost2010Prop34
280
     0
102
RTVSPost2010PropOp34
 70
     1
102
RTVSPost2010Prop35
280
     0
102
RTVSPost2010PropOp35
 70
     1
102
RTVSPost2010Prop36
280
     0
102
RTVSPost2010PropOp36
 70
     1
102
RTVSPost2010Prop37
 90
       50
102
RTVSPost2010PropOp37
 70
     1
102
RTVSPost2010Prop38
140
0.0
102
RTVSPost2010PropOp38
 70
     1
102
RTVSPost2010Prop39
140
1.0
102
RTVSPost2010PropOp39
 70
     1
102
RTVSPost2010Prop40
 90
        0
102
RTVSPost2010PropOp40
 70
     1
102
RTVSPost2010Prop41ColorIndex
 90
       18
102
RTVSPost2010Prop41ColorRGB
 90
        0
102
RTVSPost2010PropOp41
 70
     1
102
RTVSPost2010Prop42
 90
       50
102
RTVSPost2010PropOp42
 70
     1
102
RTVSPost2010Prop43
 90
        3
102
RTVSPost2010PropOp43
 70
     1
102
RTVSPost2010Prop44ColorIndex
 90
        5
102
RTVSPost2010Prop44ColorRGB
 90
      255
102
RTVSPost2010PropOp44
 70
     1
102
RTVSPost2010Prop45
280
     0
102
RTVSPost2010PropOp45
 70
     1
102
RTVSPost2010Prop46
 90
       50
102
RTVSPost2010PropOp46
 70
     1
102
RTVSPost2010Prop47
 90
       50
102
RTVSPost2010PropOp47
 70
     1
102
RTVSPost2010Prop48
 90
       50
102
RTVSPost2010PropOp48
 70
     1
102
RTVSPost2010Prop49
280
     0
102
RTVSPost2010PropOp49
 70
     1
102
RTVSPost2010Prop50
 90
       50
102
RTVSPost2010PropOp50
 70
     1
102
RTVSPost2010Prop51ColorIndex
 90
      256
102
RTVSPost2010Prop51ColorRGB
 90
-16777216
102
RTVSPost2010PropOp51
 70
     0
102
RTVSPost2010Prop52
140
1.0
102
RTVSPost2010PropOp52
 70
     0
102
RTVSPost2010Prop53
 90
        2
102
RTVSPost2010PropOp53
 70
     1
102
RTVSPost2010Prop54
  1
strokes_ogs.tif
102
RTVSPost2010PropOp54
 70
     1
102
RTVSPost2010Prop55
280
     0
102
RTVSPost2010PropOp55
 70
     1
102
RTVSPost2010Prop56
140
1.0
102
RTVSPost2010PropOp56
 70
     1
102
RTVSPost2010Prop57
140
1.0
102
RTVSPost2010PropOp57
 70
     1
102
RTVSPropertyOp0
 70
     1
102
RTVSPropertyOp1
 70
     1
102
RTVSPropertyOp2
 70
     1
102
RTVSPropertyOp3
 70
     1
102
RTVSPropertyOp4
 70
     1
102
RTVSPropertyOp5
 70
     1
102
RTVSPropertyOp6
 70
     1
102
RTVSPropertyOp7
 70
     1
102
RTVSPropertyOp8
 70
     1
102
RTVSPropertyOp9
 70
     1
102
RTVSPropertyOp10
 70
     1
102
RTVSPropertyOp11
 70
     1
102
RTVSPropertyOp12
 70
     1
102
RTVSPropertyOp13
 70
     1
102
RTVSPropertyOp14
 70
     1
102
RTVSPropertyOp15
 70
     1
102
RTVSPropertyOp16
 70
     1
102
RTVSPropertyOp17
 70
     1
102
RTVSPropertyOp18
 70
     1
102
RTVSPropertyOp19
 70
     1
102
RTVSPropertyOp20
 70
     1
102
RTVSPropertyOp21
 70
     1
102
RTVSPropertyOp22
 70
     1
102
RTVSPropertyOp23
 70
     1
102
RTVSPropertyOp24
 70
     1
102
RTVSPropertyOp25
 70
     1
102
RTVSPropertyOp26
 70
     1
102
RTVSPropertyOp27
 70
     1
102
RTVSPropertyOp28
 70
     1
102
RTVSPropertyOp29
 70
     1
102
RTVSPropertyOp30
 70
     1
102
RTVSPropertyOp31
 70
     1
102
RTVSPropertyOp32
 70
     1
102
RTVSPropertyOp33
 70
     1
102
RTVSPropertyOp34
 70
     1
102
RTVSPropertyOp35
 70
     1
102
RTVSPropertyOp36
 70
     1
102
RTVSPropertyOp37
 70
     1
102
RTVSPropertyOp38
 70
     1
102
RTVSPropertyOp39
 70
     1
102
RTVSPropertyOp40
 70
     1
102
RTVSPropertyOp41
 70
     1
102
RTVSPropertyOp42
 70
     1
102
RTVSPropertyOp43
 70
     1
102
RTVSPropertyOp44
 70
     1
102
RTVSPropertyOp45
 70
     1
102
RTVSPropertyOp46
 70
     1
102
RTVSPropertyOp47
 70
     1
102
RTVSPropertyOp48
 70
     1
102
RTVSPropertyOp49
 70
     1
102
RTVSPropertyOp50
 70
     1
102
RTVSPropertyOp51
 70
     0
102
RTVSPropertyOp52
 70
     0
102
RTVSPropertyOp53
 70
     1
102
RTVSPropertyOp54
 70
     1
102
RTVSPropertyOp55
 70
     1
102
RTVSPropertyOp56
 70
     1
102
RTVSPropertyOp57
 70
     1
102
RTVSPropertyOp58
 70
     1
102
RTVSPropertyOp59
 70
     1
102
RTVSPropertyOp60
 70
     1
102
RTVSPropertyOp61
 70
     1
102
RTVSPropertyOp62
 70
     1
  0
XRECORD
  5
5830
102
{ACAD_REACTORS
330
582F
102
}
330
582F
100
AcDbXrecord
280
     1
102
RTVSPost2010Prop28
280
     0
102
RTVSPost2010PropOp28
 70
     1
102
RTVSPost2010Prop29
280
     1
102
RTVSPost2010PropOp29
 70
     1
102
RTVSPost2010Prop30
280
     1
102
RTVSPost2010PropOp30
 70
     1
102
RTVSPost2010Prop31
280
     0
102
RTVSPost2010PropOp31
 70
     1
102
RTVSPost2010Prop32
280
     0
102
RTVSPost2010PropOp32
 70
     1
102
RTVSPost2010Prop33
280
     0
102
RTVSPost2010PropOp33
 70
     1
102
RTVSPost2010Prop34
280
     0
102
RTVSPost2010PropOp34
 70
     1
102
RTVSPost2010Prop35
280
     0
102
RTVSPost2010PropOp35
 70
     1
102
RTVSPost2010Prop36
280
     0
102
RTVSPost2010PropOp36
 70
     1
102
RTVSPost2010Prop37
 90
       50
102
RTVSPost2010PropOp37
 70
     1
102
RTVSPost2010Prop38
140
0.0
102
RTVSPost2010PropOp38
 70
     1
102
RTVSPost2010Prop39
140
1.0
102
RTVSPost2010PropOp39
 70
     1
102
RTVSPost2010Prop40
 90
        0
102
RTVSPost2010PropOp40
 70
     1
102
RTVSPost2010Prop41ColorIndex
 90
       18
102
RTVSPost2010Prop41ColorRGB
 90
        0
102
RTVSPost2010PropOp41
 70
     1
102
RTVSPost2010Prop42
 90
       50
102
RTVSPost2010PropOp42
 70
     1
102
RTVSPost2010Prop43
 90
        3
102
RTVSPost2010PropOp43
 70
     1
102
RTVSPost2010Prop44ColorIndex
 90
        5
102
RTVSPost2010Prop44ColorRGB
 90
      255
102
RTVSPost2010PropOp44
 70
     1
102
RTVSPost2010Prop45
280
     0
102
RTVSPost2010PropOp45
 70
     1
102
RTVSPost2010Prop46
 90
       50
102
RTVSPost2010PropOp46
 70
     1
102
RTVSPost2010Prop47
 90
       50
102
RTVSPost2010PropOp47
 70
     1
102
RTVSPost2010Prop48
 90
       50
102
RTVSPost2010PropOp48
 70
     1
102
RTVSPost2010Prop49
280
     0
102
RTVSPost2010PropOp49
 70
     1
102
RTVSPost2010Prop50
 90
       50
102
RTVSPost2010PropOp50
 70
     1
102
RTVSPost2010Prop51ColorIndex
 90
      256
102
RTVSPost2010Prop51ColorRGB
 90
-16777216
102
RTVSPost2010PropOp51
 70
     0
102
RTVSPost2010Prop52
140
1.0
102
RTVSPost2010PropOp52
 70
     0
102
RTVSPost2010Prop53
 90
        2
102
RTVSPost2010PropOp53
 70
     1
102
RTVSPost2010Prop54
  1
strokes_ogs.tif
102
RTVSPost2010PropOp54
 70
     1
102
RTVSPost2010Prop55
280
     0
102
RTVSPost2010PropOp55
 70
     1
102
RTVSPost2010Prop56
140
1.0
102
RTVSPost2010PropOp56
 70
     1
102
RTVSPost2010Prop57
140
1.0
102
RTVSPost2010PropOp57
 70
     1
102
RTVSPropertyOp0
 70
     1
102
RTVSPropertyOp1
 70
     1
102
RTVSPropertyOp2
 70
     1
102
RTVSPropertyOp3
 70
     1
102
RTVSPropertyOp4
 70
     1
102
RTVSPropertyOp5
 70
     1
102
RTVSPropertyOp6
 70
     1
102
RTVSPropertyOp7
 70
     1
102
RTVSPropertyOp8
 70
     1
102
RTVSPropertyOp9
 70
     1
102
RTVSPropertyOp10
 70
     1
102
RTVSPropertyOp11
 70
     1
102
RTVSPropertyOp12
 70
     1
102
RTVSPropertyOp13
 70
     1
102
RTVSPropertyOp14
 70
     1
102
RTVSPropertyOp15
 70
     1
102
RTVSPropertyOp16
 70
     1
102
RTVSPropertyOp17
 70
     1
102
RTVSPropertyOp18
 70
     1
102
RTVSPropertyOp19
 70
     1
102
RTVSPropertyOp20
 70
     1
102
RTVSPropertyOp21
 70
     1
102
RTVSPropertyOp22
 70
     1
102
RTVSPropertyOp23
 70
     1
102
RTVSPropertyOp24
 70
     1
102
RTVSPropertyOp25
 70
     1
102
RTVSPropertyOp26
 70
     1
102
RTVSPropertyOp27
 70
     1
102
RTVSPropertyOp28
 70
     1
102
RTVSPropertyOp29
 70
     1
102
RTVSPropertyOp30
 70
     1
102
RTVSPropertyOp31
 70
     1
102
RTVSPropertyOp32
 70
     1
102
RTVSPropertyOp33
 70
     1
102
RTVSPropertyOp34
 70
     1
102
RTVSPropertyOp35
 70
     1
102
RTVSPropertyOp36
 70
     1
102
RTVSPropertyOp37
 70
     1
102
RTVSPropertyOp38
 70
     1
102
RTVSPropertyOp39
 70
     1
102
RTVSPropertyOp40
 70
     1
102
RTVSPropertyOp41
 70
     1
102
RTVSPropertyOp42
 70
     1
102
RTVSPropertyOp43
 70
     1
102
RTVSPropertyOp44
 70
     1
102
RTVSPropertyOp45
 70
     1
102
RTVSPropertyOp46
 70
     1
102
RTVSPropertyOp47
 70
     1
102
RTVSPropertyOp48
 70
     1
102
RTVSPropertyOp49
 70
     1
102
RTVSPropertyOp50
 70
     1
102
RTVSPropertyOp51
 70
     0
102
RTVSPropertyOp52
 70
     0
102
RTVSPropertyOp53
 70
     1
102
RTVSPropertyOp54
 70
     1
102
RTVSPropertyOp55
 70
     1
102
RTVSPropertyOp56
 70
     1
102
RTVSPropertyOp57
 70
     1
102
RTVSPropertyOp58
 70
     1
102
RTVSPropertyOp59
 70
     1
102
RTVSPropertyOp60
 70
     1
102
RTVSPropertyOp61
 70
     1
102
RTVSPropertyOp62
 70
     1
  0
XRECORD
  5
5822
102
{ACAD_REACTORS
330
5821
102
}
330
5821
100
AcDbXrecord
280
     1
102
RTVSPost2010Prop28
280
     0
102
RTVSPost2010PropOp28
 70
     1
102
RTVSPost2010Prop29
280
     1
102
RTVSPost2010PropOp29
 70
     1
102
RTVSPost2010Prop30
280
     1
102
RTVSPost2010PropOp30
 70
     1
102
RTVSPost2010Prop31
280
     0
102
RTVSPost2010PropOp31
 70
     1
102
RTVSPost2010Prop32
280
     0
102
RTVSPost2010PropOp32
 70
     1
102
RTVSPost2010Prop33
280
     0
102
RTVSPost2010PropOp33
 70
     1
102
RTVSPost2010Prop34
280
     0
102
RTVSPost2010PropOp34
 70
     1
102
RTVSPost2010Prop35
280
     0
102
RTVSPost2010PropOp35
 70
     1
102
RTVSPost2010Prop36
280
     0
102
RTVSPost2010PropOp36
 70
     1
102
RTVSPost2010Prop37
 90
       50
102
RTVSPost2010PropOp37
 70
     1
102
RTVSPost2010Prop38
140
0.0
102
RTVSPost2010PropOp38
 70
     1
102
RTVSPost2010Prop39
140
1.0
102
RTVSPost2010PropOp39
 70
     1
102
RTVSPost2010Prop40
 90
        0
102
RTVSPost2010PropOp40
 70
     1
102
RTVSPost2010Prop41ColorIndex
 90
       18
102
RTVSPost2010Prop41ColorRGB
 90
        0
102
RTVSPost2010PropOp41
 70
     1
102
RTVSPost2010Prop42
 90
       50
102
RTVSPost2010PropOp42
 70
     1
102
RTVSPost2010Prop43
 90
        3
102
RTVSPost2010PropOp43
 70
     1
102
RTVSPost2010Prop44ColorIndex
 90
        5
102
RTVSPost2010Prop44ColorRGB
 90
      255
102
RTVSPost2010PropOp44
 70
     1
102
RTVSPost2010Prop45
280
     0
102
RTVSPost2010PropOp45
 70
     1
102
RTVSPost2010Prop46
 90
       50
102
RTVSPost2010PropOp46
 70
     1
102
RTVSPost2010Prop47
 90
       50
102
RTVSPost2010PropOp47
 70
     1
102
RTVSPost2010Prop48
 90
       50
102
RTVSPost2010PropOp48
 70
     1
102
RTVSPost2010Prop49
280
     0
102
RTVSPost2010PropOp49
 70
     1
102
RTVSPost2010Prop50
 90
       50
102
RTVSPost2010PropOp50
 70
     1
102
RTVSPost2010Prop51ColorIndex
 90
      256
102
RTVSPost2010Prop51ColorRGB
 90
-16777216
102
RTVSPost2010PropOp51
 70
     0
102
RTVSPost2010Prop52
140
1.0
102
RTVSPost2010PropOp52
 70
     0
102
RTVSPost2010Prop53
 90
        2
102
RTVSPost2010PropOp53
 70
     1
102
RTVSPost2010Prop54
  1
strokes_ogs.tif
102
RTVSPost2010PropOp54
 70
     1
102
RTVSPost2010Prop55
280
     0
102
RTVSPost2010PropOp55
 70
     1
102
RTVSPost2010Prop56
140
1.0
102
RTVSPost2010PropOp56
 70
     1
102
RTVSPost2010Prop57
140
1.0
102
RTVSPost2010PropOp57
 70
     1
102
RTVSPropertyOp0
 70
     1
102
RTVSPropertyOp1
 70
     1
102
RTVSPropertyOp2
 70
     1
102
RTVSPropertyOp3
 70
     1
102
RTVSPropertyOp4
 70
     1
102
RTVSPropertyOp5
 70
     1
102
RTVSPropertyOp6
 70
     1
102
RTVSPropertyOp7
 70
     1
102
RTVSPropertyOp8
 70
     1
102
RTVSPropertyOp9
 70
     1
102
RTVSPropertyOp10
 70
     1
102
RTVSPropertyOp11
 70
     1
102
RTVSPropertyOp12
 70
     1
102
RTVSPropertyOp13
 70
     1
102
RTVSPropertyOp14
 70
     1
102
RTVSPropertyOp15
 70
     1
102
RTVSPropertyOp16
 70
     1
102
RTVSPropertyOp17
 70
     1
102
RTVSPropertyOp18
 70
     1
102
RTVSPropertyOp19
 70
     1
102
RTVSPropertyOp20
 70
     1
102
RTVSPropertyOp21
 70
     1
102
RTVSPropertyOp22
 70
     1
102
RTVSPropertyOp23
 70
     1
102
RTVSPropertyOp24
 70
     1
102
RTVSPropertyOp25
 70
     1
102
RTVSPropertyOp26
 70
     1
102
RTVSPropertyOp27
 70
     1
102
RTVSPropertyOp28
 70
     1
102
RTVSPropertyOp29
 70
     1
102
RTVSPropertyOp30
 70
     1
102
RTVSPropertyOp31
 70
     1
102
RTVSPropertyOp32
 70
     1
102
RTVSPropertyOp33
 70
     1
102
RTVSPropertyOp34
 70
     1
102
RTVSPropertyOp35
 70
     1
102
RTVSPropertyOp36
 70
     1
102
RTVSPropertyOp37
 70
     1
102
RTVSPropertyOp38
 70
     1
102
RTVSPropertyOp39
 70
     1
102
RTVSPropertyOp40
 70
     1
102
RTVSPropertyOp41
 70
     1
102
RTVSPropertyOp42
 70
     1
102
RTVSPropertyOp43
 70
     1
102
RTVSPropertyOp44
 70
     1
102
RTVSPropertyOp45
 70
     1
102
RTVSPropertyOp46
 70
     1
102
RTVSPropertyOp47
 70
     1
102
RTVSPropertyOp48
 70
     1
102
RTVSPropertyOp49
 70
     1
102
RTVSPropertyOp50
 70
     1
102
RTVSPropertyOp51
 70
     0
102
RTVSPropertyOp52
 70
     0
102
RTVSPropertyOp53
 70
     1
102
RTVSPropertyOp54
 70
     1
102
RTVSPropertyOp55
 70
     1
102
RTVSPropertyOp56
 70
     1
102
RTVSPropertyOp57
 70
     1
102
RTVSPropertyOp58
 70
     1
102
RTVSPropertyOp59
 70
     1
102
RTVSPropertyOp60
 70
     1
102
RTVSPropertyOp61
 70
     1
102
RTVSPropertyOp62
 70
     1
  0
XRECORD
  5
582A
102
{ACAD_REACTORS
330
5829
102
}
330
5829
100
AcDbXrecord
280
     1
102
RTVSPost2010Prop28
280
     0
102
RTVSPost2010PropOp28
 70
     1
102
RTVSPost2010Prop29
280
     1
102
RTVSPost2010PropOp29
 70
     1
102
RTVSPost2010Prop30
280
     1
102
RTVSPost2010PropOp30
 70
     1
102
RTVSPost2010Prop31
280
     0
102
RTVSPost2010PropOp31
 70
     1
102
RTVSPost2010Prop32
280
     0
102
RTVSPost2010PropOp32
 70
     1
102
RTVSPost2010Prop33
280
     0
102
RTVSPost2010PropOp33
 70
     1
102
RTVSPost2010Prop34
280
     0
102
RTVSPost2010PropOp34
 70
     1
102
RTVSPost2010Prop35
280
     0
102
RTVSPost2010PropOp35
 70
     1
102
RTVSPost2010Prop36
280
     0
102
RTVSPost2010PropOp36
 70
     1
102
RTVSPost2010Prop37
 90
       50
102
RTVSPost2010PropOp37
 70
     1
102
RTVSPost2010Prop38
140
0.0
102
RTVSPost2010PropOp38
 70
     1
102
RTVSPost2010Prop39
140
1.0
102
RTVSPost2010PropOp39
 70
     1
102
RTVSPost2010Prop40
 90
        0
102
RTVSPost2010PropOp40
 70
     1
102
RTVSPost2010Prop41ColorIndex
 90
       18
102
RTVSPost2010Prop41ColorRGB
 90
        0
102
RTVSPost2010PropOp41
 70
     1
102
RTVSPost2010Prop42
 90
       50
102
RTVSPost2010PropOp42
 70
     1
102
RTVSPost2010Prop43
 90
        3
102
RTVSPost2010PropOp43
 70
     1
102
RTVSPost2010Prop44ColorIndex
 90
        5
102
RTVSPost2010Prop44ColorRGB
 90
      255
102
RTVSPost2010PropOp44
 70
     1
102
RTVSPost2010Prop45
280
     0
102
RTVSPost2010PropOp45
 70
     1
102
RTVSPost2010Prop46
 90
       50
102
RTVSPost2010PropOp46
 70
     1
102
RTVSPost2010Prop47
 90
       50
102
RTVSPost2010PropOp47
 70
     1
102
RTVSPost2010Prop48
 90
       50
102
RTVSPost2010PropOp48
 70
     1
102
RTVSPost2010Prop49
280
     0
102
RTVSPost2010PropOp49
 70
     1
102
RTVSPost2010Prop50
 90
       50
102
RTVSPost2010PropOp50
 70
     1
102
RTVSPost2010Prop51ColorIndex
 90
      256
102
RTVSPost2010Prop51ColorRGB
 90
-16777216
102
RTVSPost2010PropOp51
 70
     0
102
RTVSPost2010Prop52
140
1.0
102
RTVSPost2010PropOp52
 70
     0
102
RTVSPost2010Prop53
 90
        2
102
RTVSPost2010PropOp53
 70
     1
102
RTVSPost2010Prop54
  1
strokes_ogs.tif
102
RTVSPost2010PropOp54
 70
     1
102
RTVSPost2010Prop55
280
     0
102
RTVSPost2010PropOp55
 70
     1
102
RTVSPost2010Prop56
140
1.0
102
RTVSPost2010PropOp56
 70
     1
102
RTVSPost2010Prop57
140
1.0
102
RTVSPost2010PropOp57
 70
     1
102
RTVSPropertyOp0
 70
     1
102
RTVSPropertyOp1
 70
     1
102
RTVSPropertyOp2
 70
     1
102
RTVSPropertyOp3
 70
     1
102
RTVSPropertyOp4
 70
     1
102
RTVSPropertyOp5
 70
     1
102
RTVSPropertyOp6
 70
     1
102
RTVSPropertyOp7
 70
     1
102
RTVSPropertyOp8
 70
     1
102
RTVSPropertyOp9
 70
     1
102
RTVSPropertyOp10
 70
     1
102
RTVSPropertyOp11
 70
     1
102
RTVSPropertyOp12
 70
     1
102
RTVSPropertyOp13
 70
     1
102
RTVSPropertyOp14
 70
     1
102
RTVSPropertyOp15
 70
     1
102
RTVSPropertyOp16
 70
     1
102
RTVSPropertyOp17
 70
     1
102
RTVSPropertyOp18
 70
     1
102
RTVSPropertyOp19
 70
     1
102
RTVSPropertyOp20
 70
     1
102
RTVSPropertyOp21
 70
     1
102
RTVSPropertyOp22
 70
     1
102
RTVSPropertyOp23
 70
     1
102
RTVSPropertyOp24
 70
     1
102
RTVSPropertyOp25
 70
     1
102
RTVSPropertyOp26
 70
     1
102
RTVSPropertyOp27
 70
     1
102
RTVSPropertyOp28
 70
     1
102
RTVSPropertyOp29
 70
     1
102
RTVSPropertyOp30
 70
     1
102
RTVSPropertyOp31
 70
     1
102
RTVSPropertyOp32
 70
     1
102
RTVSPropertyOp33
 70
     1
102
RTVSPropertyOp34
 70
     1
102
RTVSPropertyOp35
 70
     1
102
RTVSPropertyOp36
 70
     1
102
RTVSPropertyOp37
 70
     1
102
RTVSPropertyOp38
 70
     1
102
RTVSPropertyOp39
 70
     1
102
RTVSPropertyOp40
 70
     1
102
RTVSPropertyOp41
 70
     1
102
RTVSPropertyOp42
 70
     1
102
RTVSPropertyOp43
 70
     1
102
RTVSPropertyOp44
 70
     1
102
RTVSPropertyOp45
 70
     1
102
RTVSPropertyOp46
 70
     1
102
RTVSPropertyOp47
 70
     1
102
RTVSPropertyOp48
 70
     1
102
RTVSPropertyOp49
 70
     1
102
RTVSPropertyOp50
 70
     1
102
RTVSPropertyOp51
 70
     0
102
RTVSPropertyOp52
 70
     0
102
RTVSPropertyOp53
 70
     1
102
RTVSPropertyOp54
 70
     1
102
RTVSPropertyOp55
 70
     1
102
RTVSPropertyOp56
 70
     1
102
RTVSPropertyOp57
 70
     1
102
RTVSPropertyOp58
 70
     1
102
RTVSPropertyOp59
 70
     1
102
RTVSPropertyOp60
 70
     1
102
RTVSPropertyOp61
 70
     1
102
RTVSPropertyOp62
 70
     1
  0
XRECORD
  5
5832
102
{ACAD_REACTORS
330
5831
102
}
330
5831
100
AcDbXrecord
280
     1
102
RTVSPost2010Prop28
280
     0
102
RTVSPost2010PropOp28
 70
     1
102
RTVSPost2010Prop29
280
     1
102
RTVSPost2010PropOp29
 70
     1
102
RTVSPost2010Prop30
280
     1
102
RTVSPost2010PropOp30
 70
     1
102
RTVSPost2010Prop31
280
     0
102
RTVSPost2010PropOp31
 70
     1
102
RTVSPost2010Prop32
280
     0
102
RTVSPost2010PropOp32
 70
     1
102
RTVSPost2010Prop33
280
     0
102
RTVSPost2010PropOp33
 70
     1
102
RTVSPost2010Prop34
280
     0
102
RTVSPost2010PropOp34
 70
     1
102
RTVSPost2010Prop35
280
     0
102
RTVSPost2010PropOp35
 70
     1
102
RTVSPost2010Prop36
280
     0
102
RTVSPost2010PropOp36
 70
     1
102
RTVSPost2010Prop37
 90
       50
102
RTVSPost2010PropOp37
 70
     1
102
RTVSPost2010Prop38
140
0.0
102
RTVSPost2010PropOp38
 70
     1
102
RTVSPost2010Prop39
140
1.0
102
RTVSPost2010PropOp39
 70
     1
102
RTVSPost2010Prop40
 90
        0
102
RTVSPost2010PropOp40
 70
     1
102
RTVSPost2010Prop41ColorIndex
 90
       18
102
RTVSPost2010Prop41ColorRGB
 90
        0
102
RTVSPost2010PropOp41
 70
     1
102
RTVSPost2010Prop42
 90
       50
102
RTVSPost2010PropOp42
 70
     1
102
RTVSPost2010Prop43
 90
        3
102
RTVSPost2010PropOp43
 70
     1
102
RTVSPost2010Prop44ColorIndex
 90
        5
102
RTVSPost2010Prop44ColorRGB
 90
      255
102
RTVSPost2010PropOp44
 70
     1
102
RTVSPost2010Prop45
280
     0
102
RTVSPost2010PropOp45
 70
     1
102
RTVSPost2010Prop46
 90
       50
102
RTVSPost2010PropOp46
 70
     1
102
RTVSPost2010Prop47
 90
       50
102
RTVSPost2010PropOp47
 70
     1
102
RTVSPost2010Prop48
 90
       50
102
RTVSPost2010PropOp48
 70
     1
102
RTVSPost2010Prop49
280
     0
102
RTVSPost2010PropOp49
 70
     1
102
RTVSPost2010Prop50
 90
       50
102
RTVSPost2010PropOp50
 70
     1
102
RTVSPost2010Prop51ColorIndex
 90
      256
102
RTVSPost2010Prop51ColorRGB
 90
-16777216
102
RTVSPost2010PropOp51
 70
     0
102
RTVSPost2010Prop52
140
1.0
102
RTVSPost2010PropOp52
 70
     0
102
RTVSPost2010Prop53
 90
        2
102
RTVSPost2010PropOp53
 70
     1
102
RTVSPost2010Prop54
  1
strokes_ogs.tif
102
RTVSPost2010PropOp54
 70
     1
102
RTVSPost2010Prop55
280
     0
102
RTVSPost2010PropOp55
 70
     1
102
RTVSPost2010Prop56
140
1.0
102
RTVSPost2010PropOp56
 70
     1
102
RTVSPost2010Prop57
140
1.0
102
RTVSPost2010PropOp57
 70
     1
102
RTVSPropertyOp0
 70
     1
102
RTVSPropertyOp1
 70
     1
102
RTVSPropertyOp2
 70
     1
102
RTVSPropertyOp3
 70
     1
102
RTVSPropertyOp4
 70
     1
102
RTVSPropertyOp5
 70
     1
102
RTVSPropertyOp6
 70
     1
102
RTVSPropertyOp7
 70
     1
102
RTVSPropertyOp8
 70
     1
102
RTVSPropertyOp9
 70
     1
102
RTVSPropertyOp10
 70
     1
102
RTVSPropertyOp11
 70
     1
102
RTVSPropertyOp12
 70
     1
102
RTVSPropertyOp13
 70
     1
102
RTVSPropertyOp14
 70
     1
102
RTVSPropertyOp15
 70
     1
102
RTVSPropertyOp16
 70
     1
102
RTVSPropertyOp17
 70
     1
102
RTVSPropertyOp18
 70
     1
102
RTVSPropertyOp19
 70
     1
102
RTVSPropertyOp20
 70
     1
102
RTVSPropertyOp21
 70
     1
102
RTVSPropertyOp22
 70
     1
102
RTVSPropertyOp23
 70
     1
102
RTVSPropertyOp24
 70
     1
102
RTVSPropertyOp25
 70
     1
102
RTVSPropertyOp26
 70
     1
102
RTVSPropertyOp27
 70
     1
102
RTVSPropertyOp28
 70
     1
102
RTVSPropertyOp29
 70
     1
102
RTVSPropertyOp30
 70
     1
102
RTVSPropertyOp31
 70
     1
102
RTVSPropertyOp32
 70
     1
102
RTVSPropertyOp33
 70
     1
102
RTVSPropertyOp34
 70
     1
102
RTVSPropertyOp35
 70
     1
102
RTVSPropertyOp36
 70
     1
102
RTVSPropertyOp37
 70
     1
102
RTVSPropertyOp38
 70
     1
102
RTVSPropertyOp39
 70
     1
102
RTVSPropertyOp40
 70
     1
102
RTVSPropertyOp41
 70
     1
102
RTVSPropertyOp42
 70
     1
102
RTVSPropertyOp43
 70
     1
102
RTVSPropertyOp44
 70
     1
102
RTVSPropertyOp45
 70
     1
102
RTVSPropertyOp46
 70
     1
102
RTVSPropertyOp47
 70
     1
102
RTVSPropertyOp48
 70
     1
102
RTVSPropertyOp49
 70
     1
102
RTVSPropertyOp50
 70
     1
102
RTVSPropertyOp51
 70
     0
102
RTVSPropertyOp52
 70
     0
102
RTVSPropertyOp53
 70
     1
102
RTVSPropertyOp54
 70
     1
102
RTVSPropertyOp55
 70
     1
102
RTVSPropertyOp56
 70
     1
102
RTVSPropertyOp57
 70
     1
102
RTVSPropertyOp58
 70
     1
102
RTVSPropertyOp59
 70
     1
102
RTVSPropertyOp60
 70
     1
102
RTVSPropertyOp61
 70
     1
102
RTVSPropertyOp62
 70
     1
  0
ENDSEC
  0
EOF
