  0
SECTION
  2
HEADER
  9
$ACADVER
  1
AC1015
  9
$ACADMAINTVER
 70
     6
  9
$DWGCODEPAGE
  3
ANSI_949
  9
$INSBASE
 10
0.0
 20
0.0
 30
0.0
  9
$EXTMIN
 10
-83.57500000000006
 20
-49.71142936356761
 30
0.0
  9
$EXTMAX
 10
135.1474429481188
 20
49.73055141807178
 30
0.0
  9
$LIMMIN
 10
0.0
 20
0.0
  9
$LIMMAX
 10
420.0
 20
297.0
  9
$ORTHOMODE
 70
     0
  9
$REGENMODE
 70
     1
  9
$FILLMODE
 70
     1
  9
$QTEXTMODE
 70
     0
  9
$MIRRTEXT
 70
     1
  9
$LTSCALE
 40
1.0
  9
$ATTMODE
 70
     1
  9
$TEXTSIZE
 40
3.5
  9
$TRACEWID
 40
1.0
  9
$TEXTSTYLE
  7
Standard
  9
$CLAYER
  8
0
  9
$CELTYPE
  6
ByLayer
  9
$CECOLOR
 62
   256
  9
$CELTSCALE
 40
1.0
  9
$DISPSILH
 70
     0
  9
$DIMSCALE
 40
1.0
  9
$DIMASZ
 40
3.302
  9
$DIMEXO
 40
1.0
  9
$DIMDLI
 40
3.75
  9
$DIMRND
 40
0.0
  9
$DIMDLE
 40
0.0
  9
$DIMEXE
 40
1.0
  9
$DIMTP
 40
0.0
  9
$DIMTM
 40
0.0
  9
$DIMTXT
 40
3.5
  9
$DIMCEN
 40
2.5
  9
$DIMTSZ
 40
0.0
  9
$DIMTOL
 70
     0
  9
$DIMLIM
 70
     0
  9
$DIMTIH
 70
     1
  9
$DIMTOH
 70
     1
  9
$DIMSE1
 70
     0
  9
$DIMSE2
 70
     0
  9
$DIMTAD
 70
     1
  9
$DIMZIN
 70
     0
  9
$DIMBLK
  1

  9
$DIMASO
 70
     1
  9
$DIMSHO
 70
     1
  9
$DIMPOST
  1

  9
$DIMAPOST
  1

  9
$DIMALT
 70
     0
  9
$DIMALTD
 70
     3
  9
$DIMALTF
 40
0.0393700787401575
  9
$DIMLFAC
 40
1.0
  9
$DIMTOFL
 70
     1
  9
$DIMTVP
 40
0.0
  9
$DIMTIX
 70
     0
  9
$DIMSOXD
 70
     0
  9
$DIMSAH
 70
     0
  9
$DIMBLK1
  1

  9
$DIMBLK2
  1

  9
$DIMSTYLE
  2
ISO-25
  9
$DIMCLRD
 70
     0
  9
$DIMCLRE
 70
     0
  9
$DIMCLRT
 70
     0
  9
$DIMTFAC
 40
1.0
  9
$DIMGAP
 40
1.524
  9
$DIMJUST
 70
     0
  9
$DIMSD1
 70
     0
  9
$DIMSD2
 70
     0
  9
$DIMTOLJ
 70
     0
  9
$DIMTZIN
 70
     0
  9
$DIMALTZ
 70
     0
  9
$DIMALTTZ
 70
     0
  9
$DIMUPT
 70
     0
  9
$DIMDEC
 70
     2
  9
$DIMTDEC
 70
     2
  9
$DIMALTU
 70
     2
  9
$DIMALTTD
 70
     3
  9
$DIMTXSTY
  7
Standard
  9
$DIMAUNIT
 70
     0
  9
$DIMADEC
 70
     2
  9
$DIMALTRND
 40
0.0
  9
$DIMAZIN
 70
     0
  9
$DIMDSEP
 70
    44
  9
$DIMATFIT
 70
     3
  9
$DIMFRAC
 70
     0
  9
$DIMLDRBLK
  1

  9
$DIMLUNIT
 70
     2
  9
$DIMLWD
 70
    -2
  9
$DIMLWE
 70
    -2
  9
$DIMTMOVE
 70
     0
  9
$LUNITS
 70
     2
  9
$LUPREC
 70
     2
  9
$SKETCHINC
 40
1.0
  9
$FILLETRAD
 40
10.0
  9
$AUNITS
 70
     0
  9
$AUPREC
 70
     2
  9
$MENU
  1
.
  9
$ELEVATION
 40
0.0
  9
$PELEVATION
 40
0.0
  9
$THICKNESS
 40
0.0
  9
$LIMCHECK
 70
     0
  9
$CHAMFERA
 40
0.0
  9
$CHAMFERB
 40
0.0
  9
$CHAMFERC
 40
0.0
  9
$CHAMFERD
 40
0.0
  9
$SKPOLY
 70
     0
  9
$TDCREATE
 40
2458236.751983762
  9
$TDUCREATE
 40
2458236.376983762
  9
$TDUPDATE
 40
2459697.445317257
  9
$TDUUPDATE
 40
2459697.070317257
  9
$TDINDWG
 40
0.0186255903
  9
$TDUSRTIMER
 40
0.0001111111
  9
$USRTIMER
 70
     1
  9
$ANGBASE
 50
0.0
  9
$ANGDIR
 70
     0
  9
$PDMODE
 70
     0
  9
$PDSIZE
 40
-1.0
  9
$PLINEWID
 40
0.0
  9
$SPLFRAME
 70
     0
  9
$SPLINETYPE
 70
     6
  9
$SPLINESEGS
 70
     8
  9
$HANDSEED
  5
21C
  9
$SURFTAB1
 70
     6
  9
$SURFTAB2
 70
     6
  9
$SURFTYPE
 70
     6
  9
$SURFU
 70
     6
  9
$SURFV
 70
     6
  9
$UCSBASE
  2

  9
$UCSNAME
  2

  9
$UCSORG
 10
0.0
 20
0.0
 30
0.0
  9
$UCSXDIR
 10
1.0
 20
0.0
 30
0.0
  9
$UCSYDIR
 10
0.0
 20
1.0
 30
0.0
  9
$UCSORTHOREF
  2

  9
$UCSORTHOVIEW
 70
     0
  9
$UCSORGTOP
 10
0.0
 20
0.0
 30
0.0
  9
$UCSORGBOTTOM
 10
0.0
 20
0.0
 30
0.0
  9
$UCSORGLEFT
 10
0.0
 20
0.0
 30
0.0
  9
$UCSORGRIGHT
 10
0.0
 20
0.0
 30
0.0
  9
$UCSORGFRONT
 10
0.0
 20
0.0
 30
0.0
  9
$UCSORGBACK
 10
0.0
 20
0.0
 30
0.0
  9
$PUCSBASE
  2

  9
$PUCSNAME
  2

  9
$PUCSORG
 10
0.0
 20
0.0
 30
0.0
  9
$PUCSXDIR
 10
1.0
 20
0.0
 30
0.0
  9
$PUCSYDIR
 10
0.0
 20
1.0
 30
0.0
  9
$PUCSORTHOREF
  2

  9
$PUCSORTHOVIEW
 70
     0
  9
$PUCSORGTOP
 10
0.0
 20
0.0
 30
0.0
  9
$PUCSORGBOTTOM
 10
0.0
 20
0.0
 30
0.0
  9
$PUCSORGLEFT
 10
0.0
 20
0.0
 30
0.0
  9
$PUCSORGRIGHT
 10
0.0
 20
0.0
 30
0.0
  9
$PUCSORGFRONT
 10
0.0
 20
0.0
 30
0.0
  9
$PUCSORGBACK
 10
0.0
 20
0.0
 30
0.0
  9
$USERI1
 70
     0
  9
$USERI2
 70
     0
  9
$USERI3
 70
     0
  9
$USERI4
 70
     0
  9
$USERI5
 70
     0
  9
$USERR1
 40
0.0
  9
$USERR2
 40
0.0
  9
$USERR3
 40
0.0
  9
$USERR4
 40
0.0
  9
$USERR5
 40
0.0
  9
$WORLDVIEW
 70
     1
  9
$SHADEDGE
 70
     3
  9
$SHADEDIF
 70
    70
  9
$TILEMODE
 70
     1
  9
$MAXACTVP
 70
    64
  9
$PINSBASE
 10
0.0
 20
0.0
 30
0.0
  9
$PLIMCHECK
 70
     0
  9
$PEXTMIN
 10
1.000000000000000E+20
 20
1.000000000000000E+20
 30
1.000000000000000E+20
  9
$PEXTMAX
 10
-1.000000000000000E+20
 20
-1.000000000000000E+20
 30
-1.000000000000000E+20
  9
$PLIMMIN
 10
0.0
 20
0.0
  9
$PLIMMAX
 10
0.0
 20
0.0
  9
$UNITMODE
 70
     0
  9
$VISRETAIN
 70
     1
  9
$PLINEGEN
 70
     0
  9
$PSLTSCALE
 70
     1
  9
$TREEDEPTH
 70
  3020
  9
$CMLSTYLE
  2
Standard
  9
$CMLJUST
 70
     0
  9
$CMLSCALE
 40
20.0
  9
$PROXYGRAPHICS
 70
     1
  9
$MEASUREMENT
 70
     1
  9
$CELWEIGHT
370
    -1
  9
$ENDCAPS
280
     0
  9
$JOINSTYLE
280
     0
  9
$LWDISPLAY
290
     1
  9
$INSUNITS
 70
     4
  9
$HYPERLINKBASE
  1

  9
$STYLESHEET
  1

  9
$XEDIT
290
     1
  9
$CEPSNTYPE
380
     0
  9
$PSTYLEMODE
290
     1
  9
$FINGERPRINTGUID
  2
{CC2410CA-FF06-4757-9110-9C4B53E9AB0B}
  9
$VERSIONGUID
  2
{FAEB1C32-E019-11D5-929B-00C0DF256EC4}
  9
$EXTNAMES
290
     1
  9
$PSVPSCALE
 40
0.0
  9
$OLESTARTUP
290
     0
  0
ENDSEC
  0
SECTION
  2
CLASSES
  0
CLASS
  1
ACDBDICTIONARYWDFLT
  2
AcDbDictionaryWithDefault
  3
ObjectDBX Classes
 90
        0
280
     0
281
     0
  0
CLASS
  1
VISUALSTYLE
  2
AcDbVisualStyle
  3
ObjectDBX Classes
 90
     4095
280
     0
281
     0
  0
CLASS
  1
MATERIAL
  2
AcDbMaterial
  3
ObjectDBX Classes
 90
     1153
280
     0
281
     0
  0
CLASS
  1
SCALE
  2
AcDbScale
  3
ObjectDBX Classes
 90
     1153
280
     0
281
     0
  0
CLASS
  1
SUN
  2
AcDbSun
  3
SCENEOE
 90
     1153
280
     0
281
     0
  0
CLASS
  1
ACDBPLACEHOLDER
  2
AcDbPlaceHolder
  3
ObjectDBX Classes
 90
        0
280
     0
281
     0
  0
CLASS
  1
LAYOUT
  2
AcDbLayout
  3
ObjectDBX Classes
 90
        0
280
     0
281
     0
  0
CLASS
  1
TABLESTYLE
  2
AcDbTableStyle
  3
ObjectDBX Classes
 90
     4095
280
     0
281
     0
  0
CLASS
  1
MLEADERSTYLE
  2
AcDbMLeaderStyle
  3
ACDB_MLEADERSTYLE_CLASS
 90
     4095
280
     0
281
     0
  0
CLASS
  1
RASTERVARIABLES
  2
AcDbRasterVariables
  3
ISM
 90
        0
280
     0
281
     0
  0
CLASS
  1
DIMASSOC
  2
AcDbDimAssoc
  3
"AcDbDimAssoc|Product Desc:     AcDim ARX App For Dimension|Company:          Autodesk, Inc.|WEB Address:      www.autodesk.com"
 90
        0
280
     0
281
     0
  0
ENDSEC
  0
SECTION
  2
TABLES
  0
TABLE
  2
VPORT
  5
8
330
0
100
AcDbSymbolTable
 70
     1
  0
VPORT
  5
29
330
8
100
AcDbSymbolTableRecord
100
AcDbViewportTableRecord
  2
*Active
 70
     0
 10
0.0
 20
0.0
 11
1.0
 21
1.0
 12
25.78622147405936
 22
0.009561027252083
 13
0.0
 23
0.0
 14
10.0
 24
10.0
 15
10.0
 25
10.0
 16
0.0
 26
0.0
 36
1.0
 17
0.0
 27
0.0
 37
0.0
 40
117.5078834244147
 41
1.898569570871261
 42
50.0
 43
0.0
 44
0.0
 50
0.0
 51
0.0
 71
    16
 72
  2000
 73
     1
 74
     3
 75
     0
 76
     0
 77
     0
 78
     0
281
     0
 65
     1
110
0.0
120
0.0
130
0.0
111
1.0
121
0.0
131
0.0
112
0.0
122
1.0
132
0.0
 79
     0
146
0.0
  0
ENDTAB
  0
TABLE
  2
LTYPE
  5
5
330
0
100
AcDbSymbolTable
 70
     6
  0
LTYPE
  5
14
330
5
100
AcDbSymbolTableRecord
100
AcDbLinetypeTableRecord
  2
ByBlock
 70
     0
  3

 72
    65
 73
     0
 40
0.0
  0
LTYPE
  5
15
330
5
100
AcDbSymbolTableRecord
100
AcDbLinetypeTableRecord
  2
ByLayer
 70
     0
  3

 72
    65
 73
     0
 40
0.0
  0
LTYPE
  5
16
330
5
100
AcDbSymbolTableRecord
100
AcDbLinetypeTableRecord
  2
Continuous
 70
     0
  3
Solid line
 72
    65
 73
     0
 40
0.0
  0
LTYPE
  5
6A
330
5
100
AcDbSymbolTableRecord
100
AcDbLinetypeTableRecord
  2
HIDDEN
 70
     0
  3
Hidden __ __ __ __ __ __ __ __ __ __ __ __ __ __
 72
    65
 73
     2
 40
1.905
 49
1.27
 74
     0
 49
-0.635
 74
     0
  0
LTYPE
  5
6B
330
5
100
AcDbSymbolTableRecord
100
AcDbLinetypeTableRecord
  2
PHANTOM
 70
     0
  3
Phantom ______  __  __  ______  __  __  ______
 72
    65
 73
     6
 40
12.7
 49
6.35
 74
     0
 49
-1.27
 74
     0
 49
1.27
 74
     0
 49
-1.27
 74
     0
 49
1.27
 74
     0
 49
-1.27
 74
     0
  0
LTYPE
  5
6C
330
5
100
AcDbSymbolTableRecord
100
AcDbLinetypeTableRecord
  2
CENTER
 70
     0
  3
Center ____ _ ____ _ ____ _ ____ _ ____ _ ____
 72
    65
 73
     4
 40
10.16
 49
6.35
 74
     0
 49
-1.27
 74
     0
 49
1.27
 74
     0
 49
-1.27
 74
     0
  0
LTYPE
  5
6D
330
5
100
AcDbSymbolTableRecord
100
AcDbLinetypeTableRecord
  2
CENTERX2
 70
     0
  3
Center (2x) ________  __  ________  __  _____
 72
    65
 73
     4
 40
20.32
 49
12.7
 74
     0
 49
-2.54
 74
     0
 49
2.54
 74
     0
 49
-2.54
 74
     0
  0
LTYPE
  5
6E
330
5
100
AcDbSymbolTableRecord
100
AcDbLinetypeTableRecord
  2
DOT2
 70
     0
  3
Dot (.5x) ........................................
 72
    65
 73
     2
 40
0.635
 49
0.0
 74
     0
 49
-0.635
 74
     0
  0
ENDTAB
  0
TABLE
  2
LAYER
  5
2
102
{ACAD_XDICTIONARY
360
1E0
102
}
330
0
100
AcDbSymbolTable
 70
    17
  0
LAYER
  5
10
330
2
100
AcDbSymbolTableRecord
100
AcDbLayerTableRecord
  2
0
 70
     0
 62
     7
  6
Continuous
370
    -3
390
F
  0
LAYER
  5
6F
330
2
100
AcDbSymbolTableRecord
100
AcDbLayerTableRecord
  2
FORMAT
 70
     0
 62
     2
  6
Continuous
370
    -3
390
F
  0
LAYER
  5
70
330
2
100
AcDbSymbolTableRecord
100
AcDbLayerTableRecord
  2
외형선
 70
     0
 62
   100
  6
Continuous
370
    30
390
F
  0
LAYER
  5
71
330
2
100
AcDbSymbolTableRecord
100
AcDbLayerTableRecord
  2
숨은선
 70
     0
 62
     2
  6
HIDDEN
370
    15
390
F
  0
LAYER
  5
72
330
2
100
AcDbSymbolTableRecord
100
AcDbLayerTableRecord
  2
중심선
 70
     0
 62
     1
  6
CENTERX2
370
    -3
390
F
  0
LAYER
  5
73
330
2
100
AcDbSymbolTableRecord
100
AcDbLayerTableRecord
  2
파단선
 70
     0
 62
     4
  6
Continuous
370
    -3
390
F
  0
LAYER
  5
74
330
2
100
AcDbSymbolTableRecord
100
AcDbLayerTableRecord
  2
해칭선
 70
     0
 62
     4
  6
Continuous
370
    -3
390
F
  0
LAYER
  5
75
330
2
100
AcDbSymbolTableRecord
100
AcDbLayerTableRecord
  2
가는실선
 70
     0
 62
     4
  6
Continuous
370
    -3
390
F
  0
LAYER
  5
76
330
2
100
AcDbSymbolTableRecord
100
AcDbLayerTableRecord
  2
치수_보조선
 70
     0
 62
     4
  6
Continuous
370
    -3
390
F
  0
LAYER
  5
77
330
2
100
AcDbSymbolTableRecord
100
AcDbLayerTableRecord
  2
치수문자_일반주서
 70
     0
 62
     7
  6
Continuous
370
    15
390
F
  0
LAYER
  5
78
330
2
100
AcDbSymbolTableRecord
100
AcDbLayerTableRecord
  2
개별주서
 70
     0
 62
   100
  6
Continuous
370
    30
390
F
  0
LAYER
  5
79
330
2
100
AcDbSymbolTableRecord
100
AcDbLayerTableRecord
  2
중간선
 70
     0
 62
     2
  6
Continuous
370
    15
390
F
  0
LAYER
  5
7A
330
2
100
AcDbSymbolTableRecord
100
AcDbLayerTableRecord
  2
윤곽선
 70
     0
 62
     3
  6
Continuous
370
    40
390
F
  0
LAYER
  5
7B
330
2
100
AcDbSymbolTableRecord
100
AcDbLayerTableRecord
  2
중심마크
 70
     0
 62
   100
  6
Continuous
370
    30
390
F
  0
LAYER
  5
7C
330
2
100
AcDbSymbolTableRecord
100
AcDbLayerTableRecord
  2
가상선
 70
     0
 62
     4
  6
PHANTOM
370
    -3
390
F
  0
LAYER
  5
7D
330
2
100
AcDbSymbolTableRecord
100
AcDbLayerTableRecord
  2
특수지정선
 70
     0
 62
     5
  6
CENTERX2
370
    60
390
F
  0
LAYER
  5
16E
330
2
100
AcDbSymbolTableRecord
100
AcDbLayerTableRecord
  2
Defpoints
 70
     0
 62
     7
  6
Continuous
290
     0
370
    -3
390
F
  0
ENDTAB
  0
TABLE
  2
STYLE
  5
3
330
0
100
AcDbSymbolTable
 70
     2
  0
STYLE
  5
11
330
3
100
AcDbSymbolTableRecord
100
AcDbTextStyleTableRecord
  2
Standard
 70
     0
 40
0.0
 41
1.0
 50
0.0
 71
     0
 42
3.5
  3
txt
  4

  0
STYLE
  5
93
330
3
100
AcDbSymbolTableRecord
100
AcDbTextStyleTableRecord
  2
SLDTEXTSTYLE0
 70
     0
 40
0.0
 41
0.75
 50
0.0
 71
     0
 42
3.5
  3
TXT
  4

  0
ENDTAB
  0
TABLE
  2
VIEW
  5
6
330
0
100
AcDbSymbolTable
 70
     0
  0
ENDTAB
  0
TABLE
  2
UCS
  5
7
330
0
100
AcDbSymbolTable
 70
     0
  0
ENDTAB
  0
TABLE
  2
APPID
  5
9
330
0
100
AcDbSymbolTable
 70
     3
  0
APPID
  5
12
330
9
100
AcDbSymbolTableRecord
100
AcDbRegAppTableRecord
  2
ACAD
 70
     0
  0
APPID
  5
17F
330
9
100
AcDbSymbolTableRecord
100
AcDbRegAppTableRecord
  2
PE_DIMMEASUREMENT
 70
     0
  0
APPID
  5
182
330
9
100
AcDbSymbolTableRecord
100
AcDbRegAppTableRecord
  2
ACAD_DSTYLE_DIMRADIAL_EXTENSION
 70
     0
  0
ENDTAB
  0
TABLE
  2
DIMSTYLE
  5
A
330
0
100
AcDbSymbolTable
 70
     3
100
AcDbDimStyleTable
  0
DIMSTYLE
105
27
330
A
100
AcDbSymbolTableRecord
100
AcDbDimStyleTableRecord
  2
ISO-25
 70
     0
 41
2.5
 42
0.625
 43
3.75
 44
1.25
 73
     0
 74
     0
 77
     1
 78
     8
140
2.5
141
2.5
143
0.03937007874016
147
0.625
171
     3
172
     1
178
     0
271
     2
272
     2
274
     3
278
    44
283
     0
284
     8
340
11
  0
DIMSTYLE
105
107
102
{ACAD_REACTORS
330
106
330
11A
330
16F
330
183
102
}
330
A
100
AcDbSymbolTableRecord
100
AcDbDimStyleTableRecord
  2
SLDDIMSTYLE0
 70
     0
 41
3.302
 44
0.0
 45
0.000000001
 73
     0
 74
     0
 77
     1
 78
     4
 79
     1
140
3.5
143
0.0393700787401575
147
0.875
148
0.000000001
170
     1
173
     1
178
     0
271
     2
272
     2
276
     2
284
    12
340
93
  0
DIMSTYLE
105
12E
102
{ACAD_REACTORS
330
12D
102
}
330
A
100
AcDbSymbolTableRecord
100
AcDbDimStyleTableRecord
  2
SLDDIMSTYLE1
 70
     0
 41
3.302
 44
0.0
 45
0.000000001
 73
     0
 74
     0
 77
     1
 78
     4
 79
     1
140
3.5
143
0.0393700787401575
147
0.875
148
0.000000001
170
     1
172
     1
173
     1
178
     0
271
     2
272
     2
276
     2
284
    12
289
     0
340
93
  0
ENDTAB
  0
TABLE
  2
BLOCK_RECORD
  5
1
330
0
100
AcDbSymbolTable
 70
     8
  0
BLOCK_RECORD
  5
1F
102
{ACAD_XDICTIONARY
360
219
102
}
330
1
100
AcDbSymbolTableRecord
100
AcDbBlockTableRecord
  2
*Model_Space
340
22
  0
BLOCK_RECORD
  5
1B
330
1
100
AcDbSymbolTableRecord
100
AcDbBlockTableRecord
  2
*Paper_Space
340
1E
  0
BLOCK_RECORD
  5
23
330
1
100
AcDbSymbolTableRecord
100
AcDbBlockTableRecord
  2
*Paper_Space0
340
26
  0
BLOCK_RECORD
  5
7E
330
1
100
AcDbSymbolTableRecord
100
AcDbBlockTableRecord
  2
블럭10
340
0
102
{BLKREFS
331
FE
102
}
  0
BLOCK_RECORD
  5
108
330
1
100
AcDbSymbolTableRecord
100
AcDbBlockTableRecord
  2
_D
340
0
  0
BLOCK_RECORD
  5
11B
330
1
100
AcDbSymbolTableRecord
100
AcDbBlockTableRecord
  2
_D_1
340
0
  0
BLOCK_RECORD
  5
12F
330
1
100
AcDbSymbolTableRecord
100
AcDbBlockTableRecord
  2
_D_2
340
0
  0
BLOCK_RECORD
  5
142
330
1
100
AcDbSymbolTableRecord
100
AcDbBlockTableRecord
  2
SW_DOWELSYMBOL_0
340
0
102
{BLKREFS
331
148
102
}
  0
BLOCK_RECORD
  5
172
330
1
100
AcDbSymbolTableRecord
100
AcDbBlockTableRecord
  2
*D6
340
0
  0
BLOCK_RECORD
  5
186
330
1
100
AcDbSymbolTableRecord
100
AcDbBlockTableRecord
  2
*D7
340
0
  0
ENDTAB
  0
ENDSEC
  0
SECTION
  2
BLOCKS
  0
BLOCK
  5
20
330
1F
100
AcDbEntity
  8
0
100
AcDbBlockBegin
  2
*Model_Space
 70
     0
 10
0.0
 20
0.0
 30
0.0
  3
*Model_Space
  1
*Model_Space
  0
ENDBLK
  5
21
330
1F
100
AcDbEntity
  8
0
100
AcDbBlockEnd
  0
BLOCK
  5
1C
330
1B
100
AcDbEntity
 67
     1
  8
0
100
AcDbBlockBegin
  2
*Paper_Space
 70
     0
 10
0.0
 20
0.0
 30
0.0
  3
*Paper_Space
  1
*Paper_Space
  0
ENDBLK
  5
1D
330
1B
100
AcDbEntity
 67
     1
  8
0
100
AcDbBlockEnd
  0
BLOCK
  5
24
330
23
100
AcDbEntity
  8
0
100
AcDbBlockBegin
  2
*Paper_Space0
 70
     0
 10
0.0
 20
0.0
 30
0.0
  3
*Paper_Space0
  1
*Paper_Space0
  0
ENDBLK
  5
25
330
23
100
AcDbEntity
  8
0
100
AcDbBlockEnd
  0
BLOCK
  5
7F
330
7E
100
AcDbEntity
  8
0
100
AcDbBlockBegin
  2
블럭10
 70
     2
 10
0.0
 20
0.0
 30
0.0
  3
블럭10
  1
블럭10
  0
ELLIPSE
  5
81
330
7E
100
AcDbEntity
  8
중심선
100
AcDbEllipse
 10
20.54032771741204
 20
12.0471743016438
 30
0.0
 11
6.600054785286829
 21
-1.261213355974178E-13
 31
0.0
210
0.0
220
0.0
230
1.0
 40
0.636358354079598
 41
0.9219305317359503
 42
6.513795318482858
  0
ELLIPSE
  5
82
330
7E
100
AcDbEntity
  8
중심선
100
AcDbEllipse
 10
20.54032771746488
 20
12.04717430159265
 30
0.0
 11
3.960054785062283
 21
1.540847449632565E-10
 31
0.0
210
0.0
220
0.0
230
1.0
 40
0.3939339440162632
 41
1.131841032648279
 42
5.62031148352944
  0
LINE
  5
83
330
7E
100
AcDbEntity
  8
중심선
100
AcDbLine
 10
2.268634060543552
 20
16.24717430164393
 30
0.0
 11
5.714909304380834
 21
16.24717430164393
 31
0.0
  0
LINE
  5
84
330
7E
100
AcDbEntity
  8
중심선
100
AcDbLine
 10
5.245725140726316
 20
7.84717430164391
 30
0.0
 11
8.692000384563599
 21
7.84717430164391
 31
0.0
  0
LINE
  5
85
330
7E
100
AcDbEntity
  8
중심선
100
AcDbLine
 10
15.74043728645272
 20
16.24717430164393
 30
0.0
 11
8.692000384563599
 21
7.84717430164391
 31
0.0
  0
LINE
  5
86
330
7E
100
AcDbEntity
  8
중심선
100
AcDbLine
 10
0.1404042013395286
 20
13.71084872107135
 30
0.0
 11
3.58671253028996
 21
13.71088815037384
 31
0.0
  0
LINE
  5
87
330
7E
100
AcDbEntity
  8
중심선
100
AcDbLine
 10
2.750260043222114
 20
10.84717430164391
 30
0.0
 11
6.196535287059397
 21
10.84717430164391
 31
0.0
  0
LINE
  5
88
330
7E
100
AcDbEntity
  8
중심선
100
AcDbLine
 10
12.29416204261559
 20
16.24717430164393
 30
0.0
 11
5.245725140726316
 21
7.84717430164391
 31
0.0
  0
LINE
  5
89
330
7E
100
AcDbEntity
  8
중심선
100
AcDbLine
 10
10.72767329541681
 20
16.24717430164393
 30
0.0
 11
6.196535287059397
 21
10.84717430164391
 31
0.0
  0
LINE
  5
8A
330
7E
100
AcDbEntity
  8
중심선
100
AcDbLine
 10
7.28139805157953
 20
16.24717430164393
 30
0.0
 11
2.750260043222114
 21
10.84717430164391
 31
0.0
  0
LINE
  5
8B
330
7E
100
AcDbEntity
  8
중심선
100
AcDbLine
 10
5.714909304380834
 20
16.24717430164393
 30
0.0
 11
3.58671253028996
 21
13.71088815037384
 31
0.0
  0
LINE
  5
8C
330
7E
100
AcDbEntity
  8
중심선
100
AcDbLine
 10
2.268634060543552
 20
16.24717430164393
 30
0.0
 11
0.1404042013395286
 21
13.71084872107135
 31
0.0
  0
LINE
  5
8D
330
7E
100
AcDbEntity
  8
중심선
100
AcDbLine
 10
7.28139805157953
 20
16.24717430164393
 30
0.0
 11
10.72767329541681
 21
16.24717430164393
 31
0.0
  0
LINE
  5
8E
330
7E
100
AcDbEntity
  8
중심선
100
AcDbLine
 10
12.29416204261559
 20
16.24717430164393
 30
0.0
 11
15.74043728645272
 21
16.24717430164393
 31
0.0
  0
LINE
  5
8F
330
7E
100
AcDbEntity
  8
중심선
100
AcDbLine
 10
19.22036997980202
 20
11.08717430171403
 30
0.0
 11
23.66174974927406
 21
11.08717430171406
 31
0.0
  0
LINE
  5
90
330
7E
100
AcDbEntity
  8
중심선
100
AcDbLine
 10
19.22039502424796
 20
13.00717430171391
 30
0.0
 11
19.22036997980202
 21
11.08717430171403
 31
0.0
  0
LINE
  5
91
330
7E
100
AcDbEntity
  8
중심선
100
AcDbLine
 10
19.22039502424796
 20
13.00717430171391
 30
0.0
 11
26.96566020931264
 21
13.00717430171391
 31
0.0
  0
LINE
  5
92
330
7E
100
AcDbEntity
  8
중심선
100
AcDbLine
 10
22.22332737316547
 20
13.45928029700563
 30
0.0
 11
24.52862924686651
 21
15.39360700705356
 31
0.0
  0
ATTDEF
  5
94
330
7E
100
AcDbEntity
  8
FORMAT
 62
     2
100
AcDbText
 10
-11.05102035218446
 20
2.075366912832191
 30
0.0
 40
4.233333333333333
  1
GMG22952[ 6 FLUTE ]
 41
0.75
  7
SLDTEXTSTYLE0
 11
-11.05102035218446
 21
-0.0412997538344756
 31
0.0
100
AcDbAttributeDefinition
  3

  2
AUTOATTR0
 70
     0
 74
     1
  0
ENDBLK
  5
80
330
7E
100
AcDbEntity
  8
0
100
AcDbBlockEnd
  0
BLOCK
  5
109
330
108
100
AcDbEntity
  8
0
100
AcDbBlockBegin
  2
_D
 70
     0
 10
0.0
 20
0.0
 30
0.0
  3
_D
  1
_D
  0
LINE
  5
10B
330
108
100
AcDbEntity
  8
치수문자_일반주서
 62
     0
370
    -2
100
AcDbLine
 10
-66.20000000000002
 20
12.2625
 30
0.0
 11
-66.19999999999999
 21
45.35555141807178
 31
0.0
  0
LINE
  5
10C
330
108
100
AcDbEntity
  8
치수문자_일반주서
 62
     0
370
    -2
100
AcDbLine
 10
111.6
 20
12.00050000000001
 30
0.0
 11
111.6
 21
45.35555141807178
 31
0.0
  0
LINE
  5
10D
330
108
100
AcDbEntity
  8
치수문자_일반주서
 62
     0
370
    -2
100
AcDbLine
 10
-62.89799999999999
 20
45.35555141807178
 30
0.0
 11
108.298
 21
45.35555141807178
 31
0.0
  0
SOLID
  5
10E
330
108
100
AcDbEntity
  8
치수문자_일반주서
 62
     0
100
AcDbTrace
 10
-62.89799999999999
 20
45.90588475140512
 30
0.0
 11
-62.89799999999999
 21
44.80521808473845
 31
0.0
 12
-66.19999999999999
 22
45.35555141807178
 32
0.0
 13
-66.19999999999999
 23
45.35555141807178
 33
0.0
  0
SOLID
  5
10F
330
108
100
AcDbEntity
  8
치수문자_일반주서
 62
     0
100
AcDbTrace
 10
108.298
 20
44.80521808473845
 30
0.0
 11
108.298
 21
45.90588475140512
 31
0.0
 12
111.6
 22
45.35555141807178
 32
0.0
 13
111.6
 23
45.35555141807178
 33
0.0
  0
MTEXT
  5
110
330
108
100
AcDbEntity
  8
치수문자_일반주서
 62
     0
100
AcDbMText
 10
22.7
 20
49.73055141807178
 30
0.0
 40
3.5
 41
0.0
 71
     2
 72
     1
  1
\A1;177.80 [7]
  7
SLDTEXTSTYLE0
 73
     1
 44
1.0
  0
POINT
  5
111
330
108
100
AcDbEntity
  8
Defpoints
 62
     0
100
AcDbPoint
 10
-66.20000000000002
 20
12.2
 30
0.0
  0
POINT
  5
112
330
108
100
AcDbEntity
  8
Defpoints
 62
     0
100
AcDbPoint
 10
111.6
 20
11.93800000000001
 30
0.0
  0
POINT
  5
113
330
108
100
AcDbEntity
  8
Defpoints
 62
     0
100
AcDbPoint
 10
111.6
 20
45.35555141807178
 30
0.0
  0
ENDBLK
  5
10A
330
108
100
AcDbEntity
  8
0
100
AcDbBlockEnd
  0
BLOCK
  5
11C
330
11B
100
AcDbEntity
  8
0
100
AcDbBlockBegin
  2
_D_1
 70
     0
 10
0.0
 20
0.0
 30
0.0
  3
_D_1
  1
_D_1
  0
LINE
  5
11E
330
11B
100
AcDbEntity
  8
치수문자_일반주서
 62
     0
370
    -2
100
AcDbLine
 10
111.6
 20
12.00050000000001
 30
0.0
 11
111.6
 21
29.56499453033793
 31
0.0
  0
LINE
  5
11F
330
11B
100
AcDbEntity
  8
치수문자_일반주서
 62
     0
370
    -2
100
AcDbLine
 10
10.0
 20
-12.39733467034423
 30
0.0
 11
10.0
 21
29.56499453033793
 31
0.0
  0
LINE
  5
120
330
11B
100
AcDbEntity
  8
치수문자_일반주서
 62
     0
370
    -2
100
AcDbLine
 10
108.298
 20
29.56499453033793
 30
0.0
 11
13.302
 21
29.56499453033793
 31
0.0
  0
SOLID
  5
121
330
11B
100
AcDbEntity
  8
치수문자_일반주서
 62
     0
100
AcDbTrace
 10
108.298
 20
29.01466119700459
 30
0.0
 11
108.298
 21
30.11532786367126
 31
0.0
 12
111.6
 22
29.56499453033793
 32
0.0
 13
111.6
 23
29.56499453033793
 33
0.0
  0
SOLID
  5
122
330
11B
100
AcDbEntity
  8
치수문자_일반주서
 62
     0
100
AcDbTrace
 10
13.302
 20
30.11532786367126
 30
0.0
 11
13.302
 21
29.01466119700459
 31
0.0
 12
10.0
 22
29.56499453033793
 32
0.0
 13
10.0
 23
29.56499453033793
 33
0.0
  0
MTEXT
  5
123
330
11B
100
AcDbEntity
  8
치수문자_일반주서
 62
     0
100
AcDbMText
 10
59.68240452760594
 20
33.93999453033793
 30
0.0
 40
3.5
 41
0.0
 71
     2
 72
     1
  1
\A1;101.60 [4]
  7
SLDTEXTSTYLE0
 73
     1
 44
1.0
  0
POINT
  5
124
330
11B
100
AcDbEntity
  8
Defpoints
 62
     0
100
AcDbPoint
 10
111.6
 20
11.93800000000001
 30
0.0
  0
POINT
  5
125
330
11B
100
AcDbEntity
  8
Defpoints
 62
     0
100
AcDbPoint
 10
10.0
 20
-12.45983467034423
 30
0.0
  0
POINT
  5
126
330
11B
100
AcDbEntity
  8
Defpoints
 62
     0
100
AcDbPoint
 10
10.0
 20
29.56499453033793
 30
0.0
  0
ENDBLK
  5
11D
330
11B
100
AcDbEntity
  8
0
100
AcDbBlockEnd
  0
BLOCK
  5
130
330
12F
100
AcDbEntity
  8
0
100
AcDbBlockBegin
  2
_D_2
 70
     0
 10
0.0
 20
0.0
 30
0.0
  3
_D_2
  1
_D_2
  0
LINE
  5
132
330
12F
100
AcDbEntity
  8
치수문자_일반주서
 62
     0
370
    -2
100
AcDbLine
 10
-65.7625
 20
12.7
 30
0.0
 11
-79.20000000000006
 21
12.69999999999995
 31
0.0
  0
LINE
  5
133
330
12F
100
AcDbEntity
  8
치수문자_일반주서
 62
     0
370
    -2
100
AcDbLine
 10
-65.7625
 20
-12.7
 30
0.0
 11
-79.19999999999997
 21
-12.70000000000005
 31
0.0
  0
LINE
  5
134
330
12F
100
AcDbEntity
  8
치수문자_일반주서
 62
     0
370
    -2
100
AcDbLine
 10
-79.20000000000005
 20
9.397999999999952
 30
0.0
 11
-79.19999999999999
 21
-9.398000000000048
 31
0.0
  0
SOLID
  5
135
330
12F
100
AcDbEntity
  8
치수문자_일반주서
 62
     0
100
AcDbTrace
 10
-78.64966666666672
 20
9.397999999999954
 30
0.0
 11
-79.75033333333337
 21
9.39799999999995
 31
0.0
 12
-79.20000000000006
 22
12.69999999999995
 32
0.0
 13
-79.20000000000006
 23
12.69999999999995
 33
0.0
  0
SOLID
  5
136
330
12F
100
AcDbEntity
  8
치수문자_일반주서
 62
     0
100
AcDbTrace
 10
-79.75033333333332
 20
-9.39800000000005
 30
0.0
 11
-78.64966666666666
 21
-9.398000000000046
 31
0.0
 12
-79.19999999999997
 22
-12.70000000000005
 32
0.0
 13
-79.19999999999997
 23
-12.70000000000005
 33
0.0
  0
MTEXT
  5
137
330
12F
100
AcDbEntity
  8
치수문자_일반주서
 62
     0
100
AcDbMText
 10
-83.57500000000002
 20
-0.0000000000000169
 30
0.0
 40
3.5
 41
0.0
 71
     2
 72
     1
  1
\A1;%%c25.40 [1]
  7
SLDTEXTSTYLE0
 11
-3.356894814614647E-15
 21
1.0
 31
0.0
 73
     1
 44
1.0
  0
POINT
  5
138
330
12F
100
AcDbEntity
  8
Defpoints
 62
     0
100
AcDbPoint
 10
-65.7
 20
12.7
 30
0.0
  0
POINT
  5
139
330
12F
100
AcDbEntity
  8
Defpoints
 62
     0
100
AcDbPoint
 10
-65.7
 20
-12.7
 30
0.0
  0
POINT
  5
13A
330
12F
100
AcDbEntity
  8
Defpoints
 62
     0
100
AcDbPoint
 10
-79.19999999999997
 20
-12.70000000000005
 30
0.0
  0
ENDBLK
  5
131
330
12F
100
AcDbEntity
  8
0
100
AcDbBlockEnd
  0
BLOCK
  5
143
330
142
100
AcDbEntity
  8
0
100
AcDbBlockBegin
  2
SW_DOWELSYMBOL_0
 70
     0
 10
0.0
 20
0.0
 30
0.0
  3
SW_DOWELSYMBOL_0
  1
SW_DOWELSYMBOL_0
  0
CIRCLE
  5
145
330
142
100
AcDbEntity
  8
외형선
 62
     0
100
AcDbCircle
 10
0.0
 20
0.0
 30
0.0
 40
3.000000000000004
  0
HATCH
  5
146
330
142
100
AcDbEntity
  8
0
  6
Continuous
 62
     0
370
    30
100
AcDbHatch
 10
0.0
 20
0.0
 30
0.0
210
0.0
220
0.0
230
1.0
  2
SOLID
 70
     1
 71
     0
 91
        1
 92
        0
 93
        3
 72
     2
 10
0.0
 20
0.0
 40
3.000000000000004
 50
0.0
 51
90.0
 73
     1
 72
     1
 10
0.0
 20
3.000000000000004
 11
0.0
 21
0.0
 72
     1
 10
0.0
 20
0.0
 11
3.000000000000006
 21
0.0
 97
        0
 75
     0
 76
     1
 98
        1
 10
0.0
 20
0.0
  0
HATCH
  5
147
330
142
100
AcDbEntity
  8
0
  6
Continuous
 62
     0
370
    30
100
AcDbHatch
 10
0.0
 20
0.0
 30
0.0
210
0.0
220
0.0
230
1.0
  2
SOLID
 70
     1
 71
     0
 91
        1
 92
        0
 93
        3
 72
     2
 10
0.0
 20
0.0
 40
3.000000000000004
 50
180.0
 51
270.0000000000007
 73
     1
 72
     1
 10
0.0
 20
-3.000000000000004
 11
0.0
 21
0.0
 72
     1
 10
0.0
 20
0.0
 11
-3.000000000000006
 21
0.0
 97
        0
 75
     0
 76
     1
 98
        1
 10
0.0
 20
0.0
  0
ENDBLK
  5
144
330
142
100
AcDbEntity
  8
0
100
AcDbBlockEnd
  0
BLOCK
  5
173
330
172
100
AcDbEntity
  8
0
100
AcDbBlockBegin
  2
*D6
 70
     1
 10
0.0
 20
0.0
 30
0.0
  3
*D6
  1
*D6
  0
LINE
  5
175
330
172
100
AcDbEntity
  8
치수문자_일반주서
 62
     0
370
    -2
100
AcDbLine
 10
110.9005
 20
12.70000000000001
 30
0.0
 11
128.112666008667
 21
12.7
 31
0.0
  0
LINE
  5
176
330
172
100
AcDbEntity
  8
치수문자_일반주서
 62
     0
370
    -2
100
AcDbLine
 10
110.9005
 20
-12.70000000000001
 30
0.0
 11
128.112666008667
 21
-12.70000000000001
 31
0.0
  0
LINE
  5
177
330
172
100
AcDbEntity
  8
치수문자_일반주서
 62
     0
370
    -2
100
AcDbLine
 10
128.112666008667
 20
9.398000000000005
 30
0.0
 11
128.112666008667
 21
-9.398000000000009
 31
0.0
  0
SOLID
  5
178
330
172
100
AcDbEntity
  8
치수문자_일반주서
 62
     0
100
AcDbTrace
 10
128.6629993420004
 20
9.398000000000005
 30
0.0
 11
127.5623326753337
 21
9.398000000000005
 31
0.0
 12
128.112666008667
 22
12.7
 32
0.0
 13
128.112666008667
 23
12.7
 33
0.0
  0
SOLID
  5
179
330
172
100
AcDbEntity
  8
치수문자_일반주서
 62
     0
100
AcDbTrace
 10
127.5623326753337
 20
-9.398000000000009
 30
0.0
 11
128.6629993420004
 21
-9.398000000000009
 31
0.0
 12
128.112666008667
 22
-12.70000000000001
 32
0.0
 13
128.112666008667
 23
-12.70000000000001
 33
0.0
  0
MTEXT
  5
17A
330
172
100
AcDbEntity
  8
치수문자_일반주서
 62
     0
100
AcDbMText
 10
125.487666008667
 20
-0.0000000000000018
 30
0.0
 40
3.5
 41
0.0
 71
     5
 72
     1
  1
\A1;{%%c25.40 [1]}
  7
SLDTEXTSTYLE0
 11
0.0
 21
1.0
 31
0.0
 73
     1
 44
1.0
  0
POINT
  5
17B
330
172
100
AcDbEntity
  8
Defpoints
 62
     0
100
AcDbPoint
 10
110.838
 20
12.70000000000001
 30
0.0
  0
POINT
  5
17C
330
172
100
AcDbEntity
  8
Defpoints
 62
     0
100
AcDbPoint
 10
110.838
 20
-12.70000000000001
 30
0.0
  0
POINT
  5
17D
330
172
100
AcDbEntity
  8
Defpoints
 62
     0
100
AcDbPoint
 10
128.112666008667
 20
-12.70000000000001
 30
0.0
  0
ENDBLK
  5
174
330
172
100
AcDbEntity
  8
0
100
AcDbBlockEnd
  0
BLOCK
  5
187
330
186
100
AcDbEntity
  8
0
100
AcDbBlockBegin
  2
*D7
 70
     1
 10
0.0
 20
0.0
 30
0.0
  3
*D7
  1
*D7
  0
LINE
  5
189
330
186
100
AcDbEntity
  8
치수문자_일반주서
 62
     0
370
    -2
100
AcDbLine
 10
113.3135158553045
 20
15.16102920404639
 30
0.0
 11
135.1474429481188
 21
43.58798696655418
 31
0.0
  0
MTEXT
  5
18A
330
186
100
AcDbEntity
  8
치수문자_일반주서
 62
     0
100
AcDbMText
 10
124.4045313516048
 20
33.91052206132282
 30
0.0
 40
3.5
 41
0.0
 71
     5
 72
     1
  1
\A1;R.76 [R0.030]
  7
SLDTEXTSTYLE0
 11
0.609132838411546
 21
0.7930682096570845
 31
0.0
 73
     1
 44
1.0
  0
SOLID
  5
18B
330
186
100
AcDbEntity
  8
치수문자_일반주서
 62
     0
100
AcDbTrace
 10
112.8770639839233
 20
15.49625530945222
 30
0.0
 11
113.7499677266858
 21
14.82580309864057
 31
0.0
 12
111.3021592228696
 22
12.5423179757587
 32
0.0
 13
111.3021592228696
 23
12.5423179757587
 33
0.0
  0
LINE
  5
18C
330
186
100
AcDbEntity
  8
치수문자_일반주서
 62
     0
100
AcDbLine
 10
110.748
 20
11.93800000000001
 30
0.0
 11
110.928
 21
11.93800000000001
 31
0.0
  0
LINE
  5
18D
330
186
100
AcDbEntity
  8
치수문자_일반주서
 62
     0
100
AcDbLine
 10
110.838
 20
11.84800000000001
 30
0.0
 11
110.838
 21
12.02800000000001
 31
0.0
  0
POINT
  5
18E
330
186
100
AcDbEntity
  8
Defpoints
 62
     0
100
AcDbPoint
 10
111.3021592228696
 20
12.5423179757587
 30
0.0
  0
POINT
  5
18F
330
186
100
AcDbEntity
  8
Defpoints
 62
     0
100
AcDbPoint
 10
110.838
 20
11.93800000000001
 30
0.0
  0
ENDBLK
  5
188
330
186
100
AcDbEntity
  8
0
100
AcDbBlockEnd
  0
ENDSEC
  0
SECTION
  2
ENTITIES
  0
LINE
  5
95
330
1F
100
AcDbEntity
  8
0
  6
Continuous
 62
     4
370
    15
100
AcDbLine
 10
7.000376964194359
 20
12.70000000000001
 30
0.0
 11
-28.76992500000001
 21
12.7
 31
0.0
  0
LINE
  5
96
330
1F
100
AcDbEntity
  8
0
  6
Continuous
 62
     4
370
    15
100
AcDbLine
 10
-65.7
 20
-12.7
 30
0.0
 11
7.000376964194373
 21
-12.69999999999999
 31
0.0
  0
LINE
  5
98
330
1F
100
AcDbEntity
  8
0
  6
Continuous
 62
     4
370
    15
100
AcDbLine
 10
-66.20000000000002
 20
-12.19999999999999
 30
0.0
 11
-65.7
 21
-12.69999999999999
 31
0.0
  0
LINE
  5
99
330
1F
100
AcDbEntity
  8
0
  6
Continuous
 62
     1
370
    15
100
AcDbLine
 10
92.80391994536848
 20
-12.69999999999999
 30
0.0
 11
97.14717939575078
 21
-12.69999999999999
 31
0.0
  0
LINE
  5
9A
330
1F
100
AcDbEntity
  8
0
  6
Continuous
 62
     1
370
    15
100
AcDbLine
 10
13.00834188843374
 20
-12.69999999999999
 30
0.0
 11
17.35080477666295
 21
-12.69999999999999
 31
0.0
  0
LINE
  5
9B
330
1F
100
AcDbEntity
  8
0
  6
Continuous
 62
     1
370
    15
100
AcDbLine
 10
57.24762943977171
 20
12.70000000000001
 30
0.0
 11
52.90567261591086
 21
12.70000000000001
 31
0.0
  0
LINE
  5
9C
330
1F
100
AcDbEntity
  8
0
  6
Continuous
 62
     1
370
    15
100
AcDbLine
 10
52.90567261591096
 20
-12.69999999999999
 30
0.0
 11
57.24762943977171
 21
-12.69999999999999
 31
0.0
  0
LINE
  5
9D
330
1F
100
AcDbEntity
  8
0
  6
Continuous
 62
     1
370
    15
100
AcDbLine
 10
17.35080477666299
 20
12.70000000000001
 30
0.0
 11
13.00834188843381
 21
12.70000000000001
 31
0.0
  0
LINE
  5
9E
330
1F
100
AcDbEntity
  8
0
  6
Continuous
 62
     1
370
    15
100
AcDbLine
 10
97.14717939575081
 20
12.70000000000001
 30
0.0
 11
92.80391994536858
 21
12.70000000000001
 31
0.0
  0
LINE
  5
9F
330
1F
100
AcDbEntity
  8
0
  6
Continuous
 62
     1
370
    15
100
AcDbLine
 10
106.1037046258774
 20
-12.69999999999999
 30
0.0
 11
110.838
 21
-12.70000000000001
 31
0.0
  0
LINE
  5
A0
330
1F
100
AcDbEntity
  8
0
  6
Continuous
 62
     1
370
    15
100
AcDbLine
 10
26.30852380691506
 20
-12.69999999999999
 30
0.0
 11
30.65079951915662
 21
-12.69999999999999
 31
0.0
  0
LINE
  5
A1
330
1F
100
AcDbEntity
  8
0
  6
Continuous
 62
     1
370
    15
100
AcDbLine
 10
70.54702127655108
 20
12.70000000000001
 30
0.0
 11
66.20577099965458
 21
12.70000000000001
 31
0.0
  0
LINE
  5
A2
330
1F
100
AcDbEntity
  8
0
  6
Continuous
 62
     1
370
    15
100
AcDbLine
 10
52.30511748689227
 20
-5.809973318321959
 30
0.0
 11
52.04221533184958
 21
-5.588014374404075
 31
0.0
  0
LINE
  5
A3
330
1F
100
AcDbEntity
  8
0
  6
Continuous
 62
     1
370
    15
100
AcDbLine
 10
110.8939866797597
 20
5.950659465721874
 30
0.0
 11
111.0805824816332
 21
5.793627042130383
 31
0.0
  0
LINE
  5
A4
330
1F
100
AcDbEntity
  8
0
  6
Continuous
 62
     1
370
    15
100
AcDbLine
 10
31.24258769747228
 20
5.820694826207465
 30
0.0
 11
31.51398672459885
 21
5.588018412720095
 31
0.0
  0
LINE
  5
A5
330
1F
100
AcDbEntity
  8
0
  6
Continuous
 62
     1
370
    15
100
AcDbLine
 10
39.60641852985921
 20
-12.69999999999999
 30
0.0
 11
43.94989467863996
 21
-12.69999999999999
 31
0.0
  0
LINE
  5
A6
330
1F
100
AcDbEntity
  8
0
  6
Continuous
 62
     1
370
    15
100
AcDbLine
 10
83.8472970345495
 20
12.70000000000001
 30
0.0
 11
79.50543836519556
 21
12.70000000000001
 31
0.0
  0
LINE
  5
A7
330
1F
100
AcDbEntity
  8
0
  6
Continuous
 62
     1
370
    15
100
AcDbLine
 10
79.50543836519545
 20
-12.69999999999999
 30
0.0
 11
83.84729703454941
 21
-12.69999999999999
 31
0.0
  0
LINE
  5
A8
330
1F
100
AcDbEntity
  8
0
  6
Continuous
 62
     1
370
    15
100
AcDbLine
 10
43.94989467863989
 20
12.70000000000001
 30
0.0
 11
39.60641852985914
 21
12.70000000000001
 31
0.0
  0
LINE
  5
A9
330
1F
100
AcDbEntity
  8
0
  6
Continuous
 62
     1
370
    15
100
AcDbLine
 10
66.20577099965455
 20
-12.69999999999999
 30
0.0
 11
70.547021276551
 21
-12.69999999999999
 31
0.0
  0
LINE
  5
AA
330
1F
100
AcDbEntity
  8
0
  6
Continuous
 62
     1
370
    15
100
AcDbLine
 10
30.65079951915657
 20
12.70000000000001
 30
0.0
 11
26.30852380691504
 21
12.70000000000001
 31
0.0
  0
LINE
  5
AB
330
1F
100
AcDbEntity
  8
0
  6
Continuous
 62
     1
370
    15
100
AcDbLine
 10
110.838
 20
12.70000000000001
 30
0.0
 11
106.1037046258774
 21
12.70000000000001
 31
0.0
  0
SPLINE
  5
AC
330
1F
100
AcDbEntity
  8
0
  6
Continuous
 62
     4
370
    15
100
AcDbSpline
210
0.0
220
0.0
230
1.0
 70
     8
 71
     3
 72
     9
 73
     5
 74
     0
 42
0.000000001
 43
0.00000001
 40
0.0
 40
0.0
 40
0.0
 40
0.0
 40
0.7867470770721422
 40
1.0
 40
1.0
 40
1.0
 40
1.0
 10
6.949878257436445
 20
12.66368464237691
 30
0.0
 10
6.942855301776556
 20
12.68116854073341
 30
0.0
 10
6.93392872821237
 20
12.70339156369216
 30
0.0
 10
6.988697387513545
 20
12.69692558699978
 30
0.0
 10
7.000376964194357
 20
12.69554669857055
 30
0.0
  0
SPLINE
  5
AD
330
1F
100
AcDbEntity
  8
0
  6
Continuous
 62
     4
370
    15
100
AcDbSpline
210
0.0
220
0.0
230
1.0
 70
     8
 71
     3
 72
    20
 73
    16
 74
     0
 42
0.000000001
 43
0.00000001
 40
0.0
 40
0.0
 40
0.0
 40
0.0
 40
0.25
 40
0.25
 40
0.375
 40
0.375
 40
0.5
 40
0.5
 40
0.625
 40
0.625
 40
0.75
 40
0.75
 40
0.875
 40
0.875
 40
1.0
 40
1.0
 40
1.0
 40
1.0
 10
7.088689069698722
 20
12.68776567562626
 30
0.0
 10
7.171237643033287
 20
12.67400096425092
 30
0.0
 10
7.297557869979951
 20
12.64918631620242
 30
0.0
 10
7.567477635241543
 20
12.60357693601719
 30
0.0
 10
7.668483553328938
 20
12.58742697092753
 30
0.0
 10
7.892969233984413
 20
12.55509930771129
 30
0.0
 10
8.01781123610452
 20
12.53876002630947
 30
0.0
 10
8.285647974424085
 20
12.50870143116007
 30
0.0
 10
8.426741407075511
 20
12.49516264440805
 30
0.0
 10
8.72311652578215
 20
12.47254421248198
 30
0.0
 10
8.880151862047006
 20
12.46343271766915
 30
0.0
 10
9.195949486709948
 20
12.45157619084929
 30
0.0
 10
9.355657084199114
 20
12.44869246227364
 30
0.0
 10
9.678740589204136
 20
12.44942503624731
 30
0.0
 10
9.841115218488387
 20
12.45309749019516
 30
0.0
 10
10.0
 20
12.45983467034423
 30
0.0
  0
SPLINE
  5
AE
330
1F
100
AcDbEntity
  8
0
  6
Continuous
 62
     4
370
    15
100
AcDbSpline
210
0.0
220
0.0
230
1.0
 70
     8
 71
     3
 72
    16
 73
    12
 74
     0
 42
0.000000001
 43
0.00000001
 40
0.0
 40
0.0
 40
0.0
 40
0.0
 40
0.2499999999999996
 40
0.2499999999999996
 40
0.3749999999999995
 40
0.3749999999999995
 40
0.4999999999999994
 40
0.4999999999999994
 40
0.7499999999999997
 40
0.7499999999999997
 40
1.0
 40
1.0
 40
1.0
 40
1.0
 10
7.794012053335731
 20
12.15224846255266
 30
0.0
 10
7.615783062310095
 20
12.20396016532632
 30
0.0
 10
7.469155569396641
 20
12.25847038130655
 30
0.0
 10
7.290779584117331
 20
12.33912918516594
 30
0.0
 10
7.238283851113284
 20
12.36592377668816
 30
0.0
 10
7.149113826457983
 20
12.41697150870445
 30
0.0
 10
7.111983153663873
 20
12.44141621056101
 30
0.0
 10
7.020030158728142
 20
12.51081348422713
 30
0.0
 10
6.985176683834062
 20
12.55178748113088
 30
0.0
 10
6.950138878641699
 20
12.61854688534988
 30
0.0
 10
6.949878257436449
 20
12.64478980999619
 30
0.0
 10
6.949878257436447
 20
12.66368464237691
 30
0.0
  0
SPLINE
  5
AF
330
1F
100
AcDbEntity
  8
0
  6
Continuous
 62
     4
370
    15
100
AcDbSpline
210
0.0
220
0.0
230
1.0
 70
     8
 71
     3
 72
    10
 73
     6
 74
     0
 42
0.000000001
 43
0.00000001
 40
0.0
 40
0.0
 40
0.0
 40
0.0
 40
0.5
 40
0.5
 40
1.0
 40
1.0
 40
1.0
 40
1.0
 10
10.0
 20
11.33160463603815
 30
0.0
 10
9.632012609274344
 20
11.49768739689427
 30
0.0
 10
9.266632128723973
 20
11.64915294303435
 30
0.0
 10
8.531502417336974
 20
11.92305740026531
 30
0.0
 10
8.16245543515025
 20
12.0453475900309
 30
0.0
 10
7.794012053335733
 20
12.15224846255266
 30
0.0
  0
SPLINE
  5
B0
330
1F
100
AcDbEntity
  8
0
  6
Continuous
 62
     4
370
    15
100
AcDbSpline
210
0.0
220
0.0
230
1.0
 70
     8
 71
     3
 72
    24
 73
    20
 74
     0
 42
0.000000001
 43
0.00000001
 40
0.0
 40
0.0
 40
0.0
 40
0.0
 40
0.1249999999999999
 40
0.1249999999999999
 40
0.2499999999999998
 40
0.2499999999999998
 40
0.3749999999999998
 40
0.3749999999999998
 40
0.4999999999999997
 40
0.4999999999999997
 40
0.6249999999999996
 40
0.6249999999999996
 40
0.7499999999999996
 40
0.7499999999999996
 40
0.8124999999999997
 40
0.8124999999999997
 40
0.8749999999999999
 40
0.8749999999999999
 40
1.0
 40
1.0
 40
1.0
 40
1.0
 10
6.949878257436445
 20
5.50068742658671
 30
0.0
 10
6.949878257436445
 20
5.703017009133407
 30
0.0
 10
6.949962936362208
 20
5.902433009170764
 30
0.0
 10
6.975411170679523
 20
6.293513489897534
 30
0.0
 10
7.00036857542654
 20
6.485213777316488
 30
0.0
 10
7.091659686408621
 20
6.859810084718311
 30
0.0
 10
7.158362266569764
 20
7.041933178090344
 30
0.0
 10
7.338841351527934
 20
7.379486880864603
 30
0.0
 10
7.455203170403481
 20
7.539085486645941
 30
0.0
 10
7.732071802164519
 20
7.819899651562217
 30
0.0
 10
7.891848410414905
 20
7.942196498254446
 30
0.0
 10
8.25830708386902
 20
8.150301201014702
 30
0.0
 10
8.455648366374653
 20
8.230908916207909
 30
0.0
 10
8.77248967367902
 20
8.319179914646387
 30
0.0
 10
8.882341518412666
 20
8.343121828252302
 30
0.0
 10
9.102527872549754
 20
8.378487432249083
 30
0.0
 10
9.213513503429718
 20
8.390169709195304
 30
0.0
 10
9.549117491428433
 20
8.407588877016044
 30
0.0
 10
9.777942031586583
 20
8.395365917414473
 30
0.0
 10
10.0
 20
8.358740951812544
 30
0.0
  0
SPLINE
  5
B1
330
1F
100
AcDbEntity
  8
0
  6
Continuous
 62
     4
370
    15
100
AcDbSpline
210
0.0
220
0.0
230
1.0
 70
     8
 71
     3
 72
    16
 73
    12
 74
     0
 42
0.000000001
 43
0.00000001
 40
0.0
 40
0.0
 40
0.0
 40
0.0
 40
0.2500000000000007
 40
0.2500000000000007
 40
0.375000000000001
 40
0.375000000000001
 40
0.5000000000000013
 40
0.5000000000000013
 40
0.7500000000000007
 40
0.7500000000000007
 40
1.0
 40
1.0
 40
1.0
 40
1.0
 10
7.794012053335731
 20
2.880871036568569
 30
0.0
 10
7.615783062310095
 20
3.054230095581007
 30
0.0
 10
7.469155569396641
 20
3.24809093512892
 30
0.0
 10
7.290779584117329
 20
3.564582004179419
 30
0.0
 10
7.238283851113282
 20
3.674849867967562
 30
0.0
 10
7.149113826457981
 20
3.897253840649072
 30
0.0
 10
7.11198315366387
 20
4.0100980114722
 30
0.0
 10
7.020030158728138
 20
4.352551153063316
 30
0.0
 10
6.985176683834059
 20
4.586694844128233
 30
0.0
 10
6.950138878641697
 20
5.047082681735738
 30
0.0
 10
6.949878257436447
 20
5.275325203005311
 30
0.0
 10
6.949878257436447
 20
5.50068742658671
 30
0.0
  0
SPLINE
  5
B2
330
1F
100
AcDbEntity
  8
0
  6
Continuous
 62
     4
370
    15
100
AcDbSpline
210
0.0
220
0.0
230
1.0
 70
     8
 71
     3
 72
    10
 73
     6
 74
     0
 42
0.000000001
 43
0.00000001
 40
0.0
 40
0.0
 40
0.0
 40
0.0
 40
0.5
 40
0.5
 40
1.0
 40
1.0
 40
1.0
 40
1.0
 10
10.0
 20
0.6995610553145191
 30
0.0
 10
9.632012609274348
 20
1.066819021787711
 30
0.0
 10
9.266632128723977
 20
1.432331508427444
 30
0.0
 10
8.531502417336974
 20
2.160289993352279
 30
0.0
 10
8.16245543515025
 20
2.522495008049521
 30
0.0
 10
7.794012053335734
 20
2.880871036568571
 30
0.0
  0
SPLINE
  5
B3
330
1F
100
AcDbEntity
  8
0
  6
Continuous
 62
     4
370
    15
100
AcDbSpline
210
0.0
220
0.0
230
1.0
 70
     8
 71
     3
 72
    24
 73
    20
 74
     0
 42
0.000000001
 43
0.00000001
 40
0.0
 40
0.0
 40
0.0
 40
0.0
 40
0.1250000000000001
 40
0.1250000000000001
 40
0.2500000000000001
 40
0.2500000000000001
 40
0.3750000000000002
 40
0.3750000000000002
 40
0.5000000000000002
 40
0.5000000000000002
 40
0.6250000000000002
 40
0.6250000000000002
 40
0.7500000000000003
 40
0.7500000000000003
 40
0.8125000000000002
 40
0.8125000000000002
 40
0.8750000000000001
 40
0.8750000000000001
 40
1.0
 40
1.0
 40
1.0
 40
1.0
 10
6.949878257436447
 20
-7.162997215790155
 30
0.0
 10
6.949878257436445
 20
-6.977631361623168
 30
0.0
 10
6.949962936362216
 20
-6.789200984094814
 30
0.0
 10
6.97541117067953
 20
-6.408269962965591
 30
0.0
 10
7.000368575426547
 20
-6.215740962839119
 30
0.0
 10
7.091659686408626
 20
-5.828123721057177
 30
0.0
 10
7.158362266569764
 20
-5.633672152190293
 30
0.0
 10
7.338841351527934
 20
-5.263267655138109
 30
0.0
 10
7.455203170403479
 20
-5.082714062644932
 30
0.0
 10
7.732071802164517
 20
-4.757672980943033
 30
0.0
 10
7.891848410414902
 20
-4.612152964638167
 30
0.0
 10
8.258307083869019
 20
-4.360518196975314
 30
0.0
 10
8.455648366374648
 20
-4.260769581454905
 30
0.0
 10
8.772489673679017
 20
-4.15076896985764
 30
0.0
 10
8.882341518412664
 20
-4.120733853362082
 30
0.0
 10
9.102527872549754
 20
-4.076264444444949
 30
0.0
 10
9.213513503429716
 20
-4.061508517051309
 30
0.0
 10
9.549117491428433
 20
-4.039506879691821
 30
0.0
 10
9.777942031586583
 20
-4.055052844606055
 30
0.0
 10
10.0
 20
-4.101093718531626
 30
0.0
  0
SPLINE
  5
B4
330
1F
100
AcDbEntity
  8
0
  6
Continuous
 62
     4
370
    15
100
AcDbSpline
210
0.0
220
0.0
230
1.0
 70
     8
 71
     3
 72
    16
 73
    12
 74
     0
 42
0.000000001
 43
0.00000001
 40
0.0
 40
0.0
 40
0.0
 40
0.0
 40
0.2499999999999993
 40
0.2499999999999993
 40
0.3749999999999996
 40
0.3749999999999996
 40
0.4999999999999998
 40
0.4999999999999998
 40
0.7500000000000002
 40
0.7500000000000002
 40
1.0
 40
1.0
 40
1.0
 40
1.0
 10
7.794012053335733
 20
-9.271377425984037
 30
0.0
 10
7.615783062310097
 20
-9.149730069745251
 30
0.0
 10
7.469155569396644
 20
-9.010379446177573
 30
0.0
 10
7.290779584117333
 20
-8.774547180986467
 30
0.0
 10
7.238283851113286
 20
-8.691073908720554
 30
0.0
 10
7.149113826457983
 20
-8.519717668055327
 30
0.0
 10
7.111983153663873
 20
-8.431318199088766
 30
0.0
 10
7.020030158728142
 20
-8.158262331163769
 30
0.0
 10
6.985176683834064
 20
-7.965092637002607
 30
0.0
 10
6.950138878641702
 20
-7.5714642036141
 30
0.0
 10
6.94987825743644
 20
-7.369464606990833
 30
0.0
 10
6.94987825743644
 20
-7.162997215790159
 30
0.0
  0
SPLINE
  5
B5
330
1F
100
AcDbEntity
  8
0
  6
Continuous
 62
     4
370
    15
100
AcDbSpline
210
0.0
220
0.0
230
1.0
 70
     8
 71
     3
 72
    10
 73
     6
 74
     0
 42
0.000000001
 43
0.00000001
 40
0.0
 40
0.0
 40
0.0
 40
0.0
 40
0.5
 40
0.5
 40
1.0
 40
1.0
 40
1.0
 40
1.0
 10
10.0
 20
-10.63204358072358
 30
0.0
 10
9.632012609274348
 20
-10.4308683751065
 30
0.0
 10
9.266632128723977
 20
-10.21682143460685
 30
0.0
 10
8.531502417336974
 20
-9.762767406912984
 30
0.0
 10
8.16245543515025
 20
-9.522852581981326
 30
0.0
 10
7.794012053335734
 20
-9.271377425984035
 30
0.0
  0
SPLINE
  5
B6
330
1F
100
AcDbEntity
  8
0
  6
Continuous
 62
     4
370
    15
100
AcDbSpline
210
0.0
220
0.0
230
1.0
 70
     8
 71
     3
 72
    14
 73
    10
 74
     0
 42
0.000000001
 43
0.00000001
 40
0.0
 40
0.0
 40
0.0
 40
0.0
 40
0.1278056238894915
 40
0.3342696832551178
 40
0.436693377592779
 40
0.5426588576832096
 40
0.7324291842682651
 40
0.9146650406088354
 40
1.0
 40
1.0
 40
1.0
 40
1.0
 10
7.000376964194377
 20
-12.69554669857053
 30
0.0
 10
7.022779258436984
 20
-12.69486942804921
 30
0.0
 10
7.081371420290044
 20
-12.69309805840405
 30
0.0
 10
7.346526346428849
 20
-12.63940536097983
 30
0.0
 10
7.719097942196301
 20
-12.57898795375174
 30
0.0
 10
8.158529663428993
 20
-12.51885324386262
 30
0.0
 10
8.802285032523953
 20
-12.45989486612068
 30
0.0
 10
9.48699327206707
 20
-12.44279316782556
 30
0.0
 10
9.8759515672978
 20
-12.45571392189547
 30
0.0
 10
10.0
 20
-12.45983467034423
 30
0.0
  0
LINE
  5
B7
330
1F
100
AcDbEntity
  8
0
  6
Continuous
 62
     4
370
    15
100
AcDbLine
 10
-65.7
 20
10.79499999999999
 30
0.0
 11
-65.7
 21
-12.7
 31
0.0
  0
LINE
  5
B8
330
1F
100
AcDbEntity
  8
0
  6
Continuous
 62
     1
370
    15
100
AcDbLine
 10
10.0
 20
-10.63204358072364
 30
0.0
 11
10.0
 21
-12.45983467034423
 31
0.0
  0
LINE
  5
B9
330
1F
100
AcDbEntity
  8
0
  6
Continuous
 62
     1
370
    15
100
AcDbLine
 10
10.0
 20
0.6995610553144977
 30
0.0
 11
10.0
 21
-4.101093718531612
 31
0.0
  0
LINE
  5
BA
330
1F
100
AcDbEntity
  8
0
  6
Continuous
 62
     1
370
    15
100
AcDbLine
 10
10.0
 20
11.33160463603819
 30
0.0
 11
10.0
 21
8.358740951812555
 31
0.0
  0
LINE
  5
BB
330
1F
100
AcDbEntity
  8
0
  6
Continuous
 62
     4
370
    15
100
AcDbLine
 10
-66.20000000000002
 20
10.79499999999999
 30
0.0
 11
-66.20000000000002
 21
-12.20000000000001
 31
0.0
  0
SPLINE
  5
BC
330
1F
100
AcDbEntity
  8
0
  6
Continuous
 62
     1
370
    15
100
AcDbSpline
210
0.0
220
0.0
230
1.0
 70
    24
 71
     3
 72
    14
 73
    10
 74
     0
 42
0.000000001
 43
0.00000001
 40
0.0
 40
0.0
 40
0.0
 40
0.0
 40
0.2499999999999998
 40
0.2499999999999998
 40
0.4999999999999999
 40
0.4999999999999999
 40
0.75
 40
0.75
 40
1.0
 40
1.0
 40
1.0
 40
1.0
 10
10.0
 20
4.980250188701405
 30
0.0
 10
10.0
 20
4.574269293222406
 30
0.0
 10
10.0
 20
4.157496862036313
 30
0.0
 10
10.0
 20
3.332461261405396
 30
0.0
 10
10.0
 20
2.924377523880902
 30
0.0
 10
10.0
 20
2.157202480563765
 30
0.0
 10
10.0
 20
1.798499099043654
 30
0.0
 10
10.0
 20
1.172384501295469
 30
0.0
 10
10.0
 20
0.9054081535411463
 30
0.0
 10
10.0
 20
0.6995610553144935
 30
0.0
  0
SPLINE
  5
BD
330
1F
100
AcDbEntity
  8
0
  6
Continuous
 62
     1
370
    15
100
AcDbSpline
210
0.0
220
0.0
230
1.0
 70
    24
 71
     3
 72
    12
 73
     8
 74
     0
 42
0.000000001
 43
0.00000001
 40
0.0
 40
0.0
 40
0.0
 40
0.0
 40
0.4999999999999996
 40
0.4999999999999996
 40
0.7499999999999998
 40
0.7499999999999998
 40
1.0
 40
1.0
 40
1.0
 40
1.0
 10
10.0
 20
8.358740951812594
 30
0.0
 10
10.0
 20
7.840173194589608
 30
0.0
 10
10.0
 20
7.29584783034885
 30
0.0
 10
10.0
 20
6.43231380590574
 30
0.0
 10
10.0
 20
6.137622372602014
 30
0.0
 10
10.0
 20
5.556814252939406
 30
0.0
 10
10.0
 20
5.267662872633627
 30
0.0
 10
10.0
 20
4.980250188701526
 30
0.0
  0
SPLINE
  5
BF
330
1F
100
AcDbEntity
  8
0
  6
Continuous
 62
     1
370
    15
100
AcDbSpline
210
0.0
220
0.0
230
1.0
 70
    24
 71
     3
 72
    12
 73
     8
 74
     0
 42
0.000000001
 43
0.00000001
 40
0.0
 40
0.0
 40
0.0
 40
0.0
 40
0.4999999999999993
 40
0.4999999999999993
 40
0.7499999999999997
 40
0.7499999999999997
 40
1.0
 40
1.0
 40
1.0
 40
1.0
 10
10.0
 20
-4.10109371853163
 30
0.0
 10
10.0
 20
-4.119578455966296
 30
0.0
 10
10.0
 20
-4.217692552099283
 30
0.0
 10
10.0
 20
-4.510305819918088
 30
0.0
 10
10.0
 20
-4.632892873297743
 30
0.0
 10
10.0
 20
-4.927140525577658
 30
0.0
 10
10.0
 20
-5.099373030492683
 30
0.0
 10
10.0
 20
-5.306455924390036
 30
0.0
  0
SPLINE
  5
C0
330
1F
100
AcDbEntity
  8
0
  6
Continuous
 62
     1
370
    15
100
AcDbSpline
210
0.0
220
0.0
230
1.0
 70
    24
 71
     3
 72
    14
 73
    10
 74
     0
 42
0.000000001
 43
0.00000001
 40
0.0
 40
0.0
 40
0.0
 40
0.0
 40
0.25
 40
0.25
 40
0.5
 40
0.5
 40
0.75
 40
0.75
 40
1.0
 40
1.0
 40
1.0
 40
1.0
 10
10.0
 20
-5.306455924390117
 30
0.0
 10
10.0
 20
-5.598968062520724
 30
0.0
 10
10.0
 20
-5.936504850689459
 30
0.0
 10
10.0
 20
-6.700375548644641
 30
0.0
 10
10.0
 20
-7.126860289303095
 30
0.0
 10
10.0
 20
-8.050723910094074
 30
0.0
 10
10.0
 20
-8.548021677699298
 30
0.0
 10
10.0
 20
-9.576869040403016
 30
0.0
 10
10.0
 20
-10.10804673850655
 30
0.0
 10
10.0
 20
-10.63204358072365
 30
0.0
  0
SPLINE
  5
C1
330
1F
100
AcDbEntity
  8
0
  6
Continuous
 62
     1
370
    15
100
AcDbSpline
210
0.0
220
0.0
230
1.0
 70
    24
 71
     3
 72
     9
 73
     5
 74
     0
 42
0.000000001
 43
0.00000001
 40
0.0
 40
0.0
 40
0.0
 40
0.0
 40
0.7502343614323949
 40
1.0
 40
1.0
 40
1.0
 40
1.0
 10
10.0
 20
12.45983467034428
 30
0.0
 10
10.0
 20
12.18514060862864
 30
0.0
 10
10.0
 20
11.81899627315568
 30
0.0
 10
10.0
 20
11.52815344244587
 30
0.0
 10
10.0
 20
11.45551089711083
 30
0.0
  0
SPLINE
  5
C2
330
1F
100
AcDbEntity
  8
0
  6
Continuous
 62
     1
370
    15
100
AcDbSpline
210
0.0
220
0.0
230
1.0
 70
     8
 71
     3
 72
     9
 73
     5
 74
     0
 42
0.000000001
 43
0.00000001
 40
0.0
 40
0.0
 40
0.0
 40
0.0
 40
0.6670461943760748
 40
1.0
 40
1.0
 40
1.0
 40
1.0
 10
10.00000000000002
 20
-12.34556544055947
 30
0.0
 10
10.66881830315264
 20
-12.48561679414546
 30
0.0
 10
11.67147495390861
 20
-12.69557429748896
 30
0.0
 10
12.67441063621409
 20
-12.66917854800485
 30
0.0
 10
13.00834188843374
 20
-12.66038998276182
 30
0.0
  0
SPLINE
  5
C3
330
1F
100
AcDbEntity
  8
0
  6
Continuous
 62
     1
370
    15
100
AcDbSpline
210
0.0
220
0.0
230
1.0
 70
     8
 71
     3
 72
    28
 73
    24
 74
     0
 42
0.000000001
 43
0.00000001
 40
0.0
 40
0.0
 40
0.0
 40
0.0
 40
0.0479105728543969
 40
0.0970300778269087
 40
0.1461532307573447
 40
0.1952843372928569
 40
0.2444276818120798
 40
0.2935746852600821
 40
0.3427086196136664
 40
0.3918334621328956
 40
0.4409535139434606
 40
0.4900730889960743
 40
0.5391965025185627
 40
0.5883280594605953
 40
0.6374720429975957
 40
0.6866185324023268
 40
0.7357519745646005
 40
0.784876514484523
 40
0.8339964540974283
 40
0.8831161076545652
 40
0.932239790173456
 40
0.9813718058838397
 40
1.0
 40
1.0
 40
1.0
 40
1.0
 10
48.42857398839426
 20
11.91425379351463
 30
0.0
 10
49.13719279092638
 20
12.12856568247701
 30
0.0
 10
50.57231104276313
 20
12.56259721302139
 30
0.0
 10
52.73393747406651
 20
12.75686908528646
 30
0.0
 10
54.91370918148296
 20
12.60453038963417
 30
0.0
 10
57.0939923702299
 20
12.07443953976919
 30
0.0
 10
59.27495923515622
 20
11.19124882653979
 30
0.0
 10
61.45611424948687
 20
9.978566476951062
 30
0.0
 10
63.63656595002159
 20
8.472543907902454
 30
0.0
 10
65.81645254016722
 20
6.717562981903897
 30
0.0
 10
67.9960110647071
 20
4.765215709239175
 30
0.0
 10
70.17553902544314
 20
2.672808834322189
 30
0.0
 10
72.35532697764052
 20
0.5017583383653805
 30
0.0
 10
74.53563782281422
 20
-1.684246047029987
 30
0.0
 10
76.71663774571678
 20
-3.820716965332804
 30
0.0
 10
78.8977664331991
 20
-5.844822968550322
 30
0.0
 10
81.07818945852787
 20
-7.697070502629163
 30
0.0
 10
83.25805525501747
 20
-9.323304909635945
 30
0.0
 10
85.43760730640886
 20
-10.67369407871451
 30
0.0
 10
87.617137162551
 20
-11.71678019251138
 30
0.0
 10
89.79695534829045
 20
-12.3914550684284
 30
0.0
 10
91.52586200685799
 20
-12.70876996440968
 30
0.0
 10
92.52832842748302
 20
-12.66735731280724
 30
0.0
 10
92.80391994536849
 20
-12.65597241723371
 30
0.0
  0
LINE
  5
C4
330
1F
100
AcDbEntity
  8
0
  6
Continuous
 62
     1
370
    15
100
AcDbLine
 10
10.0
 20
-12.34556544055942
 30
0.0
 11
10.0
 21
-10.63204358072363
 31
0.0
  0
SPLINE
  5
C5
330
1F
100
AcDbEntity
  8
0
  6
Continuous
 62
     1
370
    15
100
AcDbSpline
210
0.0
220
0.0
230
1.0
 70
     8
 71
     3
 72
    28
 73
    24
 74
     0
 42
0.000000001
 43
0.00000001
 40
0.0
 40
0.0
 40
0.0
 40
0.0
 40
0.014399475365959
 40
0.069910102619117
 40
0.1190453581213984
 40
0.1681935729809768
 40
0.2173405015579208
 40
0.2664748144035525
 40
0.3156007936680784
 40
0.3647227437824792
 40
0.4138449799660223
 40
0.4629718166716667
 40
0.5121075560358811
 40
0.5612563432525685
 40
0.6104026244843646
 40
0.6595364785401959
 40
0.7086621887957427
 40
0.7577840604019495
 40
0.806906408788398
 40
0.8560335481074973
 40
0.9051697796860345
 40
0.9543190809700266
 40
1.0
 40
1.0
 40
1.0
 40
1.0
 10
101.6226057027107
 20
-11.87716009706715
 30
0.0
 10
101.4095852122425
 20
-11.96334673197826
 30
0.0
 10
100.3753611193417
 20
-12.38178673329083
 30
0.0
 10
98.61409826476817
 20
-12.66687317245016
 30
0.0
 10
96.33945367553942
 20
-12.74157138119102
 30
0.0
 10
94.15830826905375
 20
-12.40953041986767
 30
0.0
 10
91.9772872475817
 20
-11.72041572396444
 30
0.0
 10
89.79694556573544
 20
-10.6846005663479
 30
0.0
 10
87.61713978335086
 20
-9.335342036525054
 30
0.0
 10
85.4376066041879
 20
-7.711585559765864
 30
0.0
 10
83.25805544320356
 20
-5.861191528132251
 30
0.0
 10
81.07818940806298
 20
-3.838414918971511
 30
0.0
 10
78.897766446834
 20
-1.702574383698709
 30
0.0
 10
76.71663774166059
 20
0.4832009353836778
 30
0.0
 10
74.5356378254026
 20
2.654838001778106
 30
0.0
 10
72.3553269713443
 20
4.748433470564303
 30
0.0
 10
70.17553904803572
 20
6.702201907204541
 30
0.0
 10
67.99601098063827
 20
8.459058110852745
 30
0.0
 10
65.81645285386894
 20
9.966669426547266
 30
0.0
 10
63.63656477906962
 20
11.18365367804331
 30
0.0
 10
61.45611862091199
 20
12.06344385225066
 30
0.0
 10
59.32620188512162
 20
12.60716249376247
 30
0.0
 10
57.92338440138757
 20
12.66155599533742
 30
0.0
 10
57.24762943977171
 20
12.68775803444452
 30
0.0
  0
SPLINE
  5
C6
330
1F
100
AcDbEntity
  8
0
  6
Continuous
 62
     1
370
    15
100
AcDbSpline
210
0.0
220
0.0
230
1.0
 70
     8
 71
     3
 72
    13
 73
     9
 74
     0
 42
0.000000001
 43
0.00000001
 40
0.0
 40
0.0
 40
0.0
 40
0.0
 40
0.1519146510828549
 40
0.3214794839552744
 40
0.4910364248901737
 40
0.6606463738785882
 40
0.8303546966800107
 40
1.0
 40
1.0
 40
1.0
 40
1.0
 10
21.82726254526693
 20
-11.89304837000864
 30
0.0
 10
21.22826950298358
 20
-12.08748309814779
 30
0.0
 10
19.96068949833329
 20
-12.49894292522571
 30
0.0
 10
18.02528347734328
 20
-12.72910588986904
 30
0.0
 10
16.02005109801427
 20
-12.68529661404681
 30
0.0
 10
14.01405928471336
 20
-12.31155068443196
 30
0.0
 10
12.00669165401338
 20
-11.65285319268278
 30
0.0
 10
10.66881440141416
 20
-10.97227132234739
 30
0.0
 10
10.00000000000002
 20
-10.63204358072359
 30
0.0
  0
SPLINE
  5
C7
330
1F
100
AcDbEntity
  8
0
  6
Continuous
 62
     1
370
    15
100
AcDbSpline
210
0.0
220
0.0
230
1.0
 70
     8
 71
     3
 72
    28
 73
    24
 74
     0
 42
0.000000001
 43
0.00000001
 40
0.0
 40
0.0
 40
0.0
 40
0.0
 40
0.0467667939931269
 40
0.0935509608167902
 40
0.1403080085410312
 40
0.1870504433248006
 40
0.2337950537103056
 40
0.2846077861818788
 40
0.3354327853985329
 40
0.3862637473239376
 40
0.4370813541590992
 40
0.4878891657820049
 40
0.538691628869374
 40
0.589493204414783
 40
0.6402983557892717
 40
0.6911115367882544
 40
0.7419371797335678
 40
0.7927677305877633
 40
0.8435848111081212
 40
0.8943922924017791
 40
0.945194622029163
 40
0.9959962613413192
 40
1.0
 40
1.0
 40
1.0
 40
1.0
 10
10.00000000000002
 20
12.34556544055947
 30
0.0
 10
10.66881442980227
 20
12.47274351801761
 30
0.0
 10
12.0066917391883
 20
12.72714691677936
 30
0.0
 10
14.01405894394818
 20
12.70933182431943
 30
0.0
 10
16.02005237487206
 20
12.39713126877903
 30
0.0
 10
18.02527871188462
 20
11.77035727032179
 30
0.0
 10
20.0884399380486
 20
10.82566303727552
 30
0.0
 10
22.21073544240198
 20
9.555519209533264
 30
0.0
 10
24.39159933440986
 20
7.969738481730287
 30
0.0
 10
26.57280808894149
 20
6.149732898281353
 30
0.0
 10
28.75331532176771
 20
4.148758632180471
 30
0.0
 10
30.93324490293901
 20
2.026025730945796
 30
0.0
 10
33.11281967348967
 20
-0.1561543552392716
 30
0.0
 10
35.29233932644738
 20
-2.333728287605517
 30
0.0
 10
37.47209167236437
 20
-4.442762535163147
 30
0.0
 10
39.65234856282554
 20
-6.421418437203795
 30
0.0
 10
41.83328240647121
 20
-8.21110760686622
 30
0.0
 10
44.01446063289913
 20
-9.760060899179166
 30
0.0
 10
46.19494198588374
 20
-11.01928452499886
 30
0.0
 10
48.37484698161786
 20
-11.96517349214493
 30
0.0
 10
50.55442291913728
 20
-12.51917801717009
 30
0.0
 10
52.06463663173761
 20
-12.75185841363893
 30
0.0
 10
52.84841468591364
 20
-12.69089632455751
 30
0.0
 10
52.90567261591094
 20
-12.68644281503334
 30
0.0
  0
SPLINE
  5
C8
330
1F
100
AcDbEntity
  8
0
  6
Continuous
 62
     1
370
    15
100
AcDbSpline
210
0.0
220
0.0
230
1.0
 70
     8
 71
     3
 72
    17
 73
    13
 74
     0
 42
0.000000001
 43
0.00000001
 40
0.0
 40
0.0
 40
0.0
 40
0.0
 40
0.0712383335967321
 40
0.1768518468415163
 40
0.2824924774230229
 40
0.388135872850931
 40
0.493751412322903
 40
0.5949855960007764
 40
0.6962084853219068
 40
0.797439866980599
 40
0.8986994903177239
 40
1.0
 40
1.0
 40
1.0
 40
1.0
 10
88.32631476319331
 20
11.87994977735307
 30
0.0
 10
88.81648748655
 20
12.04918012841595
 30
0.0
 10
90.03335973805008
 20
12.46930085016854
 30
0.0
 10
91.97728657923578
 20
12.72708521792743
 30
0.0
 10
94.1583208182154
 20
12.69236936068927
 30
0.0
 10
96.33940415233423
 20
12.27099775383295
 30
0.0
 10
98.48984026141015
 20
11.50317113750398
 30
0.0
 10
100.6094155297702
 20
10.42337873887468
 30
0.0
 10
102.6987371882018
 20
9.077984207470031
 30
0.0
 10
104.7883192561217
 20
7.485230777024386
 30
0.0
 10
106.8787107649082
 20
5.697208442465517
 30
0.0
 10
108.2729042198243
 20
4.38466527483409
 30
0.0
 10
108.9701416548193
 20
3.728261223952478
 30
0.0
  0
SPLINE
  5
C9
330
1F
100
AcDbEntity
  8
0
  6
Continuous
 62
     1
370
    15
100
AcDbSpline
210
0.0
220
0.0
230
1.0
 70
     8
 71
     3
 72
    13
 73
     9
 74
     0
 42
0.000000001
 43
0.00000001
 40
0.0
 40
0.0
 40
0.0
 40
0.0
 40
0.179943673632413
 40
0.3598875570892803
 40
0.5398316625859994
 40
0.719776002332397
 40
0.899720588532434
 40
0.9999999999999999
 40
0.9999999999999999
 40
0.9999999999999999
 40
0.9999999999999999
 10
110.838
 20
6.008329551246362
 30
0.0
 10
110.0167971837793
 20
6.71006339628349
 30
0.0
 10
108.3743905937693
 20
8.113531904618917
 30
0.0
 10
105.9107809453682
 20
9.852749516264828
 30
0.0
 10
103.4471527170623
 20
11.24345517081707
 30
0.0
 10
100.9835725862134
 20
12.1896282451192
 30
0.0
 10
98.88338007965284
 20
12.66598985981101
 30
0.0
 10
97.60474476465775
 20
12.65891864122125
 30
0.0
 10
97.1471793957508
 20
12.65638817400772
 30
0.0
  0
SPLINE
  5
CA
330
1F
100
AcDbEntity
  8
0
  6
Continuous
 62
     1
370
    15
100
AcDbSpline
210
0.0
220
0.0
230
1.0
 70
     8
 71
     3
 72
    29
 73
    25
 74
     0
 42
0.000000001
 43
0.00000001
 40
0.0
 40
0.0
 40
0.0
 40
0.0
 40
0.0061399412226519
 40
0.0552846185900114
 40
0.1044256372017652
 40
0.1535544184090202
 40
0.2026752463876356
 40
0.2517924265809809
 40
0.3009102742003761
 40
0.350033102669289
 40
0.3991652120778311
 40
0.4483103451766194
 40
0.4974507331008773
 40
0.5465790722867131
 40
0.5956996480909245
 40
0.6448167666318737
 40
0.6939347432860445
 40
0.7430578911312886
 40
0.7921905094033126
 40
0.8413360399431857
 40
0.8904758054832654
 40
0.9396037110137728
 40
0.984798383517641
 40
1.0
 40
1.0
 40
1.0
 40
1.0
 10
61.72872356553654
 20
-11.8992873579036
 30
0.0
 10
61.63789514670465
 20
-11.93675918110812
 30
0.0
 10
60.82006736787693
 20
-12.27415906469196
 30
0.0
 10
59.27493851306549
 20
-12.57899251095987
 30
0.0
 10
57.09399801879277
 20
-12.76734119008544
 30
0.0
 10
54.91370730359947
 20
-12.54605564848449
 30
0.0
 10
52.73393933828437
 20
-11.96514760286007
 30
0.0
 10
50.55441531938173
 20
-11.03010282191143
 30
0.0
 10
48.37484901819394
 20
-9.771492682765246
 30
0.0
 10
46.19494144005064
 20
-8.22540895320498
 30
0.0
 10
44.01446077921278
 20
-6.437362542165429
 30
0.0
 10
41.833282367256
 20
-4.460186243065357
 30
0.0
 10
39.65234857336758
 20
-2.351760532400892
 30
0.0
 10
37.47209166940021
 20
-0.1742376328353565
 30
0.0
 10
35.29233932776476
 20
2.00822397117888
 30
0.0
 10
33.11281967118403
 20
4.131572840211227
 30
0.0
 10
30.93324491084479
 20
6.13353277315463
 30
0.0
 10
28.75331529244458
 20
7.955164617911874
 30
0.0
 10
26.57280819836188
 20
9.543567244779101
 30
0.0
 10
24.39159892596438
 20
10.8494721336988
 30
0.0
 10
22.21073696636905
 20
11.84311636869465
 30
0.0
 10
20.08843444443414
 20
12.44722944319509
 30
0.0
 10
18.46880081910706
 20
12.71294843077184
 30
0.0
 10
17.57561718331216
 20
12.67437744802789
 30
0.0
 10
17.35080477666297
 20
12.6646692143456
 30
0.0
  0
ELLIPSE
  5
CC
330
1F
100
AcDbEntity
  8
0
  6
Continuous
 62
     1
370
    15
100
AcDbEllipse
 10
113.0281480067421
 20
0.0000000000000096
 30
0.0
 11
17.89316233288198
 21
11.88911657764827
 31
0.0
210
0.0
220
0.0
230
1.0
 40
0.2495534463455927
 41
1.527523584901795
 42
1.632121501101091
  0
SPLINE
  5
CF
330
1F
100
AcDbEntity
  8
0
  6
Continuous
 62
     1
370
    15
100
AcDbSpline
210
0.0
220
0.0
230
1.0
 70
     8
 71
     3
 72
    29
 73
    25
 74
     0
 42
0.000000001
 43
0.00000001
 40
0.0
 40
0.0
 40
0.0
 40
0.0
 40
0.0110761037813842
 40
0.0602065053654397
 40
0.1093287637214484
 40
0.1584471836978461
 40
0.2075660804209837
 40
0.2566897677401292
 40
0.3058225466798299
 40
0.3549683944066211
 40
0.404110583290675
 40
0.4532405344788014
 40
0.5023625322488856
 40
0.5514808821468291
 40
0.600599899486717
 40
0.6497238977947394
 40
0.6988571772634127
 40
0.7480034807324858
 40
0.7971450389140241
 40
0.8462745480702049
 40
0.8953962936598794
 40
0.9445145819039586
 40
0.9936337282816952
 40
1.0
 40
1.0
 40
1.0
 40
1.0
 10
75.02710252923063
 20
-11.88782779027445
 30
0.0
 10
74.86323719355613
 20
-11.95367616332496
 30
0.0
 10
73.97251249412913
 20
-12.31160892593
 30
0.0
 10
72.35534005920964
 20
-12.61531288880566
 30
0.0
 10
70.17553552083594
 20
-12.76189429506575
 30
0.0
 10
67.99601200360443
 20
-12.50441086148691
 30
0.0
 10
65.81645228906756
 20
-11.88712781359839
 30
0.0
 10
63.6365660154392
 20
-10.91831288263093
 30
0.0
 10
61.45611423897161
 20
-9.628933634625664
 30
0.0
 10
59.27495921176772
 20
-8.05640023347863
 30
0.0
 10
57.09399247427754
 20
-6.246967139949636
 30
0.0
 10
54.91370878881189
 20
-4.253870458919134
 30
0.0
 10
52.73393894044089
 20
-2.135902118960832
 30
0.0
 10
50.55441542576655
 20
0.0447722980726267
 30
0.0
 10
48.374848990487
 20
2.224150055543339
 30
0.0
 10
46.19494144448301
 20
4.338237372995276
 30
0.0
 10
44.01446078920007
 20
6.325048669422009
 30
0.0
 10
41.83328232286142
 20
8.125555467224563
 30
0.0
 10
39.65234874091871
 20
9.687976015381494
 30
0.0
 10
37.47209104379156
 20
10.96287770856363
 30
0.0
 10
35.29234166224406
 20
11.9252425118931
 30
0.0
 10
33.11281095931933
 20
12.50031463668772
 30
0.0
 10
31.56568436722283
 20
12.74502421870879
 30
0.0
 10
30.74496680142859
 20
12.68573046259424
 30
0.0
 10
30.65079951915655
 20
12.67892723076186
 30
0.0
  0
SPLINE
  5
D0
330
1F
100
AcDbEntity
  8
0
  6
Continuous
 62
     1
370
    15
100
AcDbSpline
210
0.0
220
0.0
230
1.0
 70
     8
 71
     3
 72
    29
 73
    25
 74
     0
 42
0.000000001
 43
0.00000001
 40
0.0
 40
0.0
 40
0.0
 40
0.0
 40
0.0037160049821166
 40
0.05283703094403
 40
0.1019658203587147
 40
0.1511066586222402
 40
0.200252242103782
 40
0.2493848017757248
 40
0.298508080422984
 40
0.3476263781750795
 40
0.3967440084950088
 40
0.4458652866336376
 40
0.4949945180737921
 40
0.544135987030593
 40
0.5932811147765299
 40
0.6424131739268325
 40
0.6915361415897711
 40
0.7406543187268835
 40
0.7897720191242401
 40
0.8388935578449759
 40
0.8880232396744611
 40
0.9371653476246512
 40
0.9863099613469354
 40
1.0
 40
1.0
 40
1.0
 40
1.0
 10
35.12741279869812
 20
11.90620663762618
 30
0.0
 10
35.18237562721761
 20
11.92915115615426
 30
0.0
 10
35.96387960399697
 20
12.25539405445455
 30
0.0
 10
37.47209474636061
 20
12.55948796277825
 30
0.0
 10
39.65234774848371
 20
12.7686939129073
 30
0.0
 10
41.8332825888421
 20
12.56524463920166
 30
0.0
 10
44.01446071794889
 20
12.00237410761028
 30
0.0
 10
46.19494146356679
 20
11.08388568521537
 30
0.0
 10
48.37484898538122
 20
9.840357224267231
 30
0.0
 10
50.55441542710949
 20
8.307447436761745
 30
0.0
 10
52.73393894017457
 20
6.530414312346283
 30
0.0
 10
54.91370878853414
 20
4.561343960665406
 30
0.0
 10
57.09399247565537
 20
2.458001401984225
 30
0.0
 10
59.27495920653261
 20
0.2823644978881001
 30
0.0
 10
61.45611425853299
 20
-1.90147427021508
 30
0.0
 10
63.6365659424561
 20
-4.029546149466704
 30
0.0
 10
65.81645256138103
 20
-6.038967655841367
 30
0.0
 10
67.99601098742396
 20
-7.870641661708886
 30
0.0
 10
70.17553931337162
 20
-9.471507135994838
 30
0.0
 10
72.35532590304251
 20
-10.79197405704207
 30
0.0
 10
74.53564183439092
 20
-11.80291327718857
 30
0.0
 10
76.71662276986558
 20
-12.4383235335131
 30
0.0
 10
78.373429815388
 20
-12.72397891855354
 30
0.0
 10
79.30292541683595
 20
-12.67343249015669
 30
0.0
 10
79.50543836519545
 20
-12.66241973632791
 30
0.0
  0
SPLINE
  5
D2
330
1F
100
AcDbEntity
  8
0
  6
Continuous
 62
     1
370
    15
100
AcDbSpline
210
0.0
220
0.0
230
1.0
 70
     8
 71
     3
 72
    25
 73
    21
 74
     0
 42
0.000000001
 43
0.00000001
 40
0.0
 40
0.0
 40
0.0
 40
0.0
 40
0.0611393683366786
 40
0.122278807965303
 40
0.1834183230362922
 40
0.2445579176981728
 40
0.3056975960974783
 40
0.359815408634109
 40
0.4139474946707272
 40
0.4680781639893131
 40
0.5221949382792647
 40
0.5763025339219204
 40
0.6304056918387737
 40
0.68450916483359
 40
0.7386177048661191
 40
0.7927360503306672
 40
0.8468687667642255
 40
0.9009987230936758
 40
0.9551149920702804
 40
1.0
 40
1.0
 40
1.0
 40
1.0
 10
110.838
 20
-12.69397808665836
 30
0.0
 10
110.0167971677545
 20
-12.67315422120851
 30
0.0
 10
108.3743905456948
 20
-12.63150646602701
 30
0.0
 10
105.9107811376662
 20
-11.96759646188585
 30
0.0
 10
103.4471519959434
 20
-10.88892038265351
 30
0.0
 10
100.983575278396
 20
-9.39265238358816
 30
0.0
 10
98.6141028596244
 20
-7.6169960640035
 30
0.0
 10
96.33945250801622
 20
-5.665465266934431
 30
0.0
 10
94.1583085819066
 20
-3.628546550742281
 30
0.0
 10
91.97728716382451
 20
-1.484888323699473
 30
0.0
 10
89.79694558799585
 20
0.70245745328843
 30
0.0
 10
87.61713977804257
 20
2.868941688132201
 30
0.0
 10
85.43760660316457
 20
4.95102669224045
 30
0.0
 10
83.25805545260539
 20
6.887534668098604
 30
0.0
 10
81.07818937147226
 20
8.621869990229053
 30
0.0
 10
78.89776658383579
 20
10.10213244022687
 30
0.0
 10
76.71663723011861
 20
11.28813269642363
 30
0.0
 10
74.53563973420192
 20
12.13171901209924
 30
0.0
 10
72.4791702279269
 20
12.62816118479664
 30
0.0
 10
71.14975086334057
 20
12.65941251286268
 30
0.0
 10
70.54702127655109
 20
12.67358117969095
 30
0.0
  0
SPLINE
  5
D3
330
1F
100
AcDbEntity
  8
0
  6
Continuous
 62
     1
370
    15
100
AcDbSpline
210
0.0
220
0.0
230
1.0
 70
     8
 71
     3
 72
    19
 73
    15
 74
     0
 42
0.000000001
 43
0.00000001
 40
0.0
 40
0.0
 40
0.0
 40
0.0
 40
0.0801813077866477
 40
0.1669267715249977
 40
0.2536813679149407
 40
0.3404526896795586
 40
0.4272468153285948
 40
0.5140307596221558
 40
0.6007937583861908
 40
0.6806104180269948
 40
0.7604233628167871
 40
0.8402612592766512
 40
0.9201454617365122
 40
1.0
 40
1.0
 40
1.0
 40
1.0
 10
35.12741279869822
 20
-11.90620663762618
 30
0.0
 10
34.45588483117383
 20
-12.11429947194051
 30
0.0
 10
33.05785331108609
 20
-12.54752095420924
 30
0.0
 10
30.93324586124605
 20
-12.75429387190889
 30
0.0
 10
28.75331506492547
 20
-12.62174032249927
 30
0.0
 10
26.57280815778919
 20
-12.10996120325083
 30
0.0
 10
24.39159931595871
 20
-11.24436449491914
 30
0.0
 10
22.21073544735811
 20
-10.04753440000389
 30
0.0
 10
20.08843993683858
 20
-8.595192602404401
 30
0.0
 10
18.02527871219734
 20
-6.954208404225553
 30
0.0
 10
16.02005237478831
 20
-5.186064000541147
 30
0.0
 10
14.01405894397057
 20
-3.288809404262558
 30
0.0
 10
12.00669173918274
 20
-1.309055722862477
 30
0.0
 10
10.66881442980043
 20
0.0301050252961063
 30
0.0
 10
10.00000000000002
 20
0.6995610553144991
 30
0.0
  0
SPLINE
  5
D4
330
1F
100
AcDbEntity
  8
0
  6
Continuous
 62
     1
370
    15
100
AcDbSpline
210
0.0
220
0.0
230
1.0
 70
    24
 71
     3
 72
    20
 73
    16
 74
     0
 42
0.000000001
 43
0.00000001
 40
0.0
 40
0.0
 40
0.0
 40
0.0
 40
0.2500000000000002
 40
0.2500000000000002
 40
0.3750000000000002
 40
0.3750000000000002
 40
0.5000000000000002
 40
0.5000000000000002
 40
0.6250000000000002
 40
0.6250000000000002
 40
0.7500000000000002
 40
0.7500000000000002
 40
0.8750000000000001
 40
0.8750000000000001
 40
1.0
 40
1.0
 40
1.0
 40
1.0
 10
10.0
 20
8.753046362748709
 30
0.0
 10
10.0
 20
8.262764661149854
 30
0.0
 10
10.0
 20
7.688551473294576
 30
0.0
 10
10.0
 20
6.696633057823512
 30
0.0
 10
10.0
 20
6.344639496606644
 30
0.0
 10
10.0
 20
5.605985995630612
 30
0.0
 10
10.0
 20
5.219243497467516
 30
0.0
 10
10.0
 20
4.428554953147768
 30
0.0
 10
10.0
 20
4.024615001580171
 30
0.0
 10
10.0
 20
3.228065969735804
 30
0.0
 10
10.0
 20
2.835627746053807
 30
0.0
 10
10.0
 20
2.099297465865468
 30
0.0
 10
10.0
 20
1.755743970836323
 30
0.0
 10
10.0
 20
1.155322365543286
 30
0.0
 10
10.0
 20
0.8988221106026832
 30
0.0
 10
10.0
 20
0.6995610553144975
 30
0.0
  0
SPLINE
  5
D5
330
1F
100
AcDbEntity
  8
0
  6
Continuous
 62
     1
370
    15
100
AcDbSpline
210
0.0
220
0.0
230
1.0
 70
     8
 71
     3
 72
    21
 73
    17
 74
     0
 42
0.000000001
 43
0.00000001
 40
0.0
 40
0.0
 40
0.0
 40
0.0
 40
0.067773639894883
 40
0.135572456199355
 40
0.2033319719676646
 40
0.2710703109119765
 40
0.3388118027012024
 40
0.4124487476050918
 40
0.4861034692666507
 40
0.559766831983992
 40
0.6334108407324247
 40
0.7070406544263872
 40
0.7806627171139099
 40
0.8542834935907676
 40
0.9279094520981149
 40
1.0
 40
1.0
 40
1.0
 40
1.0
 10
10.00000000000002
 20
8.75304636274882
 30
0.0
 10
10.66881442980174
 20
8.24740108306171
 30
0.0
 10
12.00669173918668
 20
7.235922687639608
 30
0.0
 10
14.01405894395467
 20
5.480967675238335
 30
0.0
 10
16.02005237484773
 20
3.60462333611488
 30
0.0
 10
18.02527871197542
 20
1.634622875997023
 30
0.0
 10
20.08843993769723
 20
-0.432946196395775
 30
0.0
 10
22.21073544384116
 20
-2.548951544090947
 30
0.0
 10
24.39159932905195
 20
-4.647885595321919
 30
0.0
 10
26.57280810893373
 20
-6.610017523433934
 30
0.0
 10
28.75331524718494
 20
-8.378108689023653
 30
0.0
 10
30.93324518121565
 20
-9.89915986673853
 30
0.0
 10
33.11281863506927
 20
-11.13118426476577
 30
0.0
 10
35.2923432019405
 20
-12.02844961014966
 30
0.0
 10
37.45681061467009
 20
-12.59639255141556
 30
0.0
 10
38.89493371193014
 20
-12.66313854056428
 30
0.0
 10
39.60641852985921
 20
-12.69615988486189
 30
0.0
  0
SPLINE
  5
D6
330
1F
100
AcDbEntity
  8
0
  6
Continuous
 62
     1
370
    15
100
AcDbSpline
210
0.0
220
0.0
230
1.0
 70
     8
 71
     3
 72
    23
 73
    19
 74
     0
 42
0.000000001
 43
0.00000001
 40
0.0
 40
0.0
 40
0.0
 40
0.0
 40
0.0497680570350803
 40
0.1140201782209688
 40
0.1782552419727725
 40
0.2424786672950303
 40
0.3066960783630137
 40
0.3709131154533211
 40
0.4351354198443453
 40
0.4993686187109698
 40
0.5636183101004629
 40
0.6278696830449322
 40
0.6921041142449003
 40
0.7536738438420014
 40
0.8152367043118439
 40
0.8768047297458157
 40
0.9383899315172779
 40
1.0
 40
1.0
 40
1.0
 40
1.0
 10
75.02710252923073
 20
11.88782779027447
 30
0.0
 10
75.59026682279206
 20
12.07432629967867
 30
0.0
 10
76.88049386690365
 20
12.50160022892253
 30
0.0
 10
78.89777179691502
 20
12.74093778391569
 30
0.0
 10
81.07818797953462
 20
12.66674117187327
 30
0.0
 10
83.25805580883339
 20
12.20902248323509
 30
0.0
 10
85.43760656993705
 20
11.39543914644119
 30
0.0
 10
87.61713955473573
 20
10.2461046629942
 30
0.0
 10
89.79694651460787
 20
8.795755851783131
 30
0.0
 10
91.97728367969206
 20
7.086615389890591
 30
0.0
 10
94.15832159533828
 20
5.16915079824493
 30
0.0
 10
96.33940394386977
 20
3.099772399230177
 30
0.0
 10
98.48984031468845
 20
0.9687975887219809
 30
0.0
 10
100.6094155157529
 20
-1.15807289038564
 30
0.0
 10
102.6987371919565
 20
-3.224765922639757
 30
0.0
 10
104.7883192551202
 20
-5.199891322167431
 30
0.0
 10
106.8787107651588
 20
-7.051499157416107
 30
0.0
 10
108.2729042199078
 20
-8.116955477403593
 30
0.0
 10
108.9701416548193
 20
-8.649791167477892
 30
0.0
  0
SPLINE
  5
D7
330
1F
100
AcDbEntity
  8
0
  6
Continuous
 62
     1
370
    15
100
AcDbSpline
210
0.0
220
0.0
230
1.0
 70
     8
 71
     3
 72
    10
 73
     6
 74
     0
 42
0.000000001
 43
0.00000001
 40
0.0
 40
0.0
 40
0.0
 40
0.0
 40
0.3562696300910841
 40
0.6747965670591672
 40
1.0
 40
1.0
 40
1.0
 40
1.0
 10
108.1630747274836
 20
-8.016671760964082
 30
0.0
 10
108.0823947085188
 20
-8.011736424970993
 30
0.0
 10
107.9295817959677
 20
-8.002388595394365
 30
0.0
 10
107.6590651744667
 20
-8.043303480162846
 30
0.0
 10
107.4663133799725
 20
-8.100801396329434
 30
0.0
 10
107.3689379131542
 20
-8.129848526305555
 30
0.0
  0
SPLINE
  5
D8
330
1F
100
AcDbEntity
  8
0
  6
Continuous
 62
     1
370
    15
100
AcDbSpline
210
0.0
220
0.0
230
1.0
 70
     8
 71
     3
 72
     8
 73
     4
 74
     0
 42
0.000000001
 43
0.00000001
 40
0.0
 40
0.0
 40
0.0
 40
0.0
 40
1.0
 40
1.0
 40
1.0
 40
1.0
 10
111.6
 20
-9.634418102955623
 30
0.0
 10
110.1840103951249
 20
-9.250626847391569
 30
0.0
 10
108.7730321669504
 20
-8.752102375699984
 30
0.0
 10
107.3689379131542
 20
-8.129848526305555
 30
0.0
  0
LINE
  5
D9
330
1F
100
AcDbEntity
  8
0
  6
Continuous
 62
     1
370
    15
100
AcDbLine
 10
111.6
 20
-11.92098701066345
 30
0.0
 11
111.6
 21
-9.634418102955626
 31
0.0
  0
SPLINE
  5
DA
330
1F
100
AcDbEntity
  8
0
  6
Continuous
 62
     1
370
    15
100
AcDbSpline
210
0.0
220
0.0
230
1.0
 70
     8
 71
     3
 72
    15
 73
    11
 74
     0
 42
0.000000001
 43
0.00000001
 40
0.0
 40
0.0
 40
0.0
 40
0.0
 40
0.1230372865124589
 40
0.2461202786580335
 40
0.3691319240184067
 40
0.4921051246535788
 40
0.6150840490108885
 40
0.7487656677360183
 40
0.8824795586547329
 40
0.9999999999999999
 40
0.9999999999999999
 40
0.9999999999999999
 40
0.9999999999999999
 10
10.00000000000002
 20
-3.592519077810588
 30
0.0
 10
10.66881443167861
 20
-4.225344677744001
 30
0.0
 10
12.006691744818
 20
-5.491230958337298
 30
0.0
 10
14.0140589214251
 20
-7.228337227128891
 30
0.0
 10
16.02005245926678
 20
-8.792608810077082
 30
0.0
 10
18.02527839690866
 20
-10.13535790202573
 30
0.0
 10
20.08844115690052
 20
-11.26006613329532
 30
0.0
 10
22.21073045018268
 20
-12.09850352959714
 30
0.0
 10
24.30349004120546
 20
-12.61796447908822
 30
0.0
 10
25.66952881641754
 20
-12.66029287793838
 30
0.0
 10
26.30852380691504
 20
-12.68009292703789
 30
0.0
  0
SPLINE
  5
DB
330
1F
100
AcDbEntity
  8
0
  6
Continuous
 62
     1
370
    15
100
AcDbSpline
210
0.0
220
0.0
230
1.0
 70
     8
 71
     3
 72
    28
 73
    24
 74
     0
 42
0.000000001
 43
0.00000001
 40
0.0
 40
0.0
 40
0.0
 40
0.0
 40
0.042993536370474
 40
0.0921181890467517
 40
0.1412380510328788
 40
0.1903574362628971
 40
0.2394806599479564
 40
0.2886120270210896
 40
0.337755820641168
 40
0.3869021201192933
 40
0.436035372405382
 40
0.4851597224835225
 40
0.5342794722724235
 40
0.5833989360066616
 40
0.6325224286870837
 40
0.6816542545267951
 40
0.730798695459255
 40
0.7799444226092422
 40
0.8290771910578892
 40
0.8761717353891493
 40
0.9232610255407936
 40
0.9703542663616016
 40
1.0
 40
1.0
 40
1.0
 40
1.0
 10
61.72872356553654
 20
11.89928735790362
 30
0.0
 10
62.36471944489784
 20
12.10083626895061
 30
0.0
 10
63.72740773699644
 20
12.53267608156821
 30
0.0
 10
65.81644650041109
 20
12.75085491184812
 30
0.0
 10
67.99601268295017
 20
12.637463241647
 30
0.0
 10
70.17553859186127
 20
12.14356785958696
 30
0.0
 10
72.35532709362512
 20
11.29511907320067
 30
0.0
 10
74.5356377925376
 20
10.11386738041393
 30
0.0
 10
76.71663775079853
 20
8.635424178804175
 30
0.0
 10
78.89776644315373
 20
6.903103238040602
 30
0.0
 10
81.07818941364638
 20
4.967726821979834
 30
0.0
 10
83.25805542455313
 20
2.886506555518458
 30
0.0
 10
85.4376066732005
 20
0.7205327462361895
 30
0.0
 10
87.61713952594081
 20
-1.46661504106541
 30
0.0
 10
89.79694652651776
 20
-3.610731260999867
 30
0.0
 10
91.97728366084766
 20
-5.648916660738164
 30
0.0
 10
94.1583216588203
 20
-7.520903643421082
 30
0.0
 10
96.33940370881295
 20
-9.172036769125024
 30
0.0
 10
98.48984117581178
 20
-10.53346650528522
 30
0.0
 10
100.6094124502848
 20
-11.58416987991813
 30
0.0
 10
102.6987486475684
 20
-12.29273344908608
 30
0.0
 10
104.530050244704
 20
-12.66937041332761
 30
0.0
 10
105.6651816515006
 20
-12.66254061377002
 30
0.0
 10
106.1037046258774
 20
-12.6599021315657
 30
0.0
  0
LINE
  5
DC
330
1F
100
AcDbEntity
  8
0
  6
Continuous
 62
     1
370
    15
100
AcDbLine
 10
10.0
 20
-3.59251907781058
 30
0.0
 11
10.0
 21
0.6995610553144994
 31
0.0
  0
SPLINE
  5
DD
330
1F
100
AcDbEntity
  8
0
  6
Continuous
 62
     1
370
    15
100
AcDbSpline
210
0.0
220
0.0
230
1.0
 70
     8
 71
     3
 72
    16
 73
    12
 74
     0
 42
0.000000001
 43
0.00000001
 40
0.0
 40
0.0
 40
0.0
 40
0.0
 40
0.2499999999999898
 40
0.2499999999999898
 40
0.3749999999999906
 40
0.3749999999999906
 40
0.4999999999999915
 40
0.4999999999999915
 40
0.7499999999999957
 40
0.7499999999999957
 40
1.0
 40
1.0
 40
1.0
 40
1.0
 10
111.6
 20
-6.512249355952917
 30
0.0
 10
111.6
 20
-6.620244931798262
 30
0.0
 10
111.582509666875
 20
-6.723178645431575
 30
0.0
 10
111.5163184031235
 20
-6.83619611780637
 30
0.0
 10
111.487373088687
 20
-6.866690144858594
 30
0.0
 10
111.4204062275148
 20
-6.907634323525715
 30
0.0
 10
111.3819172038133
 20
-6.918637272283974
 30
0.0
 10
111.260899506151
 20
-6.926310218017831
 30
0.0
 10
111.173391386426
 20
-6.899326985281054
 30
0.0
 10
111.0029297802548
 20
-6.813562764879271
 30
0.0
 10
110.9193771196055
 20
-6.754776052889707
 30
0.0
 10
110.838
 20
-6.685648535412069
 30
0.0
  0
SPLINE
  5
DE
330
1F
100
AcDbEntity
  8
0
  6
Continuous
 62
     1
370
    15
100
AcDbSpline
210
0.0
220
0.0
230
1.0
 70
     8
 71
     3
 72
    19
 73
    15
 74
     0
 42
0.000000001
 43
0.00000001
 40
0.0
 40
0.0
 40
0.0
 40
0.0
 40
0.0912686975777542
 40
0.1825375015799476
 40
0.2738064182023163
 40
0.3650754536377707
 40
0.4563446140762453
 40
0.5371315505518738
 40
0.6179397944729202
 40
0.6987459235207985
 40
0.7795313101043565
 40
0.860302994825972
 40
0.941068054921504
 40
1.0
 40
1.0
 40
1.0
 40
1.0
 10
110.838
 20
-6.685648535412039
 30
0.0
 10
110.0167971677587
 20
-5.963159481200955
 30
0.0
 10
108.3743905457074
 20
-4.518180530315879
 30
0.0
 10
105.9107811376157
 20
-2.114023068445691
 30
0.0
 10
103.4471519961328
 20
0.3514452429208477
 30
0.0
 10
100.9835752776892
 20
2.808510186659693
 30
0.0
 10
98.61410286213454
 20
5.06911033382967
 30
0.0
 10
96.33945249983661
 20
7.071180918385418
 30
0.0
 10
94.15830861256659
 20
8.782447673471976
 30
0.0
 10
91.9772870493833
 20
10.2345980231248
 30
0.0
 10
89.79694601495261
 20
11.38931132810749
 30
0.0
 10
87.61713818495832
 20
12.19620129390671
 30
0.0
 10
85.6340071506917
 20
12.64794892474496
 30
0.0
 10
84.37740255190647
 20
12.65862686238198
 30
0.0
 10
83.8472970345495
 20
12.66313140872922
 30
0.0
  0
SPLINE
  5
DF
330
1F
100
AcDbEntity
  8
0
  6
Continuous
 62
     1
370
    15
100
AcDbSpline
210
0.0
220
0.0
230
1.0
 70
     8
 71
     3
 72
    26
 73
    22
 74
     0
 42
0.000000001
 43
0.00000001
 40
0.0
 40
0.0
 40
0.0
 40
0.0
 40
0.0013967873146502
 40
0.0581241478692129
 40
0.1148622261129855
 40
0.1716153441986273
 40
0.2283629825259801
 40
0.2850967068921462
 40
0.3418214660549179
 40
0.3985422327476769
 40
0.4552639903951434
 40
0.5119917197675625
 40
0.5687303856501805
 40
0.6254839627033618
 40
0.6822308822974334
 40
0.7389641058756169
 40
0.7911552064734741
 40
0.8433438779774088
 40
0.8955488650616831
 40
0.9477841310515767
 40
1.0
 40
1.0
 40
1.0
 40
1.0
 10
48.42857398839435
 20
-11.9142537935146
 30
0.0
 10
48.41068353996971
 20
-11.92180447904484
 30
0.0
 10
47.6662129546677
 20
-12.23600919559024
 30
0.0
 10
46.19493522986421
 20
-12.53824945115623
 30
0.0
 10
44.01446244385484
 20
-12.76918941598749
 30
0.0
 10
41.83328192122073
 20
-12.58403539396305
 30
0.0
 10
39.65234869280793
 20
-12.03978347413992
 30
0.0
 10
37.47209163754536
 20
-11.13863289608202
 30
0.0
 10
35.29233933577576
 20
-9.910902590920603
 30
0.0
 10
33.11281967099018
 20
-8.391686852688863
 30
0.0
 10
30.93324490360882
 20
-6.625849094074177
 30
0.0
 10
28.75331532158818
 20
-4.665137714716231
 30
0.0
 10
26.57280808898961
 20
-2.567056882254129
 30
0.0
 10
24.39159933439698
 20
-0.3936789333055056
 30
0.0
 10
22.21073544240544
 20
1.791392262636492
 30
0.0
 10
20.08843993804777
 20
3.867051885957849
 30
0.0
 10
18.02527871188486
 20
5.780455652483757
 30
0.0
 10
16.02005237487204
 20
7.497743357302338
 30
0.0
 10
14.01405894394823
 20
9.023138729737676
 30
0.0
 10
12.00669173918833
 20
10.34369812647896
 30
0.0
 10
10.66881442980229
 20
11.00234323729634
 30
0.0
 10
10.00000000000002
 20
11.33160463603815
 30
0.0
  0
SPLINE
  5
E0
330
1F
100
AcDbEntity
  8
0
  6
Continuous
 62
     1
370
    15
100
AcDbSpline
210
0.0
220
0.0
230
1.0
 70
    24
 71
     3
 72
     9
 73
     5
 74
     0
 42
0.000000001
 43
0.00000001
 40
0.0
 40
0.0
 40
0.0
 40
0.0
 40
0.2963279126206578
 40
1.0
 40
1.0
 40
1.0
 40
1.0
 10
9.999999999999996
 20
12.34556544055942
 30
0.0
 10
9.999999999999996
 20
12.24909026068267
 30
0.0
 10
9.999999999999993
 20
11.92352126846878
 30
0.0
 10
9.999999999999993
 20
11.64881443091187
 30
0.0
 10
9.999999999999996
 20
11.45551089711083
 30
0.0
  0
SPLINE
  5
E1
330
1F
100
AcDbEntity
  8
0
  6
Continuous
 62
     1
370
    15
100
AcDbSpline
210
0.0
220
0.0
230
1.0
 70
     8
 71
     3
 72
    16
 73
    12
 74
     0
 42
0.000000001
 43
0.00000001
 40
0.0
 40
0.0
 40
0.0
 40
0.0
 40
0.2499999999999982
 40
0.2499999999999982
 40
0.4999999999999964
 40
0.4999999999999964
 40
0.7499999999999947
 40
0.7499999999999947
 40
0.8749999999999973
 40
0.8749999999999973
 40
1.0
 40
1.0
 40
1.0
 40
1.0
 10
108.9701416548193
 20
3.728261223952437
 30
0.0
 10
108.9260062232975
 20
3.548355012466776
 30
0.0
 10
108.8652965698789
 20
3.36201862238922
 30
0.0
 10
108.7024225879563
 20
2.973262977775754
 30
0.0
 10
108.6005228146495
 20
2.770946360767886
 30
0.0
 10
108.3388043238705
 20
2.34384274128514
 30
0.0
 10
108.1831218920351
 20
2.126247864240453
 30
0.0
 10
107.9050333312332
 20
1.796827289081337
 30
0.0
 10
107.8046810592032
 20
1.686498731996719
 30
0.0
 10
107.5949647018775
 20
1.472749843868857
 30
0.0
 10
107.4847677464008
 20
1.368292902871519
 30
0.0
 10
107.3689379131542
 20
1.266386639633636
 30
0.0
  0
SPLINE
  5
E2
330
1F
100
AcDbEntity
  8
0
  6
Continuous
 62
     1
370
    15
100
AcDbSpline
210
0.0
220
0.0
230
1.0
 70
     8
 71
     3
 72
     8
 73
     4
 74
     0
 42
0.000000001
 43
0.00000001
 40
0.0
 40
0.0
 40
0.0
 40
0.0
 40
1.0
 40
1.0
 40
1.0
 40
1.0
 10
111.6
 20
-1.709244218993109
 30
0.0
 10
110.1840103951249
 20
-0.7249183599499424
 30
0.0
 10
108.7730321669504
 20
0.2670878615329571
 30
0.0
 10
107.3689379131542
 20
1.266386639633643
 30
0.0
  0
LINE
  5
E3
330
1F
100
AcDbEntity
  8
0
  6
Continuous
 62
     1
370
    15
100
AcDbLine
 10
111.6
 20
-6.512249355952901
 30
0.0
 11
111.6
 21
-1.709244218993107
 31
0.0
  0
SPLINE
  5
E4
330
1F
100
AcDbEntity
  8
0
  6
Continuous
 62
     1
370
    15
100
AcDbSpline
210
0.0
220
0.0
230
1.0
 70
     8
 71
     3
 72
    29
 73
    25
 74
     0
 42
0.000000001
 43
0.00000001
 40
0.0
 40
0.0
 40
0.0
 40
0.0
 40
0.015982784398007
 40
0.0651011646825023
 40
0.1142198310153506
 40
0.1633430975359674
 40
0.2124752660681729
 40
0.2616204815046274
 40
0.3107631911383075
 40
0.3598934744991406
 40
0.409015614651522
 40
0.4581339164335288
 40
0.5072526949611285
 40
0.5563762640732083
 40
0.6055089247839659
 40
0.6546546542503664
 40
0.7037967248828337
 40
0.7529265578488216
 40
0.8020484374159056
 40
0.8511666691196269
 40
0.9002855682636864
 40
0.9494094483638947
 40
0.9985426096024206
 40
1.0
 40
1.0
 40
1.0
 40
1.0
 10
88.32631476319321
 20
-11.87994977735305
 30
0.0
 10
88.08990718469202
 20
-11.97226219214747
 30
0.0
 10
87.12697054505887
 20
-12.34826962415166
 30
0.0
 10
85.43761209960081
 20
-12.6472682728144
 30
0.0
 10
83.25805397055704
 20
-12.75286960704281
 30
0.0
 10
81.07818980277803
 20
-12.45905650087584
 30
0.0
 10
78.89776634092323
 20
-11.80547634215103
 30
0.0
 10
76.71663777044277
 20
-10.80308206936237
 30
0.0
 10
74.53563781619405
 20
-9.483508963855662
 30
0.0
 10
72.35532697940205
 20
-7.884972015343692
 30
0.0
 10
70.1755390250152
 20
-6.054819818612597
 30
0.0
 10
67.99601106465764
 20
-4.046753241360449
 30
0.0
 10
65.81645254079311
 20
-1.919728807662513
 30
0.0
 10
63.63656594756711
 20
0.263822823491105
 30
0.0
 10
61.45611425868179
 20
2.439854057177732
 30
0.0
 10
59.27495920082301
 20
4.54398546496647
 30
0.0
 10
57.09399249834031
 20
6.514678597663013
 30
0.0
 10
54.91370870353218
 20
8.293579911353092
 30
0.0
 10
52.73393925744088
 20
9.829360394969166
 30
0.0
 10
50.55441424311297
 20
11.07302109554064
 30
0.0
 10
48.37485340439265
 20
12.00294439715248
 30
0.0
 10
46.19492496841475
 20
12.53628855736923
 30
0.0
 10
44.71993952679505
 20
12.75836359574556
 30
0.0
 10
43.97145664484944
 20
12.69641009718544
 30
0.0
 10
43.94989467863988
 20
12.69462536800226
 30
0.0
  0
SPLINE
  5
E5
330
1F
100
AcDbEntity
  8
0
  6
Continuous
 62
     1
370
    15
100
AcDbSpline
210
0.0
220
0.0
230
1.0
 70
     8
 71
     3
 72
    16
 73
    12
 74
     0
 42
0.000000001
 43
0.00000001
 40
0.0
 40
0.0
 40
0.0
 40
0.0
 40
0.2500000000000105
 40
0.2500000000000105
 40
0.3750000000000083
 40
0.3750000000000083
 40
0.5000000000000062
 40
0.5000000000000062
 40
0.7500000000000031
 40
0.7500000000000031
 40
1.0
 40
1.0
 40
1.0
 40
1.0
 10
111.6
 20
5.408737654710572
 30
0.0
 10
111.6
 20
5.38998329879121
 30
0.0
 10
111.582509666875
 20
5.387538632999256
 30
0.0
 10
111.5163184031236
 20
5.426489054093154
 30
0.0
 10
111.487373088687
 20
5.446783335151245
 30
0.0
 10
111.4204062275147
 20
5.498366591529379
 30
0.0
 10
111.3819172038133
 20
5.52995220207334
 30
0.0
 10
111.260899506151
 20
5.632488860686594
 30
0.0
 10
111.173391386426
 20
5.71033991131471
 30
0.0
 10
111.0029297802548
 20
5.862123004561954
 30
0.0
 10
110.9193771196055
 20
5.936698525601557
 30
0.0
 10
110.838
 20
6.008329551246335
 30
0.0
  0
SPLINE
  5
E6
330
1F
100
AcDbEntity
  8
0
  6
Continuous
 62
     1
370
    15
100
AcDbSpline
210
0.0
220
0.0
230
1.0
 70
     8
 71
     3
 72
    29
 73
    25
 74
     0
 42
0.000000001
 43
0.00000001
 40
0.0
 40
0.0
 40
0.0
 40
0.0
 40
0.0086375927669796
 40
0.0577773511784755
 40
0.1069228745889286
 40
0.1560554857334058
 40
0.2051786264524769
 40
0.2542965959812251
 40
0.3034137073968758
 40
0.352534276075287
 40
0.4016626081341969
 40
0.450802988929781
 40
0.4999481148992068
 40
0.5490802171802762
 40
0.5982030385230623
 40
0.6473208790170534
 40
0.6964380520850916
 40
0.7455588729378706
 40
0.7946876470181355
 40
0.8438286585011238
 40
0.8929733287391871
 40
0.942104930503276
 40
0.9912274408646364
 40
1.0
 40
1.0
 40
1.0
 40
1.0
 10
21.82726254526693
 20
11.89304837000865
 30
0.0
 10
21.95503407696464
 20
11.94509450669128
 30
0.0
 10
22.80970514755881
 20
12.29323408651624
 30
0.0
 10
24.39162114034748
 20
12.59795384533681
 30
0.0
 10
26.57280224744199
 20
12.76504244489558
 30
0.0
 10
28.75331688647536
 20
12.52536530397037
 30
0.0
 10
30.93324448380951
 20
11.92590318919592
 30
0.0
 10
33.11281978560275
 20
10.97366141386778
 30
0.0
 10
35.29233929709468
 20
9.699477848256507
 30
0.0
 10
37.47209167765591
 20
8.139975714690078
 30
0.0
 10
39.65234857102003
 20
6.341075644027248
 30
0.0
 10
41.83328236838801
 20
4.355678557766918
 30
0.0
 10
44.01446077703291
 20
2.242348406675831
 30
0.0
 10
46.19494144763529
 20
0.0629198979786969
 30
0.0
 10
48.37484899004116
 20
-2.118128014979062
 30
0.0
 10
50.55441542439837
 20
-4.236799945901642
 30
0.0
 10
52.73393894635959
 20
-6.230968141370406
 30
0.0
 10
54.91370876650197
 20
-8.04187587098997
 30
0.0
 10
57.09399255762122
 20
-9.617166311274582
 30
0.0
 10
59.27495890061482
 20
-10.90728216028066
 30
0.0
 10
61.45611540016979
 20
-11.88572083828026
 30
0.0
 10
63.63656168342266
 20
-12.48097974892821
 30
0.0
 10
65.21968759004919
 20
-12.73828166994015
 30
0.0
 10
66.07601574660809
 20
-12.68123388159807
 30
0.0
 10
66.20577099965456
 20
-12.67258970686742
 30
0.0
  0
SPLINE
  5
E7
330
1F
100
AcDbEntity
  8
0
  6
Continuous
 62
     1
370
    15
100
AcDbSpline
210
0.0
220
0.0
230
1.0
 70
     8
 71
     3
 72
    11
 73
     7
 74
     0
 42
0.000000001
 43
0.00000001
 40
0.0
 40
0.0
 40
0.0
 40
0.0
 40
0.1464808275169156
 40
0.4308960298118251
 40
0.7153905786744953
 40
1.0
 40
1.0
 40
1.0
 40
1.0
 10
101.6226057027107
 20
11.87716009706718
 30
0.0
 10
101.9813002461402
 20
12.00859367288037
 30
0.0
 10
103.0364557726279
 20
12.39522588244603
 30
0.0
 10
104.7883191389092
 20
12.67483221157864
 30
0.0
 10
106.8787107942286
 20
12.75128158275353
 30
0.0
 10
108.2729042295991
 20
12.50247886197678
 30
0.0
 10
108.9701416548193
 20
12.37805239143033
 30
0.0
  0
SPLINE
  5
E8
330
1F
100
AcDbEntity
  8
0
  6
Continuous
 62
     1
370
    15
100
AcDbSpline
210
0.0
220
0.0
230
1.0
 70
     8
 71
     3
 72
    16
 73
    12
 74
     0
 42
0.000000001
 43
0.00000001
 40
0.0
 40
0.0
 40
0.0
 40
0.0
 40
0.2499999999999983
 40
0.2499999999999983
 40
0.4999999999999967
 40
0.4999999999999967
 40
0.749999999999995
 40
0.749999999999995
 40
0.8749999999999974
 40
0.8749999999999974
 40
1.0
 40
1.0
 40
1.0
 40
1.0
 10
108.9701416548193
 20
12.37805239143035
 30
0.0
 10
108.9260062232975
 20
12.07176720054486
 30
0.0
 10
108.8652965698789
 20
11.77272278645157
 30
0.0
 10
108.7024225879564
 20
11.19274425334597
 30
0.0
 10
108.6005228146495
 20
10.911694558161
 30
0.0
 10
108.3388043238706
 20
10.37489820460044
 30
0.0
 10
108.1831218920351
 20
10.12851933041408
 30
0.0
 10
107.9050333312332
 20
9.806942605098506
 30
0.0
 10
107.8046810592031
 20
9.70799222789952
 30
0.0
 10
107.5949647018775
 20
9.534837407942094
 30
0.0
 10
107.4847677464007
 20
9.459569846093656
 30
0.0
 10
107.3689379131542
 20
9.3962351659392
 30
0.0
  0
SPLINE
  5
E9
330
1F
100
AcDbEntity
  8
0
  6
Continuous
 62
     1
370
    15
100
AcDbSpline
210
0.0
220
0.0
230
1.0
 70
     8
 71
     3
 72
     8
 73
     4
 74
     0
 42
0.000000001
 43
0.00000001
 40
0.0
 40
0.0
 40
0.0
 40
0.0
 40
1.0
 40
1.0
 40
1.0
 40
1.0
 10
111.6
 20
7.925173883962532
 30
0.0
 10
110.1840103951249
 20
8.525708487441646
 30
0.0
 10
108.7730321669504
 20
9.019190237232946
 30
0.0
 10
107.3689379131542
 20
9.396235165939204
 30
0.0
  0
LINE
  5
EA
330
1F
100
AcDbEntity
  8
0
  6
Continuous
 62
     1
370
    15
100
AcDbLine
 10
111.6
 20
5.408737654710587
 30
0.0
 11
111.6
 21
7.925173883962535
 31
0.0
  0
SPLINE
  5
EB
330
1F
100
AcDbEntity
  8
0
  6
Continuous
 62
     1
370
    15
100
AcDbSpline
210
0.0
220
0.0
230
1.0
 70
    24
 71
     3
 72
    20
 73
    16
 74
     0
 42
0.000000001
 43
0.00000001
 40
0.0
 40
0.0
 40
0.0
 40
0.0
 40
0.2499999999999997
 40
0.2499999999999997
 40
0.3749999999999998
 40
0.3749999999999998
 40
0.4999999999999998
 40
0.4999999999999998
 40
0.6249999999999998
 40
0.6249999999999998
 40
0.7499999999999999
 40
0.7499999999999999
 40
0.875
 40
0.875
 40
1.0
 40
1.0
 40
1.0
 40
1.0
 10
10.0
 20
-3.592519077810595
 30
0.0
 10
10.0
 20
-3.680360857988834
 30
0.0
 10
10.0
 20
-3.84144352209515
 30
0.0
 10
10.0
 20
-4.272257607949228
 30
0.0
 10
10.0
 20
-4.447645390254219
 30
0.0
 10
10.0
 20
-4.874807640708617
 30
0.0
 10
10.0
 20
-5.126746477165239
 30
0.0
 10
10.0
 20
-5.71515719825206
 30
0.0
 10
10.0
 20
-6.051818515924764
 30
0.0
 10
10.0
 20
-6.807432483921843
 30
0.0
 10
10.0
 20
-7.226500547637987
 30
0.0
 10
10.0
 20
-8.129280935544678
 30
0.0
 10
10.0
 20
-8.612908392923329
 30
0.0
 10
10.0
 20
-9.610835469792068
 30
0.0
 10
10.0
 20
-10.12481192845672
 30
0.0
 10
10.0
 20
-10.63204358072364
 30
0.0
  0
LINE
  5
EC
330
1F
100
AcDbEntity
  8
0
  6
Continuous
 62
     1
370
    15
100
AcDbLine
 10
10.0
 20
8.753046362748782
 30
0.0
 11
10.0
 21
11.33160463603818
 31
0.0
  0
ELLIPSE
  5
EE
330
1F
100
AcDbEntity
  8
0
  6
Continuous
 62
     1
370
    15
100
AcDbEllipse
 10
113.0281480067421
 20
0.0000000000000159
 30
0.0
 11
17.89316233288198
 21
11.88911657764826
 31
0.0
210
0.0
220
0.0
230
1.0
 40
0.2495534463455958
 41
4.322422312290607
 42
4.427020228489903
  0
ELLIPSE
  5
F0
330
1F
100
AcDbEntity
  8
0
  6
Continuous
 62
     1
370
    15
100
AcDbEllipse
 10
113.0281480067421
 20
0.0000000000000064
 30
0.0
 11
18.13747968562481
 21
0.0
 31
0.0
210
0.0
220
0.0
230
1.0
 40
0.7002075382097114
 41
1.691844331795741
 42
1.796442247995038
  0
LINE
  5
F1
330
1F
100
AcDbEntity
  8
0
  6
Continuous
 62
     1
370
    15
100
AcDbLine
 10
111.6
 20
-0.8660254037844304
 30
0.0
 11
111.6
 21
5.081996200076781
 31
0.0
  0
LINE
  5
F2
330
1F
100
AcDbEntity
  8
0
  6
Continuous
 62
     1
370
    15
100
AcDbLine
 10
107.3689379131542
 20
1.266386639633642
 30
0.0
 11
111.6
 21
-0.8660254037844304
 31
0.0
  0
SPLINE
  5
F3
330
1F
100
AcDbEntity
  8
0
  6
Continuous
 62
     1
370
    15
100
AcDbSpline
210
0.0
220
0.0
230
1.0
 70
     8
 71
     3
 72
    12
 73
     8
 74
     0
 42
0.000000001
 43
0.00000001
 40
0.0
 40
0.0
 40
0.0
 40
0.0
 40
0.25
 40
0.25
 40
0.5
 40
0.5
 40
1.0
 40
1.0
 40
1.0
 40
1.0
 10
111.6
 20
5.081996200076796
 30
0.0
 10
111.6
 20
5.13675351759311
 30
0.0
 10
111.5756723712702
 20
5.176316574032546
 30
0.0
 10
111.4872174496583
 20
5.21746911177521
 30
0.0
 10
111.4234115644903
 20
5.219443503736593
 30
0.0
 10
111.2015393324787
 20
5.178461045493427
 30
0.0
 10
111.0178104356917
 20
5.092128691734466
 30
0.0
 10
110.838
 20
4.975434400163945
 30
0.0
  0
LINE
  5
F4
330
1F
100
AcDbEntity
  8
0
  6
Continuous
 62
     1
370
    15
100
AcDbLine
 10
111.6
 20
5.081996200076781
 30
0.0
 11
111.6
 21
5.408737654710587
 31
0.0
  0
LINE
  5
F5
330
1F
100
AcDbEntity
  8
0
  6
Continuous
 62
     1
370
    15
100
AcDbLine
 10
111.6
 20
-0.8660254037844304
 30
0.0
 11
111.6
 21
-1.709244218993104
 31
0.0
  0
LINE
  5
F6
330
1F
100
AcDbEntity
  8
0
  6
Continuous
 62
     1
370
    15
100
AcDbLine
 10
111.6
 20
-6.814047007645704
 30
0.0
 11
111.6
 21
-6.512249355952901
 31
0.0
  0
SPLINE
  5
F7
330
1F
100
AcDbEntity
  8
0
  6
Continuous
 62
     1
370
    15
100
AcDbSpline
210
0.0
220
0.0
230
1.0
 70
     8
 71
     3
 72
    12
 73
     8
 74
     0
 42
0.000000001
 43
0.00000001
 40
0.0
 40
0.0
 40
0.0
 40
0.0
 40
0.2500000000000001
 40
0.2500000000000001
 40
0.5000000000000002
 40
0.5000000000000002
 40
1.0
 40
1.0
 40
1.0
 40
1.0
 10
111.6
 20
-6.814047007645695
 30
0.0
 10
111.6
 20
-6.868804325162014
 30
0.0
 10
111.5756723712702
 20
-6.937871808865855
 30
0.0
 10
111.4872174496584
 20
-7.086302036097283
 30
0.0
 10
111.4234115644903
 20
-7.16565988860428
 30
0.0
 10
111.2015393324787
 20
-7.393762971088326
 30
0.0
 10
111.0178104356917
 20
-7.530256110591511
 30
0.0
 10
110.838
 20
-7.631635022133583
 30
0.0
  0
LINE
  5
F8
330
1F
100
AcDbEntity
  8
0
  6
Continuous
 62
     1
370
    15
100
AcDbLine
 10
111.6
 20
-6.814047007645706
 30
0.0
 11
111.6
 21
-9.634418102955625
 31
0.0
  0
SPLINE
  5
F9
330
1F
100
AcDbEntity
  8
0
  6
Continuous
 62
     1
370
    15
100
AcDbSpline
210
0.0
220
0.0
230
1.0
 70
     8
 71
     3
 72
    12
 73
     8
 74
     0
 42
0.000000001
 43
0.00000001
 40
0.0
 40
0.0
 40
0.0
 40
0.0
 40
0.2499999999999994
 40
0.2499999999999994
 40
0.4999999999999988
 40
0.4999999999999988
 40
1.0
 40
1.0
 40
1.0
 40
1.0
 10
111.6
 20
11.89604320772248
 30
0.0
 10
111.6
 20
12.00555784275511
 30
0.0
 10
111.5756723712702
 20
12.11418838289839
 30
0.0
 10
111.4872174496583
 20
12.30377114787248
 30
0.0
 10
111.4234115644902
 20
12.38510339234086
 30
0.0
 10
111.2015393324787
 20
12.57222401658175
 30
0.0
 10
111.0178104356918
 20
12.62238480232597
 30
0.0
 10
110.838
 20
12.60706942229752
 30
0.0
  0
LINE
  5
FA
330
1F
100
AcDbEntity
  8
0
  6
Continuous
 62
     1
370
    15
100
AcDbLine
 10
111.6
 20
7.925173883962535
 30
0.0
 11
111.6
 21
11.89604320772248
 31
0.0
  0
LINE
  5
FB
330
1F
100
AcDbEntity
  8
0
  6
Continuous
 62
     1
370
    15
100
AcDbLine
 10
111.6
 20
11.89604320772248
 30
0.0
 11
111.6
 21
11.92098701066346
 31
0.0
  0
LINE
  5
FC
330
1F
100
AcDbEntity
  8
중심선
100
AcDbLine
 10
-69.20000000000002
 20
0.0000000000000001
 30
0.0
 11
114.6
 21
0.0000000000000001
 31
0.0
  0
CIRCLE
  5
FD
330
1F
100
AcDbEntity
  8
외형선
100
AcDbCircle
 10
0.0
 20
0.0
 30
0.0
 40
3.000000000000004
  0
INSERT
  5
FE
330
1F
100
AcDbEntity
  8
0
  6
Continuous
 62
     7
100
AcDbBlockReference
 66
     1
  2
블럭10
 10
-16.62936049909348
 20
-51.78679627639981
 30
0.0
  0
ATTRIB
  5
FF
330
FE
100
AcDbEntity
  8
FORMAT
 62
     2
100
AcDbText
 10
-27.68038085127795
 20
-49.71142936356761
 30
0.0
 40
4.233333333333333
  1
GMG23952[ 6 FLUTE ]
 41
0.75
  7
SLDTEXTSTYLE0
 11
-27.68038085127795
 21
-51.82809603023428
 31
0.0
100
AcDbAttribute
  2
AUTOATTR0
 70
     0
 74
     1
  0
SEQEND
  5
100
330
FE
100
AcDbEntity
  8
0
  6
Continuous
 62
     7
  0
HATCH
  5
101
330
1F
100
AcDbEntity
  8
중심선
100
AcDbHatch
 10
0.0
 20
0.0
 30
0.0
210
0.0
220
0.0
230
1.0
  2
SOLID
 70
     1
 71
     0
 91
        1
 92
        0
 93
        4
 72
     1
 10
-10.91445119471263
 20
-35.53962197475587
 11
-14.36072643854991
 21
-35.53962197475587
 72
     1
 10
-14.36072643854991
 20
-35.53962197475587
 11
-16.48895629775393
 21
-38.07594755532847
 72
     1
 10
-16.48895629775394
 20
-38.07594755532847
 11
-13.0426479688035
 21
-38.07590812602598
 72
     1
 10
-13.0426479688035
 20
-38.07590812602598
 11
-10.91445119471263
 21
-35.53962197475587
 97
        0
 75
     0
 76
     1
 98
        1
 10
-6.386651720807965
 20
0.2603780252441226
  0
HATCH
  5
102
330
1F
100
AcDbEntity
  8
중심선
100
AcDbHatch
 10
0.0
 20
0.0
 30
0.0
210
0.0
220
0.0
230
1.0
  2
SOLID
 70
     1
 71
     0
 91
        1
 92
        0
 93
        4
 72
     1
 10
-5.901687203676678
 20
-35.53962197475587
 11
-9.34796244751396
 21
-35.53962197475587
 72
     1
 10
-9.34796244751396
 20
-35.53962197475587
 11
-13.87910045587135
 21
-40.93962197475589
 72
     1
 10
-13.87910045587135
 20
-40.93962197475589
 11
-10.43282521203407
 21
-40.93962197475589
 72
     1
 10
-10.43282521203407
 20
-40.93962197475589
 11
-5.901687203676678
 21
-35.53962197475587
 97
        0
 75
     0
 76
     1
 98
        1
 10
-6.386651720807965
 20
0.2603780252441226
  0
HATCH
  5
103
330
1F
100
AcDbEntity
  8
중심선
100
AcDbHatch
 10
0.0
 20
0.0
 30
0.0
210
0.0
220
0.0
230
1.0
  2
SOLID
 70
     1
 71
     0
 91
        1
 92
        0
 93
        4
 72
     1
 10
-0.8889232126407824
 20
-35.5396219747559
 11
-4.335198456477898
 21
-35.53962197475587
 72
     1
 10
-4.335198456477898
 20
-35.53962197475587
 11
-11.38363535836715
 21
-43.93962197475589
 72
     1
 10
-11.38363535836715
 20
-43.93962197475589
 11
-7.937360114529865
 21
-43.93962197475589
 72
     1
 10
-7.937360114529865
 20
-43.93962197475589
 11
-0.8889232126407816
 21
-35.5396219747559
 97
        0
 75
     0
 76
     1
 98
        1
 10
-6.386651720807965
 20
0.2603780252441226
  0
HATCH
  5
104
330
1F
100
AcDbEntity
  8
중심선
100
AcDbHatch
 10
0.0
 20
0.0
 30
0.0
210
0.0
220
0.0
230
1.0
  2
SOLID
 70
     1
 71
     0
 91
        1
 92
        0
 93
        6
 72
     3
 10
3.910967218371416
 20
-39.73962197480715
 11
3.960054785062283
 21
1.540882976769353E-10
 40
0.3939339440162628
 50
17.09539180608436
 51
320.0019657685081
 73
     0
 72
     1
 10
5.593966874072013
 20
-38.32751597939418
 11
7.89926874777305
 21
-36.39318926934626
 72
     3
 10
3.91096721831857
 20
-39.73962197475603
 11
6.600054785286831
 21
-1.278976924368180E-13
 40
0.6363583540795978
 50
39.99873849337411
 51
368.4976242363724
 73
     1
 72
     1
 10
10.33629971021918
 20
-38.7796219746859
 11
2.591034525154493
 21
-38.77962197468587
 72
     1
 10
2.591034525154493
 20
-38.77962197468587
 11
2.591009480708559
 21
-40.69962197468579
 72
     1
 10
2.591009480708559
 20
-40.69962197468579
 11
7.032389250180596
 21
-40.69962197468576
 97
        0
 75
     0
 76
     1
 98
        1
 10
-6.386651720807965
 20
0.2603780252441226
  0
POINT
  5
105
330
1F
100
AcDbEntity
  8
치수문자_일반주서
100
AcDbPoint
 10
0.0
 20
0.0
 30
0.0
  0
DIMENSION
  5
106
330
1F
100
AcDbEntity
  8
치수문자_일반주서
100
AcDbDimension
  2
_D
 10
111.6
 20
45.35555141807178
 30
0.0
 11
22.7
 21
45.35555141807178
 31
0.0
 70
   160
  1
<>
 71
     2
 42
177.8
  3
SLDDIMSTYLE0
100
AcDbAlignedDimension
 13
-66.20000000000002
 23
12.2
 33
0.0
 14
111.6
 24
11.93800000000001
 34
0.0
 50
-0.0000000000000023
100
AcDbRotatedDimension
1001
ACAD
1000
DSTYLE
1002
{
1070
   273
1070
     7
1002
}
  0
DIMENSION
  5
11A
330
1F
100
AcDbEntity
  8
치수문자_일반주서
100
AcDbDimension
  2
_D_1
 10
10.0
 20
29.56499453033793
 30
0.0
 11
59.68240452760594
 21
29.56499453033793
 31
0.0
 70
   160
  1
<>
 71
     2
 42
101.6
  3
SLDDIMSTYLE0
100
AcDbAlignedDimension
 13
111.6
 23
11.93800000000001
 33
0.0
 14
10.0
 24
-12.45983467034423
 34
0.0
 50
0.000000000000016
100
AcDbRotatedDimension
1001
ACAD
1000
DSTYLE
1002
{
1070
   273
1070
     7
1002
}
  0
DIMENSION
  5
12D
330
1F
100
AcDbEntity
  8
치수문자_일반주서
100
AcDbDimension
  2
_D_2
 10
-79.19999999999997
 20
-12.70000000000005
 30
0.0
 11
-79.20000000000002
 21
-0.0000000000000023
 31
0.0
 70
   160
  1
%%c<>
 71
     2
 42
25.4
 52
-270.0
  3
SLDDIMSTYLE1
100
AcDbAlignedDimension
 13
-65.7
 23
12.7
 33
0.0
 14
-65.7
 24
-12.7
 34
0.0
 50
90.0000000000002
100
AcDbRotatedDimension
1001
ACAD
1000
DSTYLE
1002
{
1070
   273
1070
     7
1002
}
  0
INSERT
  5
148
330
1F
100
AcDbEntity
  8
외형선
100
AcDbBlockReference
  2
SW_DOWELSYMBOL_0
 10
0.0
 20
0.0
 30
0.0
  0
DIMENSION
  5
16F
330
1F
100
AcDbEntity
  8
치수문자_일반주서
100
AcDbDimension
  2
*D6
 10
128.112666008667
 20
-12.70000000000001
 30
0.0
 11
125.487666008667
 21
-0.0000000000000018
 31
0.0
 70
    32
  1
{%%c<>}
 71
     5
 42
25.40000000000001
  3
SLDDIMSTYLE0
100
AcDbAlignedDimension
 13
110.838
 23
12.70000000000001
 33
0.0
 14
110.838
 24
-12.70000000000001
 34
0.0
 50
90.0
100
AcDbRotatedDimension
1001
ACAD
1000
DSTYLE
1002
{
1070
   273
1070
     7
1002
}
  0
ARC
  5
180
330
1F
100
AcDbEntity
  8
0
  6
Continuous
 62
     1
370
    15
100
AcDbCircle
 10
110.838
 20
11.93800000000001
 30
0.0
 40
0.7619999999999998
100
AcDbArc
 50
358.4116494194684
 51
90.0
  0
ARC
  5
181
330
1F
100
AcDbEntity
  8
0
  6
Continuous
 62
     1
370
    15
100
AcDbCircle
 10
110.838
 20
-11.93800000000001
 30
0.0
 40
0.7619999999999998
100
AcDbArc
 50
270.0
 51
1.588350580531618
  0
DIMENSION
  5
183
330
1F
100
AcDbEntity
  8
치수문자_일반주서
100
AcDbDimension
  2
*D7
 10
110.838
 20
11.93800000000001
 30
0.0
 11
126.4863354019546
 21
32.31154836049252
 31
0.0
 70
   164
  1
<>
 71
     5
 42
0.7619999999999982
  3
SLDDIMSTYLE0
100
AcDbRadialDimension
 15
111.3021592228696
 25
12.5423179757587
 35
0.0
 40
0.0
1001
ACAD
1000
DSTYLE
1002
{
1070
   171
1070
     3
1070
   273
1070
     2
1002
}
1001
ACAD_DSTYLE_DIMRADIAL_EXTENSION
1070
   387
1070
     1
1070
   388
1040
6.255463359873346
1070
   390
1040
1.570796326794897
  0
LINE
  5
1F0
330
1F
100
AcDbEntity
  8
0
  6
Continuous
 62
     4
370
    15
100
AcDbLine
 10
-51.59500000000003
 20
12.7
 30
0.0
 11
-45.6863249999999
 21
12.7
 31
0.0
  0
LINE
  5
1F1
330
1F
100
AcDbEntity
  8
0
  6
Continuous
 62
     4
370
    15
100
AcDbLine
 10
-43.78132499999992
 20
10.79499999999999
 30
0.0
 11
-30.67492500000003
 21
10.79499999999999
 31
0.0
  0
LINE
  5
1F2
330
1F
100
AcDbEntity
  8
0
  6
Continuous
 62
     4
370
    15
100
AcDbLine
 10
-43.78132499999992
 20
10.795
 30
0.0
 11
-45.6863249999999
 21
12.7
 31
0.0
  0
LINE
  5
1F3
330
1F
100
AcDbEntity
  8
0
  6
Continuous
 62
     4
370
    15
100
AcDbLine
 10
-30.67492500000003
 20
10.795
 30
0.0
 11
-28.769925
 21
12.7
 31
0.0
  0
LINE
  5
1F4
330
1F
100
AcDbEntity
  8
0
  6
Continuous
 62
     4
370
    15
100
AcDbLine
 10
-66.20000000000002
 20
10.79499999999999
 30
0.0
 11
-53.5
 21
10.79499999999999
 31
0.0
  0
LINE
  5
1F5
330
1F
100
AcDbEntity
  8
0
  6
Continuous
 62
     4
370
    15
100
AcDbLine
 10
-53.5
 20
10.795
 30
0.0
 11
-51.59500000000003
 21
12.69999999999999
 31
0.0
  0
ENDSEC
  0
SECTION
  2
OBJECTS
  0
DICTIONARY
  5
C
330
0
100
AcDbDictionary
281
     1
  3
ACAD_GROUP
350
D
  3
ACAD_IMAGE_VARS
350
16C
  3
ACAD_LAYOUT
350
1A
  3
ACAD_MLINESTYLE
350
17
  3
ACAD_PLOTSETTINGS
350
19
  3
ACAD_PLOTSTYLENAME
350
E
  3
ACAD_SCALELIST
350
47
  3
APPDATA
350
16A
  3
DWGPROPS
350
21B
  0
DICTIONARY
  5
1E0
330
2
100
AcDbDictionary
280
     1
281
     1
  3
ACAD_LAYERSTATES
360
1E1
  0
DICTIONARY
  5
219
330
1F
100
AcDbDictionary
280
     1
281
     1
  3
DIM_BOUNDING_BOXES_V1
360
21A
  0
DICTIONARY
  5
D
102
{ACAD_REACTORS
330
C
102
}
330
C
100
AcDbDictionary
281
     1
  0
RASTERVARIABLES
  5
16C
102
{ACAD_REACTORS
330
C
102
}
330
C
100
AcDbRasterVariables
 90
        0
 70
     1
 71
     1
 72
     1
  0
DICTIONARY
  5
1A
102
{ACAD_REACTORS
330
C
102
}
330
C
100
AcDbDictionary
281
     1
  3
Layout1
350
1E
  3
Layout2
350
26
  3
Model
350
22
  0
DICTIONARY
  5
17
102
{ACAD_REACTORS
330
C
102
}
330
C
100
AcDbDictionary
281
     1
  3
Standard
350
18
  0
DICTIONARY
  5
19
102
{ACAD_REACTORS
330
C
102
}
330
C
100
AcDbDictionary
281
     1
  0
ACDBDICTIONARYWDFLT
  5
E
102
{ACAD_REACTORS
330
C
102
}
330
C
100
AcDbDictionary
281
     1
  3
Normal
350
F
100
AcDbDictionaryWithDefault
340
F
  0
DICTIONARY
  5
47
102
{ACAD_REACTORS
330
C
102
}
330
C
100
AcDbDictionary
281
     1
  3
A0
350
48
  3
A1
350
49
  3
A2
350
4A
  3
A3
350
4B
  3
A4
350
4C
  3
A5
350
4D
  3
A6
350
4E
  3
A7
350
4F
  3
A8
350
50
  3
A9
350
51
  3
B0
350
52
  3
B1
350
53
  3
B2
350
54
  3
B3
350
55
  3
B4
350
56
  3
B5
350
57
  3
B6
350
58
  3
B7
350
59
  3
B8
350
5A
  3
B9
350
5B
  3
C0
350
5C
  3
C1
350
5D
  3
C2
350
5E
  3
C3
350
5F
  3
C4
350
60
  3
C5
350
61
  3
C6
350
62
  3
C7
350
63
  3
C8
350
64
  3
C9
350
65
  3
D0
350
66
  3
D1
350
67
  3
D2
350
68
  0
DICTIONARY
  5
16A
102
{ACAD_REACTORS
330
C
102
}
330
C
100
AcDbDictionary
281
     1
  0
XRECORD
  5
21B
102
{ACAD_REACTORS
330
C
102
}
330
C
100
AcDbXrecord
280
     1
  1
DWGPROPS COOKIE
  2

  3

  4

  6

  7

  8
12015018
  9

300
=
301
=
302
=
303
=
304
=
305
=
306
=
307
=
308
=
309
=
 40
0.0
 41
2458236.376983762
 42
2459697.070317257
  1

 90
        0
  0
DICTIONARY
  5
1E1
102
{ACAD_REACTORS
330
1E0
102
}
330
1E0
100
AcDbDictionary
281
     1
  0
DICTIONARY
  5
21A
102
{ACAD_REACTORS
330
219
102
}
330
219
100
AcDbDictionary
281
     1
  0
LAYOUT
  5
1E
102
{ACAD_REACTORS
330
1A
102
}
330
1A
100
AcDbPlotSettings
  1

  2
none_device
  4

  6

 40
0.0
 41
0.0
 42
0.0
 43
0.0
 44
0.0
 45
0.0
 46
0.0
 47
0.0
 48
0.0
 49
0.0
140
0.0
141
0.0
142
1.0
143
1.0
 70
   688
 72
     1
 73
     0
 74
     5
  7

 75
    16
147
1.0
148
0.0
149
0.0
100
AcDbLayout
  1
Layout1
 70
     1
 71
     1
 10
0.0
 20
0.0
 11
420.0
 21
297.0
 12
0.0
 22
0.0
 32
0.0
 14
1.000000000000000E+20
 24
1.000000000000000E+20
 34
1.000000000000000E+20
 15
-1.000000000000000E+20
 25
-1.000000000000000E+20
 35
-1.000000000000000E+20
146
0.0
 13
0.0
 23
0.0
 33
0.0
 16
1.0
 26
0.0
 36
0.0
 17
0.0
 27
1.0
 37
0.0
 76
     0
330
1B
  0
LAYOUT
  5
26
102
{ACAD_REACTORS
330
1A
102
}
330
1A
100
AcDbPlotSettings
  1

  2
none_device
  4

  6

 40
0.0
 41
0.0
 42
0.0
 43
0.0
 44
0.0
 45
0.0
 46
0.0
 47
0.0
 48
0.0
 49
0.0
140
0.0
141
0.0
142
1.0
143
1.0
 70
   688
 72
     1
 73
     0
 74
     5
  7

 75
    16
147
1.0
148
0.0
149
0.0
100
AcDbLayout
  1
Layout2
 70
     1
 71
     2
 10
0.0
 20
0.0
 11
0.0
 21
0.0
 12
0.0
 22
0.0
 32
0.0
 14
0.0
 24
0.0
 34
0.0
 15
0.0
 25
0.0
 35
0.0
146
0.0
 13
0.0
 23
0.0
 33
0.0
 16
1.0
 26
0.0
 36
0.0
 17
0.0
 27
1.0
 37
0.0
 76
     0
330
23
  0
LAYOUT
  5
22
102
{ACAD_REACTORS
330
1A
102
}
330
1A
100
AcDbPlotSettings
  1

  2
none_device
  4
ANSI_A_(11.00_x_8.50_Inches)
  6

 40
6.35
 41
19.05
 42
6.35000508
 43
19.05000254
 44
279.4
 45
215.9
 46
108.0811590598097
 47
85.40358131321564
 48
0.0
 49
0.0
140
0.0
141
0.0
142
0.0532276583068729
143
1.0
 70
  1696
 72
     0
 73
     0
 74
     0
  7

 75
     0
147
0.0235690232323232
148
0.0
149
0.0
100
AcDbLayout
  1
Model
 70
     1
 71
     0
 10
0.0
 20
0.0
 11
420.0
 21
297.0
 12
0.0
 22
0.0
 32
0.0
 14
-83.57500000000006
 24
-49.71142936356761
 34
0.0
 15
135.1474429481188
 25
49.73055141807178
 35
0.0
146
0.0
 13
0.0
 23
0.0
 33
0.0
 16
1.0
 26
0.0
 36
0.0
 17
0.0
 27
1.0
 37
0.0
 76
     0
330
1F
331
29
  0
MLINESTYLE
  5
18
102
{ACAD_REACTORS
330
17
102
}
330
17
100
AcDbMlineStyle
  2
Standard
 70
     0
  3

 62
   256
 51
90.0
 52
90.0
 71
     2
 49
0.5
 62
   256
  6
BYLAYER
 49
-0.5
 62
   256
  6
BYLAYER
  0
ACDBPLACEHOLDER
  5
F
102
{ACAD_REACTORS
330
E
102
}
330
E
  0
SCALE
  5
48
102
{ACAD_REACTORS
330
47
102
}
330
47
100
AcDbScale
 70
     0
300
1:1
140
1.0
141
1.0
290
     1
  0
SCALE
  5
49
102
{ACAD_REACTORS
330
47
102
}
330
47
100
AcDbScale
 70
     0
300
1:2
140
1.0
141
2.0
290
     0
  0
SCALE
  5
4A
102
{ACAD_REACTORS
330
47
102
}
330
47
100
AcDbScale
 70
     0
300
1:4
140
1.0
141
4.0
290
     0
  0
SCALE
  5
4B
102
{ACAD_REACTORS
330
47
102
}
330
47
100
AcDbScale
 70
     0
300
1:5
140
1.0
141
5.0
290
     0
  0
SCALE
  5
4C
102
{ACAD_REACTORS
330
47
102
}
330
47
100
AcDbScale
 70
     0
300
1:8
140
1.0
141
8.0
290
     0
  0
SCALE
  5
4D
102
{ACAD_REACTORS
330
47
102
}
330
47
100
AcDbScale
 70
     0
300
1:10
140
1.0
141
10.0
290
     0
  0
SCALE
  5
4E
102
{ACAD_REACTORS
330
47
102
}
330
47
100
AcDbScale
 70
     0
300
1:16
140
1.0
141
16.0
290
     0
  0
SCALE
  5
4F
102
{ACAD_REACTORS
330
47
102
}
330
47
100
AcDbScale
 70
     0
300
1:20
140
1.0
141
20.0
290
     0
  0
SCALE
  5
50
102
{ACAD_REACTORS
330
47
102
}
330
47
100
AcDbScale
 70
     0
300
1:30
140
1.0
141
30.0
290
     0
  0
SCALE
  5
51
102
{ACAD_REACTORS
330
47
102
}
330
47
100
AcDbScale
 70
     0
300
1:40
140
1.0
141
40.0
290
     0
  0
SCALE
  5
52
102
{ACAD_REACTORS
330
47
102
}
330
47
100
AcDbScale
 70
     0
300
1:50
140
1.0
141
50.0
290
     0
  0
SCALE
  5
53
102
{ACAD_REACTORS
330
47
102
}
330
47
100
AcDbScale
 70
     0
300
1:100
140
1.0
141
100.0
290
     0
  0
SCALE
  5
54
102
{ACAD_REACTORS
330
47
102
}
330
47
100
AcDbScale
 70
     0
300
2:1
140
2.0
141
1.0
290
     0
  0
SCALE
  5
55
102
{ACAD_REACTORS
330
47
102
}
330
47
100
AcDbScale
 70
     0
300
4:1
140
4.0
141
1.0
290
     0
  0
SCALE
  5
56
102
{ACAD_REACTORS
330
47
102
}
330
47
100
AcDbScale
 70
     0
300
8:1
140
8.0
141
1.0
290
     0
  0
SCALE
  5
57
102
{ACAD_REACTORS
330
47
102
}
330
47
100
AcDbScale
 70
     0
300
10:1
140
10.0
141
1.0
290
     0
  0
SCALE
  5
58
102
{ACAD_REACTORS
330
47
102
}
330
47
100
AcDbScale
 70
     0
300
100:1
140
100.0
141
1.0
290
     0
  0
SCALE
  5
59
102
{ACAD_REACTORS
330
47
102
}
330
47
100
AcDbScale
 70
     0
300
1/128" = 1'-0"
140
0.0078125
141
12.0
290
     0
  0
SCALE
  5
5A
102
{ACAD_REACTORS
330
47
102
}
330
47
100
AcDbScale
 70
     0
300
1/64" = 1'-0"
140
0.015625
141
12.0
290
     0
  0
SCALE
  5
5B
102
{ACAD_REACTORS
330
47
102
}
330
47
100
AcDbScale
 70
     0
300
1/32" = 1'-0"
140
0.03125
141
12.0
290
     0
  0
SCALE
  5
5C
102
{ACAD_REACTORS
330
47
102
}
330
47
100
AcDbScale
 70
     0
300
1/16" = 1'-0"
140
0.0625
141
12.0
290
     0
  0
SCALE
  5
5D
102
{ACAD_REACTORS
330
47
102
}
330
47
100
AcDbScale
 70
     0
300
3/32" = 1'-0"
140
0.09375
141
12.0
290
     0
  0
SCALE
  5
5E
102
{ACAD_REACTORS
330
47
102
}
330
47
100
AcDbScale
 70
     0
300
1/8" = 1'-0"
140
0.125
141
12.0
290
     0
  0
SCALE
  5
5F
102
{ACAD_REACTORS
330
47
102
}
330
47
100
AcDbScale
 70
     0
300
3/16" = 1'-0"
140
0.1875
141
12.0
290
     0
  0
SCALE
  5
60
102
{ACAD_REACTORS
330
47
102
}
330
47
100
AcDbScale
 70
     0
300
1/4" = 1'-0"
140
0.25
141
12.0
290
     0
  0
SCALE
  5
61
102
{ACAD_REACTORS
330
47
102
}
330
47
100
AcDbScale
 70
     0
300
3/8" = 1'-0"
140
0.375
141
12.0
290
     0
  0
SCALE
  5
62
102
{ACAD_REACTORS
330
47
102
}
330
47
100
AcDbScale
 70
     0
300
1/2" = 1'-0"
140
0.5
141
12.0
290
     0
  0
SCALE
  5
63
102
{ACAD_REACTORS
330
47
102
}
330
47
100
AcDbScale
 70
     0
300
3/4" = 1'-0"
140
0.75
141
12.0
290
     0
  0
SCALE
  5
64
102
{ACAD_REACTORS
330
47
102
}
330
47
100
AcDbScale
 70
     0
300
1" = 1'-0"
140
1.0
141
12.0
290
     0
  0
SCALE
  5
65
102
{ACAD_REACTORS
330
47
102
}
330
47
100
AcDbScale
 70
     0
300
1-1/2" = 1'-0"
140
1.5
141
12.0
290
     0
  0
SCALE
  5
66
102
{ACAD_REACTORS
330
47
102
}
330
47
100
AcDbScale
 70
     0
300
3" = 1'-0"
140
3.0
141
12.0
290
     0
  0
SCALE
  5
67
102
{ACAD_REACTORS
330
47
102
}
330
47
100
AcDbScale
 70
     0
300
6" = 1'-0"
140
6.0
141
12.0
290
     0
  0
SCALE
  5
68
102
{ACAD_REACTORS
330
47
102
}
330
47
100
AcDbScale
 70
     0
300
1'-0" = 1'-0"
140
12.0
141
12.0
290
     0
  0
ENDSEC
  0
EOF
