  0
SECTION
  2
HEADER
  9
$ACADVER
  1
AC1015
  9
$ACADMAINTVER
 70
     6
  9
$DWGCODEPAGE
  3
ANSI_949
  9
$INSBASE
 10
0.0
 20
0.0
 30
0.0
  9
$EXTMIN
 10
-70.87500000000004
 20
-49.71142936356762
 30
0.0
  9
$EXTMAX
 10
81.00660328492206
 20
49.73055141807177
 30
0.0
  9
$LIMMIN
 10
0.0
 20
0.0
  9
$LIMMAX
 10
420.0
 20
297.0
  9
$ORTHOMODE
 70
     0
  9
$REGENMODE
 70
     1
  9
$FILLMODE
 70
     1
  9
$QTEXTMODE
 70
     0
  9
$MIRRTEXT
 70
     1
  9
$LTSCALE
 40
1.0
  9
$ATTMODE
 70
     1
  9
$TEXTSIZE
 40
3.5
  9
$TRACEWID
 40
1.0
  9
$TEXTSTYLE
  7
Standard
  9
$CLAYER
  8
0
  9
$CELTYPE
  6
ByLayer
  9
$CECOLOR
 62
   256
  9
$CELTSCALE
 40
1.0
  9
$DISPSILH
 70
     0
  9
$DIMSCALE
 40
1.0
  9
$DIMASZ
 40
3.302
  9
$DIMEXO
 40
1.0
  9
$DIMDLI
 40
3.75
  9
$DIMRND
 40
0.0
  9
$DIMDLE
 40
0.0
  9
$DIMEXE
 40
1.0
  9
$DIMTP
 40
0.0
  9
$DIMTM
 40
0.0
  9
$DIMTXT
 40
3.5
  9
$DIMCEN
 40
2.5
  9
$DIMTSZ
 40
0.0
  9
$DIMTOL
 70
     0
  9
$DIMLIM
 70
     0
  9
$DIMTIH
 70
     1
  9
$DIMTOH
 70
     1
  9
$DIMSE1
 70
     0
  9
$DIMSE2
 70
     0
  9
$DIMTAD
 70
     1
  9
$DIMZIN
 70
     0
  9
$DIMBLK
  1

  9
$DIMASO
 70
     1
  9
$DIMSHO
 70
     1
  9
$DIMPOST
  1

  9
$DIMAPOST
  1

  9
$DIMALT
 70
     0
  9
$DIMALTD
 70
     3
  9
$DIMALTF
 40
0.0393700787401575
  9
$DIMLFAC
 40
1.0
  9
$DIMTOFL
 70
     1
  9
$DIMTVP
 40
0.0
  9
$DIMTIX
 70
     0
  9
$DIMSOXD
 70
     0
  9
$DIMSAH
 70
     0
  9
$DIMBLK1
  1

  9
$DIMBLK2
  1

  9
$DIMSTYLE
  2
ISO-25
  9
$DIMCLRD
 70
     0
  9
$DIMCLRE
 70
     0
  9
$DIMCLRT
 70
     0
  9
$DIMTFAC
 40
1.0
  9
$DIMGAP
 40
1.524
  9
$DIMJUST
 70
     0
  9
$DIMSD1
 70
     0
  9
$DIMSD2
 70
     0
  9
$DIMTOLJ
 70
     0
  9
$DIMTZIN
 70
     0
  9
$DIMALTZ
 70
     0
  9
$DIMALTTZ
 70
     0
  9
$DIMUPT
 70
     0
  9
$DIMDEC
 70
     2
  9
$DIMTDEC
 70
     2
  9
$DIMALTU
 70
     2
  9
$DIMALTTD
 70
     3
  9
$DIMTXSTY
  7
Standard
  9
$DIMAUNIT
 70
     0
  9
$DIMADEC
 70
     2
  9
$DIMALTRND
 40
0.0
  9
$DIMAZIN
 70
     0
  9
$DIMDSEP
 70
    44
  9
$DIMATFIT
 70
     3
  9
$DIMFRAC
 70
     0
  9
$DIMLDRBLK
  1

  9
$DIMLUNIT
 70
     2
  9
$DIMLWD
 70
    -2
  9
$DIMLWE
 70
    -2
  9
$DIMTMOVE
 70
     0
  9
$LUNITS
 70
     2
  9
$LUPREC
 70
     2
  9
$SKETCHINC
 40
1.0
  9
$FILLETRAD
 40
10.0
  9
$AUNITS
 70
     0
  9
$AUPREC
 70
     2
  9
$MENU
  1
.
  9
$ELEVATION
 40
0.0
  9
$PELEVATION
 40
0.0
  9
$THICKNESS
 40
0.0
  9
$LIMCHECK
 70
     0
  9
$CHAMFERA
 40
0.0
  9
$CHAMFERB
 40
0.0
  9
$CHAMFERC
 40
0.0
  9
$CHAMFERD
 40
0.0
  9
$SKPOLY
 70
     0
  9
$TDCREATE
 40
2458236.751675926
  9
$TDUCREATE
 40
2458236.376675926
  9
$TDUPDATE
 40
2459697.444990544
  9
$TDUUPDATE
 40
2459697.069990544
  9
$TDINDWG
 40
0.0130317824
  9
$TDUSRTIMER
 40
0.0000441319
  9
$USRTIMER
 70
     1
  9
$ANGBASE
 50
0.0
  9
$ANGDIR
 70
     0
  9
$PDMODE
 70
     0
  9
$PDSIZE
 40
-1.0
  9
$PLINEWID
 40
0.0
  9
$SPLFRAME
 70
     0
  9
$SPLINETYPE
 70
     6
  9
$SPLINESEGS
 70
     8
  9
$HANDSEED
  5
210
  9
$SURFTAB1
 70
     6
  9
$SURFTAB2
 70
     6
  9
$SURFTYPE
 70
     6
  9
$SURFU
 70
     6
  9
$SURFV
 70
     6
  9
$UCSBASE
  2

  9
$UCSNAME
  2

  9
$UCSORG
 10
0.0
 20
0.0
 30
0.0
  9
$UCSXDIR
 10
1.0
 20
0.0
 30
0.0
  9
$UCSYDIR
 10
0.0
 20
1.0
 30
0.0
  9
$UCSORTHOREF
  2

  9
$UCSORTHOVIEW
 70
     0
  9
$UCSORGTOP
 10
0.0
 20
0.0
 30
0.0
  9
$UCSORGBOTTOM
 10
0.0
 20
0.0
 30
0.0
  9
$UCSORGLEFT
 10
0.0
 20
0.0
 30
0.0
  9
$UCSORGRIGHT
 10
0.0
 20
0.0
 30
0.0
  9
$UCSORGFRONT
 10
0.0
 20
0.0
 30
0.0
  9
$UCSORGBACK
 10
0.0
 20
0.0
 30
0.0
  9
$PUCSBASE
  2

  9
$PUCSNAME
  2

  9
$PUCSORG
 10
0.0
 20
0.0
 30
0.0
  9
$PUCSXDIR
 10
1.0
 20
0.0
 30
0.0
  9
$PUCSYDIR
 10
0.0
 20
1.0
 30
0.0
  9
$PUCSORTHOREF
  2

  9
$PUCSORTHOVIEW
 70
     0
  9
$PUCSORGTOP
 10
0.0
 20
0.0
 30
0.0
  9
$PUCSORGBOTTOM
 10
0.0
 20
0.0
 30
0.0
  9
$PUCSORGLEFT
 10
0.0
 20
0.0
 30
0.0
  9
$PUCSORGRIGHT
 10
0.0
 20
0.0
 30
0.0
  9
$PUCSORGFRONT
 10
0.0
 20
0.0
 30
0.0
  9
$PUCSORGBACK
 10
0.0
 20
0.0
 30
0.0
  9
$USERI1
 70
     0
  9
$USERI2
 70
     0
  9
$USERI3
 70
     0
  9
$USERI4
 70
     0
  9
$USERI5
 70
     0
  9
$USERR1
 40
0.0
  9
$USERR2
 40
0.0
  9
$USERR3
 40
0.0
  9
$USERR4
 40
0.0
  9
$USERR5
 40
0.0
  9
$WORLDVIEW
 70
     1
  9
$SHADEDGE
 70
     3
  9
$SHADEDIF
 70
    70
  9
$TILEMODE
 70
     1
  9
$MAXACTVP
 70
    64
  9
$PINSBASE
 10
0.0
 20
0.0
 30
0.0
  9
$PLIMCHECK
 70
     0
  9
$PEXTMIN
 10
1.000000000000000E+20
 20
1.000000000000000E+20
 30
1.000000000000000E+20
  9
$PEXTMAX
 10
-1.000000000000000E+20
 20
-1.000000000000000E+20
 30
-1.000000000000000E+20
  9
$PLIMMIN
 10
0.0
 20
0.0
  9
$PLIMMAX
 10
0.0
 20
0.0
  9
$UNITMODE
 70
     0
  9
$VISRETAIN
 70
     1
  9
$PLINEGEN
 70
     0
  9
$PSLTSCALE
 70
     1
  9
$TREEDEPTH
 70
  3020
  9
$CMLSTYLE
  2
Standard
  9
$CMLJUST
 70
     0
  9
$CMLSCALE
 40
20.0
  9
$PROXYGRAPHICS
 70
     1
  9
$MEASUREMENT
 70
     1
  9
$CELWEIGHT
370
    -1
  9
$ENDCAPS
280
     0
  9
$JOINSTYLE
280
     0
  9
$LWDISPLAY
290
     1
  9
$INSUNITS
 70
     4
  9
$HYPERLINKBASE
  1

  9
$STYLESHEET
  1

  9
$XEDIT
290
     1
  9
$CEPSNTYPE
380
     0
  9
$PSTYLEMODE
290
     1
  9
$FINGERPRINTGUID
  2
{1FD8D8AA-7A76-45DC-8898-1F8D3DEF6D17}
  9
$VERSIONGUID
  2
{FAEB1C32-E019-11D5-929B-00C0DF256EC4}
  9
$EXTNAMES
290
     1
  9
$PSVPSCALE
 40
0.0
  9
$OLESTARTUP
290
     0
  0
ENDSEC
  0
SECTION
  2
CLASSES
  0
CLASS
  1
ACDBDICTIONARYWDFLT
  2
AcDbDictionaryWithDefault
  3
ObjectDBX Classes
 90
        0
280
     0
281
     0
  0
CLASS
  1
VISUALSTYLE
  2
AcDbVisualStyle
  3
ObjectDBX Classes
 90
     4095
280
     0
281
     0
  0
CLASS
  1
MATERIAL
  2
AcDbMaterial
  3
ObjectDBX Classes
 90
     1153
280
     0
281
     0
  0
CLASS
  1
SCALE
  2
AcDbScale
  3
ObjectDBX Classes
 90
     1153
280
     0
281
     0
  0
CLASS
  1
SUN
  2
AcDbSun
  3
SCENEOE
 90
     1153
280
     0
281
     0
  0
CLASS
  1
ACDBPLACEHOLDER
  2
AcDbPlaceHolder
  3
ObjectDBX Classes
 90
        0
280
     0
281
     0
  0
CLASS
  1
LAYOUT
  2
AcDbLayout
  3
ObjectDBX Classes
 90
        0
280
     0
281
     0
  0
CLASS
  1
TABLESTYLE
  2
AcDbTableStyle
  3
ObjectDBX Classes
 90
     4095
280
     0
281
     0
  0
CLASS
  1
MLEADERSTYLE
  2
AcDbMLeaderStyle
  3
ACDB_MLEADERSTYLE_CLASS
 90
     4095
280
     0
281
     0
  0
CLASS
  1
RASTERVARIABLES
  2
AcDbRasterVariables
  3
ISM
 90
        0
280
     0
281
     0
  0
CLASS
  1
DIMASSOC
  2
AcDbDimAssoc
  3
"AcDbDimAssoc|Product Desc:     AcDim ARX App For Dimension|Company:          Autodesk, Inc.|WEB Address:      www.autodesk.com"
 90
        0
280
     0
281
     0
  0
ENDSEC
  0
SECTION
  2
TABLES
  0
TABLE
  2
VPORT
  5
8
330
0
100
AcDbSymbolTable
 70
     1
  0
VPORT
  5
29
330
8
100
AcDbSymbolTableRecord
100
AcDbViewportTableRecord
  2
*Active
 70
     0
 10
0.0
 20
0.0
 11
1.0
 21
1.0
 12
5.065801642461011
 22
0.0095610272520688
 13
0.0
 23
0.0
 14
10.0
 24
10.0
 15
10.0
 25
10.0
 16
0.0
 26
0.0
 36
1.0
 17
0.0
 27
0.0
 37
0.0
 40
101.4308203972722
 41
1.89119170984456
 42
50.0
 43
0.0
 44
0.0
 50
0.0
 51
0.0
 71
    16
 72
  2000
 73
     1
 74
     3
 75
     0
 76
     0
 77
     0
 78
     0
281
     0
 65
     1
110
0.0
120
0.0
130
0.0
111
1.0
121
0.0
131
0.0
112
0.0
122
1.0
132
0.0
 79
     0
146
0.0
  0
ENDTAB
  0
TABLE
  2
LTYPE
  5
5
330
0
100
AcDbSymbolTable
 70
     6
  0
LTYPE
  5
14
330
5
100
AcDbSymbolTableRecord
100
AcDbLinetypeTableRecord
  2
ByBlock
 70
     0
  3

 72
    65
 73
     0
 40
0.0
  0
LTYPE
  5
15
330
5
100
AcDbSymbolTableRecord
100
AcDbLinetypeTableRecord
  2
ByLayer
 70
     0
  3

 72
    65
 73
     0
 40
0.0
  0
LTYPE
  5
16
330
5
100
AcDbSymbolTableRecord
100
AcDbLinetypeTableRecord
  2
Continuous
 70
     0
  3
Solid line
 72
    65
 73
     0
 40
0.0
  0
LTYPE
  5
6A
330
5
100
AcDbSymbolTableRecord
100
AcDbLinetypeTableRecord
  2
HIDDEN
 70
     0
  3
Hidden __ __ __ __ __ __ __ __ __ __ __ __ __ __
 72
    65
 73
     2
 40
1.905
 49
1.27
 74
     0
 49
-0.635
 74
     0
  0
LTYPE
  5
6B
330
5
100
AcDbSymbolTableRecord
100
AcDbLinetypeTableRecord
  2
PHANTOM
 70
     0
  3
Phantom ______  __  __  ______  __  __  ______
 72
    65
 73
     6
 40
12.7
 49
6.35
 74
     0
 49
-1.27
 74
     0
 49
1.27
 74
     0
 49
-1.27
 74
     0
 49
1.27
 74
     0
 49
-1.27
 74
     0
  0
LTYPE
  5
6C
330
5
100
AcDbSymbolTableRecord
100
AcDbLinetypeTableRecord
  2
CENTER
 70
     0
  3
Center ____ _ ____ _ ____ _ ____ _ ____ _ ____
 72
    65
 73
     4
 40
10.16
 49
6.35
 74
     0
 49
-1.27
 74
     0
 49
1.27
 74
     0
 49
-1.27
 74
     0
  0
LTYPE
  5
6D
330
5
100
AcDbSymbolTableRecord
100
AcDbLinetypeTableRecord
  2
CENTERX2
 70
     0
  3
Center (2x) ________  __  ________  __  _____
 72
    65
 73
     4
 40
20.32
 49
12.7
 74
     0
 49
-2.54
 74
     0
 49
2.54
 74
     0
 49
-2.54
 74
     0
  0
LTYPE
  5
6E
330
5
100
AcDbSymbolTableRecord
100
AcDbLinetypeTableRecord
  2
DOT2
 70
     0
  3
Dot (.5x) ........................................
 72
    65
 73
     2
 40
0.635
 49
0.0
 74
     0
 49
-0.635
 74
     0
  0
ENDTAB
  0
TABLE
  2
LAYER
  5
2
102
{ACAD_XDICTIONARY
360
1D2
102
}
330
0
100
AcDbSymbolTable
 70
    17
  0
LAYER
  5
10
330
2
100
AcDbSymbolTableRecord
100
AcDbLayerTableRecord
  2
0
 70
     0
 62
     7
  6
Continuous
370
    -3
390
F
  0
LAYER
  5
6F
330
2
100
AcDbSymbolTableRecord
100
AcDbLayerTableRecord
  2
FORMAT
 70
     0
 62
     2
  6
Continuous
370
    -3
390
F
  0
LAYER
  5
70
330
2
100
AcDbSymbolTableRecord
100
AcDbLayerTableRecord
  2
외형선
 70
     0
 62
   100
  6
Continuous
370
    30
390
F
  0
LAYER
  5
71
330
2
100
AcDbSymbolTableRecord
100
AcDbLayerTableRecord
  2
숨은선
 70
     0
 62
     2
  6
HIDDEN
370
    15
390
F
  0
LAYER
  5
72
330
2
100
AcDbSymbolTableRecord
100
AcDbLayerTableRecord
  2
중심선
 70
     0
 62
     1
  6
CENTERX2
370
    -3
390
F
  0
LAYER
  5
73
330
2
100
AcDbSymbolTableRecord
100
AcDbLayerTableRecord
  2
파단선
 70
     0
 62
     4
  6
Continuous
370
    -3
390
F
  0
LAYER
  5
74
330
2
100
AcDbSymbolTableRecord
100
AcDbLayerTableRecord
  2
해칭선
 70
     0
 62
     4
  6
Continuous
370
    -3
390
F
  0
LAYER
  5
75
330
2
100
AcDbSymbolTableRecord
100
AcDbLayerTableRecord
  2
가는실선
 70
     0
 62
     4
  6
Continuous
370
    -3
390
F
  0
LAYER
  5
76
330
2
100
AcDbSymbolTableRecord
100
AcDbLayerTableRecord
  2
치수_보조선
 70
     0
 62
     4
  6
Continuous
370
    -3
390
F
  0
LAYER
  5
77
330
2
100
AcDbSymbolTableRecord
100
AcDbLayerTableRecord
  2
치수문자_일반주서
 70
     0
 62
     7
  6
Continuous
370
    15
390
F
  0
LAYER
  5
78
330
2
100
AcDbSymbolTableRecord
100
AcDbLayerTableRecord
  2
개별주서
 70
     0
 62
   100
  6
Continuous
370
    30
390
F
  0
LAYER
  5
79
330
2
100
AcDbSymbolTableRecord
100
AcDbLayerTableRecord
  2
중간선
 70
     0
 62
     2
  6
Continuous
370
    15
390
F
  0
LAYER
  5
7A
330
2
100
AcDbSymbolTableRecord
100
AcDbLayerTableRecord
  2
윤곽선
 70
     0
 62
     3
  6
Continuous
370
    40
390
F
  0
LAYER
  5
7B
330
2
100
AcDbSymbolTableRecord
100
AcDbLayerTableRecord
  2
중심마크
 70
     0
 62
   100
  6
Continuous
370
    30
390
F
  0
LAYER
  5
7C
330
2
100
AcDbSymbolTableRecord
100
AcDbLayerTableRecord
  2
가상선
 70
     0
 62
     4
  6
PHANTOM
370
    -3
390
F
  0
LAYER
  5
7D
330
2
100
AcDbSymbolTableRecord
100
AcDbLayerTableRecord
  2
특수지정선
 70
     0
 62
     5
  6
CENTERX2
370
    60
390
F
  0
LAYER
  5
162
330
2
100
AcDbSymbolTableRecord
100
AcDbLayerTableRecord
  2
Defpoints
 70
     0
 62
     7
  6
Continuous
290
     0
370
    -3
390
F
  0
ENDTAB
  0
TABLE
  2
STYLE
  5
3
330
0
100
AcDbSymbolTable
 70
     2
  0
STYLE
  5
11
330
3
100
AcDbSymbolTableRecord
100
AcDbTextStyleTableRecord
  2
Standard
 70
     0
 40
0.0
 41
1.0
 50
0.0
 71
     0
 42
3.5
  3
txt
  4

  0
STYLE
  5
93
330
3
100
AcDbSymbolTableRecord
100
AcDbTextStyleTableRecord
  2
SLDTEXTSTYLE0
 70
     0
 40
0.0
 41
0.75
 50
0.0
 71
     0
 42
3.5
  3
TXT
  4

  0
ENDTAB
  0
TABLE
  2
VIEW
  5
6
330
0
100
AcDbSymbolTable
 70
     0
  0
ENDTAB
  0
TABLE
  2
UCS
  5
7
330
0
100
AcDbSymbolTable
 70
     0
  0
ENDTAB
  0
TABLE
  2
APPID
  5
9
330
0
100
AcDbSymbolTable
 70
     3
  0
APPID
  5
12
330
9
100
AcDbSymbolTableRecord
100
AcDbRegAppTableRecord
  2
ACAD
 70
     0
  0
APPID
  5
163
330
9
100
AcDbSymbolTableRecord
100
AcDbRegAppTableRecord
  2
ACAD_DSTYLE_DIMRADIAL_EXTENSION
 70
     0
  0
APPID
  5
181
330
9
100
AcDbSymbolTableRecord
100
AcDbRegAppTableRecord
  2
PE_DIMMEASUREMENT
 70
     0
  0
ENDTAB
  0
TABLE
  2
DIMSTYLE
  5
A
330
0
100
AcDbSymbolTable
 70
     3
100
AcDbDimStyleTable
  0
DIMSTYLE
105
27
330
A
100
AcDbSymbolTableRecord
100
AcDbDimStyleTableRecord
  2
ISO-25
 70
     0
 41
2.5
 42
0.625
 43
3.75
 44
1.25
 73
     0
 74
     0
 77
     1
 78
     8
140
2.5
141
2.5
143
0.03937007874016
147
0.625
171
     3
172
     1
178
     0
271
     2
272
     2
274
     3
278
    44
283
     0
284
     8
340
11
  0
DIMSTYLE
105
FB
102
{ACAD_REACTORS
330
FA
330
10E
330
171
330
164
102
}
330
A
100
AcDbSymbolTableRecord
100
AcDbDimStyleTableRecord
  2
SLDDIMSTYLE0
 70
     0
 41
3.302
 44
0.0
 45
0.000000001
 73
     0
 74
     0
 77
     1
 78
     4
 79
     1
140
3.5
143
0.0393700787401575
147
0.875
148
0.000000001
170
     1
173
     1
178
     0
271
     2
272
     2
276
     2
284
    12
340
93
  0
DIMSTYLE
105
122
102
{ACAD_REACTORS
330
121
102
}
330
A
100
AcDbSymbolTableRecord
100
AcDbDimStyleTableRecord
  2
SLDDIMSTYLE1
 70
     0
 41
3.302
 44
0.0
 45
0.000000001
 73
     0
 74
     0
 77
     1
 78
     4
 79
     1
140
3.5
143
0.0393700787401575
147
0.875
148
0.000000001
170
     1
172
     1
173
     1
178
     0
271
     2
272
     2
276
     2
284
    12
289
     0
340
93
  0
ENDTAB
  0
TABLE
  2
BLOCK_RECORD
  5
1
330
0
100
AcDbSymbolTable
 70
     8
  0
BLOCK_RECORD
  5
1F
102
{ACAD_XDICTIONARY
360
20D
102
}
330
1
100
AcDbSymbolTableRecord
100
AcDbBlockTableRecord
  2
*Model_Space
340
22
  0
BLOCK_RECORD
  5
1B
330
1
100
AcDbSymbolTableRecord
100
AcDbBlockTableRecord
  2
*Paper_Space
340
1E
  0
BLOCK_RECORD
  5
23
330
1
100
AcDbSymbolTableRecord
100
AcDbBlockTableRecord
  2
*Paper_Space0
340
26
  0
BLOCK_RECORD
  5
7E
330
1
100
AcDbSymbolTableRecord
100
AcDbBlockTableRecord
  2
블럭10
340
0
102
{BLKREFS
331
F2
102
}
  0
BLOCK_RECORD
  5
FC
330
1
100
AcDbSymbolTableRecord
100
AcDbBlockTableRecord
  2
_D
340
0
  0
BLOCK_RECORD
  5
10F
330
1
100
AcDbSymbolTableRecord
100
AcDbBlockTableRecord
  2
_D_1
340
0
  0
BLOCK_RECORD
  5
123
330
1
100
AcDbSymbolTableRecord
100
AcDbBlockTableRecord
  2
_D_2
340
0
  0
BLOCK_RECORD
  5
136
330
1
100
AcDbSymbolTableRecord
100
AcDbBlockTableRecord
  2
SW_DOWELSYMBOL_0
340
0
102
{BLKREFS
331
13C
102
}
  0
BLOCK_RECORD
  5
167
330
1
100
AcDbSymbolTableRecord
100
AcDbBlockTableRecord
  2
*D6
340
0
  0
BLOCK_RECORD
  5
174
330
1
100
AcDbSymbolTableRecord
100
AcDbBlockTableRecord
  2
*D7
340
0
  0
ENDTAB
  0
ENDSEC
  0
SECTION
  2
BLOCKS
  0
BLOCK
  5
20
330
1F
100
AcDbEntity
  8
0
100
AcDbBlockBegin
  2
*Model_Space
 70
     0
 10
0.0
 20
0.0
 30
0.0
  3
*Model_Space
  1
*Model_Space
  0
ENDBLK
  5
21
330
1F
100
AcDbEntity
  8
0
100
AcDbBlockEnd
  0
BLOCK
  5
1C
330
1B
100
AcDbEntity
 67
     1
  8
0
100
AcDbBlockBegin
  2
*Paper_Space
 70
     0
 10
0.0
 20
0.0
 30
0.0
  3
*Paper_Space
  1
*Paper_Space
  0
ENDBLK
  5
1D
330
1B
100
AcDbEntity
 67
     1
  8
0
100
AcDbBlockEnd
  0
BLOCK
  5
24
330
23
100
AcDbEntity
  8
0
100
AcDbBlockBegin
  2
*Paper_Space0
 70
     0
 10
0.0
 20
0.0
 30
0.0
  3
*Paper_Space0
  1
*Paper_Space0
  0
ENDBLK
  5
25
330
23
100
AcDbEntity
  8
0
100
AcDbBlockEnd
  0
BLOCK
  5
7F
330
7E
100
AcDbEntity
  8
0
100
AcDbBlockBegin
  2
블럭10
 70
     2
 10
0.0
 20
0.0
 30
0.0
  3
블럭10
  1
블럭10
  0
ELLIPSE
  5
81
330
7E
100
AcDbEntity
  8
중심선
100
AcDbEllipse
 10
20.54032771741204
 20
12.0471743016438
 30
0.0
 11
6.600054785286829
 21
-1.261213355974178E-13
 31
0.0
210
0.0
220
0.0
230
1.0
 40
0.636358354079598
 41
0.9219305317359503
 42
6.513795318482858
  0
ELLIPSE
  5
82
330
7E
100
AcDbEntity
  8
중심선
100
AcDbEllipse
 10
20.54032771746488
 20
12.04717430159265
 30
0.0
 11
3.960054785062283
 21
1.540847449632565E-10
 31
0.0
210
0.0
220
0.0
230
1.0
 40
0.3939339440162632
 41
1.131841032648279
 42
5.62031148352944
  0
LINE
  5
83
330
7E
100
AcDbEntity
  8
중심선
100
AcDbLine
 10
2.268634060543552
 20
16.24717430164393
 30
0.0
 11
5.714909304380834
 21
16.24717430164393
 31
0.0
  0
LINE
  5
84
330
7E
100
AcDbEntity
  8
중심선
100
AcDbLine
 10
5.245725140726316
 20
7.84717430164391
 30
0.0
 11
8.692000384563599
 21
7.84717430164391
 31
0.0
  0
LINE
  5
85
330
7E
100
AcDbEntity
  8
중심선
100
AcDbLine
 10
15.74043728645272
 20
16.24717430164393
 30
0.0
 11
8.692000384563599
 21
7.84717430164391
 31
0.0
  0
LINE
  5
86
330
7E
100
AcDbEntity
  8
중심선
100
AcDbLine
 10
0.1404042013395286
 20
13.71084872107135
 30
0.0
 11
3.58671253028996
 21
13.71088815037384
 31
0.0
  0
LINE
  5
87
330
7E
100
AcDbEntity
  8
중심선
100
AcDbLine
 10
2.750260043222114
 20
10.84717430164391
 30
0.0
 11
6.196535287059397
 21
10.84717430164391
 31
0.0
  0
LINE
  5
88
330
7E
100
AcDbEntity
  8
중심선
100
AcDbLine
 10
12.29416204261559
 20
16.24717430164393
 30
0.0
 11
5.245725140726316
 21
7.84717430164391
 31
0.0
  0
LINE
  5
89
330
7E
100
AcDbEntity
  8
중심선
100
AcDbLine
 10
10.72767329541681
 20
16.24717430164393
 30
0.0
 11
6.196535287059397
 21
10.84717430164391
 31
0.0
  0
LINE
  5
8A
330
7E
100
AcDbEntity
  8
중심선
100
AcDbLine
 10
7.28139805157953
 20
16.24717430164393
 30
0.0
 11
2.750260043222114
 21
10.84717430164391
 31
0.0
  0
LINE
  5
8B
330
7E
100
AcDbEntity
  8
중심선
100
AcDbLine
 10
5.714909304380834
 20
16.24717430164393
 30
0.0
 11
3.58671253028996
 21
13.71088815037384
 31
0.0
  0
LINE
  5
8C
330
7E
100
AcDbEntity
  8
중심선
100
AcDbLine
 10
2.268634060543552
 20
16.24717430164393
 30
0.0
 11
0.1404042013395286
 21
13.71084872107135
 31
0.0
  0
LINE
  5
8D
330
7E
100
AcDbEntity
  8
중심선
100
AcDbLine
 10
7.28139805157953
 20
16.24717430164393
 30
0.0
 11
10.72767329541681
 21
16.24717430164393
 31
0.0
  0
LINE
  5
8E
330
7E
100
AcDbEntity
  8
중심선
100
AcDbLine
 10
12.29416204261559
 20
16.24717430164393
 30
0.0
 11
15.74043728645272
 21
16.24717430164393
 31
0.0
  0
LINE
  5
8F
330
7E
100
AcDbEntity
  8
중심선
100
AcDbLine
 10
19.22036997980202
 20
11.08717430171403
 30
0.0
 11
23.66174974927406
 21
11.08717430171406
 31
0.0
  0
LINE
  5
90
330
7E
100
AcDbEntity
  8
중심선
100
AcDbLine
 10
19.22039502424796
 20
13.00717430171391
 30
0.0
 11
19.22036997980202
 21
11.08717430171403
 31
0.0
  0
LINE
  5
91
330
7E
100
AcDbEntity
  8
중심선
100
AcDbLine
 10
19.22039502424796
 20
13.00717430171391
 30
0.0
 11
26.96566020931264
 21
13.00717430171391
 31
0.0
  0
LINE
  5
92
330
7E
100
AcDbEntity
  8
중심선
100
AcDbLine
 10
22.22332737316547
 20
13.45928029700563
 30
0.0
 11
24.52862924686651
 21
15.39360700705356
 31
0.0
  0
ATTDEF
  5
94
330
7E
100
AcDbEntity
  8
FORMAT
 62
     2
100
AcDbText
 10
-11.05102035218446
 20
2.075366912832191
 30
0.0
 40
4.233333333333333
  1
GMG22950[ 6 FLUTE ]
 41
0.75
  7
SLDTEXTSTYLE0
 11
-11.05102035218446
 21
-0.0412997538344756
 31
0.0
100
AcDbAttributeDefinition
  3

  2
AUTOATTR0
 70
     0
 74
     1
  0
ENDBLK
  5
80
330
7E
100
AcDbEntity
  8
0
100
AcDbBlockEnd
  0
BLOCK
  5
FD
330
FC
100
AcDbEntity
  8
0
100
AcDbBlockBegin
  2
_D
 70
     0
 10
0.0
 20
0.0
 30
0.0
  3
_D
  1
_D
  0
LINE
  5
FF
330
FC
100
AcDbEntity
  8
치수문자_일반주서
 62
     0
370
    -2
100
AcDbLine
 10
-53.5
 20
12.26249999999999
 30
0.0
 11
-53.5
 21
45.35555141807178
 31
0.0
  0
LINE
  5
100
330
FC
100
AcDbEntity
  8
치수문자_일반주서
 62
     0
370
    -2
100
AcDbLine
 10
48.09999999999999
 20
10.4765
 30
0.0
 11
48.09999999999999
 21
45.35555141807178
 31
0.0
  0
LINE
  5
101
330
FC
100
AcDbEntity
  8
치수문자_일반주서
 62
     0
370
    -2
100
AcDbLine
 10
-50.198
 20
45.35555141807178
 30
0.0
 11
44.79799999999999
 21
45.35555141807178
 31
0.0
  0
SOLID
  5
102
330
FC
100
AcDbEntity
  8
치수문자_일반주서
 62
     0
100
AcDbTrace
 10
-50.198
 20
45.90588475140511
 30
0.0
 11
-50.198
 21
44.80521808473844
 31
0.0
 12
-53.5
 22
45.35555141807178
 32
0.0
 13
-53.5
 23
45.35555141807178
 33
0.0
  0
SOLID
  5
103
330
FC
100
AcDbEntity
  8
치수문자_일반주서
 62
     0
100
AcDbTrace
 10
44.79799999999999
 20
44.80521808473844
 30
0.0
 11
44.79799999999999
 21
45.90588475140511
 31
0.0
 12
48.09999999999999
 22
45.35555141807178
 32
0.0
 13
48.09999999999999
 23
45.35555141807178
 33
0.0
  0
MTEXT
  5
104
330
FC
100
AcDbEntity
  8
치수문자_일반주서
 62
     0
100
AcDbMText
 10
-2.699999999999999
 20
49.73055141807178
 30
0.0
 40
3.5
 41
0.0
 71
     2
 72
     1
  1
\A1;101.60 [4]
  7
SLDTEXTSTYLE0
 73
     1
 44
1.0
  0
POINT
  5
105
330
FC
100
AcDbEntity
  8
Defpoints
 62
     0
100
AcDbPoint
 10
-53.5
 20
12.19999999999999
 30
0.0
  0
POINT
  5
106
330
FC
100
AcDbEntity
  8
Defpoints
 62
     0
100
AcDbPoint
 10
48.09999999999999
 20
10.414
 30
0.0
  0
POINT
  5
107
330
FC
100
AcDbEntity
  8
Defpoints
 62
     0
100
AcDbPoint
 10
48.09999999999999
 20
45.35555141807178
 30
0.0
  0
ENDBLK
  5
FE
330
FC
100
AcDbEntity
  8
0
100
AcDbBlockEnd
  0
BLOCK
  5
110
330
10F
100
AcDbEntity
  8
0
100
AcDbBlockBegin
  2
_D_1
 70
     0
 10
0.0
 20
0.0
 30
0.0
  3
_D_1
  1
_D_1
  0
LINE
  5
112
330
10F
100
AcDbEntity
  8
치수문자_일반주서
 62
     0
370
    -2
100
AcDbLine
 10
48.09999999999999
 20
10.4765
 30
0.0
 11
48.09999999999999
 21
28.04099453033793
 31
0.0
  0
LINE
  5
113
330
10F
100
AcDbEntity
  8
치수문자_일반주서
 62
     0
370
    -2
100
AcDbLine
 10
9.999999999999996
 20
-12.29612325966307
 30
0.0
 11
9.999999999999996
 21
28.04099453033793
 31
0.0
  0
LINE
  5
114
330
10F
100
AcDbEntity
  8
치수문자_일반주서
 62
     0
370
    -2
100
AcDbLine
 10
44.79799999999999
 20
28.04099453033793
 30
0.0
 11
13.302
 21
28.04099453033793
 31
0.0
  0
SOLID
  5
115
330
10F
100
AcDbEntity
  8
치수문자_일반주서
 62
     0
100
AcDbTrace
 10
44.79799999999999
 20
27.4906611970046
 30
0.0
 11
44.79799999999999
 21
28.59132786367126
 31
0.0
 12
48.09999999999999
 22
28.04099453033793
 32
0.0
 13
48.09999999999999
 23
28.04099453033793
 33
0.0
  0
SOLID
  5
116
330
10F
100
AcDbEntity
  8
치수문자_일반주서
 62
     0
100
AcDbTrace
 10
13.302
 20
28.59132786367126
 30
0.0
 11
13.302
 21
27.4906611970046
 31
0.0
 12
9.999999999999996
 22
28.04099453033793
 32
0.0
 13
9.999999999999996
 23
28.04099453033793
 33
0.0
  0
MTEXT
  5
117
330
10F
100
AcDbEntity
  8
치수문자_일반주서
 62
     0
100
AcDbMText
 10
28.63090169785223
 20
32.41599453033793
 30
0.0
 40
3.5
 41
0.0
 71
     2
 72
     1
  1
\A1;38.10 [1 1/2]
  7
SLDTEXTSTYLE0
 73
     1
 44
1.0
  0
POINT
  5
118
330
10F
100
AcDbEntity
  8
Defpoints
 62
     0
100
AcDbPoint
 10
48.09999999999999
 20
10.414
 30
0.0
  0
POINT
  5
119
330
10F
100
AcDbEntity
  8
Defpoints
 62
     0
100
AcDbPoint
 10
9.999999999999996
 20
-12.35862325966307
 30
0.0
  0
POINT
  5
11A
330
10F
100
AcDbEntity
  8
Defpoints
 62
     0
100
AcDbPoint
 10
9.999999999999996
 20
28.04099453033793
 30
0.0
  0
ENDBLK
  5
111
330
10F
100
AcDbEntity
  8
0
100
AcDbBlockEnd
  0
BLOCK
  5
124
330
123
100
AcDbEntity
  8
0
100
AcDbBlockBegin
  2
_D_2
 70
     0
 10
0.0
 20
0.0
 30
0.0
  3
_D_2
  1
_D_2
  0
LINE
  5
126
330
123
100
AcDbEntity
  8
치수문자_일반주서
 62
     0
370
    -2
100
AcDbLine
 10
-53.0625
 20
12.7
 30
0.0
 11
-66.50000000000006
 21
12.69999999999995
 31
0.0
  0
LINE
  5
127
330
123
100
AcDbEntity
  8
치수문자_일반주서
 62
     0
370
    -2
100
AcDbLine
 10
-53.0625
 20
-12.7
 30
0.0
 11
-66.49999999999997
 21
-12.70000000000005
 31
0.0
  0
LINE
  5
128
330
123
100
AcDbEntity
  8
치수문자_일반주서
 62
     0
370
    -2
100
AcDbLine
 10
-66.50000000000004
 20
9.397999999999946
 30
0.0
 11
-66.49999999999999
 21
-9.398000000000053
 31
0.0
  0
SOLID
  5
129
330
123
100
AcDbEntity
  8
치수문자_일반주서
 62
     0
100
AcDbTrace
 10
-65.94966666666672
 20
9.397999999999948
 30
0.0
 11
-67.05033333333337
 21
9.397999999999945
 31
0.0
 12
-66.50000000000006
 22
12.69999999999995
 32
0.0
 13
-66.50000000000006
 23
12.69999999999995
 33
0.0
  0
SOLID
  5
12A
330
123
100
AcDbEntity
  8
치수문자_일반주서
 62
     0
100
AcDbTrace
 10
-67.05033333333331
 20
-9.398000000000055
 30
0.0
 11
-65.94966666666666
 21
-9.398000000000051
 31
0.0
 12
-66.49999999999997
 22
-12.70000000000005
 32
0.0
 13
-66.49999999999997
 23
-12.70000000000005
 33
0.0
  0
MTEXT
  5
12B
330
123
100
AcDbEntity
  8
치수문자_일반주서
 62
     0
100
AcDbMText
 10
-70.87500000000001
 20
-0.0000000000000205
 30
0.0
 40
3.5
 41
0.0
 71
     2
 72
     1
  1
\A1;%%c25.40 [1]
  7
SLDTEXTSTYLE0
 11
-3.356894814614647E-15
 21
1.0
 31
0.0
 73
     1
 44
1.0
  0
POINT
  5
12C
330
123
100
AcDbEntity
  8
Defpoints
 62
     0
100
AcDbPoint
 10
-53.0
 20
12.7
 30
0.0
  0
POINT
  5
12D
330
123
100
AcDbEntity
  8
Defpoints
 62
     0
100
AcDbPoint
 10
-53.0
 20
-12.7
 30
0.0
  0
POINT
  5
12E
330
123
100
AcDbEntity
  8
Defpoints
 62
     0
100
AcDbPoint
 10
-66.49999999999997
 20
-12.70000000000005
 30
0.0
  0
ENDBLK
  5
125
330
123
100
AcDbEntity
  8
0
100
AcDbBlockEnd
  0
BLOCK
  5
137
330
136
100
AcDbEntity
  8
0
100
AcDbBlockBegin
  2
SW_DOWELSYMBOL_0
 70
     0
 10
0.0
 20
0.0
 30
0.0
  3
SW_DOWELSYMBOL_0
  1
SW_DOWELSYMBOL_0
  0
CIRCLE
  5
139
330
136
100
AcDbEntity
  8
외형선
 62
     0
100
AcDbCircle
 10
0.0
 20
0.0
 30
0.0
 40
3.000000000000004
  0
HATCH
  5
13A
330
136
100
AcDbEntity
  8
0
  6
Continuous
 62
     0
370
    30
100
AcDbHatch
 10
0.0
 20
0.0
 30
0.0
210
0.0
220
0.0
230
1.0
  2
SOLID
 70
     1
 71
     0
 91
        1
 92
        0
 93
        3
 72
     2
 10
0.0
 20
0.0
 40
3.000000000000004
 50
0.0
 51
90.0
 73
     1
 72
     1
 10
0.0
 20
3.000000000000004
 11
0.0
 21
0.0
 72
     1
 10
0.0
 20
0.0
 11
3.000000000000006
 21
0.0
 97
        0
 75
     0
 76
     1
 98
        1
 10
0.0
 20
0.0
  0
HATCH
  5
13B
330
136
100
AcDbEntity
  8
0
  6
Continuous
 62
     0
370
    30
100
AcDbHatch
 10
0.0
 20
0.0
 30
0.0
210
0.0
220
0.0
230
1.0
  2
SOLID
 70
     1
 71
     0
 91
        1
 92
        0
 93
        3
 72
     2
 10
0.0
 20
0.0
 40
3.000000000000004
 50
180.0
 51
270.0000000000007
 73
     1
 72
     1
 10
0.0
 20
-3.000000000000004
 11
0.0
 21
0.0
 72
     1
 10
0.0
 20
0.0
 11
-3.000000000000006
 21
0.0
 97
        0
 75
     0
 76
     1
 98
        1
 10
0.0
 20
0.0
  0
ENDBLK
  5
138
330
136
100
AcDbEntity
  8
0
100
AcDbBlockEnd
  0
BLOCK
  5
168
330
167
100
AcDbEntity
  8
0
100
AcDbBlockBegin
  2
*D6
 70
     1
 10
0.0
 20
0.0
 30
0.0
  3
*D6
  1
*D6
  0
LINE
  5
16A
330
167
100
AcDbEntity
  8
치수문자_일반주서
 62
     0
370
    -2
100
AcDbLine
 10
50.18964837650107
 20
13.88954963785926
 30
0.0
 11
81.00660328492208
 21
38.36726065483406
 31
0.0
  0
MTEXT
  5
16B
330
167
100
AcDbEntity
  8
치수문자_일반주서
 62
     0
100
AcDbMText
 10
67.21229286135146
 20
30.76283092600686
 30
0.0
 40
3.5
 41
0.0
 71
     5
 72
     1
  1
\A1;R2.29 [R0.090]
  7
SLDTEXTSTYLE0
 11
0.7830437323731316
 21
0.6219666495811135
 31
0.0
 73
     1
 44
1.0
  0
SOLID
  5
16C
330
167
100
AcDbEntity
  8
치수문자_일반주서
 62
     0
100
AcDbTrace
 10
49.84735939701493
 20
14.32048470524194
 30
0.0
 11
50.53193735598721
 21
13.45861457047658
 31
0.0
 12
47.60403797220498
 22
11.83581576094242
 32
0.0
 13
47.60403797220498
 23
11.83581576094242
 33
0.0
  0
LINE
  5
16D
330
167
100
AcDbEntity
  8
치수문자_일반주서
 62
     0
100
AcDbLine
 10
45.724
 20
10.414
 30
0.0
 11
45.90400000000001
 21
10.414
 31
0.0
  0
LINE
  5
16E
330
167
100
AcDbEntity
  8
치수문자_일반주서
 62
     0
100
AcDbLine
 10
45.81400000000001
 20
10.324
 30
0.0
 11
45.81400000000001
 21
10.504
 31
0.0
  0
POINT
  5
16F
330
167
100
AcDbEntity
  8
Defpoints
 62
     0
100
AcDbPoint
 10
47.60403797220498
 20
11.83581576094242
 30
0.0
  0
POINT
  5
170
330
167
100
AcDbEntity
  8
Defpoints
 62
     0
100
AcDbPoint
 10
45.81400000000001
 20
10.414
 30
0.0
  0
ENDBLK
  5
169
330
167
100
AcDbEntity
  8
0
100
AcDbBlockEnd
  0
BLOCK
  5
175
330
174
100
AcDbEntity
  8
0
100
AcDbBlockBegin
  2
*D7
 70
     1
 10
0.0
 20
0.0
 30
0.0
  3
*D7
  1
*D7
  0
LINE
  5
177
330
174
100
AcDbEntity
  8
치수문자_일반주서
 62
     0
370
    -2
100
AcDbLine
 10
45.87650000000001
 20
12.7
 30
0.0
 11
63.8300468158924
 21
12.7
 31
0.0
  0
LINE
  5
178
330
174
100
AcDbEntity
  8
치수문자_일반주서
 62
     0
370
    -2
100
AcDbLine
 10
45.87650000000001
 20
-12.7
 30
0.0
 11
63.8300468158924
 21
-12.7
 31
0.0
  0
LINE
  5
179
330
174
100
AcDbEntity
  8
치수문자_일반주서
 62
     0
370
    -2
100
AcDbLine
 10
63.8300468158924
 20
9.398
 30
0.0
 11
63.8300468158924
 21
-9.398000000000003
 31
0.0
  0
SOLID
  5
17A
330
174
100
AcDbEntity
  8
치수문자_일반주서
 62
     0
100
AcDbTrace
 10
64.38038014922573
 20
9.398
 30
0.0
 11
63.27971348255907
 21
9.398
 31
0.0
 12
63.8300468158924
 22
12.7
 32
0.0
 13
63.8300468158924
 23
12.7
 33
0.0
  0
SOLID
  5
17B
330
174
100
AcDbEntity
  8
치수문자_일반주서
 62
     0
100
AcDbTrace
 10
63.27971348255907
 20
-9.398000000000003
 30
0.0
 11
64.38038014922573
 21
-9.398000000000003
 31
0.0
 12
63.8300468158924
 22
-12.7
 32
0.0
 13
63.8300468158924
 23
-12.7
 33
0.0
  0
MTEXT
  5
17C
330
174
100
AcDbEntity
  8
치수문자_일반주서
 62
     0
100
AcDbMText
 10
61.2050468158924
 20
-0.0000000000000018
 30
0.0
 40
3.5
 41
0.0
 71
     5
 72
     1
  1
\A1;{%%c25.40 [1]}
  7
SLDTEXTSTYLE0
 11
0.0
 21
1.0
 31
0.0
 73
     1
 44
1.0
  0
POINT
  5
17D
330
174
100
AcDbEntity
  8
Defpoints
 62
     0
100
AcDbPoint
 10
45.81400000000001
 20
12.7
 30
0.0
  0
POINT
  5
17E
330
174
100
AcDbEntity
  8
Defpoints
 62
     0
100
AcDbPoint
 10
45.81400000000001
 20
-12.7
 30
0.0
  0
POINT
  5
17F
330
174
100
AcDbEntity
  8
Defpoints
 62
     0
100
AcDbPoint
 10
63.8300468158924
 20
-12.7
 30
0.0
  0
ENDBLK
  5
176
330
174
100
AcDbEntity
  8
0
100
AcDbBlockEnd
  0
ENDSEC
  0
SECTION
  2
ENTITIES
  0
LINE
  5
95
330
1F
100
AcDbEntity
  8
0
  6
Continuous
 62
     4
370
    15
100
AcDbLine
 10
7.275612586799278
 20
12.7
 30
0.0
 11
-16.06992499999998
 21
12.7
 31
0.0
  0
LINE
  5
96
330
1F
100
AcDbEntity
  8
0
  6
Continuous
 62
     4
370
    15
100
AcDbLine
 10
-53.0
 20
-12.7
 30
0.0
 11
7.275654798895145
 21
-12.7
 31
0.0
  0
LINE
  5
98
330
1F
100
AcDbEntity
  8
0
  6
Continuous
 62
     4
370
    15
100
AcDbLine
 10
-53.5
 20
-12.2
 30
0.0
 11
-53.0
 21
-12.7
 31
0.0
  0
ARC
  5
99
330
1F
100
AcDbEntity
  8
0
  6
Continuous
 62
     4
370
    15
100
AcDbCircle
 10
9.489995659555984
 20
7.584595029651008
 30
0.0
 40
2.539999791628791
100
AcDbArc
 50
224.7150612488549
 51
228.3164952106168
  0
LINE
  5
9A
330
1F
100
AcDbEntity
  8
0
  6
Continuous
 62
     1
370
    15
100
AcDbLine
 10
42.60352084175894
 20
-12.7
 30
0.0
 11
45.81400000000001
 21
-12.7
 31
0.0
  0
LINE
  5
9B
330
1F
100
AcDbEntity
  8
0
  6
Continuous
 62
     1
370
    15
100
AcDbLine
 10
29.30430614848565
 20
-12.7
 30
0.0
 11
33.64723426319257
 21
-12.7
 31
0.0
  0
LINE
  5
9C
330
1F
100
AcDbEntity
  8
0
  6
Continuous
 62
     1
370
    15
100
AcDbLine
 10
20.34754455409492
 20
12.7
 30
0.0
 11
16.00555682525656
 21
12.7
 31
0.0
  0
LINE
  5
9D
330
1F
100
AcDbEntity
  8
0
  6
Continuous
 62
     1
370
    15
100
AcDbLine
 10
33.64723426319259
 20
12.7
 30
0.0
 11
29.30430614848574
 21
12.7
 31
0.0
  0
LINE
  5
9E
330
1F
100
AcDbEntity
  8
0
  6
Continuous
 62
     1
370
    15
100
AcDbLine
 10
16.00555682525647
 20
-12.7
 30
0.0
 11
20.34754455409484
 21
-12.7
 31
0.0
  0
LINE
  5
9F
330
1F
100
AcDbEntity
  8
0
  6
Continuous
 62
     1
370
    15
100
AcDbLine
 10
45.81400000000001
 20
12.7
 30
0.0
 11
42.60352084175894
 21
12.7
 31
0.0
  0
ARC
  5
A0
330
1F
100
AcDbEntity
  8
0
  6
Continuous
 62
     1
370
    15
100
AcDbCircle
 10
45.81400000000001
 20
10.414
 30
0.0
 40
2.286
100
AcDbArc
 50
34.96590655123179
 51
90.0
  0
ARC
  5
A1
330
1F
100
AcDbEntity
  8
0
  6
Continuous
 62
     1
370
    15
100
AcDbCircle
 10
45.81400000000001
 20
10.414
 30
0.0
 40
2.285999999999994
100
AcDbArc
 50
0.0
 51
34.96590655123192
  0
ARC
  5
A2
330
1F
100
AcDbEntity
  8
0
  6
Continuous
 62
     1
370
    15
100
AcDbCircle
 10
45.81400000000001
 20
-10.414
 30
0.0
 40
2.286
100
AcDbArc
 50
326.6113051316583
 51
344.2594058534804
  0
LINE
  5
A3
330
1F
100
AcDbEntity
  8
0
  6
Continuous
 62
     1
370
    15
100
AcDbLine
 10
48.09967163493772
 20
-10.45274502859886
 30
0.0
 11
48.09999999999999
 21
-10.414
 31
0.0
  0
LWPOLYLINE
  5
A4
330
1F
100
AcDbEntity
  8
0
  6
Continuous
 62
     1
370
    15
100
AcDbPolyline
 90
        3
 70
   128
 43
0.0
 10
45.81400000000001
 20
-12.7
 10
46.09561909429618
 20
-12.68258693589816
 10
46.11103635427371
 20
-12.68061981907857
  0
LINE
  5
A5
330
1F
100
AcDbEntity
  8
0
  6
Continuous
 62
     1
370
    15
100
AcDbLine
 10
47.6870285011185
 20
-11.72455722271014
 30
0.0
 11
47.72271047519672
 21
-11.67202238528347
 31
0.0
  0
SPLINE
  5
A6
330
1F
100
AcDbEntity
  8
0
  6
Continuous
 62
     4
370
    15
100
AcDbSpline
210
0.0
220
0.0
230
1.0
 70
     8
 71
     3
 72
    12
 73
     8
 74
     0
 42
0.000000001
 43
0.00000001
 40
0.0
 40
0.0
 40
0.0
 40
0.0
 40
0.2447870563476883
 40
0.4915377391721544
 40
0.7442266908821029
 40
0.9988375325931729
 40
1.0
 40
1.0
 40
1.0
 40
1.0
 10
7.792386543611661
 20
12.67823413523348
 30
0.0
 10
7.741279533138661
 20
12.68119441323483
 30
0.0
 10
7.638655543298016
 20
12.68713871591903
 30
0.0
 10
7.502007860817255
 20
12.69417527964506
 30
0.0
 10
7.380908830377297
 20
12.69857089308583
 30
0.0
 10
7.305896872615325
 20
12.70056897892807
 30
0.0
 10
7.275749603510912
 20
12.6999947758251
 30
0.0
 10
7.275612586799278
 20
12.69999216612203
 30
0.0
  0
SPLINE
  5
A7
330
1F
100
AcDbEntity
  8
0
  6
Continuous
 62
     4
370
    15
100
AcDbSpline
210
0.0
220
0.0
230
1.0
 70
     8
 71
     3
 72
    10
 73
     6
 74
     0
 42
0.000000001
 43
0.00000001
 40
0.0
 40
0.0
 40
0.0
 40
0.0
 40
0.5000000000000001
 40
0.5000000000000001
 40
1.0
 40
1.0
 40
1.0
 40
1.0
 10
10.0
 20
12.35862325966308
 30
0.0
 10
9.631689597780731
 20
12.44338822361128
 30
0.0
 10
9.262336640259852
 20
12.51263298525005
 30
0.0
 10
8.525727764597873
 20
12.61929855963882
 30
0.0
 10
8.16001748052507
 20
12.65670769066326
 30
0.0
 10
7.79238654360412
 20
12.67823413523392
 30
0.0
  0
SPLINE
  5
A8
330
1F
100
AcDbEntity
  8
0
  6
Continuous
 62
     4
370
    15
100
AcDbSpline
210
0.0
220
0.0
230
1.0
 70
     8
 71
     3
 72
    24
 73
    20
 74
     0
 42
0.000000001
 43
0.00000001
 40
0.0
 40
0.0
 40
0.0
 40
0.0
 40
0.125
 40
0.125
 40
0.2500000000000001
 40
0.2500000000000001
 40
0.3750000000000001
 40
0.3750000000000001
 40
0.5000000000000001
 40
0.5000000000000001
 40
0.6250000000000001
 40
0.6250000000000001
 40
0.7500000000000002
 40
0.7500000000000002
 40
0.8125000000000002
 40
0.8125000000000002
 40
0.8750000000000002
 40
0.8750000000000002
 40
1.0
 40
1.0
 40
1.0
 40
1.0
 10
6.949995982200679
 20
8.024798391305843
 30
0.0
 10
6.949995982200679
 20
8.198717966077956
 30
0.0
 10
6.950064402858546
 20
8.368588144154135
 30
0.0
 10
6.975604334793324
 20
8.698639553865327
 30
0.0
 10
7.000634087232516
 20
8.858855403966109
 30
0.0
 10
7.092067794581823
 20
9.168847185106344
 30
0.0
 10
7.1588441946147
 20
9.317944855954492
 30
0.0
 10
7.339432413984532
 20
9.591570217632004
 30
0.0
 10
7.455830299251184
 20
9.719472958835267
 30
0.0
 10
7.732734043916601
 20
9.942535778561062
 30
0.0
 10
7.892504196748181
 20
10.03860688737247
 30
0.0
 10
8.25888448975933
 20
10.20099404498757
 30
0.0
 10
8.456195878463385
 20
10.26328676973497
 30
0.0
 10
8.772929415119703
 20
10.331282434969
 30
0.0
 10
8.882744649689945
 20
10.34967171542961
 30
0.0
 10
9.10286314393788
 20
10.37680700655508
 30
0.0
 10
9.213810440353837
 20
10.38575149527072
 30
0.0
 10
9.5492859309048
 20
10.39908534680639
 30
0.0
 10
9.778021301112574
 20
10.38975002060849
 30
0.0
 10
10.0
 20
10.36163841808607
 30
0.0
  0
SPLINE
  5
A9
330
1F
100
AcDbEntity
  8
0
  6
Continuous
 62
     4
370
    15
100
AcDbSpline
210
0.0
220
0.0
230
1.0
 70
     8
 71
     3
 72
    16
 73
    12
 74
     0
 42
0.000000001
 43
0.00000001
 40
0.0
 40
0.0
 40
0.0
 40
0.0
 40
0.2499999999999999
 40
0.2499999999999999
 40
0.3750000000000002
 40
0.3750000000000002
 40
0.5000000000000006
 40
0.5000000000000006
 40
0.7500000000000002
 40
0.7500000000000002
 40
1.0
 40
1.0
 40
1.0
 40
1.0
 10
7.792386543619214
 20
5.695467777118308
 30
0.0
 10
7.614516219371296
 20
5.854538434000916
 30
0.0
 10
7.468193243884489
 20
6.031455045670922
 30
0.0
 10
7.290193631979285
 20
6.317952291990001
 30
0.0
 10
7.237803469153963
 20
6.417414331447364
 30
0.0
 10
7.148807320299973
 20
6.617211342746572
 30
0.0
 10
7.111748333426213
 20
6.718184445588076
 30
0.0
 10
7.019969668507644
 20
7.023301820000778
 30
0.0
 10
6.985168430069782
 20
7.23017148930751
 30
0.0
 10
6.950198436362216
 20
7.633236145225831
 30
0.0
 10
6.949995982200679
 20
7.831212134319268
 30
0.0
 10
6.949995982200679
 20
8.024798391305845
 30
0.0
  0
SPLINE
  5
AA
330
1F
100
AcDbEntity
  8
0
  6
Continuous
 62
     4
370
    15
100
AcDbSpline
210
0.0
220
0.0
230
1.0
 70
     8
 71
     3
 72
    10
 73
     6
 74
     0
 42
0.000000001
 43
0.00000001
 40
0.0
 40
0.0
 40
0.0
 40
0.0
 40
0.5
 40
0.5
 40
1.0
 40
1.0
 40
1.0
 40
1.0
 10
10.0
 20
3.646364069323097
 30
0.0
 10
9.631689597780731
 20
3.998932085155326
 30
0.0
 10
9.262336640259845
 20
4.347229112354896
 30
0.0
 10
8.525727764597864
 20
5.031337623686399
 30
0.0
 10
8.160017480525063
 20
5.366692896478673
 30
0.0
 10
7.792386543604112
 20
5.695467777131811
 30
0.0
  0
SPLINE
  5
AB
330
1F
100
AcDbEntity
  8
0
  6
Continuous
 62
     4
370
    15
100
AcDbSpline
210
0.0
220
0.0
230
1.0
 70
     8
 71
     3
 72
    24
 73
    20
 74
     0
 42
0.000000001
 43
0.00000001
 40
0.0
 40
0.0
 40
0.0
 40
0.0
 40
0.1250000000000002
 40
0.1250000000000002
 40
0.2500000000000003
 40
0.2500000000000003
 40
0.3750000000000002
 40
0.3750000000000002
 40
0.5000000000000002
 40
0.5000000000000002
 40
0.6250000000000001
 40
0.6250000000000001
 40
0.75
 40
0.75
 40
0.8125000000000001
 40
0.8125000000000001
 40
0.8750000000000001
 40
0.8750000000000001
 40
1.0
 40
1.0
 40
1.0
 40
1.0
 10
6.949995982200681
 20
-4.512239100730868
 30
0.0
 10
6.949995982200681
 20
-4.302487928362538
 30
0.0
 10
6.950064402858551
 20
-4.090957436887099
 30
0.0
 10
6.97560433479333
 20
-3.666601293999782
 30
0.0
 10
7.00063408723252
 20
-3.453739076087531
 30
0.0
 10
7.092067794581826
 20
-3.028262446177578
 30
0.0
 10
7.1588441946147
 20
-2.816381761281973
 30
0.0
 10
7.339432413984531
 20
-2.415340190262355
 30
0.0
 10
7.455830299251183
 20
-2.221200070669298
 30
0.0
 10
7.732734043916599
 20
-1.873457459009886
 30
0.0
 10
7.892504196748185
 20
-1.718709825847415
 30
0.0
 10
8.258884489759332
 20
-1.452047091849075
 30
0.0
 10
8.456195878463388
 20
-1.346838391338157
 30
0.0
 10
8.772929415119705
 20
-1.231004922480152
 30
0.0
 10
8.882744649689947
 20
-1.199419763204013
 30
0.0
 10
9.102863143937881
 20
-1.152678458440029
 30
0.0
 10
9.213810440353837
 20
-1.137185011528848
 30
0.0
 10
9.5492859309048
 20
-1.114089180432528
 30
0.0
 10
9.778021301112574
 20
-1.1303991808713
 30
0.0
 10
10.0
 20
-1.178806327860342
 30
0.0
  0
SPLINE
  5
AC
330
1F
100
AcDbEntity
  8
0
  6
Continuous
 62
     4
370
    15
100
AcDbSpline
210
0.0
220
0.0
230
1.0
 70
     8
 71
     3
 72
    16
 73
    12
 74
     0
 42
0.000000001
 43
0.00000001
 40
0.0
 40
0.0
 40
0.0
 40
0.0
 40
0.249999999999999
 40
0.249999999999999
 40
0.3749999999999989
 40
0.3749999999999989
 40
0.4999999999999989
 40
0.4999999999999989
 40
0.7499999999999994
 40
0.7499999999999994
 40
1.0
 40
1.0
 40
1.0
 40
1.0
 10
7.792386543619216
 20
-6.982766358114818
 30
0.0
 10
7.614516219370666
 20
-6.834110808588626
 30
0.0
 10
7.468193243889282
 20
-6.665164252073551
 30
0.0
 10
7.290193631982556
 20
-6.382465562968937
 30
0.0
 10
7.237803469156747
 20
-6.282881506001996
 30
0.0
 10
7.148807320301914
 20
-6.079527586809045
 30
0.0
 10
7.111748333427805
 20
-5.975140476938003
 30
0.0
 10
7.019969668508358
 20
-5.654374988086351
 30
0.0
 10
6.98516843007015
 20
-5.429652467350491
 30
0.0
 10
6.950198436362227
 20
-4.976225813791001
 30
0.0
 10
6.949995982200686
 20
-4.745708762847282
 30
0.0
 10
6.949995982200686
 20
-4.512239100730868
 30
0.0
  0
SPLINE
  5
AD
330
1F
100
AcDbEntity
  8
0
  6
Continuous
 62
     4
370
    15
100
AcDbSpline
210
0.0
220
0.0
230
1.0
 70
     8
 71
     3
 72
    10
 73
     6
 74
     0
 42
0.000000001
 43
0.00000001
 40
0.0
 40
0.0
 40
0.0
 40
0.0
 40
0.5
 40
0.5
 40
1.0
 40
1.0
 40
1.0
 40
1.0
 10
10.0
 20
-8.712259190340081
 30
0.0
 10
9.631689597781989
 20
-8.444456138456967
 30
0.0
 10
9.262336640262378
 20
-8.165403872897171
 30
0.0
 10
8.525727764602903
 20
-7.587960935956549
 30
0.0
 10
8.160017480531334
 20
-7.290014794189816
 30
0.0
 10
7.792386543611663
 20
-6.982766358108515
 30
0.0
  0
SPLINE
  5
AE
330
1F
100
AcDbEntity
  8
0
  6
Continuous
 62
     4
370
    15
100
AcDbSpline
210
0.0
220
0.0
230
1.0
 70
     8
 71
     3
 72
    24
 73
    20
 74
     0
 42
0.000000001
 43
0.00000001
 40
0.0
 40
0.0
 40
0.0
 40
0.0
 40
0.125
 40
0.125
 40
0.25
 40
0.25
 40
0.375
 40
0.375
 40
0.5
 40
0.5
 40
0.625
 40
0.625
 40
0.75
 40
0.75
 40
0.8125
 40
0.8125
 40
0.875
 40
0.875
 40
1.0
 40
1.0
 40
1.0
 40
1.0
 10
6.949995982200681
 20
-12.53703749203663
 30
0.0
 10
6.949995982200681
 20
-12.50120589444041
 30
0.0
 10
6.950064402858544
 20
-12.45954558104116
 30
0.0
 10
6.975604334793323
 20
-12.36524084786503
 30
0.0
 10
7.00063408723252
 20
-12.31259448005357
 30
0.0
 10
7.092067794581826
 20
-12.19710963128385
 30
0.0
 10
7.158844194614705
 20
-12.1343266172364
 30
0.0
 10
7.339432413984538
 20
-12.0069104078943
 30
0.0
 10
7.455830299251184
 20
-11.94067302950451
 30
0.0
 10
7.732734043916601
 20
-11.81599323757089
 30
0.0
 10
7.892504196748186
 20
-11.75731671321983
 30
0.0
 10
8.258884489759335
 20
-11.65304113683658
 30
0.0
 10
8.456195878463387
 20
-11.61012516107307
 30
0.0
 10
8.772929415119705
 20
-11.5622873574491
 30
0.0
 10
8.882744649689949
 20
-11.54909147863358
 30
0.0
 10
9.102863143937881
 20
-11.52948546499506
 30
0.0
 10
9.213810440353841
 20
-11.52293650679951
 30
0.0
 10
9.549285930904803
 20
-11.51317452723887
 30
0.0
 10
9.778021301112574
 20
-11.52014920147974
 30
0.0
 10
10.0
 20
-11.54044474594636
 30
0.0
  0
SPLINE
  5
AF
330
1F
100
AcDbEntity
  8
0
  6
Continuous
 62
     4
370
    15
100
AcDbSpline
210
0.0
220
0.0
230
1.0
 70
     8
 71
     3
 72
    16
 73
    12
 74
     0
 42
0.000000001
 43
0.00000001
 40
0.0
 40
0.0
 40
0.0
 40
0.0
 40
0.2499999999999998
 40
0.2499999999999998
 40
0.3749999999999998
 40
0.3749999999999998
 40
0.4999999999999999
 40
0.4999999999999999
 40
0.7499999999999999
 40
0.7499999999999999
 40
1.0
 40
1.0
 40
1.0
 40
1.0
 10
7.792386543619202
 20
-12.67823413523302
 30
0.0
 10
7.614516219371284
 20
-12.68864924258996
 30
0.0
 10
7.468193243884485
 20
-12.69661929773812
 30
0.0
 10
7.29019363197928
 20
-12.70041785495297
 30
0.0
 10
7.23780346915396
 20
-12.7002958374436
 30
0.0
 10
7.148807320299969
 20
-12.6967389295504
 30
0.0
 10
7.111748333426211
 20
-12.69332492252114
 30
0.0
 10
7.019969668507644
 20
-12.67767680808311
 30
0.0
 10
6.985168430069782
 20
-12.65982395665473
 30
0.0
 10
6.950198436362216
 20
-12.60946195901511
 30
0.0
 10
6.949995982200685
 20
-12.57692089716564
 30
0.0
 10
6.949995982200685
 20
-12.53703749203663
 30
0.0
  0
SPLINE
  5
B0
330
1F
100
AcDbEntity
  8
0
  6
Continuous
 62
     4
370
    15
100
AcDbSpline
210
0.0
220
0.0
230
1.0
 70
     8
 71
     3
 72
    10
 73
     6
 74
     0
 42
0.000000001
 43
0.00000001
 40
0.0
 40
0.0
 40
0.0
 40
0.0
 40
0.5000000000000001
 40
0.5000000000000001
 40
1.0
 40
1.0
 40
1.0
 40
1.0
 10
10.0
 20
-12.35862325966306
 30
0.0
 10
9.631689597780731
 20
-12.44338822361126
 30
0.0
 10
9.262336640259845
 20
-12.51263298525004
 30
0.0
 10
8.525727764597864
 20
-12.61929855963882
 30
0.0
 10
8.160017480525065
 20
-12.65670769066325
 30
0.0
 10
7.792386543604113
 20
-12.67823413523391
 30
0.0
  0
LINE
  5
B1
330
1F
100
AcDbEntity
  8
0
  6
Continuous
 62
     4
370
    15
100
AcDbLine
 10
-53.0
 20
10.79499999999999
 30
0.0
 11
-53.0
 21
-12.69999999999999
 31
0.0
  0
LINE
  5
B2
330
1F
100
AcDbEntity
  8
0
  6
Continuous
 62
     1
370
    15
100
AcDbLine
 10
10.0
 20
3.646364069323099
 30
0.0
 11
10.0
 21
-1.17880632786034
 31
0.0
  0
LINE
  5
B3
330
1F
100
AcDbEntity
  8
0
  6
Continuous
 62
     1
370
    15
100
AcDbLine
 10
10.0
 20
12.35862325966309
 30
0.0
 11
10.0
 21
10.36163841808608
 31
0.0
  0
LINE
  5
B4
330
1F
100
AcDbEntity
  8
0
  6
Continuous
 62
     1
370
    15
100
AcDbLine
 10
10.0
 20
-8.712259190340085
 30
0.0
 11
10.0
 21
-11.54044474594635
 31
0.0
  0
SPLINE
  5
B6
330
1F
100
AcDbEntity
  8
0
  6
Continuous
 62
     1
370
    15
100
AcDbSpline
210
0.0
220
0.0
230
1.0
 70
    24
 71
     3
 72
    12
 73
     8
 74
     0
 42
0.000000001
 43
0.00000001
 40
0.0
 40
0.0
 40
0.0
 40
0.0
 40
0.4999999999999999
 40
0.4999999999999999
 40
0.7499999999999999
 40
0.7499999999999999
 40
1.0
 40
1.0
 40
1.0
 40
1.0
 10
10.0
 20
-1.178806327860347
 30
0.0
 10
10.0
 20
-1.334091950178893
 30
0.0
 10
10.0
 20
-1.562874002485051
 30
0.0
 10
10.0
 20
-2.040066738959879
 30
0.0
 10
10.0
 20
-2.22189176290131
 30
0.0
 10
10.0
 20
-2.624495573682494
 30
0.0
 10
10.0
 20
-2.846580624070382
 30
0.0
 10
10.0
 20
-3.097455913215229
 30
0.0
  0
LINE
  5
B7
330
1F
100
AcDbEntity
  8
0
  6
Continuous
 62
     4
370
    15
100
AcDbLine
 10
-53.5
 20
10.79499999999999
 30
0.0
 11
-53.5
 21
-12.2
 31
0.0
  0
LINE
  5
B8
330
1F
100
AcDbEntity
  8
0
  6
Continuous
 62
     4
370
    15
100
AcDbLine
 10
7.891963510752438
 20
5.641576625447178
 30
0.0
 11
7.792386543619212
 21
5.695467777118308
 31
0.0
  0
SPLINE
  5
B9
330
1F
100
AcDbEntity
  8
0
  6
Continuous
 62
     1
370
    15
100
AcDbSpline
210
0.0
220
0.0
230
1.0
 70
    24
 71
     3
 72
    14
 73
    10
 74
     0
 42
0.000000001
 43
0.00000001
 40
0.0
 40
0.0
 40
0.0
 40
0.0
 40
0.25
 40
0.25
 40
0.5
 40
0.5
 40
0.75
 40
0.75
 40
1.0
 40
1.0
 40
1.0
 40
1.0
 10
10.0
 20
6.947919379185038
 30
0.0
 10
10.0
 20
6.577384509458764
 30
0.0
 10
10.0
 20
6.207061770021536
 30
0.0
 10
10.0
 20
5.499823306115844
 30
0.0
 10
10.0
 20
5.163147003233854
 30
0.0
 10
10.0
 20
4.563192234982835
 30
0.0
 10
10.0
 20
4.300321398332883
 30
0.0
 10
10.0
 20
3.884918252808798
 30
0.0
 10
10.0
 20
3.732767011209673
 30
0.0
 10
10.0
 20
3.6463640693231
 30
0.0
  0
SPLINE
  5
BA
330
1F
100
AcDbEntity
  8
0
  6
Continuous
 62
     1
370
    15
100
AcDbSpline
210
0.0
220
0.0
230
1.0
 70
    24
 71
     3
 72
    12
 73
     8
 74
     0
 42
0.000000001
 43
0.00000001
 40
0.0
 40
0.0
 40
0.0
 40
0.0
 40
0.4999999999999996
 40
0.4999999999999996
 40
0.7499999999999993
 40
0.7499999999999993
 40
1.0
 40
1.0
 40
1.0
 40
1.0
 10
10.0
 20
10.36163841808612
 30
0.0
 10
10.0
 20
9.792782469096787
 30
0.0
 10
10.0
 20
9.216903478901584
 30
0.0
 10
10.0
 20
8.340278581368288
 30
0.0
 10
10.0
 20
8.047129114570593
 30
0.0
 10
10.0
 20
7.483648819591017
 30
0.0
 10
10.0
 20
7.210106206070543
 30
0.0
 10
10.0
 20
6.947919379185136
 30
0.0
  0
SPLINE
  5
BB
330
1F
100
AcDbEntity
  8
0
  6
Continuous
 62
     1
370
    15
100
AcDbSpline
210
0.0
220
0.0
230
1.0
 70
    24
 71
     3
 72
    14
 73
    10
 74
     0
 42
0.000000001
 43
0.00000001
 40
0.0
 40
0.0
 40
0.0
 40
0.0
 40
0.2500000000000002
 40
0.2500000000000002
 40
0.5000000000000001
 40
0.5000000000000001
 40
0.75
 40
0.75
 40
1.0
 40
1.0
 40
1.0
 40
1.0
 10
10.0
 20
-3.097455913215323
 30
0.0
 10
10.0
 20
-3.45200478084954
 30
0.0
 10
10.0
 20
-3.84716270349752
 30
0.0
 10
10.0
 20
-4.709520130804998
 30
0.0
 10
10.0
 20
-5.176797439724009
 30
0.0
 10
10.0
 20
-6.157470828436804
 30
0.0
 10
10.0
 20
-6.670694223515294
 30
0.0
 10
10.0
 20
-7.701158217019596
 30
0.0
 10
10.0
 20
-8.217970017418438
 30
0.0
 10
10.0
 20
-8.712259190340081
 30
0.0
  0
SPLINE
  5
BC
330
1F
100
AcDbEntity
  8
0
  6
Continuous
 62
     1
370
    15
100
AcDbSpline
210
0.0
220
0.0
230
1.0
 70
    24
 71
     3
 72
     9
 73
     5
 74
     0
 42
0.000000001
 43
0.00000001
 40
0.0
 40
0.0
 40
0.0
 40
0.0
 40
0.3862049178281128
 40
1.0
 40
1.0
 40
1.0
 40
1.0
 10
10.0
 20
-11.61418418818407
 30
0.0
 10
10.0
 20
-11.70226811471241
 30
0.0
 10
10.0
 20
-11.93034373587151
 30
0.0
 10
10.0
 20
-12.19573029487327
 30
0.0
 10
10.0
 20
-12.35862325966307
 30
0.0
  0
SPLINE
  5
BD
330
1F
100
AcDbEntity
  8
0
  6
Continuous
 62
     1
370
    15
100
AcDbSpline
210
0.0
220
0.0
230
1.0
 70
     8
 71
     3
 72
    24
 73
    20
 74
     0
 42
0.000000001
 43
0.00000001
 40
0.0
 40
0.0
 40
0.0
 40
0.0
 40
0.1249999999999989
 40
0.1249999999999989
 40
0.2499999999999978
 40
0.2499999999999978
 40
0.3124999999999972
 40
0.3124999999999972
 40
0.3749999999999967
 40
0.3749999999999967
 40
0.4999999999999973
 40
0.4999999999999973
 40
0.624999999999998
 40
0.624999999999998
 40
0.7499999999999987
 40
0.7499999999999987
 40
0.8749999999999993
 40
0.8749999999999993
 40
1.0
 40
1.0
 40
1.0
 40
1.0
 10
48.09999999999995
 20
-10.33131402982639
 30
0.0
 10
48.09999999999997
 20
-10.42246653877021
 30
0.0
 10
48.09710466867841
 20
-10.52150507374378
 30
0.0
 10
48.07596461722231
 20
-10.74025217242954
 30
0.0
 10
48.05812526099176
 20
-10.8597607172698
 30
0.0
 10
48.0056005325997
 20
-11.06405400220527
 30
0.0
 10
47.9840198117229
 20
-11.13496746818211
 30
0.0
 10
47.92936925799125
 20
-11.28373264966644
 30
0.0
 10
47.89588229281757
 20
-11.36225529783791
 30
0.0
 10
47.7767828978788
 20
-11.59924614050529
 30
0.0
 10
47.66768433583565
 20
-11.76558946750461
 30
0.0
 10
47.41090382934604
 20
-12.0611456734272
 30
0.0
 10
47.26425424328534
 20
-12.19030005742638
 30
0.0
 10
46.9710358428964
 20
-12.39315086509658
 30
0.0
 10
46.82140528051602
 20
-12.47044274156082
 30
0.0
 10
46.526423872435
 20
-12.5837579429104
 30
0.0
 10
46.38187398715662
 20
-12.61987742319632
 30
0.0
 10
46.09476913730936
 20
-12.65921133593045
 30
0.0
 10
45.95272313467223
 20
-12.66197591468414
 30
0.0
 10
45.81399999999999
 20
-12.64960893069286
 30
0.0
  0
SPLINE
  5
BE
330
1F
100
AcDbEntity
  8
0
  6
Continuous
 62
     1
370
    15
100
AcDbSpline
210
0.0
220
0.0
230
1.0
 70
     8
 71
     3
 72
    58
 73
    54
 74
     0
 42
0.000000001
 43
0.00000001
 40
0.0
 40
0.0
 40
0.0
 40
0.0
 40
0.0312499999999999
 40
0.0312499999999999
 40
0.0624999999999999
 40
0.0624999999999999
 40
0.0937499999999998
 40
0.0937499999999998
 40
0.1249999999999998
 40
0.1249999999999998
 40
0.1562499999999997
 40
0.1562499999999997
 40
0.1874999999999996
 40
0.1874999999999996
 40
0.2499999999999995
 40
0.2499999999999995
 40
0.3124999999999993
 40
0.3124999999999993
 40
0.3437499999999993
 40
0.3437499999999993
 40
0.3749999999999993
 40
0.3749999999999993
 40
0.4062499999999993
 40
0.4062499999999993
 40
0.4374999999999993
 40
0.4374999999999993
 40
0.4687499999999993
 40
0.4687499999999993
 40
0.4999999999999993
 40
0.4999999999999993
 40
0.5624999999999993
 40
0.5624999999999993
 40
0.6249999999999993
 40
0.6249999999999993
 40
0.6562499999999993
 40
0.6562499999999993
 40
0.6874999999999994
 40
0.6874999999999994
 40
0.7187499999999994
 40
0.7187499999999994
 40
0.7499999999999994
 40
0.7499999999999994
 40
0.7812499999999996
 40
0.7812499999999996
 40
0.8124999999999996
 40
0.8124999999999996
 40
0.8749999999999998
 40
0.8749999999999998
 40
0.9374999999999999
 40
0.9374999999999999
 40
0.96875
 40
0.96875
 40
1.0
 40
1.0
 40
1.0
 40
1.0
 10
45.81400000000001
 20
-12.64960893069287
 30
0.0
 10
45.44189094741067
 20
-12.61643590077788
 30
0.0
 10
45.07005897391748
 20
-12.56693602293651
 30
0.0
 10
44.32248803755412
 20
-12.4353232354103
 30
0.0
 10
43.94804865583301
 20
-12.35324458524588
 30
0.0
 10
43.20221842457219
 20
-12.15757264205201
 30
0.0
 10
42.8315112385892
 20
-12.04410570699474
 30
0.0
 10
42.08476337684469
 20
-11.78576317591762
 30
0.0
 10
41.71023820315068
 20
-11.64099793278257
 30
0.0
 10
40.96324504303068
 20
-11.32195470600785
 30
0.0
 10
40.59237935326283
 20
-11.14796467883417
 30
0.0
 10
39.84690561251939
 20
-10.77105692100911
 30
0.0
 10
39.47252249371869
 20
-10.5681204335802
 30
0.0
 10
38.35096567199733
 20
-9.919281744646524
 30
0.0
 10
37.60872761331024
 20
-9.434144062458586
 30
0.0
 10
36.11280169669966
 20
-8.368882332575124
 30
0.0
 10
35.37063778795005
 20
-7.791503413225939
 30
0.0
 10
34.24898598363868
 20
-6.867357356579351
 30
0.0
 10
33.87464082387424
 20
-6.549863541079652
 30
0.0
 10
33.12938077542204
 20
-5.89973791435127
 30
0.0
 10
32.75839081572039
 20
-5.567114388318054
 30
0.0
 10
32.011271140052
 20
-4.886787274826066
 30
0.0
 10
31.63675211847296
 20
-4.539548541011547
 30
0.0
 10
30.89015514308528
 20
-3.834971245375258
 30
0.0
 10
30.51950293522165
 20
-3.478105179650028
 30
0.0
 10
29.77348324985843
 20
-2.754802426890722
 30
0.0
 10
29.399018200834
 20
-2.388640146416572
 30
0.0
 10
28.6515350406441
 20
-1.651542427650556
 30
0.0
 10
28.27993718274265
 20
-1.28108423181817
 30
0.0
 10
27.16323200831503
 20
-0.165555478717046
 30
0.0
 10
26.4109718661499
 20
0.5854258803280485
 30
0.0
 10
24.9256406831894
 20
2.067271909476631
 30
0.0
 10
24.17359075267611
 20
2.804386730191134
 30
0.0
 10
23.05665642911864
 20
3.879021912901981
 30
0.0
 10
22.68519192886802
 20
4.232417610680707
 30
0.0
 10
21.93776798278341
 20
4.928749348508693
 30
0.0
 10
21.56328917457343
 20
5.271204554727298
 30
0.0
 10
20.81715576978331
 20
5.940730516246546
 30
0.0
 10
20.44652517542463
 20
6.267526104482392
 30
0.0
 10
19.70002675735734
 20
6.905591948226024
 30
0.0
 10
19.32551382297168
 20
7.21643885473715
 30
0.0
 10
18.5783197036175
 20
7.818125313428127
 30
0.0
 10
18.20723956980143
 20
8.108569279933668
 30
0.0
 10
17.46211722319325
 20
8.668537312661968
 30
0.0
 10
17.08779798463623
 20
8.938091347547655
 30
0.0
 10
15.96609365375003
 20
9.710636953588272
 30
0.0
 10
15.2239655059419
 20
10.17671862602384
 30
0.0
 10
13.72804854731413
 20
11.00128815130371
 30
0.0
 10
12.9857537586328
 20
11.35765111192336
 30
0.0
 10
11.8642628868847
 20
11.80268674215008
 30
0.0
 10
11.48985834108471
 20
11.93597168754825
 30
0.0
 10
10.74425575306086
 20
12.17095453826969
 30
0.0
 10
10.37345489730757
 20
12.27267431356814
 30
0.0
 10
9.999999999999993
 20
12.35862325966309
 30
0.0
  0
SPLINE
  5
BF
330
1F
100
AcDbEntity
  8
0
  6
Continuous
 62
     1
370
    15
100
AcDbSpline
210
0.0
220
0.0
230
1.0
 70
     8
 71
     3
 72
    27
 73
    23
 74
     0
 42
0.000000001
 43
0.00000001
 40
0.0
 40
0.0
 40
0.0
 40
0.0
 40
0.0083172878959739
 40
0.0616134401811261
 40
0.1149646933997111
 40
0.1682731229544828
 40
0.2187539469848262
 40
0.2692870505206488
 40
0.3198193523774628
 40
0.3703001027921026
 40
0.4208157872988664
 40
0.4713635004526602
 40
0.5218476703880329
 40
0.5723494044878806
 40
0.6229048680133529
 40
0.6733959484460256
 40
0.7238872120276136
 40
0.7744427563717159
 40
0.8308302299229618
 40
0.8871959219132024
 40
0.9435754340163462
 40
1.0
 40
1.0
 40
1.0
 40
1.0
 10
11.52600259404788
 20
11.90254762518756
 30
0.0
 10
11.62008739977406
 20
11.94007494994405
 30
0.0
 10
12.31705600565444
 20
12.21807273094674
 30
0.0
 10
13.61742032767051
 20
12.50467668064434
 30
0.0
 10
15.42846795712734
 20
12.7336188303689
 30
0.0
 10
17.20638390072013
 20
12.68301385527606
 30
0.0
 10
18.95144462676822
 20
12.39738071003513
 30
0.0
 10
20.66668240723835
 20
11.89007926050565
 30
0.0
 10
22.3818970363141
 20
11.16695232132237
 30
0.0
 10
24.09535320434765
 20
10.23978758232114
 30
0.0
 10
25.80999851741139
 20
9.126665292018851
 30
0.0
 10
27.52574647283912
 20
7.848279536992673
 30
0.0
 10
29.23932514035128
 20
6.425636932973586
 30
0.0
 10
30.95350172790537
 20
4.886297347624765
 30
0.0
 10
32.66951838175565
 20
3.259632130840018
 30
0.0
 10
34.38332738842468
 20
1.571804502873293
 30
0.0
 10
36.09717738767607
 20
-0.1447194146002192
 30
0.0
 10
37.87973704015384
 20
-1.922910319368034
 30
0.0
 10
39.72734392669138
 20
-3.731928192786982
 30
0.0
 10
41.64065600403569
 20
-5.517046971378591
 30
0.0
 10
43.55450731990408
 20
-7.191431881865057
 30
0.0
 10
44.83142687621468
 20
-8.16354198554443
 30
0.0
 10
45.47014165481893
 20
-8.649791167477625
 30
0.0
  0
SPLINE
  5
C0
330
1F
100
AcDbEntity
  8
0
  6
Continuous
 62
     1
370
    15
100
AcDbSpline
210
0.0
220
0.0
230
1.0
 70
     8
 71
     3
 72
    10
 73
     6
 74
     0
 42
0.000000001
 43
0.00000001
 40
0.0
 40
0.0
 40
0.0
 40
0.0
 40
0.3521229134693226
 40
0.6727017047629881
 40
1.0
 40
1.0
 40
1.0
 40
1.0
 10
44.65857753563208
 20
-8.016590840141166
 30
0.0
 10
44.5793253246937
 20
-8.011771052943915
 30
0.0
 10
44.42792053004622
 20
-8.002563248111668
 30
0.0
 10
44.15904790947229
 20
-8.043324941538202
 30
0.0
 10
43.96630758531923
 20
-8.100808599414862
 30
0.0
 10
43.8689379131542
 20
-8.129848526305572
 30
0.0
  0
SPLINE
  5
C1
330
1F
100
AcDbEntity
  8
0
  6
Continuous
 62
     1
370
    15
100
AcDbSpline
210
0.0
220
0.0
230
1.0
 70
     8
 71
     3
 72
     8
 73
     4
 74
     0
 42
0.000000001
 43
0.00000001
 40
0.0
 40
0.0
 40
0.0
 40
0.0
 40
1.0
 40
1.0
 40
1.0
 40
1.0
 10
48.09999999999999
 20
-9.634418102955637
 30
0.0
 10
46.6840103951249
 20
-9.25062684739159
 30
0.0
 10
45.27303216695039
 20
-8.752102375700002
 30
0.0
 10
43.86893791315418
 20
-8.129848526305574
 30
0.0
  0
LINE
  5
C2
330
1F
100
AcDbEntity
  8
0
  6
Continuous
 62
     1
370
    15
100
AcDbLine
 10
48.09999999999999
 20
-10.33131402982669
 30
0.0
 11
48.09999999999999
 21
-9.634418102955639
 31
0.0
  0
SPLINE
  5
C3
330
1F
100
AcDbEntity
  8
0
  6
Continuous
 62
     1
370
    15
100
AcDbSpline
210
0.0
220
0.0
230
1.0
 70
     8
 71
     3
 72
    26
 73
    22
 74
     0
 42
0.000000001
 43
0.00000001
 40
0.0
 40
0.0
 40
0.0
 40
0.0
 40
0.0554739934815488
 40
0.1109599056374258
 40
0.1665031826390012
 40
0.2220018764962659
 40
0.2745567880162903
 40
0.3271661270310623
 40
0.3797746314285283
 40
0.4323294663082271
 40
0.4849206706045484
 40
0.537545219497419
 40
0.5901036143944711
 40
0.6426802951085169
 40
0.695312912809804
 40
0.7478785021332772
 40
0.8004442821306395
 40
0.8530769839711226
 40
0.9117812293998852
 40
0.9704627983364666
 40
1.0
 40
1.0
 40
1.0
 40
1.0
 10
10.0
 20
10.66266390996865
 30
0.0
 10
10.60276012699356
 20
10.31421189123803
 30
0.0
 10
11.80840988493742
 20
9.61723298831517
 30
0.0
 10
13.6174257466429
 20
8.31834803910625
 30
0.0
 10
15.42846650314925
 20
6.867536250016067
 30
0.0
 10
17.20638426723664
 20
5.300381267930932
 30
0.0
 10
18.95144453072268
 20
3.661282225189124
 30
0.0
 10
20.66668243297721
 20
1.986185600526441
 30
0.0
 10
22.38189702945564
 20
0.2750384424342001
 30
0.0
 10
24.09535320607336
 20
-1.442496545675852
 30
0.0
 10
25.80999851736926
 20
-3.132922900568488
 30
0.0
 10
27.52574647127975
 20
-4.765393091736568
 30
0.0
 10
29.23932514662221
 20
-6.312857166914277
 30
0.0
 10
30.95350170435824
 20
-7.744966288742704
 30
0.0
 10
32.6695184697237
 20
-9.03482810793695
 30
0.0
 10
34.38332706059136
 20
-10.16196477973339
 30
0.0
 10
36.09717861188112
 20
-11.1030295680579
 30
0.0
 10
37.87973224177118
 20
-11.87340675376939
 30
0.0
 10
39.72736414483582
 20
-12.41301512152138
 30
0.0
 10
41.32375635616296
 20
-12.69127769625975
 30
0.0
 10
42.2825123955101
 20
-12.67081139789381
 30
0.0
 10
42.60352084175895
 20
-12.6639589199231
 30
0.0
  0
LINE
  5
C4
330
1F
100
AcDbEntity
  8
0
  6
Continuous
 62
     1
370
    15
100
AcDbLine
 10
10.0
 20
10.66266390996861
 30
0.0
 11
10.0
 21
12.35862325966309
 31
0.0
  0
SPLINE
  5
C5
330
1F
100
AcDbEntity
  8
0
  6
Continuous
 62
     1
370
    15
100
AcDbSpline
210
0.0
220
0.0
230
1.0
 70
     8
 71
     3
 72
    24
 73
    20
 74
     0
 42
0.000000001
 43
0.00000001
 40
0.0
 40
0.0
 40
0.0
 40
0.0
 40
0.0113214547161794
 40
0.0723204314413179
 40
0.1332418487061175
 40
0.1941630449883014
 40
0.2551619241998281
 40
0.3160959749137954
 40
0.3770088331735245
 40
0.4379983609924835
 40
0.4989492438968232
 40
0.5598579762536804
 40
0.620828909211127
 40
0.6818008094531676
 40
0.7427096306327772
 40
0.8070301655187708
 40
0.8714023702998491
 40
0.9357080917584828
 40
1.0
 40
1.0
 40
1.0
 40
1.0
 10
38.13190717076364
 20
-11.90148446169622
 30
0.0
 10
38.02577566949255
 20
-11.94282487344667
 30
0.0
 10
37.34781721328186
 20
-12.20690369447326
 30
0.0
 10
36.09705919752378
 20
-12.49086854148692
 30
0.0
 10
34.38335903896022
 20
-12.72022596077101
 30
0.0
 10
32.66950988868528
 20
-12.70001730546396
 30
0.0
 10
30.95350400217727
 20
-12.45371278534778
 30
0.0
 10
29.23932453146327
 20
-11.9792872591928
 30
0.0
 10
27.52574663632155
 20
-11.28682396636426
 30
0.0
 10
25.80999847315324
 20
-10.38974950193623
 30
0.0
 10
24.09535321790831
 20
-9.303175369307885
 30
0.0
 10
22.38189702628184
 20
-8.046593130968581
 30
0.0
 10
20.66668243382793
 20
-6.644600290202048
 30
0.0
 10
18.95144453049541
 20
-5.121753390334672
 30
0.0
 10
17.20638426730132
 20
-3.474771696801862
 30
0.0
 10
15.42846650313151
 20
-1.730005858800982
 30
0.0
 10
13.61742574664762
 20
0.0783225087171728
 30
0.0
 10
11.80840988493623
 20
1.891862239370546
 30
0.0
 10
10.60276012699316
 20
3.061572007168876
 30
0.0
 10
9.999999999999996
 20
3.646364069323101
 30
0.0
  0
SPLINE
  5
C6
330
1F
100
AcDbEntity
  8
0
  6
Continuous
 62
     1
370
    15
100
AcDbSpline
210
0.0
220
0.0
230
1.0
 70
    24
 71
     3
 72
    20
 73
    16
 74
     0
 42
0.000000001
 43
0.00000001
 40
0.0
 40
0.0
 40
0.0
 40
0.0
 40
0.2500000000000007
 40
0.2500000000000007
 40
0.3750000000000006
 40
0.3750000000000006
 40
0.5000000000000006
 40
0.5000000000000006
 40
0.6250000000000004
 40
0.6250000000000004
 40
0.7500000000000002
 40
0.7500000000000002
 40
0.8750000000000001
 40
0.8750000000000001
 40
1.0
 40
1.0
 40
1.0
 40
1.0
 10
10.0
 20
10.66266390996847
 30
0.0
 10
10.0
 20
10.14349730675255
 30
0.0
 10
10.0
 20
9.551175198483483
 30
0.0
 10
10.0
 20
8.569179721256768
 30
0.0
 10
10.0
 20
8.226787012716798
 30
0.0
 10
10.0
 20
7.524247423289086
 30
0.0
 10
10.0
 20
7.164053521006077
 30
0.0
 10
10.0
 20
6.447448622788789
 30
0.0
 10
10.0
 20
6.091095541655013
 30
0.0
 10
10.0
 20
5.413163183792643
 30
0.0
 10
10.0
 20
5.091804271300702
 30
0.0
 10
10.0
 20
4.520302537323862
 30
0.0
 10
10.0
 20
4.270511684974747
 30
0.0
 10
10.0
 20
3.875202004112841
 30
0.0
 10
10.0
 20
3.730003218392944
 30
0.0
 10
10.0
 20
3.6463640693231
 30
0.0
  0
SPLINE
  5
C7
330
1F
100
AcDbEntity
  8
0
  6
Continuous
 62
     1
370
    15
100
AcDbSpline
210
0.0
220
0.0
230
1.0
 70
     8
 71
     3
 72
    19
 73
    15
 74
     0
 42
0.000000001
 43
0.00000001
 40
0.0
 40
0.0
 40
0.0
 40
0.0
 40
0.093690179051285
 40
0.1874004875841845
 40
0.2812076797616069
 40
0.3749395753448779
 40
0.4636997089013932
 40
0.5525517652023909
 40
0.6414024119159416
 40
0.7301624160344017
 40
0.8189838445598947
 40
0.9078615888655406
 40
0.9966276055070284
 40
1.0
 40
1.0
 40
1.0
 40
1.0
 10
10.00000000000001
 20
-0.6434650087032675
 30
0.0
 10
10.60276012683189
 20
-1.244484106361886
 30
0.0
 10
11.80840988445236
 20
-2.446651431572979
 30
0.0
 10
13.61742574858446
 20
-4.197620807365135
 30
0.0
 10
15.42846649586252
 20
-5.863054418092081
 30
0.0
 10
17.20638429380596
 20
-7.383389827581019
 30
0.0
 10
18.95144443735618
 20
-8.735921340388824
 30
0.0
 10
20.66668278246145
 20
-9.903861183777483
 30
0.0
 10
22.38189572562279
 20
-10.89222085362512
 30
0.0
 10
24.09535806797541
 20
-11.68108974137467
 30
0.0
 10
25.80998035303024
 20
-12.26406383586702
 30
0.0
 10
27.52581427192571
 20
-12.5969631583483
 30
0.0
 10
28.68977852983705
 20
-12.73543091739745
 30
0.0
 10
29.28260777055558
 20
-12.69717810017872
 30
0.0
 10
29.30430614848565
 20
-12.69577799365918
 30
0.0
  0
LINE
  5
C8
330
1F
100
AcDbEntity
  8
0
  6
Continuous
 62
     1
370
    15
100
AcDbLine
 10
10.0
 20
-0.6434650087032769
 30
0.0
 11
10.0
 21
3.646364069323099
 31
0.0
  0
SPLINE
  5
C9
330
1F
100
AcDbEntity
  8
0
  6
Continuous
 62
     1
370
    15
100
AcDbSpline
210
0.0
220
0.0
230
1.0
 70
     8
 71
     3
 72
    23
 73
    19
 74
     0
 42
0.000000001
 43
0.00000001
 40
0.0
 40
0.0
 40
0.0
 40
0.0
 40
0.0628361248668407
 40
0.1256439978803889
 40
0.1885500164447842
 40
0.2513659440436345
 40
0.3141897883025412
 40
0.3815711669293404
 40
0.4488668709490599
 40
0.5161623308644665
 40
0.5835436017746783
 40
0.6508532610977067
 40
0.718139510572575
 40
0.7855104516419089
 40
0.8528387043291786
 40
0.9201203962026163
 40
0.9874707968060055
 40
1.0
 40
1.0
 40
1.0
 40
1.0
 10
45.81400000000001
 20
-5.3460065161243
 30
0.0
 10
45.28058694063314
 20
-4.854023013522348
 30
0.0
 10
44.21400065062107
 20
-3.870277209828998
 30
0.0
 10
42.61465024233324
 20
-2.30868972527978
 30
0.0
 10
41.01266223590711
 20
-0.7194912410781642
 30
0.0
 10
39.41303470732275
 20
0.885363104236266
 30
0.0
 10
37.77513765846211
 20
2.5131081429516
 30
0.0
 10
36.09713602274512
 20
4.134421813535059
 30
0.0
 10
34.38333846268409
 20
5.719198484125385
 30
0.0
 10
32.66951542127943
 20
7.199767459013772
 30
0.0
 10
30.95350247889333
 20
8.547790212898876
 30
0.0
 10
29.23932509492881
 20
9.741490861861278
 30
0.0
 10
27.52574590413937
 20
10.75839131463204
 30
0.0
 10
25.81000084055687
 20
11.5770612689168
 30
0.0
 10
24.09534449024911
 20
12.19116895095352
 30
0.0
 10
22.38192956154808
 20
12.56283482645981
 30
0.0
 10
21.13214529009743
 20
12.72306625383184
 30
0.0
 10
20.45392426364415
 20
12.68798486383676
 30
0.0
 10
20.34754455409493
 20
12.68248230945891
 30
0.0
  0
ELLIPSE
  5
CB
330
1F
100
AcDbEntity
  8
0
  6
Continuous
 62
     1
370
    15
100
AcDbEllipse
 10
49.52814800674211
 20
0.0000000000000029
 30
0.0
 11
17.89316233288197
 21
11.88911657764826
 31
0.0
210
0.0
220
0.0
230
1.0
 40
0.2495534463455962
 41
4.322422312290589
 42
4.341831834149257
  0
SPLINE
  5
CC
330
1F
100
AcDbEntity
  8
0
  6
Continuous
 62
     1
370
    15
100
AcDbSpline
210
0.0
220
0.0
230
1.0
 70
     8
 71
     3
 72
    24
 73
    20
 74
     0
 42
0.000000001
 43
0.00000001
 40
0.0
 40
0.0
 40
0.0
 40
0.0
 40
0.1249999999999986
 40
0.1249999999999986
 40
0.2499999999999972
 40
0.2499999999999972
 40
0.3124999999999966
 40
0.3124999999999966
 40
0.3749999999999958
 40
0.3749999999999958
 40
0.4999999999999967
 40
0.4999999999999967
 40
0.6249999999999974
 40
0.6249999999999974
 40
0.7499999999999983
 40
0.7499999999999983
 40
0.8749999999999991
 40
0.8749999999999991
 40
1.0
 40
1.0
 40
1.0
 40
1.0
 10
48.09999999999995
 20
-4.031412855646001
 30
0.0
 10
48.09999999999997
 20
-4.226594389030367
 30
0.0
 10
48.0971046686784
 20
-4.420737213707925
 30
0.0
 10
48.07596461722231
 20
-4.805760151973064
 30
0.0
 10
48.05812526099177
 20
-4.996873415020715
 30
0.0
 10
48.00560053259974
 20
-5.278537419129942
 30
0.0
 10
47.98401981172287
 20
-5.369514929146931
 30
0.0
 10
47.92936925799125
 20
-5.543792518709249
 30
0.0
 10
47.89588229281759
 20
-5.62757769370435
 30
0.0
 10
47.77678289787882
 20
-5.852240617389609
 30
0.0
 10
47.66768433583562
 20
-5.970145135383882
 30
0.0
 10
47.410903829346
 20
-6.101660886109817
 30
0.0
 10
47.26425424328534
 20
-6.117459075671262
 30
0.0
 10
46.9710358428964
 20
-6.079980355007552
 30
0.0
 10
46.821405280516
 20
-6.028192361206038
 30
0.0
 10
46.52642387243496
 20
-5.885899783860006
 30
0.0
 10
46.38187398715661
 20
-5.796048475406628
 30
0.0
 10
46.09476913730936
 20
-5.589154461420987
 30
0.0
 10
45.95272313467223
 20
-5.472059623140702
 30
0.0
 10
45.81399999999999
 20
-5.346006516124294
 30
0.0
  0
SPLINE
  5
CD
330
1F
100
AcDbEntity
  8
0
  6
Continuous
 62
     1
370
    15
100
AcDbSpline
210
0.0
220
0.0
230
1.0
 70
     8
 71
     3
 72
    19
 73
    15
 74
     0
 42
0.000000001
 43
0.00000001
 40
0.0
 40
0.0
 40
0.0
 40
0.0
 40
0.0476676721746595
 40
0.1307815075975882
 40
0.213790861130663
 40
0.2968290948045877
 40
0.379955673892382
 40
0.4629763901142799
 40
0.5459974074815285
 40
0.6291241194565673
 40
0.7218400684925553
 40
0.8145202028701991
 40
0.9072230611757462
 40
1.0
 40
1.0
 40
1.0
 40
1.0
 10
24.82577837772878
 20
11.89190981363448
 30
0.0
 10
25.15375838486225
 20
12.00867618146019
 30
0.0
 10
26.05360765036898
 20
12.32903756946725
 30
0.0
 10
27.5257762588013
 20
12.60741896007684
 30
0.0
 10
29.23931716063976
 20
12.74017245398154
 30
0.0
 10
30.95350386899737
 20
12.63080215393144
 30
0.0
 10
32.66951780862016
 20
12.29462542161873
 30
0.0
 10
34.38332754186719
 20
11.73356986617878
 30
0.0
 10
36.0971773466525
 20
10.95894314631128
 30
0.0
 10
37.87973705257258
 20
9.948046509845673
 30
0.0
 10
39.72734392321433
 20
8.691399512159778
 30
0.0
 10
41.64065600496289
 20
7.191122848390614
 30
0.0
 10
43.55450731967184
 20
5.53356608686824
 30
0.0
 10
44.83142687613713
 20
4.330189720855487
 30
0.0
 10
45.47014165481873
 20
3.728261223953007
 30
0.0
  0
SPLINE
  5
CE
330
1F
100
AcDbEntity
  8
0
  6
Continuous
 62
     1
370
    15
100
AcDbSpline
210
0.0
220
0.0
230
1.0
 70
     8
 71
     3
 72
    16
 73
    12
 74
     0
 42
0.000000001
 43
0.00000001
 40
0.0
 40
0.0
 40
0.0
 40
0.0
 40
0.2499999999999991
 40
0.2499999999999991
 40
0.4999999999999981
 40
0.4999999999999981
 40
0.7499999999999971
 40
0.7499999999999971
 40
0.8749999999999986
 40
0.8749999999999986
 40
1.0
 40
1.0
 40
1.0
 40
1.0
 10
45.47014165481936
 20
3.728261223952424
 30
0.0
 10
45.42600622329752
 20
3.548355012466765
 30
0.0
 10
45.36529656987891
 20
3.362018622389206
 30
0.0
 10
45.20242258795632
 20
2.973262977775743
 30
0.0
 10
45.10052281464947
 20
2.770946360767874
 30
0.0
 10
44.83880432387058
 20
2.343842741285131
 30
0.0
 10
44.68312189203513
 20
2.126247864240442
 30
0.0
 10
44.40503333123324
 20
1.796827289081327
 30
0.0
 10
44.30468105920318
 20
1.686498731996717
 30
0.0
 10
44.09496470187752
 20
1.472749843868856
 30
0.0
 10
43.98476774640071
 20
1.368292902871525
 30
0.0
 10
43.86893791315418
 20
1.266386639633643
 30
0.0
  0
SPLINE
  5
CF
330
1F
100
AcDbEntity
  8
0
  6
Continuous
 62
     1
370
    15
100
AcDbSpline
210
0.0
220
0.0
230
1.0
 70
     8
 71
     3
 72
     8
 73
     4
 74
     0
 42
0.000000001
 43
0.00000001
 40
0.0
 40
0.0
 40
0.0
 40
0.0
 40
1.0
 40
1.0
 40
1.0
 40
1.0
 10
48.09999999999999
 20
-1.709244218993116
 30
0.0
 10
46.6840103951249
 20
-0.7249183599499478
 30
0.0
 10
45.2730321669504
 20
0.2670878615329445
 30
0.0
 10
43.8689379131542
 20
1.266386639633633
 30
0.0
  0
LINE
  5
D0
330
1F
100
AcDbEntity
  8
0
  6
Continuous
 62
     1
370
    15
100
AcDbLine
 10
48.09999999999999
 20
-4.03141285564701
 30
0.0
 11
48.09999999999999
 21
-1.709244218993112
 31
0.0
  0
SPLINE
  5
D1
330
1F
100
AcDbEntity
  8
0
  6
Continuous
 62
     1
370
    15
100
AcDbSpline
210
0.0
220
0.0
230
1.0
 70
     8
 71
     3
 72
    16
 73
    12
 74
     0
 42
0.000000001
 43
0.00000001
 40
0.0
 40
0.0
 40
0.0
 40
0.0
 40
0.0492806109744756
 40
0.1648519619948623
 40
0.2805413356232763
 40
0.3962325446270631
 40
0.5118040641842934
 40
0.6338491442160946
 40
0.7559922653554837
 40
0.8780092376308603
 40
0.9999999999999999
 40
0.9999999999999999
 40
0.9999999999999999
 40
0.9999999999999999
 10
24.82577837772869
 20
-11.89190981363448
 30
0.0
 10
24.58220902393879
 20
-11.98228925130412
 30
0.0
 10
23.76742842239791
 20
-12.28462372584115
 30
0.0
 10
22.38193555212786
 20
-12.56769774069404
 30
0.0
 10
20.66667210721602
 20
-12.73673942869982
 30
0.0
 10
18.95144728930256
 20
-12.66135257238362
 30
0.0
 10
17.20638348222724
 20
-12.35300379887738
 30
0.0
 10
15.42846671844086
 20
-11.79923793335748
 30
0.0
 10
13.61742568927815
 20
-10.99387442793991
 30
0.0
 10
11.80840989926883
 20
-9.97756952783465
 30
0.0
 10
10.60276013177036
 20
-9.133999099011774
 30
0.0
 10
9.999999999999996
 20
-8.712259190340083
 30
0.0
  0
SPLINE
  5
D2
330
1F
100
AcDbEntity
  8
0
  6
Continuous
 62
     1
370
    15
100
AcDbSpline
210
0.0
220
0.0
230
1.0
 70
    24
 71
     3
 72
    15
 73
    11
 74
     0
 42
0.000000001
 43
0.00000001
 40
0.0
 40
0.0
 40
0.0
 40
0.0
 40
0.0874978437204551
 40
0.2143686658048669
 40
0.3412394878892785
 40
0.4681103099736907
 40
0.5949811320581028
 40
0.721851954142515
 40
0.8487227762269274
 40
1.0
 40
1.0
 40
1.0
 40
1.0
 10
10.0
 20
-1.25254577009805
 30
0.0
 10
10.0
 20
-1.393659785402062
 30
0.0
 10
10.0
 20
-1.739387427373845
 30
0.0
 10
10.0
 20
-2.445002160799603
 30
0.0
 10
10.0
 20
-3.326736341497741
 30
0.0
 10
10.0
 20
-4.30442600610739
 30
0.0
 10
10.0
 20
-5.341673590616835
 30
0.0
 10
10.0
 20
-6.41100961739269
 30
0.0
 10
10.0
 20
-7.555734735127827
 30
0.0
 10
10.0
 20
-8.304840667995805
 30
0.0
 10
10.0
 20
-8.712259190340085
 30
0.0
  0
LINE
  5
D3
330
1F
100
AcDbEntity
  8
0
  6
Continuous
 62
     1
370
    15
100
AcDbLine
 10
48.09999999999999
 20
-0.8660254037844396
 30
0.0
 11
48.09999999999999
 21
4.316912855542965
 31
0.0
  0
LINE
  5
D4
330
1F
100
AcDbEntity
  8
0
  6
Continuous
 62
     1
370
    15
100
AcDbLine
 10
43.86893791315418
 20
1.266386639633633
 30
0.0
 11
48.09999999999999
 21
-0.8660254037844396
 31
0.0
  0
ELLIPSE
  5
D5
330
1F
100
AcDbEntity
  8
0
  6
Continuous
 62
     1
370
    15
100
AcDbEllipse
 10
49.52814800674211
 20
0.0000000000000004
 30
0.0
 11
17.89316233288197
 21
11.88911657764828
 31
0.0
210
0.0
220
0.0
230
1.0
 40
0.2495534463455927
 41
1.612711979242442
 42
1.63212150110109
  0
SPLINE
  5
D6
330
1F
100
AcDbEntity
  8
0
  6
Continuous
 62
     1
370
    15
100
AcDbSpline
210
0.0
220
0.0
230
1.0
 70
     8
 71
     3
 72
    22
 73
    18
 74
     0
 42
0.000000001
 43
0.00000001
 40
0.0
 40
0.0
 40
0.0
 40
0.0
 40
0.125
 40
0.125
 40
0.25
 40
0.25
 40
0.375
 40
0.375
 40
0.5
 40
0.5
 40
0.625
 40
0.625
 40
0.75
 40
0.75
 40
0.875
 40
0.875
 40
1.0
 40
1.0
 40
1.0
 40
1.0
 10
48.09999999999999
 20
4.316912855542968
 30
0.0
 10
48.09999999999998
 20
4.397927818323397
 30
0.0
 10
48.08243401896557
 20
4.469676143806768
 30
0.0
 10
48.0130884175213
 20
4.585425279765538
 30
0.0
 10
47.96211870288238
 20
4.629744506930447
 30
0.0
 10
47.82828997942107
 20
4.691858292037818
 30
0.0
 10
47.74800928740142
 20
4.708445395873958
 30
0.0
 10
47.56394338654718
 20
4.715603684660614
 30
0.0
 10
47.45991819829615
 20
4.70581254320019
 30
0.0
 10
47.23868779406185
 20
4.662896526561719
 30
0.0
 10
47.11926922028378
 20
4.629402992950117
 30
0.0
 10
46.87178581106569
 20
4.542268212676651
 30
0.0
 10
46.74434746615356
 20
4.489032760350637
 30
0.0
 10
46.48266404150291
 20
4.364759762389341
 30
0.0
 10
46.34827018527751
 20
4.293484335719992
 30
0.0
 10
46.08135586285627
 20
4.138391683593735
 30
0.0
 10
45.94775034143218
 20
4.05408663476489
 30
0.0
 10
45.81400000000004
 20
3.963184141361441
 30
0.0
  0
SPLINE
  5
D8
330
1F
100
AcDbEntity
  8
0
  6
Continuous
 62
     1
370
    15
100
AcDbSpline
210
0.0
220
0.0
230
1.0
 70
     8
 71
     3
 72
    24
 73
    20
 74
     0
 42
0.000000001
 43
0.00000001
 40
0.0
 40
0.0
 40
0.0
 40
0.0
 40
0.1249999999999984
 40
0.1249999999999984
 40
0.2499999999999968
 40
0.2499999999999968
 40
0.3124999999999963
 40
0.3124999999999963
 40
0.3749999999999958
 40
0.3749999999999958
 40
0.4999999999999967
 40
0.4999999999999967
 40
0.6249999999999974
 40
0.6249999999999974
 40
0.7499999999999983
 40
0.7499999999999983
 40
0.8749999999999991
 40
0.8749999999999991
 40
1.0
 40
1.0
 40
1.0
 40
1.0
 10
48.09999999999995
 20
6.299901174180405
 30
0.0
 10
48.09999999999995
 20
6.195872149739854
 30
0.0
 10
48.09710466867837
 20
6.100767860035871
 30
0.0
 10
48.0759646172223
 20
5.934492020456508
 30
0.0
 10
48.05812526099174
 20
5.862887302249098
 30
0.0
 10
48.00560053259969
 20
5.78551658307535
 30
0.0
 10
47.98401981172286
 20
5.765452539035201
 30
0.0
 10
47.92936925799123
 20
5.739940130957217
 30
0.0
 10
47.89588229281757
 20
5.734677604133574
 30
0.0
 10
47.77678289787883
 20
5.747005523115702
 30
0.0
 10
47.66768433583563
 20
5.795444332120748
 30
0.0
 10
47.41090382934601
 20
5.9594847873174
 30
0.0
 10
47.26425424328535
 20
6.072840981755133
 30
0.0
 10
46.97103584289643
 20
6.31317051008905
 30
0.0
 10
46.82140528051602
 20
6.442250380354789
 30
0.0
 10
46.52642387243498
 20
6.697858159050391
 30
0.0
 10
46.38187398715662
 20
6.82382894778972
 30
0.0
 10
46.09476913730937
 20
7.070056874509498
 30
0.0
 10
45.95272313467223
 20
7.189916291543465
 30
0.0
 10
45.81399999999999
 20
7.303602414568589
 30
0.0
  0
LINE
  5
D9
330
1F
100
AcDbEntity
  8
0
  6
Continuous
 62
     1
370
    15
100
AcDbLine
 10
48.09999999999999
 20
4.316912855542965
 30
0.0
 11
48.09999999999999
 21
6.29990117417968
 31
0.0
  0
SPLINE
  5
DA
330
1F
100
AcDbEntity
  8
0
  6
Continuous
 62
     1
370
    15
100
AcDbSpline
210
0.0
220
0.0
230
1.0
 70
     8
 71
     3
 72
    15
 73
    11
 74
     0
 42
0.000000001
 43
0.00000001
 40
0.0
 40
0.0
 40
0.0
 40
0.0
 40
0.1315176111837633
 40
0.2629760905183809
 40
0.3946399909928772
 40
0.5261153287798619
 40
0.6576072363381584
 40
0.7986381795104961
 40
0.939489803546173
 40
1.0
 40
1.0
 40
1.0
 40
1.0
 10
45.81400000000001
 20
7.303602414568596
 30
0.0
 10
45.280586954575
 20
7.728789243143008
 30
0.0
 10
44.21400069244031
 20
8.578971731343588
 30
0.0
 10
42.61465007503519
 20
9.688456828262856
 30
0.0
 10
41.01266286399893
 20
10.65096189838929
 30
0.0
 10
39.41303236618023
 20
11.44300884718225
 30
0.0
 10
37.77514666550024
 20
12.07164414352777
 30
0.0
 10
36.09709970170012
 20
12.49340793015679
 30
0.0
 10
34.70914970937572
 20
12.70049495408922
 30
0.0
 10
33.89260875190629
 20
12.67832486165848
 30
0.0
 10
33.64723426319259
 20
12.67166264215171
 30
0.0
  0
LINE
  5
DB
330
1F
100
AcDbEntity
  8
0
  6
Continuous
 62
     1
370
    15
100
AcDbLine
 10
48.09999999999999
 20
-6.048963663111902
 30
0.0
 11
48.09999999999999
 21
-4.03141285564701
 31
0.0
  0
SPLINE
  5
DC
330
1F
100
AcDbEntity
  8
0
  6
Continuous
 62
     1
370
    15
100
AcDbSpline
210
0.0
220
0.0
230
1.0
 70
     8
 71
     3
 72
    22
 73
    18
 74
     0
 42
0.000000001
 43
0.00000001
 40
0.0
 40
0.0
 40
0.0
 40
0.0
 40
0.125
 40
0.125
 40
0.25
 40
0.25
 40
0.375
 40
0.375
 40
0.5
 40
0.5
 40
0.625
 40
0.625
 40
0.75
 40
0.75
 40
0.875
 40
0.875
 40
1.0
 40
1.0
 40
1.0
 40
1.0
 10
48.09999999999999
 20
-6.048963663111901
 30
0.0
 10
48.09999999999998
 20
-6.129978625892331
 30
0.0
 10
48.08243401896557
 20
-6.223030885906857
 30
0.0
 10
48.0130884175213
 20
-6.422882022789796
 30
0.0
 10
47.96211870288238
 20
-6.52901706665238
 30
0.0
 10
47.82828997942107
 20
-6.753437662715478
 30
0.0
 10
47.74800928740142
 20
-6.867388791000323
 30
0.0
 10
47.56394338654718
 20
-7.097781289907664
 30
0.0
 10
47.45991819829615
 20
-7.21415137996321
 30
0.0
 10
47.23868779406185
 20
-7.439542498512306
 30
0.0
 10
47.11926922028378
 20
-7.550879217909912
 30
0.0
 10
46.87178581106569
 20
-7.763891086843984
 30
0.0
 10
46.74434746615356
 20
-7.865212226116524
 30
0.0
 10
46.48266404150291
 20
-8.058307585533981
 30
0.0
 10
46.34827018527751
 20
-8.15002436002909
 30
0.0
 10
46.08135586285628
 20
-8.318644072110814
 30
0.0
 10
45.94775034143221
 20
-8.396375135915807
 30
0.0
 10
45.81400000000004
 20
-8.467684392132513
 30
0.0
  0
SPLINE
  5
DD
330
1F
100
AcDbEntity
  8
0
  6
Continuous
 62
     1
370
    15
100
AcDbSpline
210
0.0
220
0.0
230
1.0
 70
     8
 71
     3
 72
    11
 73
     7
 74
     0
 42
0.000000001
 43
0.00000001
 40
0.0
 40
0.0
 40
0.0
 40
0.0
 40
0.2174473137613089
 40
0.4781861186824158
 40
0.7389888532670305
 40
1.0
 40
1.0
 40
1.0
 40
1.0
 10
38.13190717076363
 20
11.90148446169622
 30
0.0
 10
38.66381732018999
 20
12.07469411672074
 30
0.0
 10
39.83353537943985
 20
12.45559766168435
 30
0.0
 10
41.64063427367472
 20
12.70344495406598
 30
0.0
 10
43.5545127581148
 20
12.72618040723482
 30
0.0
 10
44.83142868943419
 20
12.49412595750081
 30
0.0
 10
45.47014165481892
 20
12.37805239143042
 30
0.0
  0
SPLINE
  5
DE
330
1F
100
AcDbEntity
  8
0
  6
Continuous
 62
     1
370
    15
100
AcDbSpline
210
0.0
220
0.0
230
1.0
 70
     8
 71
     3
 72
    16
 73
    12
 74
     0
 42
0.000000001
 43
0.00000001
 40
0.0
 40
0.0
 40
0.0
 40
0.0
 40
0.2500000000000006
 40
0.2500000000000006
 40
0.5000000000000011
 40
0.5000000000000011
 40
0.7500000000000017
 40
0.7500000000000017
 40
0.8750000000000008
 40
0.8750000000000008
 40
1.0
 40
1.0
 40
1.0
 40
1.0
 10
45.47014165481936
 20
12.37805239143033
 30
0.0
 10
45.42600622329751
 20
12.07176720054485
 30
0.0
 10
45.36529656987889
 20
11.77272278645156
 30
0.0
 10
45.20242258795632
 20
11.19274425334596
 30
0.0
 10
45.10052281464945
 20
10.91169455816098
 30
0.0
 10
44.83880432387055
 20
10.37489820460043
 30
0.0
 10
44.6831218920351
 20
10.12851933041407
 30
0.0
 10
44.40503333123323
 20
9.806942605098499
 30
0.0
 10
44.30468105920316
 20
9.70799222789952
 30
0.0
 10
44.09496470187753
 20
9.534837407942094
 30
0.0
 10
43.98476774640071
 20
9.45956984609365
 30
0.0
 10
43.86893791315418
 20
9.396235165939196
 30
0.0
  0
SPLINE
  5
DF
330
1F
100
AcDbEntity
  8
0
  6
Continuous
 62
     1
370
    15
100
AcDbSpline
210
0.0
220
0.0
230
1.0
 70
     8
 71
     3
 72
     8
 73
     4
 74
     0
 42
0.000000001
 43
0.00000001
 40
0.0
 40
0.0
 40
0.0
 40
0.0
 40
1.0
 40
1.0
 40
1.0
 40
1.0
 10
48.09999999999999
 20
7.925173883962528
 30
0.0
 10
46.6840103951249
 20
8.525708487441646
 30
0.0
 10
45.2730321669504
 20
9.019190237232937
 30
0.0
 10
43.86893791315418
 20
9.396235165939196
 30
0.0
  0
LINE
  5
E0
330
1F
100
AcDbEntity
  8
0
  6
Continuous
 62
     1
370
    15
100
AcDbLine
 10
48.09999999999999
 20
6.29990117417968
 30
0.0
 11
48.09999999999999
 21
7.925173883962528
 31
0.0
  0
LINE
  5
E1
330
1F
100
AcDbEntity
  8
0
  6
Continuous
 62
     1
370
    15
100
AcDbLine
 10
48.09999999999999
 20
-0.8660254037844396
 30
0.0
 11
48.09999999999999
 21
-1.709244218993113
 31
0.0
  0
SPLINE
  5
E2
330
1F
100
AcDbEntity
  8
0
  6
Continuous
 62
     1
370
    15
100
AcDbSpline
210
0.0
220
0.0
230
1.0
 70
     8
 71
     3
 72
    11
 73
     7
 74
     0
 42
0.000000001
 43
0.00000001
 40
0.0
 40
0.0
 40
0.0
 40
0.0
 40
0.3011700144448848
 40
0.6024047357387688
 40
0.9039508925418591
 40
1.0
 40
1.0
 40
1.0
 40
1.0
 10
10.00000000000001
 20
-11.30612891867186
 30
0.0
 10
10.60276444158153
 20
-11.55965319322893
 30
0.0
 10
11.80842282962829
 20
-12.06675621243028
 30
0.0
 10
13.61737393258914
 20
-12.50447384711967
 30
0.0
 10
15.01744328547336
 20
-12.71260195061114
 30
0.0
 10
15.81329812850904
 20
-12.67991624379172
 30
0.0
 10
16.00555682525647
 20
-12.67202019157772
 30
0.0
  0
LINE
  5
E3
330
1F
100
AcDbEntity
  8
0
  6
Continuous
 62
     1
370
    15
100
AcDbLine
 10
10.0
 20
-11.30612891867184
 30
0.0
 11
10.0
 21
-8.712259190340085
 31
0.0
  0
LINE
  5
E4
330
1F
100
AcDbEntity
  8
0
  6
Continuous
 62
     1
370
    15
100
AcDbLine
 10
48.09999999999999
 20
-6.048963663111903
 30
0.0
 11
48.09999999999999
 21
-9.634418102955637
 31
0.0
  0
LINE
  5
E5
330
1F
100
AcDbEntity
  8
0
  6
Continuous
 62
     1
370
    15
100
AcDbLine
 10
11.52600259404779
 20
-11.90254762518756
 30
0.0
 11
9.999999999999996
 21
-12.35862325966307
 31
0.0
  0
SPLINE
  5
E6
330
1F
100
AcDbEntity
  8
0
  6
Continuous
 62
     1
370
    15
100
AcDbSpline
210
0.0
220
0.0
230
1.0
 70
    24
 71
     3
 72
     9
 73
     5
 74
     0
 42
0.000000001
 43
0.00000001
 40
0.0
 40
0.0
 40
0.0
 40
0.0
 40
0.3862049178281082
 40
1.0
 40
1.0
 40
1.0
 40
1.0
 10
10.0
 20
-11.61418418818407
 30
0.0
 10
10.0
 20
-11.70226811471241
 30
0.0
 10
10.0
 20
-11.93034373587151
 30
0.0
 10
10.0
 20
-12.19573029487326
 30
0.0
 10
10.0
 20
-12.35862325966307
 30
0.0
  0
ELLIPSE
  5
E7
330
1F
100
AcDbEntity
  8
0
  6
Continuous
 62
     1
370
    15
100
AcDbEllipse
 10
49.52814800674211
 20
-0.0000000000000008
 30
0.0
 11
18.13747968562481
 21
0.0
 31
0.0
210
0.0
220
0.0
230
1.0
 40
0.7002075382097114
 41
1.77703272613639
 42
1.796442247995047
  0
SPLINE
  5
E8
330
1F
100
AcDbEntity
  8
0
  6
Continuous
 62
     1
370
    15
100
AcDbSpline
210
0.0
220
0.0
230
1.0
 70
     8
 71
     3
 72
    22
 73
    18
 74
     0
 42
0.000000001
 43
0.00000001
 40
0.0
 40
0.0
 40
0.0
 40
0.0
 40
0.125
 40
0.125
 40
0.2500000000000001
 40
0.2500000000000001
 40
0.3750000000000001
 40
0.3750000000000001
 40
0.5000000000000001
 40
0.5000000000000001
 40
0.6250000000000001
 40
0.6250000000000001
 40
0.7500000000000002
 40
0.7500000000000002
 40
0.8750000000000001
 40
0.8750000000000001
 40
1.0
 40
1.0
 40
1.0
 40
1.0
 10
48.09999999999999
 20
10.36587651865485
 30
0.0
 10
48.10000000000001
 20
10.52790644421571
 30
0.0
 10
48.08243401896557
 20
10.6927070297136
 30
0.0
 10
48.0130884175213
 20
11.00830730255532
 30
0.0
 10
47.96211870288238
 20
11.1587615735828
 30
0.0
 10
47.82828997942107
 20
11.44529595475327
 30
0.0
 10
47.74800928740142
 20
11.57583418687426
 30
0.0
 10
47.56394338654718
 20
11.81338497456826
 30
0.0
 10
47.45991819829615
 20
11.91996392316338
 30
0.0
 10
47.23868779406186
 20
12.102439025074
 30
0.0
 10
47.11926922028378
 20
12.18028221086001
 30
0.0
 10
46.87178581106569
 20
12.30615929952062
 30
0.0
 10
46.74434746615354
 20
12.35424498646714
 30
0.0
 10
46.48266404150294
 20
12.42306734792331
 30
0.0
 10
46.34827018527753
 20
12.44350869574907
 30
0.0
 10
46.08135586285628
 20
12.45703575570454
 30
0.0
 10
45.9477503414322
 20
12.45046177068069
 30
0.0
 10
45.81400000000004
 20
12.43086853349394
 30
0.0
  0
LINE
  5
E9
330
1F
100
AcDbEntity
  8
0
  6
Continuous
 62
     1
370
    15
100
AcDbLine
 10
48.09999999999999
 20
7.925173883962528
 30
0.0
 11
48.09999999999999
 21
10.36587651865485
 31
0.0
  0
LINE
  5
EA
330
1F
100
AcDbEntity
  8
0
  6
Continuous
 62
     1
370
    15
100
AcDbLine
 10
48.09999999999999
 20
10.36587651865485
 30
0.0
 11
48.09999999999999
 21
10.414
 31
0.0
  0
LINE
  5
EB
330
1F
100
AcDbEntity
  8
0
  6
Continuous
 62
     1
370
    15
100
AcDbLine
 10
48.09999999999999
 20
-10.414
 30
0.0
 11
48.09999999999999
 21
-10.33131402982669
 31
0.0
  0
LINE
  5
EE
330
1F
100
AcDbEntity
  8
0
  6
Continuous
 62
     8
370
    15
100
AcDbLine
 10
45.81400000000001
 20
-12.7
 30
0.0
 11
45.81400000000001
 21
-12.64960893069287
 31
0.0
  0
LINE
  5
EF
330
1F
100
AcDbEntity
  8
0
  6
Continuous
 62
     8
370
    15
100
AcDbLine
 10
45.81400000000001
 20
12.43086853349091
 30
0.0
 11
45.81400000000001
 21
12.7
 31
0.0
  0
LINE
  5
F0
330
1F
100
AcDbEntity
  8
중심선
100
AcDbLine
 10
-56.5
 20
0.0
 30
0.0
 11
51.10000000000002
 21
0.0
 31
0.0
  0
CIRCLE
  5
F1
330
1F
100
AcDbEntity
  8
외형선
100
AcDbCircle
 10
0.0
 20
0.0
 30
0.0
 40
3.000000000000004
  0
INSERT
  5
F2
330
1F
100
AcDbEntity
  8
0
  6
Continuous
 62
     7
100
AcDbBlockReference
 66
     1
  2
블럭10
 10
-16.62936049909348
 20
-51.78679627639982
 30
0.0
  0
ATTRIB
  5
F3
330
F2
100
AcDbEntity
  8
FORMAT
 62
     2
100
AcDbText
 10
-27.68038085127795
 20
-49.71142936356762
 30
0.0
 40
4.233333333333333
  1
GMG23950[ 6 FLUTE ]
 41
0.75
  7
SLDTEXTSTYLE0
 11
-27.68038085127795
 21
-51.82809603023429
 31
0.0
100
AcDbAttribute
  2
AUTOATTR0
 70
     0
 74
     1
  0
SEQEND
  5
F4
330
F2
100
AcDbEntity
  8
0
  6
Continuous
 62
     7
  0
HATCH
  5
F5
330
1F
100
AcDbEntity
  8
중심선
100
AcDbHatch
 10
0.0
 20
0.0
 30
0.0
210
0.0
220
0.0
230
1.0
  2
SOLID
 70
     1
 71
     0
 91
        1
 92
        0
 93
        4
 72
     1
 10
-10.91445119471263
 20
-35.53962197475588
 11
-14.36072643854991
 21
-35.53962197475588
 72
     1
 10
-14.36072643854991
 20
-35.53962197475588
 11
-16.48895629775393
 21
-38.07594755532848
 72
     1
 10
-16.48895629775394
 20
-38.07594755532848
 11
-13.0426479688035
 21
-38.07590812602599
 72
     1
 10
-13.0426479688035
 20
-38.07590812602599
 11
-10.91445119471263
 21
-35.53962197475588
 97
        0
 75
     0
 76
     1
 98
        1
 10
-6.386651720807965
 20
0.2603780252441154
  0
HATCH
  5
F6
330
1F
100
AcDbEntity
  8
중심선
100
AcDbHatch
 10
0.0
 20
0.0
 30
0.0
210
0.0
220
0.0
230
1.0
  2
SOLID
 70
     1
 71
     0
 91
        1
 92
        0
 93
        4
 72
     1
 10
-5.901687203676678
 20
-35.53962197475588
 11
-9.34796244751396
 21
-35.53962197475588
 72
     1
 10
-9.34796244751396
 20
-35.53962197475588
 11
-13.87910045587135
 21
-40.9396219747559
 72
     1
 10
-13.87910045587135
 20
-40.9396219747559
 11
-10.43282521203407
 21
-40.9396219747559
 72
     1
 10
-10.43282521203407
 20
-40.9396219747559
 11
-5.901687203676678
 21
-35.53962197475588
 97
        0
 75
     0
 76
     1
 98
        1
 10
-6.386651720807965
 20
0.2603780252441154
  0
HATCH
  5
F7
330
1F
100
AcDbEntity
  8
중심선
100
AcDbHatch
 10
0.0
 20
0.0
 30
0.0
210
0.0
220
0.0
230
1.0
  2
SOLID
 70
     1
 71
     0
 91
        1
 92
        0
 93
        4
 72
     1
 10
-0.8889232126407824
 20
-35.53962197475591
 11
-4.335198456477898
 21
-35.53962197475588
 72
     1
 10
-4.335198456477898
 20
-35.53962197475588
 11
-11.38363535836715
 21
-43.9396219747559
 72
     1
 10
-11.38363535836715
 20
-43.9396219747559
 11
-7.937360114529865
 21
-43.9396219747559
 72
     1
 10
-7.937360114529865
 20
-43.9396219747559
 11
-0.8889232126407816
 21
-35.53962197475591
 97
        0
 75
     0
 76
     1
 98
        1
 10
-6.386651720807965
 20
0.2603780252441154
  0
HATCH
  5
F8
330
1F
100
AcDbEntity
  8
중심선
100
AcDbHatch
 10
0.0
 20
0.0
 30
0.0
210
0.0
220
0.0
230
1.0
  2
SOLID
 70
     1
 71
     0
 91
        1
 92
        0
 93
        6
 72
     3
 10
3.910967218371416
 20
-39.73962197480716
 11
3.960054785062283
 21
1.540882976769353E-10
 40
0.3939339440162628
 50
17.09539180608436
 51
320.0019657685081
 73
     0
 72
     1
 10
5.593966874072013
 20
-38.32751597939419
 11
7.89926874777305
 21
-36.39318926934627
 72
     3
 10
3.91096721831857
 20
-39.73962197475603
 11
6.600054785286831
 21
-1.278976924368180E-13
 40
0.6363583540795978
 50
39.99873849337411
 51
368.4976242363724
 73
     1
 72
     1
 10
10.33629971021918
 20
-38.7796219746859
 11
2.591034525154493
 21
-38.77962197468587
 72
     1
 10
2.591034525154493
 20
-38.77962197468587
 11
2.591009480708559
 21
-40.6996219746858
 72
     1
 10
2.591009480708559
 20
-40.6996219746858
 11
7.032389250180596
 21
-40.69962197468577
 97
        0
 75
     0
 76
     1
 98
        1
 10
-6.386651720807965
 20
0.2603780252441154
  0
POINT
  5
F9
330
1F
100
AcDbEntity
  8
치수문자_일반주서
100
AcDbPoint
 10
0.0
 20
0.0
 30
0.0
  0
DIMENSION
  5
FA
330
1F
100
AcDbEntity
  8
치수문자_일반주서
100
AcDbDimension
  2
_D
 10
48.09999999999999
 20
45.35555141807178
 30
0.0
 11
-2.699999999999999
 21
45.35555141807178
 31
0.0
 70
   160
  1
<>
 71
     2
 42
101.6
  3
SLDDIMSTYLE0
100
AcDbAlignedDimension
 13
-53.5
 23
12.19999999999999
 33
0.0
 14
48.09999999999999
 24
10.414
 34
0.0
100
AcDbRotatedDimension
1001
ACAD
1000
DSTYLE
1002
{
1070
   273
1070
     7
1002
}
  0
DIMENSION
  5
10E
330
1F
100
AcDbEntity
  8
치수문자_일반주서
100
AcDbDimension
  2
_D_1
 10
9.999999999999996
 20
28.04099453033793
 30
0.0
 11
28.63090169785223
 21
28.04099453033793
 31
0.0
 70
   160
  1
<>
 71
     2
 42
38.1
  3
SLDDIMSTYLE0
100
AcDbAlignedDimension
 13
48.09999999999999
 23
10.414
 33
0.0
 14
9.999999999999996
 24
-12.35862325966307
 34
0.0
 50
0.0000000000000107
100
AcDbRotatedDimension
1001
ACAD
1000
DSTYLE
1002
{
1070
   273
1070
     7
1002
}
  0
DIMENSION
  5
121
330
1F
100
AcDbEntity
  8
치수문자_일반주서
100
AcDbDimension
  2
_D_2
 10
-66.49999999999997
 20
-12.70000000000005
 30
0.0
 11
-66.50000000000001
 21
-0.0000000000000059
 31
0.0
 70
   160
  1
%%c<>
 71
     2
 42
25.4
 52
-270.0
  3
SLDDIMSTYLE1
100
AcDbAlignedDimension
 13
-53.0
 23
12.7
 33
0.0
 14
-53.0
 24
-12.7
 34
0.0
 50
90.0000000000002
100
AcDbRotatedDimension
1001
ACAD
1000
DSTYLE
1002
{
1070
   273
1070
     7
1002
}
  0
INSERT
  5
13C
330
1F
100
AcDbEntity
  8
외형선
100
AcDbBlockReference
  2
SW_DOWELSYMBOL_0
 10
0.0
 20
0.0
 30
0.0
  0
DIMENSION
  5
164
330
1F
100
AcDbEntity
  8
치수문자_일반주서
100
AcDbDimension
  2
*D6
 10
45.81400000000001
 20
10.414
 30
0.0
 11
68.84495531650188
 21
28.70734112852739
 31
0.0
 70
   164
  1
<>
 71
     5
 42
2.285999999999999
  3
SLDDIMSTYLE0
100
AcDbRadialDimension
 15
47.60403797220498
 25
11.83581576094242
 35
0.0
 40
0.0
1001
ACAD
1000
DSTYLE
1002
{
1070
   171
1070
     3
1070
   273
1070
     2
1002
}
1001
ACAD_DSTYLE_DIMRADIAL_EXTENSION
1070
   387
1070
     1
1070
   388
1040
0.61027019526365
1070
   390
1040
1.570796326794897
  0
DIMENSION
  5
171
330
1F
100
AcDbEntity
  8
치수문자_일반주서
100
AcDbDimension
  2
*D7
 10
63.8300468158924
 20
-12.7
 30
0.0
 11
61.2050468158924
 21
-0.0000000000000018
 31
0.0
 70
    32
  1
{%%c<>}
 71
     5
 42
25.4
  3
SLDDIMSTYLE0
100
AcDbAlignedDimension
 13
45.81400000000001
 23
12.7
 33
0.0
 14
45.81400000000001
 24
-12.7
 34
0.0
 50
90.0
100
AcDbRotatedDimension
1001
ACAD
1000
DSTYLE
1002
{
1070
   273
1070
     7
1002
}
  0
LINE
  5
1E2
330
1F
100
AcDbEntity
  8
0
  6
Continuous
 62
     4
370
    15
100
AcDbLine
 10
-38.89500000000001
 20
12.7
 30
0.0
 11
-32.98632499999988
 21
12.7
 31
0.0
  0
LINE
  5
1E3
330
1F
100
AcDbEntity
  8
0
  6
Continuous
 62
     4
370
    15
100
AcDbLine
 10
-31.08132499999991
 20
10.79499999999999
 30
0.0
 11
-17.97492500000001
 21
10.79499999999999
 31
0.0
  0
LINE
  5
1E4
330
1F
100
AcDbEntity
  8
0
  6
Continuous
 62
     4
370
    15
100
AcDbLine
 10
-31.08132499999991
 20
10.79500000000001
 30
0.0
 11
-32.98632499999988
 21
12.7
 31
0.0
  0
LINE
  5
1E5
330
1F
100
AcDbEntity
  8
0
  6
Continuous
 62
     4
370
    15
100
AcDbLine
 10
-17.97492500000001
 20
10.79500000000001
 30
0.0
 11
-16.06992499999998
 21
12.7
 31
0.0
  0
LINE
  5
1E6
330
1F
100
AcDbEntity
  8
0
  6
Continuous
 62
     4
370
    15
100
AcDbLine
 10
-53.5
 20
10.79499999999999
 30
0.0
 11
-40.79999999999998
 21
10.79499999999999
 31
0.0
  0
LINE
  5
1E7
330
1F
100
AcDbEntity
  8
0
  6
Continuous
 62
     4
370
    15
100
AcDbLine
 10
-40.79999999999998
 20
10.79500000000001
 30
0.0
 11
-38.89500000000001
 21
12.69999999999999
 31
0.0
  0
ENDSEC
  0
SECTION
  2
OBJECTS
  0
DICTIONARY
  5
C
330
0
100
AcDbDictionary
281
     1
  3
ACAD_GROUP
350
D
  3
ACAD_IMAGE_VARS
350
160
  3
ACAD_LAYOUT
350
1A
  3
ACAD_MLINESTYLE
350
17
  3
ACAD_PLOTSETTINGS
350
19
  3
ACAD_PLOTSTYLENAME
350
E
  3
ACAD_SCALELIST
350
47
  3
APPDATA
350
15E
  3
DWGPROPS
350
20F
  0
DICTIONARY
  5
1D2
330
2
100
AcDbDictionary
280
     1
281
     1
  3
ACAD_LAYERSTATES
360
1D3
  0
DICTIONARY
  5
20D
330
1F
100
AcDbDictionary
280
     1
281
     1
  3
DIM_BOUNDING_BOXES_V1
360
20E
  0
DICTIONARY
  5
D
102
{ACAD_REACTORS
330
C
102
}
330
C
100
AcDbDictionary
281
     1
  0
RASTERVARIABLES
  5
160
102
{ACAD_REACTORS
330
C
102
}
330
C
100
AcDbRasterVariables
 90
        0
 70
     1
 71
     1
 72
     1
  0
DICTIONARY
  5
1A
102
{ACAD_REACTORS
330
C
102
}
330
C
100
AcDbDictionary
281
     1
  3
Layout1
350
1E
  3
Layout2
350
26
  3
Model
350
22
  0
DICTIONARY
  5
17
102
{ACAD_REACTORS
330
C
102
}
330
C
100
AcDbDictionary
281
     1
  3
Standard
350
18
  0
DICTIONARY
  5
19
102
{ACAD_REACTORS
330
C
102
}
330
C
100
AcDbDictionary
281
     1
  0
ACDBDICTIONARYWDFLT
  5
E
102
{ACAD_REACTORS
330
C
102
}
330
C
100
AcDbDictionary
281
     1
  3
Normal
350
F
100
AcDbDictionaryWithDefault
340
F
  0
DICTIONARY
  5
47
102
{ACAD_REACTORS
330
C
102
}
330
C
100
AcDbDictionary
281
     1
  3
A0
350
48
  3
A1
350
49
  3
A2
350
4A
  3
A3
350
4B
  3
A4
350
4C
  3
A5
350
4D
  3
A6
350
4E
  3
A7
350
4F
  3
A8
350
50
  3
A9
350
51
  3
B0
350
52
  3
B1
350
53
  3
B2
350
54
  3
B3
350
55
  3
B4
350
56
  3
B5
350
57
  3
B6
350
58
  3
B7
350
59
  3
B8
350
5A
  3
B9
350
5B
  3
C0
350
5C
  3
C1
350
5D
  3
C2
350
5E
  3
C3
350
5F
  3
C4
350
60
  3
C5
350
61
  3
C6
350
62
  3
C7
350
63
  3
C8
350
64
  3
C9
350
65
  3
D0
350
66
  3
D1
350
67
  3
D2
350
68
  0
DICTIONARY
  5
15E
102
{ACAD_REACTORS
330
C
102
}
330
C
100
AcDbDictionary
281
     1
  0
XRECORD
  5
20F
102
{ACAD_REACTORS
330
C
102
}
330
C
100
AcDbXrecord
280
     1
  1
DWGPROPS COOKIE
  2

  3

  4

  6

  7

  8
12015018
  9

300
=
301
=
302
=
303
=
304
=
305
=
306
=
307
=
308
=
309
=
 40
0.0
 41
2458236.376675926
 42
2459697.069990544
  1

 90
        0
  0
DICTIONARY
  5
1D3
102
{ACAD_REACTORS
330
1D2
102
}
330
1D2
100
AcDbDictionary
281
     1
  0
DICTIONARY
  5
20E
102
{ACAD_REACTORS
330
20D
102
}
330
20D
100
AcDbDictionary
281
     1
  0
LAYOUT
  5
1E
102
{ACAD_REACTORS
330
1A
102
}
330
1A
100
AcDbPlotSettings
  1

  2
none_device
  4

  6

 40
0.0
 41
0.0
 42
0.0
 43
0.0
 44
0.0
 45
0.0
 46
0.0
 47
0.0
 48
0.0
 49
0.0
140
0.0
141
0.0
142
1.0
143
1.0
 70
   688
 72
     1
 73
     0
 74
     5
  7

 75
    16
147
1.0
148
0.0
149
0.0
100
AcDbLayout
  1
Layout1
 70
     1
 71
     1
 10
0.0
 20
0.0
 11
420.0
 21
297.0
 12
0.0
 22
0.0
 32
0.0
 14
1.000000000000000E+20
 24
1.000000000000000E+20
 34
1.000000000000000E+20
 15
-1.000000000000000E+20
 25
-1.000000000000000E+20
 35
-1.000000000000000E+20
146
0.0
 13
0.0
 23
0.0
 33
0.0
 16
1.0
 26
0.0
 36
0.0
 17
0.0
 27
1.0
 37
0.0
 76
     0
330
1B
  0
LAYOUT
  5
26
102
{ACAD_REACTORS
330
1A
102
}
330
1A
100
AcDbPlotSettings
  1

  2
none_device
  4

  6

 40
0.0
 41
0.0
 42
0.0
 43
0.0
 44
0.0
 45
0.0
 46
0.0
 47
0.0
 48
0.0
 49
0.0
140
0.0
141
0.0
142
1.0
143
1.0
 70
   688
 72
     1
 73
     0
 74
     5
  7

 75
    16
147
1.0
148
0.0
149
0.0
100
AcDbLayout
  1
Layout2
 70
     1
 71
     2
 10
0.0
 20
0.0
 11
0.0
 21
0.0
 12
0.0
 22
0.0
 32
0.0
 14
0.0
 24
0.0
 34
0.0
 15
0.0
 25
0.0
 35
0.0
146
0.0
 13
0.0
 23
0.0
 33
0.0
 16
1.0
 26
0.0
 36
0.0
 17
0.0
 27
1.0
 37
0.0
 76
     0
330
23
  0
LAYOUT
  5
22
102
{ACAD_REACTORS
330
1A
102
}
330
1A
100
AcDbPlotSettings
  1

  2
none_device
  4
ANSI_A_(11.00_x_8.50_Inches)
  6

 40
6.35
 41
19.05
 42
6.35000508
 43
19.05000254
 44
279.4
 45
215.9
 46
146.8031450975141
 47
83.71477817342067
 48
0.0
 49
0.0
140
0.0
141
0.0
142
0.078937127674307
143
1.0
 70
  1696
 72
     0
 73
     0
 74
     0
  7

 75
     0
147
0.0235690232323232
148
0.0
149
0.0
100
AcDbLayout
  1
Model
 70
     1
 71
     0
 10
0.0
 20
0.0
 11
420.0
 21
297.0
 12
0.0
 22
0.0
 32
0.0
 14
-70.87500000000004
 24
-49.71142936356762
 34
0.0
 15
81.00660328492206
 25
49.73055141807177
 35
0.0
146
0.0
 13
0.0
 23
0.0
 33
0.0
 16
1.0
 26
0.0
 36
0.0
 17
0.0
 27
1.0
 37
0.0
 76
     0
330
1F
331
29
  0
MLINESTYLE
  5
18
102
{ACAD_REACTORS
330
17
102
}
330
17
100
AcDbMlineStyle
  2
Standard
 70
     0
  3

 62
   256
 51
90.0
 52
90.0
 71
     2
 49
0.5
 62
   256
  6
BYLAYER
 49
-0.5
 62
   256
  6
BYLAYER
  0
ACDBPLACEHOLDER
  5
F
102
{ACAD_REACTORS
330
E
102
}
330
E
  0
SCALE
  5
48
102
{ACAD_REACTORS
330
47
102
}
330
47
100
AcDbScale
 70
     0
300
1:1
140
1.0
141
1.0
290
     1
  0
SCALE
  5
49
102
{ACAD_REACTORS
330
47
102
}
330
47
100
AcDbScale
 70
     0
300
1:2
140
1.0
141
2.0
290
     0
  0
SCALE
  5
4A
102
{ACAD_REACTORS
330
47
102
}
330
47
100
AcDbScale
 70
     0
300
1:4
140
1.0
141
4.0
290
     0
  0
SCALE
  5
4B
102
{ACAD_REACTORS
330
47
102
}
330
47
100
AcDbScale
 70
     0
300
1:5
140
1.0
141
5.0
290
     0
  0
SCALE
  5
4C
102
{ACAD_REACTORS
330
47
102
}
330
47
100
AcDbScale
 70
     0
300
1:8
140
1.0
141
8.0
290
     0
  0
SCALE
  5
4D
102
{ACAD_REACTORS
330
47
102
}
330
47
100
AcDbScale
 70
     0
300
1:10
140
1.0
141
10.0
290
     0
  0
SCALE
  5
4E
102
{ACAD_REACTORS
330
47
102
}
330
47
100
AcDbScale
 70
     0
300
1:16
140
1.0
141
16.0
290
     0
  0
SCALE
  5
4F
102
{ACAD_REACTORS
330
47
102
}
330
47
100
AcDbScale
 70
     0
300
1:20
140
1.0
141
20.0
290
     0
  0
SCALE
  5
50
102
{ACAD_REACTORS
330
47
102
}
330
47
100
AcDbScale
 70
     0
300
1:30
140
1.0
141
30.0
290
     0
  0
SCALE
  5
51
102
{ACAD_REACTORS
330
47
102
}
330
47
100
AcDbScale
 70
     0
300
1:40
140
1.0
141
40.0
290
     0
  0
SCALE
  5
52
102
{ACAD_REACTORS
330
47
102
}
330
47
100
AcDbScale
 70
     0
300
1:50
140
1.0
141
50.0
290
     0
  0
SCALE
  5
53
102
{ACAD_REACTORS
330
47
102
}
330
47
100
AcDbScale
 70
     0
300
1:100
140
1.0
141
100.0
290
     0
  0
SCALE
  5
54
102
{ACAD_REACTORS
330
47
102
}
330
47
100
AcDbScale
 70
     0
300
2:1
140
2.0
141
1.0
290
     0
  0
SCALE
  5
55
102
{ACAD_REACTORS
330
47
102
}
330
47
100
AcDbScale
 70
     0
300
4:1
140
4.0
141
1.0
290
     0
  0
SCALE
  5
56
102
{ACAD_REACTORS
330
47
102
}
330
47
100
AcDbScale
 70
     0
300
8:1
140
8.0
141
1.0
290
     0
  0
SCALE
  5
57
102
{ACAD_REACTORS
330
47
102
}
330
47
100
AcDbScale
 70
     0
300
10:1
140
10.0
141
1.0
290
     0
  0
SCALE
  5
58
102
{ACAD_REACTORS
330
47
102
}
330
47
100
AcDbScale
 70
     0
300
100:1
140
100.0
141
1.0
290
     0
  0
SCALE
  5
59
102
{ACAD_REACTORS
330
47
102
}
330
47
100
AcDbScale
 70
     0
300
1/128" = 1'-0"
140
0.0078125
141
12.0
290
     0
  0
SCALE
  5
5A
102
{ACAD_REACTORS
330
47
102
}
330
47
100
AcDbScale
 70
     0
300
1/64" = 1'-0"
140
0.015625
141
12.0
290
     0
  0
SCALE
  5
5B
102
{ACAD_REACTORS
330
47
102
}
330
47
100
AcDbScale
 70
     0
300
1/32" = 1'-0"
140
0.03125
141
12.0
290
     0
  0
SCALE
  5
5C
102
{ACAD_REACTORS
330
47
102
}
330
47
100
AcDbScale
 70
     0
300
1/16" = 1'-0"
140
0.0625
141
12.0
290
     0
  0
SCALE
  5
5D
102
{ACAD_REACTORS
330
47
102
}
330
47
100
AcDbScale
 70
     0
300
3/32" = 1'-0"
140
0.09375
141
12.0
290
     0
  0
SCALE
  5
5E
102
{ACAD_REACTORS
330
47
102
}
330
47
100
AcDbScale
 70
     0
300
1/8" = 1'-0"
140
0.125
141
12.0
290
     0
  0
SCALE
  5
5F
102
{ACAD_REACTORS
330
47
102
}
330
47
100
AcDbScale
 70
     0
300
3/16" = 1'-0"
140
0.1875
141
12.0
290
     0
  0
SCALE
  5
60
102
{ACAD_REACTORS
330
47
102
}
330
47
100
AcDbScale
 70
     0
300
1/4" = 1'-0"
140
0.25
141
12.0
290
     0
  0
SCALE
  5
61
102
{ACAD_REACTORS
330
47
102
}
330
47
100
AcDbScale
 70
     0
300
3/8" = 1'-0"
140
0.375
141
12.0
290
     0
  0
SCALE
  5
62
102
{ACAD_REACTORS
330
47
102
}
330
47
100
AcDbScale
 70
     0
300
1/2" = 1'-0"
140
0.5
141
12.0
290
     0
  0
SCALE
  5
63
102
{ACAD_REACTORS
330
47
102
}
330
47
100
AcDbScale
 70
     0
300
3/4" = 1'-0"
140
0.75
141
12.0
290
     0
  0
SCALE
  5
64
102
{ACAD_REACTORS
330
47
102
}
330
47
100
AcDbScale
 70
     0
300
1" = 1'-0"
140
1.0
141
12.0
290
     0
  0
SCALE
  5
65
102
{ACAD_REACTORS
330
47
102
}
330
47
100
AcDbScale
 70
     0
300
1-1/2" = 1'-0"
140
1.5
141
12.0
290
     0
  0
SCALE
  5
66
102
{ACAD_REACTORS
330
47
102
}
330
47
100
AcDbScale
 70
     0
300
3" = 1'-0"
140
3.0
141
12.0
290
     0
  0
SCALE
  5
67
102
{ACAD_REACTORS
330
47
102
}
330
47
100
AcDbScale
 70
     0
300
6" = 1'-0"
140
6.0
141
12.0
290
     0
  0
SCALE
  5
68
102
{ACAD_REACTORS
330
47
102
}
330
47
100
AcDbScale
 70
     0
300
1'-0" = 1'-0"
140
12.0
141
12.0
290
     0
  0
ENDSEC
  0
EOF
