  0
SECTION
  2
HEADER
  9
$ACADVER
  1
AC1015
  9
$ACADMAINTVER
 70
     6
  9
$DWGCODEPAGE
  3
ANSI_949
  9
$INSBASE
 10
0.0
 20
0.0
 30
0.0
  9
$EXTMIN
 10
-70.87500000000007
 20
-49.97180738881174
 30
0.0
  9
$EXTMAX
 10
110.8113710818945
 20
46.5555514180718
 30
0.0
  9
$LIMMIN
 10
0.0
 20
0.0
  9
$LIMMAX
 10
420.0
 20
297.0
  9
$ORTHOMODE
 70
     0
  9
$REGENMODE
 70
     1
  9
$FILLMODE
 70
     1
  9
$QTEXTMODE
 70
     0
  9
$MIRRTEXT
 70
     1
  9
$LTSCALE
 40
1.0
  9
$ATTMODE
 70
     1
  9
$TEXTSIZE
 40
3.5
  9
$TRACEWID
 40
1.0
  9
$TEXTSTYLE
  7
Standard
  9
$CLAYER
  8
0
  9
$CELTYPE
  6
ByLayer
  9
$CECOLOR
 62
   256
  9
$CELTSCALE
 40
1.0
  9
$DISPSILH
 70
     0
  9
$DIMSCALE
 40
1.0
  9
$DIMASZ
 40
3.302
  9
$DIMEXO
 40
1.0
  9
$DIMDLI
 40
3.75
  9
$DIMRND
 40
0.0
  9
$DIMDLE
 40
0.0
  9
$DIMEXE
 40
1.0
  9
$DIMTP
 40
0.0
  9
$DIMTM
 40
0.0
  9
$DIMTXT
 40
3.5
  9
$DIMCEN
 40
2.5
  9
$DIMTSZ
 40
0.0
  9
$DIMTOL
 70
     0
  9
$DIMLIM
 70
     0
  9
$DIMTIH
 70
     1
  9
$DIMTOH
 70
     1
  9
$DIMSE1
 70
     0
  9
$DIMSE2
 70
     0
  9
$DIMTAD
 70
     1
  9
$DIMZIN
 70
     0
  9
$DIMBLK
  1

  9
$DIMASO
 70
     1
  9
$DIMSHO
 70
     1
  9
$DIMPOST
  1

  9
$DIMAPOST
  1

  9
$DIMALT
 70
     0
  9
$DIMALTD
 70
     3
  9
$DIMALTF
 40
0.0393700787401575
  9
$DIMLFAC
 40
1.0
  9
$DIMTOFL
 70
     1
  9
$DIMTVP
 40
0.0
  9
$DIMTIX
 70
     0
  9
$DIMSOXD
 70
     0
  9
$DIMSAH
 70
     0
  9
$DIMBLK1
  1

  9
$DIMBLK2
  1

  9
$DIMSTYLE
  2
ISO-25
  9
$DIMCLRD
 70
     0
  9
$DIMCLRE
 70
     0
  9
$DIMCLRT
 70
     0
  9
$DIMTFAC
 40
1.0
  9
$DIMGAP
 40
1.524
  9
$DIMJUST
 70
     0
  9
$DIMSD1
 70
     0
  9
$DIMSD2
 70
     0
  9
$DIMTOLJ
 70
     0
  9
$DIMTZIN
 70
     0
  9
$DIMALTZ
 70
     0
  9
$DIMALTTZ
 70
     0
  9
$DIMUPT
 70
     0
  9
$DIMDEC
 70
     2
  9
$DIMTDEC
 70
     2
  9
$DIMALTU
 70
     2
  9
$DIMALTTD
 70
     3
  9
$DIMTXSTY
  7
Standard
  9
$DIMAUNIT
 70
     0
  9
$DIMADEC
 70
     2
  9
$DIMALTRND
 40
0.0
  9
$DIMAZIN
 70
     0
  9
$DIMDSEP
 70
    44
  9
$DIMATFIT
 70
     3
  9
$DIMFRAC
 70
     0
  9
$DIMLDRBLK
  1

  9
$DIMLUNIT
 70
     2
  9
$DIMLWD
 70
    -2
  9
$DIMLWE
 70
    -2
  9
$DIMTMOVE
 70
     0
  9
$LUNITS
 70
     2
  9
$LUPREC
 70
     2
  9
$SKETCHINC
 40
1.0
  9
$FILLETRAD
 40
10.0
  9
$AUNITS
 70
     0
  9
$AUPREC
 70
     2
  9
$MENU
  1
.
  9
$ELEVATION
 40
0.0
  9
$PELEVATION
 40
0.0
  9
$THICKNESS
 40
0.0
  9
$LIMCHECK
 70
     0
  9
$CHAMFERA
 40
0.0
  9
$CHAMFERB
 40
0.0
  9
$CHAMFERC
 40
0.0
  9
$CHAMFERD
 40
0.0
  9
$SKPOLY
 70
     0
  9
$TDCREATE
 40
2458236.751058426
  9
$TDUCREATE
 40
2458236.376058426
  9
$TDUPDATE
 40
2459697.444005752
  9
$TDUUPDATE
 40
2459697.069005752
  9
$TDINDWG
 40
0.0070339583
  9
$TDUSRTIMER
 40
0.0001180903
  9
$USRTIMER
 70
     1
  9
$ANGBASE
 50
0.0
  9
$ANGDIR
 70
     0
  9
$PDMODE
 70
     0
  9
$PDSIZE
 40
-1.0
  9
$PLINEWID
 40
0.0
  9
$SPLFRAME
 70
     0
  9
$SPLINETYPE
 70
     6
  9
$SPLINESEGS
 70
     8
  9
$HANDSEED
  5
39F
  9
$SURFTAB1
 70
     6
  9
$SURFTAB2
 70
     6
  9
$SURFTYPE
 70
     6
  9
$SURFU
 70
     6
  9
$SURFV
 70
     6
  9
$UCSBASE
  2

  9
$UCSNAME
  2

  9
$UCSORG
 10
0.0
 20
0.0
 30
0.0
  9
$UCSXDIR
 10
1.0
 20
0.0
 30
0.0
  9
$UCSYDIR
 10
0.0
 20
1.0
 30
0.0
  9
$UCSORTHOREF
  2

  9
$UCSORTHOVIEW
 70
     0
  9
$UCSORGTOP
 10
0.0
 20
0.0
 30
0.0
  9
$UCSORGBOTTOM
 10
0.0
 20
0.0
 30
0.0
  9
$UCSORGLEFT
 10
0.0
 20
0.0
 30
0.0
  9
$UCSORGRIGHT
 10
0.0
 20
0.0
 30
0.0
  9
$UCSORGFRONT
 10
0.0
 20
0.0
 30
0.0
  9
$UCSORGBACK
 10
0.0
 20
0.0
 30
0.0
  9
$PUCSBASE
  2

  9
$PUCSNAME
  2

  9
$PUCSORG
 10
0.0
 20
0.0
 30
0.0
  9
$PUCSXDIR
 10
1.0
 20
0.0
 30
0.0
  9
$PUCSYDIR
 10
0.0
 20
1.0
 30
0.0
  9
$PUCSORTHOREF
  2

  9
$PUCSORTHOVIEW
 70
     0
  9
$PUCSORGTOP
 10
0.0
 20
0.0
 30
0.0
  9
$PUCSORGBOTTOM
 10
0.0
 20
0.0
 30
0.0
  9
$PUCSORGLEFT
 10
0.0
 20
0.0
 30
0.0
  9
$PUCSORGRIGHT
 10
0.0
 20
0.0
 30
0.0
  9
$PUCSORGFRONT
 10
0.0
 20
0.0
 30
0.0
  9
$PUCSORGBACK
 10
0.0
 20
0.0
 30
0.0
  9
$USERI1
 70
     0
  9
$USERI2
 70
     0
  9
$USERI3
 70
     0
  9
$USERI4
 70
     0
  9
$USERI5
 70
     0
  9
$USERR1
 40
0.0
  9
$USERR2
 40
0.0
  9
$USERR3
 40
0.0
  9
$USERR4
 40
0.0
  9
$USERR5
 40
0.0
  9
$WORLDVIEW
 70
     1
  9
$SHADEDGE
 70
     3
  9
$SHADEDIF
 70
    70
  9
$TILEMODE
 70
     1
  9
$MAXACTVP
 70
    64
  9
$PINSBASE
 10
0.0
 20
0.0
 30
0.0
  9
$PLIMCHECK
 70
     0
  9
$PEXTMIN
 10
1.000000000000000E+20
 20
1.000000000000000E+20
 30
1.000000000000000E+20
  9
$PEXTMAX
 10
-1.000000000000000E+20
 20
-1.000000000000000E+20
 30
-1.000000000000000E+20
  9
$PLIMMIN
 10
0.0
 20
0.0
  9
$PLIMMAX
 10
0.0
 20
0.0
  9
$UNITMODE
 70
     0
  9
$VISRETAIN
 70
     1
  9
$PLINEGEN
 70
     0
  9
$PSLTSCALE
 70
     1
  9
$TREEDEPTH
 70
  3020
  9
$CMLSTYLE
  2
Standard
  9
$CMLJUST
 70
     0
  9
$CMLSCALE
 40
20.0
  9
$PROXYGRAPHICS
 70
     1
  9
$MEASUREMENT
 70
     1
  9
$CELWEIGHT
370
    -1
  9
$ENDCAPS
280
     0
  9
$JOINSTYLE
280
     0
  9
$LWDISPLAY
290
     1
  9
$INSUNITS
 70
     4
  9
$HYPERLINKBASE
  1

  9
$STYLESHEET
  1

  9
$XEDIT
290
     1
  9
$CEPSNTYPE
380
     0
  9
$PSTYLEMODE
290
     1
  9
$FINGERPRINTGUID
  2
{A7E8807B-2714-4DA0-8634-20EF669B8FA2}
  9
$VERSIONGUID
  2
{FAEB1C32-E019-11D5-929B-00C0DF256EC4}
  9
$EXTNAMES
290
     1
  9
$PSVPSCALE
 40
0.0
  9
$OLESTARTUP
290
     0
  0
ENDSEC
  0
SECTION
  2
CLASSES
  0
CLASS
  1
ACDBDICTIONARYWDFLT
  2
AcDbDictionaryWithDefault
  3
ObjectDBX Classes
 90
        0
280
     0
281
     0
  0
CLASS
  1
VISUALSTYLE
  2
AcDbVisualStyle
  3
ObjectDBX Classes
 90
     4095
280
     0
281
     0
  0
CLASS
  1
MATERIAL
  2
AcDbMaterial
  3
ObjectDBX Classes
 90
     1153
280
     0
281
     0
  0
CLASS
  1
SCALE
  2
AcDbScale
  3
ObjectDBX Classes
 90
     1153
280
     0
281
     0
  0
CLASS
  1
SUN
  2
AcDbSun
  3
SCENEOE
 90
     1153
280
     0
281
     0
  0
CLASS
  1
ACDBPLACEHOLDER
  2
AcDbPlaceHolder
  3
ObjectDBX Classes
 90
        0
280
     0
281
     0
  0
CLASS
  1
LAYOUT
  2
AcDbLayout
  3
ObjectDBX Classes
 90
        0
280
     0
281
     0
  0
CLASS
  1
TABLESTYLE
  2
AcDbTableStyle
  3
ObjectDBX Classes
 90
     4095
280
     0
281
     0
  0
CLASS
  1
MLEADERSTYLE
  2
AcDbMLeaderStyle
  3
ACDB_MLEADERSTYLE_CLASS
 90
     4095
280
     0
281
     0
  0
CLASS
  1
RASTERVARIABLES
  2
AcDbRasterVariables
  3
ISM
 90
        0
280
     0
281
     0
  0
CLASS
  1
DIMASSOC
  2
AcDbDimAssoc
  3
"AcDbDimAssoc|Product Desc:     AcDim ARX App For Dimension|Company:          Autodesk, Inc.|WEB Address:      www.autodesk.com"
 90
        0
280
     0
281
     0
  0
ENDSEC
  0
SECTION
  2
TABLES
  0
TABLE
  2
VPORT
  5
8
330
0
100
AcDbSymbolTable
 70
     1
  0
VPORT
  5
29
330
8
100
AcDbSymbolTableRecord
100
AcDbViewportTableRecord
  2
*Active
 70
     0
 10
0.0
 20
0.0
 11
1.0
 21
1.0
 12
19.96818554094722
 22
-1.70812798536997
 13
0.0
 23
0.0
 14
10.0
 24
10.0
 15
10.0
 25
10.0
 16
0.0
 26
0.0
 36
1.0
 17
0.0
 27
0.0
 37
0.0
 40
98.45790598302122
 41
1.898569570871261
 42
50.0
 43
0.0
 44
0.0
 50
0.0
 51
0.0
 71
    16
 72
  2000
 73
     1
 74
     3
 75
     0
 76
     0
 77
     0
 78
     0
281
     0
 65
     1
110
0.0
120
0.0
130
0.0
111
1.0
121
0.0
131
0.0
112
0.0
122
1.0
132
0.0
 79
     0
146
0.0
  0
ENDTAB
  0
TABLE
  2
LTYPE
  5
5
330
0
100
AcDbSymbolTable
 70
     6
  0
LTYPE
  5
14
330
5
100
AcDbSymbolTableRecord
100
AcDbLinetypeTableRecord
  2
ByBlock
 70
     0
  3

 72
    65
 73
     0
 40
0.0
  0
LTYPE
  5
15
330
5
100
AcDbSymbolTableRecord
100
AcDbLinetypeTableRecord
  2
ByLayer
 70
     0
  3

 72
    65
 73
     0
 40
0.0
  0
LTYPE
  5
16
330
5
100
AcDbSymbolTableRecord
100
AcDbLinetypeTableRecord
  2
Continuous
 70
     0
  3
Solid line
 72
    65
 73
     0
 40
0.0
  0
LTYPE
  5
6A
330
5
100
AcDbSymbolTableRecord
100
AcDbLinetypeTableRecord
  2
HIDDEN
 70
     0
  3
Hidden __ __ __ __ __ __ __ __ __ __ __ __ __ __
 72
    65
 73
     2
 40
1.905
 49
1.27
 74
     0
 49
-0.635
 74
     0
  0
LTYPE
  5
6B
330
5
100
AcDbSymbolTableRecord
100
AcDbLinetypeTableRecord
  2
PHANTOM
 70
     0
  3
Phantom ______  __  __  ______  __  __  ______
 72
    65
 73
     6
 40
12.7
 49
6.35
 74
     0
 49
-1.27
 74
     0
 49
1.27
 74
     0
 49
-1.27
 74
     0
 49
1.27
 74
     0
 49
-1.27
 74
     0
  0
LTYPE
  5
6C
330
5
100
AcDbSymbolTableRecord
100
AcDbLinetypeTableRecord
  2
CENTER
 70
     0
  3
Center ____ _ ____ _ ____ _ ____ _ ____ _ ____
 72
    65
 73
     4
 40
10.16
 49
6.35
 74
     0
 49
-1.27
 74
     0
 49
1.27
 74
     0
 49
-1.27
 74
     0
  0
LTYPE
  5
6D
330
5
100
AcDbSymbolTableRecord
100
AcDbLinetypeTableRecord
  2
CENTERX2
 70
     0
  3
Center (2x) ________  __  ________  __  _____
 72
    65
 73
     4
 40
20.32
 49
12.7
 74
     0
 49
-2.54
 74
     0
 49
2.54
 74
     0
 49
-2.54
 74
     0
  0
LTYPE
  5
6E
330
5
100
AcDbSymbolTableRecord
100
AcDbLinetypeTableRecord
  2
DOT2
 70
     0
  3
Dot (.5x) ........................................
 72
    65
 73
     2
 40
0.635
 49
0.0
 74
     0
 49
-0.635
 74
     0
  0
ENDTAB
  0
TABLE
  2
LAYER
  5
2
102
{ACAD_XDICTIONARY
360
368
102
}
330
0
100
AcDbSymbolTable
 70
    17
  0
LAYER
  5
10
330
2
100
AcDbSymbolTableRecord
100
AcDbLayerTableRecord
  2
0
 70
     0
 62
     7
  6
Continuous
370
    -3
390
F
  0
LAYER
  5
6F
330
2
100
AcDbSymbolTableRecord
100
AcDbLayerTableRecord
  2
FORMAT
 70
     0
 62
     2
  6
Continuous
370
    -3
390
F
  0
LAYER
  5
70
330
2
100
AcDbSymbolTableRecord
100
AcDbLayerTableRecord
  2
외형선
 70
     0
 62
   100
  6
Continuous
370
    30
390
F
  0
LAYER
  5
71
330
2
100
AcDbSymbolTableRecord
100
AcDbLayerTableRecord
  2
숨은선
 70
     0
 62
     2
  6
HIDDEN
370
    15
390
F
  0
LAYER
  5
72
330
2
100
AcDbSymbolTableRecord
100
AcDbLayerTableRecord
  2
중심선
 70
     0
 62
     1
  6
CENTERX2
370
    -3
390
F
  0
LAYER
  5
73
330
2
100
AcDbSymbolTableRecord
100
AcDbLayerTableRecord
  2
파단선
 70
     0
 62
     4
  6
Continuous
370
    -3
390
F
  0
LAYER
  5
74
330
2
100
AcDbSymbolTableRecord
100
AcDbLayerTableRecord
  2
해칭선
 70
     0
 62
     4
  6
Continuous
370
    -3
390
F
  0
LAYER
  5
75
330
2
100
AcDbSymbolTableRecord
100
AcDbLayerTableRecord
  2
가는실선
 70
     0
 62
     4
  6
Continuous
370
    -3
390
F
  0
LAYER
  5
76
330
2
100
AcDbSymbolTableRecord
100
AcDbLayerTableRecord
  2
치수_보조선
 70
     0
 62
     4
  6
Continuous
370
    -3
390
F
  0
LAYER
  5
77
330
2
100
AcDbSymbolTableRecord
100
AcDbLayerTableRecord
  2
치수문자_일반주서
 70
     0
 62
     7
  6
Continuous
370
    15
390
F
  0
LAYER
  5
78
330
2
100
AcDbSymbolTableRecord
100
AcDbLayerTableRecord
  2
개별주서
 70
     0
 62
   100
  6
Continuous
370
    30
390
F
  0
LAYER
  5
79
330
2
100
AcDbSymbolTableRecord
100
AcDbLayerTableRecord
  2
중간선
 70
     0
 62
     2
  6
Continuous
370
    15
390
F
  0
LAYER
  5
7A
330
2
100
AcDbSymbolTableRecord
100
AcDbLayerTableRecord
  2
윤곽선
 70
     0
 62
     3
  6
Continuous
370
    40
390
F
  0
LAYER
  5
7B
330
2
100
AcDbSymbolTableRecord
100
AcDbLayerTableRecord
  2
중심마크
 70
     0
 62
   100
  6
Continuous
370
    30
390
F
  0
LAYER
  5
7C
330
2
100
AcDbSymbolTableRecord
100
AcDbLayerTableRecord
  2
가상선
 70
     0
 62
     4
  6
PHANTOM
370
    -3
390
F
  0
LAYER
  5
7D
330
2
100
AcDbSymbolTableRecord
100
AcDbLayerTableRecord
  2
특수지정선
 70
     0
 62
     5
  6
CENTERX2
370
    60
390
F
  0
LAYER
  5
15A
330
2
100
AcDbSymbolTableRecord
100
AcDbLayerTableRecord
  2
Defpoints
 70
     0
 62
     7
  6
Continuous
290
     0
370
    -3
390
F
  0
ENDTAB
  0
TABLE
  2
STYLE
  5
3
330
0
100
AcDbSymbolTable
 70
     2
  0
STYLE
  5
11
330
3
100
AcDbSymbolTableRecord
100
AcDbTextStyleTableRecord
  2
Standard
 70
     0
 40
0.0
 41
1.0
 50
0.0
 71
     0
 42
3.5
  3
txt
  4

  0
STYLE
  5
93
330
3
100
AcDbSymbolTableRecord
100
AcDbTextStyleTableRecord
  2
SLDTEXTSTYLE0
 70
     0
 40
0.0
 41
0.75
 50
0.0
 71
     0
 42
3.5
  3
TXT
  4

  0
ENDTAB
  0
TABLE
  2
VIEW
  5
6
330
0
100
AcDbSymbolTable
 70
     0
  0
ENDTAB
  0
TABLE
  2
UCS
  5
7
330
0
100
AcDbSymbolTable
 70
     0
  0
ENDTAB
  0
TABLE
  2
APPID
  5
9
330
0
100
AcDbSymbolTable
 70
     3
  0
APPID
  5
12
330
9
100
AcDbSymbolTableRecord
100
AcDbRegAppTableRecord
  2
ACAD
 70
     0
  0
APPID
  5
159
330
9
100
AcDbSymbolTableRecord
100
AcDbRegAppTableRecord
  2
ACAD_DSTYLE_DIMRADIAL_EXTENSION
 70
     0
  0
APPID
  5
307
330
9
100
AcDbSymbolTableRecord
100
AcDbRegAppTableRecord
  2
PE_DIMMEASUREMENT
 70
     0
  0
ENDTAB
  0
TABLE
  2
DIMSTYLE
  5
A
330
0
100
AcDbSymbolTable
 70
     3
100
AcDbDimStyleTable
  0
DIMSTYLE
105
27
330
A
100
AcDbSymbolTableRecord
100
AcDbDimStyleTableRecord
  2
ISO-25
 70
     0
 41
2.5
 42
0.625
 43
3.75
 44
1.25
 73
     0
 74
     0
 77
     1
 78
     8
140
2.5
141
2.5
143
0.03937007874016
147
0.625
171
     3
172
     1
178
     0
271
     2
272
     2
274
     3
278
    44
283
     0
284
     8
340
11
  0
DIMSTYLE
105
F3
102
{ACAD_REACTORS
330
2CE
330
2CF
102
}
330
A
100
AcDbSymbolTableRecord
100
AcDbDimStyleTableRecord
  2
SLDDIMSTYLE0
 70
     0
 41
3.302
 44
0.0
 45
0.000000001
 73
     0
 74
     0
 77
     1
 78
     4
 79
     1
140
3.5
143
0.0393700787401575
147
0.875
148
0.000000001
170
     1
173
     1
178
     0
271
     2
272
     2
276
     2
284
    12
340
93
  0
DIMSTYLE
105
11A
102
{ACAD_REACTORS
330
2D0
330
2F6
330
30D
102
}
330
A
100
AcDbSymbolTableRecord
100
AcDbDimStyleTableRecord
  2
SLDDIMSTYLE1
 70
     0
 41
3.302
 44
0.0
 45
0.000000001
 73
     0
 74
     0
 77
     1
 78
    12
 79
     3
140
3.5
143
0.0393700787401575
147
0.875
148
0.000000001
170
     1
172
     1
173
     1
178
     0
271
     2
272
     2
276
     2
284
    12
289
     0
340
93
  0
ENDTAB
  0
TABLE
  2
BLOCK_RECORD
  5
1
330
0
100
AcDbSymbolTable
 70
    14
  0
BLOCK_RECORD
  5
1F
102
{ACAD_XDICTIONARY
360
39C
102
}
330
1
100
AcDbSymbolTableRecord
100
AcDbBlockTableRecord
  2
*Model_Space
340
22
  0
BLOCK_RECORD
  5
1B
330
1
100
AcDbSymbolTableRecord
100
AcDbBlockTableRecord
  2
*Paper_Space
340
1E
  0
BLOCK_RECORD
  5
23
330
1
100
AcDbSymbolTableRecord
100
AcDbBlockTableRecord
  2
*Paper_Space0
340
26
  0
BLOCK_RECORD
  5
7E
330
1
100
AcDbSymbolTableRecord
100
AcDbBlockTableRecord
  2
블럭10
340
0
102
{BLKREFS
331
EA
102
}
  0
BLOCK_RECORD
  5
F4
330
1
100
AcDbSymbolTableRecord
100
AcDbBlockTableRecord
  2
_D
340
0
  0
BLOCK_RECORD
  5
107
330
1
100
AcDbSymbolTableRecord
100
AcDbBlockTableRecord
  2
_D_1
340
0
  0
BLOCK_RECORD
  5
11B
330
1
100
AcDbSymbolTableRecord
100
AcDbBlockTableRecord
  2
_D_2
340
0
  0
BLOCK_RECORD
  5
12E
330
1
100
AcDbSymbolTableRecord
100
AcDbBlockTableRecord
  2
SW_DOWELSYMBOL_0
340
0
102
{BLKREFS
331
2D1
102
}
  0
BLOCK_RECORD
  5
238
330
1
100
AcDbSymbolTableRecord
100
AcDbBlockTableRecord
  2
*D6
340
0
  0
BLOCK_RECORD
  5
244
330
1
100
AcDbSymbolTableRecord
100
AcDbBlockTableRecord
  2
*D7
340
0
  0
BLOCK_RECORD
  5
250
330
1
100
AcDbSymbolTableRecord
100
AcDbBlockTableRecord
  2
*D8
340
0
  0
BLOCK_RECORD
  5
2D2
330
1
100
AcDbSymbolTableRecord
100
AcDbBlockTableRecord
  2
*D9
340
0
  0
BLOCK_RECORD
  5
2DE
330
1
100
AcDbSymbolTableRecord
100
AcDbBlockTableRecord
  2
*D10
340
0
  0
BLOCK_RECORD
  5
2EA
330
1
100
AcDbSymbolTableRecord
100
AcDbBlockTableRecord
  2
*D11
340
0
  0
BLOCK_RECORD
  5
2F9
330
1
100
AcDbSymbolTableRecord
100
AcDbBlockTableRecord
  2
*D12
340
0
  0
BLOCK_RECORD
  5
310
330
1
100
AcDbSymbolTableRecord
100
AcDbBlockTableRecord
  2
*D13
340
0
  0
ENDTAB
  0
ENDSEC
  0
SECTION
  2
BLOCKS
  0
BLOCK
  5
20
330
1F
100
AcDbEntity
  8
0
100
AcDbBlockBegin
  2
*Model_Space
 70
     0
 10
0.0
 20
0.0
 30
0.0
  3
*Model_Space
  1
*Model_Space
  0
ENDBLK
  5
21
330
1F
100
AcDbEntity
  8
0
100
AcDbBlockEnd
  0
BLOCK
  5
1C
330
1B
100
AcDbEntity
 67
     1
  8
0
100
AcDbBlockBegin
  2
*Paper_Space
 70
     0
 10
0.0
 20
0.0
 30
0.0
  3
*Paper_Space
  1
*Paper_Space
  0
ENDBLK
  5
1D
330
1B
100
AcDbEntity
 67
     1
  8
0
100
AcDbBlockEnd
  0
BLOCK
  5
24
330
23
100
AcDbEntity
  8
0
100
AcDbBlockBegin
  2
*Paper_Space0
 70
     0
 10
0.0
 20
0.0
 30
0.0
  3
*Paper_Space0
  1
*Paper_Space0
  0
ENDBLK
  5
25
330
23
100
AcDbEntity
  8
0
100
AcDbBlockEnd
  0
BLOCK
  5
7F
330
7E
100
AcDbEntity
  8
0
100
AcDbBlockBegin
  2
블럭10
 70
     2
 10
0.0
 20
0.0
 30
0.0
  3
블럭10
  1
블럭10
  0
ELLIPSE
  5
81
330
7E
100
AcDbEntity
  8
중심선
100
AcDbEllipse
 10
20.54032771741204
 20
12.0471743016438
 30
0.0
 11
6.600054785286829
 21
-1.261213355974178E-13
 31
0.0
210
0.0
220
0.0
230
1.0
 40
0.636358354079598
 41
0.9219305317359503
 42
6.513795318482858
  0
ELLIPSE
  5
82
330
7E
100
AcDbEntity
  8
중심선
100
AcDbEllipse
 10
20.54032771746488
 20
12.04717430159265
 30
0.0
 11
3.960054785062283
 21
1.540847449632565E-10
 31
0.0
210
0.0
220
0.0
230
1.0
 40
0.3939339440162632
 41
1.131841032648279
 42
5.62031148352944
  0
LINE
  5
83
330
7E
100
AcDbEntity
  8
중심선
100
AcDbLine
 10
2.268634060543552
 20
16.24717430164393
 30
0.0
 11
5.714909304380834
 21
16.24717430164393
 31
0.0
  0
LINE
  5
84
330
7E
100
AcDbEntity
  8
중심선
100
AcDbLine
 10
5.245725140726316
 20
7.84717430164391
 30
0.0
 11
8.692000384563599
 21
7.84717430164391
 31
0.0
  0
LINE
  5
85
330
7E
100
AcDbEntity
  8
중심선
100
AcDbLine
 10
15.74043728645272
 20
16.24717430164393
 30
0.0
 11
8.692000384563599
 21
7.84717430164391
 31
0.0
  0
LINE
  5
86
330
7E
100
AcDbEntity
  8
중심선
100
AcDbLine
 10
0.1404042013395286
 20
13.71084872107135
 30
0.0
 11
3.58671253028996
 21
13.71088815037384
 31
0.0
  0
LINE
  5
87
330
7E
100
AcDbEntity
  8
중심선
100
AcDbLine
 10
2.750260043222114
 20
10.84717430164391
 30
0.0
 11
6.196535287059397
 21
10.84717430164391
 31
0.0
  0
LINE
  5
88
330
7E
100
AcDbEntity
  8
중심선
100
AcDbLine
 10
12.29416204261559
 20
16.24717430164393
 30
0.0
 11
5.245725140726316
 21
7.84717430164391
 31
0.0
  0
LINE
  5
89
330
7E
100
AcDbEntity
  8
중심선
100
AcDbLine
 10
10.72767329541681
 20
16.24717430164393
 30
0.0
 11
6.196535287059397
 21
10.84717430164391
 31
0.0
  0
LINE
  5
8A
330
7E
100
AcDbEntity
  8
중심선
100
AcDbLine
 10
7.28139805157953
 20
16.24717430164393
 30
0.0
 11
2.750260043222114
 21
10.84717430164391
 31
0.0
  0
LINE
  5
8B
330
7E
100
AcDbEntity
  8
중심선
100
AcDbLine
 10
5.714909304380834
 20
16.24717430164393
 30
0.0
 11
3.58671253028996
 21
13.71088815037384
 31
0.0
  0
LINE
  5
8C
330
7E
100
AcDbEntity
  8
중심선
100
AcDbLine
 10
2.268634060543552
 20
16.24717430164393
 30
0.0
 11
0.1404042013395286
 21
13.71084872107135
 31
0.0
  0
LINE
  5
8D
330
7E
100
AcDbEntity
  8
중심선
100
AcDbLine
 10
7.28139805157953
 20
16.24717430164393
 30
0.0
 11
10.72767329541681
 21
16.24717430164393
 31
0.0
  0
LINE
  5
8E
330
7E
100
AcDbEntity
  8
중심선
100
AcDbLine
 10
12.29416204261559
 20
16.24717430164393
 30
0.0
 11
15.74043728645272
 21
16.24717430164393
 31
0.0
  0
LINE
  5
8F
330
7E
100
AcDbEntity
  8
중심선
100
AcDbLine
 10
19.22036997980202
 20
11.08717430171403
 30
0.0
 11
23.66174974927406
 21
11.08717430171406
 31
0.0
  0
LINE
  5
90
330
7E
100
AcDbEntity
  8
중심선
100
AcDbLine
 10
19.22039502424796
 20
13.00717430171391
 30
0.0
 11
19.22036997980202
 21
11.08717430171403
 31
0.0
  0
LINE
  5
91
330
7E
100
AcDbEntity
  8
중심선
100
AcDbLine
 10
19.22039502424796
 20
13.00717430171391
 30
0.0
 11
26.96566020931264
 21
13.00717430171391
 31
0.0
  0
LINE
  5
92
330
7E
100
AcDbEntity
  8
중심선
100
AcDbLine
 10
22.22332737316547
 20
13.45928029700563
 30
0.0
 11
24.52862924686651
 21
15.39360700705356
 31
0.0
  0
ATTDEF
  5
94
330
7E
100
AcDbEntity
  8
FORMAT
 62
     2
100
AcDbText
 10
-11.05102035218446
 20
2.075366912832191
 30
0.0
 40
4.233333333333333
  1
GMG22946[ 6 FLUTE ]
 41
0.75
  7
SLDTEXTSTYLE0
 11
-11.05102035218446
 21
-0.0412997538344756
 31
0.0
100
AcDbAttributeDefinition
  3

  2
AUTOATTR0
 70
     0
 74
     1
  0
ENDBLK
  5
80
330
7E
100
AcDbEntity
  8
0
100
AcDbBlockEnd
  0
BLOCK
  5
F5
330
F4
100
AcDbEntity
  8
0
100
AcDbBlockBegin
  2
_D
 70
     0
 10
0.0
 20
0.0
 30
0.0
  3
_D
  1
_D
  0
SOLID
  5
F7
330
F4
100
AcDbEntity
  8
치수문자_일반주서
100
AcDbTrace
 10
-47.11334827919202
 20
41.92017339282766
 30
0.0
 11
-43.81134827919202
 21
41.41217339282766
 31
0.0
 12
-43.81134827919202
 22
42.42817339282767
 32
0.0
 13
-43.81134827919202
 23
42.42817339282767
 33
0.0
  0
SOLID
  5
F8
330
F4
100
AcDbEntity
  8
치수문자_일반주서
100
AcDbTrace
 10
92.58665172080798
 20
41.92017339282765
 30
0.0
 11
89.28465172080797
 21
42.42817339282765
 31
0.0
 12
89.28465172080797
 22
41.41217339282765
 32
0.0
 13
89.28465172080797
 23
41.41217339282765
 33
0.0
  0
LINE
  5
F9
330
F4
100
AcDbEntity
  8
치수문자_일반주서
100
AcDbLine
 10
17.32228563898533
 20
52.71305510887042
 30
0.0
 11
16.61134815342083
 21
52.71305510887042
 31
0.0
  0
LINE
  5
FA
330
F4
100
AcDbEntity
  8
치수문자_일반주서
100
AcDbLine
 10
16.61134815342083
 20
52.71305510887042
 30
0.0
 11
16.61134815342083
 21
47.15680511781112
 31
0.0
  0
LINE
  5
FB
330
F4
100
AcDbEntity
  8
치수문자_일반주서
100
AcDbLine
 10
16.61134815342083
 20
47.15680511781112
 30
0.0
 11
17.32228563898533
 21
47.15680511781112
 31
0.0
  0
LINE
  5
FC
330
F4
100
AcDbEntity
  8
치수문자_일반주서
100
AcDbLine
 10
28.15101850112259
 20
52.71305510887042
 30
0.0
 11
28.86195598668709
 21
52.71305510887042
 31
0.0
  0
LINE
  5
FD
330
F4
100
AcDbEntity
  8
치수문자_일반주서
100
AcDbLine
 10
28.86195598668709
 20
52.71305510887042
 30
0.0
 11
28.86195598668709
 21
47.15680511781112
 31
0.0
  0
LINE
  5
FE
330
F4
100
AcDbEntity
  8
치수문자_일반주서
100
AcDbLine
 10
28.86195598668709
 20
47.15680511781112
 30
0.0
 11
28.15101850112259
 21
47.15680511781112
 31
0.0
  0
LINE
  5
FF
330
F4
100
AcDbEntity
  8
치수문자_일반주서
100
AcDbLine
 10
-47.11334827919202
 20
9.764621974755878
 30
0.0
 11
-47.11334827919202
 21
42.92017339282766
 31
0.0
  0
LINE
  5
100
330
F4
100
AcDbEntity
  8
치수문자_일반주서
100
AcDbLine
 10
92.58665172080798
 20
7.978621974755885
 30
0.0
 11
92.58665172080798
 21
42.92017339282765
 31
0.0
  0
LINE
  5
101
330
F4
100
AcDbEntity
  8
치수문자_일반주서
100
AcDbLine
 10
-47.11334827919202
 20
41.92017339282766
 30
0.0
 11
92.58665172080798
 21
41.92017339282765
 31
0.0
  0
MTEXT
  5
102
330
F4
100
AcDbEntity
  8
치수문자_일반주서
100
AcDbMText
 10
15.64429051648184
 20
46.4853826586894
 30
0.0
 40
3.5
 41
0.0
 71
     1
 72
     1
  1

  7
SLDTEXTSTYLE0
 73
     1
 44
1.0
  0
MTEXT
  5
103
330
F4
100
AcDbEntity
  8
치수문자_일반주서
100
AcDbMText
 10
18.2109575395967
 20
51.66854203239001
 30
0.0
 40
3.5
 41
0.0
 71
     1
 72
     1
  1
5.50
  7
SLDTEXTSTYLE0
 73
     1
 44
1.0
  0
MTEXT
  5
104
330
F4
100
AcDbEntity
  8
치수문자_일반주서
100
AcDbMText
 10
15.62484611324325
 20
46.43191048202954
 30
0.0
 40
3.5
 41
0.0
 71
     1
 72
     1
  1
139.70
  7
SLDTEXTSTYLE0
 73
     1
 44
1.0
  0
MTEXT
  5
105
330
F4
100
AcDbEntity
  8
치수문자_일반주서
100
AcDbMText
 10
31.16095814327999
 20
46.4853826586894
 30
0.0
 40
3.5
 41
0.0
 71
     1
 72
     1
  1

  7
SLDTEXTSTYLE0
 73
     1
 44
1.0
  0
ENDBLK
  5
F6
330
F4
100
AcDbEntity
  8
0
100
AcDbBlockEnd
  0
BLOCK
  5
108
330
107
100
AcDbEntity
  8
0
100
AcDbBlockBegin
  2
_D_1
 70
     0
 10
0.0
 20
0.0
 30
0.0
  3
_D_1
  1
_D_1
  0
SOLID
  5
10A
330
107
100
AcDbEntity
  8
치수문자_일반주서
100
AcDbTrace
 10
92.58665172080798
 20
24.60561650509382
 30
0.0
 11
89.28465172080797
 21
25.11361650509382
 31
0.0
 12
89.28465172080797
 22
24.09761650509382
 32
0.0
 13
89.28465172080797
 23
24.09761650509382
 33
0.0
  0
SOLID
  5
10B
330
107
100
AcDbEntity
  8
치수문자_일반주서
100
AcDbTrace
 10
16.38665172080611
 20
24.6056165050938
 30
0.0
 11
19.68865172080611
 21
24.0976165050938
 31
0.0
 12
19.68865172080611
 22
25.1136165050938
 32
0.0
 13
19.68865172080611
 23
25.1136165050938
 33
0.0
  0
LINE
  5
10C
330
107
100
AcDbEntity
  8
치수문자_일반주서
100
AcDbLine
 10
48.2340890346888
 20
35.3984982211366
 30
0.0
 11
47.5231515491243
 21
35.39849822113659
 31
0.0
  0
LINE
  5
10D
330
107
100
AcDbEntity
  8
치수문자_일반주서
100
AcDbLine
 10
47.5231515491243
 20
35.39849822113659
 30
0.0
 11
47.52315154912434
 21
29.84224823007728
 31
0.0
  0
LINE
  5
10E
330
107
100
AcDbEntity
  8
치수문자_일반주서
100
AcDbLine
 10
47.52315154912434
 20
29.84224823007728
 30
0.0
 11
48.23408903468884
 21
29.84224823007729
 31
0.0
  0
LINE
  5
10F
330
107
100
AcDbEntity
  8
치수문자_일반주서
100
AcDbLine
 10
59.06282189682606
 20
35.39849822113667
 30
0.0
 11
59.77375938239056
 21
35.39849822113668
 31
0.0
  0
LINE
  5
110
330
107
100
AcDbEntity
  8
치수문자_일반주서
100
AcDbLine
 10
59.77375938239056
 20
35.39849822113668
 30
0.0
 11
59.7737593823906
 21
29.84224823007738
 31
0.0
  0
LINE
  5
111
330
107
100
AcDbEntity
  8
치수문자_일반주서
100
AcDbLine
 10
59.7737593823906
 20
29.84224823007738
 30
0.0
 11
59.0628218968261
 21
29.84224823007737
 31
0.0
  0
LINE
  5
112
330
107
100
AcDbEntity
  8
치수문자_일반주서
100
AcDbLine
 10
92.58665172080798
 20
7.978621974755885
 30
0.0
 11
92.58665172080798
 21
25.60561650509382
 31
0.0
  0
LINE
  5
113
330
107
100
AcDbEntity
  8
치수문자_일반주서
100
AcDbLine
 10
16.38665172080611
 20
9.998809165977601
 30
0.0
 11
16.38665172080611
 21
25.60561650509381
 31
0.0
  0
LINE
  5
114
330
107
100
AcDbEntity
  8
치수문자_일반주서
100
AcDbLine
 10
92.58665172080798
 20
24.60561650509382
 30
0.0
 11
16.38665172080611
 21
24.6056165050938
 31
0.0
  0
MTEXT
  5
115
330
107
100
AcDbEntity
  8
치수문자_일반주서
100
AcDbMText
 10
47.00939282363765
 20
29.17082577095555
 30
0.0
 40
3.5
 41
0.0
 71
     1
 72
     1
  1

  7
SLDTEXTSTYLE0
 73
     1
 44
1.0
  0
MTEXT
  5
116
330
107
100
AcDbEntity
  8
치수문자_일반주서
100
AcDbMText
 10
49.12276093530018
 20
34.35398514465619
 30
0.0
 40
3.5
 41
0.0
 71
     1
 72
     1
  1
3.00
  7
SLDTEXTSTYLE0
 73
     1
 44
1.0
  0
MTEXT
  5
117
330
107
100
AcDbEntity
  8
치수문자_일반주서
100
AcDbMText
 10
47.82970522212349
 20
29.11735359429571
 30
0.0
 40
3.5
 41
0.0
 71
     1
 72
     1
  1
76.20
  7
SLDTEXTSTYLE0
 73
     1
 44
1.0
  0
MTEXT
  5
118
330
107
100
AcDbEntity
  8
치수문자_일반주서
100
AcDbMText
 10
61.61946262753122
 20
29.17082577095566
 30
0.0
 40
3.5
 41
0.0
 71
     1
 72
     1
  1

  7
SLDTEXTSTYLE0
 73
     1
 44
1.0
  0
ENDBLK
  5
109
330
107
100
AcDbEntity
  8
0
100
AcDbBlockEnd
  0
BLOCK
  5
11C
330
11B
100
AcDbEntity
  8
0
100
AcDbBlockBegin
  2
_D_2
 70
     0
 10
0.0
 20
0.0
 30
0.0
  3
_D_2
  1
_D_2
  0
SOLID
  5
11E
330
11B
100
AcDbEntity
  8
치수문자_일반주서
100
AcDbTrace
 10
-60.11334827919204
 20
9.26462197475588
 30
0.0
 11
-59.60534827919204
 21
12.56662197475588
 31
0.0
 12
-60.62134827919204
 22
12.56662197475588
 32
0.0
 13
-60.62134827919204
 23
12.56662197475588
 33
0.0
  0
SOLID
  5
11F
330
11B
100
AcDbEntity
  8
치수문자_일반주서
100
AcDbTrace
 10
-60.11334827919204
 20
-9.785378025244121
 30
0.0
 11
-60.62134827919204
 21
-13.08737802524412
 31
0.0
 12
-59.60534827919204
 22
-13.08737802524412
 32
0.0
 13
-59.60534827919204
 23
-13.08737802524412
 33
0.0
  0
LINE
  5
120
330
11B
100
AcDbEntity
  8
치수문자_일반주서
100
AcDbLine
 10
-70.90622999523477
 20
-5.674744456312825
 30
0.0
 11
-70.90622999523477
 21
-6.385681941877325
 31
0.0
  0
LINE
  5
121
330
11B
100
AcDbEntity
  8
치수문자_일반주서
100
AcDbLine
 10
-70.90622999523477
 20
-6.385681941877325
 30
0.0
 11
-65.34998000417546
 21
-6.385681941877286
 31
0.0
  0
LINE
  5
122
330
11B
100
AcDbEntity
  8
치수문자_일반주서
100
AcDbLine
 10
-65.34998000417546
 20
-6.385681941877286
 30
0.0
 11
-65.34998000417546
 21
-5.674744456312786
 31
0.0
  0
LINE
  5
123
330
11B
100
AcDbEntity
  8
치수문자_일반주서
100
AcDbLine
 10
-70.90622999523485
 20
5.153988405824433
 30
0.0
 11
-70.90622999523485
 21
5.864925891388933
 31
0.0
  0
LINE
  5
124
330
11B
100
AcDbEntity
  8
치수문자_일반주서
100
AcDbLine
 10
-70.90622999523485
 20
5.864925891388933
 30
0.0
 11
-65.34998000417555
 21
5.864925891388972
 31
0.0
  0
LINE
  5
125
330
11B
100
AcDbEntity
  8
치수문자_일반주서
100
AcDbLine
 10
-65.34998000417555
 20
5.864925891388972
 30
0.0
 11
-65.34998000417555
 21
5.153988405824472
 31
0.0
  0
LINE
  5
126
330
11B
100
AcDbEntity
  8
치수문자_일반주서
100
AcDbLine
 10
-47.61334827919202
 20
9.264621974755881
 30
0.0
 11
-61.11334827919205
 21
9.26462197475588
 31
0.0
  0
LINE
  5
127
330
11B
100
AcDbEntity
  8
치수문자_일반주서
100
AcDbLine
 10
-47.61334827919202
 20
-9.78537802524412
 30
0.0
 11
-61.11334827919205
 21
-9.785378025244121
 31
0.0
  0
LINE
  5
128
330
11B
100
AcDbEntity
  8
치수문자_일반주서
100
AcDbLine
 10
-60.11334827919204
 20
9.26462197475588
 30
0.0
 11
-60.11334827919204
 21
15.61462197475588
 31
0.0
  0
LINE
  5
129
330
11B
100
AcDbEntity
  8
치수문자_일반주서
100
AcDbLine
 10
-60.11334827919204
 20
9.26462197475588
 30
0.0
 11
-60.11334827919204
 21
-9.785378025244121
 31
0.0
  0
LINE
  5
12A
330
11B
100
AcDbEntity
  8
치수문자_일반주서
100
AcDbLine
 10
-60.11334827919204
 20
-9.785378025244121
 30
0.0
 11
-60.11334827919204
 21
-16.13537802524412
 31
0.0
  0
MTEXT
  5
12B
330
11B
100
AcDbEntity
  8
치수문자_일반주서
100
AcDbMText
 10
-69.86171691875438
 20
-4.786072555701447
 30
0.0
 40
3.5
 41
0.0
 71
     1
 72
     1
  1
0.75
  7
SLDTEXTSTYLE0
 11
-7.044195017643634E-15
 21
1.0
 31
0.0
 73
     1
 44
1.0
  0
MTEXT
  5
12C
330
11B
100
AcDbEntity
  8
치수문자_일반주서
100
AcDbMText
 10
-64.62508536839388
 20
-8.718346968065179
 30
0.0
 40
3.5
 41
0.0
 71
     1
 72
     1
  1
%%c
  7
SLDTEXTSTYLE0
 11
-7.044195017643634E-15
 21
1.0
 31
0.0
 73
     1
 44
1.0
  0
MTEXT
  5
12D
330
11B
100
AcDbEntity
  8
치수문자_일반주서
100
AcDbMText
 10
-64.62508536839391
 20
-3.439909569691098
 30
0.0
 40
3.5
 41
0.0
 71
     1
 72
     1
  1
19.05
  7
SLDTEXTSTYLE0
 11
-7.044195017643634E-15
 21
1.0
 31
0.0
 73
     1
 44
1.0
  0
ENDBLK
  5
11D
330
11B
100
AcDbEntity
  8
0
100
AcDbBlockEnd
  0
BLOCK
  5
12F
330
12E
100
AcDbEntity
  8
0
100
AcDbBlockBegin
  2
SW_DOWELSYMBOL_0
 70
     0
 10
0.0
 20
0.0
 30
0.0
  3
SW_DOWELSYMBOL_0
  1
SW_DOWELSYMBOL_0
  0
CIRCLE
  5
131
330
12E
100
AcDbEntity
  8
외형선
 62
     0
100
AcDbCircle
 10
0.0
 20
0.0
 30
0.0
 40
3.000000000001773
  0
HATCH
  5
132
330
12E
100
AcDbEntity
  8
0
  6
Continuous
 62
     0
370
    30
100
AcDbHatch
 10
0.0
 20
0.0
 30
0.0
210
0.0
220
0.0
230
1.0
  2
SOLID
 70
     1
 71
     0
 91
        1
 92
        0
 93
        3
 72
     2
 10
0.0
 20
0.0
 40
3.000000000001773
 50
0.0
 51
90.0
 73
     1
 72
     1
 10
0.0
 20
3.000000000001773
 11
0.0
 21
0.0
 72
     1
 10
0.0
 20
0.0
 11
3.000000000001772
 21
0.0
 97
        0
 75
     0
 76
     1
 98
        1
 10
0.0
 20
0.0
  0
HATCH
  5
133
330
12E
100
AcDbEntity
  8
0
  6
Continuous
 62
     0
370
    30
100
AcDbHatch
 10
0.0
 20
0.0
 30
0.0
210
0.0
220
0.0
230
1.0
  2
SOLID
 70
     1
 71
     0
 91
        1
 92
        0
 93
        3
 72
     2
 10
0.0
 20
0.0
 40
3.000000000001773
 50
180.0
 51
270.0000000000007
 73
     1
 72
     1
 10
0.0
 20
-3.000000000001773
 11
0.0
 21
0.0
 72
     1
 10
0.0
 20
0.0
 11
-3.000000000001773
 21
0.0
 97
        0
 75
     0
 76
     1
 98
        1
 10
0.0
 20
0.0
  0
ENDBLK
  5
130
330
12E
100
AcDbEntity
  8
0
100
AcDbBlockEnd
  0
BLOCK
  5
239
330
238
100
AcDbEntity
  8
0
100
AcDbBlockBegin
  2
*D6
 70
     1
 10
0.0
 20
0.0
 30
0.0
  3
*D6
  1
*D7
  0
LINE
  5
23B
330
238
100
AcDbEntity
  8
치수문자_일반주서
 62
     0
370
    -2
100
AcDbLine
 10
17.37500000000006
 20
22.21250000000001
 30
0.0
 11
17.37500000000006
 21
55.3055514180718
 31
0.0
  0
LINE
  5
23C
330
238
100
AcDbEntity
  8
치수문자_일반주서
 62
     0
370
    -2
100
AcDbLine
 10
157.075
 20
21.18850000000002
 30
0.0
 11
157.075
 21
55.3055514180718
 31
0.0
  0
LINE
  5
23D
330
238
100
AcDbEntity
  8
치수문자_일반주서
 62
     0
370
    -2
100
AcDbLine
 10
20.67700000000006
 20
55.3055514180718
 30
0.0
 11
153.7730000000001
 21
55.3055514180718
 31
0.0
  0
SOLID
  5
23E
330
238
100
AcDbEntity
  8
치수문자_일반주서
 62
     0
100
AcDbTrace
 10
20.67700000000006
 20
55.85588475140514
 30
0.0
 11
20.67700000000006
 21
54.75521808473847
 31
0.0
 12
17.37500000000006
 22
55.3055514180718
 32
0.0
 13
17.37500000000006
 23
55.3055514180718
 33
0.0
  0
SOLID
  5
23F
330
238
100
AcDbEntity
  8
치수문자_일반주서
 62
     0
100
AcDbTrace
 10
153.7730000000001
 20
54.75521808473847
 30
0.0
 11
153.7730000000001
 21
55.85588475140514
 31
0.0
 12
157.075
 22
55.3055514180718
 32
0.0
 13
157.075
 23
55.3055514180718
 33
0.0
  0
MTEXT
  5
240
330
238
100
AcDbEntity
  8
치수문자_일반주서
 62
     0
100
AcDbMText
 10
87.22500000000007
 20
59.6805514180718
 30
0.0
 40
3.5
 41
0.0
 71
     2
 72
     1
  1
\A1;139.70 [5.50]
  7
SLDTEXTSTYLE0
 73
     1
 44
1.0
  0
POINT
  5
241
330
238
100
AcDbEntity
  8
Defpoints
 62
     0
100
AcDbPoint
 10
17.37500000000006
 20
22.15000000000001
 30
0.0
  0
POINT
  5
242
330
238
100
AcDbEntity
  8
Defpoints
 62
     0
100
AcDbPoint
 10
157.075
 20
21.12600000000002
 30
0.0
  0
POINT
  5
243
330
238
100
AcDbEntity
  8
Defpoints
 62
     0
100
AcDbPoint
 10
157.075
 20
55.30555141807179
 30
0.0
  0
ENDBLK
  5
23A
330
238
100
AcDbEntity
  8
0
100
AcDbBlockEnd
  0
BLOCK
  5
245
330
244
100
AcDbEntity
  8
0
100
AcDbBlockBegin
  2
*D7
 70
     1
 10
0.0
 20
0.0
 30
0.0
  3
*D7
  1
*D8
  0
LINE
  5
247
330
244
100
AcDbEntity
  8
치수문자_일반주서
 62
     0
370
    -2
100
AcDbLine
 10
157.075
 20
21.18850000000002
 30
0.0
 11
157.075
 21
38.75299453033796
 31
0.0
  0
LINE
  5
248
330
244
100
AcDbEntity
  8
치수문자_일반주서
 62
     0
370
    -2
100
AcDbLine
 10
80.87500000000006
 20
22.44668719123132
 30
0.0
 11
80.87500000000006
 21
38.75299453033796
 31
0.0
  0
LINE
  5
249
330
244
100
AcDbEntity
  8
치수문자_일반주서
 62
     0
370
    -2
100
AcDbLine
 10
153.7730000000001
 20
38.75299453033796
 30
0.0
 11
84.17700000000005
 21
38.75299453033796
 31
0.0
  0
SOLID
  5
24A
330
244
100
AcDbEntity
  8
치수문자_일반주서
 62
     0
100
AcDbTrace
 10
153.7730000000001
 20
38.20266119700462
 30
0.0
 11
153.7730000000001
 21
39.30332786367129
 31
0.0
 12
157.075
 22
38.75299453033796
 32
0.0
 13
157.075
 23
38.75299453033796
 33
0.0
  0
SOLID
  5
24B
330
244
100
AcDbEntity
  8
치수문자_일반주서
 62
     0
100
AcDbTrace
 10
84.17700000000005
 20
39.30332786367129
 30
0.0
 11
84.17700000000005
 21
38.20266119700462
 31
0.0
 12
80.87500000000006
 22
38.75299453033796
 32
0.0
 13
80.87500000000006
 23
38.75299453033796
 33
0.0
  0
MTEXT
  5
24C
330
244
100
AcDbEntity
  8
치수문자_일반주서
 62
     0
100
AcDbMText
 10
118.1368033957045
 20
43.12799453033796
 30
0.0
 40
3.5
 41
0.0
 71
     2
 72
     1
  1
\A1;76.20 [3.00]
  7
SLDTEXTSTYLE0
 73
     1
 44
1.0
  0
POINT
  5
24D
330
244
100
AcDbEntity
  8
Defpoints
 62
     0
100
AcDbPoint
 10
157.075
 20
21.12600000000002
 30
0.0
  0
POINT
  5
24E
330
244
100
AcDbEntity
  8
Defpoints
 62
     0
100
AcDbPoint
 10
80.87500000000006
 20
22.38418719123132
 30
0.0
  0
POINT
  5
24F
330
244
100
AcDbEntity
  8
Defpoints
 62
     0
100
AcDbPoint
 10
80.87500000000006
 20
38.75299453033796
 30
0.0
  0
ENDBLK
  5
246
330
244
100
AcDbEntity
  8
0
100
AcDbBlockEnd
  0
BLOCK
  5
251
330
250
100
AcDbEntity
  8
0
100
AcDbBlockBegin
  2
*D8
 70
     1
 10
0.0
 20
0.0
 30
0.0
  3
*D8
  1
*D9
  0
LINE
  5
253
330
250
100
AcDbEntity
  8
치수문자_일반주서
 62
     0
370
    -2
100
AcDbLine
 10
17.81250000000006
 20
22.65000000000002
 30
0.0
 11
4.37500000000001
 21
22.64999999999997
 31
0.0
  0
LINE
  5
254
330
250
100
AcDbEntity
  8
치수문자_일반주서
 62
     0
370
    -2
100
AcDbLine
 10
17.81250000000006
 20
3.600000000000015
 30
0.0
 11
4.375000000000076
 21
3.599999999999966
 31
0.0
  0
LINE
  5
255
330
250
100
AcDbEntity
  8
치수문자_일반주서
 62
     0
370
    -2
100
AcDbLine
 10
4.375000000000021
 20
19.34799999999997
 30
0.0
 11
4.375000000000065
 21
6.901999999999965
 31
0.0
  0
SOLID
  5
256
330
250
100
AcDbEntity
  8
치수문자_일반주서
 62
     0
100
AcDbTrace
 10
4.925333333333355
 20
19.34799999999997
 30
0.0
 11
3.824666666666688
 21
19.34799999999996
 31
0.0
 12
4.37500000000001
 22
22.64999999999997
 32
0.0
 13
4.37500000000001
 23
22.64999999999997
 33
0.0
  0
SOLID
  5
257
330
250
100
AcDbEntity
  8
치수문자_일반주서
 62
     0
100
AcDbTrace
 10
3.824666666666732
 20
6.901999999999964
 30
0.0
 11
4.925333333333398
 21
6.901999999999967
 31
0.0
 12
4.375000000000076
 22
3.599999999999966
 32
0.0
 13
4.375000000000076
 23
3.599999999999966
 33
0.0
  0
MTEXT
  5
258
330
250
100
AcDbEntity
  8
치수문자_일반주서
 62
     0
100
AcDbMText
 10
0.0000000000000426
 20
13.125
 30
0.0
 40
3.5
 41
0.0
 71
     2
 72
     1
  1
\A1;%%c19.05 [0.75]
  7
SLDTEXTSTYLE0
 11
-3.496765431890257E-15
 21
1.0
 31
0.0
 73
     1
 44
1.0
  0
POINT
  5
259
330
250
100
AcDbEntity
  8
Defpoints
 62
     0
100
AcDbPoint
 10
17.87500000000006
 20
22.65000000000002
 30
0.0
  0
POINT
  5
25A
330
250
100
AcDbEntity
  8
Defpoints
 62
     0
100
AcDbPoint
 10
17.87500000000006
 20
3.600000000000016
 30
0.0
  0
POINT
  5
25B
330
250
100
AcDbEntity
  8
Defpoints
 62
     0
100
AcDbPoint
 10
4.375000000000043
 20
3.599999999999965
 30
0.0
  0
ENDBLK
  5
252
330
250
100
AcDbEntity
  8
0
100
AcDbBlockEnd
  0
BLOCK
  5
2D3
330
2D2
100
AcDbEntity
  8
0
100
AcDbBlockBegin
  2
*D9
 70
     1
 10
0.0
 20
0.0
 30
0.0
  3
*D9
  1
*D10
  0
LINE
  5
2D5
330
2D2
100
AcDbEntity
  8
치수문자_일반주서
 62
     0
370
    -2
100
AcDbLine
 10
-53.49999999999999
 20
9.087500000000006
 30
0.0
 11
-53.49999999999999
 21
42.1805514180718
 31
0.0
  0
LINE
  5
2D6
330
2D2
100
AcDbEntity
  8
치수문자_일반주서
 62
     0
370
    -2
100
AcDbLine
 10
86.19999999999999
 20
8.063500000000019
 30
0.0
 11
86.19999999999997
 21
42.1805514180718
 31
0.0
  0
LINE
  5
2D7
330
2D2
100
AcDbEntity
  8
치수문자_일반주서
 62
     0
370
    -2
100
AcDbLine
 10
-50.19799999999999
 20
42.1805514180718
 30
0.0
 11
82.89799999999997
 21
42.1805514180718
 31
0.0
  0
SOLID
  5
2D8
330
2D2
100
AcDbEntity
  8
치수문자_일반주서
 62
     0
100
AcDbTrace
 10
-50.19799999999999
 20
42.73088475140514
 30
0.0
 11
-50.19799999999999
 21
41.63021808473847
 31
0.0
 12
-53.49999999999999
 22
42.1805514180718
 32
0.0
 13
-53.49999999999999
 23
42.1805514180718
 33
0.0
  0
SOLID
  5
2D9
330
2D2
100
AcDbEntity
  8
치수문자_일반주서
 62
     0
100
AcDbTrace
 10
82.89799999999997
 20
41.63021808473847
 30
0.0
 11
82.89799999999997
 21
42.73088475140514
 31
0.0
 12
86.19999999999997
 22
42.1805514180718
 32
0.0
 13
86.19999999999997
 23
42.1805514180718
 33
0.0
  0
MTEXT
  5
2DA
330
2D2
100
AcDbEntity
  8
치수문자_일반주서
 62
     0
100
AcDbMText
 10
16.35000000000001
 20
46.5555514180718
 30
0.0
 40
3.5
 41
0.0
 71
     2
 72
     1
  1
\A1;139.70 [5 1/2]
  7
SLDTEXTSTYLE0
 73
     1
 44
1.0
  0
POINT
  5
2DB
330
2D2
100
AcDbEntity
  8
Defpoints
 62
     0
100
AcDbPoint
 10
-53.49999999999999
 20
9.025000000000006
 30
0.0
  0
POINT
  5
2DC
330
2D2
100
AcDbEntity
  8
Defpoints
 62
     0
100
AcDbPoint
 10
86.19999999999999
 20
8.001000000000019
 30
0.0
  0
POINT
  5
2DD
330
2D2
100
AcDbEntity
  8
Defpoints
 62
     0
100
AcDbPoint
 10
86.19999999999999
 20
42.1805514180718
 30
0.0
  0
ENDBLK
  5
2D4
330
2D2
100
AcDbEntity
  8
0
100
AcDbBlockEnd
  0
BLOCK
  5
2DF
330
2DE
100
AcDbEntity
  8
0
100
AcDbBlockBegin
  2
*D10
 70
     1
 10
0.0
 20
0.0
 30
0.0
  3
*D10
  1
*D11
  0
LINE
  5
2E1
330
2DE
100
AcDbEntity
  8
치수문자_일반주서
 62
     0
370
    -2
100
AcDbLine
 10
86.19999999999999
 20
8.063500000000019
 30
0.0
 11
86.19999999999999
 21
25.62799453033796
 31
0.0
  0
LINE
  5
2E2
330
2DE
100
AcDbEntity
  8
치수문자_일반주서
 62
     0
370
    -2
100
AcDbLine
 10
9.999999999999986
 20
-9.199320252409805
 30
0.0
 11
9.999999999999986
 21
25.62799453033796
 31
0.0
  0
LINE
  5
2E3
330
2DE
100
AcDbEntity
  8
치수문자_일반주서
 62
     0
370
    -2
100
AcDbLine
 10
82.898
 20
25.62799453033796
 30
0.0
 11
13.30199999999999
 21
25.62799453033796
 31
0.0
  0
SOLID
  5
2E4
330
2DE
100
AcDbEntity
  8
치수문자_일반주서
 62
     0
100
AcDbTrace
 10
82.898
 20
25.07766119700462
 30
0.0
 11
82.898
 21
26.17832786367129
 31
0.0
 12
86.19999999999999
 22
25.62799453033796
 32
0.0
 13
86.19999999999999
 23
25.62799453033796
 33
0.0
  0
SOLID
  5
2E5
330
2DE
100
AcDbEntity
  8
치수문자_일반주서
 62
     0
100
AcDbTrace
 10
13.30199999999999
 20
26.17832786367129
 30
0.0
 11
13.30199999999999
 21
25.07766119700462
 31
0.0
 12
9.999999999999986
 22
25.62799453033796
 32
0.0
 13
9.999999999999986
 23
25.62799453033796
 33
0.0
  0
MTEXT
  5
2E6
330
2DE
100
AcDbEntity
  8
치수문자_일반주서
 62
     0
100
AcDbMText
 10
47.26180339570445
 20
30.00299453033796
 30
0.0
 40
3.5
 41
0.0
 71
     2
 72
     1
  1
\A1;76.20 [3]
  7
SLDTEXTSTYLE0
 73
     1
 44
1.0
  0
POINT
  5
2E7
330
2DE
100
AcDbEntity
  8
Defpoints
 62
     0
100
AcDbPoint
 10
86.19999999999999
 20
8.001000000000019
 30
0.0
  0
POINT
  5
2E8
330
2DE
100
AcDbEntity
  8
Defpoints
 62
     0
100
AcDbPoint
 10
9.999999999999986
 20
-9.261820252409805
 30
0.0
  0
POINT
  5
2E9
330
2DE
100
AcDbEntity
  8
Defpoints
 62
     0
100
AcDbPoint
 10
9.999999999999986
 20
25.62799453033796
 30
0.0
  0
ENDBLK
  5
2E0
330
2DE
100
AcDbEntity
  8
0
100
AcDbBlockEnd
  0
BLOCK
  5
2EB
330
2EA
100
AcDbEntity
  8
0
100
AcDbBlockBegin
  2
*D11
 70
     1
 10
0.0
 20
0.0
 30
0.0
  3
*D11
  1
*D12
  0
LINE
  5
2ED
330
2EA
100
AcDbEntity
  8
치수문자_일반주서
 62
     0
370
    -2
100
AcDbLine
 10
-53.06249999999999
 20
9.52500000000002
 30
0.0
 11
-66.50000000000004
 21
9.52499999999997
 31
0.0
  0
LINE
  5
2EE
330
2EA
100
AcDbEntity
  8
치수문자_일반주서
 62
     0
370
    -2
100
AcDbLine
 10
-53.06249999999999
 20
-9.524999999999977
 30
0.0
 11
-66.49999999999997
 21
-9.525000000000027
 31
0.0
  0
LINE
  5
2EF
330
2EA
100
AcDbEntity
  8
치수문자_일반주서
 62
     0
370
    -2
100
AcDbLine
 10
-66.50000000000003
 20
6.222999999999971
 30
0.0
 11
-66.49999999999999
 21
-6.223000000000027
 31
0.0
  0
SOLID
  5
2F0
330
2EA
100
AcDbEntity
  8
치수문자_일반주서
 62
     0
100
AcDbTrace
 10
-65.9496666666667
 20
6.222999999999972
 30
0.0
 11
-67.05033333333336
 21
6.222999999999969
 31
0.0
 12
-66.50000000000004
 22
9.52499999999997
 32
0.0
 13
-66.50000000000004
 23
9.52499999999997
 33
0.0
  0
SOLID
  5
2F1
330
2EA
100
AcDbEntity
  8
치수문자_일반주서
 62
     0
100
AcDbTrace
 10
-67.05033333333331
 20
-6.223000000000029
 30
0.0
 11
-65.94966666666666
 21
-6.223000000000026
 31
0.0
 12
-66.49999999999997
 22
-9.525000000000027
 32
0.0
 13
-66.49999999999997
 23
-9.525000000000027
 33
0.0
  0
MTEXT
  5
2F2
330
2EA
100
AcDbEntity
  8
치수문자_일반주서
 62
     0
100
AcDbMText
 10
-70.87500000000001
 20
-0.0000000000000021
 30
0.0
 40
3.5
 41
0.0
 71
     2
 72
     1
  1
\A1;%%c19.05 [3/4]
  7
SLDTEXTSTYLE0
 11
-3.729883127349608E-15
 21
1.0
 31
0.0
 73
     1
 44
1.0
  0
POINT
  5
2F3
330
2EA
100
AcDbEntity
  8
Defpoints
 62
     0
100
AcDbPoint
 10
-52.99999999999999
 20
9.52500000000002
 30
0.0
  0
POINT
  5
2F4
330
2EA
100
AcDbEntity
  8
Defpoints
 62
     0
100
AcDbPoint
 10
-52.99999999999999
 20
-9.524999999999977
 30
0.0
  0
POINT
  5
2F5
330
2EA
100
AcDbEntity
  8
Defpoints
 62
     0
100
AcDbPoint
 10
-66.49999999999997
 20
-9.525000000000027
 30
0.0
  0
ENDBLK
  5
2EC
330
2EA
100
AcDbEntity
  8
0
100
AcDbBlockEnd
  0
BLOCK
  5
2FA
330
2F9
100
AcDbEntity
  8
0
100
AcDbBlockBegin
  2
*D12
 70
     1
 10
0.0
 20
0.0
 30
0.0
  3
*D12
  1
*D13
  0
LINE
  5
2FC
330
2F9
100
AcDbEntity
  8
치수문자_일반주서
 62
     0
370
    -2
100
AcDbLine
 10
84.73849999999999
 20
9.52500000000002
 30
0.0
 11
99.56928032931557
 21
9.525000000000018
 31
0.0
  0
LINE
  5
2FD
330
2F9
100
AcDbEntity
  8
치수문자_일반주서
 62
     0
370
    -2
100
AcDbLine
 10
84.73850000000004
 20
-9.524999999999977
 30
0.0
 11
99.56928032931557
 21
-9.524999999999979
 31
0.0
  0
LINE
  5
2FE
330
2F9
100
AcDbEntity
  8
치수문자_일반주서
 62
     0
370
    -2
100
AcDbLine
 10
99.56928032931557
 20
6.223000000000019
 30
0.0
 11
99.56928032931557
 21
-6.222999999999979
 31
0.0
  0
SOLID
  5
2FF
330
2F9
100
AcDbEntity
  8
치수문자_일반주서
 62
     0
100
AcDbTrace
 10
100.1196136626489
 20
6.223000000000019
 30
0.0
 11
99.01894699598225
 21
6.223000000000019
 31
0.0
 12
99.56928032931557
 22
9.525000000000018
 32
0.0
 13
99.56928032931557
 23
9.525000000000018
 33
0.0
  0
SOLID
  5
300
330
2F9
100
AcDbEntity
  8
치수문자_일반주서
 62
     0
100
AcDbTrace
 10
99.01894699598225
 20
-6.222999999999979
 30
0.0
 11
100.1196136626489
 21
-6.222999999999979
 31
0.0
 12
99.56928032931557
 22
-9.524999999999979
 32
0.0
 13
99.56928032931557
 23
-9.524999999999979
 33
0.0
  0
MTEXT
  5
301
330
2F9
100
AcDbEntity
  8
치수문자_일반주서
 62
     0
100
AcDbMText
 10
96.94428032931557
 20
0.0000000000000284
 30
0.0
 40
3.5
 41
0.0
 71
     5
 72
     1
  1
\A1;{%%c19.05 [3/4]}
  7
SLDTEXTSTYLE0
 11
0.0
 21
1.0
 31
0.0
 73
     1
 44
1.0
  0
POINT
  5
302
330
2F9
100
AcDbEntity
  8
Defpoints
 62
     0
100
AcDbPoint
 10
84.67599999999999
 20
9.52500000000002
 30
0.0
  0
POINT
  5
303
330
2F9
100
AcDbEntity
  8
Defpoints
 62
     0
100
AcDbPoint
 10
84.67600000000004
 20
-9.524999999999977
 30
0.0
  0
POINT
  5
304
330
2F9
100
AcDbEntity
  8
Defpoints
 62
     0
100
AcDbPoint
 10
99.56928032931557
 20
-9.524999999999979
 30
0.0
  0
ENDBLK
  5
2FB
330
2F9
100
AcDbEntity
  8
0
100
AcDbBlockEnd
  0
BLOCK
  5
311
330
310
100
AcDbEntity
  8
0
100
AcDbBlockBegin
  2
*D13
 70
     1
 10
0.0
 20
0.0
 30
0.0
  3
*D13
  1
*D14
  0
LINE
  5
313
330
310
100
AcDbEntity
  8
치수문자_일반주서
 62
     0
370
    -2
100
AcDbLine
 10
87.96786101815773
 20
11.53001218999504
 30
0.0
 11
110.8113710818945
 21
36.01920691374933
 31
0.0
  0
MTEXT
  5
314
330
310
100
AcDbEntity
  8
치수문자_일반주서
 62
     0
100
AcDbMText
 10
98.59624794854281
 20
26.77244094398695
 30
0.0
 40
3.5
 41
0.0
 71
     5
 72
     1
  1
\A1;R1.52 [R0.060]
  7
SLDTEXTSTYLE0
 11
0.6821096183501338
 21
0.7312499357635764
 31
0.0
 73
     1
 44
1.0
  0
LINE
  5
315
330
310
100
AcDbEntity
  8
치수문자_일반주서
 62
     0
370
    -2
100
AcDbLine
 10
84.67599999999999
 20
8.00100000000002
 30
0.0
 11
85.71553505836559
 21
9.115424902103708
 31
0.0
  0
SOLID
  5
316
330
310
100
AcDbEntity
  8
치수문자_일반주서
 62
     0
100
AcDbTrace
 10
87.56542980350918
 20
11.90539984996039
 30
0.0
 11
88.37029223280629
 21
11.15462453002968
 31
0.0
 12
85.71553505836559
 22
9.115424902103708
 32
0.0
 13
85.71553505836559
 23
9.115424902103708
 33
0.0
  0
POINT
  5
317
330
310
100
AcDbEntity
  8
Defpoints
 62
     0
100
AcDbPoint
 10
85.71553505836559
 20
9.115424902103708
 30
0.0
  0
POINT
  5
318
330
310
100
AcDbEntity
  8
Defpoints
 62
     0
100
AcDbPoint
 10
84.67599999999999
 20
8.00100000000002
 30
0.0
  0
ENDBLK
  5
312
330
310
100
AcDbEntity
  8
0
100
AcDbBlockEnd
  0
ENDSEC
  0
SECTION
  2
ENTITIES
  0
INSERT
  5
EA
330
1F
100
AcDbEntity
  8
0
  6
Continuous
 62
     7
100
AcDbBlockReference
 66
     1
  2
블럭10
 10
-10.24270877828551
 20
-52.04717430164393
 30
0.0
  0
ATTRIB
  5
EB
330
EA
100
AcDbEntity
  8
FORMAT
 62
     2
100
AcDbText
 10
-21.29372913046998
 20
-49.97180738881174
 30
0.0
 40
4.233333333333333
  1
GMG23946[ 6 FLUTE ]
 41
0.75
  7
SLDTEXTSTYLE0
 11
-21.29372913046998
 21
-52.08847405547841
 31
0.0
100
AcDbAttribute
  2
AUTOATTR0
 70
     0
 74
     1
  0
SEQEND
  5
EC
330
EA
100
AcDbEntity
  8
0
  6
Continuous
 62
     7
  0
HATCH
  5
ED
330
1F
100
AcDbEntity
  8
중심선
100
AcDbHatch
 10
0.0
 20
0.0
 30
0.0
210
0.0
220
0.0
230
1.0
  2
SOLID
 70
     1
 71
     0
 91
        1
 92
        0
 93
        4
 72
     1
 10
-4.527799473904665
 20
-35.8
 11
-7.974074717741947
 21
-35.8
 72
     1
 10
-7.974074717741947
 20
-35.8
 11
-10.10230457694597
 21
-38.33632558057259
 72
     1
 10
-10.10230457694597
 20
-38.33632558057259
 11
-6.655996247995538
 21
-38.3362861512701
 72
     1
 10
-6.655996247995538
 20
-38.3362861512701
 11
-4.527799473904665
 21
-35.8
 97
        0
 75
     0
 76
     1
 98
        1
 10
0.0
 20
0.0
  0
HATCH
  5
EE
330
1F
100
AcDbEntity
  8
중심선
100
AcDbHatch
 10
0.0
 20
0.0
 30
0.0
210
0.0
220
0.0
230
1.0
  2
SOLID
 70
     1
 71
     0
 91
        1
 92
        0
 93
        4
 72
     1
 10
0.4849645171312866
 20
-35.8
 11
-2.961310726705996
 21
-35.8
 72
     1
 10
-2.961310726705996
 20
-35.8
 11
-7.492448735063384
 21
-41.20000000000002
 72
     1
 10
-7.492448735063384
 20
-41.20000000000002
 11
-4.046173491226101
 21
-41.20000000000002
 72
     1
 10
-4.046173491226101
 20
-41.20000000000002
 11
0.4849645171312869
 21
-35.8
 97
        0
 75
     0
 76
     1
 98
        1
 10
0.0
 20
0.0
  0
HATCH
  5
EF
330
1F
100
AcDbEntity
  8
중심선
100
AcDbHatch
 10
0.0
 20
0.0
 30
0.0
210
0.0
220
0.0
230
1.0
  2
SOLID
 70
     1
 71
     0
 91
        1
 92
        0
 93
        4
 72
     1
 10
5.497728508167183
 20
-35.80000000000003
 11
2.051453264330067
 21
-35.8
 72
     1
 10
2.051453264330067
 20
-35.8
 11
-4.996983637559183
 21
-44.20000000000002
 72
     1
 10
-4.996983637559183
 20
-44.20000000000002
 11
-1.5507083937219
 21
-44.20000000000002
 72
     1
 10
-1.5507083937219
 20
-44.20000000000002
 11
5.497728508167183
 21
-35.80000000000003
 97
        0
 75
     0
 76
     1
 98
        1
 10
0.0
 20
0.0
  0
HATCH
  5
F0
330
1F
100
AcDbEntity
  8
중심선
100
AcDbHatch
 10
0.0
 20
0.0
 30
0.0
210
0.0
220
0.0
230
1.0
  2
SOLID
 70
     1
 71
     0
 91
        1
 92
        0
 93
        6
 72
     3
 10
10.29761893917938
 20
-40.00000000005127
 11
3.960054785062284
 21
1.540850780301639E-10
 40
0.3939339440162633
 50
17.09539180608433
 51
320.0019657685081
 73
     0
 72
     1
 10
11.98061859487998
 20
-38.5878940046383
 11
14.28592046858101
 21
-36.65356729459038
 72
     3
 10
10.29761893912653
 20
-40.00000000000015
 11
6.600054785286829
 21
-1.249000902703301E-13
 40
0.6363583540795982
 50
39.99873849337408
 51
368.4976242363724
 73
     1
 72
     1
 10
16.72295143102714
 20
-39.03999999993002
 11
8.977686245962458
 21
-39.03999999992999
 72
     1
 10
8.977686245962458
 20
-39.03999999992999
 11
8.977661201516524
 21
-40.95999999992991
 72
     1
 10
8.977661201516524
 20
-40.95999999992991
 11
13.41904097098856
 21
-40.95999999992988
 97
        0
 75
     0
 76
     1
 98
        1
 10
0.0
 20
0.0
  0
LINE
  5
25D
330
1F
100
AcDbEntity
  8
0
  6
Continuous
 62
     4
370
    15
100
AcDbLine
 10
6.949228128440069
 20
9.52500000000002
 30
0.0
 11
-20.006925
 21
9.52500000000002
 31
0.0
  0
LINE
  5
25E
330
1F
100
AcDbEntity
  8
0
  6
Continuous
 62
     4
370
    15
100
AcDbLine
 10
-52.99999999999999
 20
-9.524999999999977
 30
0.0
 11
6.950421420952836
 21
-9.524999999999977
 31
0.0
  0
LINE
  5
25F
330
1F
100
AcDbEntity
  8
0
  6
Continuous
 62
     4
370
    15
100
AcDbLine
 10
-52.99999999999999
 20
9.525000000000006
 30
0.0
 11
-53.49999999999999
 21
9.025000000000006
 31
0.0
  0
LINE
  5
260
330
1F
100
AcDbEntity
  8
0
  6
Continuous
 62
     4
370
    15
100
AcDbLine
 10
-53.49999999999999
 20
-9.024999999999977
 30
0.0
 11
-52.99999999999999
 21
-9.524999999999977
 31
0.0
  0
LINE
  5
261
330
1F
100
AcDbEntity
  8
0
  6
Continuous
 62
     1
370
    15
100
AcDbLine
 10
6.950275131095765
 20
-9.525365448042166
 30
0.0
 11
6.950275079015427
 21
-9.524953985438572
 31
0.0
  0
LINE
  5
262
330
1F
100
AcDbEntity
  8
0
  6
Continuous
 62
     1
370
    15
100
AcDbLine
 10
6.950275079015427
 20
9.52495398544535
 30
0.0
 11
6.950275131095751
 21
9.52536544804245
 31
0.0
  0
LINE
  5
263
330
1F
100
AcDbEntity
  8
0
  6
Continuous
 62
     1
370
    15
100
AcDbLine
 10
72.10360963342197
 20
-9.524999999999977
 30
0.0
 11
75.35996420012358
 21
-9.524999999999977
 31
0.0
  0
LINE
  5
264
330
1F
100
AcDbEntity
  8
0
  6
Continuous
 62
     1
370
    15
100
AcDbLine
 10
12.25535089107296
 20
-9.524999999999977
 30
0.0
 11
15.51304749745586
 21
-9.524999999999977
 31
0.0
  0
LINE
  5
265
330
1F
100
AcDbEntity
  8
0
  6
Continuous
 62
     1
370
    15
100
AcDbLine
 10
45.43655516526113
 20
9.52500000000002
 30
0.0
 11
42.17919790973289
 21
9.52500000000002
 31
0.0
  0
LINE
  5
266
330
1F
100
AcDbEntity
  8
0
  6
Continuous
 62
     1
370
    15
100
AcDbLine
 10
42.17919790973298
 20
-9.524999999999977
 30
0.0
 11
45.43655516526111
 21
-9.524999999999977
 31
0.0
  0
LINE
  5
267
330
1F
100
AcDbEntity
  8
0
  6
Continuous
 62
     1
370
    15
100
AcDbLine
 10
15.51304749745587
 20
9.52500000000002
 30
0.0
 11
12.25535089107305
 21
9.52500000000002
 31
0.0
  0
LINE
  5
268
330
1F
100
AcDbEntity
  8
0
  6
Continuous
 62
     1
370
    15
100
AcDbLine
 10
75.35996420012356
 20
9.52500000000002
 30
0.0
 11
72.10360963342205
 21
9.52500000000002
 31
0.0
  0
LINE
  5
269
330
1F
100
AcDbEntity
  8
0
  6
Continuous
 62
     1
370
    15
100
AcDbLine
 10
82.07816585521425
 20
-9.524999999999977
 30
0.0
 11
84.67599999999999
 21
-9.524999999999977
 31
0.0
  0
LINE
  5
26A
330
1F
100
AcDbEntity
  8
0
  6
Continuous
 62
     1
370
    15
100
AcDbLine
 10
22.23103045086238
 20
-9.524999999999977
 30
0.0
 11
25.48646514904652
 21
-9.524999999999977
 31
0.0
  0
LINE
  5
26B
330
1F
100
AcDbEntity
  8
0
  6
Continuous
 62
     1
370
    15
100
AcDbLine
 10
55.41004950403021
 20
9.52500000000002
 30
0.0
 11
52.15476788535665
 21
9.52500000000002
 31
0.0
  0
LINE
  5
26C
330
1F
100
AcDbEntity
  8
0
  6
Continuous
 62
     1
370
    15
100
AcDbLine
 10
62.12820047452794
 20
-9.524999999999977
 30
0.0
 11
65.38586621096835
 21
-9.524999999999977
 31
0.0
  0
LINE
  5
26D
330
1F
100
AcDbEntity
  8
0
  6
Continuous
 62
     1
370
    15
100
AcDbLine
 10
35.46143891996167
 20
9.52500000000002
 30
0.0
 11
32.20471020684406
 21
9.52500000000002
 31
0.0
  0
LINE
  5
26E
330
1F
100
AcDbEntity
  8
0
  6
Continuous
 62
     1
370
    15
100
AcDbLine
 10
32.20471020684414
 20
-9.524999999999977
 30
0.0
 11
35.46143891996175
 21
-9.524999999999977
 31
0.0
  0
LINE
  5
26F
330
1F
100
AcDbEntity
  8
0
  6
Continuous
 62
     1
370
    15
100
AcDbLine
 10
65.3858662109684
 20
9.52500000000002
 30
0.0
 11
62.128200474528
 21
9.52500000000002
 31
0.0
  0
LINE
  5
270
330
1F
100
AcDbEntity
  8
0
  6
Continuous
 62
     1
370
    15
100
AcDbLine
 10
52.15476788535665
 20
-9.524999999999977
 30
0.0
 11
55.41004950403017
 21
-9.524999999999977
 31
0.0
  0
LINE
  5
271
330
1F
100
AcDbEntity
  8
0
  6
Continuous
 62
     1
370
    15
100
AcDbLine
 10
25.48646514904645
 20
9.52500000000002
 30
0.0
 11
22.23103045086239
 21
9.52500000000002
 31
0.0
  0
LINE
  5
272
330
1F
100
AcDbEntity
  8
0
  6
Continuous
 62
     1
370
    15
100
AcDbLine
 10
84.67599999999999
 20
9.52500000000002
 30
0.0
 11
82.0781658552142
 21
9.52500000000002
 31
0.0
  0
ARC
  5
273
330
1F
100
AcDbEntity
  8
0
  6
Continuous
 62
     1
370
    15
100
AcDbCircle
 10
84.67599999999999
 20
8.001000000000019
 30
0.0
 40
1.524000000000005
100
AcDbArc
 50
59.0382666326675
 51
90.0
  0
ARC
  5
274
330
1F
100
AcDbEntity
  8
0
  6
Continuous
 62
     1
370
    15
100
AcDbCircle
 10
84.67599999999999
 20
8.001000000000019
 30
0.0
 40
1.524000000000001
100
AcDbArc
 50
0.0
 51
20.21213501959126
  0
LINE
  5
275
330
1F
100
AcDbEntity
  8
0
  6
Continuous
 62
     1
370
    15
100
AcDbLine
 10
86.10659355066963
 20
-8.526336171210858
 30
0.0
 11
86.12517307284187
 21
-8.472670865063805
 31
0.0
  0
LINE
  5
276
330
1F
100
AcDbEntity
  8
0
  6
Continuous
 62
     1
370
    15
100
AcDbLine
 10
86.19937115732648
 20
-8.044775758425885
 30
0.0
 11
86.19999999999999
 21
-8.000999999999976
 31
0.0
  0
ARC
  5
277
330
1F
100
AcDbEntity
  8
0
  6
Continuous
 62
     1
370
    15
100
AcDbCircle
 10
84.67599999999999
 20
-8.000999999999976
 30
0.0
 40
1.524000000000001
100
AcDbArc
 50
270.0000000000021
 51
282.8135348884458
  0
LINE
  5
278
330
1F
100
AcDbEntity
  8
0
  6
Continuous
 62
     1
370
    15
100
AcDbLine
 10
85.38269552833137
 20
-9.351243470725336
 30
0.0
 11
85.4594694948791
 21
-9.308192239341196
 31
0.0
  0
SPLINE
  5
279
330
1F
100
AcDbEntity
  8
0
  6
Continuous
 62
     4
370
    15
100
AcDbSpline
210
0.0
220
0.0
230
1.0
 70
     8
 71
     3
 72
    11
 73
     7
 74
     0
 42
0.000000001
 43
0.00000001
 40
0.0
 40
0.0
 40
0.0
 40
0.0
 40
0.2615835083871452
 40
0.5182017864399648
 40
0.7734535223020791
 40
1.0
 40
1.0
 40
1.0
 40
1.0
 10
7.807343732128288
 20
9.24466519237862
 30
0.0
 10
7.9861858565977
 20
9.218183438830849
 30
0.0
 10
8.340475425394231
 20
9.165722593416206
 30
0.0
 10
8.960107042403365
 20
9.148326187926315
 30
0.0
 10
9.539865868491717
 20
9.183821789049631
 30
0.0
 10
9.852837512515634
 20
9.236874378800351
 30
0.0
 10
9.999999999999858
 20
9.261820252409905
 30
0.0
  0
SPLINE
  5
27A
330
1F
100
AcDbEntity
  8
0
  6
Continuous
 62
     4
370
    15
100
AcDbSpline
210
0.0
220
0.0
230
1.0
 70
     8
 71
     3
 72
    14
 73
    10
 74
     0
 42
0.000000001
 43
0.00000001
 40
0.0
 40
0.0
 40
0.0
 40
0.0
 40
0.25
 40
0.25
 40
0.5
 40
0.5
 40
0.75
 40
0.75
 40
1.0
 40
1.0
 40
1.0
 40
1.0
 10
7.582539934769542
 20
9.306273344373352
 30
0.0
 10
7.448920714006007
 20
9.334740826548568
 30
0.0
 10
7.339019290753853
 20
9.363971134836419
 30
0.0
 10
7.160804897091992
 20
9.418891459968691
 30
0.0
 10
7.094381500779079
 20
9.444138126073625
 30
0.0
 10
7.002609089296541
 20
9.48489166866932
 30
0.0
 10
6.97655992271666
 20
9.500720049270086
 30
0.0
 10
6.950424188098538
 20
9.521037683030954
 30
0.0
 10
6.950275078687156
 20
9.525746114652549
 30
0.0
 10
6.950275078687156
 20
9.524903993715071
 30
0.0
  0
SPLINE
  5
27B
330
1F
100
AcDbEntity
  8
0
  6
Continuous
 62
     4
370
    15
100
AcDbSpline
210
0.0
220
0.0
230
1.0
 70
     8
 71
     3
 72
    10
 73
     6
 74
     0
 42
0.000000001
 43
0.00000001
 40
0.0
 40
0.0
 40
0.0
 40
0.0
 40
0.5
 40
0.5
 40
1.0
 40
1.0
 40
1.0
 40
1.0
 10
10.0
 20
8.49867824217381
 30
0.0
 10
9.596226948792776
 20
8.680720280204909
 30
0.0
 10
9.196557681007874
 20
8.83936842918908
 30
0.0
 10
8.39078925126708
 20
9.109348737431134
 30
0.0
 10
7.985451479444222
 20
9.220433319632363
 30
0.0
 10
7.582539934769528
 20
9.30627334437338
 30
0.0
  0
SPLINE
  5
27C
330
1F
100
AcDbEntity
  8
0
  6
Continuous
 62
     4
370
    15
100
AcDbSpline
210
0.0
220
0.0
230
1.0
 70
     8
 71
     3
 72
    24
 73
    20
 74
     0
 42
0.000000001
 43
0.00000001
 40
0.0
 40
0.0
 40
0.0
 40
0.0
 40
0.1249999999999998
 40
0.1249999999999998
 40
0.2499999999999998
 40
0.2499999999999998
 40
0.3749999999999999
 40
0.3749999999999999
 40
0.5
 40
0.5
 40
0.625
 40
0.625
 40
0.6875
 40
0.6875
 40
0.75
 40
0.75
 40
0.875
 40
0.875
 40
1.0
 40
1.0
 40
1.0
 40
1.0
 10
6.950275078687156
 20
4.799488234291971
 30
0.0
 10
6.950275078687156
 20
4.975596677982978
 30
0.0
 10
6.950694515013225
 20
5.148021489012351
 30
0.0
 10
6.984057489008109
 20
5.483236176994964
 30
0.0
 10
7.016748230467201
 20
5.647393396458625
 30
0.0
 10
7.13319320431485
 20
5.959098688434821
 30
0.0
 10
7.215002568317942
 20
6.103032466089445
 30
0.0
 10
7.437937731327978
 20
6.365430604680967
 30
0.0
 10
7.572851068381638
 20
6.476883870984096
 30
0.0
 10
7.8926704359166
 20
6.662514621969777
 30
0.0
 10
8.072846727558343
 20
6.733268283705996
 30
0.0
 10
8.362873703348427
 20
6.804336355101398
 30
0.0
 10
8.463408018866588
 20
6.822194343218541
 30
0.0
 10
8.66446720851711
 20
6.845329814518252
 30
0.0
 10
8.765960045847478
 20
6.850880379688448
 30
0.0
 10
9.073378589761518
 20
6.849308088087696
 30
0.0
 10
9.2765850593985
 20
6.823905759054014
 30
0.0
 10
9.661861980218816
 20
6.724903602029002
 30
0.0
 10
9.840970056780819
 20
6.652067619076917
 30
0.0
 10
9.999999999999858
 20
6.556587399020287
 30
0.0
  0
SPLINE
  5
27D
330
1F
100
AcDbEntity
  8
0
  6
Continuous
 62
     4
370
    15
100
AcDbSpline
210
0.0
220
0.0
230
1.0
 70
     8
 71
     3
 72
    14
 73
    10
 74
     0
 42
0.000000001
 43
0.00000001
 40
0.0
 40
0.0
 40
0.0
 40
0.0
 40
0.2500000000000006
 40
0.2500000000000006
 40
0.5000000000000011
 40
0.5000000000000011
 40
0.7500000000000006
 40
0.7500000000000006
 40
1.0
 40
1.0
 40
1.0
 40
1.0
 10
7.582539934769542
 20
2.895531460583527
 30
0.0
 10
7.448920714006007
 20
3.022813698910284
 30
0.0
 10
7.339019290753853
 20
3.1648963966244
 30
0.0
 10
7.160804897091992
 20
3.473367713970191
 30
0.0
 10
7.094381500779079
 20
3.638091187245237
 30
0.0
 10
7.002609089296541
 20
3.970151027489976
 30
0.0
 10
6.97655992271666
 20
4.139965580474581
 30
0.0
 10
6.950424188098538
 20
4.472901826820447
 30
0.0
 10
6.950275078687142
 20
4.63747808610708
 30
0.0
 10
6.950275078687142
 20
4.799488234291474
 30
0.0
  0
SPLINE
  5
27E
330
1F
100
AcDbEntity
  8
0
  6
Continuous
 62
     4
370
    15
100
AcDbSpline
210
0.0
220
0.0
230
1.0
 70
     8
 71
     3
 72
    10
 73
     6
 74
     0
 42
0.000000001
 43
0.00000001
 40
0.0
 40
0.0
 40
0.0
 40
0.0
 40
0.5
 40
0.5
 40
1.0
 40
1.0
 40
1.0
 40
1.0
 10
10.0
 20
0.5246149900938946
 30
0.0
 10
9.596226948792776
 20
0.9271590884099794
 30
0.0
 10
9.196557681007874
 20
1.32693215495209
 30
0.0
 10
8.39078925126708
 20
2.119358135137801
 30
0.0
 10
7.985451479444222
 20
2.511728269988268
 30
0.0
 10
7.582539934769528
 20
2.895531460583527
 30
0.0
  0
SPLINE
  5
27F
330
1F
100
AcDbEntity
  8
0
  6
Continuous
 62
     4
370
    15
100
AcDbSpline
210
0.0
220
0.0
230
1.0
 70
     8
 71
     3
 72
    24
 73
    20
 74
     0
 42
0.000000001
 43
0.00000001
 40
0.0
 40
0.0
 40
0.0
 40
0.0
 40
0.125
 40
0.125
 40
0.25
 40
0.25
 40
0.375
 40
0.375
 40
0.5
 40
0.5
 40
0.625
 40
0.625
 40
0.6875
 40
0.6875
 40
0.75
 40
0.75
 40
0.875
 40
0.875
 40
1.0
 40
1.0
 40
1.0
 40
1.0
 10
6.950275078687156
 20
-4.725415759424223
 30
0.0
 10
6.950275078687156
 20
-4.548391912535592
 30
0.0
 10
6.950694515013225
 20
-4.368483321104407
 30
0.0
 10
6.984057489008109
 20
-4.005633838028473
 30
0.0
 10
7.016748230467201
 20
-3.821105908734395
 30
0.0
 10
7.133193204314836
 20
-3.457845154522417
 30
0.0
 10
7.215002568317942
 20
-3.283430475735841
 30
0.0
 10
7.437937731327978
 20
-2.955507052498035
 30
0.0
 10
7.572851068381638
 20
-2.810857535937316
 30
0.0
 10
7.8926704359166
 20
-2.564903879800639
 30
0.0
 10
8.072846727558343
 20
-2.468171403871509
 30
0.0
 10
8.362873703348427
 20
-2.370251346393133
 30
0.0
 10
8.463408018866588
 20
-2.345435971188252
 30
0.0
 10
8.66446720851711
 20
-2.31323261313463
 30
0.0
 10
8.765960045847478
 20
-2.305467041488043
 30
0.0
 10
9.073378589761518
 20
-2.307662633599122
 30
0.0
 10
9.2765850593985
 20
-2.343363824082459
 30
0.0
 10
9.661861980218816
 20
-2.479610452397978
 30
0.0
 10
9.840970056780819
 20
-2.579024251309235
 30
0.0
 10
9.999999999999858
 20
-2.70523285338956
 30
0.0
  0
SPLINE
  5
280
330
1F
100
AcDbEntity
  8
0
  6
Continuous
 62
     4
370
    15
100
AcDbSpline
210
0.0
220
0.0
230
1.0
 70
     8
 71
     3
 72
    14
 73
    10
 74
     0
 42
0.000000001
 43
0.00000001
 40
0.0
 40
0.0
 40
0.0
 40
0.0
 40
0.25
 40
0.25
 40
0.5
 40
0.5
 40
0.75
 40
0.75
 40
1.0
 40
1.0
 40
1.0
 40
1.0
 10
7.582539934769542
 20
-6.410741883789768
 30
0.0
 10
7.448920714006022
 20
-6.311927127638199
 30
0.0
 10
7.339019290753853
 20
-6.199074738211948
 30
0.0
 10
7.160804897091992
 20
-5.945523745998443
 30
0.0
 10
7.094381500779079
 20
-5.806046938828331
 30
0.0
 10
7.002609089296541
 20
-5.514740641179287
 30
0.0
 10
6.97655992271666
 20
-5.360754468795434
 30
0.0
 10
6.950424188098538
 20
-5.04813585621045
 30
0.0
 10
6.950275078687156
 20
-4.888268028545397
 30
0.0
 10
6.950275078687156
 20
-4.725415759423541
 30
0.0
  0
SPLINE
  5
281
330
1F
100
AcDbEntity
  8
0
  6
Continuous
 62
     4
370
    15
100
AcDbSpline
210
0.0
220
0.0
230
1.0
 70
     8
 71
     3
 72
    10
 73
     6
 74
     0
 42
0.000000001
 43
0.00000001
 40
0.0
 40
0.0
 40
0.0
 40
0.0
 40
0.5
 40
0.5
 40
1.0
 40
1.0
 40
1.0
 40
1.0
 10
10.0
 20
-7.974063252079858
 30
0.0
 10
9.596226948792776
 20
-7.753561191794873
 30
0.0
 10
9.196557681007874
 20
-7.512436274236933
 30
0.0
 10
8.39078925126708
 20
-6.989990602293275
 30
0.0
 10
7.985451479444222
 20
-6.708705049644038
 30
0.0
 10
7.582539934769528
 20
-6.410741883789797
 30
0.0
  0
SPLINE
  5
282
330
1F
100
AcDbEntity
  8
0
  6
Continuous
 62
     4
370
    15
100
AcDbSpline
210
0.0
220
0.0
230
1.0
 70
     8
 71
     3
 72
    24
 73
    20
 74
     0
 42
0.000000001
 43
0.00000001
 40
0.0
 40
0.0
 40
0.0
 40
0.0
 40
0.125
 40
0.125
 40
0.2499999999999999
 40
0.2499999999999999
 40
0.375
 40
0.375
 40
0.5000000000000001
 40
0.5000000000000001
 40
0.6250000000000001
 40
0.6250000000000001
 40
0.6875000000000001
 40
0.6875000000000001
 40
0.75
 40
0.75
 40
0.875
 40
0.875
 40
1.0
 40
1.0
 40
1.0
 40
1.0
 10
6.950275078687156
 20
-9.524903993716208
 30
0.0
 10
6.950275078687156
 20
-9.523988590518584
 30
0.0
 10
6.950694515013225
 20
-9.516504810116786
 30
0.0
 10
6.984057489008109
 20
-9.488870015023465
 30
0.0
 10
7.016748230467201
 20
-9.468499305193035
 30
0.0
 10
7.133193204314836
 20
-9.416943842957266
 30
0.0
 10
7.215002568317928
 20
-9.386462941825329
 30
0.0
 10
7.437937731327978
 20
-9.32093765717903
 30
0.0
 10
7.572851068381638
 20
-9.287741406921455
 30
0.0
 10
7.8926704359166
 20
-9.227418501770444
 30
0.0
 10
8.072846727558343
 20
-9.201439687577519
 30
0.0
 10
8.362873703348427
 20
-9.174587701494573
 30
0.0
 10
8.463408018866588
 20
-9.167630314406836
 30
0.0
 10
8.66446720851711
 20
-9.158562427652924
 30
0.0
 10
8.765960045847478
 20
-9.156347421176534
 30
0.0
 10
9.073378589761518
 20
-9.15697072168686
 30
0.0
 10
9.2765850593985
 20
-9.167269583136502
 30
0.0
 10
9.661861980218816
 20
-9.204514054427008
 30
0.0
 10
9.840970056780819
 20
-9.231091870386194
 30
0.0
 10
9.999999999999858
 20
-9.261820252409876
 30
0.0
  0
LINE
  5
283
330
1F
100
AcDbEntity
  8
0
  6
Continuous
 62
     4
370
    15
100
AcDbLine
 10
7.807343732128061
 20
-9.244665192378633
 30
0.0
 11
7.582539934769528
 21
-9.306273344373324
 31
0.0
  0
LINE
  5
284
330
1F
100
AcDbEntity
  8
0
  6
Continuous
 62
     4
370
    15
100
AcDbLine
 10
-52.99999999999999
 20
9.525000000000006
 30
0.0
 11
-52.99999999999999
 21
-9.524999999999991
 31
0.0
  0
LINE
  5
285
330
1F
100
AcDbEntity
  8
0
  6
Continuous
 62
     1
370
    15
100
AcDbLine
 10
10.0
 20
-7.974063252079844
 30
0.0
 11
9.999999999999986
 21
-9.261820252409805
 31
0.0
  0
LINE
  5
286
330
1F
100
AcDbEntity
  8
0
  6
Continuous
 62
     1
370
    15
100
AcDbLine
 10
10.0
 20
0.5246149900938946
 30
0.0
 11
9.999999999999986
 21
-2.705232853389248
 31
0.0
  0
LINE
  5
287
330
1F
100
AcDbEntity
  8
0
  6
Continuous
 62
     1
370
    15
100
AcDbLine
 10
10.0
 20
8.49867824217381
 30
0.0
 11
9.999999999999986
 21
6.556587399020529
 31
0.0
  0
LINE
  5
288
330
1F
100
AcDbEntity
  8
0
  6
Continuous
 62
     4
370
    15
100
AcDbLine
 10
-53.49999999999999
 20
9.025000000000006
 30
0.0
 11
-53.49999999999999
 21
-9.024999999999977
 31
0.0
  0
SPLINE
  5
289
330
1F
100
AcDbEntity
  8
0
  6
Continuous
 62
     1
370
    15
100
AcDbSpline
210
0.0
220
0.0
230
1.0
 70
    24
 71
     3
 72
    16
 73
    12
 74
     0
 42
0.000000001
 43
0.00000001
 40
0.0
 40
0.0
 40
0.0
 40
0.0
 40
0.2500000000000003
 40
0.2500000000000003
 40
0.5000000000000006
 40
0.5000000000000006
 40
0.7500000000000007
 40
0.7500000000000007
 40
0.8750000000000003
 40
0.8750000000000003
 40
1.0
 40
1.0
 40
1.0
 40
1.0
 10
10.0
 20
5.902843729431481
 30
0.0
 10
10.0
 20
5.525303461207542
 30
0.0
 10
10.0
 20
5.097508435215744
 30
0.0
 10
10.0
 20
4.157522360266128
 30
0.0
 10
10.0
 20
3.644368822044143
 30
0.0
 10
10.0
 20
2.60760725830157
 30
0.0
 10
10.0
 20
2.085083121140556
 30
0.0
 10
10.0
 20
1.399172833738334
 30
0.0
 10
10.0
 20
1.187263627020528
 30
0.0
 10
10.0
 20
0.8143980198596097
 30
0.0
 10
10.0
 20
0.6535698983207112
 30
0.0
 10
10.0
 20
0.5246149900938946
 30
0.0
  0
SPLINE
  5
28B
330
1F
100
AcDbEntity
  8
0
  6
Continuous
 62
     1
370
    15
100
AcDbSpline
210
0.0
220
0.0
230
1.0
 70
    24
 71
     3
 72
     8
 73
     4
 74
     0
 42
0.000000001
 43
0.00000001
 40
0.0
 40
0.0
 40
0.0
 40
0.0
 40
1.0
 40
1.0
 40
1.0
 40
1.0
 10
9.999999999999986
 20
-2.705232853389276
 30
0.0
 10
9.999999999999986
 20
-2.737977879516578
 30
0.0
 10
9.999999999999986
 20
-2.788518216333301
 30
0.0
 10
9.999999999999986
 20
-2.859084326260515
 30
0.0
  0
SPLINE
  5
28C
330
1F
100
AcDbEntity
  8
0
  6
Continuous
 62
     1
370
    15
100
AcDbSpline
210
0.0
220
0.0
230
1.0
 70
    24
 71
     3
 72
     8
 73
     4
 74
     0
 42
0.000000001
 43
0.00000001
 40
0.0
 40
0.0
 40
0.0
 40
0.0
 40
1.0
 40
1.0
 40
1.0
 40
1.0
 10
9.999999999999986
 20
6.5565873990206
 30
0.0
 10
9.999999999999986
 20
6.344233677866256
 30
0.0
 10
9.999999999999986
 20
6.126542135331377
 30
0.0
 10
9.999999999999986
 20
5.90284372943114
 30
0.0
  0
SPLINE
  5
28D
330
1F
100
AcDbEntity
  8
0
  6
Continuous
 62
     1
370
    15
100
AcDbSpline
210
0.0
220
0.0
230
1.0
 70
    24
 71
     3
 72
    16
 73
    12
 74
     0
 42
0.000000001
 43
0.00000001
 40
0.0
 40
0.0
 40
0.0
 40
0.0
 40
0.25
 40
0.25
 40
0.5
 40
0.5
 40
0.75
 40
0.75
 40
0.875
 40
0.875
 40
1.0
 40
1.0
 40
1.0
 40
1.0
 10
10.0
 20
-2.859084326260415
 30
0.0
 10
10.0
 20
-2.978180159608485
 30
0.0
 10
10.0
 20
-3.154246405353007
 30
0.0
 10
10.0
 20
-3.672653025539148
 30
0.0
 10
10.0
 20
-4.016741244345127
 30
0.0
 10
10.0
 20
-4.897929303248873
 30
0.0
 10
10.0
 20
-5.436781628447932
 30
0.0
 10
10.0
 20
-6.344796714628657
 30
0.0
 10
10.0
 20
-6.66318225711683
 30
0.0
 10
10.0
 20
-7.313749181275327
 30
0.0
 10
10.0
 20
-7.645804666496304
 30
0.0
 10
10.0
 20
-7.974063252079844
 30
0.0
  0
LINE
  5
28E
330
1F
100
AcDbEntity
  8
0
  6
Continuous
 62
     4
370
    15
100
AcDbLine
 10
10.0
 20
8.761928055691982
 30
0.0
 11
10.0
 21
8.595898853719419
 31
0.0
  0
SPLINE
  5
28F
330
1F
100
AcDbEntity
  8
0
  6
Continuous
 62
     1
370
    15
100
AcDbSpline
210
0.0
220
0.0
230
1.0
 70
    24
 71
     3
 72
     8
 73
     4
 74
     0
 42
0.000000001
 43
0.00000001
 40
0.0
 40
0.0
 40
0.0
 40
0.0
 40
1.0
 40
1.0
 40
1.0
 40
1.0
 10
9.999999999999986
 20
9.261820252409933
 30
0.0
 10
9.999999999999986
 20
9.082211557382891
 30
0.0
 10
9.999999999999986
 20
8.91506035166475
 30
0.0
 10
9.999999999999986
 20
8.76192805569174
 30
0.0
  0
SPLINE
  5
290
330
1F
100
AcDbEntity
  8
0
  6
Continuous
 62
     1
370
    15
100
AcDbSpline
210
0.0
220
0.0
230
1.0
 70
     8
 71
     3
 72
     9
 73
     5
 74
     0
 42
0.000000001
 43
0.00000001
 40
0.0
 40
0.0
 40
0.0
 40
0.0
 40
0.759789421152975
 40
1.0
 40
1.0
 40
1.0
 40
1.0
 10
9.999999999997414
 20
-9.259187191221713
 30
0.0
 10
10.57105722982526
 20
-9.381530394655485
 30
0.0
 10
11.32265657291859
 20
-9.542552909615111
 30
0.0
 10
12.07470169659547
 20
-9.501543691970767
 30
0.0
 10
12.25535089107296
 20
-9.491692844062356
 30
0.0
  0
SPLINE
  5
291
330
1F
100
AcDbEntity
  8
0
  6
Continuous
 62
     1
370
    15
100
AcDbSpline
210
0.0
220
0.0
230
1.0
 70
     8
 71
     3
 72
    28
 73
    24
 74
     0
 42
0.000000001
 43
0.00000001
 40
0.0
 40
0.0
 40
0.0
 40
0.0
 40
0.0345043058619902
 40
0.084105022308561
 40
0.1337540229395418
 40
0.183366743474617
 40
0.2329478145006792
 40
0.2825354325397543
 40
0.3321677211236896
 40
0.3818033311980877
 40
0.4313923435223121
 40
0.4809728090823713
 40
0.5305829311528459
 40
0.5802326432149302
 40
0.6298355403404153
 40
0.6794148117971831
 40
0.72900867417845
 40
0.7786523505862597
 40
0.8282750518819735
 40
0.8778590896901154
 40
0.927442627451188
 40
0.9770638341808433
 40
1.0
 40
1.0
 40
1.0
 40
1.0
 10
38.82167497242096
 20
8.910472229675761
 30
0.0
 10
39.2043466758484
 20
9.041511368748502
 30
0.0
 10
40.1371175677583
 20
9.360922220225675
 30
0.0
 10
41.62068733650858
 20
9.550199877915617
 30
0.0
 10
43.27327059115355
 20
9.511579303597614
 30
0.0
 10
44.92450096314684
 20
9.177945443502097
 30
0.0
 10
46.5745375915419
 20
8.571875689585
 30
0.0
 10
48.2248126259644
 20
7.708070961225403
 30
0.0
 10
49.87677578258851
 20
6.613693797874646
 30
0.0
 10
51.52886219500371
 20
5.321184090112808
 30
0.0
 10
53.17919061866328
 20
3.86870247446042
 30
0.0
 10
54.82920778560867
 20
2.300475812220526
 30
0.0
 10
56.48033960367299
 20
0.6630700182508775
 30
0.0
 10
58.13294966408978
 20
-0.9932483833065504
 30
0.0
 10
59.78380729521621
 20
-2.620836799638425
 30
0.0
 10
61.43378633404927
 20
-4.169545248972781
 30
0.0
 10
63.08430009161873
 20
-5.59350230902507
 30
0.0
 10
64.73668607330484
 20
-6.849411850033547
 30
0.0
 10
66.38829093638617
 20
-7.899346859878875
 30
0.0
 10
68.03843522900979
 20
-8.7168336134946
 30
0.0
 10
69.688545013245
 20
-9.25708629316324
 30
0.0
 10
71.0437913490635
 20
-9.521562491250336
 30
0.0
 10
71.84905662047828
 20
-9.497147041274587
 30
0.0
 10
72.103609633422
 20
-9.489429054948431
 30
0.0
  0
LINE
  5
292
330
1F
100
AcDbEntity
  8
0
  6
Continuous
 62
     1
370
    15
100
AcDbLine
 10
10.0
 20
-9.259187191231291
 30
0.0
 11
10.0
 21
-7.974063252079844
 31
0.0
  0
SPLINE
  5
293
330
1F
100
AcDbEntity
  8
0
  6
Continuous
 62
     1
370
    15
100
AcDbSpline
210
0.0
220
0.0
230
1.0
 70
     8
 71
     3
 72
    28
 73
    24
 74
     0
 42
0.000000001
 43
0.00000001
 40
0.0
 40
0.0
 40
0.0
 40
0.0
 40
0.0224367826571432
 40
0.0728103041982727
 40
0.1223924418034607
 40
0.1719901704914142
 40
0.221637845017689
 40
0.2712620257031178
 40
0.3208485351623429
 40
0.3704355446986069
 40
0.4200612200396677
 40
0.4697078717499291
 40
0.5193047064481356
 40
0.568886949347363
 40
0.6184928193312688
 40
0.6681455070575407
 40
0.7177586024194501
 40
0.7673420394935351
 40
0.8169340238440204
 40
0.8665726087374291
 40
0.916207871941308
 40
0.9657984619230793
 40
1.0
 40
1.0
 40
1.0
 40
1.0
 10
78.71617333358898
 20
-8.90564056509703
 30
0.0
 10
78.46715921158889
 20
-8.999235961789807
 30
0.0
 10
77.65907570650054
 20
-9.302965306985811
 30
0.0
 10
76.30157410578403
 20
-9.517025612200158
 30
0.0
 10
74.64307748976063
 20
-9.548267464906473
 30
0.0
 10
72.99252842676435
 20
-9.277591574290781
 30
0.0
 10
71.34010503031877
 20
-8.733259578937691
 30
0.0
 10
69.68855513606297
 20
-7.925908046535483
 30
0.0
 10
68.0384325175209
 20
-6.881213700536037
 30
0.0
 10
66.38829166355617
 20
-5.630173739458456
 30
0.0
 10
64.73668587828496
 20
-4.210486211811627
 30
0.0
 10
63.08430014387295
 20
-2.665138068578386
 30
0.0
 10
61.43378631988182
 20
-1.039065749139596
 30
0.0
 10
59.78380729967338
 20
0.6178013653672991
 30
0.0
 10
58.13294966043009
 20
2.256490173855994
 30
0.0
 10
56.4803396138559
 20
3.826562951579177
 30
0.0
 10
54.82920774858148
 20
5.282805420121974
 30
0.0
 10
53.17919075652242
 20
6.580696919782469
 30
0.0
 10
51.52886168025903
 20
7.680744470201347
 30
0.0
 10
49.876777705571
 20
8.553075442773917
 30
0.0
 10
48.22480545279181
 20
9.15855252320452
 30
0.0
 10
46.7451500419443
 20
9.491011108862551
 30
0.0
 10
45.81586330075632
 20
9.493434257730016
 30
0.0
 10
45.43655516526111
 20
9.494423317444529
 30
0.0
  0
SPLINE
  5
294
330
1F
100
AcDbEntity
  8
0
  6
Continuous
 62
     1
370
    15
100
AcDbSpline
210
0.0
220
0.0
230
1.0
 70
     8
 71
     3
 72
    13
 73
     9
 74
     0
 42
0.000000001
 43
0.00000001
 40
0.0
 40
0.0
 40
0.0
 40
0.0
 40
0.0412609795864989
 40
0.2272624310956661
 40
0.4203553351293434
 40
0.6135699995637389
 40
0.8068614270534705
 40
1.0
 40
1.0
 40
1.0
 40
1.0
 10
18.87186553904947
 20
-8.915701955307043
 30
0.0
 10
18.74984426418095
 20
-8.964862164005154
 30
0.0
 10
18.07776008561996
 20
-9.235632966198096
 30
0.0
 10
16.83529731390216
 20
-9.467861023308387
 30
0.0
 10
15.14305232206431
 20
-9.57405167884987
 30
0.0
 10
13.42877986851474
 20
-9.343947915950565
 30
0.0
 10
11.71368300588132
 20
-8.83714000859591
 30
0.0
 10
10.57107701390157
 20
-8.261679628730306
 30
0.0
 10
10.0
 20
-7.974063252079858
 30
0.0
  0
SPLINE
  5
295
330
1F
100
AcDbEntity
  8
0
  6
Continuous
 62
     1
370
    15
100
AcDbSpline
210
0.0
220
0.0
230
1.0
 70
     8
 71
     3
 72
    27
 73
    23
 74
     0
 42
0.000000001
 43
0.00000001
 40
0.0
 40
0.0
 40
0.0
 40
0.0
 40
0.0532476381556225
 40
0.1065374177813956
 40
0.1598060340976758
 40
0.2130410814916004
 40
0.2643210398928603
 40
0.3156306405003032
 40
0.3669827226584843
 40
0.4182873222166392
 40
0.4695664540691122
 40
0.5208596434706969
 40
0.5722041031037093
 40
0.623529590263046
 40
0.674814060126734
 40
0.7260969784238762
 40
0.7774178281823364
 40
0.8287654612588314
 40
0.8800614244022171
 40
0.9313402295636086
 40
0.9826414056418331
 40
1.0
 40
1.0
 40
1.0
 40
1.0
 10
9.999999999997414
 20
9.259187191221741
 30
0.0
 10
10.57107727485005
 20
9.364268197882865
 30
0.0
 10
11.71368378893845
 20
9.5745133748582
 30
0.0
 10
13.42877673390382
 20
9.500519529115579
 30
0.0
 10
15.14306406820124
 20
9.141309632997547
 30
0.0
 10
16.83525417204203
 20
8.489227872643568
 30
0.0
 10
18.5060481493115
 20
7.584511051729237
 30
0.0
 10
20.15715144747099
 20
6.46317747682086
 30
0.0
 10
21.80976465378718
 20
5.149016191188707
 30
0.0
 10
23.46066656049814
 20
3.679661387563129
 30
0.0
 10
25.11064941225632
 20
2.100311166456649
 30
0.0
 10
26.76113021547934
 20
0.457662489640299
 30
0.0
 10
28.41347467820877
 20
-1.197853919608505
 30
0.0
 10
30.06513734183908
 20
-2.817955283627441
 30
0.0
 10
31.7152975015233
 20
-4.35378412519006
 30
0.0
 10
33.36540315895158
 20
-5.758973525300078
 30
0.0
 10
35.01689753806579
 20
-6.991874611188308
 30
0.0
 10
36.66935723111249
 20
-8.013419803349862
 30
0.0
 10
38.31993539349855
 20
-8.80061774442413
 30
0.0
 10
39.96992650876892
 20
-9.304152513574081
 30
0.0
 10
41.25610923598538
 20
-9.536533293185343
 30
0.0
 10
41.9929176673397
 20
-9.501768854873902
 30
0.0
 10
42.17919790973298
 20
-9.492979693784335
 30
0.0
  0
SPLINE
  5
296
330
1F
100
AcDbEntity
  8
0
  6
Continuous
 62
     1
370
    15
100
AcDbSpline
210
0.0
220
0.0
230
1.0
 70
     8
 71
     3
 72
    17
 73
    13
 74
     0
 42
0.000000001
 43
0.00000001
 40
0.0
 40
0.0
 40
0.0
 40
0.0
 40
0.0603885604337812
 40
0.1660340094439203
 40
0.2717294747431137
 40
0.3773186098129147
 40
0.4828745528598632
 40
0.586292129138035
 40
0.6898130831363065
 40
0.7932305691063198
 40
0.8965929443099285
 40
1.0
 40
1.0
 40
1.0
 40
1.0
 10
68.74448112570423
 20
8.90600890954832
 30
0.0
 10
69.05905732443824
 20
9.019082907953234
 30
0.0
 10
69.9239619881073
 20
9.329971744914474
 30
0.0
 10
71.3401147354
 20
9.53437826087901
 30
0.0
 10
72.9925268599068
 20
9.533353567816022
 30
0.0
 10
74.64307406594008
 20
9.234128629813725
 30
0.0
 10
76.28167413532972
 20
8.66548087885944
 30
0.0
 10
77.9096595164275
 20
7.846264203820709
 30
0.0
 10
79.52804877698472
 20
6.808652365464511
 30
0.0
 10
81.14466065114135
 20
5.573063113553587
 30
0.0
 10
82.76024575083017
 20
4.182820503909767
 30
0.0
 10
83.83761074252936
 20
3.162735866083466
 30
0.0
 10
84.3764096414462
 20
2.652583332914617
 30
0.0
  0
SPLINE
  5
297
330
1F
100
AcDbEntity
  8
0
  6
Continuous
 62
     1
370
    15
100
AcDbSpline
210
0.0
220
0.0
230
1.0
 70
     8
 71
     3
 72
    13
 73
     9
 74
     0
 42
0.000000001
 43
0.00000001
 40
0.0
 40
0.0
 40
0.0
 40
0.0
 40
0.1798866259858812
 40
0.3597749110597497
 40
0.5397807741848206
 40
0.7198901114699747
 40
0.8998364882087753
 40
1.0
 40
1.0
 40
1.0
 40
1.0
 10
84.67600000000161
 20
5.320439185899616
 30
0.0
 10
84.1174902935791
 20
5.768055785927118
 30
0.0
 10
83.00046572961884
 20
6.663293114334166
 30
0.0
 10
81.32470956173893
 20
7.755681670334184
 30
0.0
 10
79.64762179912248
 20
8.62376707008832
 30
0.0
 10
77.96947541424203
 20
9.208296981806399
 30
0.0
 10
76.54050273598736
 20
9.50823497336279
 30
0.0
 10
75.67091649249295
 20
9.494717502822681
 30
0.0
 10
75.35996420012356
 20
9.489883837981594
 30
0.0
  0
SPLINE
  5
298
330
1F
100
AcDbEntity
  8
0
  6
Continuous
 62
     1
370
    15
100
AcDbSpline
210
0.0
220
0.0
230
1.0
 70
     8
 71
     3
 72
    28
 73
    24
 74
     0
 42
0.000000001
 43
0.00000001
 40
0.0
 40
0.0
 40
0.0
 40
0.0
 40
0.0171492186056015
 40
0.0667352796919363
 40
0.1163147939708214
 40
0.1659259567649882
 40
0.2155733985159378
 40
0.2651725575985045
 40
0.3147500879632205
 40
0.3643442070602727
 40
0.4139882818392016
 40
0.4636064618891293
 40
0.5131879689282616
 40
0.5627709760576803
 40
0.6123936396536274
 40
0.6620346462742761
 40
0.7116260836538428
 40
0.7612039298710237
 40
0.8108063988528692
 40
0.8604547751064847
 40
0.910062079218013
 40
0.9596407245616068
 40
1.0
 40
1.0
 40
1.0
 40
1.0
 10
48.79541312409583
 20
-8.90848739250805
 30
0.0
 10
48.60509656249641
 20
-8.98237110444947
 30
0.0
 10
47.86448970101537
 20
-9.269885672575484
 30
0.0
 10
46.57456569686282
 20
-9.493204261907522
 30
0.0
 10
44.92449341221106
 20
-9.561988982213663
 30
0.0
 10
43.27327267411079
 20
-9.325979527958907
 30
0.0
 10
41.62068656437521
 20
-8.815608261505616
 30
0.0
 10
39.96991246533688
 20
-8.039360761362843
 30
0.0
 10
38.3199391570104
 20
-7.022656875103209
 30
0.0
 10
36.66935622139397
 20
-5.795085265856187
 30
0.0
 10
35.01689780856736
 20
-4.394627912517137
 30
0.0
 10
33.36540308660736
 20
-2.86190229754267
 30
0.0
 10
31.71529752067585
 20
-1.243352072593069
 30
0.0
 10
30.06513733754667
 20
0.4125104051651789
 30
0.0
 10
28.41347467620611
 20
2.05582372724443
 30
0.0
 10
26.76113022778543
 20
3.637083332171471
 30
0.0
 10
25.11064936509459
 20
5.11008043049398
 30
0.0
 10
23.46066673684346
 20
6.429776054303346
 30
0.0
 10
21.80976399493562
 20
7.556315643274232
 30
0.0
 10
20.15715390799775
 20
8.458216904181995
 30
0.0
 10
18.50603897748341
 20
9.098106857896937
 30
0.0
 10
16.95849346223795
 20
9.474017016311507
 30
0.0
 10
15.96077126677845
 20
9.491227068447074
 30
0.0
 10
15.51304749745586
 20
9.498950009208983
 30
0.0
  0
LINE
  5
299
330
1F
100
AcDbEntity
  8
0
  6
Continuous
 62
     1
370
    15
100
AcDbLine
 10
84.67599999999999
 20
2.858820782322027
 30
0.0
 11
84.67599999999999
 21
5.320439185900952
 31
0.0
  0
ELLIPSE
  5
29A
330
1F
100
AcDbEntity
  8
0
  6
Continuous
 62
     1
370
    15
100
AcDbEllipse
 10
87.62814800674212
 20
0.0000000000000284
 30
0.0
 11
13.41987174966148
 21
8.916837433236209
 31
0.0
210
0.0
220
0.0
230
1.0
 40
0.2495534463455924
 41
1.625236337942256
 42
1.647856510489278
  0
SPLINE
  5
29B
330
1F
100
AcDbEntity
  8
0
  6
Continuous
 62
     1
370
    15
100
AcDbSpline
210
0.0
220
0.0
230
1.0
 70
     8
 71
     3
 72
    28
 73
    24
 74
     0
 42
0.000000001
 43
0.00000001
 40
0.0
 40
0.0
 40
0.0
 40
0.0
 40
0.0212184843390215
 40
0.0708006295895965
 40
0.1204214368520087
 40
0.1700632184259243
 40
0.2196551878746331
 40
0.2692325669557592
 40
0.3188335708038421
 40
0.3684813878016596
 40
0.4180896163189656
 40
0.4676681894578056
 40
0.5172553090345926
 40
0.5668890245829779
 40
0.6165194187676776
 40
0.6661051441125326
 40
0.7156843226942655
 40
0.7652951495769917
 40
0.8149422551708602
 40
0.8645410784232621
 40
0.9141182731042587
 40
0.9637120564052712
 40
0.9999999999999999
 40
0.9999999999999999
 40
0.9999999999999999
 40
0.9999999999999999
 10
68.74448112570417
 20
-8.906008909548277
 30
0.0
 10
68.50913040719843
 20
-8.995048226143965
 30
0.0
 10
67.72382553912522
 20
-9.292149544620713
 30
0.0
 10
66.38830464810906
 20
-9.510041986502927
 30
0.0
 10
64.73668239619482
 20
-9.553228401589493
 30
0.0
 10
63.08430107598099
 20
-9.294392883895611
 30
0.0
 10
61.43378607049317
 20
-8.761042999789098
 30
0.0
 10
59.78380736586254
 20
-7.964070941185426
 30
0.0
 10
58.13294964513562
 20
-6.928461546269531
 30
0.0
 10
56.48033960875048
 20
-5.68587952025473
 30
0.0
 10
54.82920778424523
 20
-4.272183149787139
 30
0.0
 10
53.17919061904453
 20
-2.730606832014956
 30
0.0
 10
51.52886219484179
 20
-1.106946388340944
 30
0.0
 10
49.87677578285459
 20
0.5493018847341773
 30
0.0
 10
48.22481262506246
 20
2.189179479270749
 30
0.0
 10
46.57453759488016
 20
3.763908713649215
 30
0.0
 10
44.92450095069299
 20
5.225591607561057
 30
0.0
 10
43.27327063767783
 20
6.530944130031642
 30
0.0
 10
41.62068716281185
 20
7.639252939465877
 30
0.0
 10
39.96991210690069
 20
8.521905917802655
 30
0.0
 10
38.31993999264111
 20
9.139092226388868
 30
0.0
 10
36.8174897830729
 20
9.485009669391573
 30
0.0
 10
35.8642254465571
 20
9.49334517825858
 30
0.0
 10
35.46143891996168
 20
9.496867213580089
 30
0.0
  0
SPLINE
  5
29C
330
1F
100
AcDbEntity
  8
0
  6
Continuous
 62
     1
370
    15
100
AcDbSpline
210
0.0
220
0.0
230
1.0
 70
     8
 71
     3
 72
    22
 73
    18
 74
     0
 42
0.000000001
 43
0.00000001
 40
0.0
 40
0.0
 40
0.0
 40
0.0
 40
0.124999999999995
 40
0.124999999999995
 40
0.24999999999999
 40
0.24999999999999
 40
0.3749999999999849
 40
0.3749999999999849
 40
0.4374999999999861
 40
0.4374999999999861
 40
0.4999999999999872
 40
0.4999999999999872
 40
0.6249999999999901
 40
0.6249999999999901
 40
0.7499999999999929
 40
0.7499999999999929
 40
1.0
 40
1.0
 40
1.0
 40
1.0
 10
86.19999999999999
 20
-3.477263706244401
 30
0.0
 10
86.19999999999999
 20
-3.601566409517986
 30
0.0
 10
86.19656229105496
 20
-3.724630299854894
 30
0.0
 10
86.17588309865658
 20
-3.966860150672261
 30
0.0
 10
86.15839485970184
 20
-4.087810350011097
 30
0.0
 10
86.09831226420317
 20
-4.311480236134656
 30
0.0
 10
86.05452203150105
 20
-4.415564784010584
 30
0.0
 10
85.96482526039017
 20
-4.536090923791647
 30
0.0
 10
85.93017121729304
 20
-4.57125715252198
 30
0.0
 10
85.85537202641342
 20
-4.626321928299319
 30
0.0
 10
85.81515988718994
 20
-4.646712000231631
 30
0.0
 10
85.68608761035065
 20
-4.688169425364805
 30
0.0
 10
85.59416869809576
 20
-4.688028398812293
 30
0.0
 10
85.4069795074812
 20
-4.651745612307877
 30
0.0
 10
85.31377072808948
 20
-4.616342513559886
 30
0.0
 10
85.03224398007202
 20
-4.474889082102607
 30
0.0
 10
84.85223888652169
 20
-4.34004284515288
 30
0.0
 10
84.67599999999999
 20
-4.181849823669594
 30
0.0
  0
SPLINE
  5
29D
330
1F
100
AcDbEntity
  8
0
  6
Continuous
 62
     1
370
    15
100
AcDbSpline
210
0.0
220
0.0
230
1.0
 70
     8
 71
     3
 72
    19
 73
    15
 74
     0
 42
0.000000001
 43
0.00000001
 40
0.0
 40
0.0
 40
0.0
 40
0.0
 40
0.0868748395709084
 40
0.1737504803853883
 40
0.2606829046004086
 40
0.3476653008520259
 40
0.4345689965818933
 40
0.5201074077997696
 40
0.6056727165358516
 40
0.6913241911345467
 40
0.7769351344871834
 40
0.862481087966577
 40
0.9480279041718928
 40
1.0
 40
1.0
 40
1.0
 40
1.0
 10
84.67600000000161
 20
-4.18184982367103
 30
0.0
 10
84.11749030797179
 20
-3.667331357597561
 30
0.0
 10
83.00046577279699
 20
-2.638289680065
 30
0.0
 10
81.32470938897745
 20
-0.9780944380980827
 30
0.0
 10
79.64762244760811
 20
0.7031171508705256
 30
0.0
 10
77.96947299265832
 20
2.364393270662489
 30
0.0
 10
76.30156512928733
 20
3.944697702488739
 30
0.0
 10
74.64307978572978
 20
5.39668155820722
 30
0.0
 10
72.99252816204961
 20
6.679927939537265
 30
0.0
 10
71.3401037889395
 20
7.761444878423006
 30
0.0
 10
69.68856036129762
 20
8.61409555933065
 30
0.0
 10
68.03841287317107
 20
9.19618736927552
 30
0.0
 10
66.60460424250846
 20
9.502591123617904
 30
0.0
 10
65.7201320448957
 20
9.494092251787094
 30
0.0
 10
65.3858662109684
 20
9.490880299520384
 30
0.0
  0
SPLINE
  5
29E
330
1F
100
AcDbEntity
  8
0
  6
Continuous
 62
     1
370
    15
100
AcDbSpline
210
0.0
220
0.0
230
1.0
 70
     8
 71
     3
 72
    25
 73
    21
 74
     0
 42
0.000000001
 43
0.00000001
 40
0.0
 40
0.0
 40
0.0
 40
0.0
 40
0.0174080689119362
 40
0.0746802070656144
 40
0.1320100348963369
 40
0.1893099590504983
 40
0.2465675325836783
 40
0.3038268384468139
 40
0.3611319402767101
 40
0.4184582249457009
 40
0.4757272662060959
 40
0.532980612159386
 40
0.5902623929030357
 40
0.6475971881503997
 40
0.7048845525846202
 40
0.7621388213827789
 40
0.8215759544850243
 40
0.8810505674168901
 40
0.9405488092643816
 40
1.0
 40
1.0
 40
1.0
 40
1.0
 10
38.82167497242102
 20
-8.910472229675719
 30
0.0
 10
38.65448529196333
 20
-8.976283618106834
 30
0.0
 10
37.93724548673403
 20
-9.258612929886041
 30
0.0
 10
36.66935725678367
 20
-9.484004876405578
 30
0.0
 10
35.01689753118814
 20
-9.565662258058936
 30
0.0
 10
33.36540316079251
 20
-9.341232255534734
 30
0.0
 10
31.71529750103016
 20
-8.84198109147951
 30
0.0
 10
30.06513734197131
 20
-8.07629019450333
 30
0.0
 10
28.4134746781733
 20
-7.068972380510374
 30
0.0
 10
26.76113021548886
 20
-5.850091333225009
 30
0.0
 10
25.11064941225379
 20
-4.45523688239868
 30
0.0
 10
23.46066656049884
 20
-2.927128807745618
 30
0.0
 10
21.80976465378703
 20
-1.310948482855892
 30
0.0
 10
20.15715144747108
 20
0.3434587489634708
 30
0.0
 10
18.5060481493115
 20
1.988650109678133
 30
0.0
 10
16.83525417204226
 20
3.59367215434122
 30
0.0
 10
15.14306406820188
 20
5.108261468777528
 30
0.0
 10
13.4287767339051
 20
6.471353130071776
 30
0.0
 10
11.71368378894037
 20
7.644924549848369
 30
0.0
 10
10.5710772748524
 20
8.214168733969913
 30
0.0
 10
10.0
 20
8.49867824217381
 30
0.0
  0
LINE
  5
29F
330
1F
100
AcDbEntity
  8
0
  6
Continuous
 62
     1
370
    15
100
AcDbLine
 10
10.0
 20
9.25918719123132
 30
0.0
 11
10.0
 21
8.595898853719419
 31
0.0
  0
SPLINE
  5
2A0
330
1F
100
AcDbEntity
  8
0
  6
Continuous
 62
     1
370
    15
100
AcDbSpline
210
0.0
220
0.0
230
1.0
 70
     8
 71
     3
 72
    14
 73
    10
 74
     0
 42
0.000000001
 43
0.00000001
 40
0.0
 40
0.0
 40
0.0
 40
0.0
 40
0.2499999999999999
 40
0.2499999999999999
 40
0.4999999999999998
 40
0.4999999999999998
 40
0.7499999999999999
 40
0.7499999999999999
 40
1.0
 40
1.0
 40
1.0
 40
1.0
 10
84.37640964144879
 20
2.652583332919988
 30
0.0
 10
84.34373063081966
 20
2.511084492592715
 30
0.0
 10
84.29727569798021
 20
2.364135801591786
 30
0.0
 10
84.16936842904784
 20
2.056393203365189
 30
0.0
 10
84.08788292776129
 20
1.895144362887208
 30
0.0
 10
83.87564480975226
 20
1.554978147073001
 30
0.0
 10
83.74892121040338
 20
1.382537529124761
 30
0.0
 10
83.4419940103991
 20
1.032757424429121
 30
0.0
 10
83.27060008146992
 20
0.865518413668596
 30
0.0
 10
83.07932523778652
 20
0.7067627779871231
 30
0.0
  0
SPLINE
  5
2A1
330
1F
100
AcDbEntity
  8
0
  6
Continuous
 62
     1
370
    15
100
AcDbSpline
210
0.0
220
0.0
230
1.0
 70
     8
 71
     3
 72
     8
 73
     4
 74
     0
 42
0.000000001
 43
0.00000001
 40
0.0
 40
0.0
 40
0.0
 40
0.0
 40
1.0
 40
1.0
 40
1.0
 40
1.0
 10
86.19999999999999
 20
-1.480306981946342
 30
0.0
 10
85.1573281175589
 20
-0.7581130517480545
 30
0.0
 10
84.11697297875259
 20
-0.029125512674014
 30
0.0
 10
83.07932523778601
 20
0.706762777988061
 30
0.0
  0
LINE
  5
2A2
330
1F
100
AcDbEntity
  8
0
  6
Continuous
 62
     1
370
    15
100
AcDbLine
 10
86.19999999999999
 20
-3.477263706244401
 30
0.0
 11
86.19999999999999
 21
-1.480306981946342
 31
0.0
  0
SPLINE
  5
2A4
330
1F
100
AcDbEntity
  8
0
  6
Continuous
 62
     1
370
    15
100
AcDbSpline
210
0.0
220
0.0
230
1.0
 70
     8
 71
     3
 72
    28
 73
    24
 74
     0
 42
0.000000001
 43
0.00000001
 40
0.0
 40
0.0
 40
0.0
 40
0.0
 40
0.0191654511136949
 40
0.0688119470298628
 40
0.1184188555189314
 40
0.1679961094186358
 40
0.2175819095288744
 40
0.2672143043708363
 40
0.3168433779374911
 40
0.3664277838528969
 40
0.4160056431793838
 40
0.4656151499647326
 40
0.5152609344958812
 40
0.564858437970311
 40
0.6144343134488514
 40
0.6640267771060001
 40
0.7136691947775168
 40
0.7632857185843921
 40
0.8128655706046084
 40
0.8624469226650386
 40
0.9120679298682737
 40
0.9617072794839244
 40
1.0
 40
1.0
 40
1.0
 40
1.0
 10
58.77110458014675
 20
-8.90703296621649
 30
0.0
 10
58.55849935438971
 20
-8.988559841906124
 30
0.0
 10
57.7951580979655
 20
-9.28127526082244
 30
0.0
 10
56.4803041386625
 20
-9.501816530176427
 30
0.0
 10
54.82921727882223
 20
-9.557864707907896
 30
0.0
 10
53.1791880752192
 20
-9.310414546181164
 30
0.0
 10
51.52886287720392
 20
-8.788372344065678
 30
0.0
 10
49.8767756000249
 20
-8.001935930367452
 30
0.0
 10
48.22481267372837
 20
-6.976038261548482
 30
0.0
 10
46.57453758286441
 20
-5.740632787604824
 30
0.0
 10
44.92450095011827
 20
-4.333328260884031
 30
0.0
 10
43.27327065201521
 20
-2.795968473731847
 30
0.0
 10
41.62068710601531
 20
-1.175695556632974
 30
0.0
 10
39.96991231946778
 20
0.4808407795549101
 30
0.0
 10
38.3199391993446
 20
2.122591939030897
 30
0.0
 10
36.66935619792454
 20
3.701089534163202
 30
0.0
 10
35.01689786010121
 20
5.167746685813626
 30
0.0
 10
33.36540290412105
 20
6.480311244635587
 30
0.0
 10
31.715298198596
 20
7.597988491630943
 30
0.0
 10
30.06513480720221
 20
8.490382435321678
 30
0.0
 10
28.4134841292873
 20
9.119103709908899
 30
0.0
 10
26.88650391713338
 20
9.478817171386723
 30
0.0
 10
25.91119386503706
 20
9.493479724309509
 30
0.0
 10
25.48646514904647
 20
9.499864983297329
 30
0.0
  0
SPLINE
  5
2A5
330
1F
100
AcDbEntity
  8
0
  6
Continuous
 62
     1
370
    15
100
AcDbSpline
210
0.0
220
0.0
230
1.0
 70
     8
 71
     3
 72
    28
 73
    24
 74
     0
 42
0.000000001
 43
0.00000001
 40
0.0
 40
0.0
 40
0.0
 40
0.0
 40
0.0365896744454606
 40
0.0861752673488642
 40
0.1357593600837509
 40
0.1853801277419455
 40
0.2350267914795618
 40
0.2846234969300919
 40
0.3342036127831773
 40
0.38380535848206
 40
0.4334553893672859
 40
0.4830691394037671
 40
0.5326512392744838
 40
0.5822398862940689
 40
0.6318732047854618
 40
0.6815098448362409
 40
0.731099886169908
 40
0.7806813805620578
 40
0.8302925320800181
 40
0.8799432744111102
 40
0.929547200834158
 40
0.979127501098238
 40
0.9999999999999999
 40
0.9999999999999999
 40
0.9999999999999999
 40
0.9999999999999999
 10
28.84749043261391
 20
8.912855844842369
 30
0.0
 10
29.25350775719281
 20
9.049381685115065
 30
0.0
 10
30.20975161626322
 20
9.37092460572957
 30
0.0
 10
31.71528317902181
 20
9.55442689314529
 30
0.0
 10
33.36540693180655
 20
9.503312327043744
 30
0.0
 10
35.01689677988345
 20
9.158167730258214
 30
0.0
 10
36.66935648711518
 20
8.541284400201704
 30
0.0
 10
38.3199391219016
 20
7.667345651728581
 30
0.0
 10
39.96991234029107
 20
6.563959315770632
 30
0.0
 10
41.62068710018195
 20
5.263483229074737
 30
0.0
 10
43.27327065449859
 20
3.806162745943141
 30
0.0
 10
44.92450094602067
 20
2.233974609189872
 30
0.0
 10
46.57453759676528
 20
0.5949733598167057
 30
0.0
 10
48.22481262219171
 20
-1.062052498362419
 30
0.0
 10
49.87677579246069
 20
-2.686772218258952
 30
0.0
 10
51.52886215930354
 20
-4.230933026884315
 30
0.0
 10
53.17919075144628
 20
-5.648727410602092
 30
0.0
 10
54.82920729009123
 20
-6.897330476805934
 30
0.0
 10
56.48034145481785
 20
-7.938087681103553
 30
0.0
 10
58.13294275228077
 20
-8.745052755677108
 30
0.0
 10
59.78383305745479
 20
-9.273274199247027
 30
0.0
 10
61.11517882399642
 20
-9.526658493035569
 30
0.0
 10
61.89667324455351
 20
-9.498498489282369
 30
0.0
 10
62.12820047452794
 20
-9.490155745567819
 30
0.0
  0
SPLINE
  5
2A6
330
1F
100
AcDbEntity
  8
0
  6
Continuous
 62
     1
370
    15
100
AcDbSpline
210
0.0
220
0.0
230
1.0
 70
     8
 71
     3
 72
    22
 73
    18
 74
     0
 42
0.000000001
 43
0.00000001
 40
0.0
 40
0.0
 40
0.0
 40
0.0
 40
0.1250000000000066
 40
0.1250000000000066
 40
0.2500000000000131
 40
0.2500000000000131
 40
0.3750000000000196
 40
0.3750000000000196
 40
0.4375000000000188
 40
0.4375000000000188
 40
0.5000000000000179
 40
0.5000000000000179
 40
0.6250000000000161
 40
0.6250000000000161
 40
0.7500000000000143
 40
0.7500000000000143
 40
1.0
 40
1.0
 40
1.0
 40
1.0
 10
86.19999999999999
 20
-7.979102876043981
 30
0.0
 10
86.19999999999999
 20
-8.047422362609069
 30
0.0
 10
86.19656229105493
 20
-8.120419747131308
 30
0.0
 10
86.1758830986565
 20
-8.279981772624737
 30
0.0
 10
86.15839485970179
 20
-8.367900236791101
 30
0.0
 10
86.09831226420312
 20
-8.55751081235529
 30
0.0
 10
86.05452203150105
 20
-8.661173177476286
 30
0.0
 10
85.96482526039017
 20
-8.815280972540108
 30
0.0
 10
85.93017121729304
 20
-8.867617328048198
 30
0.0
 10
85.85537202641342
 20
-8.96670126496366
 30
0.0
 10
85.81515988718996
 20
-9.013822022849567
 30
0.0
 10
85.68608761035063
 20
-9.147958934094873
 30
0.0
 10
85.59416869809573
 20
-9.222187489723012
 30
0.0
 10
85.40697950748122
 20
-9.343016065782663
 30
0.0
 10
85.31377072808954
 20
-9.388632126456855
 30
0.0
 10
85.032243980072
 20
-9.492317130954973
 30
0.0
 10
84.85223888652166
 20
-9.514440409033867
 30
0.0
 10
84.67599999999999
 20
-9.502289009570504
 30
0.0
  0
SPLINE
  5
2A7
330
1F
100
AcDbEntity
  8
0
  6
Continuous
 62
     1
370
    15
100
AcDbSpline
210
0.0
220
0.0
230
1.0
 70
     8
 71
     3
 72
    25
 73
    21
 74
     0
 42
0.000000001
 43
0.00000001
 40
0.0
 40
0.0
 40
0.0
 40
0.0
 40
0.05726367347919
 40
0.1145278750992137
 40
0.171829505578084
 40
0.2291640751956154
 40
0.2864467692528304
 40
0.3428295340913325
 40
0.3992300284670348
 40
0.455687319193051
 40
0.5121178936908537
 40
0.5685056300217114
 40
0.624893935019582
 40
0.6813262091782119
 40
0.7377823367999825
 40
0.7941818145673637
 40
0.8505646991419107
 40
0.9069744514640697
 40
0.9634374429946536
 40
1.0
 40
1.0
 40
1.0
 40
1.0
 10
84.67600000000161
 20
-9.502289009570603
 30
0.0
 10
84.11749030792743
 20
-9.43533649190978
 30
0.0
 10
83.00046577266397
 20
-9.301430839087402
 30
0.0
 10
81.32470938950956
 20
-8.734384101755609
 30
0.0
 10
79.64762244561075
 20
-7.918367726989459
 30
0.0
 10
77.969473000117
 20
-6.852425903113073
 30
0.0
 10
76.30156510166387
 20
-5.582129203095434
 30
0.0
 10
74.64307988703709
 20
-4.148939503894582
 30
0.0
 10
72.99252778347181
 20
-2.598511733157338
 30
0.0
 10
71.34010520315098
 20
-0.9710715642691241
 30
0.0
 10
69.68855508802764
 20
0.686065029550349
 30
0.0
 10
68.03843253700072
 20
2.322714747163488
 30
0.0
 10
66.38829163364258
 20
3.889773375397994
 30
0.0
 10
64.73668597855121
 20
5.340051533030788
 30
0.0
 10
63.08429977274497
 20
6.630103390356268
 30
0.0
 10
61.43378770238627
 20
7.721271934818034
 30
0.0
 10
59.78380214080153
 20
8.583845554047628
 30
0.0
 10
58.13296893167472
 20
9.17775729553101
 30
0.0
 10
56.67410618230174
 20
9.496864152372098
 30
0.0
 10
55.76669600460406
 20
9.493650683168937
 30
0.0
 10
55.41004950403021
 20
9.492387668300722
 30
0.0
  0
SPLINE
  5
2A8
330
1F
100
AcDbEntity
  8
0
  6
Continuous
 62
     1
370
    15
100
AcDbSpline
210
0.0
220
0.0
230
1.0
 70
     8
 71
     3
 72
    19
 73
    15
 74
     0
 42
0.000000001
 43
0.00000001
 40
0.0
 40
0.0
 40
0.0
 40
0.0
 40
0.0230194824281326
 40
0.1106849438860755
 40
0.1982628666196977
 40
0.2858167875128373
 40
0.3734141919324733
 40
0.461092668079658
 40
0.5486986112841351
 40
0.6362539434255656
 40
0.7271473918887283
 40
0.8180981558848619
 40
0.9090850540872158
 40
1.0
 40
1.0
 40
1.0
 40
1.0
 10
28.84749043261398
 20
-8.912855844842326
 30
0.0
 10
28.70285884281041
 20
-8.970441419896986
 30
0.0
 10
28.00742446666658
 20
-9.24733105733658
 30
0.0
 10
26.76109639795604
 20
-9.47415366652426
 30
0.0
 10
25.11065846687561
 20
-9.568830957808018
 30
0.0
 10
23.46066413333087
 20
-9.355861191313664
 30
0.0
 10
21.80976530496609
 20
-8.867924452484942
 30
0.0
 10
20.15715127309301
 20
-8.113160828972894
 30
0.0
 10
18.5060481959312
 20
-7.115178730407976
 30
0.0
 10
16.83525415902304
 20
-5.888649716928171
 30
0.0
 10
15.14306407174659
 20
-4.461852987381675
 30
0.0
 10
13.42877673295914
 20
-2.873645484983996
 30
0.0
 10
11.71368378917668
 20
-1.19195298286462
 30
0.0
 10
10.57107727493116
 20
-0.0474234258744559
 30
0.0
 10
10.0
 20
0.5246149900938946
 30
0.0
  0
SPLINE
  5
2A9
330
1F
100
AcDbEntity
  8
0
  6
Continuous
 62
     1
370
    15
100
AcDbSpline
210
0.0
220
0.0
230
1.0
 70
    24
 71
     3
 72
    18
 73
    14
 74
     0
 42
0.000000001
 43
0.00000001
 40
0.0
 40
0.0
 40
0.0
 40
0.0
 40
0.2500000000000001
 40
0.2500000000000001
 40
0.5000000000000001
 40
0.5000000000000001
 40
0.6250000000000001
 40
0.6250000000000001
 40
0.75
 40
0.75
 40
0.875
 40
0.875
 40
1.0
 40
1.0
 40
1.0
 40
1.0
 10
10.0
 20
6.564744279271366
 30
0.0
 10
10.0
 20
6.197033802354611
 30
0.0
 10
10.0
 20
5.766374551829642
 30
0.0
 10
10.0
 20
4.77445657773319
 30
0.0
 10
10.0
 20
4.210902007254063
 30
0.0
 10
10.0
 20
3.321375923379762
 30
0.0
 10
10.0
 20
3.018420275308301
 30
0.0
 10
10.0
 20
2.421006685702935
 30
0.0
 10
10.0
 20
2.126676885594605
 30
0.0
 10
10.0
 20
1.574426458947912
 30
0.0
 10
10.0
 20
1.316759753088533
 30
0.0
 10
10.0
 20
0.8664400038549189
 30
0.0
 10
10.0
 20
0.6740628526806489
 30
0.0
 10
10.0
 20
0.5246149900938946
 30
0.0
  0
SPLINE
  5
2AA
330
1F
100
AcDbEntity
  8
0
  6
Continuous
 62
     1
370
    15
100
AcDbSpline
210
0.0
220
0.0
230
1.0
 70
     8
 71
     3
 72
    21
 73
    17
 74
     0
 42
0.000000001
 43
0.00000001
 40
0.0
 40
0.0
 40
0.0
 40
0.0
 40
0.0771675133367824
 40
0.1543960989121187
 40
0.2315940142075308
 40
0.3087432807674627
 40
0.3830591943160344
 40
0.4574180659266004
 40
0.5318385026271258
 40
0.6061901266197509
 40
0.6805048423177371
 40
0.7548399304894355
 40
0.8292493204781632
 40
0.9036312151888632
 40
0.9779536668365721
 40
1.0
 40
1.0
 40
1.0
 40
1.0
 10
9.999999999997414
 20
6.564744279262342
 30
0.0
 10
10.5710772748478
 20
6.130312808219401
 30
0.0
 10
11.71368378893166
 20
5.261106046548207
 30
0.0
 10
13.42877673393099
 20
3.731571729687857
 30
0.0
 10
15.14306406809942
 20
2.09636623058644
 30
0.0
 10
16.835254172416
 20
0.4102452317876129
 30
0.0
 10
18.50604814797236
 20
-1.26602628695926
 30
0.0
 10
20.15715145247989
 20
-2.883918888206779
 30
0.0
 10
21.80976463508249
 20
-4.414421782389212
 30
0.0
 10
23.46066663021693
 20
-5.813481363552427
 30
0.0
 10
25.11064915216828
 20
-7.03839920788873
 30
0.0
 10
26.76113118686567
 20
-8.05104680437421
 30
0.0
 10
28.41347104950657
 20
-8.82761178661589
 30
0.0
 10
30.06515087373924
 20
-9.31874043612575
 30
0.0
 10
31.32848732344974
 20
-9.541288984650123
 30
0.0
 10
32.04157646224168
 20
-9.50377001631503
 30
0.0
 10
32.20471020684414
 20
-9.495186783917902
 30
0.0
  0
SPLINE
  5
2AB
330
1F
100
AcDbEntity
  8
0
  6
Continuous
 62
     1
370
    15
100
AcDbSpline
210
0.0
220
0.0
230
1.0
 70
     8
 71
     3
 72
    23
 73
    19
 74
     0
 42
0.000000001
 43
0.00000001
 40
0.0
 40
0.0
 40
0.0
 40
0.0
 40
0.0395596644257298
 40
0.104000660809763
 40
0.168460621847476
 40
0.2329853290060981
 40
0.2974827736196481
 40
0.3619299651014032
 40
0.426376506643568
 40
0.4908720086846854
 40
0.5553980451757295
 40
0.61985916811308
 40
0.6843000276486684
 40
0.7474354354152347
 40
0.8106339542577655
 40
0.8737693068920939
 40
0.9368710149484458
 40
1.0
 40
1.0
 40
1.0
 40
1.0
 10
58.77110458014681
 20
8.907032966216534
 30
0.0
 10
59.10876190457836
 20
9.026435088108343
 30
0.0
 10
59.99644852623982
 20
9.34033814464587
 30
0.0
 10
61.43376204205555
 20
9.540177706940668
 30
0.0
 10
63.08430665766633
 20
9.526504464764685
 30
0.0
 10
64.73668413152998
 20
9.215918453177252
 30
0.0
 10
66.38829213642055
 20
8.632152906727043
 30
0.0
 10
68.03843237105349
 20
7.788741838940211
 30
0.0
 10
69.68855524929916
 20
6.712102125569174
 30
0.0
 10
71.34010472363252
 20
5.434254339339631
 30
0.0
 10
72.99252954024263
 20
3.994104897556724
 30
0.0
 10
74.64307334781529
 20
2.433439077923637
 30
0.0
 10
76.2816743233848
 20
0.8113631444512208
 30
0.0
 10
77.90965946641893
 20
-0.8228824823248289
 30
0.0
 10
79.52804879037132
 20
-2.421795825049415
 30
0.0
 10
81.1446606475761
 20
-3.948614031993273
 30
0.0
 10
82.76024575172278
 20
-5.375343916199313
 30
0.0
 10
83.83761074282768
 20
-6.18923965942794
 30
0.0
 10
84.37640964144728
 20
-6.596275467778298
 30
0.0
  0
SPLINE
  5
2AC
330
1F
100
AcDbEntity
  8
0
  6
Continuous
 62
     1
370
    15
100
AcDbSpline
210
0.0
220
0.0
230
1.0
 70
     8
 71
     3
 72
    10
 73
     6
 74
     0
 42
0.000000001
 43
0.00000001
 40
0.0
 40
0.0
 40
0.0
 40
0.0
 40
0.2504297565102409
 40
0.6188511642907897
 40
1.0
 40
1.0
 40
1.0
 40
1.0
 10
83.74071060177755
 20
-6.102513009486643
 30
0.0
 10
83.69510961032319
 20
-6.099428714179098
 30
0.0
 10
83.58242241592748
 20
-6.09180693724376
 30
0.0
 10
83.36066201883438
 20
-6.127822936618543
 30
0.0
 10
83.17415974488136
 20
-6.191283422759682
 30
0.0
 10
83.07932523778655
 20
-6.223552433724734
 30
0.0
  0
SPLINE
  5
2AD
330
1F
100
AcDbEntity
  8
0
  6
Continuous
 62
     1
370
    15
100
AcDbSpline
210
0.0
220
0.0
230
1.0
 70
     8
 71
     3
 72
     8
 73
     4
 74
     0
 42
0.000000001
 43
0.00000001
 40
0.0
 40
0.0
 40
0.0
 40
0.0
 40
1.0
 40
1.0
 40
1.0
 40
1.0
 10
86.19999999999999
 20
-7.253764870742771
 30
0.0
 10
85.1573281175589
 20
-6.998401971398579
 30
0.0
 10
84.11697297875259
 20
-6.656275217222017
 30
0.0
 10
83.07932523778598
 20
-6.223552433724194
 30
0.0
  0
LINE
  5
2AE
330
1F
100
AcDbEntity
  8
0
  6
Continuous
 62
     1
370
    15
100
AcDbLine
 10
86.19999999999999
 20
-7.979102876043981
 30
0.0
 11
86.19999999999999
 21
-7.253764870742771
 31
0.0
  0
SPLINE
  5
2AF
330
1F
100
AcDbEntity
  8
0
  6
Continuous
 62
     1
370
    15
100
AcDbSpline
210
0.0
220
0.0
230
1.0
 70
     8
 71
     3
 72
    15
 73
    11
 74
     0
 42
0.000000001
 43
0.00000001
 40
0.0
 40
0.0
 40
0.0
 40
0.0
 40
0.1401010149708747
 40
0.2803129092773398
 40
0.420469120341453
 40
0.5605370074863016
 40
0.6954608176031667
 40
0.8304626199712571
 40
0.9655761964683444
 40
1.0
 40
1.0
 40
1.0
 40
1.0
 10
9.999999999997414
 20
-2.694442911959342
 30
0.0
 10
10.57107729598199
 20
-3.233961786868036
 30
0.0
 10
11.71368385235098
 20
-4.313426524986696
 30
0.0
 10
13.42877648006146
 20
-5.768870954534847
 30
0.0
 10
15.14306501940973
 20
-7.045231358738576
 30
0.0
 10
16.8352506783912
 20
-8.077925019024747
 30
0.0
 10
18.50606065949759
 20
-8.854324507626885
 30
0.0
 10
20.15710465391055
 20
-9.332930698971225
 30
0.0
 10
21.39963228185707
 20
-9.545982752148632
 30
0.0
 10
22.09071018635508
 20
-9.505970298166986
 30
0.0
 10
22.23103045086238
 20
-9.497845949103379
 30
0.0
  0
SPLINE
  5
2B0
330
1F
100
AcDbEntity
  8
0
  6
Continuous
 62
     1
370
    15
100
AcDbSpline
210
0.0
220
0.0
230
1.0
 70
     8
 71
     3
 72
    28
 73
    24
 74
     0
 42
0.000000001
 43
0.00000001
 40
0.0
 40
0.0
 40
0.0
 40
0.0
 40
0.0324818249704583
 40
0.0821163554023413
 40
0.1317042890976157
 40
0.1812836762146287
 40
0.2308927191969872
 40
0.2805413513098188
 40
0.3301431695043403
 40
0.3797213625440352
 40
0.4293141461908565
 40
0.4789567427806974
 40
0.5285783647146797
 40
0.578161324002074
 40
0.6277437832532757
 40
0.6773639106537086
 40
0.72700752997602
 40
0.7766012075395675
 40
0.8261792952938231
 40
0.8747530233478829
 40
0.9233753064101314
 40
0.9719489920477657
 40
1.0
 40
1.0
 40
1.0
 40
1.0
 10
48.79541312409583
 20
8.908487392508093
 30
0.0
 10
49.15584941483633
 20
9.033858452590152
 30
0.0
 10
50.06705790072854
 20
9.350805377100386
 30
0.0
 10
51.5288791934189
 20
9.545411596935395
 30
0.0
 10
53.17918606675013
 20
9.519276685223616
 30
0.0
 10
54.8292090059164
 20
9.19712021553974
 30
0.0
 10
56.48033927656056
 20
8.60205509665009
 30
0.0
 10
58.13294975073757
 20
7.748900304198884
 30
0.0
 10
59.78380727552621
 20
6.66314230166617
 30
0.0
 10
61.43378632624851
 20
5.377828735064327
 30
0.0
 10
63.08430014255381
 20
3.93102377147703
 30
0.0
 10
64.73668587718532
 20
2.367214980052339
 30
0.0
 10
66.38829166926877
 20
0.7319516743995536
 30
0.0
 10
68.03843249578819
 20
-0.9253842729477952
 30
0.0
 10
69.68855521731362
 20
-2.554963831812614
 30
0.0
 10
71.3401047267381
 20
-4.107891886343509
 30
0.0
 10
72.9925295598376
 20
-5.537126173179274
 30
0.0
 10
74.64307326644234
 20
-6.801417977903256
 30
0.0
 10
76.28167462659624
 20
-7.853335353752598
 30
0.0
 10
77.90965835925564
 20
-8.671509121925439
 30
0.0
 10
79.52805292819559
 20
-9.221753748938383
 30
0.0
 10
80.91729445966888
 20
-9.50731420999567
 30
0.0
 10
81.76707538944015
 20
-9.495788417230031
 30
0.0
 10
82.07816585521422
 20
-9.491569018895404
 30
0.0
  0
LINE
  5
2B1
330
1F
100
AcDbEntity
  8
0
  6
Continuous
 62
     1
370
    15
100
AcDbLine
 10
10.0
 20
-2.69444291195984
 30
0.0
 11
10.0
 21
0.5246149900938946
 31
0.0
  0
LINE
  5
2B2
330
1F
100
AcDbEntity
  8
0
  6
Continuous
 62
     1
370
    15
100
AcDbLine
 10
10.0
 20
6.564744279271423
 30
0.0
 11
10.0
 21
8.49867824217381
 31
0.0
  0
LINE
  5
2B3
330
1F
100
AcDbEntity
  8
0
  6
Continuous
 62
     1
370
    15
100
AcDbLine
 10
84.67599999999999
 20
-6.43917121869238
 30
0.0
 11
84.67599999999999
 21
-4.18184982366958
 31
0.0
  0
ELLIPSE
  5
2B4
330
1F
100
AcDbEntity
  8
0
  6
Continuous
 62
     1
370
    15
100
AcDbEllipse
 10
87.62814800674212
 20
0.0000000000000284
 30
0.0
 11
13.41987174966148
 21
8.916837433236193
 31
0.0
210
0.0
220
0.0
230
1.0
 40
0.2495534463455959
 41
4.306687302902414
 42
4.329307475449445
  0
SPLINE
  5
2B5
330
1F
100
AcDbEntity
  8
0
  6
Continuous
 62
     1
370
    15
100
AcDbSpline
210
0.0
220
0.0
230
1.0
 70
     8
 71
     3
 72
    22
 73
    18
 74
     0
 42
0.000000001
 43
0.00000001
 40
0.0
 40
0.0
 40
0.0
 40
0.0
 40
0.1249999999999964
 40
0.1249999999999964
 40
0.2499999999999928
 40
0.2499999999999928
 40
0.3749999999999892
 40
0.3749999999999892
 40
0.437499999999991
 40
0.437499999999991
 40
0.4999999999999923
 40
0.4999999999999923
 40
0.6249999999999943
 40
0.6249999999999943
 40
0.7499999999999964
 40
0.7499999999999964
 40
1.0
 40
1.0
 40
1.0
 40
1.0
 10
86.19999999999999
 20
4.501839169799624
 30
0.0
 10
86.20000000000005
 20
4.445855953091126
 30
0.0
 10
86.19656229105496
 20
4.395789447276442
 30
0.0
 10
86.17588309865658
 20
4.313121621952519
 30
0.0
 10
86.15839485970181
 20
4.280089886780033
 30
0.0
 10
86.09831226420312
 20
4.246030576220647
 30
0.0
 10
86.05452203150108
 20
4.245608393465744
 30
0.0
 10
85.96482526039017
 20
4.27919004874849
 30
0.0
 10
85.93017121729304
 20
4.296360175526274
 30
0.0
 10
85.85537202641342
 20
4.340379336664412
 30
0.0
 10
85.81515988718996
 20
4.367110022617965
 30
0.0
 10
85.68608761035065
 20
4.459789508730097
 30
0.0
 10
85.5941686980957
 20
4.534159090910762
 30
0.0
 10
85.4069795074812
 20
4.691270453474857
 30
0.0
 10
85.31377072808948
 20
4.772289612896998
 30
0.0
 10
85.032243980072
 20
5.017428048852395
 30
0.0
 10
84.85223888652166
 20
5.17439756388103
 30
0.0
 10
84.67599999999999
 20
5.320439185900938
 30
0.0
  0
SPLINE
  5
2B6
330
1F
100
AcDbEntity
  8
0
  6
Continuous
 62
     1
370
    15
100
AcDbSpline
210
0.0
220
0.0
230
1.0
 70
     8
 71
     3
 72
    28
 73
    24
 74
     0
 42
0.000000001
 43
0.00000001
 40
0.0
 40
0.0
 40
0.0
 40
0.0
 40
0.0386100043013147
 40
0.0882594158242586
 40
0.1378629191181727
 40
0.1874417991339875
 40
0.2370342705955924
 40
0.2866763123318979
 40
0.3363000106610123
 40
0.3858840516966805
 40
0.4354665926107822
 40
0.4850858073003861
 40
0.5347309172589486
 40
0.5843260704939567
 40
0.6339046346507206
 40
0.6835048279763379
 40
0.7331533049771293
 40
0.7827655022646482
 40
0.8323460503769503
 40
0.8819331454332161
 40
0.9315649105632181
 40
0.981199997148652
 40
0.9999999999999999
 40
0.9999999999999999
 40
0.9999999999999999
 40
0.9999999999999999
 10
18.87186553904947
 20
8.915701955307085
 30
0.0
 10
19.30015881026571
 20
9.057308689795022
 30
0.0
 10
20.27920335074303
 20
9.381010483898706
 30
0.0
 10
21.80977892990617
 20
9.558123293600318
 30
0.0
 10
23.46066273885103
 20
9.494628630150487
 30
0.0
 10
25.11065043642191
 20
9.138076537417945
 30
0.0
 10
26.76112994036349
 20
8.509759534985463
 30
0.0
 10
28.41347475323772
 20
7.626188043417898
 30
0.0
 10
30.06513731687451
 20
6.514002945793081
 30
0.0
 10
31.71529752641118
 20
5.206376060049848
 30
0.0
 10
33.36540308432858
 20
3.742742448520772
 30
0.0
 10
35.01689781194625
 20
2.166941315218111
 30
0.0
 10
36.66935621015804
 20
0.526869636485003
 30
0.0
 10
38.31993919852192
 20
-1.129944365316902
 30
0.0
 10
39.96991231053639
 20
-2.752508453224365
 30
0.0
 10
41.62068714259829
 20
-4.292934877730374
 30
0.0
 10
43.27327051451782
 20
-5.703696017575155
 30
0.0
 10
44.92450146292367
 20
-6.944636418169367
 30
0.0
 10
46.57453567019724
 20
-7.975959304271242
 30
0.0
 10
48.22481981584669
 20
-8.773231912308063
 30
0.0
 10
49.87674891785855
 20
-9.288963997948187
 30
0.0
 10
51.18722692999268
 20
-9.531699818275285
 30
0.0
 10
51.94625348773833
 20
-9.500049426350444
 30
0.0
 10
52.15476788535668
 20
-9.49135465494983
 30
0.0
  0
SPLINE
  5
2B7
330
1F
100
AcDbEntity
  8
0
  6
Continuous
 62
     1
370
    15
100
AcDbSpline
210
0.0
220
0.0
230
1.0
 70
     8
 71
     3
 72
    11
 73
     7
 74
     0
 42
0.000000001
 43
0.00000001
 40
0.0
 40
0.0
 40
0.0
 40
0.0
 40
0.1434119319480436
 40
0.4290016189843013
 40
0.7144391164137253
 40
1.0
 40
1.0
 40
1.0
 40
1.0
 10
78.71617333358898
 20
8.905640565097073
 30
0.0
 10
78.98691601540344
 20
9.005380624163806
 30
0.0
 10
79.79681409883923
 20
9.303742456655684
 30
0.0
 10
81.14466161872915
 20
9.513282981547746
 30
0.0
 10
82.76024550886495
 20
9.560263553147252
 30
0.0
 10
83.8376106618627
 20
9.352675337315986
 30
0.0
 10
84.3764096414462
 20
9.248858800692147
 30
0.0
  0
SPLINE
  5
2B8
330
1F
100
AcDbEntity
  8
0
  6
Continuous
 62
     1
370
    15
100
AcDbSpline
210
0.0
220
0.0
230
1.0
 70
     8
 71
     3
 72
    14
 73
    10
 74
     0
 42
0.000000001
 43
0.00000001
 40
0.0
 40
0.0
 40
0.0
 40
0.0
 40
0.2500000000000003
 40
0.2500000000000003
 40
0.5000000000000007
 40
0.5000000000000007
 40
0.7500000000000003
 40
0.7500000000000003
 40
1.0
 40
1.0
 40
1.0
 40
1.0
 10
84.37640964144879
 20
9.24885880070292
 30
0.0
 10
84.34373063081978
 20
9.005494061791723
 30
0.0
 10
84.29727569797822
 20
8.76793699154085
 30
0.0
 10
84.16936842904559
 20
8.307577095410466
 30
0.0
 10
84.08788292775893
 20
8.083904625597569
 30
0.0
 10
83.87564480975016
 20
7.660973529098413
 30
0.0
 10
83.74892121040142
 20
7.469782044933154
 30
0.0
 10
83.44199401039808
 20
7.142461618901223
 30
0.0
 10
83.27060008146964
 20
7.015849302904741
 30
0.0
 10
83.079325237787
 20
6.930315211712056
 30
0.0
  0
SPLINE
  5
2B9
330
1F
100
AcDbEntity
  8
0
  6
Continuous
 62
     1
370
    15
100
AcDbSpline
210
0.0
220
0.0
230
1.0
 70
     8
 71
     3
 72
     8
 73
     4
 74
     0
 42
0.000000001
 43
0.00000001
 40
0.0
 40
0.0
 40
0.0
 40
0.0
 40
1.0
 40
1.0
 40
1.0
 40
1.0
 10
86.19999999999999
 20
5.773457888796457
 30
0.0
 10
85.1573281175589
 20
6.240288919650553
 30
0.0
 10
84.11697297875261
 20
6.62714970454806
 30
0.0
 10
83.07932523778601
 20
6.930315211712312
 30
0.0
  0
LINE
  5
2BA
330
1F
100
AcDbEntity
  8
0
  6
Continuous
 62
     1
370
    15
100
AcDbLine
 10
86.19999999999999
 20
4.501839169799624
 30
0.0
 11
86.19999999999999
 21
5.773457888796457
 31
0.0
  0
SPLINE
  5
2BB
330
1F
100
AcDbEntity
  8
0
  6
Continuous
 62
     1
370
    15
100
AcDbSpline
210
0.0
220
0.0
230
1.0
 70
    24
 71
     3
 72
    18
 73
    14
 74
     0
 42
0.000000001
 43
0.00000001
 40
0.0
 40
0.0
 40
0.0
 40
0.0
 40
0.2499999999999999
 40
0.2499999999999999
 40
0.4999999999999998
 40
0.4999999999999998
 40
0.6249999999999998
 40
0.6249999999999998
 40
0.7499999999999999
 40
0.7499999999999999
 40
0.875
 40
0.875
 40
1.0
 40
1.0
 40
1.0
 40
1.0
 10
10.0
 20
-2.694442911959854
 30
0.0
 10
10.0
 20
-2.760321979021015
 30
0.0
 10
10.0
 20
-2.881131468628013
 30
0.0
 10
10.0
 20
-3.311940293609368
 30
0.0
 10
10.0
 20
-3.624446644188524
 30
0.0
 10
10.0
 20
-4.286404921267533
 30
0.0
 10
10.0
 20
-4.538899712328288
 30
0.0
 10
10.0
 20
-5.105608060584217
 30
0.0
 10
10.0
 20
-5.419908178984613
 30
0.0
 10
10.0
 20
-6.096992022052646
 30
0.0
 10
10.0
 20
-6.459712098116086
 30
0.0
 10
10.0
 20
-7.208156890222796
 30
0.0
 10
10.0
 20
-7.59363923669514
 30
0.0
 10
10.0
 20
-7.974063252079844
 30
0.0
  0
ELLIPSE
  5
2BC
330
1F
100
AcDbEntity
  8
0
  6
Continuous
 62
     1
370
    15
100
AcDbEllipse
 10
87.62814800674212
 20
0.0000000000000142
 30
0.0
 11
13.60310976421862
 21
0.0
 31
0.0
210
0.0
220
0.0
230
1.0
 40
0.7002075382097114
 41
1.789557084836203
 42
1.812177257383304
  0
LINE
  5
2BD
330
1F
100
AcDbEntity
  8
0
  6
Continuous
 62
     1
370
    15
100
AcDbLine
 10
86.19999999999999
 20
-0.8660254037844197
 30
0.0
 11
86.19999999999999
 21
3.103105514943238
 31
0.0
  0
LINE
  5
2BE
330
1F
100
AcDbEntity
  8
0
  6
Continuous
 62
     1
370
    15
100
AcDbLine
 10
83.07932523778561
 20
0.7067627779880752
 30
0.0
 11
86.19999999999999
 21
-0.8660254037844197
 31
0.0
  0
SPLINE
  5
2BF
330
1F
100
AcDbEntity
  8
0
  6
Continuous
 62
     1
370
    15
100
AcDbSpline
210
0.0
220
0.0
230
1.0
 70
     8
 71
     3
 72
    18
 73
    14
 74
     0
 42
0.000000001
 43
0.00000001
 40
0.0
 40
0.0
 40
0.0
 40
0.0
 40
0.1250000000000003
 40
0.1250000000000003
 40
0.2500000000000006
 40
0.2500000000000006
 40
0.5000000000000011
 40
0.5000000000000011
 40
0.6250000000000006
 40
0.6250000000000006
 40
0.7500000000000001
 40
0.7500000000000001
 40
1.0
 40
1.0
 40
1.0
 40
1.0
 10
86.19999999999999
 20
3.103105514943252
 30
0.0
 10
86.20000000000002
 20
3.157022886912898
 30
0.0
 10
86.18831321868686
 20
3.204990987624655
 30
0.0
 10
86.1423974903609
 20
3.281789564344351
 30
0.0
 10
86.10821201996501
 20
3.311476789855149
 30
0.0
 10
85.9745816999847
 20
3.372817858502216
 30
0.0
 10
85.8468604543622
 20
3.374971930679422
 30
0.0
 10
85.62483790605319
 20
3.330333548694
 30
0.0
 10
85.54473191898433
 20
3.307275963341866
 30
0.0
 10
85.3798408891704
 20
3.248080349848891
 30
0.0
 10
85.29476842690377
 20
3.211994156499514
 30
0.0
 10
85.03221539997489
 20
3.085617029475856
 30
0.0
 10
84.8537348805454
 20
2.980432690287984
 30
0.0
 10
84.67599999999999
 20
2.858820782322027
 30
0.0
  0
LINE
  5
2C0
330
1F
100
AcDbEntity
  8
0
  6
Continuous
 62
     1
370
    15
100
AcDbLine
 10
86.19999999999999
 20
3.103105514943238
 30
0.0
 11
86.19999999999999
 21
4.501839169799624
 31
0.0
  0
LINE
  5
2C1
330
1F
100
AcDbEntity
  8
0
  6
Continuous
 62
     1
370
    15
100
AcDbLine
 10
86.19999999999999
 20
-4.83515632251212
 30
0.0
 11
86.19999999999999
 21
-3.477263706244401
 31
0.0
  0
SPLINE
  5
2C2
330
1F
100
AcDbEntity
  8
0
  6
Continuous
 62
     1
370
    15
100
AcDbSpline
210
0.0
220
0.0
230
1.0
 70
     8
 71
     3
 72
    18
 73
    14
 74
     0
 42
0.000000001
 43
0.00000001
 40
0.0
 40
0.0
 40
0.0
 40
0.0
 40
0.1250000000000003
 40
0.1250000000000003
 40
0.2500000000000006
 40
0.2500000000000006
 40
0.5000000000000004
 40
0.5000000000000004
 40
0.6250000000000003
 40
0.6250000000000003
 40
0.7500000000000002
 40
0.7500000000000002
 40
1.0
 40
1.0
 40
1.0
 40
1.0
 10
86.19999999999999
 20
-4.83515632251212
 30
0.0
 10
86.20000000000002
 20
-4.889073694481766
 30
0.0
 10
86.18831321868686
 20
-4.951215465510415
 30
0.0
 10
86.1423974903609
 20
-5.083700409435508
 30
0.0
 10
86.10821201996504
 20
-5.154847603609781
 30
0.0
 10
85.9745816999847
 20
-5.378254860456479
 30
0.0
 10
85.8468604543622
 20
-5.535308624808309
 30
0.0
 10
85.62483790605322
 20
-5.759938086408937
 30
0.0
 10
85.54473191898435
 20
-5.834032644209074
 30
0.0
 10
85.3798408891704
 20
-5.974816052499506
 30
0.0
 10
85.29476842690377
 20
-6.041905318748931
 30
0.0
 10
85.03221539997492
 20
-6.233951198426936
 30
0.0
 10
84.85373488054546
 20
-6.345227146515811
 30
0.0
 10
84.67599999999999
 20
-6.439171218692366
 30
0.0
  0
LINE
  5
2C3
330
1F
100
AcDbEntity
  8
0
  6
Continuous
 62
     1
370
    15
100
AcDbLine
 10
86.19999999999999
 20
-0.8660254037844197
 30
0.0
 11
86.19999999999999
 21
-1.480306981946342
 31
0.0
  0
LINE
  5
2C4
330
1F
100
AcDbEntity
  8
0
  6
Continuous
 62
     1
370
    15
100
AcDbLine
 10
86.19999999999999
 20
-4.83515632251212
 30
0.0
 11
86.19999999999999
 21
-7.253764870742771
 31
0.0
  0
SPLINE
  5
2C5
330
1F
100
AcDbEntity
  8
0
  6
Continuous
 62
     1
370
    15
100
AcDbSpline
210
0.0
220
0.0
230
1.0
 70
     8
 71
     3
 72
    18
 73
    14
 74
     0
 42
0.000000001
 43
0.00000001
 40
0.0
 40
0.0
 40
0.0
 40
0.0
 40
0.1249999999999993
 40
0.1249999999999993
 40
0.2499999999999987
 40
0.2499999999999987
 40
0.4999999999999991
 40
0.4999999999999991
 40
0.6249999999999993
 40
0.6249999999999993
 40
0.7499999999999996
 40
0.7499999999999996
 40
1.0
 40
1.0
 40
1.0
 40
1.0
 10
86.19999999999999
 20
7.938261837455372
 30
0.0
 10
86.19999999999999
 20
8.046096581394664
 30
0.0
 10
86.18831321868686
 20
8.15620645313507
 30
0.0
 10
86.1423974903609
 20
8.365489973779859
 30
0.0
 10
86.10821201996504
 20
8.466324393464944
 30
0.0
 10
85.9745816999847
 20
8.75107271895871
 30
0.0
 10
85.84686045436223
 20
8.91028055548773
 30
0.0
 10
85.62483790605319
 20
9.090271635102937
 30
0.0
 10
85.54473191898435
 20
9.14130860755094
 30
0.0
 10
85.37984088917037
 20
9.222896402348397
 30
0.0
 10
85.29476842690377
 20
9.25389947524846
 30
0.0
 10
85.03221539997492
 20
9.319568227902806
 30
0.0
 10
84.85373488054543
 20
9.325659836803808
 30
0.0
 10
84.67599999999999
 20
9.297992001014407
 30
0.0
  0
LINE
  5
2C6
330
1F
100
AcDbEntity
  8
0
  6
Continuous
 62
     1
370
    15
100
AcDbLine
 10
86.19999999999999
 20
5.773457888796457
 30
0.0
 11
86.19999999999999
 21
7.938261837455372
 31
0.0
  0
LINE
  5
2C7
330
1F
100
AcDbEntity
  8
0
  6
Continuous
 62
     1
370
    15
100
AcDbLine
 10
86.19999999999999
 20
7.938261837455372
 30
0.0
 11
86.19999999999999
 21
8.001000000000019
 31
0.0
  0
LINE
  5
2C8
330
1F
100
AcDbEntity
  8
0
  6
Continuous
 62
     1
370
    15
100
AcDbLine
 10
86.19999999999999
 20
-8.000999999999976
 30
0.0
 11
86.19999999999999
 21
-7.979102876043981
 31
0.0
  0
LINE
  5
2C9
330
1F
100
AcDbEntity
  8
0
  6
Continuous
 62
     8
370
    15
100
AcDbLine
 10
84.67599999999999
 20
-9.524999999999977
 30
0.0
 11
84.67599999999999
 21
-9.50228900957049
 31
0.0
  0
LINE
  5
2CA
330
1F
100
AcDbEntity
  8
0
  6
Continuous
 62
     8
370
    15
100
AcDbLine
 10
84.67599999999999
 20
9.297992001014421
 30
0.0
 11
84.67599999999999
 21
9.52500000000002
 31
0.0
  0
LINE
  5
2CB
330
1F
100
AcDbEntity
  8
중심선
100
AcDbLine
 10
-56.50000000000001
 20
0.0
 30
0.0
 11
89.20000000000002
 21
0.0
 31
0.0
  0
CIRCLE
  5
2CC
330
1F
100
AcDbEntity
  8
외형선
100
AcDbCircle
 10
0.0
 20
0.0
 30
0.0
 40
3.0
  0
POINT
  5
2CD
330
1F
100
AcDbEntity
  8
치수문자_일반주서
100
AcDbPoint
 10
0.0
 20
0.0
 30
0.0
  0
DIMENSION
  5
2CE
330
1F
100
AcDbEntity
  8
치수문자_일반주서
100
AcDbDimension
  2
*D9
 10
86.19999999999997
 20
42.1805514180718
 30
0.0
 11
16.35000000000001
 21
42.1805514180718
 31
0.0
 70
   160
  1
<>
 71
     2
 42
139.7
  3
SLDDIMSTYLE0
100
AcDbAlignedDimension
 13
-53.49999999999999
 23
9.025000000000006
 33
0.0
 14
86.19999999999999
 24
8.001000000000019
 34
0.0
 50
-0.0000000000000058
100
AcDbRotatedDimension
1001
ACAD
1000
DSTYLE
1002
{
1070
   273
1070
     7
1002
}
  0
DIMENSION
  5
2CF
330
1F
100
AcDbEntity
  8
치수문자_일반주서
100
AcDbDimension
  2
*D10
 10
9.999999999999986
 20
25.62799453033796
 30
0.0
 11
47.26180339570445
 21
25.62799453033796
 31
0.0
 70
   160
  1
<>
 71
     2
 42
76.2
  3
SLDDIMSTYLE0
100
AcDbAlignedDimension
 13
86.19999999999999
 23
8.001000000000019
 33
0.0
 14
9.999999999999986
 24
-9.261820252409805
 34
0.0
 50
0.0000000000000027
100
AcDbRotatedDimension
1001
ACAD
1000
DSTYLE
1002
{
1070
   273
1070
     7
1002
}
  0
DIMENSION
  5
2D0
330
1F
100
AcDbEntity
  8
치수문자_일반주서
100
AcDbDimension
  2
*D11
 10
-66.49999999999997
 20
-9.525000000000027
 30
0.0
 11
-66.50000000000001
 21
0.0000000000000142
 31
0.0
 70
   160
  1
%%c<>
 71
     2
 42
19.05
 52
-270.0
  3
SLDDIMSTYLE1
100
AcDbAlignedDimension
 13
-52.99999999999999
 23
9.52500000000002
 33
0.0
 14
-52.99999999999999
 24
-9.524999999999977
 34
0.0
 50
90.0000000000002
100
AcDbRotatedDimension
1001
ACAD
1000
DSTYLE
1002
{
1070
   273
1070
     7
1002
}
  0
INSERT
  5
2D1
330
1F
100
AcDbEntity
  8
외형선
100
AcDbBlockReference
  2
SW_DOWELSYMBOL_0
 10
0.0
 20
0.0
 30
0.0
  0
DIMENSION
  5
2F6
330
1F
100
AcDbEntity
  8
치수문자_일반주서
100
AcDbDimension
  2
*D12
 10
99.56928032931557
 20
-9.524999999999979
 30
0.0
 11
99.56928032931557
 21
0.0000000000000284
 31
0.0
 70
   160
  1
{%%c<>}
 71
     5
 42
19.05
  3
SLDDIMSTYLE1
100
AcDbAlignedDimension
 13
84.67599999999999
 23
9.52500000000002
 33
0.0
 14
84.67600000000004
 24
-9.524999999999977
 34
0.0
 50
90.0
100
AcDbRotatedDimension
1001
ACAD
1000
DSTYLE
1002
{
1070
   273
1070
     7
1002
}
  0
ARC
  5
30B
330
1F
100
AcDbEntity
  8
0
  6
Continuous
 62
     1
370
    15
100
AcDbCircle
 10
84.67599999999999
 20
8.00100000000002
 30
0.0
 40
1.524
100
AcDbArc
 50
358.8158521602204
 51
90.0
  0
DIMENSION
  5
30D
330
1F
100
AcDbEntity
  8
치수문자_일반주서
100
AcDbDimension
  2
*D13
 10
84.67599999999999
 20
8.00100000000002
 30
0.0
 11
100.5157790299222
 21
24.98190319581785
 31
0.0
 70
   164
  1
<>
 71
     5
 42
1.523999999999996
  3
SLDDIMSTYLE1
100
AcDbRadialDimension
 15
85.71553505836559
 25
9.115424902103708
 35
0.0
 40
0.0
1001
ACAD
1000
DSTYLE
1002
{
1070
   171
1070
     3
1070
   273
1070
     2
1002
}
1001
ACAD_DSTYLE_DIMRADIAL_EXTENSION
1070
   387
1070
     1
1070
   388
1040
6.262518028545053
1070
   390
1040
1.570796326794897
  0
LINE
  5
376
330
1F
100
AcDbEntity
  8
0
  6
Continuous
 62
     4
370
    15
100
AcDbLine
 10
-33.49432499999997
 20
7.620000000000012
 30
0.0
 11
-21.91192499999996
 21
7.620000000000012
 31
0.0
  0
LINE
  5
377
330
1F
100
AcDbEntity
  8
0
  6
Continuous
 62
     4
370
    15
100
AcDbLine
 10
-33.49432499999997
 20
7.619999999999997
 30
0.0
 11
-35.39932500000011
 21
9.525000000000027
 31
0.0
  0
LINE
  5
378
330
1F
100
AcDbEntity
  8
0
  6
Continuous
 62
     4
370
    15
100
AcDbLine
 10
-21.91192499999996
 20
7.619999999999997
 30
0.0
 11
-20.00692499999999
 21
9.525000000000027
 31
0.0
  0
LINE
  5
379
330
1F
100
AcDbEntity
  8
0
  6
Continuous
 62
     4
370
    15
100
AcDbLine
 10
-35.3993250000001
 20
9.52500000000002
 30
0.0
 11
-52.99999999999999
 21
9.52500000000002
 31
0.0
  0
ENDSEC
  0
SECTION
  2
OBJECTS
  0
DICTIONARY
  5
C
330
0
100
AcDbDictionary
281
     1
  3
ACAD_GROUP
350
D
  3
ACAD_IMAGE_VARS
350
158
  3
ACAD_LAYOUT
350
1A
  3
ACAD_MLINESTYLE
350
17
  3
ACAD_PLOTSETTINGS
350
19
  3
ACAD_PLOTSTYLENAME
350
E
  3
ACAD_SCALELIST
350
47
  3
APPDATA
350
156
  3
DWGPROPS
350
39E
  0
DICTIONARY
  5
368
330
2
100
AcDbDictionary
280
     1
281
     1
  3
ACAD_LAYERSTATES
360
369
  0
DICTIONARY
  5
39C
330
1F
100
AcDbDictionary
280
     1
281
     1
  3
DIM_BOUNDING_BOXES_V1
360
39D
  0
DICTIONARY
  5
D
102
{ACAD_REACTORS
330
C
102
}
330
C
100
AcDbDictionary
281
     1
  0
RASTERVARIABLES
  5
158
102
{ACAD_REACTORS
330
C
102
}
330
C
100
AcDbRasterVariables
 90
        0
 70
     1
 71
     1
 72
     1
  0
DICTIONARY
  5
1A
102
{ACAD_REACTORS
330
C
102
}
330
C
100
AcDbDictionary
281
     1
  3
Layout1
350
1E
  3
Layout2
350
26
  3
Model
350
22
  0
DICTIONARY
  5
17
102
{ACAD_REACTORS
330
C
102
}
330
C
100
AcDbDictionary
281
     1
  3
Standard
350
18
  0
DICTIONARY
  5
19
102
{ACAD_REACTORS
330
C
102
}
330
C
100
AcDbDictionary
281
     1
  0
ACDBDICTIONARYWDFLT
  5
E
102
{ACAD_REACTORS
330
C
102
}
330
C
100
AcDbDictionary
281
     1
  3
Normal
350
F
100
AcDbDictionaryWithDefault
340
F
  0
DICTIONARY
  5
47
102
{ACAD_REACTORS
330
C
102
}
330
C
100
AcDbDictionary
281
     1
  3
A0
350
48
  3
A1
350
49
  3
A2
350
4A
  3
A3
350
4B
  3
A4
350
4C
  3
A5
350
4D
  3
A6
350
4E
  3
A7
350
4F
  3
A8
350
50
  3
A9
350
51
  3
B0
350
52
  3
B1
350
53
  3
B2
350
54
  3
B3
350
55
  3
B4
350
56
  3
B5
350
57
  3
B6
350
58
  3
B7
350
59
  3
B8
350
5A
  3
B9
350
5B
  3
C0
350
5C
  3
C1
350
5D
  3
C2
350
5E
  3
C3
350
5F
  3
C4
350
60
  3
C5
350
61
  3
C6
350
62
  3
C7
350
63
  3
C8
350
64
  3
C9
350
65
  3
D0
350
66
  3
D1
350
67
  3
D2
350
68
  0
DICTIONARY
  5
156
102
{ACAD_REACTORS
330
C
102
}
330
C
100
AcDbDictionary
281
     1
  0
XRECORD
  5
39E
102
{ACAD_REACTORS
330
C
102
}
330
C
100
AcDbXrecord
280
     1
  1
DWGPROPS COOKIE
  2

  3

  4

  6

  7

  8
12015018
  9

300
=
301
=
302
=
303
=
304
=
305
=
306
=
307
=
308
=
309
=
 40
0.0
 41
2458236.376058426
 42
2459697.069005752
  1

 90
        0
  0
DICTIONARY
  5
369
102
{ACAD_REACTORS
330
368
102
}
330
368
100
AcDbDictionary
281
     1
  0
DICTIONARY
  5
39D
102
{ACAD_REACTORS
330
39C
102
}
330
39C
100
AcDbDictionary
281
     1
  0
LAYOUT
  5
1E
102
{ACAD_REACTORS
330
1A
102
}
330
1A
100
AcDbPlotSettings
  1

  2
none_device
  4

  6

 40
0.0
 41
0.0
 42
0.0
 43
0.0
 44
0.0
 45
0.0
 46
0.0
 47
0.0
 48
0.0
 49
0.0
140
0.0
141
0.0
142
1.0
143
1.0
 70
   688
 72
     1
 73
     0
 74
     5
  7

 75
    16
147
1.0
148
0.0
149
0.0
100
AcDbLayout
  1
Layout1
 70
     1
 71
     1
 10
0.0
 20
0.0
 11
420.0
 21
297.0
 12
0.0
 22
0.0
 32
0.0
 14
1.000000000000000E+20
 24
1.000000000000000E+20
 34
1.000000000000000E+20
 15
-1.000000000000000E+20
 25
-1.000000000000000E+20
 35
-1.000000000000000E+20
146
0.0
 13
0.0
 23
0.0
 33
0.0
 16
1.0
 26
0.0
 36
0.0
 17
0.0
 27
1.0
 37
0.0
 76
     0
330
1B
  0
LAYOUT
  5
26
102
{ACAD_REACTORS
330
1A
102
}
330
1A
100
AcDbPlotSettings
  1

  2
none_device
  4

  6

 40
0.0
 41
0.0
 42
0.0
 43
0.0
 44
0.0
 45
0.0
 46
0.0
 47
0.0
 48
0.0
 49
0.0
140
0.0
141
0.0
142
1.0
143
1.0
 70
   688
 72
     1
 73
     0
 74
     5
  7

 75
    16
147
1.0
148
0.0
149
0.0
100
AcDbLayout
  1
Layout2
 70
     1
 71
     2
 10
0.0
 20
0.0
 11
0.0
 21
0.0
 12
0.0
 22
0.0
 32
0.0
 14
0.0
 24
0.0
 34
0.0
 15
0.0
 25
0.0
 35
0.0
146
0.0
 13
0.0
 23
0.0
 33
0.0
 16
1.0
 26
0.0
 36
0.0
 17
0.0
 27
1.0
 37
0.0
 76
     0
330
23
  0
LAYOUT
  5
22
102
{ACAD_REACTORS
330
1A
102
}
330
1A
100
AcDbPlotSettings
  1

  2
none_device
  4
ANSI_A_(11.00_x_8.50_Inches)
  6

 40
6.35
 41
19.05
 42
6.35000508
 43
19.05000254
 44
279.4
 45
215.9
 46
112.8483620103023
 47
87.24088821947862
 48
0.0
 49
0.0
140
0.0
141
0.0
142
0.0654082017666865
143
1.0
 70
  1696
 72
     0
 73
     0
 74
     0
  7

 75
     0
147
0.0235690232323232
148
0.0
149
0.0
100
AcDbLayout
  1
Model
 70
     1
 71
     0
 10
0.0
 20
0.0
 11
420.0
 21
297.0
 12
0.0
 22
0.0
 32
0.0
 14
-70.87500000000007
 24
-49.97180738881174
 34
0.0
 15
110.8113710818945
 25
46.5555514180718
 35
0.0
146
0.0
 13
0.0
 23
0.0
 33
0.0
 16
1.0
 26
0.0
 36
0.0
 17
0.0
 27
1.0
 37
0.0
 76
     0
330
1F
331
29
  0
MLINESTYLE
  5
18
102
{ACAD_REACTORS
330
17
102
}
330
17
100
AcDbMlineStyle
  2
Standard
 70
     0
  3

 62
   256
 51
90.0
 52
90.0
 71
     2
 49
0.5
 62
   256
  6
BYLAYER
 49
-0.5
 62
   256
  6
BYLAYER
  0
ACDBPLACEHOLDER
  5
F
102
{ACAD_REACTORS
330
E
102
}
330
E
  0
SCALE
  5
48
102
{ACAD_REACTORS
330
47
102
}
330
47
100
AcDbScale
 70
     0
300
1:1
140
1.0
141
1.0
290
     1
  0
SCALE
  5
49
102
{ACAD_REACTORS
330
47
102
}
330
47
100
AcDbScale
 70
     0
300
1:2
140
1.0
141
2.0
290
     0
  0
SCALE
  5
4A
102
{ACAD_REACTORS
330
47
102
}
330
47
100
AcDbScale
 70
     0
300
1:4
140
1.0
141
4.0
290
     0
  0
SCALE
  5
4B
102
{ACAD_REACTORS
330
47
102
}
330
47
100
AcDbScale
 70
     0
300
1:5
140
1.0
141
5.0
290
     0
  0
SCALE
  5
4C
102
{ACAD_REACTORS
330
47
102
}
330
47
100
AcDbScale
 70
     0
300
1:8
140
1.0
141
8.0
290
     0
  0
SCALE
  5
4D
102
{ACAD_REACTORS
330
47
102
}
330
47
100
AcDbScale
 70
     0
300
1:10
140
1.0
141
10.0
290
     0
  0
SCALE
  5
4E
102
{ACAD_REACTORS
330
47
102
}
330
47
100
AcDbScale
 70
     0
300
1:16
140
1.0
141
16.0
290
     0
  0
SCALE
  5
4F
102
{ACAD_REACTORS
330
47
102
}
330
47
100
AcDbScale
 70
     0
300
1:20
140
1.0
141
20.0
290
     0
  0
SCALE
  5
50
102
{ACAD_REACTORS
330
47
102
}
330
47
100
AcDbScale
 70
     0
300
1:30
140
1.0
141
30.0
290
     0
  0
SCALE
  5
51
102
{ACAD_REACTORS
330
47
102
}
330
47
100
AcDbScale
 70
     0
300
1:40
140
1.0
141
40.0
290
     0
  0
SCALE
  5
52
102
{ACAD_REACTORS
330
47
102
}
330
47
100
AcDbScale
 70
     0
300
1:50
140
1.0
141
50.0
290
     0
  0
SCALE
  5
53
102
{ACAD_REACTORS
330
47
102
}
330
47
100
AcDbScale
 70
     0
300
1:100
140
1.0
141
100.0
290
     0
  0
SCALE
  5
54
102
{ACAD_REACTORS
330
47
102
}
330
47
100
AcDbScale
 70
     0
300
2:1
140
2.0
141
1.0
290
     0
  0
SCALE
  5
55
102
{ACAD_REACTORS
330
47
102
}
330
47
100
AcDbScale
 70
     0
300
4:1
140
4.0
141
1.0
290
     0
  0
SCALE
  5
56
102
{ACAD_REACTORS
330
47
102
}
330
47
100
AcDbScale
 70
     0
300
8:1
140
8.0
141
1.0
290
     0
  0
SCALE
  5
57
102
{ACAD_REACTORS
330
47
102
}
330
47
100
AcDbScale
 70
     0
300
10:1
140
10.0
141
1.0
290
     0
  0
SCALE
  5
58
102
{ACAD_REACTORS
330
47
102
}
330
47
100
AcDbScale
 70
     0
300
100:1
140
100.0
141
1.0
290
     0
  0
SCALE
  5
59
102
{ACAD_REACTORS
330
47
102
}
330
47
100
AcDbScale
 70
     0
300
1/128" = 1'-0"
140
0.0078125
141
12.0
290
     0
  0
SCALE
  5
5A
102
{ACAD_REACTORS
330
47
102
}
330
47
100
AcDbScale
 70
     0
300
1/64" = 1'-0"
140
0.015625
141
12.0
290
     0
  0
SCALE
  5
5B
102
{ACAD_REACTORS
330
47
102
}
330
47
100
AcDbScale
 70
     0
300
1/32" = 1'-0"
140
0.03125
141
12.0
290
     0
  0
SCALE
  5
5C
102
{ACAD_REACTORS
330
47
102
}
330
47
100
AcDbScale
 70
     0
300
1/16" = 1'-0"
140
0.0625
141
12.0
290
     0
  0
SCALE
  5
5D
102
{ACAD_REACTORS
330
47
102
}
330
47
100
AcDbScale
 70
     0
300
3/32" = 1'-0"
140
0.09375
141
12.0
290
     0
  0
SCALE
  5
5E
102
{ACAD_REACTORS
330
47
102
}
330
47
100
AcDbScale
 70
     0
300
1/8" = 1'-0"
140
0.125
141
12.0
290
     0
  0
SCALE
  5
5F
102
{ACAD_REACTORS
330
47
102
}
330
47
100
AcDbScale
 70
     0
300
3/16" = 1'-0"
140
0.1875
141
12.0
290
     0
  0
SCALE
  5
60
102
{ACAD_REACTORS
330
47
102
}
330
47
100
AcDbScale
 70
     0
300
1/4" = 1'-0"
140
0.25
141
12.0
290
     0
  0
SCALE
  5
61
102
{ACAD_REACTORS
330
47
102
}
330
47
100
AcDbScale
 70
     0
300
3/8" = 1'-0"
140
0.375
141
12.0
290
     0
  0
SCALE
  5
62
102
{ACAD_REACTORS
330
47
102
}
330
47
100
AcDbScale
 70
     0
300
1/2" = 1'-0"
140
0.5
141
12.0
290
     0
  0
SCALE
  5
63
102
{ACAD_REACTORS
330
47
102
}
330
47
100
AcDbScale
 70
     0
300
3/4" = 1'-0"
140
0.75
141
12.0
290
     0
  0
SCALE
  5
64
102
{ACAD_REACTORS
330
47
102
}
330
47
100
AcDbScale
 70
     0
300
1" = 1'-0"
140
1.0
141
12.0
290
     0
  0
SCALE
  5
65
102
{ACAD_REACTORS
330
47
102
}
330
47
100
AcDbScale
 70
     0
300
1-1/2" = 1'-0"
140
1.5
141
12.0
290
     0
  0
SCALE
  5
66
102
{ACAD_REACTORS
330
47
102
}
330
47
100
AcDbScale
 70
     0
300
3" = 1'-0"
140
3.0
141
12.0
290
     0
  0
SCALE
  5
67
102
{ACAD_REACTORS
330
47
102
}
330
47
100
AcDbScale
 70
     0
300
6" = 1'-0"
140
6.0
141
12.0
290
     0
  0
SCALE
  5
68
102
{ACAD_REACTORS
330
47
102
}
330
47
100
AcDbScale
 70
     0
300
1'-0" = 1'-0"
140
12.0
141
12.0
290
     0
  0
ENDSEC
  0
EOF
