  0
SECTION
  2
HEADER
  9
$ACADVER
  1
AC1015
  9
$ACADMAINTVER
 70
     6
  9
$DWGCODEPAGE
  3
ANSI_949
  9
$INSBASE
 10
0.0
 20
0.0
 30
0.0
  9
$EXTMIN
 10
-70.87500000000007
 20
-49.71142936356761
 30
0.0
  9
$EXTMAX
 10
109.9375005189638
 20
46.55555141807179
 30
0.0
  9
$LIMMIN
 10
0.0
 20
0.0
  9
$LIMMAX
 10
420.0
 20
297.0
  9
$ORTHOMODE
 70
     0
  9
$REGENMODE
 70
     1
  9
$FILLMODE
 70
     1
  9
$QTEXTMODE
 70
     0
  9
$MIRRTEXT
 70
     1
  9
$LTSCALE
 40
1.0
  9
$ATTMODE
 70
     1
  9
$TEXTSIZE
 40
3.5
  9
$TRACEWID
 40
1.0
  9
$TEXTSTYLE
  7
Standard
  9
$CLAYER
  8
0
  9
$CELTYPE
  6
ByLayer
  9
$CECOLOR
 62
   256
  9
$CELTSCALE
 40
1.0
  9
$DISPSILH
 70
     0
  9
$DIMSCALE
 40
1.0
  9
$DIMASZ
 40
3.302
  9
$DIMEXO
 40
1.0
  9
$DIMDLI
 40
3.75
  9
$DIMRND
 40
0.0
  9
$DIMDLE
 40
0.0
  9
$DIMEXE
 40
1.0
  9
$DIMTP
 40
0.0
  9
$DIMTM
 40
0.0
  9
$DIMTXT
 40
3.5
  9
$DIMCEN
 40
2.5
  9
$DIMTSZ
 40
0.0
  9
$DIMTOL
 70
     0
  9
$DIMLIM
 70
     0
  9
$DIMTIH
 70
     1
  9
$DIMTOH
 70
     1
  9
$DIMSE1
 70
     0
  9
$DIMSE2
 70
     0
  9
$DIMTAD
 70
     1
  9
$DIMZIN
 70
     0
  9
$DIMBLK
  1

  9
$DIMASO
 70
     1
  9
$DIMSHO
 70
     1
  9
$DIMPOST
  1

  9
$DIMAPOST
  1

  9
$DIMALT
 70
     0
  9
$DIMALTD
 70
     3
  9
$DIMALTF
 40
0.0393700787401575
  9
$DIMLFAC
 40
1.0
  9
$DIMTOFL
 70
     1
  9
$DIMTVP
 40
0.0
  9
$DIMTIX
 70
     0
  9
$DIMSOXD
 70
     0
  9
$DIMSAH
 70
     0
  9
$DIMBLK1
  1

  9
$DIMBLK2
  1

  9
$DIMSTYLE
  2
ISO-25
  9
$DIMCLRD
 70
     0
  9
$DIMCLRE
 70
     0
  9
$DIMCLRT
 70
     0
  9
$DIMTFAC
 40
1.0
  9
$DIMGAP
 40
1.524
  9
$DIMJUST
 70
     0
  9
$DIMSD1
 70
     0
  9
$DIMSD2
 70
     0
  9
$DIMTOLJ
 70
     0
  9
$DIMTZIN
 70
     0
  9
$DIMALTZ
 70
     0
  9
$DIMALTTZ
 70
     0
  9
$DIMUPT
 70
     0
  9
$DIMDEC
 70
     2
  9
$DIMTDEC
 70
     2
  9
$DIMALTU
 70
     2
  9
$DIMALTTD
 70
     3
  9
$DIMTXSTY
  7
Standard
  9
$DIMAUNIT
 70
     0
  9
$DIMADEC
 70
     2
  9
$DIMALTRND
 40
0.0
  9
$DIMAZIN
 70
     0
  9
$DIMDSEP
 70
    44
  9
$DIMATFIT
 70
     3
  9
$DIMFRAC
 70
     0
  9
$DIMLDRBLK
  1

  9
$DIMLUNIT
 70
     2
  9
$DIMLWD
 70
    -2
  9
$DIMLWE
 70
    -2
  9
$DIMTMOVE
 70
     0
  9
$LUNITS
 70
     2
  9
$LUPREC
 70
     2
  9
$SKETCHINC
 40
1.0
  9
$FILLETRAD
 40
10.0
  9
$AUNITS
 70
     0
  9
$AUPREC
 70
     2
  9
$MENU
  1
.
  9
$ELEVATION
 40
0.0
  9
$PELEVATION
 40
0.0
  9
$THICKNESS
 40
0.0
  9
$LIMCHECK
 70
     0
  9
$CHAMFERA
 40
0.0
  9
$CHAMFERB
 40
0.0
  9
$CHAMFERC
 40
0.0
  9
$CHAMFERD
 40
0.0
  9
$SKPOLY
 70
     0
  9
$TDCREATE
 40
2458236.750862153
  9
$TDUCREATE
 40
2458236.375862153
  9
$TDUPDATE
 40
2459697.443827558
  9
$TDUUPDATE
 40
2459697.068827558
  9
$TDINDWG
 40
0.0017209722
  9
$TDUSRTIMER
 40
0.0001331829
  9
$USRTIMER
 70
     1
  9
$ANGBASE
 50
0.0
  9
$ANGDIR
 70
     0
  9
$PDMODE
 70
     0
  9
$PDSIZE
 40
-1.0
  9
$PLINEWID
 40
0.0
  9
$SPLFRAME
 70
     0
  9
$SPLINETYPE
 70
     6
  9
$SPLINESEGS
 70
     8
  9
$HANDSEED
  5
22E
  9
$SURFTAB1
 70
     6
  9
$SURFTAB2
 70
     6
  9
$SURFTYPE
 70
     6
  9
$SURFU
 70
     6
  9
$SURFV
 70
     6
  9
$UCSBASE
  2

  9
$UCSNAME
  2

  9
$UCSORG
 10
0.0
 20
0.0
 30
0.0
  9
$UCSXDIR
 10
1.0
 20
0.0
 30
0.0
  9
$UCSYDIR
 10
0.0
 20
1.0
 30
0.0
  9
$UCSORTHOREF
  2

  9
$UCSORTHOVIEW
 70
     0
  9
$UCSORGTOP
 10
0.0
 20
0.0
 30
0.0
  9
$UCSORGBOTTOM
 10
0.0
 20
0.0
 30
0.0
  9
$UCSORGLEFT
 10
0.0
 20
0.0
 30
0.0
  9
$UCSORGRIGHT
 10
0.0
 20
0.0
 30
0.0
  9
$UCSORGFRONT
 10
0.0
 20
0.0
 30
0.0
  9
$UCSORGBACK
 10
0.0
 20
0.0
 30
0.0
  9
$PUCSBASE
  2

  9
$PUCSNAME
  2

  9
$PUCSORG
 10
0.0
 20
0.0
 30
0.0
  9
$PUCSXDIR
 10
1.0
 20
0.0
 30
0.0
  9
$PUCSYDIR
 10
0.0
 20
1.0
 30
0.0
  9
$PUCSORTHOREF
  2

  9
$PUCSORTHOVIEW
 70
     0
  9
$PUCSORGTOP
 10
0.0
 20
0.0
 30
0.0
  9
$PUCSORGBOTTOM
 10
0.0
 20
0.0
 30
0.0
  9
$PUCSORGLEFT
 10
0.0
 20
0.0
 30
0.0
  9
$PUCSORGRIGHT
 10
0.0
 20
0.0
 30
0.0
  9
$PUCSORGFRONT
 10
0.0
 20
0.0
 30
0.0
  9
$PUCSORGBACK
 10
0.0
 20
0.0
 30
0.0
  9
$USERI1
 70
     0
  9
$USERI2
 70
     0
  9
$USERI3
 70
     0
  9
$USERI4
 70
     0
  9
$USERI5
 70
     0
  9
$USERR1
 40
0.0
  9
$USERR2
 40
0.0
  9
$USERR3
 40
0.0
  9
$USERR4
 40
0.0
  9
$USERR5
 40
0.0
  9
$WORLDVIEW
 70
     1
  9
$SHADEDGE
 70
     3
  9
$SHADEDIF
 70
    70
  9
$TILEMODE
 70
     1
  9
$MAXACTVP
 70
    64
  9
$PINSBASE
 10
0.0
 20
0.0
 30
0.0
  9
$PLIMCHECK
 70
     0
  9
$PEXTMIN
 10
1.000000000000000E+20
 20
1.000000000000000E+20
 30
1.000000000000000E+20
  9
$PEXTMAX
 10
-1.000000000000000E+20
 20
-1.000000000000000E+20
 30
-1.000000000000000E+20
  9
$PLIMMIN
 10
0.0
 20
0.0
  9
$PLIMMAX
 10
0.0
 20
0.0
  9
$UNITMODE
 70
     0
  9
$VISRETAIN
 70
     1
  9
$PLINEGEN
 70
     0
  9
$PSLTSCALE
 70
     1
  9
$TREEDEPTH
 70
  3020
  9
$CMLSTYLE
  2
Standard
  9
$CMLJUST
 70
     0
  9
$CMLSCALE
 40
20.0
  9
$PROXYGRAPHICS
 70
     1
  9
$MEASUREMENT
 70
     1
  9
$CELWEIGHT
370
    -1
  9
$ENDCAPS
280
     0
  9
$JOINSTYLE
280
     0
  9
$LWDISPLAY
290
     1
  9
$INSUNITS
 70
     4
  9
$HYPERLINKBASE
  1

  9
$STYLESHEET
  1

  9
$XEDIT
290
     1
  9
$CEPSNTYPE
380
     0
  9
$PSTYLEMODE
290
     1
  9
$FINGERPRINTGUID
  2
{5A79C2D5-0649-4727-943E-9AABA9A0DFB0}
  9
$VERSIONGUID
  2
{FAEB1C32-E019-11D5-929B-00C0DF256EC4}
  9
$EXTNAMES
290
     1
  9
$PSVPSCALE
 40
0.0
  9
$OLESTARTUP
290
     0
  0
ENDSEC
  0
SECTION
  2
CLASSES
  0
CLASS
  1
ACDBDICTIONARYWDFLT
  2
AcDbDictionaryWithDefault
  3
ObjectDBX Classes
 90
        0
280
     0
281
     0
  0
CLASS
  1
VISUALSTYLE
  2
AcDbVisualStyle
  3
ObjectDBX Classes
 90
     4095
280
     0
281
     0
  0
CLASS
  1
MATERIAL
  2
AcDbMaterial
  3
ObjectDBX Classes
 90
     1153
280
     0
281
     0
  0
CLASS
  1
SCALE
  2
AcDbScale
  3
ObjectDBX Classes
 90
     1153
280
     0
281
     0
  0
CLASS
  1
SUN
  2
AcDbSun
  3
SCENEOE
 90
     1153
280
     0
281
     0
  0
CLASS
  1
ACDBPLACEHOLDER
  2
AcDbPlaceHolder
  3
ObjectDBX Classes
 90
        0
280
     0
281
     0
  0
CLASS
  1
LAYOUT
  2
AcDbLayout
  3
ObjectDBX Classes
 90
        0
280
     0
281
     0
  0
CLASS
  1
TABLESTYLE
  2
AcDbTableStyle
  3
ObjectDBX Classes
 90
     4095
280
     0
281
     0
  0
CLASS
  1
MLEADERSTYLE
  2
AcDbMLeaderStyle
  3
ACDB_MLEADERSTYLE_CLASS
 90
     4095
280
     0
281
     0
  0
CLASS
  1
RASTERVARIABLES
  2
AcDbRasterVariables
  3
ISM
 90
        0
280
     0
281
     0
  0
CLASS
  1
DIMASSOC
  2
AcDbDimAssoc
  3
"AcDbDimAssoc|Product Desc:     AcDim ARX App For Dimension|Company:          Autodesk, Inc.|WEB Address:      www.autodesk.com"
 90
        0
280
     0
281
     0
  0
ENDSEC
  0
SECTION
  2
TABLES
  0
TABLE
  2
VPORT
  5
8
330
0
100
AcDbSymbolTable
 70
     1
  0
VPORT
  5
29
330
8
100
AcDbSymbolTableRecord
100
AcDbViewportTableRecord
  2
*Active
 70
     0
 10
0.0
 20
0.0
 11
1.0
 21
1.0
 12
19.53125025948187
 22
-1.577938972747909
 13
0.0
 23
0.0
 14
10.0
 24
10.0
 15
10.0
 25
10.0
 16
0.0
 26
0.0
 36
1.0
 17
0.0
 27
0.0
 37
0.0
 40
98.1923203972722
 41
1.898569570871261
 42
50.0
 43
0.0
 44
0.0
 50
0.0
 51
0.0
 71
    16
 72
  2000
 73
     1
 74
     3
 75
     0
 76
     0
 77
     0
 78
     0
281
     0
 65
     1
110
0.0
120
0.0
130
0.0
111
1.0
121
0.0
131
0.0
112
0.0
122
1.0
132
0.0
 79
     0
146
0.0
  0
ENDTAB
  0
TABLE
  2
LTYPE
  5
5
330
0
100
AcDbSymbolTable
 70
     6
  0
LTYPE
  5
14
330
5
100
AcDbSymbolTableRecord
100
AcDbLinetypeTableRecord
  2
ByBlock
 70
     0
  3

 72
    65
 73
     0
 40
0.0
  0
LTYPE
  5
15
330
5
100
AcDbSymbolTableRecord
100
AcDbLinetypeTableRecord
  2
ByLayer
 70
     0
  3

 72
    65
 73
     0
 40
0.0
  0
LTYPE
  5
16
330
5
100
AcDbSymbolTableRecord
100
AcDbLinetypeTableRecord
  2
Continuous
 70
     0
  3
Solid line
 72
    65
 73
     0
 40
0.0
  0
LTYPE
  5
6A
330
5
100
AcDbSymbolTableRecord
100
AcDbLinetypeTableRecord
  2
HIDDEN
 70
     0
  3
Hidden __ __ __ __ __ __ __ __ __ __ __ __ __ __
 72
    65
 73
     2
 40
1.905
 49
1.27
 74
     0
 49
-0.635
 74
     0
  0
LTYPE
  5
6B
330
5
100
AcDbSymbolTableRecord
100
AcDbLinetypeTableRecord
  2
PHANTOM
 70
     0
  3
Phantom ______  __  __  ______  __  __  ______
 72
    65
 73
     6
 40
12.7
 49
6.35
 74
     0
 49
-1.27
 74
     0
 49
1.27
 74
     0
 49
-1.27
 74
     0
 49
1.27
 74
     0
 49
-1.27
 74
     0
  0
LTYPE
  5
6C
330
5
100
AcDbSymbolTableRecord
100
AcDbLinetypeTableRecord
  2
CENTER
 70
     0
  3
Center ____ _ ____ _ ____ _ ____ _ ____ _ ____
 72
    65
 73
     4
 40
10.16
 49
6.35
 74
     0
 49
-1.27
 74
     0
 49
1.27
 74
     0
 49
-1.27
 74
     0
  0
LTYPE
  5
6D
330
5
100
AcDbSymbolTableRecord
100
AcDbLinetypeTableRecord
  2
CENTERX2
 70
     0
  3
Center (2x) ________  __  ________  __  _____
 72
    65
 73
     4
 40
20.32
 49
12.7
 74
     0
 49
-2.54
 74
     0
 49
2.54
 74
     0
 49
-2.54
 74
     0
  0
LTYPE
  5
6E
330
5
100
AcDbSymbolTableRecord
100
AcDbLinetypeTableRecord
  2
DOT2
 70
     0
  3
Dot (.5x) ........................................
 72
    65
 73
     2
 40
0.635
 49
0.0
 74
     0
 49
-0.635
 74
     0
  0
ENDTAB
  0
TABLE
  2
LAYER
  5
2
102
{ACAD_XDICTIONARY
360
1F7
102
}
330
0
100
AcDbSymbolTable
 70
    17
  0
LAYER
  5
10
330
2
100
AcDbSymbolTableRecord
100
AcDbLayerTableRecord
  2
0
 70
     0
 62
     7
  6
Continuous
370
    -3
390
F
  0
LAYER
  5
6F
330
2
100
AcDbSymbolTableRecord
100
AcDbLayerTableRecord
  2
FORMAT
 70
     0
 62
     2
  6
Continuous
370
    -3
390
F
  0
LAYER
  5
70
330
2
100
AcDbSymbolTableRecord
100
AcDbLayerTableRecord
  2
외형선
 70
     0
 62
   100
  6
Continuous
370
    30
390
F
  0
LAYER
  5
71
330
2
100
AcDbSymbolTableRecord
100
AcDbLayerTableRecord
  2
숨은선
 70
     0
 62
     2
  6
HIDDEN
370
    15
390
F
  0
LAYER
  5
72
330
2
100
AcDbSymbolTableRecord
100
AcDbLayerTableRecord
  2
중심선
 70
     0
 62
     1
  6
CENTERX2
370
    -3
390
F
  0
LAYER
  5
73
330
2
100
AcDbSymbolTableRecord
100
AcDbLayerTableRecord
  2
파단선
 70
     0
 62
     4
  6
Continuous
370
    -3
390
F
  0
LAYER
  5
74
330
2
100
AcDbSymbolTableRecord
100
AcDbLayerTableRecord
  2
해칭선
 70
     0
 62
     4
  6
Continuous
370
    -3
390
F
  0
LAYER
  5
75
330
2
100
AcDbSymbolTableRecord
100
AcDbLayerTableRecord
  2
가는실선
 70
     0
 62
     4
  6
Continuous
370
    -3
390
F
  0
LAYER
  5
76
330
2
100
AcDbSymbolTableRecord
100
AcDbLayerTableRecord
  2
치수_보조선
 70
     0
 62
     4
  6
Continuous
370
    -3
390
F
  0
LAYER
  5
77
330
2
100
AcDbSymbolTableRecord
100
AcDbLayerTableRecord
  2
치수문자_일반주서
 70
     0
 62
     7
  6
Continuous
370
    15
390
F
  0
LAYER
  5
78
330
2
100
AcDbSymbolTableRecord
100
AcDbLayerTableRecord
  2
개별주서
 70
     0
 62
   100
  6
Continuous
370
    30
390
F
  0
LAYER
  5
79
330
2
100
AcDbSymbolTableRecord
100
AcDbLayerTableRecord
  2
중간선
 70
     0
 62
     2
  6
Continuous
370
    15
390
F
  0
LAYER
  5
7A
330
2
100
AcDbSymbolTableRecord
100
AcDbLayerTableRecord
  2
윤곽선
 70
     0
 62
     3
  6
Continuous
370
    40
390
F
  0
LAYER
  5
7B
330
2
100
AcDbSymbolTableRecord
100
AcDbLayerTableRecord
  2
중심마크
 70
     0
 62
   100
  6
Continuous
370
    30
390
F
  0
LAYER
  5
7C
330
2
100
AcDbSymbolTableRecord
100
AcDbLayerTableRecord
  2
가상선
 70
     0
 62
     4
  6
PHANTOM
370
    -3
390
F
  0
LAYER
  5
7D
330
2
100
AcDbSymbolTableRecord
100
AcDbLayerTableRecord
  2
특수지정선
 70
     0
 62
     5
  6
CENTERX2
370
    60
390
F
  0
LAYER
  5
175
330
2
100
AcDbSymbolTableRecord
100
AcDbLayerTableRecord
  2
Defpoints
 70
     0
 62
     7
  6
Continuous
290
     0
370
    -3
390
F
  0
ENDTAB
  0
TABLE
  2
STYLE
  5
3
330
0
100
AcDbSymbolTable
 70
     2
  0
STYLE
  5
11
330
3
100
AcDbSymbolTableRecord
100
AcDbTextStyleTableRecord
  2
Standard
 70
     0
 40
0.0
 41
1.0
 50
0.0
 71
     0
 42
3.5
  3
txt
  4

  0
STYLE
  5
93
330
3
100
AcDbSymbolTableRecord
100
AcDbTextStyleTableRecord
  2
SLDTEXTSTYLE0
 70
     0
 40
0.0
 41
0.75
 50
0.0
 71
     0
 42
3.5
  3
TXT
  4

  0
ENDTAB
  0
TABLE
  2
VIEW
  5
6
330
0
100
AcDbSymbolTable
 70
     0
  0
ENDTAB
  0
TABLE
  2
UCS
  5
7
330
0
100
AcDbSymbolTable
 70
     0
  0
ENDTAB
  0
TABLE
  2
APPID
  5
9
330
0
100
AcDbSymbolTable
 70
     3
  0
APPID
  5
12
330
9
100
AcDbSymbolTableRecord
100
AcDbRegAppTableRecord
  2
ACAD
 70
     0
  0
APPID
  5
174
330
9
100
AcDbSymbolTableRecord
100
AcDbRegAppTableRecord
  2
ACAD_DSTYLE_DIMRADIAL_EXTENSION
 70
     0
  0
APPID
  5
186
330
9
100
AcDbSymbolTableRecord
100
AcDbRegAppTableRecord
  2
PE_DIMMEASUREMENT
 70
     0
  0
ENDTAB
  0
TABLE
  2
DIMSTYLE
  5
A
330
0
100
AcDbSymbolTable
 70
     3
100
AcDbDimStyleTable
  0
DIMSTYLE
105
27
330
A
100
AcDbSymbolTableRecord
100
AcDbDimStyleTableRecord
  2
ISO-25
 70
     0
 41
2.5
 42
0.625
 43
3.75
 44
1.25
 73
     0
 74
     0
 77
     1
 78
     8
140
2.5
141
2.5
143
0.03937007874016
147
0.625
171
     3
172
     1
178
     0
271
     2
272
     2
274
     3
278
    44
283
     0
284
     8
340
11
  0
DIMSTYLE
105
10E
102
{ACAD_REACTORS
330
10D
330
121
102
}
330
A
100
AcDbSymbolTableRecord
100
AcDbDimStyleTableRecord
  2
SLDDIMSTYLE0
 70
     0
 41
3.302
 44
0.0
 45
0.000000001
 73
     0
 74
     0
 77
     1
 78
     4
 79
     1
140
3.5
143
0.0393700787401575
147
0.875
148
0.000000001
170
     1
173
     1
178
     0
271
     2
272
     2
276
     2
284
    12
340
93
  0
DIMSTYLE
105
135
102
{ACAD_REACTORS
330
134
330
176
330
19B
102
}
330
A
100
AcDbSymbolTableRecord
100
AcDbDimStyleTableRecord
  2
SLDDIMSTYLE1
 70
     0
 41
3.302
 44
0.0
 45
0.000000001
 73
     0
 74
     0
 77
     1
 78
    12
 79
     3
140
3.5
143
0.0393700787401575
147
0.875
148
0.000000001
170
     1
172
     1
173
     1
178
     0
271
     2
272
     2
276
     2
284
    12
289
     0
340
93
  0
ENDTAB
  0
TABLE
  2
BLOCK_RECORD
  5
1
330
0
100
AcDbSymbolTable
 70
     9
  0
BLOCK_RECORD
  5
1F
102
{ACAD_XDICTIONARY
360
22B
102
}
330
1
100
AcDbSymbolTableRecord
100
AcDbBlockTableRecord
  2
*Model_Space
340
22
  0
BLOCK_RECORD
  5
1B
330
1
100
AcDbSymbolTableRecord
100
AcDbBlockTableRecord
  2
*Paper_Space
340
1E
  0
BLOCK_RECORD
  5
23
330
1
100
AcDbSymbolTableRecord
100
AcDbBlockTableRecord
  2
*Paper_Space0
340
26
  0
BLOCK_RECORD
  5
7E
330
1
100
AcDbSymbolTableRecord
100
AcDbBlockTableRecord
  2
블럭10
340
0
102
{BLKREFS
331
105
102
}
  0
BLOCK_RECORD
  5
10F
330
1
100
AcDbSymbolTableRecord
100
AcDbBlockTableRecord
  2
_D
340
0
  0
BLOCK_RECORD
  5
122
330
1
100
AcDbSymbolTableRecord
100
AcDbBlockTableRecord
  2
_D_1
340
0
  0
BLOCK_RECORD
  5
136
330
1
100
AcDbSymbolTableRecord
100
AcDbBlockTableRecord
  2
_D_2
340
0
  0
BLOCK_RECORD
  5
149
330
1
100
AcDbSymbolTableRecord
100
AcDbBlockTableRecord
  2
SW_DOWELSYMBOL_0
340
0
102
{BLKREFS
331
14F
102
}
  0
BLOCK_RECORD
  5
179
330
1
100
AcDbSymbolTableRecord
100
AcDbBlockTableRecord
  2
*D6
340
0
  0
BLOCK_RECORD
  5
18E
330
1
100
AcDbSymbolTableRecord
100
AcDbBlockTableRecord
  2
*D7
340
0
  0
BLOCK_RECORD
  5
19E
330
1
100
AcDbSymbolTableRecord
100
AcDbBlockTableRecord
  2
*D8
340
0
  0
ENDTAB
  0
ENDSEC
  0
SECTION
  2
BLOCKS
  0
BLOCK
  5
20
330
1F
100
AcDbEntity
  8
0
100
AcDbBlockBegin
  2
*Model_Space
 70
     0
 10
0.0
 20
0.0
 30
0.0
  3
*Model_Space
  1
*Model_Space
  0
ENDBLK
  5
21
330
1F
100
AcDbEntity
  8
0
100
AcDbBlockEnd
  0
BLOCK
  5
1C
330
1B
100
AcDbEntity
 67
     1
  8
0
100
AcDbBlockBegin
  2
*Paper_Space
 70
     0
 10
0.0
 20
0.0
 30
0.0
  3
*Paper_Space
  1
*Paper_Space
  0
ENDBLK
  5
1D
330
1B
100
AcDbEntity
 67
     1
  8
0
100
AcDbBlockEnd
  0
BLOCK
  5
24
330
23
100
AcDbEntity
  8
0
100
AcDbBlockBegin
  2
*Paper_Space0
 70
     0
 10
0.0
 20
0.0
 30
0.0
  3
*Paper_Space0
  1
*Paper_Space0
  0
ENDBLK
  5
25
330
23
100
AcDbEntity
  8
0
100
AcDbBlockEnd
  0
BLOCK
  5
7F
330
7E
100
AcDbEntity
  8
0
100
AcDbBlockBegin
  2
블럭10
 70
     2
 10
0.0
 20
0.0
 30
0.0
  3
블럭10
  1
블럭10
  0
ELLIPSE
  5
81
330
7E
100
AcDbEntity
  8
중심선
100
AcDbEllipse
 10
20.54032771741204
 20
12.0471743016438
 30
0.0
 11
6.600054785286829
 21
-1.261213355974178E-13
 31
0.0
210
0.0
220
0.0
230
1.0
 40
0.636358354079598
 41
0.9219305317359503
 42
6.513795318482858
  0
ELLIPSE
  5
82
330
7E
100
AcDbEntity
  8
중심선
100
AcDbEllipse
 10
20.54032771746488
 20
12.04717430159265
 30
0.0
 11
3.960054785062283
 21
1.540847449632565E-10
 31
0.0
210
0.0
220
0.0
230
1.0
 40
0.3939339440162632
 41
1.131841032648279
 42
5.62031148352944
  0
LINE
  5
83
330
7E
100
AcDbEntity
  8
중심선
100
AcDbLine
 10
2.268634060543552
 20
16.24717430164393
 30
0.0
 11
5.714909304380834
 21
16.24717430164393
 31
0.0
  0
LINE
  5
84
330
7E
100
AcDbEntity
  8
중심선
100
AcDbLine
 10
5.245725140726316
 20
7.84717430164391
 30
0.0
 11
8.692000384563599
 21
7.84717430164391
 31
0.0
  0
LINE
  5
85
330
7E
100
AcDbEntity
  8
중심선
100
AcDbLine
 10
15.74043728645272
 20
16.24717430164393
 30
0.0
 11
8.692000384563599
 21
7.84717430164391
 31
0.0
  0
LINE
  5
86
330
7E
100
AcDbEntity
  8
중심선
100
AcDbLine
 10
0.1404042013395286
 20
13.71084872107135
 30
0.0
 11
3.58671253028996
 21
13.71088815037384
 31
0.0
  0
LINE
  5
87
330
7E
100
AcDbEntity
  8
중심선
100
AcDbLine
 10
2.750260043222114
 20
10.84717430164391
 30
0.0
 11
6.196535287059397
 21
10.84717430164391
 31
0.0
  0
LINE
  5
88
330
7E
100
AcDbEntity
  8
중심선
100
AcDbLine
 10
12.29416204261559
 20
16.24717430164393
 30
0.0
 11
5.245725140726316
 21
7.84717430164391
 31
0.0
  0
LINE
  5
89
330
7E
100
AcDbEntity
  8
중심선
100
AcDbLine
 10
10.72767329541681
 20
16.24717430164393
 30
0.0
 11
6.196535287059397
 21
10.84717430164391
 31
0.0
  0
LINE
  5
8A
330
7E
100
AcDbEntity
  8
중심선
100
AcDbLine
 10
7.28139805157953
 20
16.24717430164393
 30
0.0
 11
2.750260043222114
 21
10.84717430164391
 31
0.0
  0
LINE
  5
8B
330
7E
100
AcDbEntity
  8
중심선
100
AcDbLine
 10
5.714909304380834
 20
16.24717430164393
 30
0.0
 11
3.58671253028996
 21
13.71088815037384
 31
0.0
  0
LINE
  5
8C
330
7E
100
AcDbEntity
  8
중심선
100
AcDbLine
 10
2.268634060543552
 20
16.24717430164393
 30
0.0
 11
0.1404042013395286
 21
13.71084872107135
 31
0.0
  0
LINE
  5
8D
330
7E
100
AcDbEntity
  8
중심선
100
AcDbLine
 10
7.28139805157953
 20
16.24717430164393
 30
0.0
 11
10.72767329541681
 21
16.24717430164393
 31
0.0
  0
LINE
  5
8E
330
7E
100
AcDbEntity
  8
중심선
100
AcDbLine
 10
12.29416204261559
 20
16.24717430164393
 30
0.0
 11
15.74043728645272
 21
16.24717430164393
 31
0.0
  0
LINE
  5
8F
330
7E
100
AcDbEntity
  8
중심선
100
AcDbLine
 10
19.22036997980202
 20
11.08717430171403
 30
0.0
 11
23.66174974927406
 21
11.08717430171406
 31
0.0
  0
LINE
  5
90
330
7E
100
AcDbEntity
  8
중심선
100
AcDbLine
 10
19.22039502424796
 20
13.00717430171391
 30
0.0
 11
19.22036997980202
 21
11.08717430171403
 31
0.0
  0
LINE
  5
91
330
7E
100
AcDbEntity
  8
중심선
100
AcDbLine
 10
19.22039502424796
 20
13.00717430171391
 30
0.0
 11
26.96566020931264
 21
13.00717430171391
 31
0.0
  0
LINE
  5
92
330
7E
100
AcDbEntity
  8
중심선
100
AcDbLine
 10
22.22332737316547
 20
13.45928029700563
 30
0.0
 11
24.52862924686651
 21
15.39360700705356
 31
0.0
  0
ATTDEF
  5
94
330
7E
100
AcDbEntity
  8
FORMAT
 62
     2
100
AcDbText
 10
-11.05102035218446
 20
2.075366912832191
 30
0.0
 40
4.233333333333333
  1
GMG22945[ 6 FLUTE ]
 41
0.75
  7
SLDTEXTSTYLE0
 11
-11.05102035218446
 21
-0.0412997538344756
 31
0.0
100
AcDbAttributeDefinition
  3

  2
AUTOATTR0
 70
     0
 74
     1
  0
ENDBLK
  5
80
330
7E
100
AcDbEntity
  8
0
100
AcDbBlockEnd
  0
BLOCK
  5
110
330
10F
100
AcDbEntity
  8
0
100
AcDbBlockBegin
  2
_D
 70
     0
 10
0.0
 20
0.0
 30
0.0
  3
_D
  1
_D
  0
LINE
  5
112
330
10F
100
AcDbEntity
  8
치수문자_일반주서
 62
     0
370
    -2
100
AcDbLine
 10
-53.49999999999999
 20
9.0875
 30
0.0
 11
-53.49999999999999
 21
42.18055141807179
 31
0.0
  0
LINE
  5
113
330
10F
100
AcDbEntity
  8
치수문자_일반주서
 62
     0
370
    -2
100
AcDbLine
 10
86.2
 20
8.063500000000008
 30
0.0
 11
86.2
 21
42.18055141807179
 31
0.0
  0
LINE
  5
114
330
10F
100
AcDbEntity
  8
치수문자_일반주서
 62
     0
370
    -2
100
AcDbLine
 10
-50.19799999999999
 20
42.18055141807179
 30
0.0
 11
82.898
 21
42.18055141807179
 31
0.0
  0
SOLID
  5
115
330
10F
100
AcDbEntity
  8
치수문자_일반주서
 62
     0
100
AcDbTrace
 10
-50.19799999999999
 20
42.73088475140512
 30
0.0
 11
-50.19799999999999
 21
41.63021808473845
 31
0.0
 12
-53.49999999999999
 22
42.18055141807179
 32
0.0
 13
-53.49999999999999
 23
42.18055141807179
 33
0.0
  0
SOLID
  5
116
330
10F
100
AcDbEntity
  8
치수문자_일반주서
 62
     0
100
AcDbTrace
 10
82.898
 20
41.63021808473845
 30
0.0
 11
82.898
 21
42.73088475140512
 31
0.0
 12
86.2
 22
42.18055141807179
 32
0.0
 13
86.2
 23
42.18055141807179
 33
0.0
  0
MTEXT
  5
117
330
10F
100
AcDbEntity
  8
치수문자_일반주서
 62
     0
100
AcDbMText
 10
16.35000000000002
 20
46.55555141807179
 30
0.0
 40
3.5
 41
0.0
 71
     2
 72
     1
  1
\A1;139.70 [5 1/2]
  7
SLDTEXTSTYLE0
 73
     1
 44
1.0
  0
POINT
  5
118
330
10F
100
AcDbEntity
  8
Defpoints
 62
     0
100
AcDbPoint
 10
-53.49999999999999
 20
9.025
 30
0.0
  0
POINT
  5
119
330
10F
100
AcDbEntity
  8
Defpoints
 62
     0
100
AcDbPoint
 10
86.2
 20
8.001000000000008
 30
0.0
  0
POINT
  5
11A
330
10F
100
AcDbEntity
  8
Defpoints
 62
     0
100
AcDbPoint
 10
86.2
 20
42.18055141807179
 30
0.0
  0
ENDBLK
  5
111
330
10F
100
AcDbEntity
  8
0
100
AcDbBlockEnd
  0
BLOCK
  5
123
330
122
100
AcDbEntity
  8
0
100
AcDbBlockBegin
  2
_D_1
 70
     0
 10
0.0
 20
0.0
 30
0.0
  3
_D_1
  1
_D_1
  0
LINE
  5
125
330
122
100
AcDbEntity
  8
치수문자_일반주서
 62
     0
370
    -2
100
AcDbLine
 10
86.2
 20
8.063500000000008
 30
0.0
 11
86.2
 21
25.62799453033795
 31
0.0
  0
LINE
  5
126
330
122
100
AcDbEntity
  8
치수문자_일반주서
 62
     0
370
    -2
100
AcDbLine
 10
9.999999999997428
 20
-9.196687191221724
 30
0.0
 11
9.999999999997428
 21
25.62799453033795
 31
0.0
  0
LINE
  5
127
330
122
100
AcDbEntity
  8
치수문자_일반주서
 62
     0
370
    -2
100
AcDbLine
 10
82.898
 20
25.62799453033795
 30
0.0
 11
13.30199999999743
 21
25.62799453033795
 31
0.0
  0
SOLID
  5
128
330
122
100
AcDbEntity
  8
치수문자_일반주서
 62
     0
100
AcDbTrace
 10
82.898
 20
25.07766119700461
 30
0.0
 11
82.898
 21
26.17832786367128
 31
0.0
 12
86.2
 22
25.62799453033795
 32
0.0
 13
86.2
 23
25.62799453033795
 33
0.0
  0
SOLID
  5
129
330
122
100
AcDbEntity
  8
치수문자_일반주서
 62
     0
100
AcDbTrace
 10
13.30199999999743
 20
26.17832786367128
 30
0.0
 11
13.30199999999743
 21
25.07766119700461
 31
0.0
 12
9.999999999997428
 22
25.62799453033795
 32
0.0
 13
9.999999999997428
 23
25.62799453033795
 33
0.0
  0
MTEXT
  5
12A
330
122
100
AcDbEntity
  8
치수문자_일반주서
 62
     0
100
AcDbMText
 10
47.26180339570445
 20
30.00299453033795
 30
0.0
 40
3.5
 41
0.0
 71
     2
 72
     1
  1
\A1;76.20 [3]
  7
SLDTEXTSTYLE0
 73
     1
 44
1.0
  0
POINT
  5
12B
330
122
100
AcDbEntity
  8
Defpoints
 62
     0
100
AcDbPoint
 10
86.2
 20
8.001000000000008
 30
0.0
  0
POINT
  5
12C
330
122
100
AcDbEntity
  8
Defpoints
 62
     0
100
AcDbPoint
 10
9.999999999997428
 20
-9.259187191221724
 30
0.0
  0
POINT
  5
12D
330
122
100
AcDbEntity
  8
Defpoints
 62
     0
100
AcDbPoint
 10
9.999999999997428
 20
25.62799453033795
 30
0.0
  0
ENDBLK
  5
124
330
122
100
AcDbEntity
  8
0
100
AcDbBlockEnd
  0
BLOCK
  5
137
330
136
100
AcDbEntity
  8
0
100
AcDbBlockBegin
  2
_D_2
 70
     0
 10
0.0
 20
0.0
 30
0.0
  3
_D_2
  1
_D_2
  0
LINE
  5
139
330
136
100
AcDbEntity
  8
치수문자_일반주서
 62
     0
370
    -2
100
AcDbLine
 10
-53.06249999999999
 20
9.525000000000006
 30
0.0
 11
-66.50000000000004
 21
9.524999999999956
 31
0.0
  0
LINE
  5
13A
330
136
100
AcDbEntity
  8
치수문자_일반주서
 62
     0
370
    -2
100
AcDbLine
 10
-53.06249999999999
 20
-9.524999999999995
 30
0.0
 11
-66.49999999999997
 21
-9.525000000000045
 31
0.0
  0
LINE
  5
13B
330
136
100
AcDbEntity
  8
치수문자_일반주서
 62
     0
370
    -2
100
AcDbLine
 10
-66.50000000000003
 20
6.222999999999956
 30
0.0
 11
-66.49999999999999
 21
-6.223000000000045
 31
0.0
  0
SOLID
  5
13C
330
136
100
AcDbEntity
  8
치수문자_일반주서
 62
     0
100
AcDbTrace
 10
-65.9496666666667
 20
6.222999999999958
 30
0.0
 11
-67.05033333333336
 21
6.222999999999955
 31
0.0
 12
-66.50000000000004
 22
9.524999999999956
 32
0.0
 13
-66.50000000000004
 23
9.524999999999956
 33
0.0
  0
SOLID
  5
13D
330
136
100
AcDbEntity
  8
치수문자_일반주서
 62
     0
100
AcDbTrace
 10
-67.05033333333331
 20
-6.223000000000047
 30
0.0
 11
-65.94966666666666
 21
-6.223000000000043
 31
0.0
 12
-66.49999999999997
 22
-9.525000000000045
 32
0.0
 13
-66.49999999999997
 23
-9.525000000000045
 33
0.0
  0
MTEXT
  5
13E
330
136
100
AcDbEntity
  8
치수문자_일반주서
 62
     0
100
AcDbMText
 10
-70.87500000000001
 20
-0.0000000000000133
 30
0.0
 40
3.5
 41
0.0
 71
     2
 72
     1
  1
\A1;%%c19.05 [3/4]
  7
SLDTEXTSTYLE0
 11
-3.729883127349607E-15
 21
1.0
 31
0.0
 73
     1
 44
1.0
  0
POINT
  5
13F
330
136
100
AcDbEntity
  8
Defpoints
 62
     0
100
AcDbPoint
 10
-52.99999999999999
 20
9.525000000000006
 30
0.0
  0
POINT
  5
140
330
136
100
AcDbEntity
  8
Defpoints
 62
     0
100
AcDbPoint
 10
-52.99999999999999
 20
-9.524999999999995
 30
0.0
  0
POINT
  5
141
330
136
100
AcDbEntity
  8
Defpoints
 62
     0
100
AcDbPoint
 10
-66.49999999999997
 20
-9.525000000000045
 30
0.0
  0
ENDBLK
  5
138
330
136
100
AcDbEntity
  8
0
100
AcDbBlockEnd
  0
BLOCK
  5
14A
330
149
100
AcDbEntity
  8
0
100
AcDbBlockBegin
  2
SW_DOWELSYMBOL_0
 70
     0
 10
0.0
 20
0.0
 30
0.0
  3
SW_DOWELSYMBOL_0
  1
SW_DOWELSYMBOL_0
  0
CIRCLE
  5
14C
330
149
100
AcDbEntity
  8
외형선
 62
     0
100
AcDbCircle
 10
0.0
 20
0.0
 30
0.0
 40
3.000000000000001
  0
HATCH
  5
14D
330
149
100
AcDbEntity
  8
0
  6
Continuous
 62
     0
370
    30
100
AcDbHatch
 10
0.0
 20
0.0
 30
0.0
210
0.0
220
0.0
230
1.0
  2
SOLID
 70
     1
 71
     0
 91
        1
 92
        0
 93
        3
 72
     2
 10
0.0
 20
0.0
 40
3.000000000000001
 50
0.0
 51
90.0
 73
     1
 72
     1
 10
0.0
 20
3.000000000000001
 11
0.0
 21
0.0
 72
     1
 10
0.0
 20
0.0
 11
3.000000000000001
 21
0.0
 97
        0
 75
     0
 76
     1
 98
        1
 10
0.0
 20
0.0
  0
HATCH
  5
14E
330
149
100
AcDbEntity
  8
0
  6
Continuous
 62
     0
370
    30
100
AcDbHatch
 10
0.0
 20
0.0
 30
0.0
210
0.0
220
0.0
230
1.0
  2
SOLID
 70
     1
 71
     0
 91
        1
 92
        0
 93
        3
 72
     2
 10
0.0
 20
0.0
 40
3.000000000000001
 50
180.0
 51
270.0000000000007
 73
     1
 72
     1
 10
0.0
 20
-3.000000000000001
 11
0.0
 21
0.0
 72
     1
 10
0.0
 20
0.0
 11
-3.000000000000001
 21
0.0
 97
        0
 75
     0
 76
     1
 98
        1
 10
0.0
 20
0.0
  0
ENDBLK
  5
14B
330
149
100
AcDbEntity
  8
0
100
AcDbBlockEnd
  0
BLOCK
  5
17A
330
179
100
AcDbEntity
  8
0
100
AcDbBlockBegin
  2
*D6
 70
     1
 10
0.0
 20
0.0
 30
0.0
  3
*D6
  1
*D6
  0
LINE
  5
17C
330
179
100
AcDbEntity
  8
치수문자_일반주서
 62
     0
370
    -2
100
AcDbLine
 10
85.5005
 20
9.525000000000011
 30
0.0
 11
102.6642698373149
 21
9.52500000000001
 31
0.0
  0
LINE
  5
17D
330
179
100
AcDbEntity
  8
치수문자_일반주서
 62
     0
370
    -2
100
AcDbLine
 10
84.73850000000003
 20
-9.524999999999993
 30
0.0
 11
102.6642698373149
 21
-9.524999999999995
 31
0.0
  0
LINE
  5
17E
330
179
100
AcDbEntity
  8
치수문자_일반주서
 62
     0
370
    -2
100
AcDbLine
 10
102.6642698373149
 20
6.22300000000001
 30
0.0
 11
102.6642698373149
 21
-6.222999999999995
 31
0.0
  0
SOLID
  5
17F
330
179
100
AcDbEntity
  8
치수문자_일반주서
 62
     0
100
AcDbTrace
 10
103.2146031706483
 20
6.22300000000001
 30
0.0
 11
102.1139365039816
 21
6.22300000000001
 31
0.0
 12
102.6642698373149
 22
9.52500000000001
 32
0.0
 13
102.6642698373149
 23
9.52500000000001
 33
0.0
  0
SOLID
  5
180
330
179
100
AcDbEntity
  8
치수문자_일반주서
 62
     0
100
AcDbTrace
 10
102.1139365039816
 20
-6.222999999999995
 30
0.0
 11
103.2146031706483
 21
-6.222999999999995
 31
0.0
 12
102.6642698373149
 22
-9.524999999999995
 32
0.0
 13
102.6642698373149
 23
-9.524999999999995
 33
0.0
  0
MTEXT
  5
181
330
179
100
AcDbEntity
  8
치수문자_일반주서
 62
     0
100
AcDbMText
 10
100.0392698373149
 20
0.0000000000000088
 30
0.0
 40
3.5
 41
0.0
 71
     5
 72
     1
  1
\A1;{%%c19.05 [3/4]}
  7
SLDTEXTSTYLE0
 11
0.0
 21
1.0
 31
0.0
 73
     1
 44
1.0
  0
POINT
  5
182
330
179
100
AcDbEntity
  8
Defpoints
 62
     0
100
AcDbPoint
 10
85.438
 20
9.525000000000011
 30
0.0
  0
POINT
  5
183
330
179
100
AcDbEntity
  8
Defpoints
 62
     0
100
AcDbPoint
 10
84.67600000000003
 20
-9.524999999999993
 30
0.0
  0
POINT
  5
184
330
179
100
AcDbEntity
  8
Defpoints
 62
     0
100
AcDbPoint
 10
102.6642698373149
 20
-9.524999999999995
 30
0.0
  0
ENDBLK
  5
17B
330
179
100
AcDbEntity
  8
0
100
AcDbBlockEnd
  0
BLOCK
  5
18F
330
18E
100
AcDbEntity
  8
0
100
AcDbBlockBegin
  2
*D7
 70
     1
 10
0.0
 20
0.0
 30
0.0
  3
*D7
  1
*D7
  0
LINE
  5
191
330
18E
100
AcDbEntity
  8
치수문자_일반주서
 62
     0
370
    -2
100
AcDbLine
 10
94.93453617683207
 20
11.10614618694428
 30
0.0
 11
120.2787739390687
 21
32.35013213687658
 31
0.0
  0
MTEXT
  5
192
330
18E
100
AcDbEntity
  8
치수문자_일반주서
 62
     0
100
AcDbMText
 10
108.5337973126459
 20
25.93049242387229
 30
0.0
 40
3.5
 41
0.0
 71
     5
 72
     1
  1
\A1;R.78 [R0.03]
  7
SLDTEXTSTYLE0
 11
0.7663771929539895
 21
0.6423908452958863
 31
0.0
 73
     1
 44
1.0
  0
LINE
  5
193
330
18E
100
AcDbEntity
  8
치수문자_일반주서
 62
     0
370
    -2
100
AcDbLine
 10
91.80465172080798
 20
8.482621974755887
 30
0.0
 11
92.403958685698
 21
8.984971615777269
 31
0.0
  0
SOLID
  5
194
330
18E
100
AcDbEntity
  8
치수문자_일반주서
 62
     0
100
AcDbTrace
 10
94.58100708163757
 20
11.5279091021333
 30
0.0
 11
95.28806527202657
 21
10.68438327175527
 31
0.0
 12
92.403958685698
 22
8.984971615777269
 32
0.0
 13
92.403958685698
 23
8.984971615777269
 33
0.0
  0
POINT
  5
195
330
18E
100
AcDbEntity
  8
Defpoints
 62
     0
100
AcDbPoint
 10
92.403958685698
 20
8.984971615777269
 30
0.0
  0
POINT
  5
196
330
18E
100
AcDbEntity
  8
Defpoints
 62
     0
100
AcDbPoint
 10
91.80465172080798
 20
8.482621974755887
 30
0.0
  0
ENDBLK
  5
190
330
18E
100
AcDbEntity
  8
0
100
AcDbBlockEnd
  0
BLOCK
  5
19F
330
19E
100
AcDbEntity
  8
0
100
AcDbBlockBegin
  2
*D8
 70
     1
 10
0.0
 20
0.0
 30
0.0
  3
*D8
  1
*D8
  0
LINE
  5
1A1
330
19E
100
AcDbEntity
  8
치수문자_일반주서
 62
     0
370
    -2
100
AcDbLine
 10
88.17949190113879
 20
11.7630530255298
 30
0.0
 11
109.9375005189638
 21
35.57314692232181
 31
0.0
  0
MTEXT
  5
1A2
330
19E
100
AcDbEntity
  8
치수문자_일반주서
 62
     0
100
AcDbMText
 10
98.40804009540754
 20
26.84760860631236
 30
0.0
 40
3.5
 41
0.0
 71
     5
 72
     1
  1
\A1;R.76 [R0.030]
  7
SLDTEXTSTYLE0
 11
0.6745797000833622
 21
0.7382020239984723
 31
0.0
 73
     1
 44
1.0
  0
LINE
  5
1A3
330
19E
100
AcDbEntity
  8
치수문자_일반주서
 62
     0
370
    -2
100
AcDbLine
 10
85.438
 20
8.76300000000001
 30
0.0
 11
85.95202973146353
 21
9.325509942286848
 31
0.0
  0
SOLID
  5
1A4
330
19E
100
AcDbEntity
  8
치수문자_일반주서
 62
     0
100
AcDbTrace
 10
87.7732347205983
 20
12.13429672047568
 30
0.0
 11
88.58574908167928
 21
11.39180933058393
 31
0.0
 12
85.95202973146353
 22
9.325509942286848
 32
0.0
 13
85.95202973146353
 23
9.325509942286848
 33
0.0
  0
POINT
  5
1A5
330
19E
100
AcDbEntity
  8
Defpoints
 62
     0
100
AcDbPoint
 10
85.95202973146353
 20
9.325509942286848
 30
0.0
  0
POINT
  5
1A6
330
19E
100
AcDbEntity
  8
Defpoints
 62
     0
100
AcDbPoint
 10
85.438
 20
8.76300000000001
 30
0.0
  0
ENDBLK
  5
1A0
330
19E
100
AcDbEntity
  8
0
100
AcDbBlockEnd
  0
ENDSEC
  0
SECTION
  2
ENTITIES
  0
LINE
  5
95
330
1F
100
AcDbEntity
  8
0
  6
Continuous
 62
     4
370
    15
100
AcDbLine
 10
6.949228128440075
 20
9.52500000000001
 30
0.0
 11
-20.006925
 21
9.525000000000007
 31
0.0
  0
LINE
  5
96
330
1F
100
AcDbEntity
  8
0
  6
Continuous
 62
     4
370
    15
100
AcDbLine
 10
-52.99999999999999
 20
-9.524999999999995
 30
0.0
 11
6.950421420952837
 21
-9.524999999999991
 31
0.0
  0
LINE
  5
97
330
1F
100
AcDbEntity
  8
0
  6
Continuous
 62
     4
370
    15
100
AcDbLine
 10
-52.99999999999999
 20
9.525000000000004
 30
0.0
 11
-53.49999999999999
 21
9.025
 31
0.0
  0
LINE
  5
98
330
1F
100
AcDbEntity
  8
0
  6
Continuous
 62
     4
370
    15
100
AcDbLine
 10
-53.49999999999999
 20
-9.02499999999999
 30
0.0
 11
-52.99999999999999
 21
-9.524999999999993
 31
0.0
  0
LINE
  5
99
330
1F
100
AcDbEntity
  8
0
  6
Continuous
 62
     4
370
    15
100
AcDbLine
 10
6.950275131095764
 20
-9.525365448042182
 30
0.0
 11
6.950275079015436
 21
-9.524953985438588
 31
0.0
  0
LINE
  5
9A
330
1F
100
AcDbEntity
  8
0
  6
Continuous
 62
     1
370
    15
100
AcDbLine
 10
6.950275079015433
 20
9.524953985445343
 30
0.0
 11
6.95027513109576
 21
9.525365448042441
 31
0.0
  0
LINE
  5
9B
330
1F
100
AcDbEntity
  8
0
  6
Continuous
 62
     1
370
    15
100
AcDbLine
 10
72.10360963342197
 20
-9.524999999999993
 30
0.0
 11
75.35996420012358
 21
-9.524999999999993
 31
0.0
  0
LINE
  5
9C
330
1F
100
AcDbEntity
  8
0
  6
Continuous
 62
     1
370
    15
100
AcDbLine
 10
12.25535089107298
 20
-9.524999999999993
 30
0.0
 11
15.51304749745587
 21
-9.524999999999993
 31
0.0
  0
LINE
  5
9D
330
1F
100
AcDbEntity
  8
0
  6
Continuous
 62
     1
370
    15
100
AcDbLine
 10
45.43655516526113
 20
9.525000000000011
 30
0.0
 11
42.17919790973289
 21
9.525000000000011
 31
0.0
  0
LINE
  5
9E
330
1F
100
AcDbEntity
  8
0
  6
Continuous
 62
     1
370
    15
100
AcDbLine
 10
42.17919790973298
 20
-9.524999999999993
 30
0.0
 11
45.43655516526112
 21
-9.524999999999993
 31
0.0
  0
LINE
  5
9F
330
1F
100
AcDbEntity
  8
0
  6
Continuous
 62
     1
370
    15
100
AcDbLine
 10
15.51304749745588
 20
9.525000000000011
 30
0.0
 11
12.25535089107306
 21
9.525000000000011
 31
0.0
  0
LINE
  5
A0
330
1F
100
AcDbEntity
  8
0
  6
Continuous
 62
     1
370
    15
100
AcDbLine
 10
75.35996420012357
 20
9.525000000000011
 30
0.0
 11
72.10360963342205
 21
9.525000000000011
 31
0.0
  0
LINE
  5
A1
330
1F
100
AcDbEntity
  8
0
  6
Continuous
 62
     1
370
    15
100
AcDbLine
 10
82.07816585521425
 20
-9.524999999999993
 30
0.0
 11
85.418
 21
-9.525000000000011
 31
0.0
  0
LINE
  5
A2
330
1F
100
AcDbEntity
  8
0
  6
Continuous
 62
     1
370
    15
100
AcDbLine
 10
22.23103045086239
 20
-9.524999999999993
 30
0.0
 11
25.48646514904653
 21
-9.524999999999993
 31
0.0
  0
LINE
  5
A3
330
1F
100
AcDbEntity
  8
0
  6
Continuous
 62
     1
370
    15
100
AcDbLine
 10
55.41004950403022
 20
9.525000000000011
 30
0.0
 11
52.15476788535666
 21
9.525000000000011
 31
0.0
  0
LINE
  5
A4
330
1F
100
AcDbEntity
  8
0
  6
Continuous
 62
     1
370
    15
100
AcDbLine
 10
62.12820047452794
 20
-9.524999999999993
 30
0.0
 11
65.38586621096835
 21
-9.524999999999993
 31
0.0
  0
LINE
  5
A5
330
1F
100
AcDbEntity
  8
0
  6
Continuous
 62
     1
370
    15
100
AcDbLine
 10
35.46143891996168
 20
9.525000000000011
 30
0.0
 11
32.20471020684406
 21
9.525000000000011
 31
0.0
  0
LINE
  5
A6
330
1F
100
AcDbEntity
  8
0
  6
Continuous
 62
     1
370
    15
100
AcDbLine
 10
32.20471020684415
 20
-9.524999999999993
 30
0.0
 11
35.46143891996176
 21
-9.524999999999993
 31
0.0
  0
LINE
  5
A7
330
1F
100
AcDbEntity
  8
0
  6
Continuous
 62
     1
370
    15
100
AcDbLine
 10
65.38586621096839
 20
9.525000000000011
 30
0.0
 11
62.12820047452802
 21
9.525000000000011
 31
0.0
  0
LINE
  5
A8
330
1F
100
AcDbEntity
  8
0
  6
Continuous
 62
     1
370
    15
100
AcDbLine
 10
52.15476788535666
 20
-9.524999999999993
 30
0.0
 11
55.41004950403018
 21
-9.524999999999993
 31
0.0
  0
LINE
  5
A9
330
1F
100
AcDbEntity
  8
0
  6
Continuous
 62
     1
370
    15
100
AcDbLine
 10
25.48646514904646
 20
9.525000000000011
 30
0.0
 11
22.2310304508624
 21
9.525000000000011
 31
0.0
  0
LINE
  5
AA
330
1F
100
AcDbEntity
  8
0
  6
Continuous
 62
     1
370
    15
100
AcDbLine
 10
85.438
 20
9.525000000000011
 30
0.0
 11
82.07816585521421
 21
9.525000000000011
 31
0.0
  0
LINE
  5
AE
330
1F
100
AcDbEntity
  8
0
  6
Continuous
 62
     1
370
    15
100
AcDbLine
 10
86.19937115732648
 20
-8.04477575842589
 30
0.0
 11
86.2
 21
-8.000999999999992
 31
0.0
  0
SPLINE
  5
B1
330
1F
100
AcDbEntity
  8
0
  6
Continuous
 62
     4
370
    15
100
AcDbSpline
210
0.0
220
0.0
230
1.0
 70
     8
 71
     3
 72
    11
 73
     7
 74
     0
 42
0.000000001
 43
0.00000001
 40
0.0
 40
0.0
 40
0.0
 40
0.0
 40
0.2615835083871452
 40
0.5182017864399648
 40
0.7734535223020791
 40
1.0
 40
1.0
 40
1.0
 40
1.0
 10
7.807343732128298
 20
9.244665192378614
 30
0.0
 10
7.986185856597705
 20
9.218183438830842
 30
0.0
 10
8.340475425394239
 20
9.165722593416199
 30
0.0
 10
8.960107042403376
 20
9.148326187926301
 30
0.0
 10
9.539865868491717
 20
9.183821789049624
 30
0.0
 10
9.852837512515645
 20
9.236874378800339
 30
0.0
 10
9.999999999999865
 20
9.261820252409896
 30
0.0
  0
SPLINE
  5
B2
330
1F
100
AcDbEntity
  8
0
  6
Continuous
 62
     4
370
    15
100
AcDbSpline
210
0.0
220
0.0
230
1.0
 70
     8
 71
     3
 72
    14
 73
    10
 74
     0
 42
0.000000001
 43
0.00000001
 40
0.0
 40
0.0
 40
0.0
 40
0.0
 40
0.25
 40
0.25
 40
0.5
 40
0.5
 40
0.75
 40
0.75
 40
1.0
 40
1.0
 40
1.0
 40
1.0
 10
7.582539934769543
 20
9.306273344373336
 30
0.0
 10
7.448920714006019
 20
9.334740826548552
 30
0.0
 10
7.339019290753856
 20
9.363971134836401
 30
0.0
 10
7.160804897092002
 20
9.41889145996868
 30
0.0
 10
7.094381500779089
 20
9.444138126073616
 30
0.0
 10
7.002609089296549
 20
9.484891668669302
 30
0.0
 10
6.976559922716659
 20
9.500720049270067
 30
0.0
 10
6.950424188098538
 20
9.521037683030947
 30
0.0
 10
6.950275078687157
 20
9.525746114652529
 30
0.0
 10
6.950275078687155
 20
9.524903993715062
 30
0.0
  0
SPLINE
  5
B3
330
1F
100
AcDbEntity
  8
0
  6
Continuous
 62
     4
370
    15
100
AcDbSpline
210
0.0
220
0.0
230
1.0
 70
     8
 71
     3
 72
    10
 73
     6
 74
     0
 42
0.000000001
 43
0.00000001
 40
0.0
 40
0.0
 40
0.0
 40
0.0
 40
0.5
 40
0.5
 40
1.0
 40
1.0
 40
1.0
 40
1.0
 10
10.0
 20
8.498678242173792
 30
0.0
 10
9.59622694879278
 20
8.680720280204898
 30
0.0
 10
9.196557681007874
 20
8.83936842918906
 30
0.0
 10
8.39078925126709
 20
9.109348737431118
 30
0.0
 10
7.985451479444225
 20
9.220433319632356
 30
0.0
 10
7.582539934769531
 20
9.306273344373361
 30
0.0
  0
SPLINE
  5
B4
330
1F
100
AcDbEntity
  8
0
  6
Continuous
 62
     4
370
    15
100
AcDbSpline
210
0.0
220
0.0
230
1.0
 70
     8
 71
     3
 72
    24
 73
    20
 74
     0
 42
0.000000001
 43
0.00000001
 40
0.0
 40
0.0
 40
0.0
 40
0.0
 40
0.1249999999999998
 40
0.1249999999999998
 40
0.2499999999999998
 40
0.2499999999999998
 40
0.3749999999999999
 40
0.3749999999999999
 40
0.5
 40
0.5
 40
0.625
 40
0.625
 40
0.6875
 40
0.6875
 40
0.75
 40
0.75
 40
0.875
 40
0.875
 40
1.0
 40
1.0
 40
1.0
 40
1.0
 10
6.950275078687157
 20
4.799488234291964
 30
0.0
 10
6.950275078687157
 20
4.975596677982966
 30
0.0
 10
6.950694515013232
 20
5.148021489012343
 30
0.0
 10
6.98405748900811
 20
5.483236176994949
 30
0.0
 10
7.016748230467205
 20
5.647393396458607
 30
0.0
 10
7.133193204314851
 20
5.95909868843481
 30
0.0
 10
7.215002568317941
 20
6.103032466089433
 30
0.0
 10
7.43793773132798
 20
6.365430604680948
 30
0.0
 10
7.57285106838165
 20
6.476883870984085
 30
0.0
 10
7.892670435916606
 20
6.662514621969762
 30
0.0
 10
8.072846727558353
 20
6.733268283705978
 30
0.0
 10
8.362873703348427
 20
6.80433635510139
 30
0.0
 10
8.463408018866595
 20
6.822194343218536
 30
0.0
 10
8.66446720851711
 20
6.845329814518243
 30
0.0
 10
8.765960045847486
 20
6.850880379688438
 30
0.0
 10
9.073378589761525
 20
6.849308088087694
 30
0.0
 10
9.27658505939851
 20
6.823905759053996
 30
0.0
 10
9.661861980218816
 20
6.724903602028988
 30
0.0
 10
9.84097005678083
 20
6.652067619076907
 30
0.0
 10
9.999999999999865
 20
6.556587399020282
 30
0.0
  0
SPLINE
  5
B5
330
1F
100
AcDbEntity
  8
0
  6
Continuous
 62
     4
370
    15
100
AcDbSpline
210
0.0
220
0.0
230
1.0
 70
     8
 71
     3
 72
    14
 73
    10
 74
     0
 42
0.000000001
 43
0.00000001
 40
0.0
 40
0.0
 40
0.0
 40
0.0
 40
0.2500000000000006
 40
0.2500000000000006
 40
0.5000000000000011
 40
0.5000000000000011
 40
0.7500000000000006
 40
0.7500000000000006
 40
1.0
 40
1.0
 40
1.0
 40
1.0
 10
7.582539934769543
 20
2.895531460583507
 30
0.0
 10
7.448920714006019
 20
3.022813698910282
 30
0.0
 10
7.339019290753854
 20
3.164896396624391
 30
0.0
 10
7.160804897092002
 20
3.47336771397018
 30
0.0
 10
7.09438150077909
 20
3.638091187245233
 30
0.0
 10
7.002609089296549
 20
3.970151027489957
 30
0.0
 10
6.976559922716663
 20
4.139965580474574
 30
0.0
 10
6.950424188098542
 20
4.472901826820435
 30
0.0
 10
6.95027507868715
 20
4.637478086107079
 30
0.0
 10
6.95027507868715
 20
4.799488234291465
 30
0.0
  0
SPLINE
  5
B6
330
1F
100
AcDbEntity
  8
0
  6
Continuous
 62
     4
370
    15
100
AcDbSpline
210
0.0
220
0.0
230
1.0
 70
     8
 71
     3
 72
    10
 73
     6
 74
     0
 42
0.000000001
 43
0.00000001
 40
0.0
 40
0.0
 40
0.0
 40
0.0
 40
0.5
 40
0.5
 40
1.0
 40
1.0
 40
1.0
 40
1.0
 10
10.0
 20
0.5246149900938828
 30
0.0
 10
9.59622694879278
 20
0.9271590884099727
 30
0.0
 10
9.196557681007874
 20
1.326932154952072
 30
0.0
 10
8.39078925126709
 20
2.119358135137787
 30
0.0
 10
7.985451479444225
 20
2.51172826998826
 30
0.0
 10
7.582539934769531
 20
2.895531460583515
 30
0.0
  0
SPLINE
  5
B7
330
1F
100
AcDbEntity
  8
0
  6
Continuous
 62
     4
370
    15
100
AcDbSpline
210
0.0
220
0.0
230
1.0
 70
     8
 71
     3
 72
    24
 73
    20
 74
     0
 42
0.000000001
 43
0.00000001
 40
0.0
 40
0.0
 40
0.0
 40
0.0
 40
0.125
 40
0.125
 40
0.25
 40
0.25
 40
0.375
 40
0.375
 40
0.5
 40
0.5
 40
0.625
 40
0.625
 40
0.6875
 40
0.6875
 40
0.75
 40
0.75
 40
0.875
 40
0.875
 40
1.0
 40
1.0
 40
1.0
 40
1.0
 10
6.950275078687157
 20
-4.725415759424232
 30
0.0
 10
6.950275078687157
 20
-4.548391912535598
 30
0.0
 10
6.95069451501323
 20
-4.36848332110442
 30
0.0
 10
6.98405748900811
 20
-4.005633838028483
 30
0.0
 10
7.016748230467203
 20
-3.821105908734403
 30
0.0
 10
7.133193204314849
 20
-3.457845154522424
 30
0.0
 10
7.215002568317941
 20
-3.283430475735855
 30
0.0
 10
7.43793773132798
 20
-2.955507052498049
 30
0.0
 10
7.57285106838165
 20
-2.810857535937334
 30
0.0
 10
7.892670435916602
 20
-2.564903879800651
 30
0.0
 10
8.072846727558353
 20
-2.468171403871513
 30
0.0
 10
8.36287370334843
 20
-2.370251346393142
 30
0.0
 10
8.463408018866598
 20
-2.345435971188259
 30
0.0
 10
8.66446720851711
 20
-2.313232613134645
 30
0.0
 10
8.76596004584749
 20
-2.305467041488053
 30
0.0
 10
9.073378589761525
 20
-2.307662633599127
 30
0.0
 10
9.27658505939851
 20
-2.343363824082465
 30
0.0
 10
9.66186198021882
 20
-2.479610452397991
 30
0.0
 10
9.84097005678083
 20
-2.579024251309244
 30
0.0
 10
9.999999999999865
 20
-2.705232853389568
 30
0.0
  0
SPLINE
  5
B8
330
1F
100
AcDbEntity
  8
0
  6
Continuous
 62
     4
370
    15
100
AcDbSpline
210
0.0
220
0.0
230
1.0
 70
     8
 71
     3
 72
    14
 73
    10
 74
     0
 42
0.000000001
 43
0.00000001
 40
0.0
 40
0.0
 40
0.0
 40
0.0
 40
0.25
 40
0.25
 40
0.5
 40
0.5
 40
0.75
 40
0.75
 40
1.0
 40
1.0
 40
1.0
 40
1.0
 10
7.582539934769545
 20
-6.410741883789776
 30
0.0
 10
7.448920714006021
 20
-6.311927127638215
 30
0.0
 10
7.339019290753854
 20
-6.19907473821196
 30
0.0
 10
7.160804897092002
 20
-5.945523745998458
 30
0.0
 10
7.09438150077909
 20
-5.80604693882834
 30
0.0
 10
7.002609089296549
 20
-5.514740641179302
 30
0.0
 10
6.976559922716661
 20
-5.360754468795442
 30
0.0
 10
6.95042418809854
 20
-5.048135856210465
 30
0.0
 10
6.950275078687159
 20
-4.888268028545404
 30
0.0
 10
6.950275078687159
 20
-4.725415759423551
 30
0.0
  0
SPLINE
  5
B9
330
1F
100
AcDbEntity
  8
0
  6
Continuous
 62
     4
370
    15
100
AcDbSpline
210
0.0
220
0.0
230
1.0
 70
     8
 71
     3
 72
    10
 73
     6
 74
     0
 42
0.000000001
 43
0.00000001
 40
0.0
 40
0.0
 40
0.0
 40
0.0
 40
0.5
 40
0.5
 40
1.0
 40
1.0
 40
1.0
 40
1.0
 10
10.0
 20
-7.974063252079866
 30
0.0
 10
9.59622694879278
 20
-7.753561191794882
 30
0.0
 10
9.196557681007874
 20
-7.512436274236943
 30
0.0
 10
8.39078925126709
 20
-6.989990602293285
 30
0.0
 10
7.985451479444227
 20
-6.708705049644053
 30
0.0
 10
7.582539934769531
 20
-6.410741883789802
 30
0.0
  0
SPLINE
  5
BA
330
1F
100
AcDbEntity
  8
0
  6
Continuous
 62
     4
370
    15
100
AcDbSpline
210
0.0
220
0.0
230
1.0
 70
     8
 71
     3
 72
    24
 73
    20
 74
     0
 42
0.000000001
 43
0.00000001
 40
0.0
 40
0.0
 40
0.0
 40
0.0
 40
0.125
 40
0.125
 40
0.2499999999999999
 40
0.2499999999999999
 40
0.375
 40
0.375
 40
0.5000000000000001
 40
0.5000000000000001
 40
0.6250000000000001
 40
0.6250000000000001
 40
0.6875000000000001
 40
0.6875000000000001
 40
0.75
 40
0.75
 40
0.875
 40
0.875
 40
1.0
 40
1.0
 40
1.0
 40
1.0
 10
6.950275078687157
 20
-9.524903993716226
 30
0.0
 10
6.950275078687157
 20
-9.523988590518597
 30
0.0
 10
6.95069451501323
 20
-9.5165048101168
 30
0.0
 10
6.98405748900811
 20
-9.488870015023474
 30
0.0
 10
7.016748230467202
 20
-9.468499305193053
 30
0.0
 10
7.133193204314847
 20
-9.416943842957274
 30
0.0
 10
7.215002568317938
 20
-9.386462941825332
 30
0.0
 10
7.437937731327978
 20
-9.320937657179046
 30
0.0
 10
7.572851068381648
 20
-9.287741406921466
 30
0.0
 10
7.8926704359166
 20
-9.22741850177046
 30
0.0
 10
8.072846727558353
 20
-9.201439687577533
 30
0.0
 10
8.362873703348427
 20
-9.17458770149458
 30
0.0
 10
8.463408018866595
 20
-9.167630314406841
 30
0.0
 10
8.66446720851711
 20
-9.15856242765293
 30
0.0
 10
8.765960045847486
 20
-9.15634742117654
 30
0.0
 10
9.073378589761525
 20
-9.156970721686871
 30
0.0
 10
9.27658505939851
 20
-9.167269583136507
 30
0.0
 10
9.66186198021882
 20
-9.204514054427023
 30
0.0
 10
9.84097005678083
 20
-9.2310918703862
 30
0.0
 10
9.999999999999865
 20
-9.261820252409894
 30
0.0
  0
LINE
  5
BB
330
1F
100
AcDbEntity
  8
0
  6
Continuous
 62
     4
370
    15
100
AcDbLine
 10
7.807343732128074
 20
-9.244665192378644
 30
0.0
 11
7.582539934769533
 21
-9.30627334437333
 31
0.0
  0
LINE
  5
BC
330
1F
100
AcDbEntity
  8
0
  6
Continuous
 62
     4
370
    15
100
AcDbLine
 10
-52.99999999999999
 20
9.525000000000004
 30
0.0
 11
-52.99999999999999
 21
-9.525000000000004
 31
0.0
  0
LINE
  5
BD
330
1F
100
AcDbEntity
  8
0
  6
Continuous
 62
     1
370
    15
100
AcDbLine
 10
10.0
 20
-7.974063252079862
 30
0.0
 11
9.999999999999996
 21
-9.261820252409818
 31
0.0
  0
LINE
  5
BE
330
1F
100
AcDbEntity
  8
0
  6
Continuous
 62
     1
370
    15
100
AcDbLine
 10
10.0
 20
0.5246149900938843
 30
0.0
 11
9.999999999999996
 21
-2.705232853389253
 31
0.0
  0
LINE
  5
BF
330
1F
100
AcDbEntity
  8
0
  6
Continuous
 62
     1
370
    15
100
AcDbLine
 10
10.0
 20
8.49867824217379
 30
0.0
 11
9.999999999999996
 21
6.556587399020521
 31
0.0
  0
LINE
  5
C0
330
1F
100
AcDbEntity
  8
0
  6
Continuous
 62
     4
370
    15
100
AcDbLine
 10
-53.49999999999999
 20
9.025
 30
0.0
 11
-53.49999999999999
 21
-9.02499999999999
 31
0.0
  0
SPLINE
  5
C1
330
1F
100
AcDbEntity
  8
0
  6
Continuous
 62
     1
370
    15
100
AcDbSpline
210
0.0
220
0.0
230
1.0
 70
    24
 71
     3
 72
    16
 73
    12
 74
     0
 42
0.000000001
 43
0.00000001
 40
0.0
 40
0.0
 40
0.0
 40
0.0
 40
0.2500000000000003
 40
0.2500000000000003
 40
0.5000000000000006
 40
0.5000000000000006
 40
0.7500000000000007
 40
0.7500000000000007
 40
0.8750000000000003
 40
0.8750000000000003
 40
1.0
 40
1.0
 40
1.0
 40
1.0
 10
10.0
 20
5.902843729431466
 30
0.0
 10
10.0
 20
5.52530346120753
 30
0.0
 10
10.0
 20
5.097508435215736
 30
0.0
 10
10.0
 20
4.157522360266115
 30
0.0
 10
10.0
 20
3.64436882204413
 30
0.0
 10
10.0
 20
2.607607258301559
 30
0.0
 10
10.0
 20
2.085083121140549
 30
0.0
 10
10.0
 20
1.399172833738316
 30
0.0
 10
10.0
 20
1.187263627020516
 30
0.0
 10
10.0
 20
0.814398019859594
 30
0.0
 10
10.0
 20
0.6535698983206986
 30
0.0
 10
10.0
 20
0.5246149900938845
 30
0.0
  0
SPLINE
  5
C3
330
1F
100
AcDbEntity
  8
0
  6
Continuous
 62
     1
370
    15
100
AcDbSpline
210
0.0
220
0.0
230
1.0
 70
    24
 71
     3
 72
     8
 73
     4
 74
     0
 42
0.000000001
 43
0.00000001
 40
0.0
 40
0.0
 40
0.0
 40
0.0
 40
1.0
 40
1.0
 40
1.0
 40
1.0
 10
9.999999999999996
 20
-2.705232853389284
 30
0.0
 10
9.999999999999996
 20
-2.737977879516585
 30
0.0
 10
9.999999999999996
 20
-2.788518216333304
 30
0.0
 10
9.999999999999996
 20
-2.859084326260525
 30
0.0
  0
SPLINE
  5
C4
330
1F
100
AcDbEntity
  8
0
  6
Continuous
 62
     1
370
    15
100
AcDbSpline
210
0.0
220
0.0
230
1.0
 70
    24
 71
     3
 72
     8
 73
     4
 74
     0
 42
0.000000001
 43
0.00000001
 40
0.0
 40
0.0
 40
0.0
 40
0.0
 40
1.0
 40
1.0
 40
1.0
 40
1.0
 10
9.999999999999996
 20
6.556587399020596
 30
0.0
 10
9.999999999999996
 20
6.344233677866242
 30
0.0
 10
9.999999999999996
 20
6.126542135331365
 30
0.0
 10
9.999999999999996
 20
5.90284372943113
 30
0.0
  0
SPLINE
  5
C5
330
1F
100
AcDbEntity
  8
0
  6
Continuous
 62
     1
370
    15
100
AcDbSpline
210
0.0
220
0.0
230
1.0
 70
    24
 71
     3
 72
    16
 73
    12
 74
     0
 42
0.000000001
 43
0.00000001
 40
0.0
 40
0.0
 40
0.0
 40
0.0
 40
0.25
 40
0.25
 40
0.5
 40
0.5
 40
0.75
 40
0.75
 40
0.875
 40
0.875
 40
1.0
 40
1.0
 40
1.0
 40
1.0
 10
10.0
 20
-2.859084326260423
 30
0.0
 10
10.0
 20
-2.978180159608493
 30
0.0
 10
10.0
 20
-3.15424640535302
 30
0.0
 10
10.0
 20
-3.67265302553916
 30
0.0
 10
10.0
 20
-4.016741244345146
 30
0.0
 10
10.0
 20
-4.89792930324888
 30
0.0
 10
10.0
 20
-5.436781628447942
 30
0.0
 10
10.0
 20
-6.34479671462867
 30
0.0
 10
10.0
 20
-6.663182257116843
 30
0.0
 10
10.0
 20
-7.313749181275334
 30
0.0
 10
10.0
 20
-7.645804666496312
 30
0.0
 10
10.0
 20
-7.97406325207986
 30
0.0
  0
LINE
  5
C6
330
1F
100
AcDbEntity
  8
0
  6
Continuous
 62
     4
370
    15
100
AcDbLine
 10
10.0
 20
8.76192805569197
 30
0.0
 11
10.0
 21
8.595898853719406
 31
0.0
  0
SPLINE
  5
C7
330
1F
100
AcDbEntity
  8
0
  6
Continuous
 62
     1
370
    15
100
AcDbSpline
210
0.0
220
0.0
230
1.0
 70
    24
 71
     3
 72
     8
 73
     4
 74
     0
 42
0.000000001
 43
0.00000001
 40
0.0
 40
0.0
 40
0.0
 40
0.0
 40
1.0
 40
1.0
 40
1.0
 40
1.0
 10
9.999999999999996
 20
9.261820252409926
 30
0.0
 10
9.999999999999996
 20
9.08221155738288
 30
0.0
 10
9.999999999999996
 20
8.915060351664732
 30
0.0
 10
9.999999999999996
 20
8.76192805569173
 30
0.0
  0
SPLINE
  5
C8
330
1F
100
AcDbEntity
  8
0
  6
Continuous
 62
     1
370
    15
100
AcDbSpline
210
0.0
220
0.0
230
1.0
 70
     8
 71
     3
 72
     9
 73
     5
 74
     0
 42
0.000000001
 43
0.00000001
 40
0.0
 40
0.0
 40
0.0
 40
0.0
 40
0.759789421152975
 40
1.0
 40
1.0
 40
1.0
 40
1.0
 10
9.999999999997428
 20
-9.259187191221725
 30
0.0
 10
10.57105722982526
 20
-9.381530394655497
 30
0.0
 10
11.3226565729186
 20
-9.542552909615123
 30
0.0
 10
12.07470169659547
 20
-9.501543691970785
 30
0.0
 10
12.25535089107298
 20
-9.491692844062372
 30
0.0
  0
SPLINE
  5
C9
330
1F
100
AcDbEntity
  8
0
  6
Continuous
 62
     1
370
    15
100
AcDbSpline
210
0.0
220
0.0
230
1.0
 70
     8
 71
     3
 72
    28
 73
    24
 74
     0
 42
0.000000001
 43
0.00000001
 40
0.0
 40
0.0
 40
0.0
 40
0.0
 40
0.0345043058619902
 40
0.084105022308561
 40
0.1337540229395418
 40
0.183366743474617
 40
0.2329478145006792
 40
0.2825354325397543
 40
0.3321677211236896
 40
0.3818033311980877
 40
0.4313923435223121
 40
0.4809728090823713
 40
0.5305829311528459
 40
0.5802326432149302
 40
0.6298355403404153
 40
0.6794148117971831
 40
0.72900867417845
 40
0.7786523505862597
 40
0.8282750518819735
 40
0.8778590896901154
 40
0.927442627451188
 40
0.9770638341808433
 40
1.0
 40
1.0
 40
1.0
 40
1.0
 10
38.82167497242097
 20
8.910472229675749
 30
0.0
 10
39.20434667584841
 20
9.041511368748488
 30
0.0
 10
40.1371175677583
 20
9.360922220225664
 30
0.0
 10
41.62068733650858
 20
9.55019987791561
 30
0.0
 10
43.27327059115355
 20
9.511579303597603
 30
0.0
 10
44.92450096314684
 20
9.17794544350209
 30
0.0
 10
46.5745375915419
 20
8.571875689584989
 30
0.0
 10
48.2248126259644
 20
7.708070961225387
 30
0.0
 10
49.87677578258852
 20
6.613693797874628
 30
0.0
 10
51.52886219500371
 20
5.321184090112799
 30
0.0
 10
53.17919061866328
 20
3.868702474460407
 30
0.0
 10
54.82920778560867
 20
2.30047581222051
 30
0.0
 10
56.48033960367299
 20
0.6630700182508675
 30
0.0
 10
58.1329496640898
 20
-0.9932483833065623
 30
0.0
 10
59.7838072952162
 20
-2.620836799638439
 30
0.0
 10
61.43378633404927
 20
-4.169545248972793
 30
0.0
 10
63.08430009161872
 20
-5.59350230902508
 30
0.0
 10
64.73668607330485
 20
-6.849411850033558
 30
0.0
 10
66.38829093638618
 20
-7.899346859878884
 30
0.0
 10
68.03843522900978
 20
-8.716833613494611
 30
0.0
 10
69.68854501324502
 20
-9.257086293163244
 30
0.0
 10
71.04379134906348
 20
-9.521562491250346
 30
0.0
 10
71.8490566204783
 20
-9.497147041274593
 30
0.0
 10
72.103609633422
 20
-9.489429054948442
 30
0.0
  0
LINE
  5
CA
330
1F
100
AcDbEntity
  8
0
  6
Continuous
 62
     1
370
    15
100
AcDbLine
 10
10.0
 20
-9.259187191231307
 30
0.0
 11
10.0
 21
-7.974063252079862
 31
0.0
  0
SPLINE
  5
CB
330
1F
100
AcDbEntity
  8
0
  6
Continuous
 62
     1
370
    15
100
AcDbSpline
210
0.0
220
0.0
230
1.0
 70
     8
 71
     3
 72
    28
 73
    24
 74
     0
 42
0.000000001
 43
0.00000001
 40
0.0
 40
0.0
 40
0.0
 40
0.0
 40
0.0224367826571432
 40
0.0728103041982727
 40
0.1223924418034607
 40
0.1719901704914142
 40
0.221637845017689
 40
0.2712620257031178
 40
0.3208485351623429
 40
0.3704355446986069
 40
0.4200612200396677
 40
0.4697078717499291
 40
0.5193047064481356
 40
0.568886949347363
 40
0.6184928193312688
 40
0.6681455070575407
 40
0.7177586024194501
 40
0.7673420394935351
 40
0.8169340238440204
 40
0.8665726087374291
 40
0.916207871941308
 40
0.9657984619230793
 40
1.0
 40
1.0
 40
1.0
 40
1.0
 10
78.71617333358898
 20
-8.905640565097034
 30
0.0
 10
78.46715921158889
 20
-8.999235961789815
 30
0.0
 10
77.65907570650054
 20
-9.30296530698583
 30
0.0
 10
76.30157410578404
 20
-9.51702561220017
 30
0.0
 10
74.64307748976063
 20
-9.548267464906484
 30
0.0
 10
72.99252842676434
 20
-9.277591574290792
 30
0.0
 10
71.34010503031877
 20
-8.733259578937702
 30
0.0
 10
69.68855513606296
 20
-7.925908046535486
 30
0.0
 10
68.0384325175209
 20
-6.881213700536053
 30
0.0
 10
66.38829166355619
 20
-5.630173739458471
 30
0.0
 10
64.73668587828497
 20
-4.210486211811632
 30
0.0
 10
63.08430014387297
 20
-2.66513806857839
 30
0.0
 10
61.43378631988183
 20
-1.039065749139601
 30
0.0
 10
59.78380729967339
 20
0.6178013653672862
 30
0.0
 10
58.13294966043009
 20
2.256490173855981
 30
0.0
 10
56.48033961385591
 20
3.826562951579174
 30
0.0
 10
54.82920774858149
 20
5.282805420121965
 30
0.0
 10
53.17919075652242
 20
6.580696919782458
 30
0.0
 10
51.52886168025903
 20
7.680744470201341
 30
0.0
 10
49.87677770557101
 20
8.553075442773906
 30
0.0
 10
48.22480545279182
 20
9.158552523204508
 30
0.0
 10
46.7451500419443
 20
9.491011108862544
 30
0.0
 10
45.81586330075633
 20
9.493434257730001
 30
0.0
 10
45.43655516526112
 20
9.494423317444518
 30
0.0
  0
SPLINE
  5
CC
330
1F
100
AcDbEntity
  8
0
  6
Continuous
 62
     1
370
    15
100
AcDbSpline
210
0.0
220
0.0
230
1.0
 70
     8
 71
     3
 72
    13
 73
     9
 74
     0
 42
0.000000001
 43
0.00000001
 40
0.0
 40
0.0
 40
0.0
 40
0.0
 40
0.0412609795864989
 40
0.2272624310956661
 40
0.4203553351293434
 40
0.6135699995637389
 40
0.8068614270534705
 40
1.0
 40
1.0
 40
1.0
 40
1.0
 10
18.87186553904947
 20
-8.915701955307057
 30
0.0
 10
18.74984426418095
 20
-8.964862164005167
 30
0.0
 10
18.07776008561996
 20
-9.235632966198105
 30
0.0
 10
16.83529731390216
 20
-9.467861023308405
 30
0.0
 10
15.14305232206431
 20
-9.574051678849886
 30
0.0
 10
13.42877986851475
 20
-9.343947915950583
 30
0.0
 10
11.71368300588133
 20
-8.837140008595917
 30
0.0
 10
10.57107701390157
 20
-8.261679628730317
 30
0.0
 10
10.0
 20
-7.974063252079866
 30
0.0
  0
SPLINE
  5
CD
330
1F
100
AcDbEntity
  8
0
  6
Continuous
 62
     1
370
    15
100
AcDbSpline
210
0.0
220
0.0
230
1.0
 70
     8
 71
     3
 72
    27
 73
    23
 74
     0
 42
0.000000001
 43
0.00000001
 40
0.0
 40
0.0
 40
0.0
 40
0.0
 40
0.0532476381556225
 40
0.1065374177813956
 40
0.1598060340976758
 40
0.2130410814916004
 40
0.2643210398928603
 40
0.3156306405003032
 40
0.3669827226584843
 40
0.4182873222166392
 40
0.4695664540691122
 40
0.5208596434706969
 40
0.5722041031037093
 40
0.623529590263046
 40
0.674814060126734
 40
0.7260969784238762
 40
0.7774178281823364
 40
0.8287654612588314
 40
0.8800614244022171
 40
0.9313402295636086
 40
0.9826414056418331
 40
1.0
 40
1.0
 40
1.0
 40
1.0
 10
9.999999999997428
 20
9.259187191221727
 30
0.0
 10
10.57107727485006
 20
9.364268197882863
 30
0.0
 10
11.71368378893846
 20
9.57451337485819
 30
0.0
 10
13.42877673390382
 20
9.500519529115568
 30
0.0
 10
15.14306406820125
 20
9.141309632997531
 30
0.0
 10
16.83525417204204
 20
8.489227872643553
 30
0.0
 10
18.5060481493115
 20
7.584511051729221
 30
0.0
 10
20.15715144747101
 20
6.463177476820852
 30
0.0
 10
21.80976465378719
 20
5.149016191188702
 30
0.0
 10
23.46066656049814
 20
3.679661387563122
 30
0.0
 10
25.11064941225633
 20
2.100311166456636
 30
0.0
 10
26.76113021547935
 20
0.4576624896402846
 30
0.0
 10
28.41347467820878
 20
-1.19785391960852
 30
0.0
 10
30.06513734183908
 20
-2.817955283627448
 30
0.0
 10
31.7152975015233
 20
-4.353784125190063
 30
0.0
 10
33.36540315895159
 20
-5.758973525300083
 30
0.0
 10
35.0168975380658
 20
-6.991874611188317
 30
0.0
 10
36.6693572311125
 20
-8.01341980334987
 30
0.0
 10
38.31993539349856
 20
-8.80061774442414
 30
0.0
 10
39.96992650876893
 20
-9.30415251357409
 30
0.0
 10
41.25610923598538
 20
-9.536533293185348
 30
0.0
 10
41.99291766733971
 20
-9.501768854873909
 30
0.0
 10
42.17919790973298
 20
-9.49297969378435
 30
0.0
  0
SPLINE
  5
CE
330
1F
100
AcDbEntity
  8
0
  6
Continuous
 62
     1
370
    15
100
AcDbSpline
210
0.0
220
0.0
230
1.0
 70
     8
 71
     3
 72
    17
 73
    13
 74
     0
 42
0.000000001
 43
0.00000001
 40
0.0
 40
0.0
 40
0.0
 40
0.0
 40
0.0603885604337812
 40
0.1660340094439203
 40
0.2717294747431137
 40
0.3773186098129147
 40
0.4828745528598632
 40
0.586292129138035
 40
0.6898130831363065
 40
0.7932305691063198
 40
0.8965929443099285
 40
1.0
 40
1.0
 40
1.0
 40
1.0
 10
68.74448112570423
 20
8.906008909548316
 30
0.0
 10
69.05905732443823
 20
9.019082907953221
 30
0.0
 10
69.92396198810728
 20
9.329971744914465
 30
0.0
 10
71.34011473540001
 20
9.534378260878993
 30
0.0
 10
72.9925268599068
 20
9.533353567816011
 30
0.0
 10
74.6430740659401
 20
9.234128629813718
 30
0.0
 10
76.28167413532972
 20
8.665480878859434
 30
0.0
 10
77.90965951642751
 20
7.846264203820691
 30
0.0
 10
79.52804877698472
 20
6.808652365464503
 30
0.0
 10
81.14466065114136
 20
5.573063113553578
 30
0.0
 10
82.76024575083015
 20
4.182820503909761
 30
0.0
 10
83.83761074252938
 20
3.162735866083454
 30
0.0
 10
84.3764096414462
 20
2.65258333291461
 30
0.0
  0
SPLINE
  5
CF
330
1F
100
AcDbEntity
  8
0
  6
Continuous
 62
     1
370
    15
100
AcDbSpline
210
0.0
220
0.0
230
1.0
 70
     8
 71
     3
 72
    13
 73
     9
 74
     0
 42
0.000000001
 43
0.00000001
 40
0.0
 40
0.0
 40
0.0
 40
0.0
 40
0.1798866259858812
 40
0.3597749110597497
 40
0.5397807741848206
 40
0.7198901114699747
 40
0.8998364882087753
 40
1.0
 40
1.0
 40
1.0
 40
1.0
 10
84.67600000000161
 20
5.32043918589961
 30
0.0
 10
84.1174902935791
 20
5.768055785927102
 30
0.0
 10
83.00046572961884
 20
6.663293114334157
 30
0.0
 10
81.32470956173894
 20
7.755681670334168
 30
0.0
 10
79.64762179912246
 20
8.623767070088315
 30
0.0
 10
77.96947541424201
 20
9.20829698180638
 30
0.0
 10
76.54050273598736
 20
9.50823497336278
 30
0.0
 10
75.67091649249294
 20
9.494717502822677
 30
0.0
 10
75.35996420012357
 20
9.489883837981582
 30
0.0
  0
SPLINE
  5
D0
330
1F
100
AcDbEntity
  8
0
  6
Continuous
 62
     1
370
    15
100
AcDbSpline
210
0.0
220
0.0
230
1.0
 70
     8
 71
     3
 72
    28
 73
    24
 74
     0
 42
0.000000001
 43
0.00000001
 40
0.0
 40
0.0
 40
0.0
 40
0.0
 40
0.0171492186056015
 40
0.0667352796919363
 40
0.1163147939708214
 40
0.1659259567649882
 40
0.2155733985159378
 40
0.2651725575985045
 40
0.3147500879632205
 40
0.3643442070602727
 40
0.4139882818392016
 40
0.4636064618891293
 40
0.5131879689282616
 40
0.5627709760576803
 40
0.6123936396536274
 40
0.6620346462742761
 40
0.7116260836538428
 40
0.7612039298710237
 40
0.8108063988528692
 40
0.8604547751064847
 40
0.910062079218013
 40
0.9596407245616068
 40
1.0
 40
1.0
 40
1.0
 40
1.0
 10
48.79541312409584
 20
-8.908487392508064
 30
0.0
 10
48.60509656249642
 20
-8.982371104449474
 30
0.0
 10
47.86448970101537
 20
-9.269885672575498
 30
0.0
 10
46.57456569686283
 20
-9.493204261907529
 30
0.0
 10
44.92449341221106
 20
-9.561988982213677
 30
0.0
 10
43.27327267411079
 20
-9.325979527958912
 30
0.0
 10
41.62068656437521
 20
-8.815608261505634
 30
0.0
 10
39.96991246533689
 20
-8.039360761362861
 30
0.0
 10
38.3199391570104
 20
-7.022656875103215
 30
0.0
 10
36.66935622139397
 20
-5.795085265856201
 30
0.0
 10
35.01689780856738
 20
-4.394627912517154
 30
0.0
 10
33.36540308660737
 20
-2.861902297542687
 30
0.0
 10
31.71529752067585
 20
-1.243352072593077
 30
0.0
 10
30.06513733754667
 20
0.4125104051651629
 30
0.0
 10
28.41347467620611
 20
2.055823727244423
 30
0.0
 10
26.76113022778544
 20
3.637083332171465
 30
0.0
 10
25.11064936509459
 20
5.110080430493962
 30
0.0
 10
23.46066673684347
 20
6.429776054303331
 30
0.0
 10
21.80976399493563
 20
7.55631564327422
 30
0.0
 10
20.15715390799775
 20
8.458216904181992
 30
0.0
 10
18.50603897748342
 20
9.098106857896928
 30
0.0
 10
16.95849346223796
 20
9.474017016311498
 30
0.0
 10
15.96077126677846
 20
9.491227068447062
 30
0.0
 10
15.51304749745587
 20
9.498950009208965
 30
0.0
  0
ELLIPSE
  5
D2
330
1F
100
AcDbEntity
  8
0
  6
Continuous
 62
     1
370
    15
100
AcDbEllipse
 10
87.62814800674212
 20
0.0000000000000104
 30
0.0
 11
13.41987174966148
 21
8.916837433236209
 31
0.0
210
0.0
220
0.0
230
1.0
 40
0.2495534463455924
 41
1.625236337942256
 42
1.647856510489278
  0
SPLINE
  5
D3
330
1F
100
AcDbEntity
  8
0
  6
Continuous
 62
     1
370
    15
100
AcDbSpline
210
0.0
220
0.0
230
1.0
 70
     8
 71
     3
 72
    28
 73
    24
 74
     0
 42
0.000000001
 43
0.00000001
 40
0.0
 40
0.0
 40
0.0
 40
0.0
 40
0.0212184843390215
 40
0.0708006295895965
 40
0.1204214368520087
 40
0.1700632184259243
 40
0.2196551878746331
 40
0.2692325669557592
 40
0.3188335708038421
 40
0.3684813878016596
 40
0.4180896163189656
 40
0.4676681894578056
 40
0.5172553090345926
 40
0.5668890245829779
 40
0.6165194187676776
 40
0.6661051441125326
 40
0.7156843226942655
 40
0.7652951495769917
 40
0.8149422551708602
 40
0.8645410784232621
 40
0.9141182731042587
 40
0.9637120564052712
 40
0.9999999999999999
 40
0.9999999999999999
 40
0.9999999999999999
 40
0.9999999999999999
 10
68.74448112570416
 20
-8.906008909548289
 30
0.0
 10
68.50913040719843
 20
-8.99504822614397
 30
0.0
 10
67.72382553912522
 20
-9.292149544620731
 30
0.0
 10
66.38830464810907
 20
-9.510041986502936
 30
0.0
 10
64.73668239619482
 20
-9.553228401589507
 30
0.0
 10
63.08430107598101
 20
-9.29439288389562
 30
0.0
 10
61.43378607049319
 20
-8.761042999789103
 30
0.0
 10
59.78380736586255
 20
-7.964070941185435
 30
0.0
 10
58.13294964513562
 20
-6.928461546269545
 30
0.0
 10
56.48033960875049
 20
-5.685879520254735
 30
0.0
 10
54.82920778424523
 20
-4.272183149787148
 30
0.0
 10
53.17919061904455
 20
-2.730606832014971
 30
0.0
 10
51.5288621948418
 20
-1.106946388340953
 30
0.0
 10
49.87677578285461
 20
0.5493018847341726
 30
0.0
 10
48.22481262506246
 20
2.189179479270733
 30
0.0
 10
46.57453759488016
 20
3.7639087136492
 30
0.0
 10
44.92450095069299
 20
5.225591607561054
 30
0.0
 10
43.27327063767784
 20
6.530944130031632
 30
0.0
 10
41.62068716281185
 20
7.639252939465872
 30
0.0
 10
39.9699121069007
 20
8.521905917802638
 30
0.0
 10
38.31993999264111
 20
9.13909222638886
 30
0.0
 10
36.81748978307291
 20
9.485009669391566
 30
0.0
 10
35.86422544655711
 20
9.493345178258572
 30
0.0
 10
35.46143891996169
 20
9.496867213580087
 30
0.0
  0
SPLINE
  5
D4
330
1F
100
AcDbEntity
  8
0
  6
Continuous
 62
     1
370
    15
100
AcDbSpline
210
0.0
220
0.0
230
1.0
 70
     8
 71
     3
 72
    22
 73
    18
 74
     0
 42
0.000000001
 43
0.00000001
 40
0.0
 40
0.0
 40
0.0
 40
0.0
 40
0.124999999999995
 40
0.124999999999995
 40
0.24999999999999
 40
0.24999999999999
 40
0.3749999999999849
 40
0.3749999999999849
 40
0.4374999999999861
 40
0.4374999999999861
 40
0.4999999999999872
 40
0.4999999999999872
 40
0.6249999999999901
 40
0.6249999999999901
 40
0.7499999999999929
 40
0.7499999999999929
 40
1.0
 40
1.0
 40
1.0
 40
1.0
 10
86.2
 20
-3.477263706244406
 30
0.0
 10
86.2
 20
-3.601566409518
 30
0.0
 10
86.19656229105496
 20
-3.724630299854901
 30
0.0
 10
86.17588309865657
 20
-3.966860150672269
 30
0.0
 10
86.15839485970184
 20
-4.087810350011104
 30
0.0
 10
86.09831226420316
 20
-4.311480236134668
 30
0.0
 10
86.05452203150107
 20
-4.415564784010596
 30
0.0
 10
85.96482526039016
 20
-4.536090923791658
 30
0.0
 10
85.93017121729304
 20
-4.571257152521992
 30
0.0
 10
85.85537202641343
 20
-4.62632192829933
 30
0.0
 10
85.81515988718994
 20
-4.646712000231644
 30
0.0
 10
85.68608761035065
 20
-4.688169425364816
 30
0.0
 10
85.59416869809576
 20
-4.688028398812308
 30
0.0
 10
85.40697950748121
 20
-4.651745612307884
 30
0.0
 10
85.31377072808948
 20
-4.616342513559898
 30
0.0
 10
85.03224398007202
 20
-4.474889082102621
 30
0.0
 10
84.85223888652169
 20
-4.340042845152897
 30
0.0
 10
84.676
 20
-4.181849823669603
 30
0.0
  0
SPLINE
  5
D5
330
1F
100
AcDbEntity
  8
0
  6
Continuous
 62
     1
370
    15
100
AcDbSpline
210
0.0
220
0.0
230
1.0
 70
     8
 71
     3
 72
    19
 73
    15
 74
     0
 42
0.000000001
 43
0.00000001
 40
0.0
 40
0.0
 40
0.0
 40
0.0
 40
0.0868748395709084
 40
0.1737504803853883
 40
0.2606829046004086
 40
0.3476653008520259
 40
0.4345689965818933
 40
0.5201074077997696
 40
0.6056727165358516
 40
0.6913241911345467
 40
0.7769351344871834
 40
0.862481087966577
 40
0.9480279041718928
 40
1.0
 40
1.0
 40
1.0
 40
1.0
 10
84.67600000000161
 20
-4.181849823671041
 30
0.0
 10
84.11749030797179
 20
-3.667331357597568
 30
0.0
 10
83.00046577279699
 20
-2.638289680065011
 30
0.0
 10
81.32470938897747
 20
-0.9780944380980855
 30
0.0
 10
79.64762244760813
 20
0.7031171508705119
 30
0.0
 10
77.96947299265834
 20
2.364393270662481
 30
0.0
 10
76.30156512928734
 20
3.944697702488723
 30
0.0
 10
74.64307978572978
 20
5.396681558207205
 30
0.0
 10
72.9925281620496
 20
6.679927939537257
 30
0.0
 10
71.3401037889395
 20
7.761444878423
 30
0.0
 10
69.6885603612976
 20
8.614095559330636
 30
0.0
 10
68.03841287317105
 20
9.196187369275508
 30
0.0
 10
66.60460424250846
 20
9.502591123617895
 30
0.0
 10
65.7201320448957
 20
9.494092251787087
 30
0.0
 10
65.38586621096839
 20
9.490880299520374
 30
0.0
  0
SPLINE
  5
D6
330
1F
100
AcDbEntity
  8
0
  6
Continuous
 62
     1
370
    15
100
AcDbSpline
210
0.0
220
0.0
230
1.0
 70
     8
 71
     3
 72
    25
 73
    21
 74
     0
 42
0.000000001
 43
0.00000001
 40
0.0
 40
0.0
 40
0.0
 40
0.0
 40
0.0174080689119362
 40
0.0746802070656144
 40
0.1320100348963369
 40
0.1893099590504983
 40
0.2465675325836783
 40
0.3038268384468139
 40
0.3611319402767101
 40
0.4184582249457009
 40
0.4757272662060959
 40
0.532980612159386
 40
0.5902623929030357
 40
0.6475971881503997
 40
0.7048845525846202
 40
0.7621388213827789
 40
0.8215759544850243
 40
0.8810505674168901
 40
0.9405488092643816
 40
1.0
 40
1.0
 40
1.0
 40
1.0
 10
38.82167497242104
 20
-8.910472229675726
 30
0.0
 10
38.65448529196333
 20
-8.976283618106851
 30
0.0
 10
37.93724548673404
 20
-9.258612929886054
 30
0.0
 10
36.66935725678368
 20
-9.484004876405596
 30
0.0
 10
35.01689753118814
 20
-9.565662258058945
 30
0.0
 10
33.36540316079252
 20
-9.34123225553474
 30
0.0
 10
31.71529750103016
 20
-8.841981091479518
 30
0.0
 10
30.06513734197131
 20
-8.076290194503338
 30
0.0
 10
28.41347467817331
 20
-7.068972380510387
 30
0.0
 10
26.76113021548886
 20
-5.850091333225026
 30
0.0
 10
25.1106494122538
 20
-4.455236882398697
 30
0.0
 10
23.46066656049885
 20
-2.927128807745622
 30
0.0
 10
21.80976465378703
 20
-1.310948482855899
 30
0.0
 10
20.15715144747109
 20
0.3434587489634571
 30
0.0
 10
18.50604814931151
 20
1.988650109678123
 30
0.0
 10
16.83525417204227
 20
3.593672154341216
 30
0.0
 10
15.14306406820189
 20
5.108261468777508
 30
0.0
 10
13.4287767339051
 20
6.471353130071763
 30
0.0
 10
11.71368378894038
 20
7.644924549848354
 30
0.0
 10
10.57107727485241
 20
8.214168733969904
 30
0.0
 10
10.0
 20
8.498678242173792
 30
0.0
  0
LINE
  5
D7
330
1F
100
AcDbEntity
  8
0
  6
Continuous
 62
     1
370
    15
100
AcDbLine
 10
10.0
 20
9.259187191231309
 30
0.0
 11
10.0
 21
8.595898853719406
 31
0.0
  0
SPLINE
  5
D8
330
1F
100
AcDbEntity
  8
0
  6
Continuous
 62
     1
370
    15
100
AcDbSpline
210
0.0
220
0.0
230
1.0
 70
     8
 71
     3
 72
    14
 73
    10
 74
     0
 42
0.000000001
 43
0.00000001
 40
0.0
 40
0.0
 40
0.0
 40
0.0
 40
0.2499999999999999
 40
0.2499999999999999
 40
0.4999999999999998
 40
0.4999999999999998
 40
0.7499999999999999
 40
0.7499999999999999
 40
1.0
 40
1.0
 40
1.0
 40
1.0
 10
84.37640964144877
 20
2.652583332919977
 30
0.0
 10
84.34373063081965
 20
2.511084492592708
 30
0.0
 10
84.29727569798021
 20
2.364135801591779
 30
0.0
 10
84.16936842904782
 20
2.056393203365186
 30
0.0
 10
84.08788292776129
 20
1.895144362887198
 30
0.0
 10
83.87564480975227
 20
1.554978147072997
 30
0.0
 10
83.74892121040338
 20
1.382537529124747
 30
0.0
 10
83.4419940103991
 20
1.032757424429109
 30
0.0
 10
83.27060008146994
 20
0.8655184136685863
 30
0.0
 10
83.07932523778653
 20
0.7067627779871065
 30
0.0
  0
SPLINE
  5
D9
330
1F
100
AcDbEntity
  8
0
  6
Continuous
 62
     1
370
    15
100
AcDbSpline
210
0.0
220
0.0
230
1.0
 70
     8
 71
     3
 72
     8
 73
     4
 74
     0
 42
0.000000001
 43
0.00000001
 40
0.0
 40
0.0
 40
0.0
 40
0.0
 40
1.0
 40
1.0
 40
1.0
 40
1.0
 10
86.2
 20
-1.480306981946347
 30
0.0
 10
85.1573281175589
 20
-0.7581130517480658
 30
0.0
 10
84.11697297875259
 20
-0.0291255126740195
 30
0.0
 10
83.07932523778601
 20
0.7067627779880498
 30
0.0
  0
LINE
  5
DA
330
1F
100
AcDbEntity
  8
0
  6
Continuous
 62
     1
370
    15
100
AcDbLine
 10
86.2
 20
-3.477263706244405
 30
0.0
 11
86.2
 21
-1.480306981946346
 31
0.0
  0
SPLINE
  5
DC
330
1F
100
AcDbEntity
  8
0
  6
Continuous
 62
     1
370
    15
100
AcDbSpline
210
0.0
220
0.0
230
1.0
 70
     8
 71
     3
 72
    28
 73
    24
 74
     0
 42
0.000000001
 43
0.00000001
 40
0.0
 40
0.0
 40
0.0
 40
0.0
 40
0.0191654511136949
 40
0.0688119470298628
 40
0.1184188555189314
 40
0.1679961094186358
 40
0.2175819095288744
 40
0.2672143043708363
 40
0.3168433779374911
 40
0.3664277838528969
 40
0.4160056431793838
 40
0.4656151499647326
 40
0.5152609344958812
 40
0.564858437970311
 40
0.6144343134488514
 40
0.6640267771060001
 40
0.7136691947775168
 40
0.7632857185843921
 40
0.8128655706046084
 40
0.8624469226650386
 40
0.9120679298682737
 40
0.9617072794839244
 40
1.0
 40
1.0
 40
1.0
 40
1.0
 10
58.77110458014675
 20
-8.907032966216498
 30
0.0
 10
58.5584993543897
 20
-8.988559841906135
 30
0.0
 10
57.79515809796549
 20
-9.281275260822456
 30
0.0
 10
56.48030413866251
 20
-9.50181653017644
 30
0.0
 10
54.82921727882223
 20
-9.5578647079079
 30
0.0
 10
53.17918807521922
 20
-9.31041454618117
 30
0.0
 10
51.52886287720393
 20
-8.788372344065687
 30
0.0
 10
49.8767756000249
 20
-8.001935930367464
 30
0.0
 10
48.22481267372837
 20
-6.976038261548498
 30
0.0
 10
46.57453758286442
 20
-5.74063278760483
 30
0.0
 10
44.92450095011829
 20
-4.333328260884048
 30
0.0
 10
43.27327065201521
 20
-2.795968473731854
 30
0.0
 10
41.62068710601532
 20
-1.175695556632981
 30
0.0
 10
39.96991231946779
 20
0.4808407795548919
 30
0.0
 10
38.31993919934461
 20
2.122591939030881
 30
0.0
 10
36.66935619792454
 20
3.701089534163199
 30
0.0
 10
35.01689786010121
 20
5.167746685813606
 30
0.0
 10
33.36540290412106
 20
6.480311244635576
 30
0.0
 10
31.71529819859602
 20
7.597988491630931
 30
0.0
 10
30.06513480720222
 20
8.490382435321663
 30
0.0
 10
28.4134841292873
 20
9.119103709908895
 30
0.0
 10
26.88650391713338
 20
9.478817171386716
 30
0.0
 10
25.91119386503708
 20
9.493479724309507
 30
0.0
 10
25.48646514904648
 20
9.499864983297309
 30
0.0
  0
SPLINE
  5
DD
330
1F
100
AcDbEntity
  8
0
  6
Continuous
 62
     1
370
    15
100
AcDbSpline
210
0.0
220
0.0
230
1.0
 70
     8
 71
     3
 72
    28
 73
    24
 74
     0
 42
0.000000001
 43
0.00000001
 40
0.0
 40
0.0
 40
0.0
 40
0.0
 40
0.0365896744454606
 40
0.0861752673488642
 40
0.1357593600837509
 40
0.1853801277419455
 40
0.2350267914795618
 40
0.2846234969300919
 40
0.3342036127831773
 40
0.38380535848206
 40
0.4334553893672859
 40
0.4830691394037671
 40
0.5326512392744838
 40
0.5822398862940689
 40
0.6318732047854618
 40
0.6815098448362409
 40
0.731099886169908
 40
0.7806813805620578
 40
0.8302925320800181
 40
0.8799432744111102
 40
0.929547200834158
 40
0.979127501098238
 40
0.9999999999999999
 40
0.9999999999999999
 40
0.9999999999999999
 40
0.9999999999999999
 10
28.84749043261392
 20
8.912855844842355
 30
0.0
 10
29.25350775719281
 20
9.049381685115046
 30
0.0
 10
30.20975161626322
 20
9.37092460572956
 30
0.0
 10
31.71528317902182
 20
9.554426893145276
 30
0.0
 10
33.36540693180655
 20
9.503312327043743
 30
0.0
 10
35.01689677988346
 20
9.158167730258212
 30
0.0
 10
36.66935648711519
 20
8.541284400201693
 30
0.0
 10
38.31993912190161
 20
7.667345651728571
 30
0.0
 10
39.96991234029107
 20
6.563959315770617
 30
0.0
 10
41.62068710018197
 20
5.263483229074724
 30
0.0
 10
43.2732706544986
 20
3.806162745943132
 30
0.0
 10
44.92450094602068
 20
2.233974609189863
 30
0.0
 10
46.57453759676528
 20
0.5949733598166984
 30
0.0
 10
48.22481262219171
 20
-1.062052498362431
 30
0.0
 10
49.8767757924607
 20
-2.686772218258962
 30
0.0
 10
51.52886215930354
 20
-4.230933026884331
 30
0.0
 10
53.17919075144629
 20
-5.648727410602109
 30
0.0
 10
54.82920729009124
 20
-6.897330476805944
 30
0.0
 10
56.48034145481786
 20
-7.938087681103561
 30
0.0
 10
58.13294275228076
 20
-8.745052755677111
 30
0.0
 10
59.78383305745478
 20
-9.273274199247037
 30
0.0
 10
61.11517882399642
 20
-9.526658493035582
 30
0.0
 10
61.89667324455352
 20
-9.498498489282374
 30
0.0
 10
62.12820047452795
 20
-9.490155745567836
 30
0.0
  0
SPLINE
  5
DF
330
1F
100
AcDbEntity
  8
0
  6
Continuous
 62
     1
370
    15
100
AcDbSpline
210
0.0
220
0.0
230
1.0
 70
     8
 71
     3
 72
    25
 73
    21
 74
     0
 42
0.000000001
 43
0.00000001
 40
0.0
 40
0.0
 40
0.0
 40
0.0
 40
0.05726367347919
 40
0.1145278750992137
 40
0.171829505578084
 40
0.2291640751956154
 40
0.2864467692528304
 40
0.3428295340913325
 40
0.3992300284670348
 40
0.455687319193051
 40
0.5121178936908537
 40
0.5685056300217114
 40
0.624893935019582
 40
0.6813262091782119
 40
0.7377823367999825
 40
0.7941818145673637
 40
0.8505646991419107
 40
0.9069744514640697
 40
0.9634374429946536
 40
1.0
 40
1.0
 40
1.0
 40
1.0
 10
84.67600000000161
 20
-9.50228900957062
 30
0.0
 10
84.11749030792744
 20
-9.435336491909785
 30
0.0
 10
83.00046577266396
 20
-9.301430839087415
 30
0.0
 10
81.32470938950958
 20
-8.734384101755623
 30
0.0
 10
79.64762244561074
 20
-7.918367726989473
 30
0.0
 10
77.969473000117
 20
-6.852425903113078
 30
0.0
 10
76.30156510166388
 20
-5.582129203095445
 30
0.0
 10
74.64307988703709
 20
-4.148939503894599
 30
0.0
 10
72.9925277834718
 20
-2.598511733157352
 30
0.0
 10
71.34010520315098
 20
-0.9710715642691415
 30
0.0
 10
69.68855508802764
 20
0.6860650295503353
 30
0.0
 10
68.03843253700072
 20
2.322714747163481
 30
0.0
 10
66.38829163364258
 20
3.889773375397986
 30
0.0
 10
64.73668597855121
 20
5.340051533030786
 30
0.0
 10
63.08429977274498
 20
6.630103390356262
 30
0.0
 10
61.43378770238629
 20
7.721271934818024
 30
0.0
 10
59.78380214080155
 20
8.583845554047617
 30
0.0
 10
58.13296893167473
 20
9.177757295531
 30
0.0
 10
56.67410618230175
 20
9.49686415237208
 30
0.0
 10
55.76669600460406
 20
9.493650683168926
 30
0.0
 10
55.41004950403022
 20
9.492387668300706
 30
0.0
  0
SPLINE
  5
E0
330
1F
100
AcDbEntity
  8
0
  6
Continuous
 62
     1
370
    15
100
AcDbSpline
210
0.0
220
0.0
230
1.0
 70
     8
 71
     3
 72
    19
 73
    15
 74
     0
 42
0.000000001
 43
0.00000001
 40
0.0
 40
0.0
 40
0.0
 40
0.0
 40
0.0230194824281326
 40
0.1106849438860755
 40
0.1982628666196977
 40
0.2858167875128373
 40
0.3734141919324733
 40
0.461092668079658
 40
0.5486986112841351
 40
0.6362539434255656
 40
0.7271473918887283
 40
0.8180981558848619
 40
0.9090850540872158
 40
1.0
 40
1.0
 40
1.0
 40
1.0
 10
28.84749043261399
 20
-8.912855844842335
 30
0.0
 10
28.70285884281042
 20
-8.970441419896996
 30
0.0
 10
28.00742446666658
 20
-9.24733105733659
 30
0.0
 10
26.76109639795605
 20
-9.474153666524273
 30
0.0
 10
25.11065846687562
 20
-9.568830957808027
 30
0.0
 10
23.46066413333087
 20
-9.355861191313672
 30
0.0
 10
21.8097653049661
 20
-8.867924452484957
 30
0.0
 10
20.15715127309301
 20
-8.11316082897291
 30
0.0
 10
18.50604819593121
 20
-7.115178730407991
 30
0.0
 10
16.83525415902304
 20
-5.888649716928179
 30
0.0
 10
15.1430640717466
 20
-4.461852987381683
 30
0.0
 10
13.42877673295915
 20
-2.873645484984014
 30
0.0
 10
11.71368378917668
 20
-1.191952982864632
 30
0.0
 10
10.57107727493116
 20
-0.0474234258744611
 30
0.0
 10
10.0
 20
0.5246149900938828
 30
0.0
  0
SPLINE
  5
E1
330
1F
100
AcDbEntity
  8
0
  6
Continuous
 62
     1
370
    15
100
AcDbSpline
210
0.0
220
0.0
230
1.0
 70
    24
 71
     3
 72
    18
 73
    14
 74
     0
 42
0.000000001
 43
0.00000001
 40
0.0
 40
0.0
 40
0.0
 40
0.0
 40
0.2500000000000001
 40
0.2500000000000001
 40
0.5000000000000001
 40
0.5000000000000001
 40
0.6250000000000001
 40
0.6250000000000001
 40
0.75
 40
0.75
 40
0.875
 40
0.875
 40
1.0
 40
1.0
 40
1.0
 40
1.0
 10
10.0
 20
6.56474427927135
 30
0.0
 10
10.0
 20
6.197033802354593
 30
0.0
 10
10.0
 20
5.766374551829639
 30
0.0
 10
10.0
 20
4.774456577733182
 30
0.0
 10
10.0
 20
4.210902007254054
 30
0.0
 10
10.0
 20
3.32137592337975
 30
0.0
 10
10.0
 20
3.018420275308284
 30
0.0
 10
10.0
 20
2.421006685702932
 30
0.0
 10
10.0
 20
2.126676885594596
 30
0.0
 10
10.0
 20
1.574426458947904
 30
0.0
 10
10.0
 20
1.316759753088517
 30
0.0
 10
10.0
 20
0.8664400038549118
 30
0.0
 10
10.0
 20
0.6740628526806403
 30
0.0
 10
10.0
 20
0.5246149900938845
 30
0.0
  0
SPLINE
  5
E2
330
1F
100
AcDbEntity
  8
0
  6
Continuous
 62
     1
370
    15
100
AcDbSpline
210
0.0
220
0.0
230
1.0
 70
     8
 71
     3
 72
    21
 73
    17
 74
     0
 42
0.000000001
 43
0.00000001
 40
0.0
 40
0.0
 40
0.0
 40
0.0
 40
0.0771675133367824
 40
0.1543960989121187
 40
0.2315940142075308
 40
0.3087432807674627
 40
0.3830591943160344
 40
0.4574180659266004
 40
0.5318385026271258
 40
0.6061901266197509
 40
0.6805048423177371
 40
0.7548399304894355
 40
0.8292493204781632
 40
0.9036312151888632
 40
0.9779536668365721
 40
1.0
 40
1.0
 40
1.0
 40
1.0
 10
9.999999999997428
 20
6.564744279262333
 30
0.0
 10
10.5710772748478
 20
6.130312808219387
 30
0.0
 10
11.71368378893166
 20
5.261106046548189
 30
0.0
 10
13.428776733931
 20
3.731571729687849
 30
0.0
 10
15.14306406809943
 20
2.096366230586433
 30
0.0
 10
16.83525417241601
 20
0.4102452317876081
 30
0.0
 10
18.50604814797238
 20
-1.266026286959268
 30
0.0
 10
20.1571514524799
 20
-2.883918888206783
 30
0.0
 10
21.8097646350825
 20
-4.414421782389221
 30
0.0
 10
23.46066663021694
 20
-5.813481363552434
 30
0.0
 10
25.11064915216829
 20
-7.038399207888746
 30
0.0
 10
26.76113118686568
 20
-8.051046804374213
 30
0.0
 10
28.41347104950658
 20
-8.827611786615906
 30
0.0
 10
30.06515087373926
 20
-9.318740436125758
 30
0.0
 10
31.32848732344974
 20
-9.541288984650135
 30
0.0
 10
32.04157646224169
 20
-9.503770016315045
 30
0.0
 10
32.20471020684415
 20
-9.49518678391791
 30
0.0
  0
SPLINE
  5
E3
330
1F
100
AcDbEntity
  8
0
  6
Continuous
 62
     1
370
    15
100
AcDbSpline
210
0.0
220
0.0
230
1.0
 70
     8
 71
     3
 72
    23
 73
    19
 74
     0
 42
0.000000001
 43
0.00000001
 40
0.0
 40
0.0
 40
0.0
 40
0.0
 40
0.0395596644257298
 40
0.104000660809763
 40
0.168460621847476
 40
0.2329853290060981
 40
0.2974827736196481
 40
0.3619299651014032
 40
0.426376506643568
 40
0.4908720086846854
 40
0.5553980451757295
 40
0.61985916811308
 40
0.6843000276486684
 40
0.7474354354152347
 40
0.8106339542577655
 40
0.8737693068920939
 40
0.9368710149484458
 40
1.0
 40
1.0
 40
1.0
 40
1.0
 10
58.77110458014682
 20
8.907032966216523
 30
0.0
 10
59.10876190457837
 20
9.026435088108327
 30
0.0
 10
59.99644852623984
 20
9.340338144645855
 30
0.0
 10
61.43376204205554
 20
9.54017770694066
 30
0.0
 10
63.08430665766635
 20
9.526504464764674
 30
0.0
 10
64.73668413152998
 20
9.215918453177245
 30
0.0
 10
66.38829213642056
 20
8.63215290672703
 30
0.0
 10
68.03843237105347
 20
7.788741838940204
 30
0.0
 10
69.68855524929914
 20
6.712102125569164
 30
0.0
 10
71.34010472363252
 20
5.434254339339623
 30
0.0
 10
72.99252954024264
 20
3.994104897556713
 30
0.0
 10
74.64307334781529
 20
2.433439077923625
 30
0.0
 10
76.2816743233848
 20
0.8113631444512123
 30
0.0
 10
77.90965946641894
 20
-0.8228824823248412
 30
0.0
 10
79.52804879037133
 20
-2.421795825049428
 30
0.0
 10
81.1446606475761
 20
-3.948614031993287
 30
0.0
 10
82.76024575172276
 20
-5.375343916199324
 30
0.0
 10
83.83761074282768
 20
-6.189239659427951
 30
0.0
 10
84.37640964144728
 20
-6.596275467778315
 30
0.0
  0
SPLINE
  5
E4
330
1F
100
AcDbEntity
  8
0
  6
Continuous
 62
     1
370
    15
100
AcDbSpline
210
0.0
220
0.0
230
1.0
 70
     8
 71
     3
 72
    10
 73
     6
 74
     0
 42
0.000000001
 43
0.00000001
 40
0.0
 40
0.0
 40
0.0
 40
0.0
 40
0.2504297565102409
 40
0.6188511642907897
 40
1.0
 40
1.0
 40
1.0
 40
1.0
 10
83.74071060177755
 20
-6.10251300948665
 30
0.0
 10
83.6951096103232
 20
-6.099428714179106
 30
0.0
 10
83.58242241592748
 20
-6.091806937243776
 30
0.0
 10
83.36066201883436
 20
-6.127822936618547
 30
0.0
 10
83.17415974488136
 20
-6.1912834227597
 30
0.0
 10
83.07932523778655
 20
-6.223552433724744
 30
0.0
  0
SPLINE
  5
E5
330
1F
100
AcDbEntity
  8
0
  6
Continuous
 62
     1
370
    15
100
AcDbSpline
210
0.0
220
0.0
230
1.0
 70
     8
 71
     3
 72
     8
 73
     4
 74
     0
 42
0.000000001
 43
0.00000001
 40
0.0
 40
0.0
 40
0.0
 40
0.0
 40
1.0
 40
1.0
 40
1.0
 40
1.0
 10
86.2
 20
-7.253764870742776
 30
0.0
 10
85.1573281175589
 20
-6.998401971398584
 30
0.0
 10
84.11697297875257
 20
-6.656275217222025
 30
0.0
 10
83.07932523778598
 20
-6.223552433724212
 30
0.0
  0
LINE
  5
E6
330
1F
100
AcDbEntity
  8
0
  6
Continuous
 62
     1
370
    15
100
AcDbLine
 10
86.2
 20
-8.743000000000011
 30
0.0
 11
86.2
 21
-7.253764870742777
 31
0.0
  0
SPLINE
  5
E7
330
1F
100
AcDbEntity
  8
0
  6
Continuous
 62
     1
370
    15
100
AcDbSpline
210
0.0
220
0.0
230
1.0
 70
     8
 71
     3
 72
    15
 73
    11
 74
     0
 42
0.000000001
 43
0.00000001
 40
0.0
 40
0.0
 40
0.0
 40
0.0
 40
0.1401010149708747
 40
0.2803129092773398
 40
0.420469120341453
 40
0.5605370074863016
 40
0.6954608176031667
 40
0.8304626199712571
 40
0.9655761964683444
 40
1.0
 40
1.0
 40
1.0
 40
1.0
 10
9.999999999997428
 20
-2.694442911959352
 30
0.0
 10
10.571077295982
 20
-3.233961786868048
 30
0.0
 10
11.713683852351
 20
-4.31342652498671
 30
0.0
 10
13.42877648006146
 20
-5.768870954534852
 30
0.0
 10
15.14306501940974
 20
-7.045231358738583
 30
0.0
 10
16.83525067839121
 20
-8.077925019024756
 30
0.0
 10
18.50606065949761
 20
-8.854324507626893
 30
0.0
 10
20.15710465391055
 20
-9.332930698971241
 30
0.0
 10
21.39963228185707
 20
-9.545982752148642
 30
0.0
 10
22.09071018635509
 20
-9.505970298166998
 30
0.0
 10
22.23103045086239
 20
-9.497845949103386
 30
0.0
  0
SPLINE
  5
E8
330
1F
100
AcDbEntity
  8
0
  6
Continuous
 62
     1
370
    15
100
AcDbSpline
210
0.0
220
0.0
230
1.0
 70
     8
 71
     3
 72
    28
 73
    24
 74
     0
 42
0.000000001
 43
0.00000001
 40
0.0
 40
0.0
 40
0.0
 40
0.0
 40
0.0324818249704583
 40
0.0821163554023413
 40
0.1317042890976157
 40
0.1812836762146287
 40
0.2308927191969872
 40
0.2805413513098188
 40
0.3301431695043403
 40
0.3797213625440352
 40
0.4293141461908565
 40
0.4789567427806974
 40
0.5285783647146797
 40
0.578161324002074
 40
0.6277437832532757
 40
0.6773639106537086
 40
0.72700752997602
 40
0.7766012075395675
 40
0.8261792952938231
 40
0.8747530233478829
 40
0.9233753064101314
 40
0.9719489920477657
 40
1.0
 40
1.0
 40
1.0
 40
1.0
 10
48.79541312409584
 20
8.908487392508086
 30
0.0
 10
49.15584941483634
 20
9.033858452590142
 30
0.0
 10
50.06705790072855
 20
9.350805377100375
 30
0.0
 10
51.5288791934189
 20
9.545411596935384
 30
0.0
 10
53.17918606675014
 20
9.519276685223605
 30
0.0
 10
54.8292090059164
 20
9.197120215539735
 30
0.0
 10
56.48033927656056
 20
8.602055096650082
 30
0.0
 10
58.13294975073756
 20
7.74890030419888
 30
0.0
 10
59.78380727552622
 20
6.663142301666151
 30
0.0
 10
61.43378632624852
 20
5.377828735064313
 30
0.0
 10
63.08430014255382
 20
3.931023771477021
 30
0.0
 10
64.73668587718532
 20
2.367214980052333
 30
0.0
 10
66.38829166926877
 20
0.7319516743995425
 30
0.0
 10
68.03843249578817
 20
-0.9253842729478027
 30
0.0
 10
69.68855521731362
 20
-2.554963831812628
 30
0.0
 10
71.34010472673809
 20
-4.107891886343517
 30
0.0
 10
72.9925295598376
 20
-5.537126173179288
 30
0.0
 10
74.64307326644233
 20
-6.801417977903262
 30
0.0
 10
76.28167462659624
 20
-7.853335353752609
 30
0.0
 10
77.90965835925564
 20
-8.671509121925448
 30
0.0
 10
79.52805292819559
 20
-9.221753748938399
 30
0.0
 10
80.91729445966887
 20
-9.507314209995675
 30
0.0
 10
81.76707538944014
 20
-9.495788417230042
 30
0.0
 10
82.07816585521422
 20
-9.491569018895413
 30
0.0
  0
LINE
  5
E9
330
1F
100
AcDbEntity
  8
0
  6
Continuous
 62
     1
370
    15
100
AcDbLine
 10
10.0
 20
-2.694442911959853
 30
0.0
 11
10.0
 21
0.5246149900938843
 31
0.0
  0
LINE
  5
EA
330
1F
100
AcDbEntity
  8
0
  6
Continuous
 62
     1
370
    15
100
AcDbLine
 10
10.0
 20
6.564744279271411
 30
0.0
 11
10.0
 21
8.49867824217379
 31
0.0
  0
ELLIPSE
  5
EC
330
1F
100
AcDbEntity
  8
0
  6
Continuous
 62
     1
370
    15
100
AcDbEllipse
 10
87.62814800674212
 20
0.0000000000000153
 30
0.0
 11
13.41987174966148
 21
8.916837433236193
 31
0.0
210
0.0
220
0.0
230
1.0
 40
0.2495534463455959
 41
4.306687302902414
 42
4.329307475449445
  0
SPLINE
  5
ED
330
1F
100
AcDbEntity
  8
0
  6
Continuous
 62
     1
370
    15
100
AcDbSpline
210
0.0
220
0.0
230
1.0
 70
     8
 71
     3
 72
    22
 73
    18
 74
     0
 42
0.000000001
 43
0.00000001
 40
0.0
 40
0.0
 40
0.0
 40
0.0
 40
0.1249999999999964
 40
0.1249999999999964
 40
0.2499999999999928
 40
0.2499999999999928
 40
0.3749999999999892
 40
0.3749999999999892
 40
0.437499999999991
 40
0.437499999999991
 40
0.4999999999999923
 40
0.4999999999999923
 40
0.6249999999999943
 40
0.6249999999999943
 40
0.7499999999999964
 40
0.7499999999999964
 40
1.0
 40
1.0
 40
1.0
 40
1.0
 10
86.2
 20
4.501839169799609
 30
0.0
 10
86.20000000000003
 20
4.445855953091114
 30
0.0
 10
86.19656229105496
 20
4.395789447276432
 30
0.0
 10
86.17588309865657
 20
4.313121621952506
 30
0.0
 10
86.15839485970181
 20
4.280089886780021
 30
0.0
 10
86.09831226420313
 20
4.246030576220646
 30
0.0
 10
86.05452203150108
 20
4.245608393465726
 30
0.0
 10
85.96482526039019
 20
4.279190048748482
 30
0.0
 10
85.93017121729304
 20
4.296360175526269
 30
0.0
 10
85.85537202641343
 20
4.340379336664403
 30
0.0
 10
85.81515988718996
 20
4.367110022617948
 30
0.0
 10
85.68608761035065
 20
4.459789508730089
 30
0.0
 10
85.5941686980957
 20
4.534159090910755
 30
0.0
 10
85.40697950748118
 20
4.691270453474843
 30
0.0
 10
85.3137707280895
 20
4.772289612896993
 30
0.0
 10
85.032243980072
 20
5.017428048852386
 30
0.0
 10
84.85223888652165
 20
5.17439756388101
 30
0.0
 10
84.676
 20
5.320439185900935
 30
0.0
  0
SPLINE
  5
EE
330
1F
100
AcDbEntity
  8
0
  6
Continuous
 62
     1
370
    15
100
AcDbSpline
210
0.0
220
0.0
230
1.0
 70
     8
 71
     3
 72
    28
 73
    24
 74
     0
 42
0.000000001
 43
0.00000001
 40
0.0
 40
0.0
 40
0.0
 40
0.0
 40
0.0386100043013147
 40
0.0882594158242586
 40
0.1378629191181727
 40
0.1874417991339875
 40
0.2370342705955924
 40
0.2866763123318979
 40
0.3363000106610123
 40
0.3858840516966805
 40
0.4354665926107822
 40
0.4850858073003861
 40
0.5347309172589486
 40
0.5843260704939567
 40
0.6339046346507206
 40
0.6835048279763379
 40
0.7331533049771293
 40
0.7827655022646482
 40
0.8323460503769503
 40
0.8819331454332161
 40
0.9315649105632181
 40
0.981199997148652
 40
0.9999999999999999
 40
0.9999999999999999
 40
0.9999999999999999
 40
0.9999999999999999
 10
18.87186553904947
 20
8.915701955307075
 30
0.0
 10
19.30015881026573
 20
9.057308689795013
 30
0.0
 10
20.27920335074304
 20
9.381010483898695
 30
0.0
 10
21.80977892990617
 20
9.558123293600309
 30
0.0
 10
23.46066273885104
 20
9.49462863015047
 30
0.0
 10
25.11065043642192
 20
9.138076537417934
 30
0.0
 10
26.7611299403635
 20
8.50975953498545
 30
0.0
 10
28.41347475323773
 20
7.626188043417895
 30
0.0
 10
30.06513731687452
 20
6.51400294579307
 30
0.0
 10
31.71529752641118
 20
5.206376060049836
 30
0.0
 10
33.36540308432858
 20
3.742742448520769
 30
0.0
 10
35.01689781194627
 20
2.166941315218106
 30
0.0
 10
36.66935621015804
 20
0.5268696364849985
 30
0.0
 10
38.31993919852193
 20
-1.129944365316911
 30
0.0
 10
39.96991231053639
 20
-2.752508453224376
 30
0.0
 10
41.62068714259829
 20
-4.292934877730387
 30
0.0
 10
43.27327051451783
 20
-5.70369601757516
 30
0.0
 10
44.92450146292367
 20
-6.944636418169381
 30
0.0
 10
46.57453567019724
 20
-7.97595930427125
 30
0.0
 10
48.22481981584669
 20
-8.77323191230808
 30
0.0
 10
49.87674891785856
 20
-9.288963997948192
 30
0.0
 10
51.18722692999268
 20
-9.531699818275298
 30
0.0
 10
51.94625348773834
 20
-9.500049426350456
 30
0.0
 10
52.15476788535668
 20
-9.491354654949845
 30
0.0
  0
SPLINE
  5
EF
330
1F
100
AcDbEntity
  8
0
  6
Continuous
 62
     1
370
    15
100
AcDbSpline
210
0.0
220
0.0
230
1.0
 70
     8
 71
     3
 72
    11
 73
     7
 74
     0
 42
0.000000001
 43
0.00000001
 40
0.0
 40
0.0
 40
0.0
 40
0.0
 40
0.1434119319480436
 40
0.4290016189843013
 40
0.7144391164137253
 40
1.0
 40
1.0
 40
1.0
 40
1.0
 10
78.71617333358898
 20
8.905640565097064
 30
0.0
 10
78.98691601540344
 20
9.005380624163799
 30
0.0
 10
79.79681409883923
 20
9.303742456655677
 30
0.0
 10
81.14466161872915
 20
9.513282981547727
 30
0.0
 10
82.76024550886495
 20
9.56026355314725
 30
0.0
 10
83.83761066186268
 20
9.35267533731598
 30
0.0
 10
84.3764096414462
 20
9.248858800692133
 30
0.0
  0
SPLINE
  5
F0
330
1F
100
AcDbEntity
  8
0
  6
Continuous
 62
     1
370
    15
100
AcDbSpline
210
0.0
220
0.0
230
1.0
 70
     8
 71
     3
 72
    14
 73
    10
 74
     0
 42
0.000000001
 43
0.00000001
 40
0.0
 40
0.0
 40
0.0
 40
0.0
 40
0.2500000000000003
 40
0.2500000000000003
 40
0.5000000000000007
 40
0.5000000000000007
 40
0.7500000000000003
 40
0.7500000000000003
 40
1.0
 40
1.0
 40
1.0
 40
1.0
 10
84.37640964144877
 20
9.248858800702918
 30
0.0
 10
84.34373063081979
 20
9.00549406179171
 30
0.0
 10
84.29727569797822
 20
8.767936991540838
 30
0.0
 10
84.16936842904559
 20
8.30757709541046
 30
0.0
 10
84.08788292775893
 20
8.083904625597564
 30
0.0
 10
83.87564480975017
 20
7.660973529098408
 30
0.0
 10
83.7489212104014
 20
7.469782044933146
 30
0.0
 10
83.44199401039808
 20
7.142461618901215
 30
0.0
 10
83.27060008146962
 20
7.015849302904735
 30
0.0
 10
83.079325237787
 20
6.930315211712047
 30
0.0
  0
SPLINE
  5
F1
330
1F
100
AcDbEntity
  8
0
  6
Continuous
 62
     1
370
    15
100
AcDbSpline
210
0.0
220
0.0
230
1.0
 70
     8
 71
     3
 72
     8
 73
     4
 74
     0
 42
0.000000001
 43
0.00000001
 40
0.0
 40
0.0
 40
0.0
 40
0.0
 40
1.0
 40
1.0
 40
1.0
 40
1.0
 10
86.2
 20
5.773457888796448
 30
0.0
 10
85.15732811755889
 20
6.240288919650543
 30
0.0
 10
84.11697297875261
 20
6.627149704548042
 30
0.0
 10
83.07932523778601
 20
6.930315211712298
 30
0.0
  0
LINE
  5
F2
330
1F
100
AcDbEntity
  8
0
  6
Continuous
 62
     1
370
    15
100
AcDbLine
 10
86.2
 20
4.501839169799614
 30
0.0
 11
86.2
 21
5.773457888796449
 31
0.0
  0
SPLINE
  5
F3
330
1F
100
AcDbEntity
  8
0
  6
Continuous
 62
     1
370
    15
100
AcDbSpline
210
0.0
220
0.0
230
1.0
 70
    24
 71
     3
 72
    18
 73
    14
 74
     0
 42
0.000000001
 43
0.00000001
 40
0.0
 40
0.0
 40
0.0
 40
0.0
 40
0.2499999999999999
 40
0.2499999999999999
 40
0.4999999999999998
 40
0.4999999999999998
 40
0.6249999999999998
 40
0.6249999999999998
 40
0.7499999999999999
 40
0.7499999999999999
 40
0.875
 40
0.875
 40
1.0
 40
1.0
 40
1.0
 40
1.0
 10
10.0
 20
-2.694442911959865
 30
0.0
 10
10.0
 20
-2.760321979021029
 30
0.0
 10
10.0
 20
-2.881131468628023
 30
0.0
 10
10.0
 20
-3.311940293609382
 30
0.0
 10
10.0
 20
-3.62444664418854
 30
0.0
 10
10.0
 20
-4.286404921267547
 30
0.0
 10
10.0
 20
-4.538899712328305
 30
0.0
 10
10.0
 20
-5.105608060584234
 30
0.0
 10
10.0
 20
-5.419908178984623
 30
0.0
 10
10.0
 20
-6.096992022052659
 30
0.0
 10
10.0
 20
-6.459712098116089
 30
0.0
 10
10.0
 20
-7.208156890222805
 30
0.0
 10
10.0
 20
-7.593639236695146
 30
0.0
 10
10.0
 20
-7.97406325207986
 30
0.0
  0
ELLIPSE
  5
F4
330
1F
100
AcDbEntity
  8
0
  6
Continuous
 62
     1
370
    15
100
AcDbEllipse
 10
87.62814800674212
 20
0.000000000000008
 30
0.0
 11
13.60310976421862
 21
0.0
 31
0.0
210
0.0
220
0.0
230
1.0
 40
0.7002075382097114
 41
1.789557084836203
 42
1.812177257383304
  0
LINE
  5
F5
330
1F
100
AcDbEntity
  8
0
  6
Continuous
 62
     1
370
    15
100
AcDbLine
 10
86.2
 20
-0.8660254037844296
 30
0.0
 11
86.2
 21
3.103105514943231
 31
0.0
  0
LINE
  5
F6
330
1F
100
AcDbEntity
  8
0
  6
Continuous
 62
     1
370
    15
100
AcDbLine
 10
83.07932523778562
 20
0.7067627779880667
 30
0.0
 11
86.2
 21
-0.8660254037844296
 31
0.0
  0
SPLINE
  5
F7
330
1F
100
AcDbEntity
  8
0
  6
Continuous
 62
     1
370
    15
100
AcDbSpline
210
0.0
220
0.0
230
1.0
 70
     8
 71
     3
 72
    18
 73
    14
 74
     0
 42
0.000000001
 43
0.00000001
 40
0.0
 40
0.0
 40
0.0
 40
0.0
 40
0.1250000000000003
 40
0.1250000000000003
 40
0.2500000000000006
 40
0.2500000000000006
 40
0.5000000000000011
 40
0.5000000000000011
 40
0.6250000000000006
 40
0.6250000000000006
 40
0.7500000000000001
 40
0.7500000000000001
 40
1.0
 40
1.0
 40
1.0
 40
1.0
 10
86.2
 20
3.103105514943232
 30
0.0
 10
86.20000000000002
 20
3.157022886912883
 30
0.0
 10
86.18831321868687
 20
3.20499098762464
 30
0.0
 10
86.14239749036092
 20
3.281789564344336
 30
0.0
 10
86.10821201996501
 20
3.311476789855136
 30
0.0
 10
85.9745816999847
 20
3.372817858502201
 30
0.0
 10
85.8468604543622
 20
3.374971930679413
 30
0.0
 10
85.62483790605319
 20
3.330333548693997
 30
0.0
 10
85.54473191898434
 20
3.307275963341854
 30
0.0
 10
85.3798408891704
 20
3.248080349848872
 30
0.0
 10
85.29476842690376
 20
3.211994156499504
 30
0.0
 10
85.03221539997489
 20
3.085617029475851
 30
0.0
 10
84.8537348805454
 20
2.980432690287969
 30
0.0
 10
84.676
 20
2.858820782322022
 30
0.0
  0
LINE
  5
F8
330
1F
100
AcDbEntity
  8
0
  6
Continuous
 62
     1
370
    15
100
AcDbLine
 10
86.2
 20
3.103105514943231
 30
0.0
 11
86.2
 21
4.501839169799614
 31
0.0
  0
LINE
  5
F9
330
1F
100
AcDbEntity
  8
0
  6
Continuous
 62
     1
370
    15
100
AcDbLine
 10
86.2
 20
-4.83515632251213
 30
0.0
 11
86.2
 21
-3.477263706244405
 31
0.0
  0
SPLINE
  5
FA
330
1F
100
AcDbEntity
  8
0
  6
Continuous
 62
     1
370
    15
100
AcDbSpline
210
0.0
220
0.0
230
1.0
 70
     8
 71
     3
 72
    18
 73
    14
 74
     0
 42
0.000000001
 43
0.00000001
 40
0.0
 40
0.0
 40
0.0
 40
0.0
 40
0.1250000000000003
 40
0.1250000000000003
 40
0.2500000000000006
 40
0.2500000000000006
 40
0.5000000000000004
 40
0.5000000000000004
 40
0.6250000000000003
 40
0.6250000000000003
 40
0.7500000000000002
 40
0.7500000000000002
 40
1.0
 40
1.0
 40
1.0
 40
1.0
 10
86.2
 20
-4.835156322512129
 30
0.0
 10
86.20000000000002
 20
-4.88907369448178
 30
0.0
 10
86.18831321868687
 20
-4.951215465510425
 30
0.0
 10
86.14239749036092
 20
-5.083700409435519
 30
0.0
 10
86.10821201996502
 20
-5.154847603609794
 30
0.0
 10
85.97458169998471
 20
-5.378254860456494
 30
0.0
 10
85.8468604543622
 20
-5.535308624808319
 30
0.0
 10
85.62483790605322
 20
-5.759938086408942
 30
0.0
 10
85.54473191898435
 20
-5.834032644209088
 30
0.0
 10
85.37984088917038
 20
-5.974816052499517
 30
0.0
 10
85.29476842690376
 20
-6.041905318748948
 30
0.0
 10
85.03221539997492
 20
-6.233951198426941
 30
0.0
 10
84.85373488054545
 20
-6.345227146515825
 30
0.0
 10
84.676
 20
-6.439171218692379
 30
0.0
  0
LINE
  5
FB
330
1F
100
AcDbEntity
  8
0
  6
Continuous
 62
     1
370
    15
100
AcDbLine
 10
86.2
 20
-0.8660254037844296
 30
0.0
 11
86.2
 21
-1.480306981946345
 31
0.0
  0
LINE
  5
FC
330
1F
100
AcDbEntity
  8
0
  6
Continuous
 62
     1
370
    15
100
AcDbLine
 10
86.2
 20
-4.835156322512131
 30
0.0
 11
86.2
 21
-7.253764870742778
 31
0.0
  0
SPLINE
  5
FD
330
1F
100
AcDbEntity
  8
0
  6
Continuous
 62
     1
370
    15
100
AcDbSpline
210
0.0
220
0.0
230
1.0
 70
     8
 71
     3
 72
    18
 73
    14
 74
     0
 42
0.000000001
 43
0.00000001
 40
0.0
 40
0.0
 40
0.0
 40
0.0
 40
0.1249999999999993
 40
0.1249999999999993
 40
0.2499999999999987
 40
0.2499999999999987
 40
0.4999999999999991
 40
0.4999999999999991
 40
0.6249999999999993
 40
0.6249999999999993
 40
0.7499999999999996
 40
0.7499999999999996
 40
1.0
 40
1.0
 40
1.0
 40
1.0
 10
86.2
 20
7.93826183745536
 30
0.0
 10
86.2
 20
8.04609658139466
 30
0.0
 10
86.18831321868686
 20
8.156206453135066
 30
0.0
 10
86.14239749036092
 20
8.365489973779855
 30
0.0
 10
86.10821201996504
 20
8.46632439346493
 30
0.0
 10
85.97458169998471
 20
8.751072718958692
 30
0.0
 10
85.84686045436223
 20
8.910280555487729
 30
0.0
 10
85.62483790605319
 20
9.090271635102935
 30
0.0
 10
85.54473191898435
 20
9.141308607550938
 30
0.0
 10
85.37984088917037
 20
9.222896402348386
 30
0.0
 10
85.29476842690377
 20
9.253899475248451
 30
0.0
 10
85.03221539997492
 20
9.319568227902794
 30
0.0
 10
84.85373488054543
 20
9.325659836803794
 30
0.0
 10
84.676
 20
9.2979920010144
 30
0.0
  0
LINE
  5
FE
330
1F
100
AcDbEntity
  8
0
  6
Continuous
 62
     1
370
    15
100
AcDbLine
 10
86.2
 20
5.773457888796449
 30
0.0
 11
86.2
 21
7.93826183745536
 31
0.0
  0
LINE
  5
FF
330
1F
100
AcDbEntity
  8
0
  6
Continuous
 62
     1
370
    15
100
AcDbLine
 10
86.2
 20
7.93826183745536
 30
0.0
 11
86.2
 21
8.76300000000001
 31
0.0
  0
LINE
  5
100
330
1F
100
AcDbEntity
  8
0
  6
Continuous
 62
     1
370
    15
100
AcDbLine
 10
86.2
 20
-8.000999999999992
 30
0.0
 11
86.2
 21
-7.979102876043992
 31
0.0
  0
LINE
  5
101
330
1F
100
AcDbEntity
  8
0
  6
Continuous
 62
     8
370
    15
100
AcDbLine
 10
84.676
 20
-9.524999999999993
 30
0.0
 11
84.676
 21
-9.502289009570507
 31
0.0
  0
LINE
  5
103
330
1F
100
AcDbEntity
  8
중심선
100
AcDbLine
 10
-56.5
 20
0.0
 30
0.0
 11
89.20000000000002
 21
0.0
 31
0.0
  0
CIRCLE
  5
104
330
1F
100
AcDbEntity
  8
외형선
100
AcDbCircle
 10
0.0
 20
0.0
 30
0.0
 40
3.0
  0
INSERT
  5
105
330
1F
100
AcDbEntity
  8
0
  6
Continuous
 62
     7
100
AcDbBlockReference
 66
     1
  2
블럭10
 10
-16.62936049909348
 20
-51.78679627639981
 30
0.0
  0
ATTRIB
  5
106
330
105
100
AcDbEntity
  8
FORMAT
 62
     2
100
AcDbText
 10
-27.68038085127795
 20
-49.71142936356761
 30
0.0
 40
4.233333333333333
  1
GMG23945[ 6 FLUTE ]
 41
0.75
  7
SLDTEXTSTYLE0
 11
-27.68038085127795
 21
-51.82809603023428
 31
0.0
100
AcDbAttribute
  2
AUTOATTR0
 70
     0
 74
     1
  0
SEQEND
  5
107
330
105
100
AcDbEntity
  8
0
  6
Continuous
 62
     7
  0
HATCH
  5
108
330
1F
100
AcDbEntity
  8
중심선
100
AcDbHatch
 10
0.0
 20
0.0
 30
0.0
210
0.0
220
0.0
230
1.0
  2
SOLID
 70
     1
 71
     0
 91
        1
 92
        0
 93
        4
 72
     1
 10
-10.91445119471263
 20
-35.53962197475587
 11
-14.36072643854991
 21
-35.53962197475587
 72
     1
 10
-14.36072643854992
 20
-35.53962197475587
 11
-16.48895629775394
 21
-38.07594755532847
 72
     1
 10
-16.48895629775394
 20
-38.07594755532847
 11
-13.04264796880351
 21
-38.07590812602598
 72
     1
 10
-13.04264796880351
 20
-38.07590812602598
 11
-10.91445119471263
 21
-35.53962197475587
 97
        0
 75
     0
 76
     1
 98
        1
 10
-6.386651720807969
 20
0.2603780252441242
  0
HATCH
  5
109
330
1F
100
AcDbEntity
  8
중심선
100
AcDbHatch
 10
0.0
 20
0.0
 30
0.0
210
0.0
220
0.0
230
1.0
  2
SOLID
 70
     1
 71
     0
 91
        1
 92
        0
 93
        4
 72
     1
 10
-5.901687203676683
 20
-35.53962197475587
 11
-9.347962447513964
 21
-35.53962197475587
 72
     1
 10
-9.347962447513964
 20
-35.53962197475587
 11
-13.87910045587135
 21
-40.93962197475589
 72
     1
 10
-13.87910045587135
 20
-40.93962197475589
 11
-10.43282521203407
 21
-40.93962197475589
 72
     1
 10
-10.43282521203407
 20
-40.93962197475589
 11
-5.901687203676683
 21
-35.53962197475587
 97
        0
 75
     0
 76
     1
 98
        1
 10
-6.386651720807969
 20
0.2603780252441242
  0
HATCH
  5
10A
330
1F
100
AcDbEntity
  8
중심선
100
AcDbHatch
 10
0.0
 20
0.0
 30
0.0
210
0.0
220
0.0
230
1.0
  2
SOLID
 70
     1
 71
     0
 91
        1
 92
        0
 93
        4
 72
     1
 10
-0.8889232126407869
 20
-35.5396219747559
 11
-4.335198456477903
 21
-35.53962197475587
 72
     1
 10
-4.335198456477903
 20
-35.53962197475587
 11
-11.38363535836715
 21
-43.93962197475589
 72
     1
 10
-11.38363535836715
 20
-43.93962197475589
 11
-7.937360114529868
 21
-43.93962197475589
 72
     1
 10
-7.93736011452987
 20
-43.93962197475589
 11
-0.8889232126407869
 21
-35.5396219747559
 97
        0
 75
     0
 76
     1
 98
        1
 10
-6.386651720807969
 20
0.2603780252441242
  0
HATCH
  5
10B
330
1F
100
AcDbEntity
  8
중심선
100
AcDbHatch
 10
0.0
 20
0.0
 30
0.0
210
0.0
220
0.0
230
1.0
  2
SOLID
 70
     1
 71
     0
 91
        1
 92
        0
 93
        6
 72
     3
 10
3.910967218371412
 20
-39.73962197480715
 11
3.960054785062283
 21
1.540882976769353E-10
 40
0.3939339440162628
 50
17.09539180608436
 51
320.0019657685081
 73
     0
 72
     1
 10
5.593966874072009
 20
-38.32751597939418
 11
7.899268747773045
 21
-36.39318926934626
 72
     3
 10
3.910967218318565
 20
-39.73962197475603
 11
6.600054785286832
 21
-1.278976924368180E-13
 40
0.6363583540795977
 50
39.9987384933741
 51
368.4976242363724
 73
     1
 72
     1
 10
10.33629971021918
 20
-38.7796219746859
 11
2.591034525154489
 21
-38.77962197468587
 72
     1
 10
2.591034525154488
 20
-38.77962197468587
 11
2.591009480708554
 21
-40.69962197468579
 72
     1
 10
2.591009480708554
 20
-40.69962197468579
 11
7.032389250180591
 21
-40.69962197468576
 97
        0
 75
     0
 76
     1
 98
        1
 10
-6.386651720807969
 20
0.2603780252441242
  0
POINT
  5
10C
330
1F
100
AcDbEntity
  8
치수문자_일반주서
100
AcDbPoint
 10
0.0
 20
0.0
 30
0.0
  0
DIMENSION
  5
10D
330
1F
100
AcDbEntity
  8
치수문자_일반주서
100
AcDbDimension
  2
_D
 10
86.2
 20
42.18055141807179
 30
0.0
 11
16.35000000000002
 21
42.18055141807179
 31
0.0
 70
   160
  1
<>
 71
     2
 42
139.7
  3
SLDDIMSTYLE0
100
AcDbAlignedDimension
 13
-53.49999999999999
 23
9.025
 33
0.0
 14
86.2
 24
8.001000000000008
 34
0.0
 50
-0.0000000000000058
100
AcDbRotatedDimension
1001
ACAD
1000
DSTYLE
1002
{
1070
   273
1070
     7
1002
}
  0
DIMENSION
  5
121
330
1F
100
AcDbEntity
  8
치수문자_일반주서
100
AcDbDimension
  2
_D_1
 10
9.999999999997428
 20
25.62799453033795
 30
0.0
 11
47.26180339570445
 21
25.62799453033795
 31
0.0
 70
   160
  1
<>
 71
     2
 42
76.20000000000258
  3
SLDDIMSTYLE0
100
AcDbAlignedDimension
 13
86.2
 23
8.001000000000008
 33
0.0
 14
9.999999999997428
 24
-9.259187191221724
 34
0.0
 50
0.0000000000000027
100
AcDbRotatedDimension
1001
ACAD
1000
DSTYLE
1002
{
1070
   273
1070
     7
1002
}
  0
DIMENSION
  5
134
330
1F
100
AcDbEntity
  8
치수문자_일반주서
100
AcDbDimension
  2
_D_2
 10
-66.49999999999997
 20
-9.525000000000045
 30
0.0
 11
-66.50000000000001
 21
0.0000000000000029
 31
0.0
 70
   160
  1
%%c<>
 71
     2
 42
19.05
 52
-270.0
  3
SLDDIMSTYLE1
100
AcDbAlignedDimension
 13
-52.99999999999999
 23
9.525000000000006
 33
0.0
 14
-52.99999999999999
 24
-9.524999999999995
 34
0.0
 50
90.0000000000002
100
AcDbRotatedDimension
1001
ACAD
1000
DSTYLE
1002
{
1070
   273
1070
     7
1002
}
  0
INSERT
  5
14F
330
1F
100
AcDbEntity
  8
외형선
100
AcDbBlockReference
  2
SW_DOWELSYMBOL_0
 10
0.0
 20
0.0
 30
0.0
  0
DIMENSION
  5
176
330
1F
100
AcDbEntity
  8
치수문자_일반주서
100
AcDbDimension
  2
*D6
 10
102.6642698373149
 20
-9.524999999999995
 30
0.0
 11
102.6642698373149
 21
0.0000000000000088
 31
0.0
 70
   160
  1
{%%c<>}
 71
     5
 42
19.05
  3
SLDDIMSTYLE1
100
AcDbAlignedDimension
 13
85.438
 23
9.525000000000011
 33
0.0
 14
84.67600000000003
 24
-9.524999999999993
 34
0.0
 50
90.0
100
AcDbRotatedDimension
1001
ACAD
1000
DSTYLE
1002
{
1070
   273
1070
     7
1002
}
  0
ARC
  5
18A
330
1F
100
AcDbEntity
  8
0
  6
Continuous
 62
     1
370
    15
100
AcDbCircle
 10
85.418
 20
-8.743000000000011
 30
0.0
 40
0.7819999999999997
100
AcDbArc
 50
270.0
 51
0.0
  0
ARC
  5
199
330
1F
100
AcDbEntity
  8
0
  6
Continuous
 62
     1
370
    15
100
AcDbCircle
 10
85.438
 20
8.76300000000001
 30
0.0
 40
0.7619999999999998
100
AcDbArc
 50
0.0
 51
90.0
  0
DIMENSION
  5
19B
330
1F
100
AcDbEntity
  8
치수문자_일반주서
100
AcDbDimension
  2
*D8
 10
85.438
 20
8.76300000000001
 30
0.0
 11
100.3458204084035
 21
25.07683689359353
 31
0.0
 70
   164
  1
<>
 71
     5
 42
0.762000000000002
  3
SLDDIMSTYLE1
100
AcDbRadialDimension
 15
85.95202973146353
 25
9.325509942286848
 35
0.0
 40
0.0
1001
ACAD
1000
DSTYLE
1002
{
1070
   171
1070
     3
1070
   273
1070
     2
1002
}
1001
ACAD_DSTYLE_DIMRADIAL_EXTENSION
1070
   387
1070
     1
1070
   388
1040
0.0
1070
   390
1040
1.570796326794897
  0
LINE
  5
205
330
1F
100
AcDbEntity
  8
0
  6
Continuous
 62
     4
370
    15
100
AcDbLine
 10
-33.49432499999997
 20
7.620000000000005
 30
0.0
 11
-21.91192499999996
 21
7.620000000000005
 31
0.0
  0
LINE
  5
206
330
1F
100
AcDbEntity
  8
0
  6
Continuous
 62
     4
370
    15
100
AcDbLine
 10
-33.49432499999997
 20
7.61999999999999
 30
0.0
 11
-35.39932500000011
 21
9.52500000000002
 31
0.0
  0
LINE
  5
207
330
1F
100
AcDbEntity
  8
0
  6
Continuous
 62
     4
370
    15
100
AcDbLine
 10
-21.91192499999996
 20
7.61999999999999
 30
0.0
 11
-20.00692499999999
 21
9.52500000000002
 31
0.0
  0
LINE
  5
208
330
1F
100
AcDbEntity
  8
0
  6
Continuous
 62
     4
370
    15
100
AcDbLine
 10
-35.3993250000001
 20
9.525000000000007
 30
0.0
 11
-52.99999999999999
 21
9.525000000000006
 31
0.0
  0
ENDSEC
  0
SECTION
  2
OBJECTS
  0
DICTIONARY
  5
C
330
0
100
AcDbDictionary
281
     1
  3
ACAD_GROUP
350
D
  3
ACAD_IMAGE_VARS
350
173
  3
ACAD_LAYOUT
350
1A
  3
ACAD_MLINESTYLE
350
17
  3
ACAD_PLOTSETTINGS
350
19
  3
ACAD_PLOTSTYLENAME
350
E
  3
ACAD_SCALELIST
350
47
  3
APPDATA
350
171
  3
DWGPROPS
350
22D
  0
DICTIONARY
  5
1F7
330
2
100
AcDbDictionary
280
     1
281
     1
  3
ACAD_LAYERSTATES
360
1F8
  0
DICTIONARY
  5
22B
330
1F
100
AcDbDictionary
280
     1
281
     1
  3
DIM_BOUNDING_BOXES_V1
360
22C
  0
DICTIONARY
  5
D
102
{ACAD_REACTORS
330
C
102
}
330
C
100
AcDbDictionary
281
     1
  0
RASTERVARIABLES
  5
173
102
{ACAD_REACTORS
330
C
102
}
330
C
100
AcDbRasterVariables
 90
        0
 70
     1
 71
     1
 72
     1
  0
DICTIONARY
  5
1A
102
{ACAD_REACTORS
330
C
102
}
330
C
100
AcDbDictionary
281
     1
  3
Layout1
350
1E
  3
Layout2
350
26
  3
Model
350
22
  0
DICTIONARY
  5
17
102
{ACAD_REACTORS
330
C
102
}
330
C
100
AcDbDictionary
281
     1
  3
Standard
350
18
  0
DICTIONARY
  5
19
102
{ACAD_REACTORS
330
C
102
}
330
C
100
AcDbDictionary
281
     1
  0
ACDBDICTIONARYWDFLT
  5
E
102
{ACAD_REACTORS
330
C
102
}
330
C
100
AcDbDictionary
281
     1
  3
Normal
350
F
100
AcDbDictionaryWithDefault
340
F
  0
DICTIONARY
  5
47
102
{ACAD_REACTORS
330
C
102
}
330
C
100
AcDbDictionary
281
     1
  3
A0
350
48
  3
A1
350
49
  3
A2
350
4A
  3
A3
350
4B
  3
A4
350
4C
  3
A5
350
4D
  3
A6
350
4E
  3
A7
350
4F
  3
A8
350
50
  3
A9
350
51
  3
B0
350
52
  3
B1
350
53
  3
B2
350
54
  3
B3
350
55
  3
B4
350
56
  3
B5
350
57
  3
B6
350
58
  3
B7
350
59
  3
B8
350
5A
  3
B9
350
5B
  3
C0
350
5C
  3
C1
350
5D
  3
C2
350
5E
  3
C3
350
5F
  3
C4
350
60
  3
C5
350
61
  3
C6
350
62
  3
C7
350
63
  3
C8
350
64
  3
C9
350
65
  3
D0
350
66
  3
D1
350
67
  3
D2
350
68
  0
DICTIONARY
  5
171
102
{ACAD_REACTORS
330
C
102
}
330
C
100
AcDbDictionary
281
     1
  0
XRECORD
  5
22D
102
{ACAD_REACTORS
330
C
102
}
330
C
100
AcDbXrecord
280
     1
  1
DWGPROPS COOKIE
  2

  3

  4

  6

  7

  8
12015018
  9

300
=
301
=
302
=
303
=
304
=
305
=
306
=
307
=
308
=
309
=
 40
0.0
 41
2458236.375862153
 42
2459697.068827558
  1

 90
        0
  0
DICTIONARY
  5
1F8
102
{ACAD_REACTORS
330
1F7
102
}
330
1F7
100
AcDbDictionary
281
     1
  0
DICTIONARY
  5
22C
102
{ACAD_REACTORS
330
22B
102
}
330
22B
100
AcDbDictionary
281
     1
  0
LAYOUT
  5
1E
102
{ACAD_REACTORS
330
1A
102
}
330
1A
100
AcDbPlotSettings
  1

  2
none_device
  4

  6

 40
0.0
 41
0.0
 42
0.0
 43
0.0
 44
0.0
 45
0.0
 46
0.0
 47
0.0
 48
0.0
 49
0.0
140
0.0
141
0.0
142
1.0
143
1.0
 70
   688
 72
     1
 73
     0
 74
     5
  7

 75
    16
147
1.0
148
0.0
149
0.0
100
AcDbLayout
  1
Layout1
 70
     1
 71
     1
 10
0.0
 20
0.0
 11
420.0
 21
297.0
 12
0.0
 22
0.0
 32
0.0
 14
1.000000000000000E+20
 24
1.000000000000000E+20
 34
1.000000000000000E+20
 15
-1.000000000000000E+20
 25
-1.000000000000000E+20
 35
-1.000000000000000E+20
146
0.0
 13
0.0
 23
0.0
 33
0.0
 16
1.0
 26
0.0
 36
0.0
 17
0.0
 27
1.0
 37
0.0
 76
     0
330
1B
  0
LAYOUT
  5
26
102
{ACAD_REACTORS
330
1A
102
}
330
1A
100
AcDbPlotSettings
  1

  2
none_device
  4

  6

 40
0.0
 41
0.0
 42
0.0
 43
0.0
 44
0.0
 45
0.0
 46
0.0
 47
0.0
 48
0.0
 49
0.0
140
0.0
141
0.0
142
1.0
143
1.0
 70
   688
 72
     1
 73
     0
 74
     5
  7

 75
    16
147
1.0
148
0.0
149
0.0
100
AcDbLayout
  1
Layout2
 70
     1
 71
     2
 10
0.0
 20
0.0
 11
0.0
 21
0.0
 12
0.0
 22
0.0
 32
0.0
 14
0.0
 24
0.0
 34
0.0
 15
0.0
 25
0.0
 35
0.0
146
0.0
 13
0.0
 23
0.0
 33
0.0
 16
1.0
 26
0.0
 36
0.0
 17
0.0
 27
1.0
 37
0.0
 76
     0
330
23
  0
LAYOUT
  5
22
102
{ACAD_REACTORS
330
1A
102
}
330
1A
100
AcDbPlotSettings
  1

  2
none_device
  4
ANSI_A_(11.00_x_8.50_Inches)
  6

 40
6.35
 41
19.05
 42
6.35000508
 43
19.05000254
 44
279.4
 45
215.9
 46
112.8483620103023
 47
87.24088821947862
 48
0.0
 49
0.0
140
0.0
141
0.0
142
0.0654082017666865
143
1.0
 70
  1696
 72
     0
 73
     0
 74
     0
  7

 75
     0
147
0.0235690232323232
148
0.0
149
0.0
100
AcDbLayout
  1
Model
 70
     1
 71
     0
 10
0.0
 20
0.0
 11
420.0
 21
297.0
 12
0.0
 22
0.0
 32
0.0
 14
-70.87500000000007
 24
-49.71142936356761
 34
0.0
 15
109.9375005189638
 25
46.55555141807179
 35
0.0
146
0.0
 13
0.0
 23
0.0
 33
0.0
 16
1.0
 26
0.0
 36
0.0
 17
0.0
 27
1.0
 37
0.0
 76
     0
330
1F
331
29
  0
MLINESTYLE
  5
18
102
{ACAD_REACTORS
330
17
102
}
330
17
100
AcDbMlineStyle
  2
Standard
 70
     0
  3

 62
   256
 51
90.0
 52
90.0
 71
     2
 49
0.5
 62
   256
  6
BYLAYER
 49
-0.5
 62
   256
  6
BYLAYER
  0
ACDBPLACEHOLDER
  5
F
102
{ACAD_REACTORS
330
E
102
}
330
E
  0
SCALE
  5
48
102
{ACAD_REACTORS
330
47
102
}
330
47
100
AcDbScale
 70
     0
300
1:1
140
1.0
141
1.0
290
     1
  0
SCALE
  5
49
102
{ACAD_REACTORS
330
47
102
}
330
47
100
AcDbScale
 70
     0
300
1:2
140
1.0
141
2.0
290
     0
  0
SCALE
  5
4A
102
{ACAD_REACTORS
330
47
102
}
330
47
100
AcDbScale
 70
     0
300
1:4
140
1.0
141
4.0
290
     0
  0
SCALE
  5
4B
102
{ACAD_REACTORS
330
47
102
}
330
47
100
AcDbScale
 70
     0
300
1:5
140
1.0
141
5.0
290
     0
  0
SCALE
  5
4C
102
{ACAD_REACTORS
330
47
102
}
330
47
100
AcDbScale
 70
     0
300
1:8
140
1.0
141
8.0
290
     0
  0
SCALE
  5
4D
102
{ACAD_REACTORS
330
47
102
}
330
47
100
AcDbScale
 70
     0
300
1:10
140
1.0
141
10.0
290
     0
  0
SCALE
  5
4E
102
{ACAD_REACTORS
330
47
102
}
330
47
100
AcDbScale
 70
     0
300
1:16
140
1.0
141
16.0
290
     0
  0
SCALE
  5
4F
102
{ACAD_REACTORS
330
47
102
}
330
47
100
AcDbScale
 70
     0
300
1:20
140
1.0
141
20.0
290
     0
  0
SCALE
  5
50
102
{ACAD_REACTORS
330
47
102
}
330
47
100
AcDbScale
 70
     0
300
1:30
140
1.0
141
30.0
290
     0
  0
SCALE
  5
51
102
{ACAD_REACTORS
330
47
102
}
330
47
100
AcDbScale
 70
     0
300
1:40
140
1.0
141
40.0
290
     0
  0
SCALE
  5
52
102
{ACAD_REACTORS
330
47
102
}
330
47
100
AcDbScale
 70
     0
300
1:50
140
1.0
141
50.0
290
     0
  0
SCALE
  5
53
102
{ACAD_REACTORS
330
47
102
}
330
47
100
AcDbScale
 70
     0
300
1:100
140
1.0
141
100.0
290
     0
  0
SCALE
  5
54
102
{ACAD_REACTORS
330
47
102
}
330
47
100
AcDbScale
 70
     0
300
2:1
140
2.0
141
1.0
290
     0
  0
SCALE
  5
55
102
{ACAD_REACTORS
330
47
102
}
330
47
100
AcDbScale
 70
     0
300
4:1
140
4.0
141
1.0
290
     0
  0
SCALE
  5
56
102
{ACAD_REACTORS
330
47
102
}
330
47
100
AcDbScale
 70
     0
300
8:1
140
8.0
141
1.0
290
     0
  0
SCALE
  5
57
102
{ACAD_REACTORS
330
47
102
}
330
47
100
AcDbScale
 70
     0
300
10:1
140
10.0
141
1.0
290
     0
  0
SCALE
  5
58
102
{ACAD_REACTORS
330
47
102
}
330
47
100
AcDbScale
 70
     0
300
100:1
140
100.0
141
1.0
290
     0
  0
SCALE
  5
59
102
{ACAD_REACTORS
330
47
102
}
330
47
100
AcDbScale
 70
     0
300
1/128" = 1'-0"
140
0.0078125
141
12.0
290
     0
  0
SCALE
  5
5A
102
{ACAD_REACTORS
330
47
102
}
330
47
100
AcDbScale
 70
     0
300
1/64" = 1'-0"
140
0.015625
141
12.0
290
     0
  0
SCALE
  5
5B
102
{ACAD_REACTORS
330
47
102
}
330
47
100
AcDbScale
 70
     0
300
1/32" = 1'-0"
140
0.03125
141
12.0
290
     0
  0
SCALE
  5
5C
102
{ACAD_REACTORS
330
47
102
}
330
47
100
AcDbScale
 70
     0
300
1/16" = 1'-0"
140
0.0625
141
12.0
290
     0
  0
SCALE
  5
5D
102
{ACAD_REACTORS
330
47
102
}
330
47
100
AcDbScale
 70
     0
300
3/32" = 1'-0"
140
0.09375
141
12.0
290
     0
  0
SCALE
  5
5E
102
{ACAD_REACTORS
330
47
102
}
330
47
100
AcDbScale
 70
     0
300
1/8" = 1'-0"
140
0.125
141
12.0
290
     0
  0
SCALE
  5
5F
102
{ACAD_REACTORS
330
47
102
}
330
47
100
AcDbScale
 70
     0
300
3/16" = 1'-0"
140
0.1875
141
12.0
290
     0
  0
SCALE
  5
60
102
{ACAD_REACTORS
330
47
102
}
330
47
100
AcDbScale
 70
     0
300
1/4" = 1'-0"
140
0.25
141
12.0
290
     0
  0
SCALE
  5
61
102
{ACAD_REACTORS
330
47
102
}
330
47
100
AcDbScale
 70
     0
300
3/8" = 1'-0"
140
0.375
141
12.0
290
     0
  0
SCALE
  5
62
102
{ACAD_REACTORS
330
47
102
}
330
47
100
AcDbScale
 70
     0
300
1/2" = 1'-0"
140
0.5
141
12.0
290
     0
  0
SCALE
  5
63
102
{ACAD_REACTORS
330
47
102
}
330
47
100
AcDbScale
 70
     0
300
3/4" = 1'-0"
140
0.75
141
12.0
290
     0
  0
SCALE
  5
64
102
{ACAD_REACTORS
330
47
102
}
330
47
100
AcDbScale
 70
     0
300
1" = 1'-0"
140
1.0
141
12.0
290
     0
  0
SCALE
  5
65
102
{ACAD_REACTORS
330
47
102
}
330
47
100
AcDbScale
 70
     0
300
1-1/2" = 1'-0"
140
1.5
141
12.0
290
     0
  0
SCALE
  5
66
102
{ACAD_REACTORS
330
47
102
}
330
47
100
AcDbScale
 70
     0
300
3" = 1'-0"
140
3.0
141
12.0
290
     0
  0
SCALE
  5
67
102
{ACAD_REACTORS
330
47
102
}
330
47
100
AcDbScale
 70
     0
300
6" = 1'-0"
140
6.0
141
12.0
290
     0
  0
SCALE
  5
68
102
{ACAD_REACTORS
330
47
102
}
330
47
100
AcDbScale
 70
     0
300
1'-0" = 1'-0"
140
12.0
141
12.0
290
     0
  0
ENDSEC
  0
EOF
