  0
SECTION
  2
HEADER
  9
$ACADVER
  1
AC1015
  9
$ACADMAINTVER
 70
     6
  9
$DWGCODEPAGE
  3
ANSI_949
  9
$INSBASE
 10
0.0
 20
0.0
 30
0.0
  9
$EXTMIN
 10
-70.87500000000014
 20
-49.97180738881174
 30
0.0
  9
$EXTMAX
 10
76.39873089875749
 20
46.55555141807233
 30
0.0
  9
$LIMMIN
 10
0.0
 20
0.0
  9
$LIMMAX
 10
420.0
 20
297.0
  9
$ORTHOMODE
 70
     0
  9
$REGENMODE
 70
     1
  9
$FILLMODE
 70
     1
  9
$QTEXTMODE
 70
     0
  9
$MIRRTEXT
 70
     1
  9
$LTSCALE
 40
1.0
  9
$ATTMODE
 70
     1
  9
$TEXTSIZE
 40
3.5
  9
$TRACEWID
 40
1.0
  9
$TEXTSTYLE
  7
Standard
  9
$CLAYER
  8
0
  9
$CELTYPE
  6
ByLayer
  9
$CECOLOR
 62
   256
  9
$CELTSCALE
 40
1.0
  9
$DISPSILH
 70
     0
  9
$DIMSCALE
 40
1.0
  9
$DIMASZ
 40
3.302
  9
$DIMEXO
 40
1.0
  9
$DIMDLI
 40
3.75
  9
$DIMRND
 40
0.0
  9
$DIMDLE
 40
0.0
  9
$DIMEXE
 40
1.0
  9
$DIMTP
 40
0.0
  9
$DIMTM
 40
0.0
  9
$DIMTXT
 40
3.5
  9
$DIMCEN
 40
2.5
  9
$DIMTSZ
 40
0.0
  9
$DIMTOL
 70
     0
  9
$DIMLIM
 70
     0
  9
$DIMTIH
 70
     1
  9
$DIMTOH
 70
     1
  9
$DIMSE1
 70
     0
  9
$DIMSE2
 70
     0
  9
$DIMTAD
 70
     1
  9
$DIMZIN
 70
     0
  9
$DIMBLK
  1

  9
$DIMASO
 70
     1
  9
$DIMSHO
 70
     1
  9
$DIMPOST
  1

  9
$DIMAPOST
  1

  9
$DIMALT
 70
     0
  9
$DIMALTD
 70
     3
  9
$DIMALTF
 40
0.0393700787401575
  9
$DIMLFAC
 40
1.0
  9
$DIMTOFL
 70
     1
  9
$DIMTVP
 40
0.0
  9
$DIMTIX
 70
     0
  9
$DIMSOXD
 70
     0
  9
$DIMSAH
 70
     0
  9
$DIMBLK1
  1

  9
$DIMBLK2
  1

  9
$DIMSTYLE
  2
ISO-25
  9
$DIMCLRD
 70
     0
  9
$DIMCLRE
 70
     0
  9
$DIMCLRT
 70
     0
  9
$DIMTFAC
 40
1.0
  9
$DIMGAP
 40
1.524
  9
$DIMJUST
 70
     0
  9
$DIMSD1
 70
     0
  9
$DIMSD2
 70
     0
  9
$DIMTOLJ
 70
     0
  9
$DIMTZIN
 70
     0
  9
$DIMALTZ
 70
     0
  9
$DIMALTTZ
 70
     0
  9
$DIMUPT
 70
     0
  9
$DIMDEC
 70
     2
  9
$DIMTDEC
 70
     2
  9
$DIMALTU
 70
     2
  9
$DIMALTTD
 70
     3
  9
$DIMTXSTY
  7
Standard
  9
$DIMAUNIT
 70
     0
  9
$DIMADEC
 70
     2
  9
$DIMALTRND
 40
0.0
  9
$DIMAZIN
 70
     0
  9
$DIMDSEP
 70
    44
  9
$DIMATFIT
 70
     3
  9
$DIMFRAC
 70
     0
  9
$DIMLDRBLK
  1

  9
$DIMLUNIT
 70
     2
  9
$DIMLWD
 70
    -2
  9
$DIMLWE
 70
    -2
  9
$DIMTMOVE
 70
     0
  9
$LUNITS
 70
     2
  9
$LUPREC
 70
     2
  9
$SKETCHINC
 40
1.0
  9
$FILLETRAD
 40
10.0
  9
$AUNITS
 70
     0
  9
$AUPREC
 70
     2
  9
$MENU
  1
.
  9
$ELEVATION
 40
0.0
  9
$PELEVATION
 40
0.0
  9
$THICKNESS
 40
0.0
  9
$LIMCHECK
 70
     0
  9
$CHAMFERA
 40
0.0
  9
$CHAMFERB
 40
0.0
  9
$CHAMFERC
 40
0.0
  9
$CHAMFERD
 40
0.0
  9
$SKPOLY
 70
     0
  9
$TDCREATE
 40
2458236.750676366
  9
$TDUCREATE
 40
2458236.375676366
  9
$TDUPDATE
 40
2459697.443599028
  9
$TDUUPDATE
 40
2459697.068599028
  9
$TDINDWG
 40
0.0246098611
  9
$TDUSRTIMER
 40
0.0000459606
  9
$USRTIMER
 70
     1
  9
$ANGBASE
 50
0.0
  9
$ANGDIR
 70
     0
  9
$PDMODE
 70
     0
  9
$PDSIZE
 40
-1.0
  9
$PLINEWID
 40
0.0
  9
$SPLFRAME
 70
     0
  9
$SPLINETYPE
 70
     6
  9
$SPLINESEGS
 70
     8
  9
$HANDSEED
  5
348
  9
$SURFTAB1
 70
     6
  9
$SURFTAB2
 70
     6
  9
$SURFTYPE
 70
     6
  9
$SURFU
 70
     6
  9
$SURFV
 70
     6
  9
$UCSBASE
  2

  9
$UCSNAME
  2

  9
$UCSORG
 10
0.0
 20
0.0
 30
0.0
  9
$UCSXDIR
 10
1.0
 20
0.0
 30
0.0
  9
$UCSYDIR
 10
0.0
 20
1.0
 30
0.0
  9
$UCSORTHOREF
  2

  9
$UCSORTHOVIEW
 70
     0
  9
$UCSORGTOP
 10
0.0
 20
0.0
 30
0.0
  9
$UCSORGBOTTOM
 10
0.0
 20
0.0
 30
0.0
  9
$UCSORGLEFT
 10
0.0
 20
0.0
 30
0.0
  9
$UCSORGRIGHT
 10
0.0
 20
0.0
 30
0.0
  9
$UCSORGFRONT
 10
0.0
 20
0.0
 30
0.0
  9
$UCSORGBACK
 10
0.0
 20
0.0
 30
0.0
  9
$PUCSBASE
  2

  9
$PUCSNAME
  2

  9
$PUCSORG
 10
0.0
 20
0.0
 30
0.0
  9
$PUCSXDIR
 10
1.0
 20
0.0
 30
0.0
  9
$PUCSYDIR
 10
0.0
 20
1.0
 30
0.0
  9
$PUCSORTHOREF
  2

  9
$PUCSORTHOVIEW
 70
     0
  9
$PUCSORGTOP
 10
0.0
 20
0.0
 30
0.0
  9
$PUCSORGBOTTOM
 10
0.0
 20
0.0
 30
0.0
  9
$PUCSORGLEFT
 10
0.0
 20
0.0
 30
0.0
  9
$PUCSORGRIGHT
 10
0.0
 20
0.0
 30
0.0
  9
$PUCSORGFRONT
 10
0.0
 20
0.0
 30
0.0
  9
$PUCSORGBACK
 10
0.0
 20
0.0
 30
0.0
  9
$USERI1
 70
     0
  9
$USERI2
 70
     0
  9
$USERI3
 70
     0
  9
$USERI4
 70
     0
  9
$USERI5
 70
     0
  9
$USERR1
 40
0.0
  9
$USERR2
 40
0.0
  9
$USERR3
 40
0.0
  9
$USERR4
 40
0.0
  9
$USERR5
 40
0.0
  9
$WORLDVIEW
 70
     1
  9
$SHADEDGE
 70
     3
  9
$SHADEDIF
 70
    70
  9
$TILEMODE
 70
     1
  9
$MAXACTVP
 70
    64
  9
$PINSBASE
 10
0.0
 20
0.0
 30
0.0
  9
$PLIMCHECK
 70
     0
  9
$PEXTMIN
 10
1.000000000000000E+20
 20
1.000000000000000E+20
 30
1.000000000000000E+20
  9
$PEXTMAX
 10
-1.000000000000000E+20
 20
-1.000000000000000E+20
 30
-1.000000000000000E+20
  9
$PLIMMIN
 10
0.0
 20
0.0
  9
$PLIMMAX
 10
0.0
 20
0.0
  9
$UNITMODE
 70
     0
  9
$VISRETAIN
 70
     1
  9
$PLINEGEN
 70
     0
  9
$PSLTSCALE
 70
     1
  9
$TREEDEPTH
 70
  3020
  9
$CMLSTYLE
  2
Standard
  9
$CMLJUST
 70
     0
  9
$CMLSCALE
 40
20.0
  9
$PROXYGRAPHICS
 70
     1
  9
$MEASUREMENT
 70
     1
  9
$CELWEIGHT
370
    -1
  9
$ENDCAPS
280
     0
  9
$JOINSTYLE
280
     0
  9
$LWDISPLAY
290
     1
  9
$INSUNITS
 70
     4
  9
$HYPERLINKBASE
  1

  9
$STYLESHEET
  1

  9
$XEDIT
290
     1
  9
$CEPSNTYPE
380
     0
  9
$PSTYLEMODE
290
     1
  9
$FINGERPRINTGUID
  2
{1CD54CAF-8CDF-43E1-AD25-2D03B389BC8C}
  9
$VERSIONGUID
  2
{FAEB1C32-E019-11D5-929B-00C0DF256EC4}
  9
$EXTNAMES
290
     1
  9
$PSVPSCALE
 40
0.0
  9
$OLESTARTUP
290
     0
  0
ENDSEC
  0
SECTION
  2
CLASSES
  0
CLASS
  1
ACDBDICTIONARYWDFLT
  2
AcDbDictionaryWithDefault
  3
ObjectDBX Classes
 90
        0
280
     0
281
     0
  0
CLASS
  1
VISUALSTYLE
  2
AcDbVisualStyle
  3
ObjectDBX Classes
 90
     4095
280
     0
281
     0
  0
CLASS
  1
MATERIAL
  2
AcDbMaterial
  3
ObjectDBX Classes
 90
     1153
280
     0
281
     0
  0
CLASS
  1
SCALE
  2
AcDbScale
  3
ObjectDBX Classes
 90
     1153
280
     0
281
     0
  0
CLASS
  1
SUN
  2
AcDbSun
  3
SCENEOE
 90
     1153
280
     0
281
     0
  0
CLASS
  1
ACDBPLACEHOLDER
  2
AcDbPlaceHolder
  3
ObjectDBX Classes
 90
        0
280
     0
281
     0
  0
CLASS
  1
LAYOUT
  2
AcDbLayout
  3
ObjectDBX Classes
 90
        0
280
     0
281
     0
  0
CLASS
  1
TABLESTYLE
  2
AcDbTableStyle
  3
ObjectDBX Classes
 90
     4095
280
     0
281
     0
  0
CLASS
  1
MLEADERSTYLE
  2
AcDbMLeaderStyle
  3
ACDB_MLEADERSTYLE_CLASS
 90
     4095
280
     0
281
     0
  0
CLASS
  1
RASTERVARIABLES
  2
AcDbRasterVariables
  3
ISM
 90
        0
280
     0
281
     0
  0
CLASS
  1
DIMASSOC
  2
AcDbDimAssoc
  3
"AcDbDimAssoc|Product Desc:     AcDim ARX App For Dimension|Company:          Autodesk, Inc.|WEB Address:      www.autodesk.com"
 90
        0
280
     0
281
     0
  0
ENDSEC
  0
SECTION
  2
TABLES
  0
TABLE
  2
VPORT
  5
8
330
0
100
AcDbSymbolTable
 70
     1
  0
VPORT
  5
29
330
8
100
AcDbSymbolTableRecord
100
AcDbViewportTableRecord
  2
*Active
 70
     0
 10
0.0
 20
0.0
 11
1.0
 21
1.0
 12
2.761865449378675
 22
-1.708127985369707
 13
0.0
 23
0.0
 14
10.0
 24
10.0
 15
10.0
 25
10.0
 16
0.0
 26
0.0
 36
1.0
 17
0.0
 27
0.0
 37
0.0
 40
98.45790598302175
 41
1.89119170984456
 42
50.0
 43
0.0
 44
0.0
 50
0.0
 51
0.0
 71
    16
 72
  2000
 73
     1
 74
     3
 75
     0
 76
     0
 77
     0
 78
     0
281
     0
 65
     1
110
0.0
120
0.0
130
0.0
111
1.0
121
0.0
131
0.0
112
0.0
122
1.0
132
0.0
 79
     0
146
0.0
  0
ENDTAB
  0
TABLE
  2
LTYPE
  5
5
330
0
100
AcDbSymbolTable
 70
     6
  0
LTYPE
  5
14
330
5
100
AcDbSymbolTableRecord
100
AcDbLinetypeTableRecord
  2
ByBlock
 70
     0
  3

 72
    65
 73
     0
 40
0.0
  0
LTYPE
  5
15
330
5
100
AcDbSymbolTableRecord
100
AcDbLinetypeTableRecord
  2
ByLayer
 70
     0
  3

 72
    65
 73
     0
 40
0.0
  0
LTYPE
  5
16
330
5
100
AcDbSymbolTableRecord
100
AcDbLinetypeTableRecord
  2
Continuous
 70
     0
  3
Solid line
 72
    65
 73
     0
 40
0.0
  0
LTYPE
  5
6A
330
5
100
AcDbSymbolTableRecord
100
AcDbLinetypeTableRecord
  2
HIDDEN
 70
     0
  3
Hidden __ __ __ __ __ __ __ __ __ __ __ __ __ __
 72
    65
 73
     2
 40
1.905
 49
1.27
 74
     0
 49
-0.635
 74
     0
  0
LTYPE
  5
6B
330
5
100
AcDbSymbolTableRecord
100
AcDbLinetypeTableRecord
  2
PHANTOM
 70
     0
  3
Phantom ______  __  __  ______  __  __  ______
 72
    65
 73
     6
 40
12.7
 49
6.35
 74
     0
 49
-1.27
 74
     0
 49
1.27
 74
     0
 49
-1.27
 74
     0
 49
1.27
 74
     0
 49
-1.27
 74
     0
  0
LTYPE
  5
6C
330
5
100
AcDbSymbolTableRecord
100
AcDbLinetypeTableRecord
  2
CENTER
 70
     0
  3
Center ____ _ ____ _ ____ _ ____ _ ____ _ ____
 72
    65
 73
     4
 40
10.16
 49
6.35
 74
     0
 49
-1.27
 74
     0
 49
1.27
 74
     0
 49
-1.27
 74
     0
  0
LTYPE
  5
6D
330
5
100
AcDbSymbolTableRecord
100
AcDbLinetypeTableRecord
  2
CENTERX2
 70
     0
  3
Center (2x) ________  __  ________  __  _____
 72
    65
 73
     4
 40
20.32
 49
12.7
 74
     0
 49
-2.54
 74
     0
 49
2.54
 74
     0
 49
-2.54
 74
     0
  0
LTYPE
  5
6E
330
5
100
AcDbSymbolTableRecord
100
AcDbLinetypeTableRecord
  2
DOT2
 70
     0
  3
Dot (.5x) ........................................
 72
    65
 73
     2
 40
0.635
 49
0.0
 74
     0
 49
-0.635
 74
     0
  0
ENDTAB
  0
TABLE
  2
LAYER
  5
2
102
{ACAD_XDICTIONARY
360
311
102
}
330
0
100
AcDbSymbolTable
 70
    17
  0
LAYER
  5
10
330
2
100
AcDbSymbolTableRecord
100
AcDbLayerTableRecord
  2
0
 70
     0
 62
     7
  6
Continuous
370
    -3
390
F
  0
LAYER
  5
6F
330
2
100
AcDbSymbolTableRecord
100
AcDbLayerTableRecord
  2
FORMAT
 70
     0
 62
     2
  6
Continuous
370
    -3
390
F
  0
LAYER
  5
70
330
2
100
AcDbSymbolTableRecord
100
AcDbLayerTableRecord
  2
외형선
 70
     0
 62
   100
  6
Continuous
370
    30
390
F
  0
LAYER
  5
71
330
2
100
AcDbSymbolTableRecord
100
AcDbLayerTableRecord
  2
숨은선
 70
     0
 62
     2
  6
HIDDEN
370
    15
390
F
  0
LAYER
  5
72
330
2
100
AcDbSymbolTableRecord
100
AcDbLayerTableRecord
  2
중심선
 70
     0
 62
     1
  6
CENTERX2
370
    -3
390
F
  0
LAYER
  5
73
330
2
100
AcDbSymbolTableRecord
100
AcDbLayerTableRecord
  2
파단선
 70
     0
 62
     4
  6
Continuous
370
    -3
390
F
  0
LAYER
  5
74
330
2
100
AcDbSymbolTableRecord
100
AcDbLayerTableRecord
  2
해칭선
 70
     0
 62
     4
  6
Continuous
370
    -3
390
F
  0
LAYER
  5
75
330
2
100
AcDbSymbolTableRecord
100
AcDbLayerTableRecord
  2
가는실선
 70
     0
 62
     4
  6
Continuous
370
    -3
390
F
  0
LAYER
  5
76
330
2
100
AcDbSymbolTableRecord
100
AcDbLayerTableRecord
  2
치수_보조선
 70
     0
 62
     4
  6
Continuous
370
    -3
390
F
  0
LAYER
  5
77
330
2
100
AcDbSymbolTableRecord
100
AcDbLayerTableRecord
  2
치수문자_일반주서
 70
     0
 62
     7
  6
Continuous
370
    15
390
F
  0
LAYER
  5
78
330
2
100
AcDbSymbolTableRecord
100
AcDbLayerTableRecord
  2
개별주서
 70
     0
 62
   100
  6
Continuous
370
    30
390
F
  0
LAYER
  5
79
330
2
100
AcDbSymbolTableRecord
100
AcDbLayerTableRecord
  2
중간선
 70
     0
 62
     2
  6
Continuous
370
    15
390
F
  0
LAYER
  5
7A
330
2
100
AcDbSymbolTableRecord
100
AcDbLayerTableRecord
  2
윤곽선
 70
     0
 62
     3
  6
Continuous
370
    40
390
F
  0
LAYER
  5
7B
330
2
100
AcDbSymbolTableRecord
100
AcDbLayerTableRecord
  2
중심마크
 70
     0
 62
   100
  6
Continuous
370
    30
390
F
  0
LAYER
  5
7C
330
2
100
AcDbSymbolTableRecord
100
AcDbLayerTableRecord
  2
가상선
 70
     0
 62
     4
  6
PHANTOM
370
    -3
390
F
  0
LAYER
  5
7D
330
2
100
AcDbSymbolTableRecord
100
AcDbLayerTableRecord
  2
특수지정선
 70
     0
 62
     5
  6
CENTERX2
370
    60
390
F
  0
LAYER
  5
20F
330
2
100
AcDbSymbolTableRecord
100
AcDbLayerTableRecord
  2
Defpoints
 70
     0
 62
     7
  6
Continuous
290
     0
370
    -3
390
F
  0
ENDTAB
  0
TABLE
  2
STYLE
  5
3
330
0
100
AcDbSymbolTable
 70
     2
  0
STYLE
  5
11
330
3
100
AcDbSymbolTableRecord
100
AcDbTextStyleTableRecord
  2
Standard
 70
     0
 40
0.0
 41
1.0
 50
0.0
 71
     0
 42
3.5
  3
txt
  4

  0
STYLE
  5
93
330
3
100
AcDbSymbolTableRecord
100
AcDbTextStyleTableRecord
  2
SLDTEXTSTYLE0
 70
     0
 40
0.0
 41
0.75
 50
0.0
 71
     0
 42
3.5
  3
TXT
  4

  0
ENDTAB
  0
TABLE
  2
VIEW
  5
6
330
0
100
AcDbSymbolTable
 70
     0
  0
ENDTAB
  0
TABLE
  2
UCS
  5
7
330
0
100
AcDbSymbolTable
 70
     0
  0
ENDTAB
  0
TABLE
  2
APPID
  5
9
330
0
100
AcDbSymbolTable
 70
     3
  0
APPID
  5
12
330
9
100
AcDbSymbolTableRecord
100
AcDbRegAppTableRecord
  2
ACAD
 70
     0
  0
APPID
  5
2B4
330
9
100
AcDbSymbolTableRecord
100
AcDbRegAppTableRecord
  2
PE_DIMMEASUREMENT
 70
     0
  0
APPID
  5
2B5
330
9
100
AcDbSymbolTableRecord
100
AcDbRegAppTableRecord
  2
ACAD_DSTYLE_DIMRADIAL_EXTENSION
 70
     0
  0
ENDTAB
  0
TABLE
  2
DIMSTYLE
  5
A
330
0
100
AcDbSymbolTable
 70
     3
100
AcDbDimStyleTable
  0
DIMSTYLE
105
27
330
A
100
AcDbSymbolTableRecord
100
AcDbDimStyleTableRecord
  2
ISO-25
 70
     0
 41
2.5
 42
0.625
 43
3.75
 44
1.25
 73
     0
 74
     0
 77
     1
 78
     8
140
2.5
141
2.5
143
0.03937007874016
147
0.625
171
     3
172
     1
178
     0
271
     2
272
     2
274
     3
278
    44
283
     0
284
     8
340
11
  0
DIMSTYLE
105
F7
102
{ACAD_REACTORS
330
27B
330
27C
330
2A4
330
2B6
102
}
330
A
100
AcDbSymbolTableRecord
100
AcDbDimStyleTableRecord
  2
SLDDIMSTYLE0
 70
     0
 41
3.302
 44
0.0
 45
0.000000001
 73
     0
 74
     0
 77
     1
 78
     4
 79
     1
140
3.5
143
0.0393700787401575
147
0.875
148
0.000000001
170
     1
173
     1
178
     0
271
     2
272
     2
276
     2
284
    12
340
93
  0
DIMSTYLE
105
11E
102
{ACAD_REACTORS
330
27D
102
}
330
A
100
AcDbSymbolTableRecord
100
AcDbDimStyleTableRecord
  2
SLDDIMSTYLE1
 70
     0
 41
3.302
 44
0.0
 45
0.000000001
 73
     0
 74
     0
 77
     1
 78
    12
 79
     3
140
3.5
143
0.0393700787401575
147
0.875
148
0.000000001
170
     1
172
     1
173
     1
178
     0
271
     2
272
     2
276
     2
284
    12
289
     0
340
93
  0
ENDTAB
  0
TABLE
  2
BLOCK_RECORD
  5
1
330
0
100
AcDbSymbolTable
 70
    14
  0
BLOCK_RECORD
  5
1F
102
{ACAD_XDICTIONARY
360
345
102
}
330
1
100
AcDbSymbolTableRecord
100
AcDbBlockTableRecord
  2
*Model_Space
340
22
  0
BLOCK_RECORD
  5
1B
330
1
100
AcDbSymbolTableRecord
100
AcDbBlockTableRecord
  2
*Paper_Space
340
1E
  0
BLOCK_RECORD
  5
23
330
1
100
AcDbSymbolTableRecord
100
AcDbBlockTableRecord
  2
*Paper_Space0
340
26
  0
BLOCK_RECORD
  5
7E
330
1
100
AcDbSymbolTableRecord
100
AcDbBlockTableRecord
  2
블럭10
340
0
102
{BLKREFS
331
EE
102
}
  0
BLOCK_RECORD
  5
F8
330
1
100
AcDbSymbolTableRecord
100
AcDbBlockTableRecord
  2
_D
340
0
  0
BLOCK_RECORD
  5
10B
330
1
100
AcDbSymbolTableRecord
100
AcDbBlockTableRecord
  2
_D_1
340
0
  0
BLOCK_RECORD
  5
11F
330
1
100
AcDbSymbolTableRecord
100
AcDbBlockTableRecord
  2
_D_2
340
0
  0
BLOCK_RECORD
  5
132
330
1
100
AcDbSymbolTableRecord
100
AcDbBlockTableRecord
  2
SW_DOWELSYMBOL_0
340
0
102
{BLKREFS
331
27E
102
}
  0
BLOCK_RECORD
  5
210
330
1
100
AcDbSymbolTableRecord
100
AcDbBlockTableRecord
  2
*D6
340
0
  0
BLOCK_RECORD
  5
21C
330
1
100
AcDbSymbolTableRecord
100
AcDbBlockTableRecord
  2
*D7
340
0
  0
BLOCK_RECORD
  5
228
330
1
100
AcDbSymbolTableRecord
100
AcDbBlockTableRecord
  2
*D8
340
0
  0
BLOCK_RECORD
  5
27F
330
1
100
AcDbSymbolTableRecord
100
AcDbBlockTableRecord
  2
*D9
340
0
  0
BLOCK_RECORD
  5
28B
330
1
100
AcDbSymbolTableRecord
100
AcDbBlockTableRecord
  2
*D10
340
0
  0
BLOCK_RECORD
  5
297
330
1
100
AcDbSymbolTableRecord
100
AcDbBlockTableRecord
  2
*D11
340
0
  0
BLOCK_RECORD
  5
2A7
330
1
100
AcDbSymbolTableRecord
100
AcDbBlockTableRecord
  2
*D12
340
0
  0
BLOCK_RECORD
  5
2B9
330
1
100
AcDbSymbolTableRecord
100
AcDbBlockTableRecord
  2
*D13
340
0
  0
ENDTAB
  0
ENDSEC
  0
SECTION
  2
BLOCKS
  0
BLOCK
  5
20
330
1F
100
AcDbEntity
  8
0
100
AcDbBlockBegin
  2
*Model_Space
 70
     0
 10
0.0
 20
0.0
 30
0.0
  3
*Model_Space
  1
*Model_Space
  0
ENDBLK
  5
21
330
1F
100
AcDbEntity
  8
0
100
AcDbBlockEnd
  0
BLOCK
  5
1C
330
1B
100
AcDbEntity
 67
     1
  8
0
100
AcDbBlockBegin
  2
*Paper_Space
 70
     0
 10
0.0
 20
0.0
 30
0.0
  3
*Paper_Space
  1
*Paper_Space
  0
ENDBLK
  5
1D
330
1B
100
AcDbEntity
 67
     1
  8
0
100
AcDbBlockEnd
  0
BLOCK
  5
24
330
23
100
AcDbEntity
  8
0
100
AcDbBlockBegin
  2
*Paper_Space0
 70
     0
 10
0.0
 20
0.0
 30
0.0
  3
*Paper_Space0
  1
*Paper_Space0
  0
ENDBLK
  5
25
330
23
100
AcDbEntity
  8
0
100
AcDbBlockEnd
  0
BLOCK
  5
7F
330
7E
100
AcDbEntity
  8
0
100
AcDbBlockBegin
  2
블럭10
 70
     2
 10
0.0
 20
0.0
 30
0.0
  3
블럭10
  1
블럭10
  0
ELLIPSE
  5
81
330
7E
100
AcDbEntity
  8
중심선
100
AcDbEllipse
 10
20.54032771741204
 20
12.0471743016438
 30
0.0
 11
6.600054785286829
 21
-1.261213355974178E-13
 31
0.0
210
0.0
220
0.0
230
1.0
 40
0.636358354079598
 41
0.9219305317359503
 42
6.513795318482858
  0
ELLIPSE
  5
82
330
7E
100
AcDbEntity
  8
중심선
100
AcDbEllipse
 10
20.54032771746488
 20
12.04717430159265
 30
0.0
 11
3.960054785062283
 21
1.540847449632565E-10
 31
0.0
210
0.0
220
0.0
230
1.0
 40
0.3939339440162632
 41
1.131841032648279
 42
5.62031148352944
  0
LINE
  5
83
330
7E
100
AcDbEntity
  8
중심선
100
AcDbLine
 10
2.268634060543552
 20
16.24717430164393
 30
0.0
 11
5.714909304380834
 21
16.24717430164393
 31
0.0
  0
LINE
  5
84
330
7E
100
AcDbEntity
  8
중심선
100
AcDbLine
 10
5.245725140726316
 20
7.84717430164391
 30
0.0
 11
8.692000384563599
 21
7.84717430164391
 31
0.0
  0
LINE
  5
85
330
7E
100
AcDbEntity
  8
중심선
100
AcDbLine
 10
15.74043728645272
 20
16.24717430164393
 30
0.0
 11
8.692000384563599
 21
7.84717430164391
 31
0.0
  0
LINE
  5
86
330
7E
100
AcDbEntity
  8
중심선
100
AcDbLine
 10
0.1404042013395286
 20
13.71084872107135
 30
0.0
 11
3.58671253028996
 21
13.71088815037384
 31
0.0
  0
LINE
  5
87
330
7E
100
AcDbEntity
  8
중심선
100
AcDbLine
 10
2.750260043222114
 20
10.84717430164391
 30
0.0
 11
6.196535287059397
 21
10.84717430164391
 31
0.0
  0
LINE
  5
88
330
7E
100
AcDbEntity
  8
중심선
100
AcDbLine
 10
12.29416204261559
 20
16.24717430164393
 30
0.0
 11
5.245725140726316
 21
7.84717430164391
 31
0.0
  0
LINE
  5
89
330
7E
100
AcDbEntity
  8
중심선
100
AcDbLine
 10
10.72767329541681
 20
16.24717430164393
 30
0.0
 11
6.196535287059397
 21
10.84717430164391
 31
0.0
  0
LINE
  5
8A
330
7E
100
AcDbEntity
  8
중심선
100
AcDbLine
 10
7.28139805157953
 20
16.24717430164393
 30
0.0
 11
2.750260043222114
 21
10.84717430164391
 31
0.0
  0
LINE
  5
8B
330
7E
100
AcDbEntity
  8
중심선
100
AcDbLine
 10
5.714909304380834
 20
16.24717430164393
 30
0.0
 11
3.58671253028996
 21
13.71088815037384
 31
0.0
  0
LINE
  5
8C
330
7E
100
AcDbEntity
  8
중심선
100
AcDbLine
 10
2.268634060543552
 20
16.24717430164393
 30
0.0
 11
0.1404042013395286
 21
13.71084872107135
 31
0.0
  0
LINE
  5
8D
330
7E
100
AcDbEntity
  8
중심선
100
AcDbLine
 10
7.28139805157953
 20
16.24717430164393
 30
0.0
 11
10.72767329541681
 21
16.24717430164393
 31
0.0
  0
LINE
  5
8E
330
7E
100
AcDbEntity
  8
중심선
100
AcDbLine
 10
12.29416204261559
 20
16.24717430164393
 30
0.0
 11
15.74043728645272
 21
16.24717430164393
 31
0.0
  0
LINE
  5
8F
330
7E
100
AcDbEntity
  8
중심선
100
AcDbLine
 10
19.22036997980202
 20
11.08717430171403
 30
0.0
 11
23.66174974927406
 21
11.08717430171406
 31
0.0
  0
LINE
  5
90
330
7E
100
AcDbEntity
  8
중심선
100
AcDbLine
 10
19.22039502424796
 20
13.00717430171391
 30
0.0
 11
19.22036997980202
 21
11.08717430171403
 31
0.0
  0
LINE
  5
91
330
7E
100
AcDbEntity
  8
중심선
100
AcDbLine
 10
19.22039502424796
 20
13.00717430171391
 30
0.0
 11
26.96566020931264
 21
13.00717430171391
 31
0.0
  0
LINE
  5
92
330
7E
100
AcDbEntity
  8
중심선
100
AcDbLine
 10
22.22332737316547
 20
13.45928029700563
 30
0.0
 11
24.52862924686651
 21
15.39360700705356
 31
0.0
  0
ATTDEF
  5
94
330
7E
100
AcDbEntity
  8
FORMAT
 62
     2
100
AcDbText
 10
-11.05102035218446
 20
2.075366912832191
 30
0.0
 40
4.233333333333333
  1
GMG22944[ 6 FLUTE ]
 41
0.75
  7
SLDTEXTSTYLE0
 11
-11.05102035218446
 21
-0.0412997538344756
 31
0.0
100
AcDbAttributeDefinition
  3

  2
AUTOATTR0
 70
     0
 74
     1
  0
ENDBLK
  5
80
330
7E
100
AcDbEntity
  8
0
100
AcDbBlockEnd
  0
BLOCK
  5
F9
330
F8
100
AcDbEntity
  8
0
100
AcDbBlockBegin
  2
_D
 70
     0
 10
0.0
 20
0.0
 30
0.0
  3
_D
  1
_D
  0
SOLID
  5
FB
330
F8
100
AcDbEntity
  8
치수문자_일반주서
100
AcDbTrace
 10
-47.11334827919203
 20
41.92017339282766
 30
0.0
 11
-43.81134827919203
 21
41.41217339282765
 31
0.0
 12
-43.81134827919203
 22
42.42817339282766
 32
0.0
 13
-43.81134827919203
 23
42.42817339282766
 33
0.0
  0
SOLID
  5
FC
330
F8
100
AcDbEntity
  8
치수문자_일반주서
100
AcDbTrace
 10
54.48665172080796
 20
41.92017339282766
 30
0.0
 11
51.18465172080796
 21
42.42817339282766
 31
0.0
 12
51.18465172080796
 22
41.41217339282765
 32
0.0
 13
51.18465172080796
 23
41.41217339282765
 33
0.0
  0
LINE
  5
FD
330
F8
100
AcDbEntity
  8
치수문자_일반주서
100
AcDbLine
 10
-1.727714361014696
 20
52.71305510887042
 30
0.0
 11
-2.438651846579196
 21
52.71305510887042
 31
0.0
  0
LINE
  5
FE
330
F8
100
AcDbEntity
  8
치수문자_일반주서
100
AcDbLine
 10
-2.438651846579196
 20
52.71305510887042
 30
0.0
 11
-2.438651846579196
 21
47.15680511781112
 31
0.0
  0
LINE
  5
FF
330
F8
100
AcDbEntity
  8
치수문자_일반주서
100
AcDbLine
 10
-2.438651846579196
 20
47.15680511781112
 30
0.0
 11
-1.727714361014696
 21
47.15680511781112
 31
0.0
  0
LINE
  5
100
330
F8
100
AcDbEntity
  8
치수문자_일반주서
100
AcDbLine
 10
9.101018501122562
 20
52.71305510887042
 30
0.0
 11
9.811955986687062
 21
52.71305510887042
 31
0.0
  0
LINE
  5
101
330
F8
100
AcDbEntity
  8
치수문자_일반주서
100
AcDbLine
 10
9.811955986687062
 20
52.71305510887042
 30
0.0
 11
9.811955986687062
 21
47.15680511781112
 31
0.0
  0
LINE
  5
102
330
F8
100
AcDbEntity
  8
치수문자_일반주서
100
AcDbLine
 10
9.811955986687062
 20
47.15680511781112
 30
0.0
 11
9.101018501122562
 21
47.15680511781112
 31
0.0
  0
LINE
  5
103
330
F8
100
AcDbEntity
  8
치수문자_일반주서
100
AcDbLine
 10
-47.11334827919203
 20
9.764621974755874
 30
0.0
 11
-47.11334827919203
 21
42.92017339282766
 31
0.0
  0
LINE
  5
104
330
F8
100
AcDbEntity
  8
치수문자_일반주서
100
AcDbLine
 10
54.48665172080796
 20
9.502621974755883
 30
0.0
 11
54.48665172080796
 21
42.92017339282766
 31
0.0
  0
LINE
  5
105
330
F8
100
AcDbEntity
  8
치수문자_일반주서
100
AcDbLine
 10
-47.11334827919203
 20
41.92017339282766
 30
0.0
 11
54.48665172080796
 21
41.92017339282766
 31
0.0
  0
MTEXT
  5
106
330
F8
100
AcDbEntity
  8
치수문자_일반주서
100
AcDbMText
 10
-3.405709483518185
 20
46.4853826586894
 30
0.0
 40
3.5
 41
0.0
 71
     1
 72
     1
  1

  7
SLDTEXTSTYLE0
 73
     1
 44
1.0
  0
MTEXT
  5
107
330
F8
100
AcDbEntity
  8
치수문자_일반주서
100
AcDbMText
 10
-0.8390424604033248
 20
51.66854203239001
 30
0.0
 40
3.5
 41
0.0
 71
     1
 72
     1
  1
4.00
  7
SLDTEXTSTYLE0
 73
     1
 44
1.0
  0
MTEXT
  5
108
330
F8
100
AcDbEntity
  8
치수문자_일반주서
100
AcDbMText
 10
-3.425153886756779
 20
46.43191048202954
 30
0.0
 40
3.5
 41
0.0
 71
     1
 72
     1
  1
101.60
  7
SLDTEXTSTYLE0
 73
     1
 44
1.0
  0
MTEXT
  5
109
330
F8
100
AcDbEntity
  8
치수문자_일반주서
100
AcDbMText
 10
12.11095814327997
 20
46.4853826586894
 30
0.0
 40
3.5
 41
0.0
 71
     1
 72
     1
  1

  7
SLDTEXTSTYLE0
 73
     1
 44
1.0
  0
ENDBLK
  5
FA
330
F8
100
AcDbEntity
  8
0
100
AcDbBlockEnd
  0
BLOCK
  5
10C
330
10B
100
AcDbEntity
  8
0
100
AcDbBlockBegin
  2
_D_1
 70
     0
 10
0.0
 20
0.0
 30
0.0
  3
_D_1
  1
_D_1
  0
SOLID
  5
10E
330
10B
100
AcDbEntity
  8
치수문자_일반주서
100
AcDbTrace
 10
54.48665172080795
 20
26.12961650509381
 30
0.0
 11
51.18465172080795
 21
26.6376165050938
 31
0.0
 12
51.18465172080795
 22
25.6216165050938
 32
0.0
 13
51.18465172080795
 23
25.6216165050938
 33
0.0
  0
SOLID
  5
10F
330
10B
100
AcDbEntity
  8
치수문자_일반주서
100
AcDbTrace
 10
16.38665172080795
 20
26.12961650509379
 30
0.0
 11
19.68865172080795
 21
25.62161650509379
 31
0.0
 12
19.68865172080795
 22
26.63761650509379
 32
0.0
 13
19.68865172080795
 23
26.63761650509379
 33
0.0
  0
LINE
  5
110
330
10B
100
AcDbEntity
  8
치수문자_일반주서
100
AcDbLine
 10
29.60318733683753
 20
36.92249822113658
 30
0.0
 11
28.89224985127303
 21
36.92249822113657
 31
0.0
  0
LINE
  5
111
330
10B
100
AcDbEntity
  8
치수문자_일반주서
100
AcDbLine
 10
28.89224985127303
 20
36.92249822113657
 30
0.0
 11
28.89224985127307
 21
31.36624823007727
 31
0.0
  0
LINE
  5
112
330
10B
100
AcDbEntity
  8
치수문자_일반주서
100
AcDbLine
 10
28.89224985127307
 20
31.36624823007727
 30
0.0
 11
29.60318733683757
 21
31.36624823007728
 31
0.0
  0
LINE
  5
113
330
10B
100
AcDbEntity
  8
치수문자_일반주서
100
AcDbLine
 10
40.43192019897479
 20
36.92249822113666
 30
0.0
 11
41.14285768453929
 21
36.92249822113666
 31
0.0
  0
LINE
  5
114
330
10B
100
AcDbEntity
  8
치수문자_일반주서
100
AcDbLine
 10
41.14285768453929
 20
36.92249822113666
 30
0.0
 11
41.14285768453933
 21
31.36624823007736
 31
0.0
  0
LINE
  5
115
330
10B
100
AcDbEntity
  8
치수문자_일반주서
100
AcDbLine
 10
41.14285768453933
 20
31.36624823007736
 30
0.0
 11
40.43192019897483
 21
31.36624823007735
 31
0.0
  0
LINE
  5
116
330
10B
100
AcDbEntity
  8
치수문자_일반주서
100
AcDbLine
 10
54.48665172080796
 20
9.502621974755883
 30
0.0
 11
54.48665172080795
 21
27.12961650509381
 31
0.0
  0
LINE
  5
117
330
10B
100
AcDbEntity
  8
치수문자_일반주서
100
AcDbLine
 10
16.38665172080796
 20
9.89439336886935
 30
0.0
 11
16.38665172080795
 21
27.12961650509379
 31
0.0
  0
LINE
  5
118
330
10B
100
AcDbEntity
  8
치수문자_일반주서
100
AcDbLine
 10
54.48665172080795
 20
26.12961650509381
 30
0.0
 11
16.38665172080795
 21
26.12961650509379
 31
0.0
  0
MTEXT
  5
119
330
10B
100
AcDbEntity
  8
치수문자_일반주서
100
AcDbMText
 10
28.37849112578638
 20
30.69482577095554
 30
0.0
 40
3.5
 41
0.0
 71
     1
 72
     1
  1

  7
SLDTEXTSTYLE0
 73
     1
 44
1.0
  0
MTEXT
  5
11A
330
10B
100
AcDbEntity
  8
치수문자_일반주서
100
AcDbMText
 10
30.4918592374489
 20
35.87798514465617
 30
0.0
 40
3.5
 41
0.0
 71
     1
 72
     1
  1
1.50
  7
SLDTEXTSTYLE0
 73
     1
 44
1.0
  0
MTEXT
  5
11B
330
10B
100
AcDbEntity
  8
치수문자_일반주서
100
AcDbMText
 10
29.19880352427222
 20
30.64135359429569
 30
0.0
 40
3.5
 41
0.0
 71
     1
 72
     1
  1
38.10
  7
SLDTEXTSTYLE0
 73
     1
 44
1.0
  0
MTEXT
  5
11C
330
10B
100
AcDbEntity
  8
치수문자_일반주서
100
AcDbMText
 10
42.98856092967995
 20
30.69482577095565
 30
0.0
 40
3.5
 41
0.0
 71
     1
 72
     1
  1

  7
SLDTEXTSTYLE0
 73
     1
 44
1.0
  0
ENDBLK
  5
10D
330
10B
100
AcDbEntity
  8
0
100
AcDbBlockEnd
  0
BLOCK
  5
120
330
11F
100
AcDbEntity
  8
0
100
AcDbBlockBegin
  2
_D_2
 70
     0
 10
0.0
 20
0.0
 30
0.0
  3
_D_2
  1
_D_2
  0
SOLID
  5
122
330
11F
100
AcDbEntity
  8
치수문자_일반주서
100
AcDbTrace
 10
-60.11334827919204
 20
9.26462197475588
 30
0.0
 11
-59.60534827919204
 21
12.56662197475588
 31
0.0
 12
-60.62134827919204
 22
12.56662197475588
 32
0.0
 13
-60.62134827919204
 23
12.56662197475588
 33
0.0
  0
SOLID
  5
123
330
11F
100
AcDbEntity
  8
치수문자_일반주서
100
AcDbTrace
 10
-60.11334827919204
 20
-9.785378025244121
 30
0.0
 11
-60.62134827919204
 21
-13.08737802524412
 31
0.0
 12
-59.60534827919204
 22
-13.08737802524412
 32
0.0
 13
-59.60534827919204
 23
-13.08737802524412
 33
0.0
  0
LINE
  5
124
330
11F
100
AcDbEntity
  8
치수문자_일반주서
100
AcDbLine
 10
-70.90622999523477
 20
-5.674744456312825
 30
0.0
 11
-70.90622999523477
 21
-6.385681941877325
 31
0.0
  0
LINE
  5
125
330
11F
100
AcDbEntity
  8
치수문자_일반주서
100
AcDbLine
 10
-70.90622999523477
 20
-6.385681941877325
 30
0.0
 11
-65.34998000417546
 21
-6.385681941877286
 31
0.0
  0
LINE
  5
126
330
11F
100
AcDbEntity
  8
치수문자_일반주서
100
AcDbLine
 10
-65.34998000417546
 20
-6.385681941877286
 30
0.0
 11
-65.34998000417546
 21
-5.674744456312786
 31
0.0
  0
LINE
  5
127
330
11F
100
AcDbEntity
  8
치수문자_일반주서
100
AcDbLine
 10
-70.90622999523485
 20
5.153988405824433
 30
0.0
 11
-70.90622999523485
 21
5.864925891388933
 31
0.0
  0
LINE
  5
128
330
11F
100
AcDbEntity
  8
치수문자_일반주서
100
AcDbLine
 10
-70.90622999523485
 20
5.864925891388933
 30
0.0
 11
-65.34998000417555
 21
5.864925891388972
 31
0.0
  0
LINE
  5
129
330
11F
100
AcDbEntity
  8
치수문자_일반주서
100
AcDbLine
 10
-65.34998000417555
 20
5.864925891388972
 30
0.0
 11
-65.34998000417555
 21
5.153988405824472
 31
0.0
  0
LINE
  5
12A
330
11F
100
AcDbEntity
  8
치수문자_일반주서
100
AcDbLine
 10
-47.61334827919203
 20
9.264621974755881
 30
0.0
 11
-61.11334827919205
 21
9.26462197475588
 31
0.0
  0
LINE
  5
12B
330
11F
100
AcDbEntity
  8
치수문자_일반주서
100
AcDbLine
 10
-47.61334827919203
 20
-9.78537802524412
 30
0.0
 11
-61.11334827919205
 21
-9.785378025244121
 31
0.0
  0
LINE
  5
12C
330
11F
100
AcDbEntity
  8
치수문자_일반주서
100
AcDbLine
 10
-60.11334827919204
 20
9.26462197475588
 30
0.0
 11
-60.11334827919204
 21
15.61462197475588
 31
0.0
  0
LINE
  5
12D
330
11F
100
AcDbEntity
  8
치수문자_일반주서
100
AcDbLine
 10
-60.11334827919204
 20
9.26462197475588
 30
0.0
 11
-60.11334827919204
 21
-9.785378025244121
 31
0.0
  0
LINE
  5
12E
330
11F
100
AcDbEntity
  8
치수문자_일반주서
100
AcDbLine
 10
-60.11334827919204
 20
-9.785378025244121
 30
0.0
 11
-60.11334827919204
 21
-16.13537802524412
 31
0.0
  0
MTEXT
  5
12F
330
11F
100
AcDbEntity
  8
치수문자_일반주서
100
AcDbMText
 10
-69.86171691875438
 20
-4.786072555701447
 30
0.0
 40
3.5
 41
0.0
 71
     1
 72
     1
  1
0.75
  7
SLDTEXTSTYLE0
 11
-7.044195017643634E-15
 21
1.0
 31
0.0
 73
     1
 44
1.0
  0
MTEXT
  5
130
330
11F
100
AcDbEntity
  8
치수문자_일반주서
100
AcDbMText
 10
-64.62508536839388
 20
-8.718346968065179
 30
0.0
 40
3.5
 41
0.0
 71
     1
 72
     1
  1
%%c
  7
SLDTEXTSTYLE0
 11
-7.044195017643634E-15
 21
1.0
 31
0.0
 73
     1
 44
1.0
  0
MTEXT
  5
131
330
11F
100
AcDbEntity
  8
치수문자_일반주서
100
AcDbMText
 10
-64.62508536839391
 20
-3.439909569691098
 30
0.0
 40
3.5
 41
0.0
 71
     1
 72
     1
  1
19.05
  7
SLDTEXTSTYLE0
 11
-7.044195017643634E-15
 21
1.0
 31
0.0
 73
     1
 44
1.0
  0
ENDBLK
  5
121
330
11F
100
AcDbEntity
  8
0
100
AcDbBlockEnd
  0
BLOCK
  5
133
330
132
100
AcDbEntity
  8
0
100
AcDbBlockBegin
  2
SW_DOWELSYMBOL_0
 70
     0
 10
0.0
 20
0.0
 30
0.0
  3
SW_DOWELSYMBOL_0
  1
SW_DOWELSYMBOL_0
  0
CIRCLE
  5
135
330
132
100
AcDbEntity
  8
외형선
 62
     0
100
AcDbCircle
 10
0.0
 20
0.0
 30
0.0
 40
3.000000000000001
  0
HATCH
  5
136
330
132
100
AcDbEntity
  8
0
  6
Continuous
 62
     0
370
    30
100
AcDbHatch
 10
0.0
 20
0.0
 30
0.0
210
0.0
220
0.0
230
1.0
  2
SOLID
 70
     1
 71
     0
 91
        1
 92
        0
 93
        3
 72
     2
 10
0.0
 20
0.0
 40
3.000000000000001
 50
0.0
 51
90.0
 73
     1
 72
     1
 10
0.0
 20
3.000000000000001
 11
0.0
 21
0.0
 72
     1
 10
0.0
 20
0.0
 11
3.000000000000003
 21
0.0
 97
        0
 75
     0
 76
     1
 98
        1
 10
0.0
 20
0.0
  0
HATCH
  5
137
330
132
100
AcDbEntity
  8
0
  6
Continuous
 62
     0
370
    30
100
AcDbHatch
 10
0.0
 20
0.0
 30
0.0
210
0.0
220
0.0
230
1.0
  2
SOLID
 70
     1
 71
     0
 91
        1
 92
        0
 93
        3
 72
     2
 10
0.0
 20
0.0
 40
3.000000000000001
 50
180.0
 51
270.0000000000007
 73
     1
 72
     1
 10
0.0
 20
-3.000000000000001
 11
0.0
 21
0.0
 72
     1
 10
0.0
 20
0.0
 11
-3.000000000000003
 21
0.0
 97
        0
 75
     0
 76
     1
 98
        1
 10
0.0
 20
0.0
  0
ENDBLK
  5
134
330
132
100
AcDbEntity
  8
0
100
AcDbBlockEnd
  0
BLOCK
  5
211
330
210
100
AcDbEntity
  8
0
100
AcDbBlockBegin
  2
*D6
 70
     1
 10
0.0
 20
0.0
 30
0.0
  3
*D6
  1
*D7
  0
LINE
  5
213
330
210
100
AcDbEntity
  8
치수문자_일반주서
 62
     0
370
    -2
100
AcDbLine
 10
17.37500000000006
 20
22.21250000000001
 30
0.0
 11
17.37500000000006
 21
55.3055514180718
 31
0.0
  0
LINE
  5
214
330
210
100
AcDbEntity
  8
치수문자_일반주서
 62
     0
370
    -2
100
AcDbLine
 10
118.9750000000001
 20
19.66450000000002
 30
0.0
 11
118.9750000000001
 21
55.3055514180718
 31
0.0
  0
LINE
  5
215
330
210
100
AcDbEntity
  8
치수문자_일반주서
 62
     0
370
    -2
100
AcDbLine
 10
20.67700000000006
 20
55.3055514180718
 30
0.0
 11
115.6730000000001
 21
55.3055514180718
 31
0.0
  0
SOLID
  5
216
330
210
100
AcDbEntity
  8
치수문자_일반주서
 62
     0
100
AcDbTrace
 10
20.67700000000006
 20
55.85588475140514
 30
0.0
 11
20.67700000000006
 21
54.75521808473847
 31
0.0
 12
17.37500000000006
 22
55.3055514180718
 32
0.0
 13
17.37500000000006
 23
55.3055514180718
 33
0.0
  0
SOLID
  5
217
330
210
100
AcDbEntity
  8
치수문자_일반주서
 62
     0
100
AcDbTrace
 10
115.6730000000001
 20
54.75521808473847
 30
0.0
 11
115.6730000000001
 21
55.85588475140514
 31
0.0
 12
118.9750000000001
 22
55.3055514180718
 32
0.0
 13
118.9750000000001
 23
55.3055514180718
 33
0.0
  0
MTEXT
  5
218
330
210
100
AcDbEntity
  8
치수문자_일반주서
 62
     0
100
AcDbMText
 10
68.17500000000005
 20
59.6805514180718
 30
0.0
 40
3.5
 41
0.0
 71
     2
 72
     1
  1
\A1;101.60 [4.00]
  7
SLDTEXTSTYLE0
 73
     1
 44
1.0
  0
POINT
  5
219
330
210
100
AcDbEntity
  8
Defpoints
 62
     0
100
AcDbPoint
 10
17.37500000000006
 20
22.15000000000001
 30
0.0
  0
POINT
  5
21A
330
210
100
AcDbEntity
  8
Defpoints
 62
     0
100
AcDbPoint
 10
118.9750000000001
 20
19.60200000000002
 30
0.0
  0
POINT
  5
21B
330
210
100
AcDbEntity
  8
Defpoints
 62
     0
100
AcDbPoint
 10
118.9750000000001
 20
55.3055514180718
 30
0.0
  0
ENDBLK
  5
212
330
210
100
AcDbEntity
  8
0
100
AcDbBlockEnd
  0
BLOCK
  5
21D
330
21C
100
AcDbEntity
  8
0
100
AcDbBlockBegin
  2
*D7
 70
     1
 10
0.0
 20
0.0
 30
0.0
  3
*D7
  1
*D8
  0
LINE
  5
21F
330
21C
100
AcDbEntity
  8
치수문자_일반주서
 62
     0
370
    -2
100
AcDbLine
 10
118.9750000000001
 20
19.66450000000002
 30
0.0
 11
118.9750000000001
 21
37.22899453033794
 31
0.0
  0
LINE
  5
220
330
21C
100
AcDbEntity
  8
치수문자_일반주서
 62
     0
370
    -2
100
AcDbLine
 10
80.87500000000004
 20
22.34227139411347
 30
0.0
 11
80.87500000000004
 21
37.22899453033794
 31
0.0
  0
LINE
  5
221
330
21C
100
AcDbEntity
  8
치수문자_일반주서
 62
     0
370
    -2
100
AcDbLine
 10
115.6730000000001
 20
37.22899453033794
 30
0.0
 11
84.17700000000005
 21
37.22899453033794
 31
0.0
  0
SOLID
  5
222
330
21C
100
AcDbEntity
  8
치수문자_일반주서
 62
     0
100
AcDbTrace
 10
115.6730000000001
 20
36.67866119700461
 30
0.0
 11
115.6730000000001
 21
37.77932786367128
 31
0.0
 12
118.9750000000001
 22
37.22899453033794
 32
0.0
 13
118.9750000000001
 23
37.22899453033794
 33
0.0
  0
SOLID
  5
223
330
21C
100
AcDbEntity
  8
치수문자_일반주서
 62
     0
100
AcDbTrace
 10
84.17700000000005
 20
37.77932786367128
 30
0.0
 11
84.17700000000005
 21
36.67866119700461
 31
0.0
 12
80.87500000000004
 22
37.22899453033794
 32
0.0
 13
80.87500000000004
 23
37.22899453033794
 33
0.0
  0
MTEXT
  5
224
330
21C
100
AcDbEntity
  8
치수문자_일반주서
 62
     0
100
AcDbMText
 10
99.50590169785227
 20
41.60399453033794
 30
0.0
 40
3.5
 41
0.0
 71
     2
 72
     1
  1
\A1;38.10 [1.50]
  7
SLDTEXTSTYLE0
 73
     1
 44
1.0
  0
POINT
  5
225
330
21C
100
AcDbEntity
  8
Defpoints
 62
     0
100
AcDbPoint
 10
118.9750000000001
 20
19.60200000000002
 30
0.0
  0
POINT
  5
226
330
21C
100
AcDbEntity
  8
Defpoints
 62
     0
100
AcDbPoint
 10
80.87500000000004
 20
22.27977139411347
 30
0.0
  0
POINT
  5
227
330
21C
100
AcDbEntity
  8
Defpoints
 62
     0
100
AcDbPoint
 10
80.87500000000004
 20
37.22899453033793
 30
0.0
  0
ENDBLK
  5
21E
330
21C
100
AcDbEntity
  8
0
100
AcDbBlockEnd
  0
BLOCK
  5
229
330
228
100
AcDbEntity
  8
0
100
AcDbBlockBegin
  2
*D8
 70
     1
 10
0.0
 20
0.0
 30
0.0
  3
*D8
  1
*D9
  0
LINE
  5
22B
330
228
100
AcDbEntity
  8
치수문자_일반주서
 62
     0
370
    -2
100
AcDbLine
 10
17.81250000000005
 20
22.65000000000002
 30
0.0
 11
4.374999999999996
 21
22.64999999999997
 31
0.0
  0
LINE
  5
22C
330
228
100
AcDbEntity
  8
치수문자_일반주서
 62
     0
370
    -2
100
AcDbLine
 10
17.81250000000005
 20
3.600000000000015
 30
0.0
 11
4.375000000000062
 21
3.599999999999966
 31
0.0
  0
LINE
  5
22D
330
228
100
AcDbEntity
  8
치수문자_일반주서
 62
     0
370
    -2
100
AcDbLine
 10
4.375000000000007
 20
19.34799999999997
 30
0.0
 11
4.375000000000051
 21
6.901999999999965
 31
0.0
  0
SOLID
  5
22E
330
228
100
AcDbEntity
  8
치수문자_일반주서
 62
     0
100
AcDbTrace
 10
4.925333333333341
 20
19.34799999999997
 30
0.0
 11
3.824666666666674
 21
19.34799999999996
 31
0.0
 12
4.374999999999996
 22
22.64999999999997
 32
0.0
 13
4.374999999999996
 23
22.64999999999997
 33
0.0
  0
SOLID
  5
22F
330
228
100
AcDbEntity
  8
치수문자_일반주서
 62
     0
100
AcDbTrace
 10
3.824666666666718
 20
6.901999999999964
 30
0.0
 11
4.925333333333384
 21
6.901999999999967
 31
0.0
 12
4.375000000000062
 22
3.599999999999966
 32
0.0
 13
4.375000000000062
 23
3.599999999999966
 33
0.0
  0
MTEXT
  5
230
330
228
100
AcDbEntity
  8
치수문자_일반주서
 62
     0
100
AcDbMText
 10
0.0000000000000284
 20
13.125
 30
0.0
 40
3.5
 41
0.0
 71
     2
 72
     1
  1
\A1;%%c19.05 [0.75]
  7
SLDTEXTSTYLE0
 11
-3.496765431890257E-15
 21
1.0
 31
0.0
 73
     1
 44
1.0
  0
POINT
  5
231
330
228
100
AcDbEntity
  8
Defpoints
 62
     0
100
AcDbPoint
 10
17.87500000000005
 20
22.65000000000002
 30
0.0
  0
POINT
  5
232
330
228
100
AcDbEntity
  8
Defpoints
 62
     0
100
AcDbPoint
 10
17.87500000000005
 20
3.600000000000016
 30
0.0
  0
POINT
  5
233
330
228
100
AcDbEntity
  8
Defpoints
 62
     0
100
AcDbPoint
 10
4.375000000000028
 20
3.599999999999965
 30
0.0
  0
ENDBLK
  5
22A
330
228
100
AcDbEntity
  8
0
100
AcDbBlockEnd
  0
BLOCK
  5
280
330
27F
100
AcDbEntity
  8
0
100
AcDbBlockBegin
  2
*D9
 70
     1
 10
0.0
 20
0.0
 30
0.0
  3
*D9
  1
*D10
  0
LINE
  5
282
330
27F
100
AcDbEntity
  8
치수문자_일반주서
 62
     0
370
    -2
100
AcDbLine
 10
-53.50000000000006
 20
9.087500000000531
 30
0.0
 11
-53.50000000000006
 21
42.18055141807233
 31
0.0
  0
LINE
  5
283
330
27F
100
AcDbEntity
  8
치수문자_일반주서
 62
     0
370
    -2
100
AcDbLine
 10
48.09999999999994
 20
6.539500000000544
 30
0.0
 11
48.09999999999994
 21
42.18055141807233
 31
0.0
  0
LINE
  5
284
330
27F
100
AcDbEntity
  8
치수문자_일반주서
 62
     0
370
    -2
100
AcDbLine
 10
-50.19800000000006
 20
42.18055141807233
 30
0.0
 11
44.79799999999994
 21
42.18055141807233
 31
0.0
  0
SOLID
  5
285
330
27F
100
AcDbEntity
  8
치수문자_일반주서
 62
     0
100
AcDbTrace
 10
-50.19800000000006
 20
42.73088475140566
 30
0.0
 11
-50.19800000000006
 21
41.63021808473899
 31
0.0
 12
-53.50000000000006
 22
42.18055141807233
 32
0.0
 13
-53.50000000000006
 23
42.18055141807233
 33
0.0
  0
SOLID
  5
286
330
27F
100
AcDbEntity
  8
치수문자_일반주서
 62
     0
100
AcDbTrace
 10
44.79799999999994
 20
41.63021808473899
 30
0.0
 11
44.79799999999994
 21
42.73088475140566
 31
0.0
 12
48.09999999999994
 22
42.18055141807233
 32
0.0
 13
48.09999999999994
 23
42.18055141807233
 33
0.0
  0
MTEXT
  5
287
330
27F
100
AcDbEntity
  8
치수문자_일반주서
 62
     0
100
AcDbMText
 10
-2.700000000000056
 20
46.55555141807233
 30
0.0
 40
3.5
 41
0.0
 71
     2
 72
     1
  1
\A1;101.60 [4]
  7
SLDTEXTSTYLE0
 73
     1
 44
1.0
  0
POINT
  5
288
330
27F
100
AcDbEntity
  8
Defpoints
 62
     0
100
AcDbPoint
 10
-53.50000000000006
 20
9.025000000000531
 30
0.0
  0
POINT
  5
289
330
27F
100
AcDbEntity
  8
Defpoints
 62
     0
100
AcDbPoint
 10
48.09999999999994
 20
6.477000000000544
 30
0.0
  0
POINT
  5
28A
330
27F
100
AcDbEntity
  8
Defpoints
 62
     0
100
AcDbPoint
 10
48.09999999999994
 20
42.18055141807233
 30
0.0
  0
ENDBLK
  5
281
330
27F
100
AcDbEntity
  8
0
100
AcDbBlockEnd
  0
BLOCK
  5
28C
330
28B
100
AcDbEntity
  8
0
100
AcDbBlockBegin
  2
*D10
 70
     1
 10
0.0
 20
0.0
 30
0.0
  3
*D10
  1
*D11
  0
LINE
  5
28E
330
28B
100
AcDbEntity
  8
치수문자_일반주서
 62
     0
370
    -2
100
AcDbLine
 10
48.09999999999994
 20
6.539500000000544
 30
0.0
 11
48.09999999999994
 21
24.10399453033847
 31
0.0
  0
LINE
  5
28F
330
28B
100
AcDbEntity
  8
치수문자_일반주서
 62
     0
370
    -2
100
AcDbLine
 10
9.999999999999932
 20
-9.092271394112913
 30
0.0
 11
9.999999999999932
 21
24.10399453033847
 31
0.0
  0
LINE
  5
290
330
28B
100
AcDbEntity
  8
치수문자_일반주서
 62
     0
370
    -2
100
AcDbLine
 10
44.79799999999994
 20
24.10399453033847
 30
0.0
 11
13.30199999999993
 21
24.10399453033847
 31
0.0
  0
SOLID
  5
291
330
28B
100
AcDbEntity
  8
치수문자_일반주서
 62
     0
100
AcDbTrace
 10
44.79799999999994
 20
23.55366119700513
 30
0.0
 11
44.79799999999994
 21
24.6543278636718
 31
0.0
 12
48.09999999999994
 22
24.10399453033847
 32
0.0
 13
48.09999999999994
 23
24.10399453033847
 33
0.0
  0
SOLID
  5
292
330
28B
100
AcDbEntity
  8
치수문자_일반주서
 62
     0
100
AcDbTrace
 10
13.30199999999993
 20
24.6543278636718
 30
0.0
 11
13.30199999999993
 21
23.55366119700513
 31
0.0
 12
9.999999999999932
 22
24.10399453033847
 32
0.0
 13
9.999999999999932
 23
24.10399453033847
 33
0.0
  0
MTEXT
  5
293
330
28B
100
AcDbEntity
  8
치수문자_일반주서
 62
     0
100
AcDbMText
 10
28.63090169785216
 20
28.47899453033847
 30
0.0
 40
3.5
 41
0.0
 71
     2
 72
     1
  1
\A1;38.10 [1 1/2]
  7
SLDTEXTSTYLE0
 73
     1
 44
1.0
  0
POINT
  5
294
330
28B
100
AcDbEntity
  8
Defpoints
 62
     0
100
AcDbPoint
 10
48.09999999999994
 20
6.477000000000544
 30
0.0
  0
POINT
  5
295
330
28B
100
AcDbEntity
  8
Defpoints
 62
     0
100
AcDbPoint
 10
9.999999999999932
 20
-9.154771394112913
 30
0.0
  0
POINT
  5
296
330
28B
100
AcDbEntity
  8
Defpoints
 62
     0
100
AcDbPoint
 10
9.999999999999932
 20
24.10399453033847
 30
0.0
  0
ENDBLK
  5
28D
330
28B
100
AcDbEntity
  8
0
100
AcDbBlockEnd
  0
BLOCK
  5
298
330
297
100
AcDbEntity
  8
0
100
AcDbBlockBegin
  2
*D11
 70
     1
 10
0.0
 20
0.0
 30
0.0
  3
*D11
  1
*D12
  0
LINE
  5
29A
330
297
100
AcDbEntity
  8
치수문자_일반주서
 62
     0
370
    -2
100
AcDbLine
 10
-53.06250000000006
 20
9.525000000000546
 30
0.0
 11
-66.50000000000011
 21
9.525000000000496
 31
0.0
  0
LINE
  5
29B
330
297
100
AcDbEntity
  8
치수문자_일반주서
 62
     0
370
    -2
100
AcDbLine
 10
-53.06250000000006
 20
-9.524999999999451
 30
0.0
 11
-66.50000000000004
 21
-9.524999999999501
 31
0.0
  0
LINE
  5
29C
330
297
100
AcDbEntity
  8
치수문자_일반주서
 62
     0
370
    -2
100
AcDbLine
 10
-66.5000000000001
 20
6.223000000000496
 30
0.0
 11
-66.50000000000006
 21
-6.222999999999502
 31
0.0
  0
SOLID
  5
29D
330
297
100
AcDbEntity
  8
치수문자_일반주서
 62
     0
100
AcDbTrace
 10
-65.94966666666677
 20
6.223000000000498
 30
0.0
 11
-67.05033333333343
 21
6.223000000000495
 31
0.0
 12
-66.50000000000011
 22
9.525000000000496
 32
0.0
 13
-66.50000000000011
 23
9.525000000000496
 33
0.0
  0
SOLID
  5
29E
330
297
100
AcDbEntity
  8
치수문자_일반주서
 62
     0
100
AcDbTrace
 10
-67.05033333333338
 20
-6.222999999999503
 30
0.0
 11
-65.94966666666673
 21
-6.2229999999995
 31
0.0
 12
-66.50000000000004
 22
-9.524999999999501
 32
0.0
 13
-66.50000000000004
 23
-9.524999999999501
 33
0.0
  0
MTEXT
  5
29F
330
297
100
AcDbEntity
  8
치수문자_일반주서
 62
     0
100
AcDbMText
 10
-70.87500000000009
 20
0.0000000000005237
 30
0.0
 40
3.5
 41
0.0
 71
     2
 72
     1
  1
\A1;%%c19.05 [3/4]
  7
SLDTEXTSTYLE0
 11
-3.729883127349608E-15
 21
1.0
 31
0.0
 73
     1
 44
1.0
  0
POINT
  5
2A0
330
297
100
AcDbEntity
  8
Defpoints
 62
     0
100
AcDbPoint
 10
-53.00000000000006
 20
9.525000000000546
 30
0.0
  0
POINT
  5
2A1
330
297
100
AcDbEntity
  8
Defpoints
 62
     0
100
AcDbPoint
 10
-53.00000000000006
 20
-9.524999999999451
 30
0.0
  0
POINT
  5
2A2
330
297
100
AcDbEntity
  8
Defpoints
 62
     0
100
AcDbPoint
 10
-66.50000000000004
 20
-9.524999999999501
 30
0.0
  0
ENDBLK
  5
299
330
297
100
AcDbEntity
  8
0
100
AcDbBlockEnd
  0
BLOCK
  5
2A8
330
2A7
100
AcDbEntity
  8
0
100
AcDbBlockBegin
  2
*D12
 70
     1
 10
0.0
 20
0.0
 30
0.0
  3
*D12
  1
*D13
  0
LINE
  5
2AA
330
2A7
100
AcDbEntity
  8
치수문자_일반주서
 62
     0
370
    -2
100
AcDbLine
 10
45.11449999999994
 20
9.525000000000546
 30
0.0
 11
61.59124840153789
 21
9.525000000000544
 31
0.0
  0
LINE
  5
2AB
330
2A7
100
AcDbEntity
  8
치수문자_일반주서
 62
     0
370
    -2
100
AcDbLine
 10
45.11449999999994
 20
-9.524999999999451
 30
0.0
 11
61.59124840153789
 21
-9.524999999999453
 31
0.0
  0
LINE
  5
2AC
330
2A7
100
AcDbEntity
  8
치수문자_일반주서
 62
     0
370
    -2
100
AcDbLine
 10
61.59124840153789
 20
6.223000000000544
 30
0.0
 11
61.59124840153789
 21
-6.222999999999454
 31
0.0
  0
SOLID
  5
2AD
330
2A7
100
AcDbEntity
  8
치수문자_일반주서
 62
     0
100
AcDbTrace
 10
62.14158173487122
 20
6.223000000000544
 30
0.0
 11
61.04091506820455
 21
6.223000000000544
 31
0.0
 12
61.59124840153789
 22
9.525000000000544
 32
0.0
 13
61.59124840153789
 23
9.525000000000544
 33
0.0
  0
SOLID
  5
2AE
330
2A7
100
AcDbEntity
  8
치수문자_일반주서
 62
     0
100
AcDbTrace
 10
61.04091506820455
 20
-6.222999999999454
 30
0.0
 11
62.14158173487122
 21
-6.222999999999454
 31
0.0
 12
61.59124840153789
 22
-9.524999999999453
 32
0.0
 13
61.59124840153789
 23
-9.524999999999453
 33
0.0
  0
MTEXT
  5
2AF
330
2A7
100
AcDbEntity
  8
치수문자_일반주서
 62
     0
100
AcDbMText
 10
58.96624840153789
 20
0.0000000000005471
 30
0.0
 40
3.5
 41
0.0
 71
     5
 72
     1
  1
\A1;{%%c19.05 [3/4]}
  7
SLDTEXTSTYLE0
 11
0.0
 21
1.0
 31
0.0
 73
     1
 44
1.0
  0
POINT
  5
2B0
330
2A7
100
AcDbEntity
  8
Defpoints
 62
     0
100
AcDbPoint
 10
45.05199999999994
 20
9.525000000000546
 30
0.0
  0
POINT
  5
2B1
330
2A7
100
AcDbEntity
  8
Defpoints
 62
     0
100
AcDbPoint
 10
45.05199999999994
 20
-9.524999999999451
 30
0.0
  0
POINT
  5
2B2
330
2A7
100
AcDbEntity
  8
Defpoints
 62
     0
100
AcDbPoint
 10
61.59124840153789
 20
-9.524999999999453
 30
0.0
  0
ENDBLK
  5
2A9
330
2A7
100
AcDbEntity
  8
0
100
AcDbBlockEnd
  0
BLOCK
  5
2BA
330
2B9
100
AcDbEntity
  8
0
100
AcDbBlockBegin
  2
*D13
 70
     1
 10
0.0
 20
0.0
 30
0.0
  3
*D13
  1
*D14
  0
LINE
  5
2BC
330
2B9
100
AcDbEntity
  8
치수문자_일반주서
 62
     0
370
    -2
100
AcDbLine
 10
49.43862906977427
 20
11.06829452379345
 30
0.0
 11
76.39873089875749
 21
39.2862646141338
 31
0.0
  0
MTEXT
  5
2BD
330
2B9
100
AcDbEntity
  8
치수문자_일반주서
 62
     0
100
AcDbMText
 10
64.0738756787791
 20
30.18627242352883
 30
0.0
 40
3.5
 41
0.0
 71
     5
 72
     1
  1
\A1;R3.05 [R0.120]
  7
SLDTEXTSTYLE0
 11
0.6908077275235178
 21
0.7230385076839222
 31
0.0
 73
     1
 44
1.0
  0
SOLID
  5
2BE
330
2B9
100
AcDbEntity
  8
치수문자_일반주서
 62
     0
100
AcDbTrace
 10
49.04071687771222
 20
11.44846904317389
 30
0.0
 11
49.83654126183632
 21
10.688120004413
 31
0.0
 12
47.15758195349161
 22
8.680821371421136
 32
0.0
 13
47.15758195349161
 23
8.680821371421136
 33
0.0
  0
LINE
  5
2BF
330
2B9
100
AcDbEntity
  8
치수문자_일반주서
 62
     0
100
AcDbLine
 10
44.96199999999993
 20
6.477000000000544
 30
0.0
 11
45.14199999999994
 21
6.477000000000544
 31
0.0
  0
LINE
  5
2C0
330
2B9
100
AcDbEntity
  8
치수문자_일반주서
 62
     0
100
AcDbLine
 10
45.05199999999994
 20
6.387000000000544
 30
0.0
 11
45.05199999999994
 21
6.567000000000544
 31
0.0
  0
POINT
  5
2C1
330
2B9
100
AcDbEntity
  8
Defpoints
 62
     0
100
AcDbPoint
 10
47.15758195349161
 20
8.680821371421136
 30
0.0
  0
POINT
  5
2C2
330
2B9
100
AcDbEntity
  8
Defpoints
 62
     0
100
AcDbPoint
 10
45.05199999999994
 20
6.477000000000544
 30
0.0
  0
ENDBLK
  5
2BB
330
2B9
100
AcDbEntity
  8
0
100
AcDbBlockEnd
  0
ENDSEC
  0
SECTION
  2
ENTITIES
  0
INSERT
  5
EE
330
1F
100
AcDbEntity
  8
0
  6
Continuous
 62
     7
100
AcDbBlockReference
 66
     1
  2
블럭10
 10
-10.24270877828551
 20
-52.04717430164393
 30
0.0
  0
ATTRIB
  5
EF
330
EE
100
AcDbEntity
  8
FORMAT
 62
     2
100
AcDbText
 10
-21.29372913046998
 20
-49.97180738881174
 30
0.0
 40
4.233333333333333
  1
GMG23944[ 6 FLUTE ]
 41
0.75
  7
SLDTEXTSTYLE0
 11
-21.29372913046998
 21
-52.08847405547841
 31
0.0
100
AcDbAttribute
  2
AUTOATTR0
 70
     0
 74
     1
  0
SEQEND
  5
F0
330
EE
100
AcDbEntity
  8
0
  6
Continuous
 62
     7
  0
HATCH
  5
F1
330
1F
100
AcDbEntity
  8
중심선
100
AcDbHatch
 10
0.0
 20
0.0
 30
0.0
210
0.0
220
0.0
230
1.0
  2
SOLID
 70
     1
 71
     0
 91
        1
 92
        0
 93
        4
 72
     1
 10
-4.527799473904665
 20
-35.8
 11
-7.974074717741947
 21
-35.8
 72
     1
 10
-7.974074717741947
 20
-35.8
 11
-10.10230457694597
 21
-38.33632558057259
 72
     1
 10
-10.10230457694597
 20
-38.33632558057259
 11
-6.655996247995538
 21
-38.3362861512701
 72
     1
 10
-6.655996247995538
 20
-38.3362861512701
 11
-4.527799473904665
 21
-35.8
 97
        0
 75
     0
 76
     1
 98
        1
 10
0.0
 20
0.0
  0
HATCH
  5
F2
330
1F
100
AcDbEntity
  8
중심선
100
AcDbHatch
 10
0.0
 20
0.0
 30
0.0
210
0.0
220
0.0
230
1.0
  2
SOLID
 70
     1
 71
     0
 91
        1
 92
        0
 93
        4
 72
     1
 10
0.4849645171312866
 20
-35.8
 11
-2.961310726705996
 21
-35.8
 72
     1
 10
-2.961310726705996
 20
-35.8
 11
-7.492448735063384
 21
-41.20000000000002
 72
     1
 10
-7.492448735063384
 20
-41.20000000000002
 11
-4.046173491226101
 21
-41.20000000000002
 72
     1
 10
-4.046173491226101
 20
-41.20000000000002
 11
0.4849645171312869
 21
-35.8
 97
        0
 75
     0
 76
     1
 98
        1
 10
0.0
 20
0.0
  0
HATCH
  5
F3
330
1F
100
AcDbEntity
  8
중심선
100
AcDbHatch
 10
0.0
 20
0.0
 30
0.0
210
0.0
220
0.0
230
1.0
  2
SOLID
 70
     1
 71
     0
 91
        1
 92
        0
 93
        4
 72
     1
 10
5.497728508167183
 20
-35.80000000000003
 11
2.051453264330067
 21
-35.8
 72
     1
 10
2.051453264330067
 20
-35.8
 11
-4.996983637559183
 21
-44.20000000000002
 72
     1
 10
-4.996983637559183
 20
-44.20000000000002
 11
-1.5507083937219
 21
-44.20000000000002
 72
     1
 10
-1.5507083937219
 20
-44.20000000000002
 11
5.497728508167183
 21
-35.80000000000003
 97
        0
 75
     0
 76
     1
 98
        1
 10
0.0
 20
0.0
  0
HATCH
  5
F4
330
1F
100
AcDbEntity
  8
중심선
100
AcDbHatch
 10
0.0
 20
0.0
 30
0.0
210
0.0
220
0.0
230
1.0
  2
SOLID
 70
     1
 71
     0
 91
        1
 92
        0
 93
        6
 72
     3
 10
10.29761893917938
 20
-40.00000000005127
 11
3.960054785062284
 21
1.540850780301639E-10
 40
0.3939339440162633
 50
17.09539180608433
 51
320.0019657685081
 73
     0
 72
     1
 10
11.98061859487998
 20
-38.5878940046383
 11
14.28592046858101
 21
-36.65356729459038
 72
     3
 10
10.29761893912653
 20
-40.00000000000015
 11
6.600054785286829
 21
-1.249000902703301E-13
 40
0.6363583540795982
 50
39.99873849337408
 51
368.4976242363724
 73
     1
 72
     1
 10
16.72295143102714
 20
-39.03999999993002
 11
8.977686245962458
 21
-39.03999999992999
 72
     1
 10
8.977686245962458
 20
-39.03999999992999
 11
8.977661201516524
 21
-40.95999999992991
 72
     1
 10
8.977661201516524
 20
-40.95999999992991
 11
13.41904097098856
 21
-40.95999999992988
 97
        0
 75
     0
 76
     1
 98
        1
 10
0.0
 20
0.0
  0
LINE
  5
235
330
1F
100
AcDbEntity
  8
0
  6
Continuous
 62
     4
370
    15
100
AcDbLine
 10
7.376829730202875
 20
9.525000000000546
 30
0.0
 11
-20.00692500000007
 21
9.525000000000546
 31
0.0
  0
LINE
  5
236
330
1F
100
AcDbEntity
  8
0
  6
Continuous
 62
     4
370
    15
100
AcDbLine
 10
-53.00000000000006
 20
-9.524999999999451
 30
0.0
 11
7.375874588230193
 21
-9.524999999999451
 31
0.0
  0
LINE
  5
237
330
1F
100
AcDbEntity
  8
0
  6
Continuous
 62
     4
370
    15
100
AcDbLine
 10
-53.00000000000006
 20
9.525000000000531
 30
0.0
 11
-53.50000000000006
 21
9.025000000000531
 31
0.0
  0
LINE
  5
238
330
1F
100
AcDbEntity
  8
0
  6
Continuous
 62
     4
370
    15
100
AcDbLine
 10
-53.50000000000006
 20
-9.024999999999451
 30
0.0
 11
-53.00000000000006
 21
-9.524999999999451
 31
0.0
  0
ARC
  5
239
330
1F
100
AcDbEntity
  8
0
  6
Continuous
 62
     1
370
    15
100
AcDbCircle
 10
45.05199999999994
 20
-6.476999999999464
 30
0.0
 40
3.047999999999997
100
AcDbArc
 50
270.0000000000007
 51
0.0
  0
ARC
  5
23A
330
1F
100
AcDbEntity
  8
0
  6
Continuous
 62
     1
370
    15
100
AcDbCircle
 10
45.05199999999994
 20
6.477000000000544
 30
0.0
 40
3.047999999999999
100
AcDbArc
 50
0.0
 51
90.0
  0
LINE
  5
23B
330
1F
100
AcDbEntity
  8
0
  6
Continuous
 62
     1
370
    15
100
AcDbLine
 10
24.02883832822801
 20
-9.524999999999451
 30
0.0
 11
27.28549594174942
 21
-9.524999999999451
 31
0.0
  0
LINE
  5
23C
330
1F
100
AcDbEntity
  8
0
  6
Continuous
 62
     1
370
    15
100
AcDbLine
 10
27.28549594174949
 20
9.525000000000546
 30
0.0
 11
24.02883832822807
 21
9.525000000000546
 31
0.0
  0
LINE
  5
23D
330
1F
100
AcDbEntity
  8
0
  6
Continuous
 62
     1
370
    15
100
AcDbLine
 10
34.00328129620044
 20
-9.524999999999451
 30
0.0
 11
37.2597486279042
 21
-9.524999999999451
 31
0.0
  0
LINE
  5
23E
330
1F
100
AcDbEntity
  8
0
  6
Continuous
 62
     1
370
    15
100
AcDbLine
 10
43.97836718659562
 20
-9.524999999999451
 30
0.0
 11
45.05199999999994
 21
-9.524999999999451
 31
0.0
  0
LINE
  5
23F
330
1F
100
AcDbEntity
  8
0
  6
Continuous
 62
     1
370
    15
100
AcDbLine
 10
17.31108664119825
 20
9.525000000000546
 30
0.0
 11
14.05398266210328
 21
9.525000000000546
 31
0.0
  0
LINE
  5
240
330
1F
100
AcDbEntity
  8
0
  6
Continuous
 62
     1
370
    15
100
AcDbLine
 10
37.25974862790423
 20
9.525000000000546
 30
0.0
 11
34.00328129620053
 21
9.525000000000546
 31
0.0
  0
LINE
  5
241
330
1F
100
AcDbEntity
  8
0
  6
Continuous
 62
     1
370
    15
100
AcDbLine
 10
14.0539826621033
 20
-9.524999999999451
 30
0.0
 11
17.31108664119818
 21
-9.524999999999451
 31
0.0
  0
LINE
  5
242
330
1F
100
AcDbEntity
  8
0
  6
Continuous
 62
     1
370
    15
100
AcDbLine
 10
45.05199999999994
 20
9.525000000000546
 30
0.0
 11
43.97836718659563
 21
9.525000000000546
 31
0.0
  0
SPLINE
  5
243
330
1F
100
AcDbEntity
  8
0
  6
Continuous
 62
     4
370
    15
100
AcDbSpline
210
0.0
220
0.0
230
1.0
 70
     8
 71
     3
 72
    24
 73
    20
 74
     0
 42
0.000000001
 43
0.00000001
 40
0.0
 40
0.0
 40
0.0
 40
0.0
 40
0.1250000000000001
 40
0.1250000000000001
 40
0.2500000000000001
 40
0.2500000000000001
 40
0.3750000000000002
 40
0.3750000000000002
 40
0.5000000000000003
 40
0.5000000000000003
 40
0.6250000000000006
 40
0.6250000000000006
 40
0.6875000000000004
 40
0.6875000000000004
 40
0.7500000000000003
 40
0.7500000000000003
 40
0.8750000000000001
 40
0.8750000000000001
 40
1.0
 40
1.0
 40
1.0
 40
1.0
 10
6.950423721520568
 20
-9.34772179686874
 30
0.0
 10
6.950423721520568
 20
-9.308572677276672
 30
0.0
 10
6.950809584619169
 20
-9.263058802312017
 30
0.0
 10
6.984163665836522
 20
-9.1603070990854
 30
0.0
 10
7.016859576483743
 20
-9.10253294517122
 30
0.0
 10
7.133316919319828
 20
-8.978792224673185
 30
0.0
 10
7.215132590053191
 20
-8.914376754242312
 30
0.0
 10
7.438071507591022
 20
-8.786088125801854
 30
0.0
 10
7.572982397539096
 20
-8.725748963467566
 30
0.0
 10
7.892783867938309
 20
-8.619763105368534
 30
0.0
 10
8.072947543312882
 20
-8.576108859681213
 30
0.0
 10
8.362948613049827
 20
-8.531431904042407
 30
0.0
 10
8.463474933692485
 20
-8.519975557523196
 30
0.0
 10
8.66451764990828
 20
-8.505072305168838
 30
0.0
 10
8.766001830867967
 20
-8.501452258812392
 30
0.0
 10
9.073392997808671
 20
-8.502463451820404
 30
0.0
 10
9.27659101845892
 20
-8.519188545788467
 30
0.0
 10
9.661847017237395
 20
-8.581227603968387
 30
0.0
 10
9.840962179692045
 20
-8.625978550135187
 30
0.0
 10
9.99999999999979
 20
-8.680160649821943
 30
0.0
  0
SPLINE
  5
244
330
1F
100
AcDbEntity
  8
0
  6
Continuous
 62
     4
370
    15
100
AcDbSpline
210
0.0
220
0.0
230
1.0
 70
     8
 71
     3
 72
    14
 73
    10
 74
     0
 42
0.000000001
 43
0.00000001
 40
0.0
 40
0.0
 40
0.0
 40
0.0
 40
0.2500000000000001
 40
0.2500000000000001
 40
0.5000000000000001
 40
0.5000000000000001
 40
0.75
 40
0.75
 40
1.0
 40
1.0
 40
1.0
 40
1.0
 10
7.580379435335932
 20
-9.521867945924797
 30
0.0
 10
7.447221697116934
 20
-9.5252933061671
 30
0.0
 10
7.337716399378682
 20
-9.526336637772616
 30
0.0
 10
7.160167351948406
 20
-9.51931469376187
 30
0.0
 10
7.093977469064573
 20
-9.511125754144672
 30
0.0
 10
7.002544779804484
 20
-9.48360272998245
 30
0.0
 10
6.976588367477408
 20
-9.464080190366374
 30
0.0
 10
6.950556713839791
 20
-9.414153845691828
 30
0.0
 10
6.950423721520568
 20
-9.383676489774075
 30
0.0
 10
6.950423721520568
 20
-9.34772179686864
 30
0.0
  0
SPLINE
  5
245
330
1F
100
AcDbEntity
  8
0
  6
Continuous
 62
     4
370
    15
100
AcDbSpline
210
0.0
220
0.0
230
1.0
 70
     8
 71
     3
 72
    10
 73
     6
 74
     0
 42
0.000000001
 43
0.00000001
 40
0.0
 40
0.0
 40
0.0
 40
0.0
 40
0.5
 40
0.5
 40
1.0
 40
1.0
 40
1.0
 40
1.0
 10
10.00000000000006
 20
-9.154771394112885
 30
0.0
 10
9.596942748233179
 20
-9.266115343084195
 30
0.0
 10
9.196260669759884
 20
-9.352675355781756
 30
0.0
 10
8.387286858816783
 20
-9.475538168265885
 30
0.0
 10
7.981861724165856
 20
-9.511540183614201
 30
0.0
 10
7.580379435335917
 20
-9.521867945924825
 30
0.0
  0
LINE
  5
246
330
1F
100
AcDbEntity
  8
0
  6
Continuous
 62
     4
370
    15
100
AcDbLine
 10
7.580379435335917
 20
9.521867945925905
 30
0.0
 11
7.376829730202875
 21
9.524829884645456
 31
0.0
  0
SPLINE
  5
247
330
1F
100
AcDbEntity
  8
0
  6
Continuous
 62
     4
370
    15
100
AcDbSpline
210
0.0
220
0.0
230
1.0
 70
     8
 71
     3
 72
    10
 73
     6
 74
     0
 42
0.000000001
 43
0.00000001
 40
0.0
 40
0.0
 40
0.0
 40
0.0
 40
0.5
 40
0.5
 40
1.0
 40
1.0
 40
1.0
 40
1.0
 10
10.00000000000006
 20
9.154771394113979
 30
0.0
 10
9.596942748233179
 20
9.266115343085275
 30
0.0
 10
9.196260669759884
 20
9.35267535578285
 30
0.0
 10
8.387286858816783
 20
9.475538168266965
 30
0.0
 10
7.981861724165856
 20
9.511540183615296
 30
0.0
 10
7.580379435335917
 20
9.521867945925905
 30
0.0
  0
LINE
  5
248
330
1F
100
AcDbEntity
  8
0
  6
Continuous
 62
     1
370
    15
100
AcDbLine
 10
9.999999999999932
 20
9.154771394114007
 30
0.0
 11
9.999999999999932
 21
7.736450014735908
 31
0.0
  0
SPLINE
  5
249
330
1F
100
AcDbEntity
  8
0
  6
Continuous
 62
     4
370
    15
100
AcDbSpline
210
0.0
220
0.0
230
1.0
 70
     8
 71
     3
 72
    24
 73
    20
 74
     0
 42
0.000000001
 43
0.00000001
 40
0.0
 40
0.0
 40
0.0
 40
0.0
 40
0.1250000000000001
 40
0.1250000000000001
 40
0.2500000000000001
 40
0.2500000000000001
 40
0.3750000000000002
 40
0.3750000000000002
 40
0.5000000000000002
 40
0.5000000000000002
 40
0.6250000000000002
 40
0.6250000000000002
 40
0.6875000000000002
 40
0.6875000000000002
 40
0.7500000000000001
 40
0.7500000000000001
 40
0.875
 40
0.875
 40
1.0
 40
1.0
 40
1.0
 40
1.0
 10
6.950423721520568
 20
6.257935283131971
 30
0.0
 10
6.950423721520568
 20
6.411626771670413
 30
0.0
 10
6.950809584619154
 20
6.560679138253406
 30
0.0
 10
6.984163665836522
 20
6.84761752440437
 30
0.0
 10
7.016859576483743
 20
6.986652657910582
 30
0.0
 10
7.133316919319828
 20
7.247865438743744
 30
0.0
 10
7.215132590053205
 20
7.3670361197521
 30
0.0
 10
7.438071507591022
 20
7.582133299181322
 30
0.0
 10
7.572982397539111
 20
7.672333425652781
 30
0.0
 10
7.892783867938309
 20
7.821477021566309
 30
0.0
 10
8.072947543312896
 20
7.877678289616796
 30
0.0
 10
8.362948613049827
 20
7.933968161335898
 30
0.0
 10
8.463474933692485
 20
7.948068310782517
 30
0.0
 10
8.66451764990828
 20
7.966325921695443
 30
0.0
 10
8.766001830867967
 20
7.970699420636421
 30
0.0
 10
9.073392997808671
 20
7.969471479382975
 30
0.0
 10
9.27659101845892
 20
7.949513589275043
 30
0.0
 10
9.661847017237395
 20
7.871093417494976
 30
0.0
 10
9.840962179692045
 20
7.813214560552638
 30
0.0
 10
9.99999999999979
 20
7.736450014735695
 30
0.0
  0
SPLINE
  5
24A
330
1F
100
AcDbEntity
  8
0
  6
Continuous
 62
     4
370
    15
100
AcDbSpline
210
0.0
220
0.0
230
1.0
 70
     8
 71
     3
 72
    14
 73
    10
 74
     0
 42
0.000000001
 43
0.00000001
 40
0.0
 40
0.0
 40
0.0
 40
0.0
 40
0.25
 40
0.25
 40
0.5
 40
0.5
 40
0.75
 40
0.75
 40
1.0
 40
1.0
 40
1.0
 40
1.0
 10
7.580379435335932
 20
4.549411243051352
 30
0.0
 10
7.447221697116934
 20
4.666770458800087
 30
0.0
 10
7.337716399378682
 20
4.797135116171901
 30
0.0
 10
7.160167351948406
 20
5.078180291567762
 30
0.0
 10
7.093977469064573
 20
5.227364127827045
 30
0.0
 10
7.00254477980447
 20
5.525823493812737
 30
0.0
 10
6.976588367477408
 20
5.677367007191847
 30
0.0
 10
6.950556713839791
 20
5.972199005914078
 30
0.0
 10
6.950423721520568
 20
6.11678446466756
 30
0.0
 10
6.950423721520568
 20
6.2579352831319
 30
0.0
  0
SPLINE
  5
24B
330
1F
100
AcDbEntity
  8
0
  6
Continuous
 62
     4
370
    15
100
AcDbSpline
210
0.0
220
0.0
230
1.0
 70
     8
 71
     3
 72
    10
 73
     6
 74
     0
 42
0.000000001
 43
0.00000001
 40
0.0
 40
0.0
 40
0.0
 40
0.0
 40
0.5
 40
0.5
 40
1.0
 40
1.0
 40
1.0
 40
1.0
 10
10.00000000000006
 20
2.299922351327567
 30
0.0
 10
9.596942748233179
 20
2.691273185649138
 30
0.0
 10
9.196260669759884
 20
3.075686857860006
 30
0.0
 10
8.387286858816783
 20
3.828309026211556
 30
0.0
 10
7.981861724165856
 20
4.195562888578692
 30
0.0
 10
7.580379435335917
 20
4.549411243051352
 30
0.0
  0
LINE
  5
24C
330
1F
100
AcDbEntity
  8
0
  6
Continuous
 62
     1
370
    15
100
AcDbLine
 10
9.999999999999932
 20
2.29992235132768
 30
0.0
 11
9.999999999999932
 21
-0.9437106350864894
 31
0.0
  0
SPLINE
  5
24D
330
1F
100
AcDbEntity
  8
0
  6
Continuous
 62
     4
370
    15
100
AcDbSpline
210
0.0
220
0.0
230
1.0
 70
     8
 71
     3
 72
    24
 73
    20
 74
     0
 42
0.000000001
 43
0.00000001
 40
0.0
 40
0.0
 40
0.0
 40
0.0
 40
0.1249999999999998
 40
0.1249999999999998
 40
0.2499999999999997
 40
0.2499999999999997
 40
0.3749999999999997
 40
0.3749999999999997
 40
0.4999999999999998
 40
0.4999999999999998
 40
0.6249999999999998
 40
0.6249999999999998
 40
0.6874999999999999
 40
0.6874999999999999
 40
0.7499999999999999
 40
0.7499999999999999
 40
0.8749999999999999
 40
0.8749999999999999
 40
1.0
 40
1.0
 40
1.0
 40
1.0
 10
6.950423721520568
 20
-3.089786513737366
 30
0.0
 10
6.950423721520568
 20
-2.896945905606842
 30
0.0
 10
6.950809584619154
 20
-2.702379664059194
 30
0.0
 10
6.984163665836522
 20
-2.312689574681627
 30
0.0
 10
7.016859576483743
 20
-2.11588028726122
 30
0.0
 10
7.133316919319842
 20
-1.730926785930038
 30
0.0
 10
7.215132590053191
 20
-1.547340634490808
 30
0.0
 10
7.438071507591022
 20
-1.203954826621128
 30
0.0
 10
7.572982397539111
 20
-1.053415537815397
 30
0.0
 10
7.892783867938309
 20
-0.7982860838028358
 30
0.0
 10
8.072947543312896
 20
-0.6984305700650282
 30
0.0
 10
8.362948613049827
 20
-0.5974637427071201
 30
0.0
 10
8.463474933692485
 20
-0.57190724674129
 30
0.0
 10
8.66451764990828
 20
-0.5387463834740203
 30
0.0
 10
8.766001830867967
 20
-0.5307528381765678
 30
0.0
 10
9.073392997808671
 20
-0.5329919724380403
 30
0.0
 10
9.27659101845892
 20
-0.5696749565140493
 30
0.0
 10
9.661847017237395
 20
-0.7101341864740078
 30
0.0
 10
9.840962179692045
 20
-0.8127639895831464
 30
0.0
 10
9.99999999999979
 20
-0.9437106350868447
 30
0.0
  0
SPLINE
  5
24E
330
1F
100
AcDbEntity
  8
0
  6
Continuous
 62
     4
370
    15
100
AcDbSpline
210
0.0
220
0.0
230
1.0
 70
     8
 71
     3
 72
    14
 73
    10
 74
     0
 42
0.000000001
 43
0.00000001
 40
0.0
 40
0.0
 40
0.0
 40
0.0
 40
0.25
 40
0.25
 40
0.5
 40
0.5
 40
0.75
 40
0.75
 40
1.0
 40
1.0
 40
1.0
 40
1.0
 10
7.580379435335932
 20
-4.972456702874013
 30
0.0
 10
7.447221697116934
 20
-4.858522847367567
 30
0.0
 10
7.337716399378682
 20
-4.729201521601283
 30
0.0
 10
7.160167351948406
 20
-4.441134402194677
 30
0.0
 10
7.093977469064573
 20
-4.28376162631821
 30
0.0
 10
7.002544779804484
 20
-3.957779236170296
 30
0.0
 10
6.976588367477408
 20
-3.78671318317511
 30
0.0
 10
6.950556713839791
 20
-3.441954839778333
 30
0.0
 10
6.950423721520568
 20
-3.266892025107097
 30
0.0
 10
6.950423721520568
 20
-3.089786513737323
 30
0.0
  0
SPLINE
  5
24F
330
1F
100
AcDbEntity
  8
0
  6
Continuous
 62
     4
370
    15
100
AcDbSpline
210
0.0
220
0.0
230
1.0
 70
     8
 71
     3
 72
    10
 73
     6
 74
     0
 42
0.000000001
 43
0.00000001
 40
0.0
 40
0.0
 40
0.0
 40
0.0
 40
0.5
 40
0.5
 40
1.0
 40
1.0
 40
1.0
 40
1.0
 10
10.00000000000006
 20
-6.854849042785858
 30
0.0
 10
9.596942748233179
 20
-6.574842157435583
 30
0.0
 10
9.196260669759884
 20
-6.276988497922304
 30
0.0
 10
8.387286858816783
 20
-5.647229142054883
 30
0.0
 10
7.981861724165856
 20
-5.315977295036078
 30
0.0
 10
7.580379435335917
 20
-4.972456702874027
 30
0.0
  0
LINE
  5
250
330
1F
100
AcDbEntity
  8
0
  6
Continuous
 62
     4
370
    15
100
AcDbLine
 10
9.999999999999932
 20
-6.854849042785759
 30
0.0
 11
9.999999999999932
 21
-8.6801606498218
 31
0.0
  0
LINE
  5
251
330
1F
100
AcDbEntity
  8
0
  6
Continuous
 62
     4
370
    15
100
AcDbLine
 10
-53.00000000000006
 20
9.525000000000531
 30
0.0
 11
-53.00000000000006
 21
-9.524999999999466
 31
0.0
  0
SPLINE
  5
253
330
1F
100
AcDbEntity
  8
0
  6
Continuous
 62
     1
370
    15
100
AcDbSpline
210
0.0
220
0.0
230
1.0
 70
    24
 71
     3
 72
     8
 73
     4
 74
     0
 42
0.000000001
 43
0.00000001
 40
0.0
 40
0.0
 40
0.0
 40
0.0
 40
1.0
 40
1.0
 40
1.0
 40
1.0
 10
9.999999999999932
 20
-0.9437106350865037
 30
0.0
 10
9.999999999999932
 20
-1.019113301828952
 30
0.0
 10
9.999999999999932
 20
-1.111580720086849
 30
0.0
 10
9.999999999999932
 20
-1.22328028738238
 30
0.0
  0
LINE
  5
254
330
1F
100
AcDbEntity
  8
0
  6
Continuous
 62
     4
370
    15
100
AcDbLine
 10
-53.50000000000006
 20
9.025000000000531
 30
0.0
 11
-53.50000000000006
 21
-9.024999999999437
 31
0.0
  0
SPLINE
  5
255
330
1F
100
AcDbEntity
  8
0
  6
Continuous
 62
     4
370
    15
100
AcDbSpline
210
0.0
220
0.0
230
1.0
 70
     8
 71
     3
 72
     9
 73
     5
 74
     0
 42
0.000000001
 43
0.00000001
 40
0.0
 40
0.0
 40
0.0
 40
0.0
 40
0.1757995613424754
 40
1.0
 40
1.0
 40
1.0
 40
1.0
 10
7.720819227689365
 20
4.468087041500866
 30
0.0
 10
7.712509876259634
 20
4.46843204920782
 30
0.0
 10
7.665243822998324
 20
4.470394555281899
 30
0.0
 10
7.637513016947157
 20
4.500859950790485
 30
0.0
 10
7.614657274435462
 20
4.525969543132518
 30
0.0
  0
SPLINE
  5
256
330
1F
100
AcDbEntity
  8
0
  6
Continuous
 62
     1
370
    15
100
AcDbSpline
210
0.0
220
0.0
230
1.0
 70
    24
 71
     3
 72
    16
 73
    12
 74
     0
 42
0.000000001
 43
0.00000001
 40
0.0
 40
0.0
 40
0.0
 40
0.0
 40
0.25
 40
0.25
 40
0.5
 40
0.5
 40
0.75
 40
0.75
 40
0.875
 40
0.875
 40
1.0
 40
1.0
 40
1.0
 40
1.0
 10
9.999999999999932
 20
7.04923885599716
 30
0.0
 10
9.999999999999932
 20
6.663411021681767
 30
0.0
 10
9.999999999999932
 20
6.235290071823712
 30
0.0
 10
9.999999999999932
 20
5.3234996430145
 30
0.0
 10
9.999999999999932
 20
4.839169833909523
 30
0.0
 10
9.999999999999932
 20
3.901248529622961
 30
0.0
 10
9.999999999999932
 20
3.449216208174164
 30
0.0
 10
9.999999999999932
 20
2.899277509626714
 30
0.0
 10
9.999999999999932
 20
2.737568045084174
 30
0.0
 10
9.999999999999932
 20
2.472531101817168
 30
0.0
 10
9.999999999999932
 20
2.369315230232232
 30
0.0
 10
9.999999999999932
 20
2.29992235132768
 30
0.0
  0
SPLINE
  5
257
330
1F
100
AcDbEntity
  8
0
  6
Continuous
 62
     1
370
    15
100
AcDbSpline
210
0.0
220
0.0
230
1.0
 70
    24
 71
     3
 72
    16
 73
    12
 74
     0
 42
0.000000001
 43
0.00000001
 40
0.0
 40
0.0
 40
0.0
 40
0.0
 40
0.2499999999999999
 40
0.2499999999999999
 40
0.5
 40
0.5
 40
0.7500000000000002
 40
0.7500000000000002
 40
0.8750000000000001
 40
0.8750000000000001
 40
1.0
 40
1.0
 40
1.0
 40
1.0
 10
9.999999999999932
 20
-1.223280287381897
 30
0.0
 10
9.999999999999932
 20
-1.409656458051742
 30
0.0
 10
9.999999999999932
 20
-1.656665622888298
 30
0.0
 10
9.999999999999932
 20
-2.313898907491264
 30
0.0
 10
9.999999999999932
 20
-2.725848431873843
 30
0.0
 10
9.999999999999932
 20
-3.719996711932851
 30
0.0
 10
9.999999999999932
 20
-4.303474908791003
 30
0.0
 10
9.999999999999932
 20
-5.244231673444247
 30
0.0
 10
9.999999999999932
 20
-5.567862197392841
 30
0.0
 10
9.999999999999932
 20
-6.216099375235785
 30
0.0
 10
9.999999999999932
 20
-6.540569285908077
 30
0.0
 10
9.999999999999932
 20
-6.854849042785759
 30
0.0
  0
SPLINE
  5
258
330
1F
100
AcDbEntity
  8
0
  6
Continuous
 62
     1
370
    15
100
AcDbSpline
210
0.0
220
0.0
230
1.0
 70
    24
 71
     3
 72
     8
 73
     4
 74
     0
 42
0.000000001
 43
0.00000001
 40
0.0
 40
0.0
 40
0.0
 40
0.0
 40
1.0
 40
1.0
 40
1.0
 40
1.0
 10
9.999999999999932
 20
7.736450014736008
 30
0.0
 10
9.999999999999932
 20
7.509460312018575
 30
0.0
 10
9.999999999999932
 20
7.280474437178853
 30
0.0
 10
9.999999999999932
 20
7.049238855996222
 30
0.0
  0
SPLINE
  5
259
330
1F
100
AcDbEntity
  8
0
  6
Continuous
 62
     4
370
    15
100
AcDbSpline
210
0.0
220
0.0
230
1.0
 70
    24
 71
     3
 72
     9
 73
     5
 74
     0
 42
0.000000001
 43
0.00000001
 40
0.0
 40
0.0
 40
0.0
 40
0.0
 40
0.0758058846911148
 40
1.0
 40
1.0
 40
1.0
 40
1.0
 10
9.999999999999932
 20
-8.747208710226843
 30
0.0
 10
9.999999999999932
 20
-8.755968363473315
 30
0.0
 10
9.999999999999932
 20
-8.871522100259924
 30
0.0
 10
9.999999999999932
 20
-9.0187262163101
 30
0.0
 10
9.999999999999932
 20
-9.154771394112913
 30
0.0
  0
SPLINE
  5
25A
330
1F
100
AcDbEntity
  8
0
  6
Continuous
 62
     1
370
    15
100
AcDbSpline
210
0.0
220
0.0
230
1.0
 70
     8
 71
     3
 72
    42
 73
    38
 74
     0
 42
0.000000001
 43
0.00000001
 40
0.0
 40
0.0
 40
0.0
 40
0.0
 40
0.1249999999999997
 40
0.1249999999999997
 40
0.1874999999999996
 40
0.1874999999999996
 40
0.2499999999999996
 40
0.2499999999999996
 40
0.3124999999999994
 40
0.3124999999999994
 40
0.3749999999999994
 40
0.3749999999999994
 40
0.4374999999999993
 40
0.4374999999999993
 40
0.4999999999999992
 40
0.4999999999999992
 40
0.5624999999999991
 40
0.5624999999999991
 40
0.6249999999999989
 40
0.6249999999999989
 40
0.656249999999999
 40
0.656249999999999
 40
0.687499999999999
 40
0.687499999999999
 40
0.7187499999999991
 40
0.7187499999999991
 40
0.7499999999999991
 40
0.7499999999999991
 40
0.7812499999999991
 40
0.7812499999999991
 40
0.8124999999999992
 40
0.8124999999999992
 40
0.8749999999999994
 40
0.8749999999999994
 40
0.9374999999999998
 40
0.9374999999999998
 40
1.0
 40
1.0
 40
1.0
 40
1.0
 10
45.05199999999992
 20
-5.660096397157034
 30
0.0
 10
45.40598697144202
 20
-5.944246883291115
 30
0.0
 10
45.7362274158439
 20
-6.185141140463955
 30
0.0
 10
46.20838404803244
 20
-6.479882153205125
 30
0.0
 10
46.35957379422132
 20
-6.565158523794096
 30
0.0
 10
46.64483033241321
 20
-6.709723518739978
 30
0.0
 10
46.77963050007595
 20
-6.769427651055082
 30
0.0
 10
47.03144925148965
 20
-6.867190136705744
 30
0.0
 10
47.1478676680558
 20
-6.904904684086844
 30
0.0
 10
47.35449960278041
 20
-6.963715220631045
 30
0.0
 10
47.44552557332062
 20
-6.985118194887662
 30
0.0
 10
47.60169479968873
 20
-7.022812395932206
 30
0.0
 10
47.66698530898469
 20
-7.039231067990556
 30
0.0
 10
47.76985717559901
 20
-7.080444193443284
 30
0.0
 10
47.80782217144932
 20
-7.105353085820852
 30
0.0
 10
47.86006742986703
 20
-7.177880295016593
 30
0.0
 10
47.87461894700621
 20
-7.225360229445741
 30
0.0
 10
47.87973995266665
 20
-7.357486232461014
 30
0.0
 10
47.87037484896037
 20
-7.443038341659317
 30
0.0
 10
47.82866792610052
 20
-7.606651759028338
 30
0.0
 10
47.81008562406993
 20
-7.667236117852539
 30
0.0
 10
47.7583962308355
 20
-7.804597706505703
 30
0.0
 10
47.72528947796131
 20
-7.881146850816521
 30
0.0
 10
47.63939408913799
 20
-8.048078106717625
 30
0.0
 10
47.58584462482504
 20
-8.139519866654851
 30
0.0
 10
47.45713276240802
 20
-8.326998192756761
 30
0.0
 10
47.37983680646613
 20
-8.425538931482407
 30
0.0
 10
47.21168772741561
 20
-8.61036629503522
 30
0.0
 10
47.11882006526631
 20
-8.699006922983358
 30
0.0
 10
46.93046980257793
 20
-8.855401580411367
 30
0.0
 10
46.83232007726187
 20
-8.925617765845672
 30
0.0
 10
46.54152058859633
 20
-9.10576361470811
 30
0.0
 10
46.34579797520482
 20
-9.190344675184363
 30
0.0
 10
45.96629400483354
 20
-9.300793148152039
 30
0.0
 10
45.77988293657225
 20
-9.327931681763246
 30
0.0
 10
45.41035629702004
 20
-9.335766416414273
 30
0.0
 10
45.23009446031907
 20
-9.316318482864446
 30
0.0
 10
45.05199999999994
 20
-9.275937452964769
 30
0.0
  0
SPLINE
  5
25B
330
1F
100
AcDbEntity
  8
0
  6
Continuous
 62
     1
370
    15
100
AcDbSpline
210
0.0
220
0.0
230
1.0
 70
     8
 71
     3
 72
    26
 73
    22
 74
     0
 42
0.000000001
 43
0.00000001
 40
0.0
 40
0.0
 40
0.0
 40
0.0
 40
0.052180202784974
 40
0.1044274645289416
 40
0.1565819999622364
 40
0.2087533737076454
 40
0.2610041520697883
 40
0.313951916698078
 40
0.3668993875482541
 40
0.41993507571441
 40
0.472897209561638
 40
0.5258352123309218
 40
0.5788602497775364
 40
0.6318415241240997
 40
0.6847748500158691
 40
0.7377787313805041
 40
0.7907838970972191
 40
0.8437173411789421
 40
0.896697560519129
 40
0.9497233693283138
 40
1.0
 40
1.0
 40
1.0
 40
1.0
 10
45.05199999999994
 20
-9.275937452964769
 30
0.0
 10
44.56966619069163
 20
-9.14559314946466
 30
0.0
 10
43.60437870474195
 20
-8.884737031553428
 30
0.0
 10
42.15496228164679
 20
-8.232223815379015
 30
0.0
 10
40.70817966959711
 20
-7.404120988649169
 30
0.0
 10
39.26090501741757
 20
-6.401146642881855
 30
0.0
 10
37.80416959697553
 20
-5.247565467548384
 30
0.0
 10
36.34261828056633
 20
-3.962768063084837
 30
0.0
 10
34.87380054044793
 20
-2.577401770055715
 30
0.0
 10
33.40252642531169
 20
-1.132903729112357
 30
0.0
 10
31.93330652141237
 20
0.340333111244064
 30
0.0
 10
30.46475948794184
 20
1.805947765007446
 30
0.0
 10
28.99378364346248
 20
3.226637523470117
 30
0.0
 10
27.52403907644686
 20
4.571815906072899
 30
0.0
 10
26.05562856755978
 20
5.809067843948029
 30
0.0
 10
24.5852522171939
 20
6.907142436358342
 30
0.0
 10
23.11483887868444
 20
7.84089740247849
 30
0.0
 10
21.64642607414673
 20
8.590504003981962
 30
0.0
 10
20.17670537461892
 20
9.130481872202651
 30
0.0
 10
18.73035983572965
 20
9.466065755315526
 30
0.0
 10
17.7757090285639
 20
9.502074055521476
 30
0.0
 10
17.31108664119825
 20
9.519599062865595
 30
0.0
  0
SPLINE
  5
25C
330
1F
100
AcDbEntity
  8
0
  6
Continuous
 62
     1
370
    15
100
AcDbSpline
210
0.0
220
0.0
230
1.0
 70
     8
 71
     3
 72
    24
 73
    20
 74
     0
 42
0.000000001
 43
0.00000001
 40
0.0
 40
0.0
 40
0.0
 40
0.0
 40
0.0400213197045503
 40
0.1002488097808603
 40
0.1605579044860523
 40
0.2208655378598783
 40
0.2810928934600671
 40
0.3413748046467167
 40
0.4017065093376386
 40
0.4619391862729298
 40
0.5221993194654629
 40
0.582543142508338
 40
0.6427865921934072
 40
0.7030303761382005
 40
0.7624811315137044
 40
0.8218415405902038
 40
0.8811827910932651
 40
0.9406295452727402
 40
1.0
 40
1.0
 40
1.0
 40
1.0
 10
20.67088370522756
 20
8.91511857857661
 30
0.0
 10
20.99618967073804
 20
9.02782546307894
 30
0.0
 10
21.8110437559553
 20
9.310143265412265
 30
0.0
 10
23.11481021604739
 20
9.513800862583835
 30
0.0
 10
24.5852599018353
 20
9.547935527946962
 30
0.0
 10
26.05562651160409
 20
9.347121103877
 30
0.0
 10
27.52403962757058
 20
8.926056527906908
 30
0.0
 10
28.99378349558907
 20
8.292455941870998
 30
0.0
 10
30.46475952750507
 20
7.462752488168832
 30
0.0
 10
31.93330651081385
 20
6.454441716003615
 30
0.0
 10
33.40252642815665
 20
5.292928446846645
 30
0.0
 10
34.87380053968657
 20
4.007312140807599
 30
0.0
 10
36.34261828077028
 20
2.624586900530204
 30
0.0
 10
37.80416959692167
 20
1.186463143695406
 30
0.0
 10
39.2609050174319
 20
-0.2695453855288434
 30
0.0
 10
40.70817966959329
 20
-1.714800671232794
 30
0.0
 10
42.15496228164781
 20
-3.118344777579551
 30
0.0
 10
43.60437870474168
 20
-4.457094735449104
 30
0.0
 10
44.56966619069154
 20
-5.259267550554313
 30
0.0
 10
45.05199999999994
 20
-5.660096397157034
 30
0.0
  0
SPLINE
  5
25D
330
1F
100
AcDbEntity
  8
0
  6
Continuous
 62
     1
370
    15
100
AcDbSpline
210
0.0
220
0.0
230
1.0
 70
     8
 71
     3
 72
    22
 73
    18
 74
     0
 42
0.000000001
 43
0.00000001
 40
0.0
 40
0.0
 40
0.0
 40
0.0
 40
0.0087470183187661
 40
0.0799973366457092
 40
0.1511888500201286
 40
0.2223159345354306
 40
0.2935378252053992
 40
0.3647614416731975
 40
0.4358886850016227
 40
0.5070787807525234
 40
0.5783301355677245
 40
0.6494639807622444
 40
0.7195390726192177
 40
0.7897116681765952
 40
0.8597599286708726
 40
0.9298241787179045
 40
1.0
 40
1.0
 40
1.0
 40
1.0
 10
30.64570257171778
 20
-8.92739494307935
 30
0.0
 10
30.58553470659848
 20
-8.951846814893685
 30
0.0
 10
30.0352593115104
 20
-9.175475547550207
 30
0.0
 10
28.99370748815682
 20
-9.396264127166646
 30
0.0
 10
27.52405944898203
 20
-9.563363011609539
 30
0.0
 10
26.05562312005346
 20
-9.482157244210057
 30
0.0
 10
24.58525361302562
 20
-9.181372877286762
 30
0.0
 10
23.11483874674147
 20
-8.661175375600763
 30
0.0
 10
21.6464252094289
 20
-7.934871913322169
 30
0.0
 10
20.17670897088258
 20
-7.020260195824164
 30
0.0
 10
18.70571289357195
 20
-5.939855887457043
 30
0.0
 10
17.24464352876712
 20
-4.722928446374979
 30
0.0
 10
15.79048042752433
 20
-3.402540021545775
 30
0.0
 10
14.34176524238839
 20
-2.012204789171534
 30
0.0
 10
12.89567575625297
 20
-0.5741593430488052
 30
0.0
 10
11.44907964916959
 20
0.8804826154976126
 30
0.0
 10
10.48328267043756
 20
1.826524890773797
 30
0.0
 10
10.00000000000006
 20
2.299922351327567
 30
0.0
  0
SPLINE
  5
25E
330
1F
100
AcDbEntity
  8
0
  6
Continuous
 62
     1
370
    15
100
AcDbSpline
210
0.0
220
0.0
230
1.0
 70
    24
 71
     3
 72
    18
 73
    14
 74
     0
 42
0.000000001
 43
0.00000001
 40
0.0
 40
0.0
 40
0.0
 40
0.0
 40
0.25
 40
0.25
 40
0.5
 40
0.5
 40
0.625
 40
0.625
 40
0.75
 40
0.75
 40
0.875
 40
0.875
 40
1.0
 40
1.0
 40
1.0
 40
1.0
 10
9.999999999999947
 20
7.743165608213488
 30
0.0
 10
9.999999999999947
 20
7.35642431704477
 30
0.0
 10
9.999999999999947
 20
6.912934810135781
 30
0.0
 10
9.999999999999947
 20
5.924520278298104
 30
0.0
 10
9.999999999999947
 20
5.377634671722305
 30
0.0
 10
9.999999999999947
 20
4.550970748161163
 30
0.0
 10
9.999999999999947
 20
4.275284636762834
 30
0.0
 10
9.999999999999947
 20
3.746552791336157
 30
0.0
 10
9.999999999999947
 20
3.493665560859768
 30
0.0
 10
9.999999999999947
 20
3.038103270098361
 30
0.0
 10
9.999999999999947
 20
2.835691338124136
 30
0.0
 10
9.999999999999947
 20
2.506754286577561
 30
0.0
 10
9.999999999999947
 20
2.38047753230147
 30
0.0
 10
9.999999999999947
 20
2.29992235132768
 30
0.0
  0
SPLINE
  5
25F
330
1F
100
AcDbEntity
  8
0
  6
Continuous
 62
     1
370
    15
100
AcDbSpline
210
0.0
220
0.0
230
1.0
 70
     8
 71
     3
 72
    24
 73
    20
 74
     0
 42
0.000000001
 43
0.00000001
 40
0.0
 40
0.0
 40
0.0
 40
0.0
 40
0.0603583670298487
 40
0.1206207714128361
 40
0.1808694231488836
 40
0.2412250157263231
 40
0.3014967451721567
 40
0.3626791105232668
 40
0.4239625461388216
 40
0.4851932927082152
 40
0.5463699797808306
 40
0.6076295575872033
 40
0.6688876510313425
 40
0.7300642015084667
 40
0.7912961673787404
 40
0.8525787115086304
 40
0.9137606671861366
 40
0.9749705118368568
 40
1.0
 40
1.0
 40
1.0
 40
1.0
 10
10.00000000000016
 20
7.743165608213459
 30
0.0
 10
10.48328267044082
 20
7.444909016309182
 30
0.0
 10
11.44907964917913
 20
6.84887002511735
 30
0.0
 10
12.89567575621522
 20
5.74849100466561
 30
0.0
 10
14.34176524253022
 20
4.527936361517192
 30
0.0
 10
15.7904804269942
 20
3.201844228352343
 30
0.0
 10
17.24464353075513
 20
1.793883337190053
 30
0.0
 10
18.70571288602203
 20
0.3355977434268311
 30
0.0
 10
20.17670899908676
 20
-1.135982539336894
 30
0.0
 10
21.64642510431895
 20
-2.581795180528786
 30
0.0
 10
23.11483913886473
 20
-3.967077017800719
 30
0.0
 10
24.58525214736364
 20
-5.256682112317165
 30
0.0
 10
26.05562858651905
 20
-6.421475270817481
 30
0.0
 10
27.52403907033282
 20
-7.435033155700211
 30
0.0
 10
28.9937836489595
 20
-8.27018787084586
 30
0.0
 10
30.46475947207367
 20
-8.912194686218342
 30
0.0
 10
31.93330657929289
 20
-9.329364804439464
 30
0.0
 10
33.11245730400199
 20
-9.527522136872676
 30
0.0
 10
33.8028939067018
 20
-9.504324827937225
 30
0.0
 10
34.00328129620046
 20
-9.497592206632405
 30
0.0
  0
SPLINE
  5
260
330
1F
100
AcDbEntity
  8
0
  6
Continuous
 62
     1
370
    15
100
AcDbSpline
210
0.0
220
0.0
230
1.0
 70
     8
 71
     3
 72
    42
 73
    38
 74
     0
 42
0.000000001
 43
0.00000001
 40
0.0
 40
0.0
 40
0.0
 40
0.0
 40
0.1250000000000001
 40
0.1250000000000001
 40
0.1875000000000001
 40
0.1875000000000001
 40
0.2500000000000001
 40
0.2500000000000001
 40
0.3125
 40
0.3125
 40
0.375
 40
0.375
 40
0.4375
 40
0.4375
 40
0.5
 40
0.5
 40
0.5625
 40
0.5625
 40
0.625
 40
0.625
 40
0.6562500000000001
 40
0.6562500000000001
 40
0.6875000000000001
 40
0.6875000000000001
 40
0.7187500000000001
 40
0.7187500000000001
 40
0.7500000000000001
 40
0.7500000000000001
 40
0.78125
 40
0.78125
 40
0.8124999999999999
 40
0.8124999999999999
 40
0.8749999999999999
 40
0.8749999999999999
 40
0.9375
 40
0.9375
 40
1.0
 40
1.0
 40
1.0
 40
1.0
 10
45.05199999999992
 20
3.804460097532569
 30
0.0
 10
45.40598697144202
 20
3.480571929787942
 30
0.0
 10
45.73622741584387
 20
3.121327857814322
 30
0.0
 10
46.20838404803244
 20
2.541927159895508
 30
0.0
 10
46.35957379422132
 20
2.344553681616262
 30
0.0
 10
46.64483033241324
 20
1.946612585264489
 30
0.0
 10
46.77963050007594
 20
1.745141356811047
 30
0.0
 10
47.03144925148965
 20
1.335186051781605
 30
0.0
 10
47.1478676680558
 20
1.127317379857516
 30
0.0
 10
47.35449960278041
 20
0.7120640843983352
 30
0.0
 10
47.44552557332059
 20
0.503328370806301
 30
0.0
 10
47.60169479968872
 20
0.0788106146354721
 30
0.0
 10
47.66698530898468
 20
-0.1381275094003911
 30
0.0
 10
47.76985717559901
 20
-0.5768044113922741
 30
0.0
 10
47.80782217144929
 20
-0.7989489371219776
 30
0.0
 10
47.86006742986703
 20
-1.253508144293065
 30
0.0
 10
47.87461894700621
 20
-1.485848087429744
 30
0.0
 10
47.87973995266665
 20
-1.965920554453731
 30
0.0
 10
47.87037484896038
 20
-2.215768951070558
 30
0.0
 10
47.82866792610052
 20
-2.58549420042138
 30
0.0
 10
47.81008562406993
 20
-2.708560134846593
 30
0.0
 10
47.7583962308355
 20
-2.953985373123047
 30
0.0
 10
47.72528947796133
 20
-3.075562924309295
 30
0.0
 10
47.63939408913802
 20
-3.304181584302043
 30
0.0
 10
47.58584462482506
 20
-3.41217315454314
 30
0.0
 10
47.45713276240801
 20
-3.595747630042752
 30
0.0
 10
47.37983680646619
 20
-3.673222389748332
 30
0.0
 10
47.21168772741564
 20
-3.783323453338426
 30
0.0
 10
47.11882006526633
 20
-3.817832169319885
 30
0.0
 10
46.93046980257797
 20
-3.849356050430927
 30
0.0
 10
46.8323200772619
 20
-3.847300151998567
 30
0.0
 10
46.54152058859634
 20
-3.802662755381604
 30
0.0
 10
46.34579797520482
 20
-3.722656941026372
 30
0.0
 10
45.96629400483356
 20
-3.514236762982122
 30
0.0
 10
45.77988293657225
 20
-3.384319339934322
 30
0.0
 10
45.41035629702003
 20
-3.093399571500512
 30
0.0
 10
45.23009446031907
 20
-2.934044607999169
 30
0.0
 10
45.05199999999994
 20
-2.763947108008466
 30
0.0
  0
SPLINE
  5
261
330
1F
100
AcDbEntity
  8
0
  6
Continuous
 62
     1
370
    15
100
AcDbSpline
210
0.0
220
0.0
230
1.0
 70
     8
 71
     3
 72
    20
 73
    16
 74
     0
 42
0.000000001
 43
0.00000001
 40
0.0
 40
0.0
 40
0.0
 40
0.0
 40
0.0814761888167051
 40
0.163057086088211
 40
0.2444931969082775
 40
0.3259555997207839
 40
0.4075419879760569
 40
0.4902166775715381
 40
0.5728909084504992
 40
0.6557028852620178
 40
0.7384000115122622
 40
0.8210594585631554
 40
0.9038548049288331
 40
0.9865818178957758
 40
1.0
 40
1.0
 40
1.0
 40
1.0
 10
45.05199999999994
 20
-2.76394710800848
 30
0.0
 10
44.56966619069368
 20
-2.295883778098954
 30
0.0
 10
43.60437870474806
 20
-1.359155590536233
 30
0.0
 10
42.15496228162232
 20
0.0918345507051015
 30
0.0
 10
40.70817966968877
 20
1.538569257301944
 30
0.0
 10
39.26090501707498
 20
2.950585387643926
 30
0.0
 10
37.80416959826354
 20
4.299065446300247
 30
0.0
 10
36.34261827568812
 20
5.555816620455019
 30
0.0
 10
34.87380055865822
 20
6.686436602266738
 30
0.0
 10
33.40252635726597
 20
7.657149270739367
 30
0.0
 10
31.9333067749069
 20
8.445691775214428
 30
0.0
 10
30.46475854167037
 20
9.039157512874183
 30
0.0
 10
28.99378718029019
 20
9.396153562623624
 30
0.0
 10
27.93404947042172
 20
9.5495789558978
 30
0.0
 10
27.36492402781633
 20
9.514507050973563
 30
0.0
 10
27.28549594174949
 20
9.509612358038908
 30
0.0
  0
SPLINE
  5
262
330
1F
100
AcDbEntity
  8
0
  6
Continuous
 62
     1
370
    15
100
AcDbSpline
210
0.0
220
0.0
230
1.0
 70
     8
 71
     3
 72
    17
 73
    13
 74
     0
 42
0.000000001
 43
0.00000001
 40
0.0
 40
0.0
 40
0.0
 40
0.0
 40
0.0894013368933771
 40
0.1913838550843073
 40
0.2935080075736158
 40
0.3954622910758175
 40
0.4974171402695732
 40
0.5980298906957229
 40
0.6984897416410122
 40
0.7989171691670252
 40
0.8995231480839667
 40
1.0
 40
1.0
 40
1.0
 40
1.0
 10
30.64570257171785
 20
8.927394943080444
 30
0.0
 10
31.07486274128486
 20
9.064651476478886
 30
0.0
 10
31.99357750053197
 20
9.35848024246964
 30
0.0
 10
33.40249937197392
 20
9.540504357613258
 30
0.0
 10
34.8738077804208
 20
9.524024209535114
 30
0.0
 10
36.34261634111192
 20
9.2757436361467
 30
0.0
 10
37.80417010906743
 20
8.810523626040535
 30
0.0
 10
39.26090488120559
 20
8.142483601022846
 30
0.0
 10
40.70817970604386
 20
7.289662215029381
 30
0.0
 10
42.15496227190926
 20
6.266482187481657
 30
0.0
 10
43.60437870717448
 20
5.107040580978179
 30
0.0
 10
44.56966619150214
 20
4.238467671591508
 30
0.0
 10
45.05199999999994
 20
3.804460097532569
 30
0.0
  0
SPLINE
  5
263
330
1F
100
AcDbEntity
  8
0
  6
Continuous
 62
     1
370
    15
100
AcDbSpline
210
0.0
220
0.0
230
1.0
 70
     8
 71
     3
 72
    28
 73
    24
 74
     0
 42
0.000000001
 43
0.00000001
 40
0.0
 40
0.0
 40
0.0
 40
0.0
 40
0.0443529712175832
 40
0.0916929877686879
 40
0.13966448469979
 40
0.1876357154633593
 40
0.2356868724850531
 40
0.2836713881516397
 40
0.3316340406868994
 40
0.3796755479913033
 40
0.4276774052475033
 40
0.475635820459112
 40
0.5236581600247288
 40
0.5716816632332736
 40
0.6196401855268154
 40
0.6676410869308561
 40
0.7156832931017266
 40
0.763646266794303
 40
0.8108953614840387
 40
0.8582101993851056
 40
0.9054412026594314
 40
0.9526829871096663
 40
0.9999999999999999
 40
0.9999999999999999
 40
0.9999999999999999
 40
0.9999999999999999
 10
40.61902146156974
 20
-8.932882112552107
 30
0.0
 10
40.16655633497359
 20
-9.07419809146596
 30
0.0
 10
39.23115385392646
 20
-9.366347274944559
 30
0.0
 10
37.80416053295968
 20
-9.543665550016499
 30
0.0
 10
36.34262072270579
 20
-9.519366782643175
 30
0.0
 10
34.8737998848419
 20
-9.263691321584531
 30
0.0
 10
33.40252660081104
 20
-8.789857227614647
 30
0.0
 10
31.93330647453064
 20
-8.106286863727874
 30
0.0
 10
30.46475950019142
 20
-7.229691531844054
 30
0.0
 10
28.99378364142683
 20
-6.18268022068952
 30
0.0
 10
27.52403907234836
 20
-4.988058242752203
 30
0.0
 10
26.05562858597841
 20
-3.674010552604372
 30
0.0
 10
24.58525214750862
 20
-2.274038480555419
 30
0.0
 10
23.11483913882595
 20
-0.8201241205580345
 30
0.0
 10
21.64642510432933
 20
0.6548260140761926
 30
0.0
 10
20.17670899908397
 20
2.113296684427311
 30
0.0
 10
18.70571288602278
 20
3.520429837257652
 30
0.0
 10
17.24464353075493
 20
4.839195955646233
 30
0.0
 10
15.79048042699424
 20
6.037221002688611
 30
0.0
 10
14.34176524253019
 20
7.089699206157874
 30
0.0
 10
12.89567575621519
 20
7.97651136760895
 30
0.0
 10
11.44907964917906
 20
8.694194139858183
 30
0.0
 10
10.48328267044072
 20
9.001164236973182
 30
0.0
 10
10.00000000000006
 20
9.154771394113979
 30
0.0
  0
SPLINE
  5
264
330
1F
100
AcDbEntity
  8
0
  6
Continuous
 62
     1
370
    15
100
AcDbSpline
210
0.0
220
0.0
230
1.0
 70
     8
 71
     3
 72
    31
 73
    27
 74
     0
 42
0.000000001
 43
0.00000001
 40
0.0
 40
0.0
 40
0.0
 40
0.0
 40
0.0226468927040696
 40
0.066107116454711
 40
0.1095574220296791
 40
0.1530848515253166
 40
0.1965518003530925
 40
0.2406754843477424
 40
0.2848720585025555
 40
0.3290306342110934
 40
0.3731502231276191
 40
0.4173295914351736
 40
0.4615078892458661
 40
0.5056273796520407
 40
0.5497868346996891
 40
0.593982765930164
 40
0.6381061544751604
 40
0.6822496560745306
 40
0.7264544645918697
 40
0.7705857447041738
 40
0.8147172696781118
 40
0.8582678623496778
 40
0.9017522719283214
 40
0.9452226469127417
 40
0.9887703085120721
 40
1.0
 40
1.0
 40
1.0
 40
1.0
 10
10.69541246819647
 20
8.913080621824022
 30
0.0
 10
10.94683419993332
 20
9.004379748668526
 30
0.0
 10
11.68074352322813
 20
9.270885272821005
 30
0.0
 10
12.89565096521601
 20
9.484549998605061
 30
0.0
 10
14.34177189781153
 20
9.559043486342759
 30
0.0
 10
15.7904786460388
 20
9.40308542116324
 30
0.0
 10
17.24464401568361
 20
9.03124204458122
 30
0.0
 10
18.70571275501925
 20
8.444350859785644
 30
0.0
 10
20.17670903417936
 20
7.655043307254928
 30
0.0
 10
21.64642509493375
 20
6.68327245218795
 30
0.0
 10
23.11483914136457
 20
5.551919064709651
 30
0.0
 10
24.58525214675985
 20
4.289871668689543
 30
0.0
 10
26.05562858643282
 20
2.925974011685952
 30
0.0
 10
27.52403907127948
 20
1.491090062466071
 30
0.0
 10
28.99378364525353
 20
0.0216720892413917
 30
0.0
 10
30.46475948595225
 20
-1.447124587984206
 30
0.0
 10
31.93330652757152
 20
-2.883582944954398
 30
0.0
 10
33.4025264026359
 20
-4.250977252946953
 30
0.0
 10
34.873800625055
 20
-5.515812583218846
 30
0.0
 10
36.34261796543129
 20
-6.651357560486233
 30
0.0
 10
37.8041707665939
 20
-7.624156525858496
 30
0.0
 10
39.26090071900586
 20
-8.411456331718313
 30
0.0
 10
40.70819568923649
 20
-9.006656395378798
 30
0.0
 10
42.15490246718531
 20
-9.376620895328273
 30
0.0
 10
43.24623587993997
 20
-9.540873221388907
 30
0.0
 10
43.85381065243612
 20
-9.510228219614746
 30
0.0
 10
43.97836718659562
 20
-9.503945807337132
 30
0.0
  0
SPLINE
  5
267
330
1F
100
AcDbEntity
  8
0
  6
Continuous
 62
     1
370
    15
100
AcDbSpline
210
0.0
220
0.0
230
1.0
 70
     8
 71
     3
 72
    42
 73
    38
 74
     0
 42
0.000000001
 43
0.00000001
 40
0.0
 40
0.0
 40
0.0
 40
0.0
 40
0.1249999999999997
 40
0.1249999999999997
 40
0.1874999999999996
 40
0.1874999999999996
 40
0.2499999999999995
 40
0.2499999999999995
 40
0.3124999999999994
 40
0.3124999999999994
 40
0.3749999999999993
 40
0.3749999999999993
 40
0.4374999999999993
 40
0.4374999999999993
 40
0.4999999999999992
 40
0.4999999999999992
 40
0.5624999999999991
 40
0.5624999999999991
 40
0.6249999999999991
 40
0.6249999999999991
 40
0.6562499999999991
 40
0.6562499999999991
 40
0.6874999999999991
 40
0.6874999999999991
 40
0.7187499999999992
 40
0.7187499999999992
 40
0.7499999999999992
 40
0.7499999999999992
 40
0.7812499999999992
 40
0.7812499999999992
 40
0.8124999999999992
 40
0.8124999999999992
 40
0.8749999999999996
 40
0.8749999999999996
 40
0.9374999999999998
 40
0.9374999999999998
 40
1.0
 40
1.0
 40
1.0
 40
1.0
 10
45.05199999999992
 20
9.464556494690129
 30
0.0
 10
45.405986971442
 20
9.424818813079582
 30
0.0
 10
45.73622741584387
 20
9.306468998278817
 30
0.0
 10
46.20838404803244
 20
9.021809313101173
 30
0.0
 10
46.35957379422132
 20
8.909712205410912
 30
0.0
 10
46.64483033241324
 20
8.656336104005021
 30
0.0
 10
46.77963050007595
 20
8.514569007866669
 30
0.0
 10
47.03144925148965
 20
8.202376188487918
 30
0.0
 10
47.1478676680558
 20
8.0322220639449
 30
0.0
 10
47.35449960278044
 20
7.67577930502992
 30
0.0
 10
47.44552557332062
 20
7.488446565694503
 30
0.0
 10
47.60169479968874
 20
7.101623010568218
 30
0.0
 10
47.66698530898468
 20
6.901103558590705
 30
0.0
 10
47.76985717559901
 20
6.503639782051536
 30
0.0
 10
47.80782217144932
 20
6.306404148699414
 30
0.0
 10
47.86006742986703
 20
5.924372150724082
 30
0.0
 10
47.87461894700624
 20
5.739512142016551
 30
0.0
 10
47.87973995266668
 20
5.391565678007836
 30
0.0
 10
47.87037484896037
 20
5.227269390589314
 30
0.0
 10
47.82866792610054
 20
5.021157558607527
 30
0.0
 10
47.81008562406996
 20
4.958675983006501
 30
0.0
 10
47.7583962308355
 20
4.850612333383225
 30
0.0
 10
47.72528947796131
 20
4.805583926507779
 30
0.0
 10
47.63939408913799
 20
4.743896522416136
 30
0.0
 10
47.58584462482503
 20
4.727346712112265
 30
0.0
 10
47.45713276240802
 20
4.73125056271455
 30
0.0
 10
47.37983680646613
 20
4.752316541734643
 30
0.0
 10
47.21168772741561
 20
4.827042841697363
 30
0.0
 10
47.11882006526631
 20
4.881174753664041
 30
0.0
 10
46.93046980257796
 20
5.006045529981023
 30
0.0
 10
46.8323200772619
 20
5.078317613847688
 30
0.0
 10
46.54152058859634
 20
5.303100859327074
 30
0.0
 10
46.34579797520485
 20
5.467687734158559
 30
0.0
 10
45.96629400483354
 20
5.786556385170471
 30
0.0
 10
45.77988293657225
 20
5.943612341829478
 30
0.0
 10
45.41035629702003
 20
6.242366844914329
 30
0.0
 10
45.23009446031907
 20
6.382273874865817
 30
0.0
 10
45.05199999999994
 20
6.511990344956857
 30
0.0
  0
LINE
  5
268
330
1F
100
AcDbEntity
  8
0
  6
Continuous
 62
     1
370
    15
100
AcDbLine
 10
48.09999999999994
 20
0.00000000000054
 30
0.0
 11
48.09999999999994
 21
6.477000000000544
 31
0.0
  0
LINE
  5
269
330
1F
100
AcDbEntity
  8
0
  6
Continuous
 62
     1
370
    15
100
AcDbLine
 10
48.09999999999994
 20
-6.476999999999464
 30
0.0
 11
48.09999999999994
 21
0.00000000000054
 31
0.0
  0
SPLINE
  5
26A
330
1F
100
AcDbEntity
  8
0
  6
Continuous
 62
     1
370
    15
100
AcDbSpline
210
0.0
220
0.0
230
1.0
 70
     8
 71
     3
 72
    17
 73
    13
 74
     0
 42
0.000000001
 43
0.00000001
 40
0.0
 40
0.0
 40
0.0
 40
0.0
 40
0.1032730562079429
 40
0.2063819205016433
 40
0.309467254041443
 40
0.4127355631663598
 40
0.5158603826256296
 40
0.620543298462558
 40
0.725399145338124
 40
0.8301648413515395
 40
0.9348380416642911
 40
0.9999999999999999
 40
0.9999999999999999
 40
0.9999999999999999
 40
0.9999999999999999
 10
10.00000000000016
 20
-0.932244682683276
 30
0.0
 10
10.48328266984939
 20
-1.410410132713395
 30
0.0
 10
11.44907964740583
 20
-2.36598080640438
 30
0.0
 10
12.89567576329458
 20
-3.740154771883368
 30
0.0
 10
14.34176521596808
 20
-5.030015070553105
 30
0.0
 10
15.79048052629831
 20
-6.201505463191808
 30
0.0
 10
17.24464315837023
 20
-7.237391496089757
 30
0.0
 10
18.70571430022851
 20
-8.108345832631713
 30
0.0
 10
20.17670371603717
 20
-8.792622430321998
 30
0.0
 10
21.64644479292474
 20
-9.259097497420527
 30
0.0
 10
22.92949058469791
 20
-9.505668203414118
 30
0.0
 10
23.72400202734186
 20
-9.500368684752942
 30
0.0
 10
24.02883832822801
 20
-9.498335377768996
 30
0.0
  0
LINE
  5
26B
330
1F
100
AcDbEntity
  8
0
  6
Continuous
 62
     1
370
    15
100
AcDbLine
 10
10.00000000000003
 20
-0.9322446826831765
 30
0.0
 11
9.999999999999947
 21
2.29992235132768
 31
0.0
  0
LINE
  5
26C
330
1F
100
AcDbEntity
  8
0
  6
Continuous
 62
     1
370
    15
100
AcDbLine
 10
10.00000000000003
 20
7.743165608213516
 30
0.0
 11
9.999999999999947
 21
9.154771394114007
 31
0.0
  0
SPLINE
  5
26D
330
1F
100
AcDbEntity
  8
0
  6
Continuous
 62
     1
370
    15
100
AcDbSpline
210
0.0
220
0.0
230
1.0
 70
     8
 71
     3
 72
    15
 73
    11
 74
     0
 42
0.000000001
 43
0.00000001
 40
0.0
 40
0.0
 40
0.0
 40
0.0
 40
0.0462919560775983
 40
0.1841496655334167
 40
0.3217800164051333
 40
0.4573618825796613
 40
0.5931323997185964
 40
0.7286623523510953
 40
0.864223241702253
 40
0.9999999999999999
 40
0.9999999999999999
 40
0.9999999999999999
 40
0.9999999999999999
 10
20.67088370522749
 20
-8.915118578575516
 30
0.0
 10
20.5062456878114
 20
-8.978469721472038
 30
0.0
 10
19.8513147146973
 20
-9.230480929553167
 30
0.0
 10
18.70566180274993
 20
-9.451125836305238
 30
0.0
 10
17.24465698185987
 20
-9.564536358287697
 30
0.0
 10
15.79047683997981
 20
-9.43911782637177
 30
0.0
 10
14.34176620199476
 20
-9.102076039679247
 30
0.0
 10
12.89567550049796
 20
-8.550624857266001
 30
0.0
 10
11.44907971323324
 20
-7.813723010098983
 30
0.0
 10
10.48328269180343
 20
-7.174643176808559
 30
0.0
 10
10.00000000000006
 20
-6.854849042785858
 30
0.0
  0
SPLINE
  5
26E
330
1F
100
AcDbEntity
  8
0
  6
Continuous
 62
     1
370
    15
100
AcDbSpline
210
0.0
220
0.0
230
1.0
 70
    24
 71
     3
 72
    18
 73
    14
 74
     0
 42
0.000000001
 43
0.00000001
 40
0.0
 40
0.0
 40
0.0
 40
0.0
 40
0.2499999999999999
 40
0.2499999999999999
 40
0.4999999999999998
 40
0.4999999999999998
 40
0.6249999999999998
 40
0.6249999999999998
 40
0.7499999999999999
 40
0.7499999999999999
 40
0.875
 40
0.875
 40
1.0
 40
1.0
 40
1.0
 40
1.0
 10
9.999999999999947
 20
-0.9322446826830912
 30
0.0
 10
9.999999999999947
 20
-1.069490436978839
 30
0.0
 10
9.999999999999947
 20
-1.268379304157051
 30
0.0
 10
9.999999999999947
 20
-1.859787542586432
 30
0.0
 10
9.999999999999947
 20
-2.254995245895628
 30
0.0
 10
9.999999999999947
 20
-3.026218711763377
 30
0.0
 10
9.999999999999947
 20
-3.312516801520047
 30
0.0
 10
9.999999999999947
 20
-3.937207656981187
 30
0.0
 10
9.999999999999947
 20
-4.275648303169348
 30
0.0
 10
9.999999999999947
 20
-4.987010333708653
 30
0.0
 10
9.999999999999947
 20
-5.359821077056012
 30
0.0
 10
9.999999999999947
 20
-6.111459360542185
 30
0.0
 10
9.999999999999947
 20
-6.490015315012229
 30
0.0
 10
9.999999999999947
 20
-6.854849042785773
 30
0.0
  0
SPLINE
  5
26F
330
1F
100
AcDbEntity
  8
0
  6
Continuous
 62
     1
370
    15
100
AcDbSpline
210
0.0
220
0.0
230
1.0
 70
     8
 71
     3
 72
    13
 73
     9
 74
     0
 42
0.000000001
 43
0.00000001
 40
0.0
 40
0.0
 40
0.0
 40
0.0
 40
0.1857729096395271
 40
0.3717845638079125
 40
0.5574660920738593
 40
0.7432075684056989
 40
0.9292317425022497
 40
1.0
 40
1.0
 40
1.0
 40
1.0
 10
45.05199999999994
 20
6.511990344956857
 30
0.0
 10
44.56966587788142
 20
6.849762849738852
 30
0.0
 10
43.60437776590935
 20
7.52574194486283
 30
0.0
 10
42.15496603982689
 20
8.32341586352473
 30
0.0
 10
40.70816560303327
 20
8.945095081022359
 30
0.0
 10
39.2609575882132
 20
9.342744470076667
 30
0.0
 10
38.11014796118641
 20
9.530473916818693
 30
0.0
 10
37.44347421219348
 20
9.50536484386258
 30
0.0
 10
37.25974862790423
 20
9.498445148724144
 30
0.0
  0
LINE
  5
270
330
1F
100
AcDbEntity
  8
0
  6
Continuous
 62
     1
370
    15
100
AcDbLine
 10
10.69541246819646
 20
-8.913080621822928
 30
0.0
 11
10.00000000000006
 21
-9.154771394112885
 31
0.0
  0
SPLINE
  5
271
330
1F
100
AcDbEntity
  8
0
  6
Continuous
 62
     1
370
    15
100
AcDbSpline
210
0.0
220
0.0
230
1.0
 70
     8
 71
     3
 72
    10
 73
     6
 74
     0
 42
0.000000001
 43
0.00000001
 40
0.0
 40
0.0
 40
0.0
 40
0.0
 40
0.3573750533422173
 40
0.7141819227237253
 40
1.0
 40
1.0
 40
1.0
 40
1.0
 10
10.00000000000046
 20
-8.675410290896252
 30
0.0
 10
10.48329245140144
 20
-8.854053105344278
 30
0.0
 10
11.44910897650989
 20
-9.211054713347124
 30
0.0
 10
12.7997857459249
 20
-9.48441723178692
 30
0.0
 10
13.66788233944806
 20
-9.50040920526105
 30
0.0
 10
14.0539826621033
 20
-9.507521900051387
 30
0.0
  0
SPLINE
  5
272
330
1F
100
AcDbEntity
  8
0
  6
Continuous
 62
     1
370
    15
100
AcDbSpline
210
0.0
220
0.0
230
1.0
 70
     8
 71
     3
 72
    11
 73
     7
 74
     0
 42
0.000000001
 43
0.00000001
 40
0.0
 40
0.0
 40
0.0
 40
0.0
 40
0.0201345964110267
 40
0.3465094346661642
 40
0.6734645395154981
 40
1.0
 40
1.0
 40
1.0
 40
1.0
 10
40.61902146156974
 20
8.932882112553202
 30
0.0
 10
40.64876765619368
 20
8.945097098196285
 30
0.0
 10
41.16068936906042
 20
9.155312772910406
 30
0.0
 10
42.15489088861099
 20
9.370700475112969
 30
0.0
 10
43.60439653946742
 20
9.567664261051206
 30
0.0
 10
44.56967213305452
 20
9.49891103332611
 30
0.0
 10
45.05199999999994
 20
9.464556494690129
 30
0.0
  0
SPLINE
  5
273
330
1F
100
AcDbEntity
  8
0
  6
Continuous
 62
     1
370
    15
100
AcDbSpline
210
0.0
220
0.0
230
1.0
 70
    24
 71
     3
 72
     9
 73
     5
 74
     0
 42
0.000000001
 43
0.00000001
 40
0.0
 40
0.0
 40
0.0
 40
0.0
 40
0.0757794073152701
 40
1.0
 40
1.0
 40
1.0
 40
1.0
 10
9.999999999999947
 20
-8.747218710226846
 30
0.0
 10
9.999999999999947
 20
-8.755975074219407
 30
0.0
 10
9.999999999999947
 20
-8.871525779916183
 30
0.0
 10
9.999999999999947
 20
-9.018725958146035
 30
0.0
 10
9.999999999999947
 20
-9.154771394112913
 30
0.0
  0
LINE
  5
274
330
1F
100
AcDbEntity
  8
0
  6
Continuous
 62
     1
370
    15
100
AcDbLine
 10
9.999999999999932
 20
-8.675410290896366
 30
0.0
 11
9.999999999999947
 21
-6.854849042785773
 31
0.0
  0
LINE
  5
276
330
1F
100
AcDbEntity
  8
0
  6
Continuous
 62
     8
370
    15
100
AcDbLine
 10
45.05199999999994
 20
-9.524999999999451
 30
0.0
 11
45.05199999999994
 21
-9.275937452964769
 31
0.0
  0
LINE
  5
277
330
1F
100
AcDbEntity
  8
0
  6
Continuous
 62
     8
370
    15
100
AcDbLine
 10
45.05199999999992
 20
9.464556494690129
 30
0.0
 11
45.05199999999994
 21
9.525000000000546
 31
0.0
  0
LINE
  5
278
330
1F
100
AcDbEntity
  8
중심선
100
AcDbLine
 10
-56.50000000000006
 20
0.0000000000005258
 30
0.0
 11
51.09999999999994
 21
0.0000000000005258
 31
0.0
  0
CIRCLE
  5
279
330
1F
100
AcDbEntity
  8
외형선
100
AcDbCircle
 10
0.0
 20
0.0
 30
0.0
 40
3.000000000000001
  0
POINT
  5
27A
330
1F
100
AcDbEntity
  8
치수문자_일반주서
100
AcDbPoint
 10
0.0
 20
0.0
 30
0.0
  0
DIMENSION
  5
27B
330
1F
100
AcDbEntity
  8
치수문자_일반주서
100
AcDbDimension
  2
*D9
 10
48.09999999999994
 20
42.18055141807233
 30
0.0
 11
-2.700000000000056
 21
42.18055141807233
 31
0.0
 70
   160
  1
<>
 71
     2
 42
101.6
  3
SLDDIMSTYLE0
100
AcDbAlignedDimension
 13
-53.50000000000006
 23
9.025000000000531
 33
0.0
 14
48.09999999999994
 24
6.477000000000544
 34
0.0
100
AcDbRotatedDimension
1001
ACAD
1000
DSTYLE
1002
{
1070
   273
1070
     7
1002
}
  0
DIMENSION
  5
27C
330
1F
100
AcDbEntity
  8
치수문자_일반주서
100
AcDbDimension
  2
*D10
 10
9.999999999999932
 20
24.10399453033847
 30
0.0
 11
28.63090169785216
 21
24.10399453033847
 31
0.0
 70
   160
  1
<>
 71
     2
 42
38.10000000000002
  3
SLDDIMSTYLE0
100
AcDbAlignedDimension
 13
48.09999999999994
 23
6.477000000000544
 33
0.0
 14
9.999999999999932
 24
-9.154771394112913
 34
0.0
 50
0.0000000000000321
100
AcDbRotatedDimension
1001
ACAD
1000
DSTYLE
1002
{
1070
   273
1070
     7
1002
}
  0
DIMENSION
  5
27D
330
1F
100
AcDbEntity
  8
치수문자_일반주서
100
AcDbDimension
  2
*D11
 10
-66.50000000000004
 20
-9.524999999999501
 30
0.0
 11
-66.50000000000009
 21
0.00000000000054
 31
0.0
 70
   160
  1
%%c<>
 71
     2
 42
19.05
 52
-270.0
  3
SLDDIMSTYLE1
100
AcDbAlignedDimension
 13
-53.00000000000006
 23
9.525000000000546
 33
0.0
 14
-53.00000000000006
 24
-9.524999999999451
 34
0.0
 50
90.0000000000002
100
AcDbRotatedDimension
1001
ACAD
1000
DSTYLE
1002
{
1070
   273
1070
     7
1002
}
  0
INSERT
  5
27E
330
1F
100
AcDbEntity
  8
외형선
100
AcDbBlockReference
  2
SW_DOWELSYMBOL_0
 10
0.0
 20
0.0
 30
0.0
  0
DIMENSION
  5
2A4
330
1F
100
AcDbEntity
  8
치수문자_일반주서
100
AcDbDimension
  2
*D12
 10
61.59124840153789
 20
-9.524999999999453
 30
0.0
 11
61.59124840153789
 21
0.0000000000005471
 31
0.0
 70
   160
  1
{%%c<>}
 71
     5
 42
19.05
  3
SLDDIMSTYLE0
100
AcDbAlignedDimension
 13
45.05199999999994
 23
9.525000000000546
 33
0.0
 14
45.05199999999994
 24
-9.524999999999451
 34
0.0
 50
90.0
100
AcDbRotatedDimension
1001
ACAD
1000
DSTYLE
1002
{
1070
   273
1070
     7
1002
}
  0
DIMENSION
  5
2B6
330
1F
100
AcDbEntity
  8
치수문자_일반주서
100
AcDbDimension
  2
*D13
 10
45.05199999999994
 20
6.477000000000544
 30
0.0
 11
65.9718517614494
 21
28.3729021387796
 31
0.0
 70
   164
  1
<>
 71
     5
 42
3.047999999999996
  3
SLDDIMSTYLE0
100
AcDbRadialDimension
 15
47.15758195349161
 25
8.680821371421136
 35
0.0
 40
0.0
1001
ACAD
1000
DSTYLE
1002
{
1070
   171
1070
     3
1070
   273
1070
     2
1002
}
1001
ACAD_DSTYLE_DIMRADIAL_EXTENSION
1070
   387
1070
     1
1070
   388
1040
0.0
1070
   390
1040
1.570796326794897
  0
LINE
  5
31F
330
1F
100
AcDbEntity
  8
0
  6
Continuous
 62
     4
370
    15
100
AcDbLine
 10
-33.49432500000003
 20
7.620000000000545
 30
0.0
 11
-21.91192500000002
 21
7.620000000000545
 31
0.0
  0
LINE
  5
320
330
1F
100
AcDbEntity
  8
0
  6
Continuous
 62
     4
370
    15
100
AcDbLine
 10
-33.49432500000003
 20
7.62000000000053
 30
0.0
 11
-35.39932500000018
 21
9.52500000000056
 31
0.0
  0
LINE
  5
321
330
1F
100
AcDbEntity
  8
0
  6
Continuous
 62
     4
370
    15
100
AcDbLine
 10
-21.91192500000002
 20
7.62000000000053
 30
0.0
 11
-20.00692500000005
 21
9.52500000000056
 31
0.0
  0
LINE
  5
322
330
1F
100
AcDbEntity
  8
0
  6
Continuous
 62
     4
370
    15
100
AcDbLine
 10
-35.39932500000016
 20
9.525000000000546
 30
0.0
 11
-53.00000000000006
 21
9.525000000000546
 31
0.0
  0
ENDSEC
  0
SECTION
  2
OBJECTS
  0
DICTIONARY
  5
C
330
0
100
AcDbDictionary
281
     1
  3
ACAD_GROUP
350
D
  3
ACAD_IMAGE_VARS
350
15C
  3
ACAD_LAYOUT
350
1A
  3
ACAD_MLINESTYLE
350
17
  3
ACAD_PLOTSETTINGS
350
19
  3
ACAD_PLOTSTYLENAME
350
E
  3
ACAD_SCALELIST
350
47
  3
APPDATA
350
15A
  3
DWGPROPS
350
347
  0
DICTIONARY
  5
311
330
2
100
AcDbDictionary
280
     1
281
     1
  3
ACAD_LAYERSTATES
360
312
  0
DICTIONARY
  5
345
330
1F
100
AcDbDictionary
280
     1
281
     1
  3
DIM_BOUNDING_BOXES_V1
360
346
  0
DICTIONARY
  5
D
102
{ACAD_REACTORS
330
C
102
}
330
C
100
AcDbDictionary
281
     1
  0
RASTERVARIABLES
  5
15C
102
{ACAD_REACTORS
330
C
102
}
330
C
100
AcDbRasterVariables
 90
        0
 70
     1
 71
     1
 72
     1
  0
DICTIONARY
  5
1A
102
{ACAD_REACTORS
330
C
102
}
330
C
100
AcDbDictionary
281
     1
  3
Layout1
350
1E
  3
Layout2
350
26
  3
Model
350
22
  0
DICTIONARY
  5
17
102
{ACAD_REACTORS
330
C
102
}
330
C
100
AcDbDictionary
281
     1
  3
Standard
350
18
  0
DICTIONARY
  5
19
102
{ACAD_REACTORS
330
C
102
}
330
C
100
AcDbDictionary
281
     1
  0
ACDBDICTIONARYWDFLT
  5
E
102
{ACAD_REACTORS
330
C
102
}
330
C
100
AcDbDictionary
281
     1
  3
Normal
350
F
100
AcDbDictionaryWithDefault
340
F
  0
DICTIONARY
  5
47
102
{ACAD_REACTORS
330
C
102
}
330
C
100
AcDbDictionary
281
     1
  3
A0
350
48
  3
A1
350
49
  3
A2
350
4A
  3
A3
350
4B
  3
A4
350
4C
  3
A5
350
4D
  3
A6
350
4E
  3
A7
350
4F
  3
A8
350
50
  3
A9
350
51
  3
B0
350
52
  3
B1
350
53
  3
B2
350
54
  3
B3
350
55
  3
B4
350
56
  3
B5
350
57
  3
B6
350
58
  3
B7
350
59
  3
B8
350
5A
  3
B9
350
5B
  3
C0
350
5C
  3
C1
350
5D
  3
C2
350
5E
  3
C3
350
5F
  3
C4
350
60
  3
C5
350
61
  3
C6
350
62
  3
C7
350
63
  3
C8
350
64
  3
C9
350
65
  3
D0
350
66
  3
D1
350
67
  3
D2
350
68
  0
DICTIONARY
  5
15A
102
{ACAD_REACTORS
330
C
102
}
330
C
100
AcDbDictionary
281
     1
  0
XRECORD
  5
347
102
{ACAD_REACTORS
330
C
102
}
330
C
100
AcDbXrecord
280
     1
  1
DWGPROPS COOKIE
  2

  3

  4

  6

  7

  8
12015018
  9

300
=
301
=
302
=
303
=
304
=
305
=
306
=
307
=
308
=
309
=
 40
0.0
 41
2458236.375676366
 42
2459697.068599028
  1

 90
        0
  0
DICTIONARY
  5
312
102
{ACAD_REACTORS
330
311
102
}
330
311
100
AcDbDictionary
281
     1
  0
DICTIONARY
  5
346
102
{ACAD_REACTORS
330
345
102
}
330
345
100
AcDbDictionary
281
     1
  0
LAYOUT
  5
1E
102
{ACAD_REACTORS
330
1A
102
}
330
1A
100
AcDbPlotSettings
  1

  2
none_device
  4

  6

 40
0.0
 41
0.0
 42
0.0
 43
0.0
 44
0.0
 45
0.0
 46
0.0
 47
0.0
 48
0.0
 49
0.0
140
0.0
141
0.0
142
1.0
143
1.0
 70
   688
 72
     1
 73
     0
 74
     5
  7

 75
    16
147
1.0
148
0.0
149
0.0
100
AcDbLayout
  1
Layout1
 70
     1
 71
     1
 10
0.0
 20
0.0
 11
420.0
 21
297.0
 12
0.0
 22
0.0
 32
0.0
 14
1.000000000000000E+20
 24
1.000000000000000E+20
 34
1.000000000000000E+20
 15
-1.000000000000000E+20
 25
-1.000000000000000E+20
 35
-1.000000000000000E+20
146
0.0
 13
0.0
 23
0.0
 33
0.0
 16
1.0
 26
0.0
 36
0.0
 17
0.0
 27
1.0
 37
0.0
 76
     0
330
1B
  0
LAYOUT
  5
26
102
{ACAD_REACTORS
330
1A
102
}
330
1A
100
AcDbPlotSettings
  1

  2
none_device
  4

  6

 40
0.0
 41
0.0
 42
0.0
 43
0.0
 44
0.0
 45
0.0
 46
0.0
 47
0.0
 48
0.0
 49
0.0
140
0.0
141
0.0
142
1.0
143
1.0
 70
   688
 72
     1
 73
     0
 74
     5
  7

 75
    16
147
1.0
148
0.0
149
0.0
100
AcDbLayout
  1
Layout2
 70
     1
 71
     2
 10
0.0
 20
0.0
 11
0.0
 21
0.0
 12
0.0
 22
0.0
 32
0.0
 14
0.0
 24
0.0
 34
0.0
 15
0.0
 25
0.0
 35
0.0
146
0.0
 13
0.0
 23
0.0
 33
0.0
 16
1.0
 26
0.0
 36
0.0
 17
0.0
 27
1.0
 37
0.0
 76
     0
330
23
  0
LAYOUT
  5
22
102
{ACAD_REACTORS
330
1A
102
}
330
1A
100
AcDbPlotSettings
  1

  2
none_device
  4
ANSI_A_(11.00_x_8.50_Inches)
  6

 40
6.35
 41
19.05
 42
6.35000508
 43
19.05000254
 44
279.4
 45
215.9
 46
147.216122257536
 47
86.83625569318504
 48
0.0
 49
0.0
140
0.0
141
0.0
142
0.0813602952248001
143
1.0
 70
  1696
 72
     0
 73
     0
 74
     0
  7

 75
     0
147
0.0235690232323232
148
0.0
149
0.0
100
AcDbLayout
  1
Model
 70
     1
 71
     0
 10
0.0
 20
0.0
 11
420.0
 21
297.0
 12
0.0
 22
0.0
 32
0.0
 14
-70.87500000000014
 24
-49.97180738881174
 34
0.0
 15
76.39873089875749
 25
46.55555141807233
 35
0.0
146
0.0
 13
0.0
 23
0.0
 33
0.0
 16
1.0
 26
0.0
 36
0.0
 17
0.0
 27
1.0
 37
0.0
 76
     0
330
1F
331
29
  0
MLINESTYLE
  5
18
102
{ACAD_REACTORS
330
17
102
}
330
17
100
AcDbMlineStyle
  2
Standard
 70
     0
  3

 62
   256
 51
90.0
 52
90.0
 71
     2
 49
0.5
 62
   256
  6
BYLAYER
 49
-0.5
 62
   256
  6
BYLAYER
  0
ACDBPLACEHOLDER
  5
F
102
{ACAD_REACTORS
330
E
102
}
330
E
  0
SCALE
  5
48
102
{ACAD_REACTORS
330
47
102
}
330
47
100
AcDbScale
 70
     0
300
1:1
140
1.0
141
1.0
290
     1
  0
SCALE
  5
49
102
{ACAD_REACTORS
330
47
102
}
330
47
100
AcDbScale
 70
     0
300
1:2
140
1.0
141
2.0
290
     0
  0
SCALE
  5
4A
102
{ACAD_REACTORS
330
47
102
}
330
47
100
AcDbScale
 70
     0
300
1:4
140
1.0
141
4.0
290
     0
  0
SCALE
  5
4B
102
{ACAD_REACTORS
330
47
102
}
330
47
100
AcDbScale
 70
     0
300
1:5
140
1.0
141
5.0
290
     0
  0
SCALE
  5
4C
102
{ACAD_REACTORS
330
47
102
}
330
47
100
AcDbScale
 70
     0
300
1:8
140
1.0
141
8.0
290
     0
  0
SCALE
  5
4D
102
{ACAD_REACTORS
330
47
102
}
330
47
100
AcDbScale
 70
     0
300
1:10
140
1.0
141
10.0
290
     0
  0
SCALE
  5
4E
102
{ACAD_REACTORS
330
47
102
}
330
47
100
AcDbScale
 70
     0
300
1:16
140
1.0
141
16.0
290
     0
  0
SCALE
  5
4F
102
{ACAD_REACTORS
330
47
102
}
330
47
100
AcDbScale
 70
     0
300
1:20
140
1.0
141
20.0
290
     0
  0
SCALE
  5
50
102
{ACAD_REACTORS
330
47
102
}
330
47
100
AcDbScale
 70
     0
300
1:30
140
1.0
141
30.0
290
     0
  0
SCALE
  5
51
102
{ACAD_REACTORS
330
47
102
}
330
47
100
AcDbScale
 70
     0
300
1:40
140
1.0
141
40.0
290
     0
  0
SCALE
  5
52
102
{ACAD_REACTORS
330
47
102
}
330
47
100
AcDbScale
 70
     0
300
1:50
140
1.0
141
50.0
290
     0
  0
SCALE
  5
53
102
{ACAD_REACTORS
330
47
102
}
330
47
100
AcDbScale
 70
     0
300
1:100
140
1.0
141
100.0
290
     0
  0
SCALE
  5
54
102
{ACAD_REACTORS
330
47
102
}
330
47
100
AcDbScale
 70
     0
300
2:1
140
2.0
141
1.0
290
     0
  0
SCALE
  5
55
102
{ACAD_REACTORS
330
47
102
}
330
47
100
AcDbScale
 70
     0
300
4:1
140
4.0
141
1.0
290
     0
  0
SCALE
  5
56
102
{ACAD_REACTORS
330
47
102
}
330
47
100
AcDbScale
 70
     0
300
8:1
140
8.0
141
1.0
290
     0
  0
SCALE
  5
57
102
{ACAD_REACTORS
330
47
102
}
330
47
100
AcDbScale
 70
     0
300
10:1
140
10.0
141
1.0
290
     0
  0
SCALE
  5
58
102
{ACAD_REACTORS
330
47
102
}
330
47
100
AcDbScale
 70
     0
300
100:1
140
100.0
141
1.0
290
     0
  0
SCALE
  5
59
102
{ACAD_REACTORS
330
47
102
}
330
47
100
AcDbScale
 70
     0
300
1/128" = 1'-0"
140
0.0078125
141
12.0
290
     0
  0
SCALE
  5
5A
102
{ACAD_REACTORS
330
47
102
}
330
47
100
AcDbScale
 70
     0
300
1/64" = 1'-0"
140
0.015625
141
12.0
290
     0
  0
SCALE
  5
5B
102
{ACAD_REACTORS
330
47
102
}
330
47
100
AcDbScale
 70
     0
300
1/32" = 1'-0"
140
0.03125
141
12.0
290
     0
  0
SCALE
  5
5C
102
{ACAD_REACTORS
330
47
102
}
330
47
100
AcDbScale
 70
     0
300
1/16" = 1'-0"
140
0.0625
141
12.0
290
     0
  0
SCALE
  5
5D
102
{ACAD_REACTORS
330
47
102
}
330
47
100
AcDbScale
 70
     0
300
3/32" = 1'-0"
140
0.09375
141
12.0
290
     0
  0
SCALE
  5
5E
102
{ACAD_REACTORS
330
47
102
}
330
47
100
AcDbScale
 70
     0
300
1/8" = 1'-0"
140
0.125
141
12.0
290
     0
  0
SCALE
  5
5F
102
{ACAD_REACTORS
330
47
102
}
330
47
100
AcDbScale
 70
     0
300
3/16" = 1'-0"
140
0.1875
141
12.0
290
     0
  0
SCALE
  5
60
102
{ACAD_REACTORS
330
47
102
}
330
47
100
AcDbScale
 70
     0
300
1/4" = 1'-0"
140
0.25
141
12.0
290
     0
  0
SCALE
  5
61
102
{ACAD_REACTORS
330
47
102
}
330
47
100
AcDbScale
 70
     0
300
3/8" = 1'-0"
140
0.375
141
12.0
290
     0
  0
SCALE
  5
62
102
{ACAD_REACTORS
330
47
102
}
330
47
100
AcDbScale
 70
     0
300
1/2" = 1'-0"
140
0.5
141
12.0
290
     0
  0
SCALE
  5
63
102
{ACAD_REACTORS
330
47
102
}
330
47
100
AcDbScale
 70
     0
300
3/4" = 1'-0"
140
0.75
141
12.0
290
     0
  0
SCALE
  5
64
102
{ACAD_REACTORS
330
47
102
}
330
47
100
AcDbScale
 70
     0
300
1" = 1'-0"
140
1.0
141
12.0
290
     0
  0
SCALE
  5
65
102
{ACAD_REACTORS
330
47
102
}
330
47
100
AcDbScale
 70
     0
300
1-1/2" = 1'-0"
140
1.5
141
12.0
290
     0
  0
SCALE
  5
66
102
{ACAD_REACTORS
330
47
102
}
330
47
100
AcDbScale
 70
     0
300
3" = 1'-0"
140
3.0
141
12.0
290
     0
  0
SCALE
  5
67
102
{ACAD_REACTORS
330
47
102
}
330
47
100
AcDbScale
 70
     0
300
6" = 1'-0"
140
6.0
141
12.0
290
     0
  0
SCALE
  5
68
102
{ACAD_REACTORS
330
47
102
}
330
47
100
AcDbScale
 70
     0
300
1'-0" = 1'-0"
140
12.0
141
12.0
290
     0
  0
ENDSEC
  0
EOF
