  0
SECTION
  2
HEADER
  9
$ACADVER
  1
AC1015
  9
$ACADMAINTVER
 70
     6
  9
$DWGCODEPAGE
  3
ANSI_949
  9
$INSBASE
 10
0.0
 20
0.0
 30
0.0
  9
$EXTMIN
 10
-70.87500000000014
 20
-49.97180738881174
 30
0.0
  9
$EXTMAX
 10
74.39264644575226
 20
46.55555141807233
 30
0.0
  9
$LIMMIN
 10
0.0
 20
0.0
  9
$LIMMAX
 10
420.0
 20
297.0
  9
$ORTHOMODE
 70
     0
  9
$REGENMODE
 70
     1
  9
$FILLMODE
 70
     1
  9
$QTEXTMODE
 70
     0
  9
$MIRRTEXT
 70
     1
  9
$LTSCALE
 40
1.0
  9
$ATTMODE
 70
     1
  9
$TEXTSIZE
 40
3.5
  9
$TRACEWID
 40
1.0
  9
$TEXTSTYLE
  7
Standard
  9
$CLAYER
  8
0
  9
$CELTYPE
  6
ByLayer
  9
$CECOLOR
 62
   256
  9
$CELTSCALE
 40
1.0
  9
$DISPSILH
 70
     0
  9
$DIMSCALE
 40
1.0
  9
$DIMASZ
 40
3.302
  9
$DIMEXO
 40
1.0
  9
$DIMDLI
 40
3.75
  9
$DIMRND
 40
0.0
  9
$DIMDLE
 40
0.0
  9
$DIMEXE
 40
1.0
  9
$DIMTP
 40
0.0
  9
$DIMTM
 40
0.0
  9
$DIMTXT
 40
3.5
  9
$DIMCEN
 40
2.5
  9
$DIMTSZ
 40
0.0
  9
$DIMTOL
 70
     0
  9
$DIMLIM
 70
     0
  9
$DIMTIH
 70
     1
  9
$DIMTOH
 70
     1
  9
$DIMSE1
 70
     0
  9
$DIMSE2
 70
     0
  9
$DIMTAD
 70
     1
  9
$DIMZIN
 70
     0
  9
$DIMBLK
  1

  9
$DIMASO
 70
     1
  9
$DIMSHO
 70
     1
  9
$DIMPOST
  1

  9
$DIMAPOST
  1

  9
$DIMALT
 70
     0
  9
$DIMALTD
 70
     3
  9
$DIMALTF
 40
0.0393700787401575
  9
$DIMLFAC
 40
1.0
  9
$DIMTOFL
 70
     1
  9
$DIMTVP
 40
0.0
  9
$DIMTIX
 70
     0
  9
$DIMSOXD
 70
     0
  9
$DIMSAH
 70
     0
  9
$DIMBLK1
  1

  9
$DIMBLK2
  1

  9
$DIMSTYLE
  2
ISO-25
  9
$DIMCLRD
 70
     0
  9
$DIMCLRE
 70
     0
  9
$DIMCLRT
 70
     0
  9
$DIMTFAC
 40
1.0
  9
$DIMGAP
 40
1.524
  9
$DIMJUST
 70
     0
  9
$DIMSD1
 70
     0
  9
$DIMSD2
 70
     0
  9
$DIMTOLJ
 70
     0
  9
$DIMTZIN
 70
     0
  9
$DIMALTZ
 70
     0
  9
$DIMALTTZ
 70
     0
  9
$DIMUPT
 70
     0
  9
$DIMDEC
 70
     2
  9
$DIMTDEC
 70
     2
  9
$DIMALTU
 70
     2
  9
$DIMALTTD
 70
     3
  9
$DIMTXSTY
  7
Standard
  9
$DIMAUNIT
 70
     0
  9
$DIMADEC
 70
     2
  9
$DIMALTRND
 40
0.0
  9
$DIMAZIN
 70
     0
  9
$DIMDSEP
 70
    44
  9
$DIMATFIT
 70
     3
  9
$DIMFRAC
 70
     0
  9
$DIMLDRBLK
  1

  9
$DIMLUNIT
 70
     2
  9
$DIMLWD
 70
    -2
  9
$DIMLWE
 70
    -2
  9
$DIMTMOVE
 70
     0
  9
$LUNITS
 70
     2
  9
$LUPREC
 70
     2
  9
$SKETCHINC
 40
1.0
  9
$FILLETRAD
 40
10.0
  9
$AUNITS
 70
     0
  9
$AUPREC
 70
     2
  9
$MENU
  1
.
  9
$ELEVATION
 40
0.0
  9
$PELEVATION
 40
0.0
  9
$THICKNESS
 40
0.0
  9
$LIMCHECK
 70
     0
  9
$CHAMFERA
 40
0.0
  9
$CHAMFERB
 40
0.0
  9
$CHAMFERC
 40
0.0
  9
$CHAMFERD
 40
0.0
  9
$SKPOLY
 70
     0
  9
$TDCREATE
 40
2458236.750529028
  9
$TDUCREATE
 40
2458236.375529028
  9
$TDUPDATE
 40
2459697.443479468
  9
$TDUUPDATE
 40
2459697.068479468
  9
$TDINDWG
 40
0.0135989699
  9
$TDUSRTIMER
 40
0.0000996759
  9
$USRTIMER
 70
     1
  9
$ANGBASE
 50
0.0
  9
$ANGDIR
 70
     0
  9
$PDMODE
 70
     0
  9
$PDSIZE
 40
-1.0
  9
$PLINEWID
 40
0.0
  9
$SPLFRAME
 70
     0
  9
$SPLINETYPE
 70
     6
  9
$SPLINESEGS
 70
     8
  9
$HANDSEED
  5
335
  9
$SURFTAB1
 70
     6
  9
$SURFTAB2
 70
     6
  9
$SURFTYPE
 70
     6
  9
$SURFU
 70
     6
  9
$SURFV
 70
     6
  9
$UCSBASE
  2

  9
$UCSNAME
  2

  9
$UCSORG
 10
0.0
 20
0.0
 30
0.0
  9
$UCSXDIR
 10
1.0
 20
0.0
 30
0.0
  9
$UCSYDIR
 10
0.0
 20
1.0
 30
0.0
  9
$UCSORTHOREF
  2

  9
$UCSORTHOVIEW
 70
     0
  9
$UCSORGTOP
 10
0.0
 20
0.0
 30
0.0
  9
$UCSORGBOTTOM
 10
0.0
 20
0.0
 30
0.0
  9
$UCSORGLEFT
 10
0.0
 20
0.0
 30
0.0
  9
$UCSORGRIGHT
 10
0.0
 20
0.0
 30
0.0
  9
$UCSORGFRONT
 10
0.0
 20
0.0
 30
0.0
  9
$UCSORGBACK
 10
0.0
 20
0.0
 30
0.0
  9
$PUCSBASE
  2

  9
$PUCSNAME
  2

  9
$PUCSORG
 10
0.0
 20
0.0
 30
0.0
  9
$PUCSXDIR
 10
1.0
 20
0.0
 30
0.0
  9
$PUCSYDIR
 10
0.0
 20
1.0
 30
0.0
  9
$PUCSORTHOREF
  2

  9
$PUCSORTHOVIEW
 70
     0
  9
$PUCSORGTOP
 10
0.0
 20
0.0
 30
0.0
  9
$PUCSORGBOTTOM
 10
0.0
 20
0.0
 30
0.0
  9
$PUCSORGLEFT
 10
0.0
 20
0.0
 30
0.0
  9
$PUCSORGRIGHT
 10
0.0
 20
0.0
 30
0.0
  9
$PUCSORGFRONT
 10
0.0
 20
0.0
 30
0.0
  9
$PUCSORGBACK
 10
0.0
 20
0.0
 30
0.0
  9
$USERI1
 70
     0
  9
$USERI2
 70
     0
  9
$USERI3
 70
     0
  9
$USERI4
 70
     0
  9
$USERI5
 70
     0
  9
$USERR1
 40
0.0
  9
$USERR2
 40
0.0
  9
$USERR3
 40
0.0
  9
$USERR4
 40
0.0
  9
$USERR5
 40
0.0
  9
$WORLDVIEW
 70
     1
  9
$SHADEDGE
 70
     3
  9
$SHADEDIF
 70
    70
  9
$TILEMODE
 70
     1
  9
$MAXACTVP
 70
    64
  9
$PINSBASE
 10
0.0
 20
0.0
 30
0.0
  9
$PLIMCHECK
 70
     0
  9
$PEXTMIN
 10
1.000000000000000E+20
 20
1.000000000000000E+20
 30
1.000000000000000E+20
  9
$PEXTMAX
 10
-1.000000000000000E+20
 20
-1.000000000000000E+20
 30
-1.000000000000000E+20
  9
$PLIMMIN
 10
0.0
 20
0.0
  9
$PLIMMAX
 10
0.0
 20
0.0
  9
$UNITMODE
 70
     0
  9
$VISRETAIN
 70
     1
  9
$PLINEGEN
 70
     0
  9
$PSLTSCALE
 70
     1
  9
$TREEDEPTH
 70
  3020
  9
$CMLSTYLE
  2
Standard
  9
$CMLJUST
 70
     0
  9
$CMLSCALE
 40
20.0
  9
$PROXYGRAPHICS
 70
     1
  9
$MEASUREMENT
 70
     1
  9
$CELWEIGHT
370
    -1
  9
$ENDCAPS
280
     0
  9
$JOINSTYLE
280
     0
  9
$LWDISPLAY
290
     1
  9
$INSUNITS
 70
     4
  9
$HYPERLINKBASE
  1

  9
$STYLESHEET
  1

  9
$XEDIT
290
     1
  9
$CEPSNTYPE
380
     0
  9
$PSTYLEMODE
290
     1
  9
$FINGERPRINTGUID
  2
{45684F40-3311-4D41-BF9E-A7B8E53AC08E}
  9
$VERSIONGUID
  2
{FAEB1C32-E019-11D5-929B-00C0DF256EC4}
  9
$EXTNAMES
290
     1
  9
$PSVPSCALE
 40
0.0
  9
$OLESTARTUP
290
     0
  0
ENDSEC
  0
SECTION
  2
CLASSES
  0
CLASS
  1
ACDBDICTIONARYWDFLT
  2
AcDbDictionaryWithDefault
  3
ObjectDBX Classes
 90
        0
280
     0
281
     0
  0
CLASS
  1
VISUALSTYLE
  2
AcDbVisualStyle
  3
ObjectDBX Classes
 90
     4095
280
     0
281
     0
  0
CLASS
  1
MATERIAL
  2
AcDbMaterial
  3
ObjectDBX Classes
 90
     1153
280
     0
281
     0
  0
CLASS
  1
SCALE
  2
AcDbScale
  3
ObjectDBX Classes
 90
     1153
280
     0
281
     0
  0
CLASS
  1
SUN
  2
AcDbSun
  3
SCENEOE
 90
     1153
280
     0
281
     0
  0
CLASS
  1
ACDBPLACEHOLDER
  2
AcDbPlaceHolder
  3
ObjectDBX Classes
 90
        0
280
     0
281
     0
  0
CLASS
  1
LAYOUT
  2
AcDbLayout
  3
ObjectDBX Classes
 90
        0
280
     0
281
     0
  0
CLASS
  1
TABLESTYLE
  2
AcDbTableStyle
  3
ObjectDBX Classes
 90
     4095
280
     0
281
     0
  0
CLASS
  1
MLEADERSTYLE
  2
AcDbMLeaderStyle
  3
ACDB_MLEADERSTYLE_CLASS
 90
     4095
280
     0
281
     0
  0
CLASS
  1
RASTERVARIABLES
  2
AcDbRasterVariables
  3
ISM
 90
        0
280
     0
281
     0
  0
CLASS
  1
DIMASSOC
  2
AcDbDimAssoc
  3
"AcDbDimAssoc|Product Desc:     AcDim ARX App For Dimension|Company:          Autodesk, Inc.|WEB Address:      www.autodesk.com"
 90
        0
280
     0
281
     0
  0
ENDSEC
  0
SECTION
  2
TABLES
  0
TABLE
  2
VPORT
  5
8
330
0
100
AcDbSymbolTable
 70
     1
  0
VPORT
  5
29
330
8
100
AcDbSymbolTableRecord
100
AcDbViewportTableRecord
  2
*Active
 70
     0
 10
0.0
 20
0.0
 11
1.0
 21
1.0
 12
1.75882322287606
 22
-1.708127985369707
 13
0.0
 23
0.0
 14
10.0
 24
10.0
 15
10.0
 25
10.0
 16
0.0
 26
0.0
 36
1.0
 17
0.0
 27
0.0
 37
0.0
 40
98.45790598302175
 41
1.898569570871261
 42
50.0
 43
0.0
 44
0.0
 50
0.0
 51
0.0
 71
    16
 72
  2000
 73
     1
 74
     3
 75
     0
 76
     0
 77
     0
 78
     0
281
     0
 65
     1
110
0.0
120
0.0
130
0.0
111
1.0
121
0.0
131
0.0
112
0.0
122
1.0
132
0.0
 79
     0
146
0.0
  0
ENDTAB
  0
TABLE
  2
LTYPE
  5
5
330
0
100
AcDbSymbolTable
 70
     6
  0
LTYPE
  5
14
330
5
100
AcDbSymbolTableRecord
100
AcDbLinetypeTableRecord
  2
ByBlock
 70
     0
  3

 72
    65
 73
     0
 40
0.0
  0
LTYPE
  5
15
330
5
100
AcDbSymbolTableRecord
100
AcDbLinetypeTableRecord
  2
ByLayer
 70
     0
  3

 72
    65
 73
     0
 40
0.0
  0
LTYPE
  5
16
330
5
100
AcDbSymbolTableRecord
100
AcDbLinetypeTableRecord
  2
Continuous
 70
     0
  3
Solid line
 72
    65
 73
     0
 40
0.0
  0
LTYPE
  5
6A
330
5
100
AcDbSymbolTableRecord
100
AcDbLinetypeTableRecord
  2
HIDDEN
 70
     0
  3
Hidden __ __ __ __ __ __ __ __ __ __ __ __ __ __
 72
    65
 73
     2
 40
1.905
 49
1.27
 74
     0
 49
-0.635
 74
     0
  0
LTYPE
  5
6B
330
5
100
AcDbSymbolTableRecord
100
AcDbLinetypeTableRecord
  2
PHANTOM
 70
     0
  3
Phantom ______  __  __  ______  __  __  ______
 72
    65
 73
     6
 40
12.7
 49
6.35
 74
     0
 49
-1.27
 74
     0
 49
1.27
 74
     0
 49
-1.27
 74
     0
 49
1.27
 74
     0
 49
-1.27
 74
     0
  0
LTYPE
  5
6C
330
5
100
AcDbSymbolTableRecord
100
AcDbLinetypeTableRecord
  2
CENTER
 70
     0
  3
Center ____ _ ____ _ ____ _ ____ _ ____ _ ____
 72
    65
 73
     4
 40
10.16
 49
6.35
 74
     0
 49
-1.27
 74
     0
 49
1.27
 74
     0
 49
-1.27
 74
     0
  0
LTYPE
  5
6D
330
5
100
AcDbSymbolTableRecord
100
AcDbLinetypeTableRecord
  2
CENTERX2
 70
     0
  3
Center (2x) ________  __  ________  __  _____
 72
    65
 73
     4
 40
20.32
 49
12.7
 74
     0
 49
-2.54
 74
     0
 49
2.54
 74
     0
 49
-2.54
 74
     0
  0
LTYPE
  5
6E
330
5
100
AcDbSymbolTableRecord
100
AcDbLinetypeTableRecord
  2
DOT2
 70
     0
  3
Dot (.5x) ........................................
 72
    65
 73
     2
 40
0.635
 49
0.0
 74
     0
 49
-0.635
 74
     0
  0
ENDTAB
  0
TABLE
  2
LAYER
  5
2
102
{ACAD_XDICTIONARY
360
2FE
102
}
330
0
100
AcDbSymbolTable
 70
    17
  0
LAYER
  5
10
330
2
100
AcDbSymbolTableRecord
100
AcDbLayerTableRecord
  2
0
 70
     0
 62
     7
  6
Continuous
370
    -3
390
F
  0
LAYER
  5
6F
330
2
100
AcDbSymbolTableRecord
100
AcDbLayerTableRecord
  2
FORMAT
 70
     0
 62
     2
  6
Continuous
370
    -3
390
F
  0
LAYER
  5
70
330
2
100
AcDbSymbolTableRecord
100
AcDbLayerTableRecord
  2
외형선
 70
     0
 62
   100
  6
Continuous
370
    30
390
F
  0
LAYER
  5
71
330
2
100
AcDbSymbolTableRecord
100
AcDbLayerTableRecord
  2
숨은선
 70
     0
 62
     2
  6
HIDDEN
370
    15
390
F
  0
LAYER
  5
72
330
2
100
AcDbSymbolTableRecord
100
AcDbLayerTableRecord
  2
중심선
 70
     0
 62
     1
  6
CENTERX2
370
    -3
390
F
  0
LAYER
  5
73
330
2
100
AcDbSymbolTableRecord
100
AcDbLayerTableRecord
  2
파단선
 70
     0
 62
     4
  6
Continuous
370
    -3
390
F
  0
LAYER
  5
74
330
2
100
AcDbSymbolTableRecord
100
AcDbLayerTableRecord
  2
해칭선
 70
     0
 62
     4
  6
Continuous
370
    -3
390
F
  0
LAYER
  5
75
330
2
100
AcDbSymbolTableRecord
100
AcDbLayerTableRecord
  2
가는실선
 70
     0
 62
     4
  6
Continuous
370
    -3
390
F
  0
LAYER
  5
76
330
2
100
AcDbSymbolTableRecord
100
AcDbLayerTableRecord
  2
치수_보조선
 70
     0
 62
     4
  6
Continuous
370
    -3
390
F
  0
LAYER
  5
77
330
2
100
AcDbSymbolTableRecord
100
AcDbLayerTableRecord
  2
치수문자_일반주서
 70
     0
 62
     7
  6
Continuous
370
    15
390
F
  0
LAYER
  5
78
330
2
100
AcDbSymbolTableRecord
100
AcDbLayerTableRecord
  2
개별주서
 70
     0
 62
   100
  6
Continuous
370
    30
390
F
  0
LAYER
  5
79
330
2
100
AcDbSymbolTableRecord
100
AcDbLayerTableRecord
  2
중간선
 70
     0
 62
     2
  6
Continuous
370
    15
390
F
  0
LAYER
  5
7A
330
2
100
AcDbSymbolTableRecord
100
AcDbLayerTableRecord
  2
윤곽선
 70
     0
 62
     3
  6
Continuous
370
    40
390
F
  0
LAYER
  5
7B
330
2
100
AcDbSymbolTableRecord
100
AcDbLayerTableRecord
  2
중심마크
 70
     0
 62
   100
  6
Continuous
370
    30
390
F
  0
LAYER
  5
7C
330
2
100
AcDbSymbolTableRecord
100
AcDbLayerTableRecord
  2
가상선
 70
     0
 62
     4
  6
PHANTOM
370
    -3
390
F
  0
LAYER
  5
7D
330
2
100
AcDbSymbolTableRecord
100
AcDbLayerTableRecord
  2
특수지정선
 70
     0
 62
     5
  6
CENTERX2
370
    60
390
F
  0
LAYER
  5
14A
330
2
100
AcDbSymbolTableRecord
100
AcDbLayerTableRecord
  2
Defpoints
 70
     0
 62
     7
  6
Continuous
290
     0
370
    -3
390
F
  0
ENDTAB
  0
TABLE
  2
STYLE
  5
3
330
0
100
AcDbSymbolTable
 70
     2
  0
STYLE
  5
11
330
3
100
AcDbSymbolTableRecord
100
AcDbTextStyleTableRecord
  2
Standard
 70
     0
 40
0.0
 41
1.0
 50
0.0
 71
     0
 42
3.5
  3
txt
  4

  0
STYLE
  5
93
330
3
100
AcDbSymbolTableRecord
100
AcDbTextStyleTableRecord
  2
SLDTEXTSTYLE0
 70
     0
 40
0.0
 41
0.75
 50
0.0
 71
     0
 42
3.5
  3
TXT
  4

  0
ENDTAB
  0
TABLE
  2
VIEW
  5
6
330
0
100
AcDbSymbolTable
 70
     0
  0
ENDTAB
  0
TABLE
  2
UCS
  5
7
330
0
100
AcDbSymbolTable
 70
     0
  0
ENDTAB
  0
TABLE
  2
APPID
  5
9
330
0
100
AcDbSymbolTable
 70
     3
  0
APPID
  5
12
330
9
100
AcDbSymbolTableRecord
100
AcDbRegAppTableRecord
  2
ACAD
 70
     0
  0
APPID
  5
149
330
9
100
AcDbSymbolTableRecord
100
AcDbRegAppTableRecord
  2
ACAD_DSTYLE_DIMRADIAL_EXTENSION
 70
     0
  0
APPID
  5
2A1
330
9
100
AcDbSymbolTableRecord
100
AcDbRegAppTableRecord
  2
PE_DIMMEASUREMENT
 70
     0
  0
ENDTAB
  0
TABLE
  2
DIMSTYLE
  5
A
330
0
100
AcDbSymbolTable
 70
     3
100
AcDbDimStyleTable
  0
DIMSTYLE
105
27
330
A
100
AcDbSymbolTableRecord
100
AcDbDimStyleTableRecord
  2
ISO-25
 70
     0
 41
2.5
 42
0.625
 43
3.75
 44
1.25
 73
     0
 74
     0
 77
     1
 78
     8
140
2.5
141
2.5
143
0.03937007874016
147
0.625
171
     3
172
     1
178
     0
271
     2
272
     2
274
     3
278
    44
283
     0
284
     8
340
11
  0
DIMSTYLE
105
E3
102
{ACAD_REACTORS
330
268
330
269
330
291
330
2A2
102
}
330
A
100
AcDbSymbolTableRecord
100
AcDbDimStyleTableRecord
  2
SLDDIMSTYLE0
 70
     0
 41
3.302
 44
0.0
 45
0.000000001
 73
     0
 74
     0
 77
     1
 78
     4
 79
     1
140
3.5
143
0.0393700787401575
147
0.875
148
0.000000001
170
     1
173
     1
178
     0
271
     2
272
     2
276
     2
284
    12
340
93
  0
DIMSTYLE
105
10A
102
{ACAD_REACTORS
330
26A
102
}
330
A
100
AcDbSymbolTableRecord
100
AcDbDimStyleTableRecord
  2
SLDDIMSTYLE1
 70
     0
 41
3.302
 44
0.0
 45
0.000000001
 73
     0
 74
     0
 77
     1
 78
    12
 79
     3
140
3.5
143
0.0393700787401575
147
0.875
148
0.000000001
170
     1
172
     1
173
     1
178
     0
271
     2
272
     2
276
     2
284
    12
289
     0
340
93
  0
ENDTAB
  0
TABLE
  2
BLOCK_RECORD
  5
1
330
0
100
AcDbSymbolTable
 70
    14
  0
BLOCK_RECORD
  5
1F
102
{ACAD_XDICTIONARY
360
332
102
}
330
1
100
AcDbSymbolTableRecord
100
AcDbBlockTableRecord
  2
*Model_Space
340
22
  0
BLOCK_RECORD
  5
1B
330
1
100
AcDbSymbolTableRecord
100
AcDbBlockTableRecord
  2
*Paper_Space
340
1E
  0
BLOCK_RECORD
  5
23
330
1
100
AcDbSymbolTableRecord
100
AcDbBlockTableRecord
  2
*Paper_Space0
340
26
  0
BLOCK_RECORD
  5
7E
330
1
100
AcDbSymbolTableRecord
100
AcDbBlockTableRecord
  2
블럭10
340
0
102
{BLKREFS
331
DA
102
}
  0
BLOCK_RECORD
  5
E4
330
1
100
AcDbSymbolTableRecord
100
AcDbBlockTableRecord
  2
_D
340
0
  0
BLOCK_RECORD
  5
F7
330
1
100
AcDbSymbolTableRecord
100
AcDbBlockTableRecord
  2
_D_1
340
0
  0
BLOCK_RECORD
  5
10B
330
1
100
AcDbSymbolTableRecord
100
AcDbBlockTableRecord
  2
_D_2
340
0
  0
BLOCK_RECORD
  5
11E
330
1
100
AcDbSymbolTableRecord
100
AcDbBlockTableRecord
  2
SW_DOWELSYMBOL_0
340
0
102
{BLKREFS
331
26B
102
}
  0
BLOCK_RECORD
  5
1FD
330
1
100
AcDbSymbolTableRecord
100
AcDbBlockTableRecord
  2
*D6
340
0
  0
BLOCK_RECORD
  5
209
330
1
100
AcDbSymbolTableRecord
100
AcDbBlockTableRecord
  2
*D7
340
0
  0
BLOCK_RECORD
  5
215
330
1
100
AcDbSymbolTableRecord
100
AcDbBlockTableRecord
  2
*D8
340
0
  0
BLOCK_RECORD
  5
26C
330
1
100
AcDbSymbolTableRecord
100
AcDbBlockTableRecord
  2
*D9
340
0
  0
BLOCK_RECORD
  5
278
330
1
100
AcDbSymbolTableRecord
100
AcDbBlockTableRecord
  2
*D10
340
0
  0
BLOCK_RECORD
  5
284
330
1
100
AcDbSymbolTableRecord
100
AcDbBlockTableRecord
  2
*D11
340
0
  0
BLOCK_RECORD
  5
294
330
1
100
AcDbSymbolTableRecord
100
AcDbBlockTableRecord
  2
*D12
340
0
  0
BLOCK_RECORD
  5
2A5
330
1
100
AcDbSymbolTableRecord
100
AcDbBlockTableRecord
  2
*D13
340
0
  0
ENDTAB
  0
ENDSEC
  0
SECTION
  2
BLOCKS
  0
BLOCK
  5
20
330
1F
100
AcDbEntity
  8
0
100
AcDbBlockBegin
  2
*Model_Space
 70
     0
 10
0.0
 20
0.0
 30
0.0
  3
*Model_Space
  1
*Model_Space
  0
ENDBLK
  5
21
330
1F
100
AcDbEntity
  8
0
100
AcDbBlockEnd
  0
BLOCK
  5
1C
330
1B
100
AcDbEntity
 67
     1
  8
0
100
AcDbBlockBegin
  2
*Paper_Space
 70
     0
 10
0.0
 20
0.0
 30
0.0
  3
*Paper_Space
  1
*Paper_Space
  0
ENDBLK
  5
1D
330
1B
100
AcDbEntity
 67
     1
  8
0
100
AcDbBlockEnd
  0
BLOCK
  5
24
330
23
100
AcDbEntity
  8
0
100
AcDbBlockBegin
  2
*Paper_Space0
 70
     0
 10
0.0
 20
0.0
 30
0.0
  3
*Paper_Space0
  1
*Paper_Space0
  0
ENDBLK
  5
25
330
23
100
AcDbEntity
  8
0
100
AcDbBlockEnd
  0
BLOCK
  5
7F
330
7E
100
AcDbEntity
  8
0
100
AcDbBlockBegin
  2
블럭10
 70
     2
 10
0.0
 20
0.0
 30
0.0
  3
블럭10
  1
블럭10
  0
ELLIPSE
  5
81
330
7E
100
AcDbEntity
  8
중심선
100
AcDbEllipse
 10
20.54032771741204
 20
12.0471743016438
 30
0.0
 11
6.600054785286829
 21
-1.261213355974178E-13
 31
0.0
210
0.0
220
0.0
230
1.0
 40
0.636358354079598
 41
0.9219305317359503
 42
6.513795318482858
  0
ELLIPSE
  5
82
330
7E
100
AcDbEntity
  8
중심선
100
AcDbEllipse
 10
20.54032771746488
 20
12.04717430159265
 30
0.0
 11
3.960054785062283
 21
1.540847449632565E-10
 31
0.0
210
0.0
220
0.0
230
1.0
 40
0.3939339440162632
 41
1.131841032648279
 42
5.62031148352944
  0
LINE
  5
83
330
7E
100
AcDbEntity
  8
중심선
100
AcDbLine
 10
2.268634060543552
 20
16.24717430164393
 30
0.0
 11
5.714909304380834
 21
16.24717430164393
 31
0.0
  0
LINE
  5
84
330
7E
100
AcDbEntity
  8
중심선
100
AcDbLine
 10
5.245725140726316
 20
7.84717430164391
 30
0.0
 11
8.692000384563599
 21
7.84717430164391
 31
0.0
  0
LINE
  5
85
330
7E
100
AcDbEntity
  8
중심선
100
AcDbLine
 10
15.74043728645272
 20
16.24717430164393
 30
0.0
 11
8.692000384563599
 21
7.84717430164391
 31
0.0
  0
LINE
  5
86
330
7E
100
AcDbEntity
  8
중심선
100
AcDbLine
 10
0.1404042013395286
 20
13.71084872107135
 30
0.0
 11
3.58671253028996
 21
13.71088815037384
 31
0.0
  0
LINE
  5
87
330
7E
100
AcDbEntity
  8
중심선
100
AcDbLine
 10
2.750260043222114
 20
10.84717430164391
 30
0.0
 11
6.196535287059397
 21
10.84717430164391
 31
0.0
  0
LINE
  5
88
330
7E
100
AcDbEntity
  8
중심선
100
AcDbLine
 10
12.29416204261559
 20
16.24717430164393
 30
0.0
 11
5.245725140726316
 21
7.84717430164391
 31
0.0
  0
LINE
  5
89
330
7E
100
AcDbEntity
  8
중심선
100
AcDbLine
 10
10.72767329541681
 20
16.24717430164393
 30
0.0
 11
6.196535287059397
 21
10.84717430164391
 31
0.0
  0
LINE
  5
8A
330
7E
100
AcDbEntity
  8
중심선
100
AcDbLine
 10
7.28139805157953
 20
16.24717430164393
 30
0.0
 11
2.750260043222114
 21
10.84717430164391
 31
0.0
  0
LINE
  5
8B
330
7E
100
AcDbEntity
  8
중심선
100
AcDbLine
 10
5.714909304380834
 20
16.24717430164393
 30
0.0
 11
3.58671253028996
 21
13.71088815037384
 31
0.0
  0
LINE
  5
8C
330
7E
100
AcDbEntity
  8
중심선
100
AcDbLine
 10
2.268634060543552
 20
16.24717430164393
 30
0.0
 11
0.1404042013395286
 21
13.71084872107135
 31
0.0
  0
LINE
  5
8D
330
7E
100
AcDbEntity
  8
중심선
100
AcDbLine
 10
7.28139805157953
 20
16.24717430164393
 30
0.0
 11
10.72767329541681
 21
16.24717430164393
 31
0.0
  0
LINE
  5
8E
330
7E
100
AcDbEntity
  8
중심선
100
AcDbLine
 10
12.29416204261559
 20
16.24717430164393
 30
0.0
 11
15.74043728645272
 21
16.24717430164393
 31
0.0
  0
LINE
  5
8F
330
7E
100
AcDbEntity
  8
중심선
100
AcDbLine
 10
19.22036997980202
 20
11.08717430171403
 30
0.0
 11
23.66174974927406
 21
11.08717430171406
 31
0.0
  0
LINE
  5
90
330
7E
100
AcDbEntity
  8
중심선
100
AcDbLine
 10
19.22039502424796
 20
13.00717430171391
 30
0.0
 11
19.22036997980202
 21
11.08717430171403
 31
0.0
  0
LINE
  5
91
330
7E
100
AcDbEntity
  8
중심선
100
AcDbLine
 10
19.22039502424796
 20
13.00717430171391
 30
0.0
 11
26.96566020931264
 21
13.00717430171391
 31
0.0
  0
LINE
  5
92
330
7E
100
AcDbEntity
  8
중심선
100
AcDbLine
 10
22.22332737316547
 20
13.45928029700563
 30
0.0
 11
24.52862924686651
 21
15.39360700705356
 31
0.0
  0
ATTDEF
  5
94
330
7E
100
AcDbEntity
  8
FORMAT
 62
     2
100
AcDbText
 10
-11.05102035218446
 20
2.075366912832191
 30
0.0
 40
4.233333333333333
  1
GMG22943[ 6 FLUTE ]
 41
0.75
  7
SLDTEXTSTYLE0
 11
-11.05102035218446
 21
-0.0412997538344756
 31
0.0
100
AcDbAttributeDefinition
  3

  2
AUTOATTR0
 70
     0
 74
     1
  0
ENDBLK
  5
80
330
7E
100
AcDbEntity
  8
0
100
AcDbBlockEnd
  0
BLOCK
  5
E5
330
E4
100
AcDbEntity
  8
0
100
AcDbBlockBegin
  2
_D
 70
     0
 10
0.0
 20
0.0
 30
0.0
  3
_D
  1
_D
  0
SOLID
  5
E7
330
E4
100
AcDbEntity
  8
치수문자_일반주서
100
AcDbTrace
 10
-47.11334827919202
 20
41.92017339282766
 30
0.0
 11
-43.81134827919202
 21
41.41217339282765
 31
0.0
 12
-43.81134827919202
 22
42.42817339282766
 32
0.0
 13
-43.81134827919202
 23
42.42817339282766
 33
0.0
  0
SOLID
  5
E8
330
E4
100
AcDbEntity
  8
치수문자_일반주서
100
AcDbTrace
 10
54.48665172080796
 20
41.92017339282766
 30
0.0
 11
51.18465172080796
 21
42.42817339282766
 31
0.0
 12
51.18465172080796
 22
41.41217339282765
 32
0.0
 13
51.18465172080796
 23
41.41217339282765
 33
0.0
  0
LINE
  5
E9
330
E4
100
AcDbEntity
  8
치수문자_일반주서
100
AcDbLine
 10
-1.727714361014696
 20
52.71305510887042
 30
0.0
 11
-2.438651846579196
 21
52.71305510887042
 31
0.0
  0
LINE
  5
EA
330
E4
100
AcDbEntity
  8
치수문자_일반주서
100
AcDbLine
 10
-2.438651846579196
 20
52.71305510887042
 30
0.0
 11
-2.438651846579196
 21
47.15680511781112
 31
0.0
  0
LINE
  5
EB
330
E4
100
AcDbEntity
  8
치수문자_일반주서
100
AcDbLine
 10
-2.438651846579196
 20
47.15680511781112
 30
0.0
 11
-1.727714361014696
 21
47.15680511781112
 31
0.0
  0
LINE
  5
EC
330
E4
100
AcDbEntity
  8
치수문자_일반주서
100
AcDbLine
 10
9.101018501122562
 20
52.71305510887042
 30
0.0
 11
9.811955986687062
 21
52.71305510887042
 31
0.0
  0
LINE
  5
ED
330
E4
100
AcDbEntity
  8
치수문자_일반주서
100
AcDbLine
 10
9.811955986687062
 20
52.71305510887042
 30
0.0
 11
9.811955986687062
 21
47.15680511781112
 31
0.0
  0
LINE
  5
EE
330
E4
100
AcDbEntity
  8
치수문자_일반주서
100
AcDbLine
 10
9.811955986687062
 20
47.15680511781112
 30
0.0
 11
9.101018501122562
 21
47.15680511781112
 31
0.0
  0
LINE
  5
EF
330
E4
100
AcDbEntity
  8
치수문자_일반주서
100
AcDbLine
 10
-47.11334827919202
 20
9.764621974755874
 30
0.0
 11
-47.11334827919202
 21
42.92017339282766
 31
0.0
  0
LINE
  5
F0
330
E4
100
AcDbEntity
  8
치수문자_일반주서
100
AcDbLine
 10
54.48665172080796
 20
7.216621974755887
 30
0.0
 11
54.48665172080796
 21
42.92017339282766
 31
0.0
  0
LINE
  5
F1
330
E4
100
AcDbEntity
  8
치수문자_일반주서
100
AcDbLine
 10
-47.11334827919202
 20
41.92017339282766
 30
0.0
 11
54.48665172080796
 21
41.92017339282766
 31
0.0
  0
MTEXT
  5
F2
330
E4
100
AcDbEntity
  8
치수문자_일반주서
100
AcDbMText
 10
-3.405709483518185
 20
46.4853826586894
 30
0.0
 40
3.5
 41
0.0
 71
     1
 72
     1
  1

  7
SLDTEXTSTYLE0
 73
     1
 44
1.0
  0
MTEXT
  5
F3
330
E4
100
AcDbEntity
  8
치수문자_일반주서
100
AcDbMText
 10
-0.8390424604033248
 20
51.66854203239001
 30
0.0
 40
3.5
 41
0.0
 71
     1
 72
     1
  1
4.00
  7
SLDTEXTSTYLE0
 73
     1
 44
1.0
  0
MTEXT
  5
F4
330
E4
100
AcDbEntity
  8
치수문자_일반주서
100
AcDbMText
 10
-3.425153886756779
 20
46.43191048202954
 30
0.0
 40
3.5
 41
0.0
 71
     1
 72
     1
  1
101.60
  7
SLDTEXTSTYLE0
 73
     1
 44
1.0
  0
MTEXT
  5
F5
330
E4
100
AcDbEntity
  8
치수문자_일반주서
100
AcDbMText
 10
12.11095814327997
 20
46.4853826586894
 30
0.0
 40
3.5
 41
0.0
 71
     1
 72
     1
  1

  7
SLDTEXTSTYLE0
 73
     1
 44
1.0
  0
ENDBLK
  5
E6
330
E4
100
AcDbEntity
  8
0
100
AcDbBlockEnd
  0
BLOCK
  5
F8
330
F7
100
AcDbEntity
  8
0
100
AcDbBlockBegin
  2
_D_1
 70
     0
 10
0.0
 20
0.0
 30
0.0
  3
_D_1
  1
_D_1
  0
SOLID
  5
FA
330
F7
100
AcDbEntity
  8
치수문자_일반주서
100
AcDbTrace
 10
54.48665172080795
 20
23.84361650509381
 30
0.0
 11
51.18465172080795
 21
24.35161650509381
 31
0.0
 12
51.18465172080795
 22
23.33561650509381
 32
0.0
 13
51.18465172080795
 23
23.33561650509381
 33
0.0
  0
SOLID
  5
FB
330
F7
100
AcDbEntity
  8
치수문자_일반주서
100
AcDbTrace
 10
16.38665172080795
 20
23.84361650509378
 30
0.0
 11
19.68865172080795
 21
23.33561650509379
 31
0.0
 12
19.68865172080795
 22
24.35161650509379
 32
0.0
 13
19.68865172080795
 23
24.35161650509379
 33
0.0
  0
LINE
  5
FC
330
F7
100
AcDbEntity
  8
치수문자_일반주서
100
AcDbLine
 10
29.60318733683753
 20
34.63649822113658
 30
0.0
 11
28.89224985127303
 21
34.63649822113658
 31
0.0
  0
LINE
  5
FD
330
F7
100
AcDbEntity
  8
치수문자_일반주서
100
AcDbLine
 10
28.89224985127303
 20
34.63649822113658
 30
0.0
 11
28.89224985127307
 21
29.08024823007727
 31
0.0
  0
LINE
  5
FE
330
F7
100
AcDbEntity
  8
치수문자_일반주서
100
AcDbLine
 10
28.89224985127307
 20
29.08024823007727
 30
0.0
 11
29.60318733683757
 21
29.08024823007728
 31
0.0
  0
LINE
  5
FF
330
F7
100
AcDbEntity
  8
치수문자_일반주서
100
AcDbLine
 10
40.43192019897479
 20
34.63649822113666
 30
0.0
 11
41.14285768453929
 21
34.63649822113667
 31
0.0
  0
LINE
  5
100
330
F7
100
AcDbEntity
  8
치수문자_일반주서
100
AcDbLine
 10
41.14285768453929
 20
34.63649822113667
 30
0.0
 11
41.14285768453933
 21
29.08024823007736
 31
0.0
  0
LINE
  5
101
330
F7
100
AcDbEntity
  8
치수문자_일반주서
100
AcDbLine
 10
41.14285768453933
 20
29.08024823007736
 30
0.0
 11
40.43192019897483
 21
29.08024823007736
 31
0.0
  0
LINE
  5
102
330
F7
100
AcDbEntity
  8
치수문자_일반주서
100
AcDbLine
 10
54.48665172080796
 20
7.216621974755887
 30
0.0
 11
54.48665172080795
 21
24.84361650509381
 31
0.0
  0
LINE
  5
103
330
F7
100
AcDbEntity
  8
치수문자_일반주서
100
AcDbLine
 10
16.38665172080796
 20
9.89439336886934
 30
0.0
 11
16.38665172080795
 21
24.84361650509378
 31
0.0
  0
LINE
  5
104
330
F7
100
AcDbEntity
  8
치수문자_일반주서
100
AcDbLine
 10
54.48665172080795
 20
23.84361650509381
 30
0.0
 11
16.38665172080795
 21
23.84361650509378
 31
0.0
  0
MTEXT
  5
105
330
F7
100
AcDbEntity
  8
치수문자_일반주서
100
AcDbMText
 10
28.37849112578638
 20
28.40882577095554
 30
0.0
 40
3.5
 41
0.0
 71
     1
 72
     1
  1

  7
SLDTEXTSTYLE0
 73
     1
 44
1.0
  0
MTEXT
  5
106
330
F7
100
AcDbEntity
  8
치수문자_일반주서
100
AcDbMText
 10
30.4918592374489
 20
33.59198514465617
 30
0.0
 40
3.5
 41
0.0
 71
     1
 72
     1
  1
1.50
  7
SLDTEXTSTYLE0
 73
     1
 44
1.0
  0
MTEXT
  5
107
330
F7
100
AcDbEntity
  8
치수문자_일반주서
100
AcDbMText
 10
29.19880352427222
 20
28.35535359429569
 30
0.0
 40
3.5
 41
0.0
 71
     1
 72
     1
  1
38.10
  7
SLDTEXTSTYLE0
 73
     1
 44
1.0
  0
MTEXT
  5
108
330
F7
100
AcDbEntity
  8
치수문자_일반주서
100
AcDbMText
 10
42.98856092967995
 20
28.40882577095565
 30
0.0
 40
3.5
 41
0.0
 71
     1
 72
     1
  1

  7
SLDTEXTSTYLE0
 73
     1
 44
1.0
  0
ENDBLK
  5
F9
330
F7
100
AcDbEntity
  8
0
100
AcDbBlockEnd
  0
BLOCK
  5
10C
330
10B
100
AcDbEntity
  8
0
100
AcDbBlockBegin
  2
_D_2
 70
     0
 10
0.0
 20
0.0
 30
0.0
  3
_D_2
  1
_D_2
  0
SOLID
  5
10E
330
10B
100
AcDbEntity
  8
치수문자_일반주서
100
AcDbTrace
 10
-60.11334827919205
 20
9.26462197475588
 30
0.0
 11
-59.60534827919205
 21
12.56662197475588
 31
0.0
 12
-60.62134827919206
 22
12.56662197475588
 32
0.0
 13
-60.62134827919206
 23
12.56662197475588
 33
0.0
  0
SOLID
  5
10F
330
10B
100
AcDbEntity
  8
치수문자_일반주서
100
AcDbTrace
 10
-60.11334827919205
 20
-9.785378025244121
 30
0.0
 11
-60.62134827919206
 21
-13.08737802524412
 31
0.0
 12
-59.60534827919205
 22
-13.08737802524412
 32
0.0
 13
-59.60534827919205
 23
-13.08737802524412
 33
0.0
  0
LINE
  5
110
330
10B
100
AcDbEntity
  8
치수문자_일반주서
100
AcDbLine
 10
-70.90622999523478
 20
-5.674744456312825
 30
0.0
 11
-70.90622999523478
 21
-6.385681941877325
 31
0.0
  0
LINE
  5
111
330
10B
100
AcDbEntity
  8
치수문자_일반주서
100
AcDbLine
 10
-70.90622999523478
 20
-6.385681941877325
 30
0.0
 11
-65.34998000417548
 21
-6.385681941877286
 31
0.0
  0
LINE
  5
112
330
10B
100
AcDbEntity
  8
치수문자_일반주서
100
AcDbLine
 10
-65.34998000417548
 20
-6.385681941877286
 30
0.0
 11
-65.34998000417548
 21
-5.674744456312786
 31
0.0
  0
LINE
  5
113
330
10B
100
AcDbEntity
  8
치수문자_일반주서
100
AcDbLine
 10
-70.90622999523487
 20
5.153988405824433
 30
0.0
 11
-70.90622999523487
 21
5.864925891388933
 31
0.0
  0
LINE
  5
114
330
10B
100
AcDbEntity
  8
치수문자_일반주서
100
AcDbLine
 10
-70.90622999523487
 20
5.864925891388933
 30
0.0
 11
-65.34998000417556
 21
5.864925891388972
 31
0.0
  0
LINE
  5
115
330
10B
100
AcDbEntity
  8
치수문자_일반주서
100
AcDbLine
 10
-65.34998000417556
 20
5.864925891388972
 30
0.0
 11
-65.34998000417556
 21
5.153988405824472
 31
0.0
  0
LINE
  5
116
330
10B
100
AcDbEntity
  8
치수문자_일반주서
100
AcDbLine
 10
-47.61334827919203
 20
9.264621974755881
 30
0.0
 11
-61.11334827919205
 21
9.26462197475588
 31
0.0
  0
LINE
  5
117
330
10B
100
AcDbEntity
  8
치수문자_일반주서
100
AcDbLine
 10
-47.61334827919203
 20
-9.78537802524412
 30
0.0
 11
-61.11334827919205
 21
-9.785378025244121
 31
0.0
  0
LINE
  5
118
330
10B
100
AcDbEntity
  8
치수문자_일반주서
100
AcDbLine
 10
-60.11334827919205
 20
9.26462197475588
 30
0.0
 11
-60.11334827919205
 21
15.61462197475588
 31
0.0
  0
LINE
  5
119
330
10B
100
AcDbEntity
  8
치수문자_일반주서
100
AcDbLine
 10
-60.11334827919205
 20
9.26462197475588
 30
0.0
 11
-60.11334827919205
 21
-9.785378025244121
 31
0.0
  0
LINE
  5
11A
330
10B
100
AcDbEntity
  8
치수문자_일반주서
100
AcDbLine
 10
-60.11334827919205
 20
-9.785378025244121
 30
0.0
 11
-60.11334827919205
 21
-16.13537802524412
 31
0.0
  0
MTEXT
  5
11B
330
10B
100
AcDbEntity
  8
치수문자_일반주서
100
AcDbMText
 10
-69.8617169187544
 20
-4.786072555701447
 30
0.0
 40
3.5
 41
0.0
 71
     1
 72
     1
  1
0.75
  7
SLDTEXTSTYLE0
 11
-7.044195017643634E-15
 21
1.0
 31
0.0
 73
     1
 44
1.0
  0
MTEXT
  5
11C
330
10B
100
AcDbEntity
  8
치수문자_일반주서
100
AcDbMText
 10
-64.6250853683939
 20
-8.718346968065179
 30
0.0
 40
3.5
 41
0.0
 71
     1
 72
     1
  1
%%c
  7
SLDTEXTSTYLE0
 11
-7.044195017643634E-15
 21
1.0
 31
0.0
 73
     1
 44
1.0
  0
MTEXT
  5
11D
330
10B
100
AcDbEntity
  8
치수문자_일반주서
100
AcDbMText
 10
-64.62508536839393
 20
-3.439909569691098
 30
0.0
 40
3.5
 41
0.0
 71
     1
 72
     1
  1
19.05
  7
SLDTEXTSTYLE0
 11
-7.044195017643634E-15
 21
1.0
 31
0.0
 73
     1
 44
1.0
  0
ENDBLK
  5
10D
330
10B
100
AcDbEntity
  8
0
100
AcDbBlockEnd
  0
BLOCK
  5
11F
330
11E
100
AcDbEntity
  8
0
100
AcDbBlockBegin
  2
SW_DOWELSYMBOL_0
 70
     0
 10
0.0
 20
0.0
 30
0.0
  3
SW_DOWELSYMBOL_0
  1
SW_DOWELSYMBOL_0
  0
CIRCLE
  5
121
330
11E
100
AcDbEntity
  8
외형선
 62
     0
100
AcDbCircle
 10
0.0
 20
0.0
 30
0.0
 40
3.000000000000001
  0
HATCH
  5
122
330
11E
100
AcDbEntity
  8
0
  6
Continuous
 62
     0
370
    30
100
AcDbHatch
 10
0.0
 20
0.0
 30
0.0
210
0.0
220
0.0
230
1.0
  2
SOLID
 70
     1
 71
     0
 91
        1
 92
        0
 93
        3
 72
     2
 10
0.0
 20
0.0
 40
3.000000000000001
 50
0.0
 51
90.0
 73
     1
 72
     1
 10
0.0
 20
3.000000000000001
 11
0.0
 21
0.0
 72
     1
 10
0.0
 20
0.0
 11
3.000000000000003
 21
0.0
 97
        0
 75
     0
 76
     1
 98
        1
 10
0.0
 20
0.0
  0
HATCH
  5
123
330
11E
100
AcDbEntity
  8
0
  6
Continuous
 62
     0
370
    30
100
AcDbHatch
 10
0.0
 20
0.0
 30
0.0
210
0.0
220
0.0
230
1.0
  2
SOLID
 70
     1
 71
     0
 91
        1
 92
        0
 93
        3
 72
     2
 10
0.0
 20
0.0
 40
3.000000000000001
 50
180.0
 51
270.0000000000007
 73
     1
 72
     1
 10
0.0
 20
-3.000000000000001
 11
0.0
 21
0.0
 72
     1
 10
0.0
 20
0.0
 11
-3.000000000000003
 21
0.0
 97
        0
 75
     0
 76
     1
 98
        1
 10
0.0
 20
0.0
  0
ENDBLK
  5
120
330
11E
100
AcDbEntity
  8
0
100
AcDbBlockEnd
  0
BLOCK
  5
1FE
330
1FD
100
AcDbEntity
  8
0
100
AcDbBlockBegin
  2
*D6
 70
     1
 10
0.0
 20
0.0
 30
0.0
  3
*D6
  1
*D7
  0
LINE
  5
200
330
1FD
100
AcDbEntity
  8
치수문자_일반주서
 62
     0
370
    -2
100
AcDbLine
 10
17.37500000000005
 20
22.21250000000001
 30
0.0
 11
17.37500000000006
 21
55.3055514180718
 31
0.0
  0
LINE
  5
201
330
1FD
100
AcDbEntity
  8
치수문자_일반주서
 62
     0
370
    -2
100
AcDbLine
 10
118.9750000000001
 20
20.42650000000002
 30
0.0
 11
118.9750000000001
 21
55.3055514180718
 31
0.0
  0
LINE
  5
202
330
1FD
100
AcDbEntity
  8
치수문자_일반주서
 62
     0
370
    -2
100
AcDbLine
 10
20.67700000000006
 20
55.3055514180718
 30
0.0
 11
115.6730000000001
 21
55.3055514180718
 31
0.0
  0
SOLID
  5
203
330
1FD
100
AcDbEntity
  8
치수문자_일반주서
 62
     0
100
AcDbTrace
 10
20.67700000000006
 20
55.85588475140514
 30
0.0
 11
20.67700000000006
 21
54.75521808473847
 31
0.0
 12
17.37500000000006
 22
55.3055514180718
 32
0.0
 13
17.37500000000006
 23
55.3055514180718
 33
0.0
  0
SOLID
  5
204
330
1FD
100
AcDbEntity
  8
치수문자_일반주서
 62
     0
100
AcDbTrace
 10
115.6730000000001
 20
54.75521808473847
 30
0.0
 11
115.6730000000001
 21
55.85588475140514
 31
0.0
 12
118.9750000000001
 22
55.3055514180718
 32
0.0
 13
118.9750000000001
 23
55.3055514180718
 33
0.0
  0
MTEXT
  5
205
330
1FD
100
AcDbEntity
  8
치수문자_일반주서
 62
     0
100
AcDbMText
 10
68.17500000000005
 20
59.6805514180718
 30
0.0
 40
3.5
 41
0.0
 71
     2
 72
     1
  1
\A1;101.60 [4.00]
  7
SLDTEXTSTYLE0
 73
     1
 44
1.0
  0
POINT
  5
206
330
1FD
100
AcDbEntity
  8
Defpoints
 62
     0
100
AcDbPoint
 10
17.37500000000005
 20
22.15000000000001
 30
0.0
  0
POINT
  5
207
330
1FD
100
AcDbEntity
  8
Defpoints
 62
     0
100
AcDbPoint
 10
118.9750000000001
 20
20.36400000000002
 30
0.0
  0
POINT
  5
208
330
1FD
100
AcDbEntity
  8
Defpoints
 62
     0
100
AcDbPoint
 10
118.9750000000001
 20
55.3055514180718
 30
0.0
  0
ENDBLK
  5
1FF
330
1FD
100
AcDbEntity
  8
0
100
AcDbBlockEnd
  0
BLOCK
  5
20A
330
209
100
AcDbEntity
  8
0
100
AcDbBlockBegin
  2
*D7
 70
     1
 10
0.0
 20
0.0
 30
0.0
  3
*D7
  1
*D8
  0
LINE
  5
20C
330
209
100
AcDbEntity
  8
치수문자_일반주서
 62
     0
370
    -2
100
AcDbLine
 10
118.9750000000001
 20
20.42650000000002
 30
0.0
 11
118.9750000000001
 21
37.99099453033794
 31
0.0
  0
LINE
  5
20D
330
209
100
AcDbEntity
  8
치수문자_일반주서
 62
     0
370
    -2
100
AcDbLine
 10
80.87500000000004
 20
22.34227139411347
 30
0.0
 11
80.87500000000004
 21
37.99099453033794
 31
0.0
  0
LINE
  5
20E
330
209
100
AcDbEntity
  8
치수문자_일반주서
 62
     0
370
    -2
100
AcDbLine
 10
115.6730000000001
 20
37.99099453033794
 30
0.0
 11
84.17700000000005
 21
37.99099453033794
 31
0.0
  0
SOLID
  5
20F
330
209
100
AcDbEntity
  8
치수문자_일반주서
 62
     0
100
AcDbTrace
 10
115.6730000000001
 20
37.4406611970046
 30
0.0
 11
115.6730000000001
 21
38.54132786367127
 31
0.0
 12
118.9750000000001
 22
37.99099453033794
 32
0.0
 13
118.9750000000001
 23
37.99099453033794
 33
0.0
  0
SOLID
  5
210
330
209
100
AcDbEntity
  8
치수문자_일반주서
 62
     0
100
AcDbTrace
 10
84.17700000000005
 20
38.54132786367127
 30
0.0
 11
84.17700000000005
 21
37.4406611970046
 31
0.0
 12
80.87500000000004
 22
37.99099453033794
 32
0.0
 13
80.87500000000004
 23
37.99099453033794
 33
0.0
  0
MTEXT
  5
211
330
209
100
AcDbEntity
  8
치수문자_일반주서
 62
     0
100
AcDbMText
 10
99.50590169785227
 20
42.36599453033794
 30
0.0
 40
3.5
 41
0.0
 71
     2
 72
     1
  1
\A1;38.10 [1.50]
  7
SLDTEXTSTYLE0
 73
     1
 44
1.0
  0
POINT
  5
212
330
209
100
AcDbEntity
  8
Defpoints
 62
     0
100
AcDbPoint
 10
118.9750000000001
 20
20.36400000000002
 30
0.0
  0
POINT
  5
213
330
209
100
AcDbEntity
  8
Defpoints
 62
     0
100
AcDbPoint
 10
80.87500000000004
 20
22.27977139411347
 30
0.0
  0
POINT
  5
214
330
209
100
AcDbEntity
  8
Defpoints
 62
     0
100
AcDbPoint
 10
80.87500000000004
 20
37.99099453033793
 30
0.0
  0
ENDBLK
  5
20B
330
209
100
AcDbEntity
  8
0
100
AcDbBlockEnd
  0
BLOCK
  5
216
330
215
100
AcDbEntity
  8
0
100
AcDbBlockBegin
  2
*D8
 70
     1
 10
0.0
 20
0.0
 30
0.0
  3
*D8
  1
*D9
  0
LINE
  5
218
330
215
100
AcDbEntity
  8
치수문자_일반주서
 62
     0
370
    -2
100
AcDbLine
 10
17.81250000000005
 20
22.65000000000002
 30
0.0
 11
4.374999999999996
 21
22.64999999999997
 31
0.0
  0
LINE
  5
219
330
215
100
AcDbEntity
  8
치수문자_일반주서
 62
     0
370
    -2
100
AcDbLine
 10
17.81250000000005
 20
3.600000000000015
 30
0.0
 11
4.375000000000062
 21
3.599999999999966
 31
0.0
  0
LINE
  5
21A
330
215
100
AcDbEntity
  8
치수문자_일반주서
 62
     0
370
    -2
100
AcDbLine
 10
4.375000000000007
 20
19.34799999999997
 30
0.0
 11
4.375000000000051
 21
6.901999999999965
 31
0.0
  0
SOLID
  5
21B
330
215
100
AcDbEntity
  8
치수문자_일반주서
 62
     0
100
AcDbTrace
 10
4.925333333333341
 20
19.34799999999997
 30
0.0
 11
3.824666666666674
 21
19.34799999999996
 31
0.0
 12
4.374999999999996
 22
22.64999999999997
 32
0.0
 13
4.374999999999996
 23
22.64999999999997
 33
0.0
  0
SOLID
  5
21C
330
215
100
AcDbEntity
  8
치수문자_일반주서
 62
     0
100
AcDbTrace
 10
3.824666666666718
 20
6.901999999999964
 30
0.0
 11
4.925333333333384
 21
6.901999999999967
 31
0.0
 12
4.375000000000062
 22
3.599999999999966
 32
0.0
 13
4.375000000000062
 23
3.599999999999966
 33
0.0
  0
MTEXT
  5
21D
330
215
100
AcDbEntity
  8
치수문자_일반주서
 62
     0
100
AcDbMText
 10
0.0000000000000284
 20
13.125
 30
0.0
 40
3.5
 41
0.0
 71
     2
 72
     1
  1
\A1;%%c19.05 [0.75]
  7
SLDTEXTSTYLE0
 11
-3.496765431890257E-15
 21
1.0
 31
0.0
 73
     1
 44
1.0
  0
POINT
  5
21E
330
215
100
AcDbEntity
  8
Defpoints
 62
     0
100
AcDbPoint
 10
17.87500000000005
 20
22.65000000000002
 30
0.0
  0
POINT
  5
21F
330
215
100
AcDbEntity
  8
Defpoints
 62
     0
100
AcDbPoint
 10
17.87500000000005
 20
3.600000000000016
 30
0.0
  0
POINT
  5
220
330
215
100
AcDbEntity
  8
Defpoints
 62
     0
100
AcDbPoint
 10
4.375000000000028
 20
3.599999999999965
 30
0.0
  0
ENDBLK
  5
217
330
215
100
AcDbEntity
  8
0
100
AcDbBlockEnd
  0
BLOCK
  5
26D
330
26C
100
AcDbEntity
  8
0
100
AcDbBlockBegin
  2
*D9
 70
     1
 10
0.0
 20
0.0
 30
0.0
  3
*D9
  1
*D10
  0
LINE
  5
26F
330
26C
100
AcDbEntity
  8
치수문자_일반주서
 62
     0
370
    -2
100
AcDbLine
 10
-53.50000000000006
 20
9.087500000000531
 30
0.0
 11
-53.50000000000006
 21
42.18055141807233
 31
0.0
  0
LINE
  5
270
330
26C
100
AcDbEntity
  8
치수문자_일반주서
 62
     0
370
    -2
100
AcDbLine
 10
48.09999999999994
 20
7.301500000000544
 30
0.0
 11
48.09999999999994
 21
42.18055141807233
 31
0.0
  0
LINE
  5
271
330
26C
100
AcDbEntity
  8
치수문자_일반주서
 62
     0
370
    -2
100
AcDbLine
 10
-50.19800000000006
 20
42.18055141807233
 30
0.0
 11
44.79799999999994
 21
42.18055141807233
 31
0.0
  0
SOLID
  5
272
330
26C
100
AcDbEntity
  8
치수문자_일반주서
 62
     0
100
AcDbTrace
 10
-50.19800000000006
 20
42.73088475140566
 30
0.0
 11
-50.19800000000006
 21
41.63021808473899
 31
0.0
 12
-53.50000000000006
 22
42.18055141807233
 32
0.0
 13
-53.50000000000006
 23
42.18055141807233
 33
0.0
  0
SOLID
  5
273
330
26C
100
AcDbEntity
  8
치수문자_일반주서
 62
     0
100
AcDbTrace
 10
44.79799999999994
 20
41.63021808473899
 30
0.0
 11
44.79799999999994
 21
42.73088475140566
 31
0.0
 12
48.09999999999994
 22
42.18055141807233
 32
0.0
 13
48.09999999999994
 23
42.18055141807233
 33
0.0
  0
MTEXT
  5
274
330
26C
100
AcDbEntity
  8
치수문자_일반주서
 62
     0
100
AcDbMText
 10
-2.70000000000006
 20
46.55555141807233
 30
0.0
 40
3.5
 41
0.0
 71
     2
 72
     1
  1
\A1;101.60 [4]
  7
SLDTEXTSTYLE0
 73
     1
 44
1.0
  0
POINT
  5
275
330
26C
100
AcDbEntity
  8
Defpoints
 62
     0
100
AcDbPoint
 10
-53.50000000000006
 20
9.025000000000531
 30
0.0
  0
POINT
  5
276
330
26C
100
AcDbEntity
  8
Defpoints
 62
     0
100
AcDbPoint
 10
48.09999999999994
 20
7.239000000000544
 30
0.0
  0
POINT
  5
277
330
26C
100
AcDbEntity
  8
Defpoints
 62
     0
100
AcDbPoint
 10
48.09999999999994
 20
42.18055141807233
 30
0.0
  0
ENDBLK
  5
26E
330
26C
100
AcDbEntity
  8
0
100
AcDbBlockEnd
  0
BLOCK
  5
279
330
278
100
AcDbEntity
  8
0
100
AcDbBlockBegin
  2
*D10
 70
     1
 10
0.0
 20
0.0
 30
0.0
  3
*D10
  1
*D11
  0
LINE
  5
27B
330
278
100
AcDbEntity
  8
치수문자_일반주서
 62
     0
370
    -2
100
AcDbLine
 10
48.09999999999994
 20
7.301500000000544
 30
0.0
 11
48.09999999999994
 21
24.86599453033845
 31
0.0
  0
LINE
  5
27C
330
278
100
AcDbEntity
  8
치수문자_일반주서
 62
     0
370
    -2
100
AcDbLine
 10
9.999999999999929
 20
-9.092271394112913
 30
0.0
 11
9.999999999999929
 21
24.86599453033845
 31
0.0
  0
LINE
  5
27D
330
278
100
AcDbEntity
  8
치수문자_일반주서
 62
     0
370
    -2
100
AcDbLine
 10
44.79799999999994
 20
24.86599453033845
 30
0.0
 11
13.30199999999993
 21
24.86599453033845
 31
0.0
  0
SOLID
  5
27E
330
278
100
AcDbEntity
  8
치수문자_일반주서
 62
     0
100
AcDbTrace
 10
44.79799999999994
 20
24.31566119700512
 30
0.0
 11
44.79799999999994
 21
25.41632786367179
 31
0.0
 12
48.09999999999994
 22
24.86599453033845
 32
0.0
 13
48.09999999999994
 23
24.86599453033845
 33
0.0
  0
SOLID
  5
27F
330
278
100
AcDbEntity
  8
치수문자_일반주서
 62
     0
100
AcDbTrace
 10
13.30199999999993
 20
25.41632786367179
 30
0.0
 11
13.30199999999993
 21
24.31566119700512
 31
0.0
 12
9.999999999999929
 22
24.86599453033845
 32
0.0
 13
9.999999999999929
 23
24.86599453033845
 33
0.0
  0
MTEXT
  5
280
330
278
100
AcDbEntity
  8
치수문자_일반주서
 62
     0
100
AcDbMText
 10
28.63090169785215
 20
29.24099453033845
 30
0.0
 40
3.5
 41
0.0
 71
     2
 72
     1
  1
\A1;38.10 [1 1/2]
  7
SLDTEXTSTYLE0
 73
     1
 44
1.0
  0
POINT
  5
281
330
278
100
AcDbEntity
  8
Defpoints
 62
     0
100
AcDbPoint
 10
48.09999999999994
 20
7.239000000000544
 30
0.0
  0
POINT
  5
282
330
278
100
AcDbEntity
  8
Defpoints
 62
     0
100
AcDbPoint
 10
9.999999999999929
 20
-9.154771394112913
 30
0.0
  0
POINT
  5
283
330
278
100
AcDbEntity
  8
Defpoints
 62
     0
100
AcDbPoint
 10
9.999999999999929
 20
24.86599453033845
 30
0.0
  0
ENDBLK
  5
27A
330
278
100
AcDbEntity
  8
0
100
AcDbBlockEnd
  0
BLOCK
  5
285
330
284
100
AcDbEntity
  8
0
100
AcDbBlockBegin
  2
*D11
 70
     1
 10
0.0
 20
0.0
 30
0.0
  3
*D11
  1
*D12
  0
LINE
  5
287
330
284
100
AcDbEntity
  8
치수문자_일반주서
 62
     0
370
    -2
100
AcDbLine
 10
-53.06250000000006
 20
9.525000000000546
 30
0.0
 11
-66.50000000000011
 21
9.525000000000496
 31
0.0
  0
LINE
  5
288
330
284
100
AcDbEntity
  8
치수문자_일반주서
 62
     0
370
    -2
100
AcDbLine
 10
-53.06250000000006
 20
-9.524999999999451
 30
0.0
 11
-66.50000000000004
 21
-9.524999999999501
 31
0.0
  0
LINE
  5
289
330
284
100
AcDbEntity
  8
치수문자_일반주서
 62
     0
370
    -2
100
AcDbLine
 10
-66.5000000000001
 20
6.223000000000496
 30
0.0
 11
-66.50000000000006
 21
-6.222999999999502
 31
0.0
  0
SOLID
  5
28A
330
284
100
AcDbEntity
  8
치수문자_일반주서
 62
     0
100
AcDbTrace
 10
-65.94966666666677
 20
6.223000000000498
 30
0.0
 11
-67.05033333333343
 21
6.223000000000495
 31
0.0
 12
-66.50000000000011
 22
9.525000000000496
 32
0.0
 13
-66.50000000000011
 23
9.525000000000496
 33
0.0
  0
SOLID
  5
28B
330
284
100
AcDbEntity
  8
치수문자_일반주서
 62
     0
100
AcDbTrace
 10
-67.05033333333338
 20
-6.222999999999503
 30
0.0
 11
-65.94966666666673
 21
-6.2229999999995
 31
0.0
 12
-66.50000000000004
 22
-9.524999999999501
 32
0.0
 13
-66.50000000000004
 23
-9.524999999999501
 33
0.0
  0
MTEXT
  5
28C
330
284
100
AcDbEntity
  8
치수문자_일반주서
 62
     0
100
AcDbMText
 10
-70.87500000000009
 20
0.0000000000005237
 30
0.0
 40
3.5
 41
0.0
 71
     2
 72
     1
  1
\A1;%%c19.05 [3/4]
  7
SLDTEXTSTYLE0
 11
-3.729883127349608E-15
 21
1.0
 31
0.0
 73
     1
 44
1.0
  0
POINT
  5
28D
330
284
100
AcDbEntity
  8
Defpoints
 62
     0
100
AcDbPoint
 10
-53.00000000000006
 20
9.525000000000546
 30
0.0
  0
POINT
  5
28E
330
284
100
AcDbEntity
  8
Defpoints
 62
     0
100
AcDbPoint
 10
-53.00000000000006
 20
-9.524999999999451
 30
0.0
  0
POINT
  5
28F
330
284
100
AcDbEntity
  8
Defpoints
 62
     0
100
AcDbPoint
 10
-66.50000000000004
 20
-9.524999999999501
 30
0.0
  0
ENDBLK
  5
286
330
284
100
AcDbEntity
  8
0
100
AcDbBlockEnd
  0
BLOCK
  5
295
330
294
100
AcDbEntity
  8
0
100
AcDbBlockBegin
  2
*D12
 70
     1
 10
0.0
 20
0.0
 30
0.0
  3
*D12
  1
*D13
  0
LINE
  5
297
330
294
100
AcDbEntity
  8
치수문자_일반주서
 62
     0
370
    -2
100
AcDbLine
 10
45.87649999999994
 20
9.525000000000546
 30
0.0
 11
66.44566717283617
 21
9.525000000000544
 31
0.0
  0
LINE
  5
298
330
294
100
AcDbEntity
  8
치수문자_일반주서
 62
     0
370
    -2
100
AcDbLine
 10
45.87649999999994
 20
-9.524999999999451
 30
0.0
 11
66.44566717283617
 21
-9.524999999999453
 31
0.0
  0
LINE
  5
299
330
294
100
AcDbEntity
  8
치수문자_일반주서
 62
     0
370
    -2
100
AcDbLine
 10
66.44566717283617
 20
6.223000000000544
 30
0.0
 11
66.44566717283617
 21
-6.222999999999454
 31
0.0
  0
SOLID
  5
29A
330
294
100
AcDbEntity
  8
치수문자_일반주서
 62
     0
100
AcDbTrace
 10
66.9960005061695
 20
6.223000000000544
 30
0.0
 11
65.89533383950284
 21
6.223000000000544
 31
0.0
 12
66.44566717283617
 22
9.525000000000544
 32
0.0
 13
66.44566717283617
 23
9.525000000000544
 33
0.0
  0
SOLID
  5
29B
330
294
100
AcDbEntity
  8
치수문자_일반주서
 62
     0
100
AcDbTrace
 10
65.89533383950284
 20
-6.222999999999454
 30
0.0
 11
66.9960005061695
 21
-6.222999999999454
 31
0.0
 12
66.44566717283617
 22
-9.524999999999453
 32
0.0
 13
66.44566717283617
 23
-9.524999999999453
 33
0.0
  0
MTEXT
  5
29C
330
294
100
AcDbEntity
  8
치수문자_일반주서
 62
     0
100
AcDbMText
 10
63.82066717283617
 20
0.00000000000054
 30
0.0
 40
3.5
 41
0.0
 71
     5
 72
     1
  1
\A1;{%%c19.05 [3/4]}
  7
SLDTEXTSTYLE0
 11
0.0
 21
1.0
 31
0.0
 73
     1
 44
1.0
  0
POINT
  5
29D
330
294
100
AcDbEntity
  8
Defpoints
 62
     0
100
AcDbPoint
 10
45.81399999999994
 20
9.525000000000546
 30
0.0
  0
POINT
  5
29E
330
294
100
AcDbEntity
  8
Defpoints
 62
     0
100
AcDbPoint
 10
45.81399999999994
 20
-9.524999999999451
 30
0.0
  0
POINT
  5
29F
330
294
100
AcDbEntity
  8
Defpoints
 62
     0
100
AcDbPoint
 10
66.44566717283617
 20
-9.524999999999453
 30
0.0
  0
ENDBLK
  5
296
330
294
100
AcDbEntity
  8
0
100
AcDbBlockEnd
  0
BLOCK
  5
2A6
330
2A5
100
AcDbEntity
  8
0
100
AcDbBlockBegin
  2
*D13
 70
     1
 10
0.0
 20
0.0
 30
0.0
  3
*D13
  1
*D14
  0
LINE
  5
2A8
330
2A5
100
AcDbEntity
  8
치수문자_일반주서
 62
     0
370
    -2
100
AcDbLine
 10
49.76140755577519
 20
11.19421397507299
 30
0.0
 11
74.39264644575228
 21
35.87416376603193
 31
0.0
  0
MTEXT
  5
2A9
330
2A5
100
AcDbEntity
  8
치수문자_일반주서
 62
     0
100
AcDbMText
 10
61.56326021003294
 20
26.73538921047826
 30
0.0
 40
3.5
 41
0.0
 71
     5
 72
     1
  1
\A1;R2.29 [R0.090]
  7
SLDTEXTSTYLE0
 11
0.7064079376834751
 21
0.7078049346944252
 31
0.0
 73
     1
 44
1.0
  0
SOLID
  5
2AA
330
2A5
100
AcDbEntity
  8
치수문자_일반주서
 62
     0
100
AcDbTrace
 10
49.37187890671503
 20
11.58297381011147
 30
0.0
 11
50.15093620483536
 21
10.80545414003452
 31
0.0
 12
47.42884854554436
 22
8.857042080712002
 32
0.0
 13
47.42884854554436
 23
8.857042080712002
 33
0.0
  0
LINE
  5
2AB
330
2A5
100
AcDbEntity
  8
치수문자_일반주서
 62
     0
100
AcDbLine
 10
45.72399999999993
 20
7.239000000000544
 30
0.0
 11
45.90399999999994
 21
7.239000000000544
 31
0.0
  0
LINE
  5
2AC
330
2A5
100
AcDbEntity
  8
치수문자_일반주서
 62
     0
100
AcDbLine
 10
45.81399999999994
 20
7.149000000000544
 30
0.0
 11
45.81399999999994
 21
7.329000000000544
 31
0.0
  0
POINT
  5
2AD
330
2A5
100
AcDbEntity
  8
Defpoints
 62
     0
100
AcDbPoint
 10
47.42884854554436
 20
8.857042080712002
 30
0.0
  0
POINT
  5
2AE
330
2A5
100
AcDbEntity
  8
Defpoints
 62
     0
100
AcDbPoint
 10
45.81399999999994
 20
7.239000000000544
 30
0.0
  0
ENDBLK
  5
2A7
330
2A5
100
AcDbEntity
  8
0
100
AcDbBlockEnd
  0
ENDSEC
  0
SECTION
  2
ENTITIES
  0
INSERT
  5
DA
330
1F
100
AcDbEntity
  8
0
  6
Continuous
 62
     7
100
AcDbBlockReference
 66
     1
  2
블럭10
 10
-10.24270877828551
 20
-52.04717430164393
 30
0.0
  0
ATTRIB
  5
DB
330
DA
100
AcDbEntity
  8
FORMAT
 62
     2
100
AcDbText
 10
-21.29372913046998
 20
-49.97180738881174
 30
0.0
 40
4.233333333333333
  1
GMG23943[ 6 FLUTE ]
 41
0.75
  7
SLDTEXTSTYLE0
 11
-21.29372913046998
 21
-52.08847405547841
 31
0.0
100
AcDbAttribute
  2
AUTOATTR0
 70
     0
 74
     1
  0
SEQEND
  5
DC
330
DA
100
AcDbEntity
  8
0
  6
Continuous
 62
     7
  0
HATCH
  5
DD
330
1F
100
AcDbEntity
  8
중심선
100
AcDbHatch
 10
0.0
 20
0.0
 30
0.0
210
0.0
220
0.0
230
1.0
  2
SOLID
 70
     1
 71
     0
 91
        1
 92
        0
 93
        4
 72
     1
 10
-4.527799473904665
 20
-35.8
 11
-7.974074717741947
 21
-35.8
 72
     1
 10
-7.974074717741947
 20
-35.8
 11
-10.10230457694597
 21
-38.33632558057259
 72
     1
 10
-10.10230457694597
 20
-38.33632558057259
 11
-6.655996247995538
 21
-38.3362861512701
 72
     1
 10
-6.655996247995538
 20
-38.3362861512701
 11
-4.527799473904665
 21
-35.8
 97
        0
 75
     0
 76
     1
 98
        1
 10
0.0
 20
0.0
  0
HATCH
  5
DE
330
1F
100
AcDbEntity
  8
중심선
100
AcDbHatch
 10
0.0
 20
0.0
 30
0.0
210
0.0
220
0.0
230
1.0
  2
SOLID
 70
     1
 71
     0
 91
        1
 92
        0
 93
        4
 72
     1
 10
0.4849645171312866
 20
-35.8
 11
-2.961310726705996
 21
-35.8
 72
     1
 10
-2.961310726705996
 20
-35.8
 11
-7.492448735063384
 21
-41.20000000000002
 72
     1
 10
-7.492448735063384
 20
-41.20000000000002
 11
-4.046173491226101
 21
-41.20000000000002
 72
     1
 10
-4.046173491226101
 20
-41.20000000000002
 11
0.4849645171312869
 21
-35.8
 97
        0
 75
     0
 76
     1
 98
        1
 10
0.0
 20
0.0
  0
HATCH
  5
DF
330
1F
100
AcDbEntity
  8
중심선
100
AcDbHatch
 10
0.0
 20
0.0
 30
0.0
210
0.0
220
0.0
230
1.0
  2
SOLID
 70
     1
 71
     0
 91
        1
 92
        0
 93
        4
 72
     1
 10
5.497728508167183
 20
-35.80000000000003
 11
2.051453264330067
 21
-35.8
 72
     1
 10
2.051453264330067
 20
-35.8
 11
-4.996983637559183
 21
-44.20000000000002
 72
     1
 10
-4.996983637559183
 20
-44.20000000000002
 11
-1.5507083937219
 21
-44.20000000000002
 72
     1
 10
-1.5507083937219
 20
-44.20000000000002
 11
5.497728508167183
 21
-35.80000000000003
 97
        0
 75
     0
 76
     1
 98
        1
 10
0.0
 20
0.0
  0
HATCH
  5
E0
330
1F
100
AcDbEntity
  8
중심선
100
AcDbHatch
 10
0.0
 20
0.0
 30
0.0
210
0.0
220
0.0
230
1.0
  2
SOLID
 70
     1
 71
     0
 91
        1
 92
        0
 93
        6
 72
     3
 10
10.29761893917938
 20
-40.00000000005127
 11
3.960054785062284
 21
1.540850780301639E-10
 40
0.3939339440162633
 50
17.09539180608433
 51
320.0019657685081
 73
     0
 72
     1
 10
11.98061859487998
 20
-38.5878940046383
 11
14.28592046858101
 21
-36.65356729459038
 72
     3
 10
10.29761893912653
 20
-40.00000000000015
 11
6.600054785286829
 21
-1.249000902703301E-13
 40
0.6363583540795982
 50
39.99873849337408
 51
368.4976242363724
 73
     1
 72
     1
 10
16.72295143102714
 20
-39.03999999993002
 11
8.977686245962458
 21
-39.03999999992999
 72
     1
 10
8.977686245962458
 20
-39.03999999992999
 11
8.977661201516524
 21
-40.95999999992991
 72
     1
 10
8.977661201516524
 20
-40.95999999992991
 11
13.41904097098856
 21
-40.95999999992988
 97
        0
 75
     0
 76
     1
 98
        1
 10
0.0
 20
0.0
  0
LINE
  5
222
330
1F
100
AcDbEntity
  8
0
  6
Continuous
 62
     4
370
    15
100
AcDbLine
 10
7.376829730202871
 20
9.525000000000546
 30
0.0
 11
-20.00692500000007
 21
9.525000000000546
 31
0.0
  0
LINE
  5
223
330
1F
100
AcDbEntity
  8
0
  6
Continuous
 62
     4
370
    15
100
AcDbLine
 10
-53.00000000000006
 20
-9.524999999999451
 30
0.0
 11
7.375874588230189
 21
-9.524999999999451
 31
0.0
  0
LINE
  5
224
330
1F
100
AcDbEntity
  8
0
  6
Continuous
 62
     4
370
    15
100
AcDbLine
 10
-53.00000000000006
 20
9.525000000000531
 30
0.0
 11
-53.50000000000006
 21
9.025000000000531
 31
0.0
  0
LINE
  5
225
330
1F
100
AcDbEntity
  8
0
  6
Continuous
 62
     4
370
    15
100
AcDbLine
 10
-53.50000000000006
 20
-9.024999999999451
 30
0.0
 11
-53.00000000000006
 21
-9.524999999999451
 31
0.0
  0
LINE
  5
226
330
1F
100
AcDbEntity
  8
0
  6
Continuous
 62
     1
370
    15
100
AcDbLine
 10
27.28549594174949
 20
9.525000000000546
 30
0.0
 11
24.02883832822806
 21
9.525000000000546
 31
0.0
  0
LINE
  5
227
330
1F
100
AcDbEntity
  8
0
  6
Continuous
 62
     1
370
    15
100
AcDbLine
 10
24.02883832822801
 20
-9.524999999999451
 30
0.0
 11
27.28549594174942
 21
-9.524999999999451
 31
0.0
  0
LINE
  5
228
330
1F
100
AcDbEntity
  8
0
  6
Continuous
 62
     1
370
    15
100
AcDbLine
 10
43.97761588461478
 20
-9.524999999999451
 30
0.0
 11
45.81399999999994
 21
-9.524999999999451
 31
0.0
  0
LINE
  5
229
330
1F
100
AcDbEntity
  8
0
  6
Continuous
 62
     1
370
    15
100
AcDbLine
 10
17.31108664119824
 20
9.525000000000546
 30
0.0
 11
14.05398266210328
 21
9.525000000000546
 31
0.0
  0
LINE
  5
22A
330
1F
100
AcDbEntity
  8
0
  6
Continuous
 62
     1
370
    15
100
AcDbLine
 10
34.00328129620044
 20
-9.524999999999451
 30
0.0
 11
37.2597486279042
 21
-9.524999999999451
 31
0.0
  0
ARC
  5
22B
330
1F
100
AcDbEntity
  8
0
  6
Continuous
 62
     1
370
    15
100
AcDbCircle
 10
45.81399999999994
 20
-7.23899999999945
 30
0.0
 40
2.285999999999999
100
AcDbArc
 50
270.0000000000007
 51
0.0
  0
ARC
  5
22C
330
1F
100
AcDbEntity
  8
0
  6
Continuous
 62
     1
370
    15
100
AcDbCircle
 10
45.81399999999994
 20
7.239000000000544
 30
0.0
 40
2.286
100
AcDbArc
 50
0.0
 51
90.0
  0
LINE
  5
22D
330
1F
100
AcDbEntity
  8
0
  6
Continuous
 62
     1
370
    15
100
AcDbLine
 10
37.25974862790423
 20
9.525000000000546
 30
0.0
 11
34.00328129620053
 21
9.525000000000546
 31
0.0
  0
LINE
  5
22E
330
1F
100
AcDbEntity
  8
0
  6
Continuous
 62
     1
370
    15
100
AcDbLine
 10
14.05398266210329
 20
-9.524999999999451
 30
0.0
 11
17.31108664119817
 21
-9.524999999999451
 31
0.0
  0
LINE
  5
22F
330
1F
100
AcDbEntity
  8
0
  6
Continuous
 62
     1
370
    15
100
AcDbLine
 10
45.81399999999994
 20
9.525000000000546
 30
0.0
 11
43.97761588461475
 21
9.525000000000546
 31
0.0
  0
SPLINE
  5
230
330
1F
100
AcDbEntity
  8
0
  6
Continuous
 62
     4
370
    15
100
AcDbSpline
210
0.0
220
0.0
230
1.0
 70
     8
 71
     3
 72
    24
 73
    20
 74
     0
 42
0.000000001
 43
0.00000001
 40
0.0
 40
0.0
 40
0.0
 40
0.0
 40
0.1250000000000001
 40
0.1250000000000001
 40
0.2500000000000001
 40
0.2500000000000001
 40
0.3750000000000002
 40
0.3750000000000002
 40
0.5000000000000003
 40
0.5000000000000003
 40
0.6250000000000006
 40
0.6250000000000006
 40
0.6875000000000004
 40
0.6875000000000004
 40
0.7500000000000003
 40
0.7500000000000003
 40
0.8750000000000001
 40
0.8750000000000001
 40
1.0
 40
1.0
 40
1.0
 40
1.0
 10
6.950423721520565
 20
-9.34772179686874
 30
0.0
 10
6.950423721520565
 20
-9.308572677276672
 30
0.0
 10
6.950809584619165
 20
-9.263058802312017
 30
0.0
 10
6.984163665836519
 20
-9.1603070990854
 30
0.0
 10
7.016859576483739
 20
-9.10253294517122
 30
0.0
 10
7.133316919319824
 20
-8.978792224673185
 30
0.0
 10
7.215132590053187
 20
-8.914376754242312
 30
0.0
 10
7.438071507591019
 20
-8.786088125801854
 30
0.0
 10
7.572982397539093
 20
-8.725748963467566
 30
0.0
 10
7.892783867938306
 20
-8.619763105368534
 30
0.0
 10
8.072947543312878
 20
-8.576108859681213
 30
0.0
 10
8.362948613049824
 20
-8.531431904042407
 30
0.0
 10
8.463474933692481
 20
-8.519975557523196
 30
0.0
 10
8.664517649908277
 20
-8.505072305168838
 30
0.0
 10
8.766001830867964
 20
-8.501452258812392
 30
0.0
 10
9.073392997808668
 20
-8.502463451820404
 30
0.0
 10
9.276591018458916
 20
-8.519188545788467
 30
0.0
 10
9.661847017237392
 20
-8.581227603968387
 30
0.0
 10
9.840962179692042
 20
-8.625978550135187
 30
0.0
 10
9.999999999999787
 20
-8.680160649821943
 30
0.0
  0
SPLINE
  5
231
330
1F
100
AcDbEntity
  8
0
  6
Continuous
 62
     4
370
    15
100
AcDbSpline
210
0.0
220
0.0
230
1.0
 70
     8
 71
     3
 72
    14
 73
    10
 74
     0
 42
0.000000001
 43
0.00000001
 40
0.0
 40
0.0
 40
0.0
 40
0.0
 40
0.2500000000000001
 40
0.2500000000000001
 40
0.5000000000000001
 40
0.5000000000000001
 40
0.75
 40
0.75
 40
1.0
 40
1.0
 40
1.0
 40
1.0
 10
7.580379435335928
 20
-9.521867945924797
 30
0.0
 10
7.44722169711693
 20
-9.5252933061671
 30
0.0
 10
7.337716399378678
 20
-9.526336637772616
 30
0.0
 10
7.160167351948402
 20
-9.51931469376187
 30
0.0
 10
7.093977469064569
 20
-9.511125754144672
 30
0.0
 10
7.002544779804481
 20
-9.48360272998245
 30
0.0
 10
6.976588367477405
 20
-9.464080190366374
 30
0.0
 10
6.950556713839788
 20
-9.414153845691828
 30
0.0
 10
6.950423721520565
 20
-9.383676489774075
 30
0.0
 10
6.950423721520565
 20
-9.34772179686864
 30
0.0
  0
SPLINE
  5
232
330
1F
100
AcDbEntity
  8
0
  6
Continuous
 62
     4
370
    15
100
AcDbSpline
210
0.0
220
0.0
230
1.0
 70
     8
 71
     3
 72
    10
 73
     6
 74
     0
 42
0.000000001
 43
0.00000001
 40
0.0
 40
0.0
 40
0.0
 40
0.0
 40
0.5
 40
0.5
 40
1.0
 40
1.0
 40
1.0
 40
1.0
 10
10.00000000000006
 20
-9.154771394112885
 30
0.0
 10
9.596942748233175
 20
-9.266115343084195
 30
0.0
 10
9.19626066975988
 20
-9.352675355781756
 30
0.0
 10
8.387286858816779
 20
-9.475538168265885
 30
0.0
 10
7.981861724165853
 20
-9.511540183614201
 30
0.0
 10
7.580379435335914
 20
-9.521867945924825
 30
0.0
  0
LINE
  5
233
330
1F
100
AcDbEntity
  8
0
  6
Continuous
 62
     4
370
    15
100
AcDbLine
 10
7.580379435335914
 20
9.521867945925905
 30
0.0
 11
7.376829730202871
 21
9.524829884645456
 31
0.0
  0
SPLINE
  5
234
330
1F
100
AcDbEntity
  8
0
  6
Continuous
 62
     4
370
    15
100
AcDbSpline
210
0.0
220
0.0
230
1.0
 70
     8
 71
     3
 72
    10
 73
     6
 74
     0
 42
0.000000001
 43
0.00000001
 40
0.0
 40
0.0
 40
0.0
 40
0.0
 40
0.5
 40
0.5
 40
1.0
 40
1.0
 40
1.0
 40
1.0
 10
10.00000000000006
 20
9.154771394113979
 30
0.0
 10
9.596942748233175
 20
9.266115343085275
 30
0.0
 10
9.19626066975988
 20
9.35267535578285
 30
0.0
 10
8.387286858816779
 20
9.475538168266965
 30
0.0
 10
7.981861724165853
 20
9.511540183615296
 30
0.0
 10
7.580379435335914
 20
9.521867945925905
 30
0.0
  0
SPLINE
  5
235
330
1F
100
AcDbEntity
  8
0
  6
Continuous
 62
     4
370
    15
100
AcDbSpline
210
0.0
220
0.0
230
1.0
 70
     8
 71
     3
 72
    24
 73
    20
 74
     0
 42
0.000000001
 43
0.00000001
 40
0.0
 40
0.0
 40
0.0
 40
0.0
 40
0.1250000000000001
 40
0.1250000000000001
 40
0.2500000000000001
 40
0.2500000000000001
 40
0.3750000000000002
 40
0.3750000000000002
 40
0.5000000000000002
 40
0.5000000000000002
 40
0.6250000000000002
 40
0.6250000000000002
 40
0.6875000000000002
 40
0.6875000000000002
 40
0.7500000000000001
 40
0.7500000000000001
 40
0.875
 40
0.875
 40
1.0
 40
1.0
 40
1.0
 40
1.0
 10
6.950423721520565
 20
6.257935283131971
 30
0.0
 10
6.950423721520565
 20
6.411626771670413
 30
0.0
 10
6.950809584619151
 20
6.560679138253406
 30
0.0
 10
6.984163665836519
 20
6.84761752440437
 30
0.0
 10
7.016859576483739
 20
6.986652657910582
 30
0.0
 10
7.133316919319824
 20
7.247865438743744
 30
0.0
 10
7.215132590053202
 20
7.3670361197521
 30
0.0
 10
7.438071507591019
 20
7.582133299181322
 30
0.0
 10
7.572982397539107
 20
7.672333425652781
 30
0.0
 10
7.892783867938306
 20
7.821477021566309
 30
0.0
 10
8.072947543312893
 20
7.877678289616796
 30
0.0
 10
8.362948613049824
 20
7.933968161335898
 30
0.0
 10
8.463474933692481
 20
7.948068310782517
 30
0.0
 10
8.664517649908277
 20
7.966325921695443
 30
0.0
 10
8.766001830867964
 20
7.970699420636421
 30
0.0
 10
9.073392997808668
 20
7.969471479382975
 30
0.0
 10
9.276591018458916
 20
7.949513589275043
 30
0.0
 10
9.661847017237392
 20
7.871093417494976
 30
0.0
 10
9.840962179692042
 20
7.813214560552638
 30
0.0
 10
9.999999999999787
 20
7.736450014735695
 30
0.0
  0
SPLINE
  5
236
330
1F
100
AcDbEntity
  8
0
  6
Continuous
 62
     4
370
    15
100
AcDbSpline
210
0.0
220
0.0
230
1.0
 70
     8
 71
     3
 72
    14
 73
    10
 74
     0
 42
0.000000001
 43
0.00000001
 40
0.0
 40
0.0
 40
0.0
 40
0.0
 40
0.25
 40
0.25
 40
0.5
 40
0.5
 40
0.75
 40
0.75
 40
1.0
 40
1.0
 40
1.0
 40
1.0
 10
7.580379435335928
 20
4.549411243051352
 30
0.0
 10
7.44722169711693
 20
4.666770458800087
 30
0.0
 10
7.337716399378678
 20
4.797135116171901
 30
0.0
 10
7.160167351948402
 20
5.078180291567762
 30
0.0
 10
7.093977469064569
 20
5.227364127827045
 30
0.0
 10
7.002544779804467
 20
5.525823493812737
 30
0.0
 10
6.976588367477405
 20
5.677367007191847
 30
0.0
 10
6.950556713839788
 20
5.972199005914078
 30
0.0
 10
6.950423721520565
 20
6.11678446466756
 30
0.0
 10
6.950423721520565
 20
6.2579352831319
 30
0.0
  0
SPLINE
  5
237
330
1F
100
AcDbEntity
  8
0
  6
Continuous
 62
     4
370
    15
100
AcDbSpline
210
0.0
220
0.0
230
1.0
 70
     8
 71
     3
 72
    10
 73
     6
 74
     0
 42
0.000000001
 43
0.00000001
 40
0.0
 40
0.0
 40
0.0
 40
0.0
 40
0.5
 40
0.5
 40
1.0
 40
1.0
 40
1.0
 40
1.0
 10
10.00000000000006
 20
2.299922351327567
 30
0.0
 10
9.596942748233175
 20
2.691273185649138
 30
0.0
 10
9.19626066975988
 20
3.075686857860006
 30
0.0
 10
8.387286858816779
 20
3.828309026211556
 30
0.0
 10
7.981861724165853
 20
4.195562888578692
 30
0.0
 10
7.580379435335914
 20
4.549411243051352
 30
0.0
  0
SPLINE
  5
238
330
1F
100
AcDbEntity
  8
0
  6
Continuous
 62
     4
370
    15
100
AcDbSpline
210
0.0
220
0.0
230
1.0
 70
     8
 71
     3
 72
    24
 73
    20
 74
     0
 42
0.000000001
 43
0.00000001
 40
0.0
 40
0.0
 40
0.0
 40
0.0
 40
0.1249999999999998
 40
0.1249999999999998
 40
0.2499999999999997
 40
0.2499999999999997
 40
0.3749999999999997
 40
0.3749999999999997
 40
0.4999999999999998
 40
0.4999999999999998
 40
0.6249999999999998
 40
0.6249999999999998
 40
0.6874999999999999
 40
0.6874999999999999
 40
0.7499999999999999
 40
0.7499999999999999
 40
0.8749999999999999
 40
0.8749999999999999
 40
1.0
 40
1.0
 40
1.0
 40
1.0
 10
6.950423721520565
 20
-3.089786513737366
 30
0.0
 10
6.950423721520565
 20
-2.896945905606842
 30
0.0
 10
6.950809584619151
 20
-2.702379664059194
 30
0.0
 10
6.984163665836519
 20
-2.312689574681627
 30
0.0
 10
7.016859576483739
 20
-2.11588028726122
 30
0.0
 10
7.133316919319839
 20
-1.730926785930038
 30
0.0
 10
7.215132590053187
 20
-1.547340634490808
 30
0.0
 10
7.438071507591019
 20
-1.203954826621128
 30
0.0
 10
7.572982397539107
 20
-1.053415537815397
 30
0.0
 10
7.892783867938306
 20
-0.7982860838028358
 30
0.0
 10
8.072947543312893
 20
-0.6984305700650282
 30
0.0
 10
8.362948613049824
 20
-0.5974637427071201
 30
0.0
 10
8.463474933692481
 20
-0.57190724674129
 30
0.0
 10
8.664517649908277
 20
-0.5387463834740203
 30
0.0
 10
8.766001830867964
 20
-0.5307528381765678
 30
0.0
 10
9.073392997808668
 20
-0.5329919724380403
 30
0.0
 10
9.276591018458916
 20
-0.5696749565140493
 30
0.0
 10
9.661847017237392
 20
-0.7101341864740078
 30
0.0
 10
9.840962179692042
 20
-0.8127639895831464
 30
0.0
 10
9.999999999999787
 20
-0.9437106350868447
 30
0.0
  0
SPLINE
  5
239
330
1F
100
AcDbEntity
  8
0
  6
Continuous
 62
     4
370
    15
100
AcDbSpline
210
0.0
220
0.0
230
1.0
 70
     8
 71
     3
 72
    14
 73
    10
 74
     0
 42
0.000000001
 43
0.00000001
 40
0.0
 40
0.0
 40
0.0
 40
0.0
 40
0.25
 40
0.25
 40
0.5
 40
0.5
 40
0.75
 40
0.75
 40
1.0
 40
1.0
 40
1.0
 40
1.0
 10
7.580379435335928
 20
-4.972456702874013
 30
0.0
 10
7.44722169711693
 20
-4.858522847367567
 30
0.0
 10
7.337716399378678
 20
-4.729201521601283
 30
0.0
 10
7.160167351948402
 20
-4.441134402194677
 30
0.0
 10
7.093977469064569
 20
-4.28376162631821
 30
0.0
 10
7.002544779804481
 20
-3.957779236170296
 30
0.0
 10
6.976588367477405
 20
-3.78671318317511
 30
0.0
 10
6.950556713839788
 20
-3.441954839778333
 30
0.0
 10
6.950423721520565
 20
-3.266892025107097
 30
0.0
 10
6.950423721520565
 20
-3.089786513737323
 30
0.0
  0
SPLINE
  5
23A
330
1F
100
AcDbEntity
  8
0
  6
Continuous
 62
     4
370
    15
100
AcDbSpline
210
0.0
220
0.0
230
1.0
 70
     8
 71
     3
 72
    10
 73
     6
 74
     0
 42
0.000000001
 43
0.00000001
 40
0.0
 40
0.0
 40
0.0
 40
0.0
 40
0.5
 40
0.5
 40
1.0
 40
1.0
 40
1.0
 40
1.0
 10
10.00000000000006
 20
-6.854849042785858
 30
0.0
 10
9.596942748233175
 20
-6.574842157435583
 30
0.0
 10
9.19626066975988
 20
-6.276988497922304
 30
0.0
 10
8.387286858816779
 20
-5.647229142054883
 30
0.0
 10
7.981861724165853
 20
-5.315977295036078
 30
0.0
 10
7.580379435335914
 20
-4.972456702874027
 30
0.0
  0
LINE
  5
23B
330
1F
100
AcDbEntity
  8
0
  6
Continuous
 62
     4
370
    15
100
AcDbLine
 10
-53.00000000000006
 20
9.525000000000531
 30
0.0
 11
-53.00000000000006
 21
-9.524999999999466
 31
0.0
  0
LINE
  5
23C
330
1F
100
AcDbEntity
  8
0
  6
Continuous
 62
     1
370
    15
100
AcDbLine
 10
9.999999999999929
 20
9.154771394114007
 30
0.0
 11
9.999999999999929
 21
7.736450014735908
 31
0.0
  0
LINE
  5
23D
330
1F
100
AcDbEntity
  8
0
  6
Continuous
 62
     4
370
    15
100
AcDbLine
 10
9.999999999999929
 20
-6.854849042785759
 30
0.0
 11
9.999999999999929
 21
-8.6801606498218
 31
0.0
  0
LINE
  5
23E
330
1F
100
AcDbEntity
  8
0
  6
Continuous
 62
     1
370
    15
100
AcDbLine
 10
9.999999999999929
 20
2.29992235132768
 30
0.0
 11
9.999999999999929
 21
-0.9437106350864894
 31
0.0
  0
SPLINE
  5
240
330
1F
100
AcDbEntity
  8
0
  6
Continuous
 62
     1
370
    15
100
AcDbSpline
210
0.0
220
0.0
230
1.0
 70
    24
 71
     3
 72
     8
 73
     4
 74
     0
 42
0.000000001
 43
0.00000001
 40
0.0
 40
0.0
 40
0.0
 40
0.0
 40
1.0
 40
1.0
 40
1.0
 40
1.0
 10
9.999999999999929
 20
-0.9437106350865037
 30
0.0
 10
9.999999999999929
 20
-1.019113301828952
 30
0.0
 10
9.999999999999929
 20
-1.111580720086849
 30
0.0
 10
9.999999999999929
 20
-1.22328028738238
 30
0.0
  0
LINE
  5
241
330
1F
100
AcDbEntity
  8
0
  6
Continuous
 62
     4
370
    15
100
AcDbLine
 10
-53.50000000000006
 20
9.025000000000531
 30
0.0
 11
-53.50000000000006
 21
-9.024999999999437
 31
0.0
  0
SPLINE
  5
242
330
1F
100
AcDbEntity
  8
0
  6
Continuous
 62
     4
370
    15
100
AcDbSpline
210
0.0
220
0.0
230
1.0
 70
     8
 71
     3
 72
     9
 73
     5
 74
     0
 42
0.000000001
 43
0.00000001
 40
0.0
 40
0.0
 40
0.0
 40
0.0
 40
0.1757995613424754
 40
1.0
 40
1.0
 40
1.0
 40
1.0
 10
7.720819227689361
 20
4.468087041500866
 30
0.0
 10
7.712509876259631
 20
4.46843204920782
 30
0.0
 10
7.66524382299832
 20
4.470394555281899
 30
0.0
 10
7.637513016947153
 20
4.500859950790485
 30
0.0
 10
7.614657274435459
 20
4.525969543132518
 30
0.0
  0
SPLINE
  5
243
330
1F
100
AcDbEntity
  8
0
  6
Continuous
 62
     1
370
    15
100
AcDbSpline
210
0.0
220
0.0
230
1.0
 70
    24
 71
     3
 72
    16
 73
    12
 74
     0
 42
0.000000001
 43
0.00000001
 40
0.0
 40
0.0
 40
0.0
 40
0.0
 40
0.25
 40
0.25
 40
0.5
 40
0.5
 40
0.75
 40
0.75
 40
0.875
 40
0.875
 40
1.0
 40
1.0
 40
1.0
 40
1.0
 10
9.999999999999929
 20
7.04923885599716
 30
0.0
 10
9.999999999999929
 20
6.663411021681767
 30
0.0
 10
9.999999999999929
 20
6.235290071823712
 30
0.0
 10
9.999999999999929
 20
5.3234996430145
 30
0.0
 10
9.999999999999929
 20
4.839169833909523
 30
0.0
 10
9.999999999999929
 20
3.901248529622961
 30
0.0
 10
9.999999999999929
 20
3.449216208174164
 30
0.0
 10
9.999999999999929
 20
2.899277509626714
 30
0.0
 10
9.999999999999929
 20
2.737568045084174
 30
0.0
 10
9.999999999999929
 20
2.472531101817168
 30
0.0
 10
9.999999999999929
 20
2.369315230232232
 30
0.0
 10
9.999999999999929
 20
2.29992235132768
 30
0.0
  0
SPLINE
  5
244
330
1F
100
AcDbEntity
  8
0
  6
Continuous
 62
     1
370
    15
100
AcDbSpline
210
0.0
220
0.0
230
1.0
 70
    24
 71
     3
 72
    16
 73
    12
 74
     0
 42
0.000000001
 43
0.00000001
 40
0.0
 40
0.0
 40
0.0
 40
0.0
 40
0.2499999999999999
 40
0.2499999999999999
 40
0.5
 40
0.5
 40
0.7500000000000002
 40
0.7500000000000002
 40
0.8750000000000001
 40
0.8750000000000001
 40
1.0
 40
1.0
 40
1.0
 40
1.0
 10
9.999999999999929
 20
-1.223280287381897
 30
0.0
 10
9.999999999999929
 20
-1.409656458051742
 30
0.0
 10
9.999999999999929
 20
-1.656665622888298
 30
0.0
 10
9.999999999999929
 20
-2.313898907491264
 30
0.0
 10
9.999999999999929
 20
-2.725848431873843
 30
0.0
 10
9.999999999999929
 20
-3.719996711932851
 30
0.0
 10
9.999999999999929
 20
-4.303474908791003
 30
0.0
 10
9.999999999999929
 20
-5.244231673444247
 30
0.0
 10
9.999999999999929
 20
-5.567862197392841
 30
0.0
 10
9.999999999999929
 20
-6.216099375235785
 30
0.0
 10
9.999999999999929
 20
-6.540569285908077
 30
0.0
 10
9.999999999999929
 20
-6.854849042785759
 30
0.0
  0
SPLINE
  5
245
330
1F
100
AcDbEntity
  8
0
  6
Continuous
 62
     1
370
    15
100
AcDbSpline
210
0.0
220
0.0
230
1.0
 70
    24
 71
     3
 72
     8
 73
     4
 74
     0
 42
0.000000001
 43
0.00000001
 40
0.0
 40
0.0
 40
0.0
 40
0.0
 40
1.0
 40
1.0
 40
1.0
 40
1.0
 10
9.999999999999929
 20
7.736450014736008
 30
0.0
 10
9.999999999999929
 20
7.509460312018575
 30
0.0
 10
9.999999999999929
 20
7.280474437178853
 30
0.0
 10
9.999999999999929
 20
7.049238855996222
 30
0.0
  0
SPLINE
  5
246
330
1F
100
AcDbEntity
  8
0
  6
Continuous
 62
     4
370
    15
100
AcDbSpline
210
0.0
220
0.0
230
1.0
 70
    24
 71
     3
 72
     9
 73
     5
 74
     0
 42
0.000000001
 43
0.00000001
 40
0.0
 40
0.0
 40
0.0
 40
0.0
 40
0.0758058846911148
 40
1.0
 40
1.0
 40
1.0
 40
1.0
 10
9.999999999999929
 20
-8.747208710226843
 30
0.0
 10
9.999999999999929
 20
-8.755968363473315
 30
0.0
 10
9.999999999999929
 20
-8.871522100259924
 30
0.0
 10
9.999999999999929
 20
-9.0187262163101
 30
0.0
 10
9.999999999999929
 20
-9.154771394112913
 30
0.0
  0
SPLINE
  5
247
330
1F
100
AcDbEntity
  8
0
  6
Continuous
 62
     1
370
    15
100
AcDbSpline
210
0.0
220
0.0
230
1.0
 70
     8
 71
     3
 72
    38
 73
    34
 74
     0
 42
0.000000001
 43
0.00000001
 40
0.0
 40
0.0
 40
0.0
 40
0.0
 40
0.0625000000000002
 40
0.0625000000000002
 40
0.1250000000000004
 40
0.1250000000000004
 40
0.1875000000000007
 40
0.1875000000000007
 40
0.2500000000000009
 40
0.2500000000000009
 40
0.3750000000000013
 40
0.3750000000000013
 40
0.5000000000000018
 40
0.5000000000000018
 40
0.5625000000000019
 40
0.5625000000000019
 40
0.6250000000000021
 40
0.6250000000000021
 40
0.6875000000000023
 40
0.6875000000000023
 40
0.7187500000000027
 40
0.7187500000000027
 40
0.7500000000000029
 40
0.7500000000000029
 40
0.7812500000000031
 40
0.7812500000000031
 40
0.8125000000000033
 40
0.8125000000000033
 40
0.8750000000000022
 40
0.8750000000000022
 40
0.9375000000000011
 40
0.9375000000000011
 40
1.0
 40
1.0
 40
1.0
 40
1.0
 10
45.81399999999994
 20
-6.25407634823587
 30
0.0
 10
45.97572045689282
 20
-6.376366536339233
 30
0.0
 10
46.13060001544552
 20
-6.486055043178126
 30
0.0
 10
46.43107829953338
 20
-6.680643987071818
 30
0.0
 10
46.57725303550208
 20
-6.766004182862162
 30
0.0
 10
46.85628008679519
 20
-6.909931077544996
 30
0.0
 10
46.98711866428062
 20
-6.96755468002992
 30
0.0
 10
47.23079917490395
 20
-7.057545226718517
 30
0.0
 10
47.34430589425003
 20
-7.089950895229379
 30
0.0
 10
47.64766880737832
 20
-7.154763168785067
 30
0.0
 10
47.79854035835857
 20
-7.153330043775043
 30
0.0
 10
47.99365631942027
 20
-7.154710366977682
 30
0.0
 10
48.03668189847787
 20
-7.161567857524105
 30
0.0
 10
48.06487969988791
 20
-7.257214139352229
 30
0.0
 10
48.06850142817461
 20
-7.302922714154818
 30
0.0
 10
48.06746056970783
 20
-7.425502492667306
 30
0.0
 10
48.06301404579236
 20
-7.502591909264538
 30
0.0
 10
48.03819772729216
 20
-7.693584158507221
 30
0.0
 10
48.01867207956077
 20
-7.805518980264551
 30
0.0
 10
47.9569281007046
 20
-8.012124948336009
 30
0.0
 10
47.93114634961302
 20
-8.086057478981758
 30
0.0
 10
47.86244262343124
 20
-8.247026692151692
 30
0.0
 10
47.81942307950689
 20
-8.33378904575818
 30
0.0
 10
47.71250150091163
 20
-8.512704865505512
 30
0.0
 10
47.64813141900689
 20
-8.605086758519647
 30
0.0
 10
47.5038322959758
 20
-8.780199059304707
 30
0.0
 10
47.42310401688275
 20
-8.863907323293574
 30
0.0
 10
47.17230573453594
 20
-9.08665603676235
 30
0.0
 10
46.99470551248558
 20
-9.198029957423145
 30
0.0
 10
46.64747669799739
 20
-9.354598367521746
 30
0.0
 10
46.4762286638055
 20
-9.401449745670021
 30
0.0
 10
46.13890785408591
 20
-9.44592308510262
 30
0.0
 10
45.97546190081511
 20
-9.443237342660836
 30
0.0
 10
45.81399999999994
 20
-9.419174075337665
 30
0.0
  0
SPLINE
  5
248
330
1F
100
AcDbEntity
  8
0
  6
Continuous
 62
     1
370
    15
100
AcDbSpline
210
0.0
220
0.0
230
1.0
 70
     8
 71
     3
 72
    26
 73
    22
 74
     0
 42
0.000000001
 43
0.00000001
 40
0.0
 40
0.0
 40
0.0
 40
0.0
 40
0.0561852844573441
 40
0.1123037822902645
 40
0.1684062004937527
 40
0.2245526381707163
 40
0.2807370375898308
 40
0.3322709753598526
 40
0.3838046271963108
 40
0.4354241407439075
 40
0.4869720640417371
 40
0.538496500616797
 40
0.5901056478435129
 40
0.6416722005454082
 40
0.6931920851263194
 40
0.7447806411870089
 40
0.7963704473046297
 40
0.8478904469195512
 40
0.899455972786162
 40
0.951065870778297
 40
1.0
 40
1.0
 40
1.0
 40
1.0
 10
45.81399999999994
 20
-9.41917407533768
 30
0.0
 10
45.27985047809641
 20
-9.314219920140062
 30
0.0
 10
44.21218636999981
 20
-9.104436367211363
 30
0.0
 10
42.61254512230894
 20
-8.462073522694624
 30
0.0
 10
41.01344210939853
 20
-7.600462029652661
 30
0.0
 10
39.41303028509176
 20
-6.519752662092444
 30
0.0
 10
37.85485171176674
 20
-5.291919465050796
 30
0.0
 10
36.34259684762893
 20
-3.962800539238557
 30
0.0
 10
34.87380629429623
 20
-2.577393051565181
 30
0.0
 10
33.40252488485214
 20
-1.132906063286129
 30
0.0
 10
31.93330693370416
 20
0.3403337359671781
 30
0.0
 10
30.46475937728442
 20
1.805947597334352
 30
0.0
 10
28.99378367310716
 20
3.226637568389094
 30
0.0
 10
27.52403906851471
 20
4.571815894053742
 30
0.0
 10
26.05562856968754
 20
5.809067847172102
 30
0.0
 10
24.58525221662342
 20
6.907142435493896
 30
0.0
 10
23.11483887883708
 20
7.840897402709757
 30
0.0
 10
21.64642607410583
 20
8.590504003919989
 30
0.0
 10
20.17670537462986
 20
9.130481872219221
 30
0.0
 10
18.73035983572707
 20
9.466065755311632
 30
0.0
 10
17.77570902856306
 20
9.502074055520197
 30
0.0
 10
17.31108664119823
 20
9.519599062865595
 30
0.0
  0
SPLINE
  5
249
330
1F
100
AcDbEntity
  8
0
  6
Continuous
 62
     1
370
    15
100
AcDbSpline
210
0.0
220
0.0
230
1.0
 70
     8
 71
     3
 72
    24
 73
    20
 74
     0
 42
0.000000001
 43
0.00000001
 40
0.0
 40
0.0
 40
0.0
 40
0.0
 40
0.0388098583377157
 40
0.0972142381820918
 40
0.1556977524505695
 40
0.2141798496227667
 40
0.2725840990616676
 40
0.3310412526675902
 40
0.3895466925084797
 40
0.4479561022035395
 40
0.5063921370439445
 40
0.564909328409423
 40
0.6233291847588128
 40
0.6817493652497513
 40
0.7454414271583021
 40
0.8090904546719635
 40
0.8726895805926779
 40
0.9363069347896373
 40
1.0
 40
1.0
 40
1.0
 40
1.0
 10
20.67088370522755
 20
8.91511857857661
 30
0.0
 10
20.99618967073121
 20
9.027825463065014
 30
0.0
 10
21.81104375593142
 20
9.310143265363493
 30
0.0
 10
23.11481021620148
 20
9.513800862898762
 30
0.0
 10
24.58525990126442
 20
9.547935526780137
 30
0.0
 10
26.05562651373197
 20
9.34712110822619
 30
0.0
 10
27.5240396196384
 20
8.926056511694142
 30
0.0
 10
28.99378352523377
 20
8.29245600246253
 30
0.0
 10
30.46475941684767
 20
7.462752261993387
 30
0.0
 10
31.93330692310565
 20
6.454442558697124
 30
0.0
 10
33.40252488769707
 20
5.292925298262844
 30
0.0
 10
34.87380629353507
 20
4.007323901242259
 30
0.0
 10
36.34259684783214
 20
2.624543093212566
 30
0.0
 10
37.8548517117068
 20
1.136844874602687
 30
0.0
 10
39.41303028510839
 20
-0.4231047370381589
 30
0.0
 10
41.01344210939408
 20
-2.016601479451566
 30
0.0
 10
42.61254512231012
 20
-3.55001421573435
 30
0.0
 10
44.21218636999951
 20
-4.996231842659554
 30
0.0
 10
45.27985047809629
 20
-5.83462864926571
 30
0.0
 10
45.81399999999992
 20
-6.254076348235856
 30
0.0
  0
SPLINE
  5
24A
330
1F
100
AcDbEntity
  8
0
  6
Continuous
 62
     1
370
    15
100
AcDbSpline
210
0.0
220
0.0
230
1.0
 70
     8
 71
     3
 72
    22
 73
    18
 74
     0
 42
0.000000001
 43
0.00000001
 40
0.0
 40
0.0
 40
0.0
 40
0.0
 40
0.0087470183187661
 40
0.0799973366457092
 40
0.1511888500201286
 40
0.2223159345354306
 40
0.2935378252053992
 40
0.3647614416731975
 40
0.4358886850016227
 40
0.5070787807525234
 40
0.5783301355677245
 40
0.6494639807622444
 40
0.7195390726192177
 40
0.7897116681765952
 40
0.8597599286708726
 40
0.9298241787179045
 40
1.0
 40
1.0
 40
1.0
 40
1.0
 10
30.64570257171778
 20
-8.92739494307935
 30
0.0
 10
30.58553470659848
 20
-8.951846814893685
 30
0.0
 10
30.0352593115104
 20
-9.175475547550207
 30
0.0
 10
28.99370748815682
 20
-9.396264127166646
 30
0.0
 10
27.52405944898203
 20
-9.563363011609539
 30
0.0
 10
26.05562312005345
 20
-9.482157244210057
 30
0.0
 10
24.58525361302561
 20
-9.181372877286762
 30
0.0
 10
23.11483874674147
 20
-8.661175375600763
 30
0.0
 10
21.6464252094289
 20
-7.934871913322169
 30
0.0
 10
20.17670897088257
 20
-7.020260195824164
 30
0.0
 10
18.70571289357194
 20
-5.939855887457043
 30
0.0
 10
17.24464352876711
 20
-4.722928446374979
 30
0.0
 10
15.79048042752433
 20
-3.402540021545775
 30
0.0
 10
14.34176524238839
 20
-2.012204789171534
 30
0.0
 10
12.89567575625297
 20
-0.5741593430488052
 30
0.0
 10
11.44907964916959
 20
0.8804826154976126
 30
0.0
 10
10.48328267043756
 20
1.826524890773797
 30
0.0
 10
10.00000000000006
 20
2.299922351327567
 30
0.0
  0
SPLINE
  5
24B
330
1F
100
AcDbEntity
  8
0
  6
Continuous
 62
     1
370
    15
100
AcDbSpline
210
0.0
220
0.0
230
1.0
 70
    24
 71
     3
 72
    18
 73
    14
 74
     0
 42
0.000000001
 43
0.00000001
 40
0.0
 40
0.0
 40
0.0
 40
0.0
 40
0.25
 40
0.25
 40
0.5
 40
0.5
 40
0.625
 40
0.625
 40
0.75
 40
0.75
 40
0.875
 40
0.875
 40
1.0
 40
1.0
 40
1.0
 40
1.0
 10
9.999999999999943
 20
7.743165608213488
 30
0.0
 10
9.999999999999943
 20
7.35642431704477
 30
0.0
 10
9.999999999999943
 20
6.912934810135781
 30
0.0
 10
9.999999999999943
 20
5.924520278298104
 30
0.0
 10
9.999999999999943
 20
5.377634671722305
 30
0.0
 10
9.999999999999943
 20
4.550970748161163
 30
0.0
 10
9.999999999999943
 20
4.275284636762834
 30
0.0
 10
9.999999999999943
 20
3.746552791336157
 30
0.0
 10
9.999999999999943
 20
3.493665560859768
 30
0.0
 10
9.999999999999943
 20
3.038103270098361
 30
0.0
 10
9.999999999999943
 20
2.835691338124136
 30
0.0
 10
9.999999999999943
 20
2.506754286577561
 30
0.0
 10
9.999999999999943
 20
2.38047753230147
 30
0.0
 10
9.999999999999943
 20
2.29992235132768
 30
0.0
  0
SPLINE
  5
24C
330
1F
100
AcDbEntity
  8
0
  6
Continuous
 62
     1
370
    15
100
AcDbSpline
210
0.0
220
0.0
230
1.0
 70
     8
 71
     3
 72
    24
 73
    20
 74
     0
 42
0.000000001
 43
0.00000001
 40
0.0
 40
0.0
 40
0.0
 40
0.0
 40
0.0603583670298487
 40
0.1206207714128361
 40
0.1808694231488836
 40
0.2412250157263231
 40
0.3014967451721567
 40
0.3626791105232668
 40
0.4239625461388216
 40
0.4851932927082152
 40
0.5463699797808306
 40
0.6076295575872033
 40
0.6688876510313425
 40
0.7300642015084667
 40
0.7912961673787404
 40
0.8525787115086304
 40
0.9137606671861366
 40
0.9749705118368568
 40
1.0
 40
1.0
 40
1.0
 40
1.0
 10
10.00000000000016
 20
7.743165608213459
 30
0.0
 10
10.48328267044081
 20
7.444909016309182
 30
0.0
 10
11.44907964917913
 20
6.84887002511735
 30
0.0
 10
12.89567575621521
 20
5.74849100466561
 30
0.0
 10
14.34176524253022
 20
4.527936361517192
 30
0.0
 10
15.79048042699419
 20
3.201844228352343
 30
0.0
 10
17.24464353075513
 20
1.793883337190053
 30
0.0
 10
18.70571288602203
 20
0.3355977434268311
 30
0.0
 10
20.17670899908676
 20
-1.135982539336894
 30
0.0
 10
21.64642510431895
 20
-2.581795180528786
 30
0.0
 10
23.11483913886472
 20
-3.967077017800719
 30
0.0
 10
24.58525214736363
 20
-5.256682112317165
 30
0.0
 10
26.05562858651905
 20
-6.421475270817481
 30
0.0
 10
27.52403907033282
 20
-7.435033155700211
 30
0.0
 10
28.99378364895949
 20
-8.27018787084586
 30
0.0
 10
30.46475947207367
 20
-8.912194686218342
 30
0.0
 10
31.93330657929289
 20
-9.329364804439464
 30
0.0
 10
33.11245730400199
 20
-9.527522136872676
 30
0.0
 10
33.8028939067018
 20
-9.504324827937225
 30
0.0
 10
34.00328129620046
 20
-9.497592206632405
 30
0.0
  0
SPLINE
  5
24D
330
1F
100
AcDbEntity
  8
0
  6
Continuous
 62
     1
370
    15
100
AcDbSpline
210
0.0
220
0.0
230
1.0
 70
     8
 71
     3
 72
    38
 73
    34
 74
     0
 42
0.000000001
 43
0.00000001
 40
0.0
 40
0.0
 40
0.0
 40
0.0
 40
0.0625000000000004
 40
0.0625000000000004
 40
0.1250000000000008
 40
0.1250000000000008
 40
0.1875000000000012
 40
0.1875000000000012
 40
0.2500000000000017
 40
0.2500000000000017
 40
0.3750000000000025
 40
0.3750000000000025
 40
0.5000000000000033
 40
0.5000000000000033
 40
0.5625000000000038
 40
0.5625000000000038
 40
0.6250000000000042
 40
0.6250000000000042
 40
0.6875000000000046
 40
0.6875000000000046
 40
0.7187500000000046
 40
0.7187500000000046
 40
0.7500000000000046
 40
0.7500000000000046
 40
0.7812500000000047
 40
0.7812500000000047
 40
0.8125000000000048
 40
0.8125000000000048
 40
0.8750000000000031
 40
0.8750000000000031
 40
0.9375000000000016
 40
0.9375000000000016
 40
1.0
 40
1.0
 40
1.0
 40
1.0
 10
45.81399999999994
 20
3.094626837985018
 30
0.0
 10
45.97572045689279
 20
2.941286306110314
 30
0.0
 10
46.13060001544552
 20
2.779661501144673
 30
0.0
 10
46.43107829953338
 20
2.4441528635639
 30
0.0
 10
46.5772530355021
 20
2.269058223113873
 30
0.0
 10
46.85628008679519
 20
1.910603007190133
 30
0.0
 10
46.98711866428062
 20
1.729947179300908
 30
0.0
 10
47.23079917490395
 20
1.364500976054373
 30
0.0
 10
47.34430589425006
 20
1.178396293020811
 30
0.0
 10
47.64766880737835
 20
0.6193958474562749
 30
0.0
 10
47.79854035835861
 20
0.2483192275895902
 30
0.0
 10
47.9936563194203
 20
-0.522503901865818
 30
0.0
 10
48.03668189847787
 20
-0.9162427433598168
 30
0.0
 10
48.06487969988794
 20
-1.548770666095578
 30
0.0
 10
48.06850142817461
 20
-1.765910986368354
 30
0.0
 10
48.06746056970783
 20
-2.205575062895647
 30
0.0
 10
48.06301404579237
 20
-2.430261759627143
 30
0.0
 10
48.03819772729216
 20
-2.884095888994736
 30
0.0
 10
48.01867207956079
 20
-3.110469502720491
 30
0.0
 10
47.9569281007046
 20
-3.446461443586841
 30
0.0
 10
47.93114634961304
 20
-3.55520611275773
 30
0.0
 10
47.86244262343124
 20
-3.763130827789936
 30
0.0
 10
47.81942307950689
 20
-3.861450622276735
 30
0.0
 10
47.71250150091163
 20
-4.031642528547309
 30
0.0
 10
47.64813141900686
 20
-4.103294858559551
 30
0.0
 10
47.50383229597578
 20
-4.207404890870038
 30
0.0
 10
47.42310401688272
 20
-4.240639609045957
 30
0.0
 10
47.17230573453594
 20
-4.287269480235423
 30
0.0
 10
46.9947055124856
 20
-4.251288657984958
 30
0.0
 10
46.6474766979974
 20
-4.114144520941394
 30
0.0
 10
46.47622866380554
 20
-4.012674138371892
 30
0.0
 10
46.13890785408591
 20
-3.771945796123731
 30
0.0
 10
45.97546190081513
 20
-3.634041873778003
 30
0.0
 10
45.81399999999994
 20
-3.48337802047071
 30
0.0
  0
SPLINE
  5
24E
330
1F
100
AcDbEntity
  8
0
  6
Continuous
 62
     1
370
    15
100
AcDbSpline
210
0.0
220
0.0
230
1.0
 70
     8
 71
     3
 72
    20
 73
    16
 74
     0
 42
0.000000001
 43
0.00000001
 40
0.0
 40
0.0
 40
0.0
 40
0.0
 40
0.0864340843210313
 40
0.1727654257124379
 40
0.259072030590367
 40
0.3454463539628965
 40
0.4318790767624957
 40
0.511157641704007
 40
0.5904357667722318
 40
0.6698459794226794
 40
0.7491460593623167
 40
0.8284100078950226
 40
0.9078042732478503
 40
0.9871330122126651
 40
1.0
 40
1.0
 40
1.0
 40
1.0
 10
45.81399999999994
 20
-3.483378020470724
 30
0.0
 10
45.27985047809878
 20
-2.977309492661348
 30
0.0
 10
44.21218637000692
 20
-1.965773993286845
 30
0.0
 10
42.61254512228055
 20
-0.3659652543228162
 30
0.0
 10
41.01344210950501
 20
1.236933498700054
 30
0.0
 10
39.41303028469375
 20
2.806784836705546
 30
0.0
 10
37.85485171320128
 20
4.255718505383186
 30
0.0
 10
36.34259684276614
 20
5.555774829066138
 30
0.0
 10
34.87380631250934
 20
6.686447821522322
 30
0.0
 10
33.40252481677967
 20
7.657146266992982
 30
0.0
 10
31.93330718730277
 20
8.44569257933233
 30
0.0
 10
30.46475843062328
 20
9.0391572963469
 30
0.0
 10
28.99378721139169
 20
9.396153623267494
 30
0.0
 10
27.93404946946397
 20
9.549578954030338
 30
0.0
 10
27.36492402769905
 20
9.514507050744854
 30
0.0
 10
27.28549594174949
 20
9.509612358038908
 30
0.0
  0
SPLINE
  5
24F
330
1F
100
AcDbEntity
  8
0
  6
Continuous
 62
     1
370
    15
100
AcDbSpline
210
0.0
220
0.0
230
1.0
 70
     8
 71
     3
 72
    17
 73
    13
 74
     0
 42
0.000000001
 43
0.00000001
 40
0.0
 40
0.0
 40
0.0
 40
0.0
 40
0.0849154347711337
 40
0.1817807633239488
 40
0.278780619373144
 40
0.3756191299727571
 40
0.472458177879148
 40
0.5780360549515354
 40
0.6835425969168879
 40
0.788966420501205
 40
0.8944204598243596
 40
0.9999999999999999
 40
0.9999999999999999
 40
0.9999999999999999
 40
0.9999999999999999
 10
30.64570257171785
 20
8.927394943080444
 30
0.0
 10
31.07486284627913
 20
9.064651585295664
 30
0.0
 10
31.99357783029031
 20
9.358480584233405
 30
0.0
 10
33.40249783270545
 20
9.540502762304968
 30
0.0
 10
34.87381353222217
 20
9.524030170741113
 30
0.0
 10
36.34259491515846
 20
9.275721430143093
 30
0.0
 10
37.85485228184845
 20
8.79450369707871
 30
0.0
 10
39.41303012691989
 20
8.067949309473434
 30
0.0
 10
41.01344215171639
 20
7.094067603849012
 30
0.0
 10
42.61254511102473
 20
5.918614966041261
 30
0.0
 10
44.21218637282513
 20
4.582563454676986
 30
0.0
 10
45.27985047903854
 20
3.590802309053231
 30
0.0
 10
45.81399999999994
 20
3.094626837985032
 30
0.0
  0
SPLINE
  5
250
330
1F
100
AcDbEntity
  8
0
  6
Continuous
 62
     1
370
    15
100
AcDbSpline
210
0.0
220
0.0
230
1.0
 70
     8
 71
     3
 72
    28
 73
    24
 74
     0
 42
0.000000001
 43
0.00000001
 40
0.0
 40
0.0
 40
0.0
 40
0.0
 40
0.039376504797566
 40
0.0916778572322348
 40
0.1396501532703273
 40
0.1876221831364534
 40
0.2356741405921119
 40
0.2836594555825546
 40
0.3316229070774753
 40
0.3796652146550992
 40
0.4276678715240306
 40
0.4756270856247152
 40
0.5236502251442569
 40
0.5716745283261104
 40
0.6196338495105118
 40
0.6676355505113615
 40
0.7156785569670938
 40
0.7636423296246809
 40
0.8108922113876639
 40
0.8582078374571254
 40
0.9054396275033325
 40
0.9526821989050409
 40
1.0
 40
1.0
 40
1.0
 40
1.0
 10
40.61902744305245
 20
-8.915430113603605
 30
0.0
 10
40.21713209939836
 20
-9.049866626558213
 30
0.0
 10
39.28142426734883
 20
-9.362866764706936
 30
0.0
 10
37.85483562629418
 20
-9.542842782340216
 30
0.0
 10
36.34260099912791
 20
-9.519796242895794
 30
0.0
 10
34.87380517979861
 20
-9.263576029448018
 30
0.0
 10
33.40252518320909
 20
-8.789888094411978
 30
0.0
 10
31.93330685394056
 20
-8.106278602474006
 30
0.0
 10
30.46475939835938
 20
-7.229693749130334
 30
0.0
 10
28.99378366870727
 20
-6.182679626687147
 30
0.0
 10
27.52403906504883
 20
-4.988058401691774
 30
0.0
 10
26.05562858793647
 20
-3.674010509969662
 30
0.0
 10
24.58525214698361
 20
-2.274038491986587
 30
0.0
 10
23.11483913896639
 20
-0.8201241174997307
 30
0.0
 10
21.64642510429168
 20
0.654826013256411
 30
0.0
 10
20.17670899909407
 20
2.113296684647281
 30
0.0
 10
18.70571288602008
 20
3.520429837198762
 30
0.0
 10
17.24464353075564
 20
4.839195955661737
 30
0.0
 10
15.79048042699404
 20
6.037221002684475
 30
0.0
 10
14.34176524253023
 20
7.089699206158983
 30
0.0
 10
12.89567575621516
 20
7.976511367608651
 30
0.0
 10
11.44907964917905
 20
8.694194139858254
 30
0.0
 10
10.48328267044072
 20
9.00116423697321
 30
0.0
 10
10.00000000000006
 20
9.154771394113979
 30
0.0
  0
SPLINE
  5
251
330
1F
100
AcDbEntity
  8
0
  6
Continuous
 62
     1
370
    15
100
AcDbSpline
210
0.0
220
0.0
230
1.0
 70
     8
 71
     3
 72
    30
 73
    26
 74
     0
 42
0.000000001
 43
0.00000001
 40
0.0
 40
0.0
 40
0.0
 40
0.0
 40
0.0226473945551428
 40
0.0661085813765337
 40
0.1095598498024663
 40
0.1530882438581205
 40
0.1965561559056724
 40
0.2406808176732315
 40
0.2848783712161868
 40
0.3290379254708281
 40
0.3731584920695169
 40
0.4173388393839351
 40
0.4615181161777692
 40
0.5056385842639239
 40
0.5497990178771617
 40
0.5939959284815316
 40
0.6381202947928902
 40
0.6822647746043242
 40
0.7264705626922775
 40
0.7706028207458195
 40
0.8147353236664214
 40
0.8628503771389844
 40
0.9109329210310875
 40
0.9589777676381435
 40
1.0
 40
1.0
 40
1.0
 40
1.0
 10
10.69541246819647
 20
8.913080621824022
 30
0.0
 10
10.94683419993332
 20
9.004379748668526
 30
0.0
 10
11.68074352322813
 20
9.270885272821019
 30
0.0
 10
12.89565096521599
 20
9.484549998604962
 30
0.0
 10
14.34177189781157
 20
9.559043486343157
 30
0.0
 10
15.79047864603859
 20
9.403085421161748
 30
0.0
 10
17.24464401568437
 20
9.03124204458679
 30
0.0
 10
18.70571275501632
 20
8.444350859764441
 30
0.0
 10
20.17670903419034
 20
7.655043307334097
 30
0.0
 10
21.64642509489283
 20
6.683272451892947
 30
0.0
 10
23.11483914151719
 20
5.551919065810154
 30
0.0
 10
24.58525214618936
 20
4.289871664576111
 30
0.0
 10
26.05562858856052
 20
2.925974027027735
 30
0.0
 10
27.5240390633475
 20
1.491090005272838
 30
0.0
 10
28.9937836748976
 20
0.0216723029887618
 30
0.0
 10
30.46475937529721
 20
-1.447125385858328
 30
0.0
 10
31.9333069398545
 20
-2.88357997220308
 30
0.0
 10
33.40252486220925
 20
-4.250988360136475
 30
0.0
 10
34.87380637878056
 20
-5.515771096193248
 30
0.0
 10
36.34259653295108
 20
-6.651512098592917
 30
0.0
 10
37.85485293101593
 20
-7.657236159190163
 30
0.0
 10
39.41302527675899
 20
-8.492515437737083
 30
0.0
 10
41.01346072697694
 20
-9.105305291951723
 30
0.0
 10
42.53444258443888
 20
-9.469904407611892
 30
0.0
 10
43.52252707022544
 20
-9.496145649413307
 30
0.0
 10
43.97761588461476
 20
-9.508231757222205
 30
0.0
  0
SPLINE
  5
253
330
1F
100
AcDbEntity
  8
0
  6
Continuous
 62
     1
370
    15
100
AcDbSpline
210
0.0
220
0.0
230
1.0
 70
     8
 71
     3
 72
    17
 73
    13
 74
     0
 42
0.000000001
 43
0.00000001
 40
0.0
 40
0.0
 40
0.0
 40
0.0
 40
0.1032730562079429
 40
0.2063819205016433
 40
0.309467254041443
 40
0.4127355631663598
 40
0.5158603826256296
 40
0.620543298462558
 40
0.725399145338124
 40
0.8301648413515395
 40
0.9348380416642911
 40
0.9999999999999999
 40
0.9999999999999999
 40
0.9999999999999999
 40
0.9999999999999999
 10
10.00000000000016
 20
-0.932244682683276
 30
0.0
 10
10.48328266984939
 20
-1.410410132713395
 30
0.0
 10
11.44907964740582
 20
-2.36598080640438
 30
0.0
 10
12.89567576329458
 20
-3.740154771883368
 30
0.0
 10
14.34176521596808
 20
-5.030015070553105
 30
0.0
 10
15.79048052629831
 20
-6.201505463191808
 30
0.0
 10
17.24464315837022
 20
-7.237391496089757
 30
0.0
 10
18.70571430022851
 20
-8.108345832631713
 30
0.0
 10
20.17670371603717
 20
-8.792622430321998
 30
0.0
 10
21.64644479292474
 20
-9.259097497420527
 30
0.0
 10
22.9294905846979
 20
-9.505668203414118
 30
0.0
 10
23.72400202734185
 20
-9.500368684752942
 30
0.0
 10
24.02883832822801
 20
-9.498335377768996
 30
0.0
  0
LINE
  5
254
330
1F
100
AcDbEntity
  8
0
  6
Continuous
 62
     1
370
    15
100
AcDbLine
 10
10.00000000000003
 20
-0.9322446826831765
 30
0.0
 11
9.999999999999943
 21
2.29992235132768
 31
0.0
  0
LINE
  5
255
330
1F
100
AcDbEntity
  8
0
  6
Continuous
 62
     1
370
    15
100
AcDbLine
 10
10.00000000000003
 20
7.743165608213516
 30
0.0
 11
9.999999999999943
 21
9.154771394114007
 31
0.0
  0
SPLINE
  5
256
330
1F
100
AcDbEntity
  8
0
  6
Continuous
 62
     1
370
    15
100
AcDbSpline
210
0.0
220
0.0
230
1.0
 70
     8
 71
     3
 72
    15
 73
    11
 74
     0
 42
0.000000001
 43
0.00000001
 40
0.0
 40
0.0
 40
0.0
 40
0.0
 40
0.0462919560775983
 40
0.1841496655334167
 40
0.3217800164051333
 40
0.4573618825796613
 40
0.5931323997185964
 40
0.7286623523510953
 40
0.864223241702253
 40
0.9999999999999999
 40
0.9999999999999999
 40
0.9999999999999999
 40
0.9999999999999999
 10
20.67088370522748
 20
-8.915118578575516
 30
0.0
 10
20.5062456878114
 20
-8.978469721472038
 30
0.0
 10
19.8513147146973
 20
-9.230480929553167
 30
0.0
 10
18.70566180274993
 20
-9.451125836305238
 30
0.0
 10
17.24465698185986
 20
-9.564536358287697
 30
0.0
 10
15.7904768399798
 20
-9.43911782637177
 30
0.0
 10
14.34176620199476
 20
-9.102076039679247
 30
0.0
 10
12.89567550049796
 20
-8.550624857266001
 30
0.0
 10
11.44907971323323
 20
-7.813723010098983
 30
0.0
 10
10.48328269180342
 20
-7.174643176808559
 30
0.0
 10
10.00000000000006
 20
-6.854849042785858
 30
0.0
  0
SPLINE
  5
257
330
1F
100
AcDbEntity
  8
0
  6
Continuous
 62
     1
370
    15
100
AcDbSpline
210
0.0
220
0.0
230
1.0
 70
    24
 71
     3
 72
    18
 73
    14
 74
     0
 42
0.000000001
 43
0.00000001
 40
0.0
 40
0.0
 40
0.0
 40
0.0
 40
0.2499999999999999
 40
0.2499999999999999
 40
0.4999999999999998
 40
0.4999999999999998
 40
0.6249999999999998
 40
0.6249999999999998
 40
0.7499999999999999
 40
0.7499999999999999
 40
0.875
 40
0.875
 40
1.0
 40
1.0
 40
1.0
 40
1.0
 10
9.999999999999943
 20
-0.9322446826830912
 30
0.0
 10
9.999999999999943
 20
-1.069490436978839
 30
0.0
 10
9.999999999999943
 20
-1.268379304157051
 30
0.0
 10
9.999999999999943
 20
-1.859787542586432
 30
0.0
 10
9.999999999999943
 20
-2.254995245895628
 30
0.0
 10
9.999999999999943
 20
-3.026218711763377
 30
0.0
 10
9.999999999999943
 20
-3.312516801520047
 30
0.0
 10
9.999999999999943
 20
-3.937207656981187
 30
0.0
 10
9.999999999999943
 20
-4.275648303169348
 30
0.0
 10
9.999999999999943
 20
-4.987010333708653
 30
0.0
 10
9.999999999999943
 20
-5.359821077056012
 30
0.0
 10
9.999999999999943
 20
-6.111459360542185
 30
0.0
 10
9.999999999999943
 20
-6.490015315012229
 30
0.0
 10
9.999999999999943
 20
-6.854849042785773
 30
0.0
  0
SPLINE
  5
259
330
1F
100
AcDbEntity
  8
0
  6
Continuous
 62
     1
370
    15
100
AcDbSpline
210
0.0
220
0.0
230
1.0
 70
     8
 71
     3
 72
    38
 73
    34
 74
     0
 42
0.000000001
 43
0.00000001
 40
0.0
 40
0.0
 40
0.0
 40
0.0
 40
0.0625000000000002
 40
0.0625000000000002
 40
0.1250000000000004
 40
0.1250000000000004
 40
0.1875000000000006
 40
0.1875000000000006
 40
0.2500000000000008
 40
0.2500000000000008
 40
0.3750000000000016
 40
0.3750000000000016
 40
0.5000000000000023
 40
0.5000000000000023
 40
0.5625000000000028
 40
0.5625000000000028
 40
0.6250000000000032
 40
0.6250000000000032
 40
0.6875000000000037
 40
0.6875000000000037
 40
0.7187500000000038
 40
0.7187500000000038
 40
0.7500000000000039
 40
0.7500000000000039
 40
0.7812500000000039
 40
0.7812500000000039
 40
0.812500000000004
 40
0.812500000000004
 40
0.8750000000000027
 40
0.8750000000000027
 40
0.9375000000000013
 40
0.9375000000000013
 40
1.0
 40
1.0
 40
1.0
 40
1.0
 10
45.81399999999994
 20
9.348703186221414
 30
0.0
 10
45.97572045689279
 20
9.317652842450073
 30
0.0
 10
46.13060001544554
 20
9.26571654432334
 30
0.0
 10
46.4310782995334
 20
9.124796850636272
 30
0.0
 10
46.57725303550208
 20
9.035062405976575
 30
0.0
 10
46.85628008679521
 20
8.820534084735655
 30
0.0
 10
46.98711866428062
 20
8.697501859331368
 30
0.0
 10
47.23079917490398
 20
8.422046202773444
 30
0.0
 10
47.34430589425003
 20
8.26834718825073
 30
0.0
 10
47.64766880737832
 20
7.774159016241882
 30
0.0
 10
47.79854035835858
 20
7.401649271365201
 30
0.0
 10
47.9936563194203
 20
6.632206465112418
 30
0.0
 10
48.03668189847787
 20
6.245325114164842
 30
0.0
 10
48.06487969988794
 20
5.708443473257205
 30
0.0
 10
48.06850142817461
 20
5.537011727787004
 30
0.0
 10
48.06746056970783
 20
5.219927429772213
 30
0.0
 10
48.06301404579234
 20
5.072330149637949
 30
0.0
 10
48.03819772729216
 20
4.809488269513054
 30
0.0
 10
48.01867207956077
 20
4.695049477544615
 30
0.0
 10
47.95692810070457
 20
4.565663504749736
 30
0.0
 10
47.93114634961307
 20
4.530851366224582
 30
0.0
 10
47.86244262343126
 20
4.48389586436231
 30
0.0
 10
47.81942307950686
 20
4.472338423482
 30
0.0
 10
47.71250150091163
 20
4.481062336958757
 30
0.0
 10
47.64813141900689
 20
4.501791899960665
 30
0.0
 10
47.5038322959758
 20
4.572794168435223
 30
0.0
 10
47.42310401688272
 20
4.6232677142482
 30
0.0
 10
47.17230573453594
 20
4.799386556527494
 30
0.0
 10
46.9947055124856
 20
4.946741299438756
 30
0.0
 10
46.64747669799739
 20
5.24045384658092
 30
0.0
 10
46.47622866380551
 20
5.388775607298712
 30
0.0
 10
46.13890785408591
 20
5.673977288979472
 30
0.0
 10
45.97546190081513
 20
5.809195468883402
 30
0.0
 10
45.81399999999994
 20
5.935796054867509
 30
0.0
  0
LINE
  5
25A
330
1F
100
AcDbEntity
  8
0
  6
Continuous
 62
     1
370
    15
100
AcDbLine
 10
48.09999999999994
 20
0.00000000000054
 30
0.0
 11
48.09999999999994
 21
7.239000000000544
 31
0.0
  0
LINE
  5
25B
330
1F
100
AcDbEntity
  8
0
  6
Continuous
 62
     1
370
    15
100
AcDbLine
 10
48.09999999999994
 20
-7.238999999999464
 30
0.0
 11
48.09999999999994
 21
0.00000000000054
 31
0.0
  0
SPLINE
  5
25C
330
1F
100
AcDbEntity
  8
0
  6
Continuous
 62
     1
370
    15
100
AcDbSpline
210
0.0
220
0.0
230
1.0
 70
     8
 71
     3
 72
    13
 73
     9
 74
     0
 42
0.000000001
 43
0.00000001
 40
0.0
 40
0.0
 40
0.0
 40
0.0
 40
0.1872320013371374
 40
0.3742414427375544
 40
0.5611973003352299
 40
0.7482998485512086
 40
0.9355289005844383
 40
0.9999999999999999
 40
0.9999999999999999
 40
0.9999999999999999
 40
0.9999999999999999
 10
45.81399999999994
 20
5.935796054867509
 30
0.0
 10
45.27985017788998
 20
6.336971414434018
 30
0.0
 10
44.21218546973745
 20
7.138845262294993
 30
0.0
 10
42.61254871793578
 20
8.095377816502605
 30
0.0
 10
41.01342862511217
 20
8.840134862165925
 30
0.0
 10
39.41308068543429
 20
9.316298665329711
 30
0.0
 10
38.16078152202721
 20
9.53185113464967
 30
0.0
 10
37.44348001124438
 20
9.505257028785323
 30
0.0
 10
37.25974862790423
 20
9.498445148724144
 30
0.0
  0
LINE
  5
25D
330
1F
100
AcDbEntity
  8
0
  6
Continuous
 62
     1
370
    15
100
AcDbLine
 10
10.69541246819645
 20
-8.913080621822928
 30
0.0
 11
10.00000000000006
 21
-9.154771394112885
 31
0.0
  0
SPLINE
  5
25E
330
1F
100
AcDbEntity
  8
0
  6
Continuous
 62
     1
370
    15
100
AcDbSpline
210
0.0
220
0.0
230
1.0
 70
     8
 71
     3
 72
    10
 73
     6
 74
     0
 42
0.000000001
 43
0.00000001
 40
0.0
 40
0.0
 40
0.0
 40
0.0
 40
0.3573750533422173
 40
0.7141819227237253
 40
1.0
 40
1.0
 40
1.0
 40
1.0
 10
10.00000000000045
 20
-8.675410290896252
 30
0.0
 10
10.48329245140144
 20
-8.854053105344278
 30
0.0
 10
11.44910897650989
 20
-9.211054713347124
 30
0.0
 10
12.79978574592489
 20
-9.48441723178692
 30
0.0
 10
13.66788233944806
 20
-9.50040920526105
 30
0.0
 10
14.05398266210329
 20
-9.507521900051387
 30
0.0
  0
SPLINE
  5
25F
330
1F
100
AcDbEntity
  8
0
  6
Continuous
 62
     1
370
    15
100
AcDbSpline
210
0.0
220
0.0
230
1.0
 70
     8
 71
     3
 72
    11
 73
     7
 74
     0
 42
0.000000001
 43
0.00000001
 40
0.0
 40
0.0
 40
0.0
 40
0.0
 40
0.0759740544617147
 40
0.3838017346508742
 40
0.6917176419643712
 40
1.0
 40
1.0
 40
1.0
 40
1.0
 10
40.61902744305245
 20
8.9154301136047
 30
0.0
 10
40.75060616950002
 20
8.967871248833816
 30
0.0
 10
41.41530866315438
 20
9.232790619145163
 30
0.0
 10
42.61250049758269
 20
9.45603946503688
 30
0.0
 10
44.21219754300625
 20
9.581947473226748
 30
0.0
 10
45.27985420390814
 20
9.426482100108316
 30
0.0
 10
45.81399999999992
 20
9.348703186221428
 30
0.0
  0
SPLINE
  5
260
330
1F
100
AcDbEntity
  8
0
  6
Continuous
 62
     1
370
    15
100
AcDbSpline
210
0.0
220
0.0
230
1.0
 70
    24
 71
     3
 72
     9
 73
     5
 74
     0
 42
0.000000001
 43
0.00000001
 40
0.0
 40
0.0
 40
0.0
 40
0.0
 40
0.0757794073152701
 40
1.0
 40
1.0
 40
1.0
 40
1.0
 10
9.999999999999943
 20
-8.747218710226846
 30
0.0
 10
9.999999999999943
 20
-8.755975074219407
 30
0.0
 10
9.999999999999943
 20
-8.871525779916183
 30
0.0
 10
9.999999999999943
 20
-9.018725958146035
 30
0.0
 10
9.999999999999943
 20
-9.154771394112913
 30
0.0
  0
LINE
  5
261
330
1F
100
AcDbEntity
  8
0
  6
Continuous
 62
     1
370
    15
100
AcDbLine
 10
9.999999999999929
 20
-8.675410290896366
 30
0.0
 11
9.999999999999943
 21
-6.854849042785773
 31
0.0
  0
LINE
  5
263
330
1F
100
AcDbEntity
  8
0
  6
Continuous
 62
     8
370
    15
100
AcDbLine
 10
45.81399999999994
 20
-9.524999999999451
 30
0.0
 11
45.81399999999994
 21
-9.41917407533768
 31
0.0
  0
LINE
  5
265
330
1F
100
AcDbEntity
  8
중심선
100
AcDbLine
 10
-56.50000000000006
 20
0.0000000000005258
 30
0.0
 11
51.09999999999994
 21
0.0000000000005258
 31
0.0
  0
CIRCLE
  5
266
330
1F
100
AcDbEntity
  8
외형선
100
AcDbCircle
 10
0.0
 20
0.0
 30
0.0
 40
3.000000000000001
  0
POINT
  5
267
330
1F
100
AcDbEntity
  8
치수문자_일반주서
100
AcDbPoint
 10
0.0
 20
0.0
 30
0.0
  0
DIMENSION
  5
268
330
1F
100
AcDbEntity
  8
치수문자_일반주서
100
AcDbDimension
  2
*D9
 10
48.09999999999994
 20
42.18055141807233
 30
0.0
 11
-2.70000000000006
 21
42.18055141807233
 31
0.0
 70
   160
  1
<>
 71
     2
 42
101.6
  3
SLDDIMSTYLE0
100
AcDbAlignedDimension
 13
-53.50000000000006
 23
9.025000000000531
 33
0.0
 14
48.09999999999994
 24
7.239000000000544
 34
0.0
100
AcDbRotatedDimension
1001
ACAD
1000
DSTYLE
1002
{
1070
   273
1070
     7
1002
}
  0
DIMENSION
  5
269
330
1F
100
AcDbEntity
  8
치수문자_일반주서
100
AcDbDimension
  2
*D10
 10
9.999999999999929
 20
24.86599453033845
 30
0.0
 11
28.63090169785215
 21
24.86599453033845
 31
0.0
 70
   160
  1
<>
 71
     2
 42
38.10000000000002
  3
SLDDIMSTYLE0
100
AcDbAlignedDimension
 13
48.09999999999994
 23
7.239000000000544
 33
0.0
 14
9.999999999999929
 24
-9.154771394112913
 34
0.0
 50
0.0000000000000321
100
AcDbRotatedDimension
1001
ACAD
1000
DSTYLE
1002
{
1070
   273
1070
     7
1002
}
  0
DIMENSION
  5
26A
330
1F
100
AcDbEntity
  8
치수문자_일반주서
100
AcDbDimension
  2
*D11
 10
-66.50000000000004
 20
-9.524999999999501
 30
0.0
 11
-66.50000000000009
 21
0.00000000000054
 31
0.0
 70
   160
  1
%%c<>
 71
     2
 42
19.05
 52
-270.0
  3
SLDDIMSTYLE1
100
AcDbAlignedDimension
 13
-53.00000000000006
 23
9.525000000000546
 33
0.0
 14
-53.00000000000006
 24
-9.524999999999451
 34
0.0
 50
90.0000000000002
100
AcDbRotatedDimension
1001
ACAD
1000
DSTYLE
1002
{
1070
   273
1070
     7
1002
}
  0
INSERT
  5
26B
330
1F
100
AcDbEntity
  8
외형선
100
AcDbBlockReference
  2
SW_DOWELSYMBOL_0
 10
0.0
 20
0.0
 30
0.0
  0
DIMENSION
  5
291
330
1F
100
AcDbEntity
  8
치수문자_일반주서
100
AcDbDimension
  2
*D12
 10
66.44566717283617
 20
-9.524999999999453
 30
0.0
 11
66.44566717283617
 21
0.00000000000054
 31
0.0
 70
   160
  1
{%%c<>}
 71
     5
 42
19.05
  3
SLDDIMSTYLE0
100
AcDbAlignedDimension
 13
45.81399999999994
 23
9.525000000000546
 33
0.0
 14
45.81399999999994
 24
-9.524999999999451
 34
0.0
 50
90.0
100
AcDbRotatedDimension
1001
ACAD
1000
DSTYLE
1002
{
1070
   273
1070
     7
1002
}
  0
DIMENSION
  5
2A2
330
1F
100
AcDbEntity
  8
치수문자_일반주서
100
AcDbDimension
  2
*D13
 10
45.81399999999994
 20
7.239000000000544
 30
0.0
 11
63.4212481636058
 21
24.88106837405914
 31
0.0
 70
   164
  1
<>
 71
     5
 42
2.286000000000003
  3
SLDDIMSTYLE0
100
AcDbRadialDimension
 15
47.42884854554436
 25
8.857042080712002
 35
0.0
 40
0.0
1001
ACAD
1000
DSTYLE
1002
{
1070
   171
1070
     3
1070
   273
1070
     2
1002
}
1001
ACAD_DSTYLE_DIMRADIAL_EXTENSION
1070
   387
1070
     1
1070
   388
1040
0.0
1070
   390
1040
1.570796326794897
  0
LINE
  5
30C
330
1F
100
AcDbEntity
  8
0
  6
Continuous
 62
     4
370
    15
100
AcDbLine
 10
-33.49432500000003
 20
7.620000000000545
 30
0.0
 11
-21.91192500000002
 21
7.620000000000545
 31
0.0
  0
LINE
  5
30D
330
1F
100
AcDbEntity
  8
0
  6
Continuous
 62
     4
370
    15
100
AcDbLine
 10
-33.49432500000003
 20
7.62000000000053
 30
0.0
 11
-35.39932500000018
 21
9.52500000000056
 31
0.0
  0
LINE
  5
30E
330
1F
100
AcDbEntity
  8
0
  6
Continuous
 62
     4
370
    15
100
AcDbLine
 10
-21.91192500000002
 20
7.62000000000053
 30
0.0
 11
-20.00692500000005
 21
9.52500000000056
 31
0.0
  0
LINE
  5
30F
330
1F
100
AcDbEntity
  8
0
  6
Continuous
 62
     4
370
    15
100
AcDbLine
 10
-35.39932500000016
 20
9.525000000000546
 30
0.0
 11
-53.00000000000006
 21
9.525000000000546
 31
0.0
  0
ENDSEC
  0
SECTION
  2
OBJECTS
  0
DICTIONARY
  5
C
330
0
100
AcDbDictionary
281
     1
  3
ACAD_GROUP
350
D
  3
ACAD_IMAGE_VARS
350
148
  3
ACAD_LAYOUT
350
1A
  3
ACAD_MLINESTYLE
350
17
  3
ACAD_PLOTSETTINGS
350
19
  3
ACAD_PLOTSTYLENAME
350
E
  3
ACAD_SCALELIST
350
47
  3
APPDATA
350
146
  3
DWGPROPS
350
334
  0
DICTIONARY
  5
2FE
330
2
100
AcDbDictionary
280
     1
281
     1
  3
ACAD_LAYERSTATES
360
2FF
  0
DICTIONARY
  5
332
330
1F
100
AcDbDictionary
280
     1
281
     1
  3
DIM_BOUNDING_BOXES_V1
360
333
  0
DICTIONARY
  5
D
102
{ACAD_REACTORS
330
C
102
}
330
C
100
AcDbDictionary
281
     1
  0
RASTERVARIABLES
  5
148
102
{ACAD_REACTORS
330
C
102
}
330
C
100
AcDbRasterVariables
 90
        0
 70
     1
 71
     1
 72
     1
  0
DICTIONARY
  5
1A
102
{ACAD_REACTORS
330
C
102
}
330
C
100
AcDbDictionary
281
     1
  3
Layout1
350
1E
  3
Layout2
350
26
  3
Model
350
22
  0
DICTIONARY
  5
17
102
{ACAD_REACTORS
330
C
102
}
330
C
100
AcDbDictionary
281
     1
  3
Standard
350
18
  0
DICTIONARY
  5
19
102
{ACAD_REACTORS
330
C
102
}
330
C
100
AcDbDictionary
281
     1
  0
ACDBDICTIONARYWDFLT
  5
E
102
{ACAD_REACTORS
330
C
102
}
330
C
100
AcDbDictionary
281
     1
  3
Normal
350
F
100
AcDbDictionaryWithDefault
340
F
  0
DICTIONARY
  5
47
102
{ACAD_REACTORS
330
C
102
}
330
C
100
AcDbDictionary
281
     1
  3
A0
350
48
  3
A1
350
49
  3
A2
350
4A
  3
A3
350
4B
  3
A4
350
4C
  3
A5
350
4D
  3
A6
350
4E
  3
A7
350
4F
  3
A8
350
50
  3
A9
350
51
  3
B0
350
52
  3
B1
350
53
  3
B2
350
54
  3
B3
350
55
  3
B4
350
56
  3
B5
350
57
  3
B6
350
58
  3
B7
350
59
  3
B8
350
5A
  3
B9
350
5B
  3
C0
350
5C
  3
C1
350
5D
  3
C2
350
5E
  3
C3
350
5F
  3
C4
350
60
  3
C5
350
61
  3
C6
350
62
  3
C7
350
63
  3
C8
350
64
  3
C9
350
65
  3
D0
350
66
  3
D1
350
67
  3
D2
350
68
  0
DICTIONARY
  5
146
102
{ACAD_REACTORS
330
C
102
}
330
C
100
AcDbDictionary
281
     1
  0
XRECORD
  5
334
102
{ACAD_REACTORS
330
C
102
}
330
C
100
AcDbXrecord
280
     1
  1
DWGPROPS COOKIE
  2

  3

  4

  6

  7

  8
12015018
  9

300
=
301
=
302
=
303
=
304
=
305
=
306
=
307
=
308
=
309
=
 40
0.0
 41
2458236.375529028
 42
2459697.068479468
  1

 90
        0
  0
DICTIONARY
  5
2FF
102
{ACAD_REACTORS
330
2FE
102
}
330
2FE
100
AcDbDictionary
281
     1
  0
DICTIONARY
  5
333
102
{ACAD_REACTORS
330
332
102
}
330
332
100
AcDbDictionary
281
     1
  0
LAYOUT
  5
1E
102
{ACAD_REACTORS
330
1A
102
}
330
1A
100
AcDbPlotSettings
  1

  2
none_device
  4

  6

 40
0.0
 41
0.0
 42
0.0
 43
0.0
 44
0.0
 45
0.0
 46
0.0
 47
0.0
 48
0.0
 49
0.0
140
0.0
141
0.0
142
1.0
143
1.0
 70
   688
 72
     1
 73
     0
 74
     5
  7

 75
    16
147
1.0
148
0.0
149
0.0
100
AcDbLayout
  1
Layout1
 70
     1
 71
     1
 10
0.0
 20
0.0
 11
420.0
 21
297.0
 12
0.0
 22
0.0
 32
0.0
 14
1.000000000000000E+20
 24
1.000000000000000E+20
 34
1.000000000000000E+20
 15
-1.000000000000000E+20
 25
-1.000000000000000E+20
 35
-1.000000000000000E+20
146
0.0
 13
0.0
 23
0.0
 33
0.0
 16
1.0
 26
0.0
 36
0.0
 17
0.0
 27
1.0
 37
0.0
 76
     0
330
1B
  0
LAYOUT
  5
26
102
{ACAD_REACTORS
330
1A
102
}
330
1A
100
AcDbPlotSettings
  1

  2
none_device
  4

  6

 40
0.0
 41
0.0
 42
0.0
 43
0.0
 44
0.0
 45
0.0
 46
0.0
 47
0.0
 48
0.0
 49
0.0
140
0.0
141
0.0
142
1.0
143
1.0
 70
   688
 72
     1
 73
     0
 74
     5
  7

 75
    16
147
1.0
148
0.0
149
0.0
100
AcDbLayout
  1
Layout2
 70
     1
 71
     2
 10
0.0
 20
0.0
 11
0.0
 21
0.0
 12
0.0
 22
0.0
 32
0.0
 14
0.0
 24
0.0
 34
0.0
 15
0.0
 25
0.0
 35
0.0
146
0.0
 13
0.0
 23
0.0
 33
0.0
 16
1.0
 26
0.0
 36
0.0
 17
0.0
 27
1.0
 37
0.0
 76
     0
330
23
  0
LAYOUT
  5
22
102
{ACAD_REACTORS
330
1A
102
}
330
1A
100
AcDbPlotSettings
  1

  2
none_device
  4
ANSI_A_(11.00_x_8.50_Inches)
  6

 40
6.35
 41
19.05
 42
6.35000508
 43
19.05000254
 44
279.4
 45
215.9
 46
147.216122257536
 47
86.83625569318504
 48
0.0
 49
0.0
140
0.0
141
0.0
142
0.0813602952248001
143
1.0
 70
  1696
 72
     0
 73
     0
 74
     0
  7

 75
     0
147
0.0235690232323232
148
0.0
149
0.0
100
AcDbLayout
  1
Model
 70
     1
 71
     0
 10
0.0
 20
0.0
 11
420.0
 21
297.0
 12
0.0
 22
0.0
 32
0.0
 14
-70.87500000000014
 24
-49.97180738881174
 34
0.0
 15
74.39264644575226
 25
46.55555141807233
 35
0.0
146
0.0
 13
0.0
 23
0.0
 33
0.0
 16
1.0
 26
0.0
 36
0.0
 17
0.0
 27
1.0
 37
0.0
 76
     0
330
1F
331
29
  0
MLINESTYLE
  5
18
102
{ACAD_REACTORS
330
17
102
}
330
17
100
AcDbMlineStyle
  2
Standard
 70
     0
  3

 62
   256
 51
90.0
 52
90.0
 71
     2
 49
0.5
 62
   256
  6
BYLAYER
 49
-0.5
 62
   256
  6
BYLAYER
  0
ACDBPLACEHOLDER
  5
F
102
{ACAD_REACTORS
330
E
102
}
330
E
  0
SCALE
  5
48
102
{ACAD_REACTORS
330
47
102
}
330
47
100
AcDbScale
 70
     0
300
1:1
140
1.0
141
1.0
290
     1
  0
SCALE
  5
49
102
{ACAD_REACTORS
330
47
102
}
330
47
100
AcDbScale
 70
     0
300
1:2
140
1.0
141
2.0
290
     0
  0
SCALE
  5
4A
102
{ACAD_REACTORS
330
47
102
}
330
47
100
AcDbScale
 70
     0
300
1:4
140
1.0
141
4.0
290
     0
  0
SCALE
  5
4B
102
{ACAD_REACTORS
330
47
102
}
330
47
100
AcDbScale
 70
     0
300
1:5
140
1.0
141
5.0
290
     0
  0
SCALE
  5
4C
102
{ACAD_REACTORS
330
47
102
}
330
47
100
AcDbScale
 70
     0
300
1:8
140
1.0
141
8.0
290
     0
  0
SCALE
  5
4D
102
{ACAD_REACTORS
330
47
102
}
330
47
100
AcDbScale
 70
     0
300
1:10
140
1.0
141
10.0
290
     0
  0
SCALE
  5
4E
102
{ACAD_REACTORS
330
47
102
}
330
47
100
AcDbScale
 70
     0
300
1:16
140
1.0
141
16.0
290
     0
  0
SCALE
  5
4F
102
{ACAD_REACTORS
330
47
102
}
330
47
100
AcDbScale
 70
     0
300
1:20
140
1.0
141
20.0
290
     0
  0
SCALE
  5
50
102
{ACAD_REACTORS
330
47
102
}
330
47
100
AcDbScale
 70
     0
300
1:30
140
1.0
141
30.0
290
     0
  0
SCALE
  5
51
102
{ACAD_REACTORS
330
47
102
}
330
47
100
AcDbScale
 70
     0
300
1:40
140
1.0
141
40.0
290
     0
  0
SCALE
  5
52
102
{ACAD_REACTORS
330
47
102
}
330
47
100
AcDbScale
 70
     0
300
1:50
140
1.0
141
50.0
290
     0
  0
SCALE
  5
53
102
{ACAD_REACTORS
330
47
102
}
330
47
100
AcDbScale
 70
     0
300
1:100
140
1.0
141
100.0
290
     0
  0
SCALE
  5
54
102
{ACAD_REACTORS
330
47
102
}
330
47
100
AcDbScale
 70
     0
300
2:1
140
2.0
141
1.0
290
     0
  0
SCALE
  5
55
102
{ACAD_REACTORS
330
47
102
}
330
47
100
AcDbScale
 70
     0
300
4:1
140
4.0
141
1.0
290
     0
  0
SCALE
  5
56
102
{ACAD_REACTORS
330
47
102
}
330
47
100
AcDbScale
 70
     0
300
8:1
140
8.0
141
1.0
290
     0
  0
SCALE
  5
57
102
{ACAD_REACTORS
330
47
102
}
330
47
100
AcDbScale
 70
     0
300
10:1
140
10.0
141
1.0
290
     0
  0
SCALE
  5
58
102
{ACAD_REACTORS
330
47
102
}
330
47
100
AcDbScale
 70
     0
300
100:1
140
100.0
141
1.0
290
     0
  0
SCALE
  5
59
102
{ACAD_REACTORS
330
47
102
}
330
47
100
AcDbScale
 70
     0
300
1/128" = 1'-0"
140
0.0078125
141
12.0
290
     0
  0
SCALE
  5
5A
102
{ACAD_REACTORS
330
47
102
}
330
47
100
AcDbScale
 70
     0
300
1/64" = 1'-0"
140
0.015625
141
12.0
290
     0
  0
SCALE
  5
5B
102
{ACAD_REACTORS
330
47
102
}
330
47
100
AcDbScale
 70
     0
300
1/32" = 1'-0"
140
0.03125
141
12.0
290
     0
  0
SCALE
  5
5C
102
{ACAD_REACTORS
330
47
102
}
330
47
100
AcDbScale
 70
     0
300
1/16" = 1'-0"
140
0.0625
141
12.0
290
     0
  0
SCALE
  5
5D
102
{ACAD_REACTORS
330
47
102
}
330
47
100
AcDbScale
 70
     0
300
3/32" = 1'-0"
140
0.09375
141
12.0
290
     0
  0
SCALE
  5
5E
102
{ACAD_REACTORS
330
47
102
}
330
47
100
AcDbScale
 70
     0
300
1/8" = 1'-0"
140
0.125
141
12.0
290
     0
  0
SCALE
  5
5F
102
{ACAD_REACTORS
330
47
102
}
330
47
100
AcDbScale
 70
     0
300
3/16" = 1'-0"
140
0.1875
141
12.0
290
     0
  0
SCALE
  5
60
102
{ACAD_REACTORS
330
47
102
}
330
47
100
AcDbScale
 70
     0
300
1/4" = 1'-0"
140
0.25
141
12.0
290
     0
  0
SCALE
  5
61
102
{ACAD_REACTORS
330
47
102
}
330
47
100
AcDbScale
 70
     0
300
3/8" = 1'-0"
140
0.375
141
12.0
290
     0
  0
SCALE
  5
62
102
{ACAD_REACTORS
330
47
102
}
330
47
100
AcDbScale
 70
     0
300
1/2" = 1'-0"
140
0.5
141
12.0
290
     0
  0
SCALE
  5
63
102
{ACAD_REACTORS
330
47
102
}
330
47
100
AcDbScale
 70
     0
300
3/4" = 1'-0"
140
0.75
141
12.0
290
     0
  0
SCALE
  5
64
102
{ACAD_REACTORS
330
47
102
}
330
47
100
AcDbScale
 70
     0
300
1" = 1'-0"
140
1.0
141
12.0
290
     0
  0
SCALE
  5
65
102
{ACAD_REACTORS
330
47
102
}
330
47
100
AcDbScale
 70
     0
300
1-1/2" = 1'-0"
140
1.5
141
12.0
290
     0
  0
SCALE
  5
66
102
{ACAD_REACTORS
330
47
102
}
330
47
100
AcDbScale
 70
     0
300
3" = 1'-0"
140
3.0
141
12.0
290
     0
  0
SCALE
  5
67
102
{ACAD_REACTORS
330
47
102
}
330
47
100
AcDbScale
 70
     0
300
6" = 1'-0"
140
6.0
141
12.0
290
     0
  0
SCALE
  5
68
102
{ACAD_REACTORS
330
47
102
}
330
47
100
AcDbScale
 70
     0
300
1'-0" = 1'-0"
140
12.0
141
12.0
290
     0
  0
ENDSEC
  0
EOF
