  0
SECTION
  2
HEADER
  9
$ACADVER
  1
AC1015
  9
$ACADMAINTVER
 70
     6
  9
$DWGCODEPAGE
  3
ANSI_949
  9
$INSBASE
 10
0.0
 20
0.0
 30
0.0
  9
$EXTMIN
 10
-58.17500000000008
 20
-49.71142936356762
 30
0.0
  9
$EXTMAX
 10
110.9292923961483
 20
44.96805141807179
 30
0.0
  9
$LIMMIN
 10
0.0
 20
0.0
  9
$LIMMAX
 10
420.0
 20
297.0
  9
$ORTHOMODE
 70
     1
  9
$REGENMODE
 70
     1
  9
$FILLMODE
 70
     1
  9
$QTEXTMODE
 70
     0
  9
$MIRRTEXT
 70
     1
  9
$LTSCALE
 40
1.0
  9
$ATTMODE
 70
     1
  9
$TEXTSIZE
 40
3.5
  9
$TRACEWID
 40
1.0
  9
$TEXTSTYLE
  7
Standard
  9
$CLAYER
  8
0
  9
$CELTYPE
  6
ByLayer
  9
$CECOLOR
 62
   256
  9
$CELTSCALE
 40
1.0
  9
$DISPSILH
 70
     0
  9
$DIMSCALE
 40
1.0
  9
$DIMASZ
 40
3.302
  9
$DIMEXO
 40
1.0
  9
$DIMDLI
 40
3.75
  9
$DIMRND
 40
0.0
  9
$DIMDLE
 40
0.0
  9
$DIMEXE
 40
1.0
  9
$DIMTP
 40
0.0
  9
$DIMTM
 40
0.0
  9
$DIMTXT
 40
3.5
  9
$DIMCEN
 40
2.5
  9
$DIMTSZ
 40
0.0
  9
$DIMTOL
 70
     0
  9
$DIMLIM
 70
     0
  9
$DIMTIH
 70
     1
  9
$DIMTOH
 70
     1
  9
$DIMSE1
 70
     0
  9
$DIMSE2
 70
     0
  9
$DIMTAD
 70
     1
  9
$DIMZIN
 70
     0
  9
$DIMBLK
  1

  9
$DIMASO
 70
     1
  9
$DIMSHO
 70
     1
  9
$DIMPOST
  1

  9
$DIMAPOST
  1

  9
$DIMALT
 70
     0
  9
$DIMALTD
 70
     3
  9
$DIMALTF
 40
0.0393700787401575
  9
$DIMLFAC
 40
1.0
  9
$DIMTOFL
 70
     1
  9
$DIMTVP
 40
0.0
  9
$DIMTIX
 70
     0
  9
$DIMSOXD
 70
     0
  9
$DIMSAH
 70
     0
  9
$DIMBLK1
  1

  9
$DIMBLK2
  1

  9
$DIMSTYLE
  2
ISO-25
  9
$DIMCLRD
 70
     0
  9
$DIMCLRE
 70
     0
  9
$DIMCLRT
 70
     0
  9
$DIMTFAC
 40
1.0
  9
$DIMGAP
 40
1.524
  9
$DIMJUST
 70
     0
  9
$DIMSD1
 70
     0
  9
$DIMSD2
 70
     0
  9
$DIMTOLJ
 70
     0
  9
$DIMTZIN
 70
     0
  9
$DIMALTZ
 70
     0
  9
$DIMALTTZ
 70
     0
  9
$DIMUPT
 70
     0
  9
$DIMDEC
 70
     2
  9
$DIMTDEC
 70
     2
  9
$DIMALTU
 70
     2
  9
$DIMALTTD
 70
     3
  9
$DIMTXSTY
  7
Standard
  9
$DIMAUNIT
 70
     0
  9
$DIMADEC
 70
     2
  9
$DIMALTRND
 40
0.0
  9
$DIMAZIN
 70
     0
  9
$DIMDSEP
 70
    44
  9
$DIMATFIT
 70
     3
  9
$DIMFRAC
 70
     0
  9
$DIMLDRBLK
  1

  9
$DIMLUNIT
 70
     2
  9
$DIMLWD
 70
    -2
  9
$DIMLWE
 70
    -2
  9
$DIMTMOVE
 70
     0
  9
$LUNITS
 70
     2
  9
$LUPREC
 70
     2
  9
$SKETCHINC
 40
1.0
  9
$FILLETRAD
 40
10.0
  9
$AUNITS
 70
     0
  9
$AUPREC
 70
     2
  9
$MENU
  1
.
  9
$ELEVATION
 40
0.0
  9
$PELEVATION
 40
0.0
  9
$THICKNESS
 40
0.0
  9
$LIMCHECK
 70
     0
  9
$CHAMFERA
 40
0.0
  9
$CHAMFERB
 40
0.0
  9
$CHAMFERC
 40
0.0
  9
$CHAMFERD
 40
0.0
  9
$SKPOLY
 70
     0
  9
$TDCREATE
 40
2458236.749306667
  9
$TDUCREATE
 40
2458236.374306667
  9
$TDUPDATE
 40
2459697.443130891
  9
$TDUUPDATE
 40
2459697.068130891
  9
$TDINDWG
 40
0.0384599653
  9
$TDUSRTIMER
 40
0.0000428009
  9
$USRTIMER
 70
     1
  9
$ANGBASE
 50
0.0
  9
$ANGDIR
 70
     0
  9
$PDMODE
 70
     0
  9
$PDSIZE
 40
-1.0
  9
$PLINEWID
 40
0.0
  9
$SPLFRAME
 70
     0
  9
$SPLINETYPE
 70
     6
  9
$SPLINESEGS
 70
     8
  9
$HANDSEED
  5
21C
  9
$SURFTAB1
 70
     6
  9
$SURFTAB2
 70
     6
  9
$SURFTYPE
 70
     6
  9
$SURFU
 70
     6
  9
$SURFV
 70
     6
  9
$UCSBASE
  2

  9
$UCSNAME
  2

  9
$UCSORG
 10
0.0
 20
0.0
 30
0.0
  9
$UCSXDIR
 10
1.0
 20
0.0
 30
0.0
  9
$UCSYDIR
 10
0.0
 20
1.0
 30
0.0
  9
$UCSORTHOREF
  2

  9
$UCSORTHOVIEW
 70
     0
  9
$UCSORGTOP
 10
0.0
 20
0.0
 30
0.0
  9
$UCSORGBOTTOM
 10
0.0
 20
0.0
 30
0.0
  9
$UCSORGLEFT
 10
0.0
 20
0.0
 30
0.0
  9
$UCSORGRIGHT
 10
0.0
 20
0.0
 30
0.0
  9
$UCSORGFRONT
 10
0.0
 20
0.0
 30
0.0
  9
$UCSORGBACK
 10
0.0
 20
0.0
 30
0.0
  9
$PUCSBASE
  2

  9
$PUCSNAME
  2

  9
$PUCSORG
 10
0.0
 20
0.0
 30
0.0
  9
$PUCSXDIR
 10
1.0
 20
0.0
 30
0.0
  9
$PUCSYDIR
 10
0.0
 20
1.0
 30
0.0
  9
$PUCSORTHOREF
  2

  9
$PUCSORTHOVIEW
 70
     0
  9
$PUCSORGTOP
 10
0.0
 20
0.0
 30
0.0
  9
$PUCSORGBOTTOM
 10
0.0
 20
0.0
 30
0.0
  9
$PUCSORGLEFT
 10
0.0
 20
0.0
 30
0.0
  9
$PUCSORGRIGHT
 10
0.0
 20
0.0
 30
0.0
  9
$PUCSORGFRONT
 10
0.0
 20
0.0
 30
0.0
  9
$PUCSORGBACK
 10
0.0
 20
0.0
 30
0.0
  9
$USERI1
 70
     0
  9
$USERI2
 70
     0
  9
$USERI3
 70
     0
  9
$USERI4
 70
     0
  9
$USERI5
 70
     0
  9
$USERR1
 40
0.0
  9
$USERR2
 40
0.0
  9
$USERR3
 40
0.0
  9
$USERR4
 40
0.0
  9
$USERR5
 40
0.0
  9
$WORLDVIEW
 70
     1
  9
$SHADEDGE
 70
     3
  9
$SHADEDIF
 70
    70
  9
$TILEMODE
 70
     1
  9
$MAXACTVP
 70
    64
  9
$PINSBASE
 10
0.0
 20
0.0
 30
0.0
  9
$PLIMCHECK
 70
     0
  9
$PEXTMIN
 10
1.000000000000000E+20
 20
1.000000000000000E+20
 30
1.000000000000000E+20
  9
$PEXTMAX
 10
-1.000000000000000E+20
 20
-1.000000000000000E+20
 30
-1.000000000000000E+20
  9
$PLIMMIN
 10
0.0
 20
0.0
  9
$PLIMMAX
 10
0.0
 20
0.0
  9
$UNITMODE
 70
     0
  9
$VISRETAIN
 70
     1
  9
$PLINEGEN
 70
     0
  9
$PSLTSCALE
 70
     1
  9
$TREEDEPTH
 70
  3020
  9
$CMLSTYLE
  2
Standard
  9
$CMLJUST
 70
     0
  9
$CMLSCALE
 40
20.0
  9
$PROXYGRAPHICS
 70
     1
  9
$MEASUREMENT
 70
     1
  9
$CELWEIGHT
370
    -1
  9
$ENDCAPS
280
     0
  9
$JOINSTYLE
280
     0
  9
$LWDISPLAY
290
     1
  9
$INSUNITS
 70
     4
  9
$HYPERLINKBASE
  1

  9
$STYLESHEET
  1

  9
$XEDIT
290
     1
  9
$CEPSNTYPE
380
     0
  9
$PSTYLEMODE
290
     1
  9
$FINGERPRINTGUID
  2
{0043DFEE-4AEC-4C9B-9EA2-2C03279439FE}
  9
$VERSIONGUID
  2
{FAEB1C32-E019-11D5-929B-00C0DF256EC4}
  9
$EXTNAMES
290
     1
  9
$PSVPSCALE
 40
0.0
  9
$OLESTARTUP
290
     0
  0
ENDSEC
  0
SECTION
  2
CLASSES
  0
CLASS
  1
ACDBDICTIONARYWDFLT
  2
AcDbDictionaryWithDefault
  3
ObjectDBX Classes
 90
        0
280
     0
281
     0
  0
CLASS
  1
VISUALSTYLE
  2
AcDbVisualStyle
  3
ObjectDBX Classes
 90
     4095
280
     0
281
     0
  0
CLASS
  1
MATERIAL
  2
AcDbMaterial
  3
ObjectDBX Classes
 90
     1153
280
     0
281
     0
  0
CLASS
  1
SCALE
  2
AcDbScale
  3
ObjectDBX Classes
 90
     1153
280
     0
281
     0
  0
CLASS
  1
SUN
  2
AcDbSun
  3
SCENEOE
 90
     1153
280
     0
281
     0
  0
CLASS
  1
ACDBPLACEHOLDER
  2
AcDbPlaceHolder
  3
ObjectDBX Classes
 90
        0
280
     0
281
     0
  0
CLASS
  1
LAYOUT
  2
AcDbLayout
  3
ObjectDBX Classes
 90
        0
280
     0
281
     0
  0
CLASS
  1
TABLESTYLE
  2
AcDbTableStyle
  3
ObjectDBX Classes
 90
     4095
280
     0
281
     0
  0
CLASS
  1
MLEADERSTYLE
  2
AcDbMLeaderStyle
  3
ACDB_MLEADERSTYLE_CLASS
 90
     4095
280
     0
281
     0
  0
CLASS
  1
RASTERVARIABLES
  2
AcDbRasterVariables
  3
ISM
 90
        0
280
     0
281
     0
  0
CLASS
  1
DIMASSOC
  2
AcDbDimAssoc
  3
"AcDbDimAssoc|Product Desc:     AcDim ARX App For Dimension|Company:          Autodesk, Inc.|WEB Address:      www.autodesk.com"
 90
        0
280
     0
281
     0
  0
ENDSEC
  0
SECTION
  2
TABLES
  0
TABLE
  2
VPORT
  5
8
330
0
100
AcDbSymbolTable
 70
     1
  0
VPORT
  5
29
330
8
100
AcDbSymbolTableRecord
100
AcDbViewportTableRecord
  2
*Active
 70
     0
 10
0.0
 20
0.0
 11
1.0
 21
1.0
 12
26.3771461980741
 22
-2.371688972747911
 13
0.0
 23
0.0
 14
10.0
 24
10.0
 15
10.0
 25
10.0
 16
0.0
 26
0.0
 36
1.0
 17
0.0
 27
0.0
 37
0.0
 40
96.57307039727222
 41
1.898569570871261
 42
50.0
 43
0.0
 44
0.0
 50
0.0
 51
0.0
 71
    16
 72
  2000
 73
     1
 74
     3
 75
     0
 76
     0
 77
     0
 78
     0
281
     0
 65
     1
110
0.0
120
0.0
130
0.0
111
1.0
121
0.0
131
0.0
112
0.0
122
1.0
132
0.0
 79
     0
146
0.0
  0
ENDTAB
  0
TABLE
  2
LTYPE
  5
5
330
0
100
AcDbSymbolTable
 70
     6
  0
LTYPE
  5
14
330
5
100
AcDbSymbolTableRecord
100
AcDbLinetypeTableRecord
  2
ByBlock
 70
     0
  3

 72
    65
 73
     0
 40
0.0
  0
LTYPE
  5
15
330
5
100
AcDbSymbolTableRecord
100
AcDbLinetypeTableRecord
  2
ByLayer
 70
     0
  3

 72
    65
 73
     0
 40
0.0
  0
LTYPE
  5
16
330
5
100
AcDbSymbolTableRecord
100
AcDbLinetypeTableRecord
  2
Continuous
 70
     0
  3
Solid line
 72
    65
 73
     0
 40
0.0
  0
LTYPE
  5
6A
330
5
100
AcDbSymbolTableRecord
100
AcDbLinetypeTableRecord
  2
HIDDEN
 70
     0
  3
Hidden __ __ __ __ __ __ __ __ __ __ __ __ __ __
 72
    65
 73
     2
 40
1.905
 49
1.27
 74
     0
 49
-0.635
 74
     0
  0
LTYPE
  5
6B
330
5
100
AcDbSymbolTableRecord
100
AcDbLinetypeTableRecord
  2
PHANTOM
 70
     0
  3
Phantom ______  __  __  ______  __  __  ______
 72
    65
 73
     6
 40
12.7
 49
6.35
 74
     0
 49
-1.27
 74
     0
 49
1.27
 74
     0
 49
-1.27
 74
     0
 49
1.27
 74
     0
 49
-1.27
 74
     0
  0
LTYPE
  5
6C
330
5
100
AcDbSymbolTableRecord
100
AcDbLinetypeTableRecord
  2
CENTER
 70
     0
  3
Center ____ _ ____ _ ____ _ ____ _ ____ _ ____
 72
    65
 73
     4
 40
10.16
 49
6.35
 74
     0
 49
-1.27
 74
     0
 49
1.27
 74
     0
 49
-1.27
 74
     0
  0
LTYPE
  5
6D
330
5
100
AcDbSymbolTableRecord
100
AcDbLinetypeTableRecord
  2
CENTERX2
 70
     0
  3
Center (2x) ________  __  ________  __  _____
 72
    65
 73
     4
 40
20.32
 49
12.7
 74
     0
 49
-2.54
 74
     0
 49
2.54
 74
     0
 49
-2.54
 74
     0
  0
LTYPE
  5
6E
330
5
100
AcDbSymbolTableRecord
100
AcDbLinetypeTableRecord
  2
DOT2
 70
     0
  3
Dot (.5x) ........................................
 72
    65
 73
     2
 40
0.635
 49
0.0
 74
     0
 49
-0.635
 74
     0
  0
ENDTAB
  0
TABLE
  2
LAYER
  5
2
102
{ACAD_XDICTIONARY
360
1E5
102
}
330
0
100
AcDbSymbolTable
 70
    17
  0
LAYER
  5
10
330
2
100
AcDbSymbolTableRecord
100
AcDbLayerTableRecord
  2
0
 70
     0
 62
     7
  6
Continuous
370
    -3
390
F
  0
LAYER
  5
6F
330
2
100
AcDbSymbolTableRecord
100
AcDbLayerTableRecord
  2
FORMAT
 70
     0
 62
     2
  6
Continuous
370
    -3
390
F
  0
LAYER
  5
70
330
2
100
AcDbSymbolTableRecord
100
AcDbLayerTableRecord
  2
외형선
 70
     0
 62
   100
  6
Continuous
370
    30
390
F
  0
LAYER
  5
71
330
2
100
AcDbSymbolTableRecord
100
AcDbLayerTableRecord
  2
숨은선
 70
     0
 62
     2
  6
HIDDEN
370
    15
390
F
  0
LAYER
  5
72
330
2
100
AcDbSymbolTableRecord
100
AcDbLayerTableRecord
  2
중심선
 70
     0
 62
     1
  6
CENTERX2
370
    -3
390
F
  0
LAYER
  5
73
330
2
100
AcDbSymbolTableRecord
100
AcDbLayerTableRecord
  2
파단선
 70
     0
 62
     4
  6
Continuous
370
    -3
390
F
  0
LAYER
  5
74
330
2
100
AcDbSymbolTableRecord
100
AcDbLayerTableRecord
  2
해칭선
 70
     0
 62
     4
  6
Continuous
370
    -3
390
F
  0
LAYER
  5
75
330
2
100
AcDbSymbolTableRecord
100
AcDbLayerTableRecord
  2
가는실선
 70
     0
 62
     4
  6
Continuous
370
    -3
390
F
  0
LAYER
  5
76
330
2
100
AcDbSymbolTableRecord
100
AcDbLayerTableRecord
  2
치수_보조선
 70
     0
 62
     4
  6
Continuous
370
    -3
390
F
  0
LAYER
  5
77
330
2
100
AcDbSymbolTableRecord
100
AcDbLayerTableRecord
  2
치수문자_일반주서
 70
     0
 62
     7
  6
Continuous
370
    15
390
F
  0
LAYER
  5
78
330
2
100
AcDbSymbolTableRecord
100
AcDbLayerTableRecord
  2
개별주서
 70
     0
 62
   100
  6
Continuous
370
    30
390
F
  0
LAYER
  5
79
330
2
100
AcDbSymbolTableRecord
100
AcDbLayerTableRecord
  2
중간선
 70
     0
 62
     2
  6
Continuous
370
    15
390
F
  0
LAYER
  5
7A
330
2
100
AcDbSymbolTableRecord
100
AcDbLayerTableRecord
  2
윤곽선
 70
     0
 62
     3
  6
Continuous
370
    40
390
F
  0
LAYER
  5
7B
330
2
100
AcDbSymbolTableRecord
100
AcDbLayerTableRecord
  2
중심마크
 70
     0
 62
   100
  6
Continuous
370
    30
390
F
  0
LAYER
  5
7C
330
2
100
AcDbSymbolTableRecord
100
AcDbLayerTableRecord
  2
가상선
 70
     0
 62
     4
  6
PHANTOM
370
    -3
390
F
  0
LAYER
  5
7D
330
2
100
AcDbSymbolTableRecord
100
AcDbLayerTableRecord
  2
특수지정선
 70
     0
 62
     5
  6
CENTERX2
370
    60
390
F
  0
LAYER
  5
175
330
2
100
AcDbSymbolTableRecord
100
AcDbLayerTableRecord
  2
Defpoints
 70
     0
 62
     7
  6
Continuous
290
     0
370
    -3
390
F
  0
ENDTAB
  0
TABLE
  2
STYLE
  5
3
330
0
100
AcDbSymbolTable
 70
     2
  0
STYLE
  5
11
330
3
100
AcDbSymbolTableRecord
100
AcDbTextStyleTableRecord
  2
Standard
 70
     0
 40
0.0
 41
1.0
 50
0.0
 71
     0
 42
3.5
  3
txt
  4

  0
STYLE
  5
93
330
3
100
AcDbSymbolTableRecord
100
AcDbTextStyleTableRecord
  2
SLDTEXTSTYLE0
 70
     0
 40
0.0
 41
0.75
 50
0.0
 71
     0
 42
3.5
  3
TXT
  4

  0
ENDTAB
  0
TABLE
  2
VIEW
  5
6
330
0
100
AcDbSymbolTable
 70
     0
  0
ENDTAB
  0
TABLE
  2
UCS
  5
7
330
0
100
AcDbSymbolTable
 70
     0
  0
ENDTAB
  0
TABLE
  2
APPID
  5
9
330
0
100
AcDbSymbolTable
 70
     3
  0
APPID
  5
12
330
9
100
AcDbSymbolTableRecord
100
AcDbRegAppTableRecord
  2
ACAD
 70
     0
  0
APPID
  5
188
330
9
100
AcDbSymbolTableRecord
100
AcDbRegAppTableRecord
  2
PE_DIMMEASUREMENT
 70
     0
  0
APPID
  5
189
330
9
100
AcDbSymbolTableRecord
100
AcDbRegAppTableRecord
  2
ACAD_DSTYLE_DIMRADIAL_EXTENSION
 70
     0
  0
ENDTAB
  0
TABLE
  2
DIMSTYLE
  5
A
330
0
100
AcDbSymbolTable
 70
     4
100
AcDbDimStyleTable
  0
DIMSTYLE
105
27
330
A
100
AcDbSymbolTableRecord
100
AcDbDimStyleTableRecord
  2
ISO-25
 70
     0
 41
2.5
 42
0.625
 43
3.75
 44
1.25
 73
     0
 74
     0
 77
     1
 78
     8
140
2.5
141
2.5
143
0.03937007874016
147
0.625
171
     3
172
     1
178
     0
271
     2
272
     2
274
     3
278
    44
283
     0
284
     8
340
11
  0
DIMSTYLE
105
10D
102
{ACAD_REACTORS
330
10C
102
}
330
A
100
AcDbSymbolTableRecord
100
AcDbDimStyleTableRecord
  2
SLDDIMSTYLE0
 70
     0
 41
3.302
 44
0.0
 45
0.000000001
 73
     0
 74
     0
 77
     1
 78
    12
 79
     3
140
3.5
143
0.0393700787401575
147
0.875
148
0.000000001
170
     1
173
     1
178
     0
271
     2
272
     2
276
     2
284
    12
340
93
  0
DIMSTYLE
105
121
102
{ACAD_REACTORS
330
120
102
}
330
A
100
AcDbSymbolTableRecord
100
AcDbDimStyleTableRecord
  2
SLDDIMSTYLE1
 70
     0
 41
3.302
 44
0.0
 45
0.000000001
 73
     0
 74
     0
 77
     1
 78
     4
 79
     1
140
3.5
143
0.0393700787401575
147
0.875
148
0.000000001
170
     1
173
     1
178
     0
271
     2
272
     2
276
     2
284
    12
340
93
  0
DIMSTYLE
105
135
102
{ACAD_REACTORS
330
134
330
177
330
18A
102
}
330
A
100
AcDbSymbolTableRecord
100
AcDbDimStyleTableRecord
  2
SLDDIMSTYLE2
 70
     0
 41
3.302
 44
0.0
 45
0.000000001
 73
     0
 74
     0
 77
     1
 78
    12
 79
     3
140
3.5
143
0.0393700787401575
147
0.875
148
0.000000001
170
     1
172
     1
173
     1
178
     0
271
     2
272
     2
276
     2
284
    12
289
     0
340
93
  0
ENDTAB
  0
TABLE
  2
BLOCK_RECORD
  5
1
330
0
100
AcDbSymbolTable
 70
     8
  0
BLOCK_RECORD
  5
1F
102
{ACAD_XDICTIONARY
360
219
102
}
330
1
100
AcDbSymbolTableRecord
100
AcDbBlockTableRecord
  2
*Model_Space
340
22
  0
BLOCK_RECORD
  5
1B
330
1
100
AcDbSymbolTableRecord
100
AcDbBlockTableRecord
  2
*Paper_Space
340
1E
  0
BLOCK_RECORD
  5
23
330
1
100
AcDbSymbolTableRecord
100
AcDbBlockTableRecord
  2
*Paper_Space0
340
26
  0
BLOCK_RECORD
  5
7E
330
1
100
AcDbSymbolTableRecord
100
AcDbBlockTableRecord
  2
블럭10
340
0
102
{BLKREFS
331
104
102
}
  0
BLOCK_RECORD
  5
10E
330
1
100
AcDbSymbolTableRecord
100
AcDbBlockTableRecord
  2
_D
340
0
  0
BLOCK_RECORD
  5
122
330
1
100
AcDbSymbolTableRecord
100
AcDbBlockTableRecord
  2
_D_1
340
0
  0
BLOCK_RECORD
  5
136
330
1
100
AcDbSymbolTableRecord
100
AcDbBlockTableRecord
  2
_D_2
340
0
  0
BLOCK_RECORD
  5
149
330
1
100
AcDbSymbolTableRecord
100
AcDbBlockTableRecord
  2
SW_DOWELSYMBOL_0
340
0
102
{BLKREFS
331
14F
102
}
  0
BLOCK_RECORD
  5
17A
330
1
100
AcDbSymbolTableRecord
100
AcDbBlockTableRecord
  2
*D6
340
0
  0
BLOCK_RECORD
  5
18D
330
1
100
AcDbSymbolTableRecord
100
AcDbBlockTableRecord
  2
*D7
340
0
  0
ENDTAB
  0
ENDSEC
  0
SECTION
  2
BLOCKS
  0
BLOCK
  5
20
330
1F
100
AcDbEntity
  8
0
100
AcDbBlockBegin
  2
*Model_Space
 70
     0
 10
0.0
 20
0.0
 30
0.0
  3
*Model_Space
  1
*Model_Space
  0
ENDBLK
  5
21
330
1F
100
AcDbEntity
  8
0
100
AcDbBlockEnd
  0
BLOCK
  5
1C
330
1B
100
AcDbEntity
 67
     1
  8
0
100
AcDbBlockBegin
  2
*Paper_Space
 70
     0
 10
0.0
 20
0.0
 30
0.0
  3
*Paper_Space
  1
*Paper_Space
  0
ENDBLK
  5
1D
330
1B
100
AcDbEntity
 67
     1
  8
0
100
AcDbBlockEnd
  0
BLOCK
  5
24
330
23
100
AcDbEntity
  8
0
100
AcDbBlockBegin
  2
*Paper_Space0
 70
     0
 10
0.0
 20
0.0
 30
0.0
  3
*Paper_Space0
  1
*Paper_Space0
  0
ENDBLK
  5
25
330
23
100
AcDbEntity
  8
0
100
AcDbBlockEnd
  0
BLOCK
  5
7F
330
7E
100
AcDbEntity
  8
0
100
AcDbBlockBegin
  2
블럭10
 70
     2
 10
0.0
 20
0.0
 30
0.0
  3
블럭10
  1
블럭10
  0
ELLIPSE
  5
81
330
7E
100
AcDbEntity
  8
중심선
100
AcDbEllipse
 10
20.54032771741204
 20
12.0471743016438
 30
0.0
 11
6.600054785286829
 21
-1.261213355974178E-13
 31
0.0
210
0.0
220
0.0
230
1.0
 40
0.636358354079598
 41
0.9219305317359503
 42
6.513795318482858
  0
ELLIPSE
  5
82
330
7E
100
AcDbEntity
  8
중심선
100
AcDbEllipse
 10
20.54032771746488
 20
12.04717430159265
 30
0.0
 11
3.960054785062283
 21
1.540847449632565E-10
 31
0.0
210
0.0
220
0.0
230
1.0
 40
0.3939339440162632
 41
1.131841032648279
 42
5.62031148352944
  0
LINE
  5
83
330
7E
100
AcDbEntity
  8
중심선
100
AcDbLine
 10
2.268634060543552
 20
16.24717430164393
 30
0.0
 11
5.714909304380834
 21
16.24717430164393
 31
0.0
  0
LINE
  5
84
330
7E
100
AcDbEntity
  8
중심선
100
AcDbLine
 10
5.245725140726316
 20
7.84717430164391
 30
0.0
 11
8.692000384563599
 21
7.84717430164391
 31
0.0
  0
LINE
  5
85
330
7E
100
AcDbEntity
  8
중심선
100
AcDbLine
 10
15.74043728645272
 20
16.24717430164393
 30
0.0
 11
8.692000384563599
 21
7.84717430164391
 31
0.0
  0
LINE
  5
86
330
7E
100
AcDbEntity
  8
중심선
100
AcDbLine
 10
0.1404042013395286
 20
13.71084872107135
 30
0.0
 11
3.58671253028996
 21
13.71088815037384
 31
0.0
  0
LINE
  5
87
330
7E
100
AcDbEntity
  8
중심선
100
AcDbLine
 10
2.750260043222114
 20
10.84717430164391
 30
0.0
 11
6.196535287059397
 21
10.84717430164391
 31
0.0
  0
LINE
  5
88
330
7E
100
AcDbEntity
  8
중심선
100
AcDbLine
 10
12.29416204261559
 20
16.24717430164393
 30
0.0
 11
5.245725140726316
 21
7.84717430164391
 31
0.0
  0
LINE
  5
89
330
7E
100
AcDbEntity
  8
중심선
100
AcDbLine
 10
10.72767329541681
 20
16.24717430164393
 30
0.0
 11
6.196535287059397
 21
10.84717430164391
 31
0.0
  0
LINE
  5
8A
330
7E
100
AcDbEntity
  8
중심선
100
AcDbLine
 10
7.28139805157953
 20
16.24717430164393
 30
0.0
 11
2.750260043222114
 21
10.84717430164391
 31
0.0
  0
LINE
  5
8B
330
7E
100
AcDbEntity
  8
중심선
100
AcDbLine
 10
5.714909304380834
 20
16.24717430164393
 30
0.0
 11
3.58671253028996
 21
13.71088815037384
 31
0.0
  0
LINE
  5
8C
330
7E
100
AcDbEntity
  8
중심선
100
AcDbLine
 10
2.268634060543552
 20
16.24717430164393
 30
0.0
 11
0.1404042013395286
 21
13.71084872107135
 31
0.0
  0
LINE
  5
8D
330
7E
100
AcDbEntity
  8
중심선
100
AcDbLine
 10
7.28139805157953
 20
16.24717430164393
 30
0.0
 11
10.72767329541681
 21
16.24717430164393
 31
0.0
  0
LINE
  5
8E
330
7E
100
AcDbEntity
  8
중심선
100
AcDbLine
 10
12.29416204261559
 20
16.24717430164393
 30
0.0
 11
15.74043728645272
 21
16.24717430164393
 31
0.0
  0
LINE
  5
8F
330
7E
100
AcDbEntity
  8
중심선
100
AcDbLine
 10
19.22036997980202
 20
11.08717430171403
 30
0.0
 11
23.66174974927406
 21
11.08717430171406
 31
0.0
  0
LINE
  5
90
330
7E
100
AcDbEntity
  8
중심선
100
AcDbLine
 10
19.22039502424796
 20
13.00717430171391
 30
0.0
 11
19.22036997980202
 21
11.08717430171403
 31
0.0
  0
LINE
  5
91
330
7E
100
AcDbEntity
  8
중심선
100
AcDbLine
 10
19.22039502424796
 20
13.00717430171391
 30
0.0
 11
26.96566020931264
 21
13.00717430171391
 31
0.0
  0
LINE
  5
92
330
7E
100
AcDbEntity
  8
중심선
100
AcDbLine
 10
22.22332737316547
 20
13.45928029700563
 30
0.0
 11
24.52862924686651
 21
15.39360700705356
 31
0.0
  0
ATTDEF
  5
94
330
7E
100
AcDbEntity
  8
FORMAT
 62
     2
100
AcDbText
 10
-11.05102035218446
 20
2.075366912832191
 30
0.0
 40
4.233333333333333
  1
GMG22941[ 6 FLUTE ]
 41
0.75
  7
SLDTEXTSTYLE0
 11
-11.05102035218446
 21
-0.0412997538344756
 31
0.0
100
AcDbAttributeDefinition
  3

  2
AUTOATTR0
 70
     0
 74
     1
  0
ENDBLK
  5
80
330
7E
100
AcDbEntity
  8
0
100
AcDbBlockEnd
  0
BLOCK
  5
10F
330
10E
100
AcDbEntity
  8
0
100
AcDbBlockBegin
  2
_D
 70
     0
 10
0.0
 20
0.0
 30
0.0
  3
_D
  1
_D
  0
LINE
  5
111
330
10E
100
AcDbEntity
  8
치수문자_일반주서
 62
     0
370
    -2
100
AcDbLine
 10
-40.8
 20
7.499999999999999
 30
0.0
 11
-40.8
 21
40.59305141807179
 31
0.0
  0
LINE
  5
112
330
10E
100
AcDbEntity
  8
치수문자_일반주서
 62
     0
370
    -2
100
AcDbLine
 10
86.2
 20
6.476000000000004
 30
0.0
 11
86.2
 21
40.59305141807179
 31
0.0
  0
LINE
  5
113
330
10E
100
AcDbEntity
  8
치수문자_일반주서
 62
     0
370
    -2
100
AcDbLine
 10
-37.498
 20
40.59305141807179
 30
0.0
 11
82.898
 21
40.59305141807179
 31
0.0
  0
SOLID
  5
114
330
10E
100
AcDbEntity
  8
치수문자_일반주서
 62
     0
100
AcDbTrace
 10
-37.498
 20
41.14338475140513
 30
0.0
 11
-37.498
 21
40.04271808473846
 31
0.0
 12
-40.8
 22
40.59305141807179
 32
0.0
 13
-40.8
 23
40.59305141807179
 33
0.0
  0
SOLID
  5
115
330
10E
100
AcDbEntity
  8
치수문자_일반주서
 62
     0
100
AcDbTrace
 10
82.898
 20
40.04271808473846
 30
0.0
 11
82.898
 21
41.14338475140513
 31
0.0
 12
86.2
 22
40.59305141807179
 32
0.0
 13
86.2
 23
40.59305141807179
 33
0.0
  0
MTEXT
  5
116
330
10E
100
AcDbEntity
  8
치수문자_일반주서
 62
     0
100
AcDbMText
 10
22.70000000000001
 20
44.96805141807179
 30
0.0
 40
3.5
 41
0.0
 71
     2
 72
     1
  1
\A1;127 [5]
  7
SLDTEXTSTYLE0
 73
     1
 44
1.0
  0
POINT
  5
117
330
10E
100
AcDbEntity
  8
Defpoints
 62
     0
100
AcDbPoint
 10
-40.8
 20
7.437499999999999
 30
0.0
  0
POINT
  5
118
330
10E
100
AcDbEntity
  8
Defpoints
 62
     0
100
AcDbPoint
 10
86.2
 20
6.413500000000004
 30
0.0
  0
POINT
  5
119
330
10E
100
AcDbEntity
  8
Defpoints
 62
     0
100
AcDbPoint
 10
86.2
 20
40.59305141807179
 30
0.0
  0
ENDBLK
  5
110
330
10E
100
AcDbEntity
  8
0
100
AcDbBlockEnd
  0
BLOCK
  5
123
330
122
100
AcDbEntity
  8
0
100
AcDbBlockBegin
  2
_D_1
 70
     0
 10
0.0
 20
0.0
 30
0.0
  3
_D_1
  1
_D_1
  0
LINE
  5
125
330
122
100
AcDbEntity
  8
치수문자_일반주서
 62
     0
370
    -2
100
AcDbLine
 10
86.2
 20
4.952000000000004
 30
0.0
 11
86.2
 21
24.04049453033793
 31
0.0
  0
LINE
  5
126
330
122
100
AcDbEntity
  8
치수문자_일반주서
 62
     0
370
    -2
100
AcDbLine
 10
9.999999999999998
 20
-7.874999999999997
 30
0.0
 11
10.0
 21
24.04049453033793
 31
0.0
  0
LINE
  5
127
330
122
100
AcDbEntity
  8
치수문자_일반주서
 62
     0
370
    -2
100
AcDbLine
 10
82.898
 20
24.04049453033793
 30
0.0
 11
13.302
 21
24.04049453033793
 31
0.0
  0
SOLID
  5
128
330
122
100
AcDbEntity
  8
치수문자_일반주서
 62
     0
100
AcDbTrace
 10
82.898
 20
23.4901611970046
 30
0.0
 11
82.898
 21
24.59082786367127
 31
0.0
 12
86.2
 22
24.04049453033793
 32
0.0
 13
86.2
 23
24.04049453033793
 33
0.0
  0
SOLID
  5
129
330
122
100
AcDbEntity
  8
치수문자_일반주서
 62
     0
100
AcDbTrace
 10
13.302
 20
24.59082786367127
 30
0.0
 11
13.302
 21
23.4901611970046
 31
0.0
 12
10.0
 22
24.04049453033793
 32
0.0
 13
10.0
 23
24.04049453033793
 33
0.0
  0
MTEXT
  5
12A
330
122
100
AcDbEntity
  8
치수문자_일반주서
 62
     0
100
AcDbMText
 10
47.26180339570445
 20
28.41549453033793
 30
0.0
 40
3.5
 41
0.0
 71
     2
 72
     1
  1
\A1;76.20 [3]
  7
SLDTEXTSTYLE0
 73
     1
 44
1.0
  0
POINT
  5
12B
330
122
100
AcDbEntity
  8
Defpoints
 62
     0
100
AcDbPoint
 10
86.2
 20
4.889500000000004
 30
0.0
  0
POINT
  5
12C
330
122
100
AcDbEntity
  8
Defpoints
 62
     0
100
AcDbPoint
 10
9.999999999999998
 20
-7.937499999999997
 30
0.0
  0
POINT
  5
12D
330
122
100
AcDbEntity
  8
Defpoints
 62
     0
100
AcDbPoint
 10
9.999999999999998
 20
24.04049453033793
 30
0.0
  0
ENDBLK
  5
124
330
122
100
AcDbEntity
  8
0
100
AcDbBlockEnd
  0
BLOCK
  5
137
330
136
100
AcDbEntity
  8
0
100
AcDbBlockBegin
  2
_D_2
 70
     0
 10
0.0
 20
0.0
 30
0.0
  3
_D_2
  1
_D_2
  0
LINE
  5
139
330
136
100
AcDbEntity
  8
치수문자_일반주서
 62
     0
370
    -2
100
AcDbLine
 10
-40.3625
 20
7.937499999999999
 30
0.0
 11
-53.80000000000005
 21
7.937499999999949
 31
0.0
  0
LINE
  5
13A
330
136
100
AcDbEntity
  8
치수문자_일반주서
 62
     0
370
    -2
100
AcDbLine
 10
-40.3625
 20
-7.9375
 30
0.0
 11
-53.8
 21
-7.93750000000005
 31
0.0
  0
LINE
  5
13B
330
136
100
AcDbEntity
  8
치수문자_일반주서
 62
     0
370
    -2
100
AcDbLine
 10
-53.80000000000004
 20
4.63549999999995
 30
0.0
 11
-53.80000000000001
 21
-4.63550000000005
 31
0.0
  0
SOLID
  5
13C
330
136
100
AcDbEntity
  8
치수문자_일반주서
 62
     0
100
AcDbTrace
 10
-53.24966666666671
 20
4.635499999999952
 30
0.0
 11
-54.35033333333337
 21
4.635499999999948
 31
0.0
 12
-53.80000000000005
 22
7.937499999999949
 32
0.0
 13
-53.80000000000005
 23
7.937499999999949
 33
0.0
  0
SOLID
  5
13D
330
136
100
AcDbEntity
  8
치수문자_일반주서
 62
     0
100
AcDbTrace
 10
-54.35033333333335
 20
-4.635500000000052
 30
0.0
 11
-53.24966666666668
 21
-4.635500000000048
 31
0.0
 12
-53.8
 22
-7.93750000000005
 32
0.0
 13
-53.8
 23
-7.93750000000005
 33
0.0
  0
MTEXT
  5
13E
330
136
100
AcDbEntity
  8
치수문자_일반주서
 62
     0
100
AcDbMText
 10
-58.17500000000003
 20
-0.0000000000000178
 30
0.0
 40
3.5
 41
0.0
 71
     2
 72
     1
  1
\A1;%%c15.88 [5/8]
  7
SLDTEXTSTYLE0
 11
-3.580687802255623E-15
 21
1.0
 31
0.0
 73
     1
 44
1.0
  0
POINT
  5
13F
330
136
100
AcDbEntity
  8
Defpoints
 62
     0
100
AcDbPoint
 10
-40.3
 20
7.937499999999999
 30
0.0
  0
POINT
  5
140
330
136
100
AcDbEntity
  8
Defpoints
 62
     0
100
AcDbPoint
 10
-40.3
 20
-7.9375
 30
0.0
  0
POINT
  5
141
330
136
100
AcDbEntity
  8
Defpoints
 62
     0
100
AcDbPoint
 10
-53.8
 20
-7.937500000000051
 30
0.0
  0
ENDBLK
  5
138
330
136
100
AcDbEntity
  8
0
100
AcDbBlockEnd
  0
BLOCK
  5
14A
330
149
100
AcDbEntity
  8
0
100
AcDbBlockBegin
  2
SW_DOWELSYMBOL_0
 70
     0
 10
0.0
 20
0.0
 30
0.0
  3
SW_DOWELSYMBOL_0
  1
SW_DOWELSYMBOL_0
  0
CIRCLE
  5
14C
330
149
100
AcDbEntity
  8
외형선
 62
     0
100
AcDbCircle
 10
0.0
 20
0.0
 30
0.0
 40
3.000000000000001
  0
HATCH
  5
14D
330
149
100
AcDbEntity
  8
0
  6
Continuous
 62
     0
370
    30
100
AcDbHatch
 10
0.0
 20
0.0
 30
0.0
210
0.0
220
0.0
230
1.0
  2
SOLID
 70
     1
 71
     0
 91
        1
 92
        0
 93
        3
 72
     2
 10
0.0
 20
0.0
 40
3.000000000000001
 50
0.0
 51
90.0
 73
     1
 72
     1
 10
0.0
 20
3.000000000000001
 11
0.0
 21
0.0
 72
     1
 10
0.0
 20
0.0
 11
3.000000000000003
 21
0.0
 97
        0
 75
     0
 76
     1
 98
        1
 10
0.0
 20
0.0
  0
HATCH
  5
14E
330
149
100
AcDbEntity
  8
0
  6
Continuous
 62
     0
370
    30
100
AcDbHatch
 10
0.0
 20
0.0
 30
0.0
210
0.0
220
0.0
230
1.0
  2
SOLID
 70
     1
 71
     0
 91
        1
 92
        0
 93
        3
 72
     2
 10
0.0
 20
0.0
 40
3.000000000000001
 50
180.0
 51
270.0000000000007
 73
     1
 72
     1
 10
0.0
 20
-3.000000000000001
 11
0.0
 21
0.0
 72
     1
 10
0.0
 20
0.0
 11
-3.000000000000003
 21
0.0
 97
        0
 75
     0
 76
     1
 98
        1
 10
0.0
 20
0.0
  0
ENDBLK
  5
14B
330
149
100
AcDbEntity
  8
0
100
AcDbBlockEnd
  0
BLOCK
  5
17B
330
17A
100
AcDbEntity
  8
0
100
AcDbBlockBegin
  2
*D6
 70
     1
 10
0.0
 20
0.0
 30
0.0
  3
*D6
  1
*D6
  0
LINE
  5
17D
330
17A
100
AcDbEntity
  8
치수문자_일반주서
 62
     0
370
    -2
100
AcDbLine
 10
83.2145
 20
7.937500000000003
 30
0.0
 11
102.919109225848
 21
7.937500000000001
 31
0.0
  0
LINE
  5
17E
330
17A
100
AcDbEntity
  8
치수문자_일반주서
 62
     0
370
    -2
100
AcDbLine
 10
84.73850000000002
 20
-7.937499999999996
 30
0.0
 11
102.919109225848
 21
-7.937499999999998
 31
0.0
  0
LINE
  5
17F
330
17A
100
AcDbEntity
  8
치수문자_일반주서
 62
     0
370
    -2
100
AcDbLine
 10
102.919109225848
 20
4.635500000000001
 30
0.0
 11
102.919109225848
 21
-4.635499999999999
 31
0.0
  0
SOLID
  5
180
330
17A
100
AcDbEntity
  8
치수문자_일반주서
 62
     0
100
AcDbTrace
 10
103.4694425591813
 20
4.635500000000001
 30
0.0
 11
102.3687758925147
 21
4.635500000000001
 31
0.0
 12
102.919109225848
 22
7.937500000000001
 32
0.0
 13
102.919109225848
 23
7.937500000000001
 33
0.0
  0
SOLID
  5
181
330
17A
100
AcDbEntity
  8
치수문자_일반주서
 62
     0
100
AcDbTrace
 10
102.3687758925147
 20
-4.635499999999999
 30
0.0
 11
103.4694425591813
 21
-4.635499999999999
 31
0.0
 12
102.919109225848
 22
-7.937499999999998
 32
0.0
 13
102.919109225848
 23
-7.937499999999998
 33
0.0
  0
MTEXT
  5
182
330
17A
100
AcDbEntity
  8
치수문자_일반주서
 62
     0
100
AcDbMText
 10
100.294109225848
 20
0.0000000000000036
 30
0.0
 40
3.5
 41
0.0
 71
     5
 72
     1
  1
\A1;{%%c15.88 [5/8]}
  7
SLDTEXTSTYLE0
 11
0.0
 21
1.0
 31
0.0
 73
     1
 44
1.0
  0
POINT
  5
183
330
17A
100
AcDbEntity
  8
Defpoints
 62
     0
100
AcDbPoint
 10
83.152
 20
7.937500000000003
 30
0.0
  0
POINT
  5
184
330
17A
100
AcDbEntity
  8
Defpoints
 62
     0
100
AcDbPoint
 10
84.67600000000002
 20
-7.937499999999996
 30
0.0
  0
POINT
  5
185
330
17A
100
AcDbEntity
  8
Defpoints
 62
     0
100
AcDbPoint
 10
102.919109225848
 20
-7.937499999999997
 30
0.0
  0
ENDBLK
  5
17C
330
17A
100
AcDbEntity
  8
0
100
AcDbBlockEnd
  0
BLOCK
  5
18E
330
18D
100
AcDbEntity
  8
0
100
AcDbBlockBegin
  2
*D7
 70
     1
 10
0.0
 20
0.0
 30
0.0
  3
*D7
  1
*D7
  0
LINE
  5
190
330
18D
100
AcDbEntity
  8
치수문자_일반주서
 62
     0
370
    -2
100
AcDbLine
 10
87.44697668575823
 20
9.566643922180848
 30
0.0
 11
110.9292923961483
 21
35.13841723768452
 31
0.0
  0
MTEXT
  5
191
330
18D
100
AcDbEntity
  8
치수문자_일반주서
 62
     0
100
AcDbMText
 10
98.7868030817565
 20
25.79647593448739
 30
0.0
 40
3.5
 41
0.0
 71
     5
 72
     1
  1
\A1;R3.05 [R0.120]
  7
SLDTEXTSTYLE0
 11
0.676374281221769
 21
0.7365580979812356
 31
0.0
 73
     1
 44
1.0
  0
LINE
  5
192
330
18D
100
AcDbEntity
  8
치수문자_일반주서
 62
     0
370
    -2
100
AcDbLine
 10
83.152
 20
4.889500000000004
 30
0.0
 11
85.21358880916395
 21
7.134529082646808
 31
0.0
  0
SOLID
  5
193
330
18D
100
AcDbEntity
  8
치수문자_일반주서
 62
     0
100
AcDbTrace
 10
87.04162421250255
 20
9.938875234946561
 30
0.0
 11
87.8523291590139
 21
9.194412609415135
 31
0.0
 12
85.21358880916395
 22
7.134529082646808
 32
0.0
 13
85.21358880916395
 23
7.134529082646808
 33
0.0
  0
POINT
  5
194
330
18D
100
AcDbEntity
  8
Defpoints
 62
     0
100
AcDbPoint
 10
85.21358880916395
 20
7.134529082646808
 30
0.0
  0
POINT
  5
195
330
18D
100
AcDbEntity
  8
Defpoints
 62
     0
100
AcDbPoint
 10
83.152
 20
4.889500000000004
 30
0.0
  0
ENDBLK
  5
18F
330
18D
100
AcDbEntity
  8
0
100
AcDbBlockEnd
  0
ENDSEC
  0
SECTION
  2
ENTITIES
  0
LINE
  5
95
330
1F
100
AcDbEntity
  8
0
  6
Continuous
 62
     4
370
    15
100
AcDbLine
 10
9.999999999999996
 20
7.937500000000003
 30
0.0
 11
-9.84692500000007
 21
7.937500000000001
 31
0.0
  0
LINE
  5
96
330
1F
100
AcDbEntity
  8
0
  6
Continuous
 62
     4
370
    15
100
AcDbLine
 10
-40.3
 20
-7.9375
 30
0.0
 11
9.999999999999996
 21
-7.937499999999996
 31
0.0
  0
LINE
  5
97
330
1F
100
AcDbEntity
  8
0
  6
Continuous
 62
     4
370
    15
100
AcDbLine
 10
-40.3
 20
7.937499999999997
 30
0.0
 11
-40.8
 21
7.437499999999999
 31
0.0
  0
LINE
  5
98
330
1F
100
AcDbEntity
  8
0
  6
Continuous
 62
     4
370
    15
100
AcDbLine
 10
-40.8
 20
-7.437500000000001
 30
0.0
 11
-40.3
 21
-7.937499999999998
 31
0.0
  0
LINE
  5
99
330
1F
100
AcDbEntity
  8
0
  6
Continuous
 62
     1
370
    15
100
AcDbLine
 10
82.76552076665445
 20
-7.937499999999996
 30
0.0
 11
84.67600000000002
 21
-7.937499999999996
 31
0.0
  0
LINE
  5
9A
330
1F
100
AcDbEntity
  8
0
  6
Continuous
 62
     1
370
    15
100
AcDbLine
 10
32.89244016662606
 20
-7.937499999999996
 30
0.0
 11
35.60532941201622
 21
-7.937499999999996
 31
0.0
  0
LINE
  5
9B
330
1F
100
AcDbEntity
  8
0
  6
Continuous
 62
     4
370
    15
100
AcDbLine
 10
10.66930943132823
 20
7.937500000000003
 30
0.0
 11
9.999999999999998
 21
7.937500000000003
 31
0.0
  0
LINE
  5
9C
330
1F
100
AcDbEntity
  8
0
  6
Continuous
 62
     1
370
    15
100
AcDbLine
 10
60.54355686516747
 20
7.937500000000003
 30
0.0
 11
57.82796499344536
 21
7.937500000000003
 31
0.0
  0
LINE
  5
9D
330
1F
100
AcDbEntity
  8
0
  6
Continuous
 62
     1
370
    15
100
AcDbLine
 10
74.45258223878268
 20
-7.937499999999996
 30
0.0
 11
77.16747952386275
 21
-7.937499999999996
 31
0.0
  0
LINE
  5
9E
330
1F
100
AcDbEntity
  8
0
  6
Continuous
 62
     1
370
    15
100
AcDbLine
 10
24.57976282387614
 20
-7.937499999999996
 30
0.0
 11
27.2940141414293
 21
-7.937499999999996
 31
0.0
  0
LINE
  5
9F
330
1F
100
AcDbEntity
  8
0
  6
Continuous
 62
     1
370
    15
100
AcDbLine
 10
52.22958351240763
 20
7.937500000000003
 30
0.0
 11
49.5171280772562
 21
7.937500000000003
 31
0.0
  0
LINE
  5
A0
330
1F
100
AcDbEntity
  8
0
  6
Continuous
 62
     1
370
    15
100
AcDbLine
 10
49.51712807725623
 20
-7.937499999999996
 30
0.0
 11
52.22958351240764
 21
-7.937499999999996
 31
0.0
  0
LINE
  5
A1
330
1F
100
AcDbEntity
  8
0
  6
Continuous
 62
     1
370
    15
100
AcDbLine
 10
27.29401414142929
 20
7.937500000000003
 30
0.0
 11
24.57976282387621
 21
7.937500000000003
 31
0.0
  0
LINE
  5
A2
330
1F
100
AcDbEntity
  8
0
  6
Continuous
 62
     1
370
    15
100
AcDbLine
 10
77.16747952386275
 20
7.937500000000003
 30
0.0
 11
74.45258223878278
 21
7.937500000000003
 31
0.0
  0
LINE
  5
A3
330
1F
100
AcDbEntity
  8
0
  6
Continuous
 62
     1
370
    15
100
AcDbLine
 10
66.1418051462326
 20
-7.937499999999996
 30
0.0
 11
68.85425874182367
 21
-7.937499999999996
 31
0.0
  0
LINE
  5
A4
330
1F
100
AcDbEntity
  8
0
  6
Continuous
 62
     1
370
    15
100
AcDbLine
 10
16.26825525930482
 20
-7.937499999999996
 30
0.0
 11
18.98168592429746
 21
-7.937499999999996
 31
0.0
  0
LINE
  5
A5
330
1F
100
AcDbEntity
  8
0
  6
Continuous
 62
     1
370
    15
100
AcDbLine
 10
43.91868606926363
 20
7.937500000000003
 30
0.0
 11
41.20348403177897
 21
7.937500000000003
 31
0.0
  0
LINE
  5
A6
330
1F
100
AcDbEntity
  8
0
  6
Continuous
 62
     1
370
    15
100
AcDbLine
 10
41.20348403177904
 20
-7.937499999999996
 30
0.0
 11
43.91868606926366
 21
-7.937499999999996
 31
0.0
  0
LINE
  5
A7
330
1F
100
AcDbEntity
  8
0
  6
Continuous
 62
     1
370
    15
100
AcDbLine
 10
18.98168592429754
 20
7.937500000000003
 30
0.0
 11
16.26825525930488
 21
7.937500000000003
 31
0.0
  0
LINE
  5
A8
330
1F
100
AcDbEntity
  8
0
  6
Continuous
 62
     1
370
    15
100
AcDbLine
 10
68.85425874182376
 20
7.937500000000003
 30
0.0
 11
66.14180514623267
 21
7.937500000000003
 31
0.0
  0
LINE
  5
A9
330
1F
100
AcDbEntity
  8
0
  6
Continuous
 62
     1
370
    15
100
AcDbLine
 10
57.82796499344536
 20
-7.937499999999996
 30
0.0
 11
60.54355686516743
 21
-7.937499999999996
 31
0.0
  0
LINE
  5
AA
330
1F
100
AcDbEntity
  8
0
  6
Continuous
 62
     1
370
    15
100
AcDbLine
 10
9.999999999999998
 20
-7.937499999999996
 30
0.0
 11
10.66930943132818
 21
-7.937499999999996
 31
0.0
  0
LINE
  5
AB
330
1F
100
AcDbEntity
  8
0
  6
Continuous
 62
     1
370
    15
100
AcDbLine
 10
35.6053294120162
 20
7.937500000000003
 30
0.0
 11
32.89244016662609
 21
7.937500000000003
 31
0.0
  0
LINE
  5
AC
330
1F
100
AcDbEntity
  8
0
  6
Continuous
 62
     1
370
    15
100
AcDbLine
 10
83.152
 20
7.937500000000003
 30
0.0
 11
82.76552076665446
 21
7.937500000000003
 31
0.0
  0
ARC
  5
AF
330
1F
100
AcDbEntity
  8
0
  6
Continuous
 62
     1
370
    15
100
AcDbCircle
 10
84.67600000000002
 20
-6.413499999999998
 30
0.0
 40
1.523999999999992
100
AcDbArc
 50
318.7787874794317
 51
339.7914121889498
  0
LWPOLYLINE
  5
B0
330
1F
100
AcDbEntity
  8
0
  6
Continuous
 62
     1
370
    15
100
AcDbPolyline
 90
        3
 70
   128
 43
0.0
 10
84.67600000000002
 20
-7.937499999999996
 10
84.83787631538311
 20
-7.928878519881414
 10
84.89466556141612
 20
-7.921731206496727
  0
SPLINE
  5
B1
330
1F
100
AcDbEntity
  8
0
  6
Continuous
 62
     4
370
    15
100
AcDbSpline
210
0.0
220
0.0
230
1.0
 70
     8
 71
     3
 72
    14
 73
    10
 74
     0
 42
0.000000001
 43
0.00000001
 40
0.0
 40
0.0
 40
0.0
 40
0.0
 40
0.25
 40
0.25
 40
0.5
 40
0.5
 40
0.75
 40
0.75
 40
1.0
 40
1.0
 40
1.0
 40
1.0
 10
7.475022619277334
 20
-0.9586835013695765
 30
0.0
 10
7.364175994525196
 20
-0.8482388887146424
 30
0.0
 10
7.273009987621977
 20
-0.7240354342302162
 30
0.0
 10
7.125172672040016
 20
-0.4511372174159349
 30
0.0
 10
7.070031120911112
 20
-0.3037849346454387
 30
0.0
 10
6.993843147924233
 20
-0.0027923851158921
 30
0.0
 10
6.972199189646748
 20
0.1531408190285814
 30
0.0
 10
6.950487542448361
 20
0.4631904423732399
 30
0.0
 10
6.950376375227401
 20
0.6185829425969287
 30
0.0
 10
6.950376375227401
 20
0.7737443781102922
 30
0.0
  0
SPLINE
  5
B2
330
1F
100
AcDbEntity
  8
0
  6
Continuous
 62
     4
370
    15
100
AcDbSpline
210
0.0
220
0.0
230
1.0
 70
     8
 71
     3
 72
    22
 73
    18
 74
     0
 42
0.000000001
 43
0.00000001
 40
0.0
 40
0.0
 40
0.0
 40
0.0
 40
0.1250000000000001
 40
0.1250000000000001
 40
0.2500000000000001
 40
0.2500000000000001
 40
0.3750000000000001
 40
0.3750000000000001
 40
0.5000000000000001
 40
0.5000000000000001
 40
0.6250000000000001
 40
0.6250000000000001
 40
0.7500000000000001
 40
0.7500000000000001
 40
0.8750000000000001
 40
0.8750000000000001
 40
1.0
 40
1.0
 40
1.0
 40
1.0
 10
6.950376375227403
 20
0.7737443781102922
 30
0.0
 10
6.950376375227405
 20
0.9489281001591416
 30
0.0
 10
6.950715168585392
 20
1.123157892698974
 30
0.0
 10
6.981346061994023
 20
1.46710184590513
 30
0.0
 10
7.011591741340331
 20
1.638844593004268
 30
0.0
 10
7.118041222983559
 20
1.966822283427391
 30
0.0
 10
7.193689246770351
 20
2.121913127494917
 30
0.0
 10
7.395020239968067
 20
2.401143989467438
 30
0.0
 10
7.51682082865122
 20
2.521062629334019
 30
0.0
 10
7.805199336388961
 20
2.718309314733768
 30
0.0
 10
7.963503762085647
 20
2.790152340013711
 30
0.0
 10
8.30630681607579
 20
2.880087012736702
 30
0.0
 10
8.48250706044723
 20
2.895786705510599
 30
0.0
 10
8.83649822980494
 20
2.868772202891828
 30
0.0
 10
9.008391525794448
 20
2.826195754775689
 30
0.0
 10
9.329414701850927
 20
2.685587913853659
 30
0.0
 10
9.47451545077792
 20
2.589357822281158
 30
0.0
 10
9.600343116624662
 20
2.4694085489682
 30
0.0
  0
LINE
  5
B4
330
1F
100
AcDbEntity
  8
0
  6
Continuous
 62
     4
370
    15
100
AcDbLine
 10
-40.3
 20
7.937499999999997
 30
0.0
 11
-40.3
 21
-7.9375
 31
0.0
  0
SPLINE
  5
B5
330
1F
100
AcDbEntity
  8
0
  6
Continuous
 62
     4
370
    15
100
AcDbSpline
210
0.0
220
0.0
230
1.0
 70
     8
 71
     3
 72
    10
 73
     6
 74
     0
 42
0.000000001
 43
0.00000001
 40
0.0
 40
0.0
 40
0.0
 40
0.0
 40
0.5
 40
0.5
 40
1.0
 40
1.0
 40
1.0
 40
1.0
 10
10.00000000000001
 20
-7.909334097421388
 30
0.0
 10
9.57826821716284
 20
-7.873871656364699
 30
0.0
 10
9.161070848835413
 20
-7.805209729233818
 30
0.0
 10
8.316247777338623
 20
-7.602060459799445
 30
0.0
 10
7.893809540603645
 20
-7.467763049098318
 30
0.0
 10
7.475022619277336
 20
-7.303096153185766
 30
0.0
  0
LINE
  5
B6
330
1F
100
AcDbEntity
  8
0
  6
Continuous
 62
     1
370
    15
100
AcDbLine
 10
9.999999999999996
 20
7.937500000000003
 30
0.0
 11
10.0
 21
7.675526893529133
 31
0.0
  0
SPLINE
  5
B7
330
1F
100
AcDbEntity
  8
0
  6
Continuous
 62
     4
370
    15
100
AcDbSpline
210
0.0
220
0.0
230
1.0
 70
     8
 71
     3
 72
     8
 73
     4
 74
     0
 42
0.000000001
 43
0.00000001
 40
0.0
 40
0.0
 40
0.0
 40
0.0
 40
1.0
 40
1.0
 40
1.0
 40
1.0
 10
10.0
 20
7.675526893529133
 30
0.0
 10
9.866422232286183
 20
7.709528958543764
 30
0.0
 10
9.733119370968003
 20
7.740251256665689
 30
0.0
 10
9.600343116624696
 20
7.767655043563276
 30
0.0
  0
SPLINE
  5
B8
330
1F
100
AcDbEntity
  8
0
  6
Continuous
 62
     4
370
    15
100
AcDbSpline
210
0.0
220
0.0
230
1.0
 70
     8
 71
     3
 72
    22
 73
    18
 74
     0
 42
0.000000001
 43
0.00000001
 40
0.0
 40
0.0
 40
0.0
 40
0.0
 40
0.1250000000000001
 40
0.1250000000000001
 40
0.2500000000000002
 40
0.2500000000000002
 40
0.3750000000000002
 40
0.3750000000000002
 40
0.5000000000000002
 40
0.5000000000000002
 40
0.6250000000000002
 40
0.6250000000000002
 40
0.7500000000000001
 40
0.7500000000000001
 40
0.8750000000000001
 40
0.8750000000000001
 40
1.0
 40
1.0
 40
1.0
 40
1.0
 10
6.950376375227403
 20
7.228211196552689
 30
0.0
 10
6.950376375227403
 20
7.300943310831279
 30
0.0
 10
6.950715168585392
 20
7.368164315846387
 30
0.0
 10
6.981346061994024
 20
7.490874820880247
 30
0.0
 10
7.011591741340331
 20
7.546965482425041
 30
0.0
 10
7.118041222983559
 20
7.644710083927017
 30
0.0
 10
7.193689246770353
 20
7.68605687724873
 30
0.0
 10
7.395020239968069
 20
7.753794202992367
 30
0.0
 10
7.516820828651225
 20
7.779296440341672
 30
0.0
 10
7.805199336388968
 20
7.818195778272859
 30
0.0
 10
7.963503762085654
 20
7.830599104770756
 30
0.0
 10
8.3063068160758
 20
7.845782503824788
 30
0.0
 10
8.48250706044724
 20
7.84819817534387
 30
0.0
 10
8.836498229804953
 20
7.843808605918984
 30
0.0
 10
9.008391525794458
 20
7.837006964015581
 30
0.0
 10
9.32941470185094
 20
7.811785992338133
 30
0.0
 10
9.474515450777922
 20
7.79362470626946
 30
0.0
 10
9.600343116624664
 20
7.767655043563284
 30
0.0
  0
SPLINE
  5
B9
330
1F
100
AcDbEntity
  8
0
  6
Continuous
 62
     4
370
    15
100
AcDbSpline
210
0.0
220
0.0
230
1.0
 70
     8
 71
     3
 72
    14
 73
    10
 74
     0
 42
0.000000001
 43
0.00000001
 40
0.0
 40
0.0
 40
0.0
 40
0.0
 40
0.2499999999999999
 40
0.2499999999999999
 40
0.4999999999999999
 40
0.4999999999999999
 40
0.7499999999999999
 40
0.7499999999999999
 40
1.0
 40
1.0
 40
1.0
 40
1.0
 10
7.475022619277333
 20
6.344412651816226
 30
0.0
 10
7.364175994525196
 20
6.411272403791864
 30
0.0
 10
7.273009987621979
 20
6.484426609442117
 30
0.0
 10
7.125172672040016
 20
6.638419066649555
 30
0.0
 10
7.070031120911112
 20
6.718384740096769
 30
0.0
 10
6.993843147924231
 20
6.873915947528122
 30
0.0
 10
6.972199189646748
 20
6.950680703456618
 30
0.0
 10
6.950487542448361
 20
7.095272979990128
 30
0.0
 10
6.950376375227405
 20
7.163791859371117
 30
0.0
 10
6.950376375227407
 20
7.228211196552691
 30
0.0
  0
SPLINE
  5
BA
330
1F
100
AcDbEntity
  8
0
  6
Continuous
 62
     4
370
    15
100
AcDbSpline
210
0.0
220
0.0
230
1.0
 70
     8
 71
     3
 72
    10
 73
     6
 74
     0
 42
0.000000001
 43
0.00000001
 40
0.0
 40
0.0
 40
0.0
 40
0.0
 40
0.5
 40
0.5
 40
1.0
 40
1.0
 40
1.0
 40
1.0
 10
10.00000000000001
 20
4.533247457146442
 30
0.0
 10
9.57826821716284
 20
4.879101345279758
 30
0.0
 10
9.161070848835413
 20
5.20461707571267
 30
0.0
 10
8.31624777733862
 20
5.811681258796248
 30
0.0
 10
7.893809540603645
 20
6.09181145847247
 30
0.0
 10
7.475022619277336
 20
6.344412651816228
 30
0.0
  0
LINE
  5
BB
330
1F
100
AcDbEntity
  8
0
  6
Continuous
 62
     1
370
    15
100
AcDbLine
 10
10.0
 20
4.533247457146455
 30
0.0
 11
10.0
 21
2.086294101462307
 31
0.0
  0
SPLINE
  5
BC
330
1F
100
AcDbEntity
  8
0
  6
Continuous
 62
     4
370
    15
100
AcDbSpline
210
0.0
220
0.0
230
1.0
 70
     8
 71
     3
 72
     8
 73
     4
 74
     0
 42
0.000000001
 43
0.00000001
 40
0.0
 40
0.0
 40
0.0
 40
0.0
 40
1.0
 40
1.0
 40
1.0
 40
1.0
 10
10.0
 20
2.086294101462307
 30
0.0
 10
9.86642223228618
 20
2.215051485210659
 30
0.0
 10
9.733119370967996
 20
2.342835309970843
 30
0.0
 10
9.600343116624686
 20
2.469408548968177
 30
0.0
  0
SPLINE
  5
BD
330
1F
100
AcDbEntity
  8
0
  6
Continuous
 62
     4
370
    15
100
AcDbSpline
210
0.0
220
0.0
230
1.0
 70
     8
 71
     3
 72
    10
 73
     6
 74
     0
 42
0.000000001
 43
0.00000001
 40
0.0
 40
0.0
 40
0.0
 40
0.0
 40
0.5
 40
0.5
 40
1.0
 40
1.0
 40
1.0
 40
1.0
 10
10.00000000000001
 20
-3.376086640275008
 30
0.0
 10
9.57826821716284
 20
-2.994770311084999
 30
0.0
 10
9.161070848835413
 20
-2.600592653521206
 30
0.0
 10
8.31624777733862
 20
-1.790379201003243
 30
0.0
 10
7.893809540603645
 20
-1.37595159062589
 30
0.0
 10
7.475022619277336
 20
-0.9586835013695765
 30
0.0
  0
LINE
  5
BE
330
1F
100
AcDbEntity
  8
0
  6
Continuous
 62
     1
370
    15
100
AcDbLine
 10
10.0
 20
-3.376086640275017
 30
0.0
 11
10.0
 21
-5.589232792066818
 31
0.0
  0
SPLINE
  5
BF
330
1F
100
AcDbEntity
  8
0
  6
Continuous
 62
     4
370
    15
100
AcDbSpline
210
0.0
220
0.0
230
1.0
 70
     8
 71
     3
 72
     8
 73
     4
 74
     0
 42
0.000000001
 43
0.00000001
 40
0.0
 40
0.0
 40
0.0
 40
0.0
 40
1.0
 40
1.0
 40
1.0
 40
1.0
 10
10.0
 20
-5.589232792066817
 30
0.0
 10
9.866422232286183
 20
-5.494477473333101
 30
0.0
 10
9.733119370968003
 20
-5.397415946694847
 30
0.0
 10
9.600343116624696
 20
-5.298246494595104
 30
0.0
  0
SPLINE
  5
C0
330
1F
100
AcDbEntity
  8
0
  6
Continuous
 62
     4
370
    15
100
AcDbSpline
210
0.0
220
0.0
230
1.0
 70
     8
 71
     3
 72
    22
 73
    18
 74
     0
 42
0.000000001
 43
0.00000001
 40
0.0
 40
0.0
 40
0.0
 40
0.0
 40
0.1249999999999999
 40
0.1249999999999999
 40
0.2499999999999999
 40
0.2499999999999999
 40
0.3749999999999998
 40
0.3749999999999998
 40
0.4999999999999998
 40
0.4999999999999998
 40
0.6249999999999998
 40
0.6249999999999998
 40
0.7499999999999998
 40
0.7499999999999998
 40
0.8749999999999998
 40
0.8749999999999998
 40
1.0
 40
1.0
 40
1.0
 40
1.0
 10
6.950376375227403
 20
-6.454466818442373
 30
0.0
 10
6.950376375227405
 20
-6.352015210672117
 30
0.0
 10
6.950715168585392
 20
-6.245006423147395
 30
0.0
 10
6.981346061994026
 20
-6.0237729749751
 30
0.0
 10
7.011591741340331
 20
-5.908120889420756
 30
0.0
 10
7.118041222983559
 20
-5.677887800499611
 30
0.0
 10
7.193689246770354
 20
-5.564143749753803
 30
0.0
 10
7.395020239968069
 20
-5.352650213524923
 30
0.0
 10
7.51682082865122
 20
-5.258233811007652
 30
0.0
 10
7.805199336388961
 20
-5.099886463539089
 30
0.0
 10
7.963503762085644
 20
-5.040446764757036
 30
0.0
 10
8.306306816075791
 20
-4.965695491088075
 30
0.0
 10
8.482507060447233
 20
-4.952411469833269
 30
0.0
 10
8.836498229804947
 20
-4.975036403027154
 30
0.0
 10
9.008391525794455
 20
-5.010811209239894
 30
0.0
 10
9.329414701850938
 20
-5.126198078484479
 30
0.0
 10
9.47451545077792
 20
-5.204266883988298
 30
0.0
 10
9.600343116624664
 20
-5.29824649459508
 30
0.0
  0
SPLINE
  5
C1
330
1F
100
AcDbEntity
  8
0
  6
Continuous
 62
     4
370
    15
100
AcDbSpline
210
0.0
220
0.0
230
1.0
 70
     8
 71
     3
 72
    14
 73
    10
 74
     0
 42
0.000000001
 43
0.00000001
 40
0.0
 40
0.0
 40
0.0
 40
0.0
 40
0.2500000000000001
 40
0.2500000000000001
 40
0.5000000000000002
 40
0.5000000000000002
 40
0.7500000000000001
 40
0.7500000000000001
 40
1.0
 40
1.0
 40
1.0
 40
1.0
 10
7.475022619277334
 20
-7.303096153185769
 30
0.0
 10
7.364175994525196
 20
-7.259511292506474
 30
0.0
 10
7.273009987621981
 20
-7.208462043672295
 30
0.0
 10
7.125172672040016
 20
-7.089556284065456
 30
0.0
 10
7.070031120911114
 20
-7.022169674742175
 30
0.0
 10
6.993843147924236
 20
-6.876708332643984
 30
0.0
 10
6.97219918964675
 20
-6.797539884428005
 30
0.0
 10
6.950487542448363
 20
-6.632082537616862
 30
0.0
 10
6.950376375227409
 20
-6.545208916774161
 30
0.0
 10
6.950376375227409
 20
-6.454466818442374
 30
0.0
  0
LINE
  5
C2
330
1F
100
AcDbEntity
  8
0
  6
Continuous
 62
     4
370
    15
100
AcDbLine
 10
-40.8
 20
7.437499999999999
 30
0.0
 11
-40.8
 21
-7.437500000000001
 31
0.0
  0
SPLINE
  5
C3
330
1F
100
AcDbEntity
  8
0
  6
Continuous
 62
     1
370
    15
100
AcDbSpline
210
0.0
220
0.0
230
1.0
 70
    24
 71
     3
 72
    18
 73
    14
 74
     0
 42
0.000000001
 43
0.00000001
 40
0.0
 40
0.0
 40
0.0
 40
0.0
 40
0.2499999999999999
 40
0.2499999999999999
 40
0.5
 40
0.5
 40
0.625
 40
0.625
 40
0.75
 40
0.75
 40
0.875
 40
0.875
 40
1.0
 40
1.0
 40
1.0
 40
1.0
 10
10.0
 20
2.08629410146227
 30
0.0
 10
10.0
 20
1.870437823661672
 30
0.0
 10
10.0
 20
1.59769617057853
 30
0.0
 10
10.0
 20
0.8998432471760384
 30
0.0
 10
10.0
 20
0.472427312399291
 30
0.0
 10
10.0
 20
-0.2792431591267946
 30
0.0
 10
10.0
 20
-0.5475968792919721
 30
0.0
 10
10.0
 20
-1.108193256961728
 30
0.0
 10
10.0
 20
-1.400410700684007
 30
0.0
 10
10.0
 20
-1.988589647633247
 30
0.0
 10
10.0
 20
-2.284393801869005
 30
0.0
 10
10.0
 20
-2.853660373216498
 30
0.0
 10
10.0
 20
-3.126872732983596
 30
0.0
 10
10.0
 20
-3.37608664027502
 30
0.0
  0
SPLINE
  5
C4
330
1F
100
AcDbEntity
  8
0
  6
Continuous
 62
     1
370
    15
100
AcDbSpline
210
0.0
220
0.0
230
1.0
 70
    24
 71
     3
 72
    15
 73
    11
 74
     0
 42
0.000000001
 43
0.00000001
 40
0.0
 40
0.0
 40
0.0
 40
0.0
 40
0.0874307724147496
 40
0.2257829184996648
 40
0.3641350645845798
 40
0.5024872106694952
 40
0.6408393567544106
 40
0.779191502839326
 40
0.9175436489242419
 40
1.0
 40
1.0
 40
1.0
 40
1.0
 10
10.0
 20
-5.394813495852693
 30
0.0
 10
10.00000000000001
 20
-5.391091426496837
 30
0.0
 10
10.0
 20
-5.38147948256894
 30
0.0
 10
10.00000000000001
 20
-5.495020397378849
 30
0.0
 10
10.0
 20
-5.714212801591389
 30
0.0
 10
10.0
 20
-6.043414973823529
 30
0.0
 10
10.00000000000001
 20
-6.463147907649862
 30
0.0
 10
10.0
 20
-6.967342441556923
 30
0.0
 10
10.0
 20
-7.459229050386413
 30
0.0
 10
10.0
 20
-7.786952555362991
 30
0.0
 10
10.0
 20
-7.909334097421413
 30
0.0
  0
SPLINE
  5
C5
330
1F
100
AcDbEntity
  8
0
  6
Continuous
 62
     1
370
    15
100
AcDbSpline
210
0.0
220
0.0
230
1.0
 70
    24
 71
     3
 72
    16
 73
    12
 74
     0
 42
0.000000001
 43
0.00000001
 40
0.0
 40
0.0
 40
0.0
 40
0.0
 40
0.0563118354363355
 40
0.1825487333683517
 40
0.3087856313003681
 40
0.4350225292323837
 40
0.5612594271643996
 40
0.6874963250964157
 40
0.8137332230284318
 40
0.9399701209604482
 40
1.0
 40
1.0
 40
1.0
 40
1.0
 10
10.0
 20
7.675526893529133
 30
0.0
 10
10.0
 20
7.578479649556651
 30
0.0
 10
10.00000000000001
 20
7.263877020699075
 30
0.0
 10
10.0
 20
6.751465735867634
 30
0.0
 10
10.0
 20
6.169818531885148
 30
0.0
 10
10.0
 20
5.654456770255607
 30
0.0
 10
10.0
 20
5.217383140307551
 30
0.0
 10
10.0
 20
4.872504646046415
 30
0.0
 10
10.0
 20
4.633403219456532
 30
0.0
 10
10.0
 20
4.508558331927221
 30
0.0
 10
10.0
 20
4.505312946849624
 30
0.0
 10
10.0
 20
4.504267027245429
 30
0.0
  0
SPLINE
  5
C6
330
1F
100
AcDbEntity
  8
0
  6
Continuous
 62
     1
370
    15
100
AcDbSpline
210
0.0
220
0.0
230
1.0
 70
     8
 71
     3
 72
    16
 73
    12
 74
     0
 42
0.000000001
 43
0.00000001
 40
0.0
 40
0.0
 40
0.0
 40
0.0
 40
0.1164459024273426
 40
0.2328733678798807
 40
0.3491419024436643
 40
0.4654728896966117
 40
0.5819785661424004
 40
0.7020657767830125
 40
0.82209609560619
 40
0.9422414626065848
 40
1.0
 40
1.0
 40
1.0
 40
1.0
 10
10.00000000000001
 20
-3.376086640275003
 30
0.0
 10
10.45740637214073
 20
-3.780072344701336
 30
0.0
 10
11.37214669489782
 20
-4.587979790167587
 30
0.0
 10
12.74383031574119
 20
-5.635703287176365
 30
0.0
 10
14.1134791172094
 20
-6.523698976832185
 30
0.0
 10
15.48391324304961
 20
-7.215584310946758
 30
0.0
 10
16.87124204219175
 20
-7.696999591922582
 30
0.0
 10
18.27119780914236
 20
-7.949815813288829
 30
0.0
 10
19.68521320306685
 20
-7.940278243935207
 30
0.0
 10
20.85530411150764
 20
-7.763716482418451
 30
0.0
 10
21.55430619468841
 20
-7.503846247764892
 30
0.0
 10
21.78124521604963
 20
-7.419476403736918
 30
0.0
  0
SPLINE
  5
C7
330
1F
100
AcDbEntity
  8
0
  6
Continuous
 62
     1
370
    15
100
AcDbSpline
210
0.0
220
0.0
230
1.0
 70
     8
 71
     3
 72
    27
 73
    23
 74
     0
 42
0.000000001
 43
0.00000001
 40
0.0
 40
0.0
 40
0.0
 40
0.0
 40
0.044766193926368
 40
0.0957507152145763
 40
0.146779170910543
 40
0.1978572085702807
 40
0.2488598793400555
 40
0.2998470577424495
 40
0.3508917448900037
 40
0.4019587836265625
 40
0.4529530242509429
 40
0.5039454011200182
 40
0.5550081934280781
 40
0.606057756386318
 40
0.6570461040396642
 40
0.7080462176521934
 40
0.7591219543872838
 40
0.8101545991911061
 40
0.8611395945340093
 40
0.9121499785914999
 40
0.9632315429113767
 40
1.0
 40
1.0
 40
1.0
 40
1.0
 10
43.91868606926363
 20
7.923969352372439
 30
0.0
 10
44.33254040891264
 20
7.91073761631608
 30
0.0
 10
45.2177362573966
 20
7.882436166498596
 30
0.0
 10
46.57390398284259
 20
7.532884306873061
 30
0.0
 10
47.98919830568657
 20
6.953545835635927
 30
0.0
 10
49.40595304208686
 20
6.148011128626016
 30
0.0
 10
50.82046805218832
 20
5.148425313998216
 30
0.0
 10
52.23454671870537
 20
3.985163119095859
 30
0.0
 10
53.6502973666563
 20
2.696082130809283
 30
0.0
 10
55.06672434399368
 20
1.322047648946185
 30
0.0
 10
56.48100369442723
 20
-0.0950329050506323
 30
0.0
 10
57.89523110301518
 20
-1.509075188265421
 30
0.0
 10
59.31152909726873
 20
-2.87426284694045
 30
0.0
 10
60.72742661626421
 20
-4.1486767853713
 30
0.0
 10
62.14153936368201
 20
-5.292099104895764
 30
0.0
 10
63.5559803961136
 20
-6.26767768350153
 30
0.0
 10
64.9726733531614
 20
-7.043900532190125
 30
0.0
 10
66.38806070416301
 20
-7.596809492904875
 30
0.0
 10
67.80208402123853
 20
-7.911084335900084
 30
0.0
 10
69.21679305757384
 20
-7.966063697497734
 30
0.0
 10
70.5018793510062
 20
-7.815327275916806
 30
0.0
 10
71.31385498362806
 20
-7.540330653440655
 30
0.0
 10
71.65369657645182
 20
-7.425234477584149
 30
0.0
  0
SPLINE
  5
C8
330
1F
100
AcDbEntity
  8
0
  6
Continuous
 62
     1
370
    15
100
AcDbSpline
210
0.0
220
0.0
230
1.0
 70
    24
 71
     3
 72
    18
 73
    14
 74
     0
 42
0.000000001
 43
0.00000001
 40
0.0
 40
0.0
 40
0.0
 40
0.0
 40
0.2500000000000001
 40
0.2500000000000001
 40
0.5
 40
0.5
 40
0.625
 40
0.625
 40
0.75
 40
0.75
 40
0.875
 40
0.875
 40
1.0
 40
1.0
 40
1.0
 40
1.0
 10
10.0
 20
2.086294101462276
 30
0.0
 10
10.0
 20
1.870437823661679
 30
0.0
 10
10.0
 20
1.597696170578536
 30
0.0
 10
10.0
 20
0.8998432471760436
 30
0.0
 10
10.0
 20
0.4724273123992969
 30
0.0
 10
10.0
 20
-0.2792431591267891
 30
0.0
 10
10.0
 20
-0.5475968792919653
 30
0.0
 10
10.0
 20
-1.108193256961722
 30
0.0
 10
10.0
 20
-1.400410700684004
 30
0.0
 10
10.0
 20
-1.988589647633245
 30
0.0
 10
10.0
 20
-2.284393801869005
 30
0.0
 10
10.0
 20
-2.853660373216498
 30
0.0
 10
10.0
 20
-3.126872732983595
 30
0.0
 10
10.0
 20
-3.37608664027502
 30
0.0
  0
SPLINE
  5
C9
330
1F
100
AcDbEntity
  8
0
  6
Continuous
 62
     1
370
    15
100
AcDbSpline
210
0.0
220
0.0
230
1.0
 70
     8
 71
     3
 72
    18
 73
    14
 74
     0
 42
0.000000001
 43
0.00000001
 40
0.0
 40
0.0
 40
0.0
 40
0.0
 40
0.0940927762684022
 40
0.1881706547507151
 40
0.2821201109506976
 40
0.3761200313300661
 40
0.470261107308695
 40
0.5672962009269863
 40
0.6642853237645305
 40
0.7613674099625138
 40
0.8585271169656509
 40
0.9555431055079529
 40
1.0
 40
1.0
 40
1.0
 40
1.0
 10
10.00000000000001
 20
2.086294101462298
 30
0.0
 10
10.45740637352711
 20
1.639238338341718
 30
0.0
 10
11.37214669905675
 20
0.745197594804535
 30
0.0
 10
12.74383029911801
 20
-0.6337965124766959
 30
0.0
 10
14.11347917946574
 20
-1.990584828931142
 30
0.0
 10
15.48391301032864
 20
-3.28913633169691
 30
0.0
 10
16.87124292348424
 20
-4.500889688204496
 30
0.0
 10
18.27119440820834
 20
-5.588883087712064
 30
0.0
 10
19.68522588114199
 20
-6.509767377015153
 30
0.0
 10
21.10064868905954
 20
-7.227908699212756
 30
0.0
 10
22.51734003658846
 20
-7.702455587786496
 30
0.0
 10
23.67646468284967
 20
-7.93488979669441
 30
0.0
 10
24.36377896865545
 20
-7.913077307490292
 30
0.0
 10
24.57976282387614
 20
-7.906222880618106
 30
0.0
  0
SPLINE
  5
CA
330
1F
100
AcDbEntity
  8
0
  6
Continuous
 62
     1
370
    15
100
AcDbSpline
210
0.0
220
0.0
230
1.0
 70
     8
 71
     3
 72
    27
 73
    23
 74
     0
 42
0.000000001
 43
0.00000001
 40
0.0
 40
0.0
 40
0.0
 40
0.0
 40
0.0458493835948482
 40
0.0969270205173187
 40
0.1479292911411247
 40
0.1989160695190954
 40
0.2499603561910368
 40
0.3010269942766218
 40
0.3520208348211719
 40
0.4030128116250393
 40
0.4540752033154404
 40
0.5051243657598146
 40
0.5561123133795645
 40
0.6071120268661864
 40
0.6581873628820619
 40
0.7092196073047504
 40
0.7602042026403584
 40
0.8112141864913645
 40
0.862295350046305
 40
0.9133131909207572
 40
0.9642969765967627
 40
1.0
 40
1.0
 40
1.0
 40
1.0
 10
46.71726908287459
 20
7.438262470488945
 30
0.0
 10
47.14109292364805
 20
7.570644122310161
 30
0.0
 10
48.03706968253721
 20
7.85050304463673
 30
0.0
 10
49.40596659036721
 20
7.97523511272216
 30
0.0
 10
50.82046442556873
 20
7.873266463172552
 30
0.0
 10
52.23454769154228
 20
7.515729237702271
 30
0.0
 10
53.65029710571179
 20
6.921598203111812
 30
0.0
 10
55.06672441385263
 20
6.108011050442377
 30
0.0
 10
56.48100367558276
 20
5.100175322904576
 30
0.0
 10
57.89523110859032
 20
3.930497970406942
 30
0.0
 10
59.3115290938379
 20
2.637134310953281
 30
0.0
 10
60.72742662440271
 20
1.259912497023616
 30
0.0
 10
62.141539334591
 20
-0.1578742277361421
 30
0.0
 10
63.55598050444897
 20
-1.570794410431926
 30
0.0
 10
64.97267294841694
 20
-2.932562678325833
 30
0.0
 10
66.38806221257673
 20
-4.202297581530418
 30
0.0
 10
67.80207839629803
 20
-5.339087421219755
 30
0.0
 10
69.21681407485327
 20
-6.305968540393329
 30
0.0
 10
70.6336757345073
 20
-7.074570112914797
 30
0.0
 10
72.04867128728785
 20
-7.610450252946771
 30
0.0
 10
73.32099380472529
 20
-7.906275913334055
 30
0.0
 10
74.12248023991144
 20
-7.909636746092117
 30
0.0
 10
74.4525822387827
 20
-7.911020946201571
 30
0.0
  0
SPLINE
  5
CB
330
1F
100
AcDbEntity
  8
0
  6
Continuous
 62
     1
370
    15
100
AcDbSpline
210
0.0
220
0.0
230
1.0
 70
     8
 71
     3
 72
    22
 73
    18
 74
     0
 42
0.000000001
 43
0.00000001
 40
0.0
 40
0.0
 40
0.0
 40
0.0
 40
0.1250000000000042
 40
0.1250000000000042
 40
0.2500000000000085
 40
0.2500000000000085
 40
0.3750000000000128
 40
0.3750000000000128
 40
0.4375000000000147
 40
0.4375000000000147
 40
0.5000000000000167
 40
0.5000000000000167
 40
0.6250000000000123
 40
0.6250000000000123
 40
0.750000000000008
 40
0.750000000000008
 40
1.0
 40
1.0
 40
1.0
 40
1.0
 10
86.2
 20
-2.191627622948147
 30
0.0
 10
86.19999999999999
 20
-2.327748593419003
 30
0.0
 10
86.1991913691899
 20
-2.463632035426122
 30
0.0
 10
86.1903932750512
 20
-2.734534343800884
 30
0.0
 10
86.18260552933849
 20
-2.869570240287884
 30
0.0
 10
86.14892622269466
 20
-3.137917062497112
 30
0.0
 10
86.12288567055421
 20
-3.271934601228682
 30
0.0
 10
86.0553311357811
 20
-3.451911254712742
 30
0.0
 10
86.02853298675214
 20
-3.506837196454845
 30
0.0
 10
85.96418744957914
 20
-3.603771488510448
 30
0.0
 10
85.92601116449386
 20
-3.645892923275833
 30
0.0
 10
85.80094945025417
 20
-3.741961699721032
 30
0.0
 10
85.69991398571342
 20
-3.767975173249746
 30
0.0
 10
85.4934923632336
 20
-3.759645299013828
 30
0.0
 10
85.38819962714182
 20
-3.728000754042534
 30
0.0
 10
85.07497439615332
 20
-3.586587886223255
 30
0.0
 10
84.87171397415663
 20
-3.433660190763517
 30
0.0
 10
84.676
 20
-3.255144396515058
 30
0.0
  0
SPLINE
  5
CC
330
1F
100
AcDbEntity
  8
0
  6
Continuous
 62
     1
370
    15
100
AcDbSpline
210
0.0
220
0.0
230
1.0
 70
     8
 71
     3
 72
    28
 73
    24
 74
     0
 42
0.000000001
 43
0.00000001
 40
0.0
 40
0.0
 40
0.0
 40
0.0
 40
0.0253641695468926
 40
0.0763968730024389
 40
0.1274703790373954
 40
0.1784683372356693
 40
0.2294557535275835
 40
0.2805056000146696
 40
0.3315655232824843
 40
0.3825559727075081
 40
0.4335495098084893
 40
0.4846164681121385
 40
0.5356582368630648
 40
0.5866437160616067
 40
0.6376459106920674
 40
0.6887232286568189
 40
0.7397489920340803
 40
0.790732042493696
 40
0.8417454262554215
 40
0.89282598508341
 40
0.9438382607713041
 40
0.9948214254169904
 40
1.0
 40
1.0
 40
1.0
 40
1.0
 10
18.98168592429753
 20
7.90600677267989
 30
0.0
 10
19.21607846080236
 20
7.91211599407395
 30
0.0
 10
19.92206872833204
 20
7.930516967546508
 30
0.0
 10
21.10066360676792
 20
7.688535985706539
 30
0.0
 10
22.5173177565381
 20
7.203970321489629
 30
0.0
 10
23.9317398508814
 20
6.477241162676949
 30
0.0
 10
25.34586390631152
 20
5.548620742643693
 30
0.0
 10
26.76181124818683
 20
4.443615771986266
 30
0.0
 10
28.17806335564534
 20
3.198276134942836
 30
0.0
 10
29.59227474398732
 20
1.850574791911191
 30
0.0
 10
31.00657214090417
 20
0.4441320798517988
 30
0.0
 10
32.42303807525137
 20
-0.9751924069448588
 30
0.0
 10
33.83874159424086
 20
-2.364212500947671
 30
0.0
 10
35.25281103247491
 20
-3.678690177424409
 30
0.0
 10
36.66734879686352
 20
-4.876601868176457
 30
0.0
 10
38.08413104867702
 20
-5.918832943011092
 30
0.0
 10
39.4993559758543
 20
-6.774189798436961
 30
0.0
 10
40.91335456331302
 20
-7.415184477223326
 30
0.0
 10
42.32821969823954
 20
-7.819285869860549
 30
0.0
 10
43.74508126562209
 20
-7.981746540211567
 30
0.0
 10
45.15998274279126
 20
-7.867356531518595
 30
0.0
 10
46.15013001279237
 20
-7.675035676424297
 30
0.0
 10
46.66938911958698
 20
-7.458251734155862
 30
0.0
 10
46.71726908287467
 20
-7.43826247048893
 30
0.0
  0
SPLINE
  5
CD
330
1F
100
AcDbEntity
  8
0
  6
Continuous
 62
     1
370
    15
100
AcDbSpline
210
0.0
220
0.0
230
1.0
 70
     8
 71
     3
 72
    19
 73
    15
 74
     0
 42
0.000000001
 43
0.00000001
 40
0.0
 40
0.0
 40
0.0
 40
0.0
 40
0.0228955825962828
 40
0.1124389052066339
 40
0.2018712255842057
 40
0.2912438485036773
 40
0.3806848301828565
 40
0.4702258853393091
 40
0.558504277033987
 40
0.6467491329510906
 40
0.7351025717028804
 40
0.8234836918775499
 40
0.9117360187836719
 40
1.0
 40
1.0
 40
1.0
 40
1.0
 10
68.85425874182374
 20
7.913502520013333
 30
0.0
 10
68.97498065828931
 20
7.920674835437294
 30
0.0
 10
69.5678391306499
 20
7.95589766895444
 30
0.0
 10
70.63374225836392
 20
7.76788168414148
 30
0.0
 10
72.0486288844872
 20
7.345905580454945
 30
0.0
 10
73.46264389856485
 20
6.671021598610985
 30
0.0
 10
74.87774192125039
 20
5.789871292841203
 30
0.0
 10
76.28860916764998
 20
4.729219283869393
 30
0.0
 10
77.69124284820231
 20
3.524701112967882
 30
0.0
 10
79.08738350145394
 20
2.216341100979519
 30
0.0
 10
80.48529668944843
 20
0.8396443778241177
 30
0.0
 10
81.88371774778514
 20
-0.5606432213144281
 30
0.0
 10
83.27987448930081
 20
-1.952111489776124
 30
0.0
 10
84.21060434626868
 20
-2.820780976594834
 30
0.0
 10
84.67600000000003
 20
-3.255144396515083
 30
0.0
  0
SPLINE
  5
CE
330
1F
100
AcDbEntity
  8
0
  6
Continuous
 62
     1
370
    15
100
AcDbSpline
210
0.0
220
0.0
230
1.0
 70
     8
 71
     3
 72
    28
 73
    24
 74
     0
 42
0.000000001
 43
0.00000001
 40
0.0
 40
0.0
 40
0.0
 40
0.0
 40
0.0265403661450966
 40
0.0775388235813618
 40
0.1285267390080686
 40
0.1795770852410996
 40
0.2306375083535047
 40
0.2816284569430136
 40
0.3326224932387062
 40
0.3836899514558146
 40
0.4347322198736097
 40
0.4857181981879816
 40
0.5367208920979053
 40
0.5877987100775304
 40
0.6388249729649782
 40
0.6898085225166478
 40
0.7408224056673711
 40
0.7919034645419593
 40
0.8429162396080039
 40
0.8938999033468618
 40
0.9449275007545099
 40
0.9960046792919707
 40
1.0
 40
1.0
 40
1.0
 40
1.0
 10
21.78124521604969
 20
7.419476403736923
 30
0.0
 10
22.02676585090477
 20
7.509443755409324
 30
0.0
 10
22.74406496756104
 20
7.772287250908629
 30
0.0
 10
23.93172867411644
 20
7.945586939037604
 30
0.0
 10
25.3458669049265
 20
7.94444203717623
 30
0.0
 10
26.76181044408424
 20
7.679535857426881
 30
0.0
 10
28.17806357078624
 20
7.174581212389731
 30
0.0
 10
29.59227468640298
 20
6.44089706654191
 30
0.0
 10
31.0065721562453
 20
5.503046293025796
 30
0.0
 10
32.42303807156635
 20
4.391573803645656
 30
0.0
 10
33.83874159363872
 20
3.140472922041457
 30
0.0
 10
35.2528110385561
 20
1.789380809805069
 30
0.0
 10
36.66734877311498
 20
0.3813471368597686
 30
0.0
 10
38.08413113769105
 20
-1.037304168175898
 30
0.0
 10
39.49935564408268
 20
-2.424246323104491
 30
0.0
 10
40.91335580071575
 20
-3.734391153075218
 30
0.0
 10
42.32821507441444
 20
-4.926055480300767
 30
0.0
 10
43.74509853720194
 20
-5.961002752968559
 30
0.0
 10
45.15991839871641
 20
-6.806089303843061
 30
0.0
 10
46.57395028831677
 20
-7.442434875522171
 30
0.0
 10
47.98910759392236
 20
-7.815660513749073
 30
0.0
 10
48.97117526487904
 20
-7.972539475023952
 30
0.0
 10
49.48020007519668
 20
-7.931398832804163
 30
0.0
 10
49.51712807725625
 20
-7.928414220483054
 30
0.0
  0
SPLINE
  5
CF
330
1F
100
AcDbEntity
  8
0
  6
Continuous
 62
     1
370
    15
100
AcDbSpline
210
0.0
220
0.0
230
1.0
 70
     8
 71
     3
 72
    17
 73
    13
 74
     0
 42
0.000000001
 43
0.00000001
 40
0.0
 40
0.0
 40
0.0
 40
0.0
 40
0.0303473328222748
 40
0.1389268064165791
 40
0.2475893295835859
 40
0.3563734327728413
 40
0.4636235165999275
 40
0.5708328575579281
 40
0.6781741166206722
 40
0.7855490060528358
 40
0.892767423571737
 40
1.0
 40
1.0
 40
1.0
 40
1.0
 10
71.65369657645188
 20
7.425234477584164
 30
0.0
 10
71.78543331623324
 20
7.47763843762775
 30
0.0
 10
72.3885098585027
 20
7.717538097181806
 30
0.0
 10
73.46259515979325
 20
7.906610360848244
 30
0.0
 10
74.87775500745128
 20
7.971159305254467
 30
0.0
 10
76.28860571454943
 20
7.766230172742116
 30
0.0
 10
77.69124376746915
 20
7.324144860406258
 30
0.0
 10
79.0873832548471
 20
6.656041452704755
 30
0.0
 10
80.48529675556438
 20
5.783250283765924
 30
0.0
 10
81.88371773018069
 20
4.730726638322142
 30
0.0
 10
83.27987449369992
 20
3.535861477240244
 30
0.0
 10
84.21060434773513
 20
2.654925521142271
 30
0.0
 10
84.67600000000004
 20
2.21442846164179
 30
0.0
  0
SPLINE
  5
D0
330
1F
100
AcDbEntity
  8
0
  6
Continuous
 62
     1
370
    15
100
AcDbSpline
210
0.0
220
0.0
230
1.0
 70
     8
 71
     3
 72
     8
 73
     4
 74
     0
 42
0.000000001
 43
0.00000001
 40
0.0
 40
0.0
 40
0.0
 40
0.0
 40
1.0
 40
1.0
 40
1.0
 40
1.0
 10
84.67600000000002
 20
2.214428461641808
 30
0.0
 10
84.71095114307083
 20
2.180861927080639
 30
0.0
 10
84.74545935163954
 20
2.146774005528934
 30
0.0
 10
84.77957148333482
 20
2.112212791839694
 30
0.0
  0
SPLINE
  5
D1
330
1F
100
AcDbEntity
  8
0
  6
Continuous
 62
     1
370
    15
100
AcDbSpline
210
0.0
220
0.0
230
1.0
 70
     8
 71
     3
 72
    18
 73
    14
 74
     0
 42
0.000000001
 43
0.00000001
 40
0.0
 40
0.0
 40
0.0
 40
0.0
 40
0.2499999999999969
 40
0.2499999999999969
 40
0.4999999999999938
 40
0.4999999999999938
 40
0.6249999999999953
 40
0.6249999999999953
 40
0.7499999999999969
 40
0.7499999999999969
 40
0.8749999999999984
 40
0.8749999999999984
 40
1.0
 40
1.0
 40
1.0
 40
1.0
 10
84.7795714833345
 20
2.112212791839659
 30
0.0
 10
84.75265624395543
 20
1.990108597529271
 30
0.0
 10
84.7133397546115
 20
1.863022285124115
 30
0.0
 10
84.60271829145145
 20
1.595998503554241
 30
0.0
 10
84.53084107203999
 20
1.45482008303573
 30
0.0
 10
84.3902829457975
 20
1.233233611744598
 30
0.0
 10
84.33864173259396
 20
1.158820416207317
 30
0.0
 10
84.22440097097522
 20
1.008732991756222
 30
0.0
 10
84.16105057947935
 20
0.9322786177889277
 30
0.0
 10
84.0248969694296
 20
0.7819262178014134
 30
0.0
 10
83.95260591737612
 20
0.7084562411210872
 30
0.0
 10
83.79923164623315
 20
0.5650759747625866
 30
0.0
 10
83.71711916861977
 20
0.4943729124195856
 30
0.0
 10
83.63293193635127
 20
0.4277506606739862
 30
0.0
  0
SPLINE
  5
D2
330
1F
100
AcDbEntity
  8
0
  6
Continuous
 62
     1
370
    15
100
AcDbSpline
210
0.0
220
0.0
230
1.0
 70
     8
 71
     3
 72
     8
 73
     4
 74
     0
 42
0.000000001
 43
0.00000001
 40
0.0
 40
0.0
 40
0.0
 40
0.0
 40
1.0
 40
1.0
 40
1.0
 40
1.0
 10
86.2
 20
-1.36636027644858
 30
0.0
 10
85.3447800266477
 20
-0.7756685431774222
 30
0.0
 10
84.48671974576726
 20
-0.1760278105503978
 30
0.0
 10
83.63293193635124
 20
0.4277506606739749
 30
0.0
  0
LINE
  5
D3
330
1F
100
AcDbEntity
  8
0
  6
Continuous
 62
     1
370
    15
100
AcDbLine
 10
86.2
 20
-2.191627622948155
 30
0.0
 11
86.2
 21
-1.366360276448573
 31
0.0
  0
SPLINE
  5
D4
330
1F
100
AcDbEntity
  8
0
  6
Continuous
 62
     1
370
    15
100
AcDbSpline
210
0.0
220
0.0
230
1.0
 70
     8
 71
     3
 72
    22
 73
    18
 74
     0
 42
0.000000001
 43
0.00000001
 40
0.0
 40
0.0
 40
0.0
 40
0.0
 40
0.0682740282950101
 40
0.1365372467073773
 40
0.2047072814888087
 40
0.2729139332449741
 40
0.3412230079687689
 40
0.4116319914215076
 40
0.4820076183243606
 40
0.5524506997476638
 40
0.6229501030827814
 40
0.6933452238294718
 40
0.7637257930372906
 40
0.8341925378741468
 40
0.9046731922128969
 40
0.9750579482113054
 40
1.0
 40
1.0
 40
1.0
 40
1.0
 10
10.00000000000001
 20
4.533247457146441
 30
0.0
 10
10.45740637337396
 20
4.14495624958819
 30
0.0
 10
11.37214669859731
 20
3.368435312935606
 30
0.0
 10
12.74383030095438
 20
2.068079690052886
 30
0.0
 10
14.11347917258826
 20
0.714803887721428
 30
0.0
 10
15.48391303603741
 20
-0.6621972280480078
 30
0.0
 10
16.87124282612754
 20
-2.031732248583404
 30
0.0
 10
18.27119478391075
 20
-3.355564437469988
 30
0.0
 10
19.68522448059048
 20
-4.586559483788048
 30
0.0
 10
21.10065392303697
 20
-5.671989618807818
 30
0.0
 10
22.51732049865932
 20
-6.576942749035635
 30
0.0
 10
23.93173855524158
 20
-7.27453673846182
 30
0.0
 10
25.34586635033978
 20
-7.74013243362057
 30
0.0
 10
26.76180275647337
 20
-7.964384684553599
 30
0.0
 10
28.17809486255541
 20
-7.920514349843748
 30
0.0
 10
29.28795144257296
 20
-7.735050791451076
 30
0.0
 10
29.92625711162871
 20
-7.486914441641515
 30
0.0
 10
30.09326840073178
 20
-7.421990105756588
 30
0.0
  0
SPLINE
  5
D5
330
1F
100
AcDbEntity
  8
0
  6
Continuous
 62
     1
370
    15
100
AcDbSpline
210
0.0
220
0.0
230
1.0
 70
     8
 71
     3
 72
    28
 73
    24
 74
     0
 42
0.000000001
 43
0.00000001
 40
0.0
 40
0.0
 40
0.0
 40
0.0
 40
0.0001663152074475
 40
0.0512105409633478
 40
0.1022771181062174
 40
0.1532708977949288
 40
0.2042628137451816
 40
0.2553251444979355
 40
0.3063742460204494
 40
0.3573621327913931
 40
0.4083617854151674
 40
0.4594370604779476
 40
0.5104692439989665
 40
0.5614537784897686
 40
0.6124637014656703
 40
0.6635448040605614
 40
0.7145625840505326
 40
0.7655463088826991
 40
0.8165690298199473
 40
0.8676488389175476
 40
0.9180083459317147
 40
0.9683487220442701
 40
1.0
 40
1.0
 40
1.0
 40
1.0
 10
52.22958351240763
 20
7.937091201104763
 30
0.0
 10
52.23112053861085
 20
7.937227422951538
 30
0.0
 10
52.70439020859051
 20
7.979171840250816
 30
0.0
 10
53.65034924067746
 20
7.83286687509169
 30
0.0
 10
55.06671046394221
 20
7.481290372341488
 30
0.0
 10
56.4810074108879
 20
6.861211355801375
 30
0.0
 10
57.89523010613688
 20
6.031721256842356
 30
0.0
 10
59.31152936270892
 20
5.009484909473867
 30
0.0
 10
60.72742655181224
 20
3.828874870363928
 30
0.0
 10
62.14153935646405
 20
2.526158294279958
 30
0.0
 10
63.55598048950681
 20
1.143195131122178
 30
0.0
 10
64.97267298632244
 20
-0.2746179185374833
 30
0.0
 10
66.38806207609711
 20
-1.684727847196861
 30
0.0
 10
67.80207890395482
 20
-3.041581691950438
 30
0.0
 10
69.21681217836596
 20
-4.302100093183038
 30
0.0
 10
70.6336828193821
 20
-5.425045146626409
 30
0.0
 10
72.04864489138774
 20
-6.377059150225575
 30
0.0
 10
73.46263923083859
 20
-7.126921748285023
 30
0.0
 10
74.87774458067668
 20
-7.650036257125034
 30
0.0
 10
76.28860323842694
 20
-7.931818237226567
 30
0.0
 10
77.69126359621946
 20
-7.955214942522357
 30
0.0
 10
78.9140642648276
 20
-7.791529426735289
 30
0.0
 10
79.67233843715573
 20
-7.524979585165201
 30
0.0
 10
79.96505538338322
 20
-7.422083220645414
 30
0.0
  0
SPLINE
  5
D6
330
1F
100
AcDbEntity
  8
0
  6
Continuous
 62
     1
370
    15
100
AcDbSpline
210
0.0
220
0.0
230
1.0
 70
    24
 71
     3
 72
    16
 73
    12
 74
     0
 42
0.000000001
 43
0.00000001
 40
0.0
 40
0.0
 40
0.0
 40
0.0
 40
0.0559969965174684
 40
0.1797400355839267
 40
0.30707163116626
 40
0.4308146702327184
 40
0.5581462658150528
 40
0.6818893048815108
 40
0.8092209004638445
 40
0.9329639395303031
 40
1.0
 40
1.0
 40
1.0
 40
1.0
 10
10.0
 20
7.675526893529138
 30
0.0
 10
10.0
 20
7.578485635964691
 30
0.0
 10
10.0
 20
7.267001089069365
 30
0.0
 10
10.0
 20
6.754091282110375
 30
0.0
 10
10.0
 20
6.175252941995743
 30
0.0
 10
10.0
 20
5.656239937641613
 30
0.0
 10
10.0
 20
5.221394255618683
 30
0.0
 10
10.0
 20
4.873319005236103
 30
0.0
 10
10.0
 20
4.635321656463605
 30
0.0
 10
10.0
 20
4.507197610634978
 30
0.0
 10
10.0
 20
4.504451242343469
 30
0.0
 10
10.0
 20
4.503486222006811
 30
0.0
  0
SPLINE
  5
D7
330
1F
100
AcDbEntity
  8
0
  6
Continuous
 62
     1
370
    15
100
AcDbSpline
210
0.0
220
0.0
230
1.0
 70
     8
 71
     3
 72
    24
 73
    20
 74
     0
 42
0.000000001
 43
0.00000001
 40
0.0
 40
0.0
 40
0.0
 40
0.0
 40
0.0599269010480388
 40
0.1198443138209069
 40
0.1796799355178733
 40
0.2395476974279832
 40
0.2995053601568884
 40
0.361306198479089
 40
0.4230777583961008
 40
0.4849085258986794
 40
0.5467887294418785
 40
0.6085773999012131
 40
0.6703532978809996
 40
0.7322048357274096
 40
0.7940685825113092
 40
0.8558481554080687
 40
0.917631469305428
 40
0.9795037396758832
 40
1.0
 40
1.0
 40
1.0
 40
1.0
 10
10.00000000000001
 20
7.675526893529133
 30
0.0
 10
10.45740637337258
 20
7.536949510390023
 30
0.0
 10
11.37214669859317
 20
7.259816685182016
 30
0.0
 10
12.74383030097091
 20
6.567270678713747
 30
0.0
 10
14.11347917252634
 20
5.695107210581365
 30
0.0
 10
15.48391303626887
 20
4.649025416967867
 30
0.0
 10
16.87124282525101
 20
3.45454097766941
 30
0.0
 10
18.27119478729331
 20
2.138299666569101
 30
0.0
 10
19.6852244679809
 20
0.7407106590484549
 30
0.0
 10
21.10065397016001
 20
-0.6802062397174163
 30
0.0
 10
22.5173203227536
 20
-2.078603828606089
 30
0.0
 10
23.93173921057336
 20
-3.4124877695643
 30
0.0
 10
25.34586390379025
 20
-4.637884830130863
 30
0.0
 10
26.76181190042426
 20
-5.716025760919127
 30
0.0
 10
28.17806075036252
 20
-6.611628716737813
 30
0.0
 10
29.59228449844516
 20
-7.302895058851798
 30
0.0
 10
31.00653569819422
 20
-7.744909752975502
 30
0.0
 10
32.10741978182227
 20
-7.94834683531642
 30
0.0
 10
32.73602141529888
 20
-7.917288669014324
 30
0.0
 10
32.89244016662607
 20
-7.909560277402264
 30
0.0
  0
SPLINE
  5
D8
330
1F
100
AcDbEntity
  8
0
  6
Continuous
 62
     1
370
    15
100
AcDbSpline
210
0.0
220
0.0
230
1.0
 70
     8
 71
     3
 72
    28
 73
    24
 74
     0
 42
0.000000001
 43
0.00000001
 40
0.0
 40
0.0
 40
0.0
 40
0.0
 40
0.0013308314988336
 40
0.052323880503574
 40
0.1033150657965612
 40
0.1543766648830837
 40
0.205425034928927
 40
0.2564121911003387
 40
0.3074111129559896
 40
0.3584856561670613
 40
0.4095171084538249
 40
0.4605009123931297
 40
0.5115101044537455
 40
0.5625904751134256
 40
0.6136075240755289
 40
0.664590518367799
 40
0.7156125082063811
 40
0.7666915853873049
 40
0.8170503708059207
 40
0.8673900255970493
 40
0.9177916219297847
 40
0.9682090092483789
 40
1.0
 40
1.0
 40
1.0
 40
1.0
 10
55.03019339921151
 20
7.446038274626892
 30
0.0
 10
55.04250240927544
 20
7.451262209652204
 30
0.0
 10
55.52645185912482
 20
7.656650008379876
 30
0.0
 10
56.48093785332506
 20
7.847898825901757
 30
0.0
 10
57.89524877260854
 20
7.983940682578993
 30
0.0
 10
59.31152435937403
 20
7.839635931068252
 30
0.0
 10
60.72742789049798
 20
7.454193576521035
 30
0.0
 10
62.14153899788138
 20
6.830226735863018
 30
0.0
 10
63.55598058572092
 20
5.989996709475895
 30
0.0
 10
64.97267296069415
 20
4.960712116712658
 30
0.0
 10
66.3880620824146
 20
3.773500824253432
 30
0.0
 10
67.80207890427486
 20
2.466453064564543
 30
0.0
 10
69.21681217075843
 20
1.080998838096884
 30
0.0
 10
70.6336828495238
 20
-0.337233909675923
 30
0.0
 10
72.04864477863019
 20
-1.746170283714621
 30
0.0
 10
73.46263965161782
 20
-3.099639109385369
 30
0.0
 10
74.8777430081544
 20
-4.354756830468832
 30
0.0
 10
76.28860907931565
 20
-5.466295857580715
 30
0.0
 10
77.69124214390962
 20
-6.402651158988789
 30
0.0
 10
79.08738641003383
 20
-7.139671703291646
 30
0.0
 10
80.48528574283547
 20
-7.645491371506235
 30
0.0
 10
81.71211752876923
 20
-7.915316500599644
 30
0.0
 10
82.47175832797225
 20
-7.910705112719628
 30
0.0
 10
82.76552076665446
 20
-7.908921832318198
 30
0.0
  0
SPLINE
  5
D9
330
1F
100
AcDbEntity
  8
0
  6
Continuous
 62
     1
370
    15
100
AcDbSpline
210
0.0
220
0.0
230
1.0
 70
     8
 71
     3
 72
    22
 73
    18
 74
     0
 42
0.000000001
 43
0.00000001
 40
0.0
 40
0.0
 40
0.0
 40
0.0
 40
0.1250000000000038
 40
0.1250000000000038
 40
0.2500000000000078
 40
0.2500000000000078
 40
0.3750000000000118
 40
0.3750000000000118
 40
0.4375000000000134
 40
0.4375000000000134
 40
0.500000000000015
 40
0.500000000000015
 40
0.6250000000000111
 40
0.6250000000000111
 40
0.7500000000000074
 40
0.7500000000000074
 40
1.0
 40
1.0
 40
1.0
 40
1.0
 10
86.2
 20
4.124082064810059
 30
0.0
 10
86.20000000000003
 20
4.041687152901055
 30
0.0
 10
86.19919136918985
 20
3.965649134036207
 30
0.0
 10
86.19039327505119
 20
3.82876510909998
 30
0.0
 10
86.1826055293384
 20
3.767732880036825
 30
0.0
 10
86.14892622269457
 20
3.668896467156467
 30
0.0
 10
86.12288567055423
 20
3.631118186445445
 30
0.0
 10
86.05533113578107
 20
3.611723860437889
 30
0.0
 10
86.0285329867521
 20
3.611698117200722
 30
0.0
 10
85.96418744957914
 20
3.626640215056177
 30
0.0
 10
85.92601116449383
 20
3.642095965765889
 30
0.0
 10
85.80094945025415
 20
3.70872155403403
 30
0.0
 10
85.6999139857134
 20
3.781881043722759
 30
0.0
 10
85.49349236323361
 20
3.945954669514695
 30
0.0
 10
85.38819962714182
 20
4.036002184259136
 30
0.0
 10
85.07497439615331
 20
4.305892314613723
 30
0.0
 10
84.87171397415663
 20
4.483101051036819
 30
0.0
 10
84.676
 20
4.641874021774794
 30
0.0
  0
SPLINE
  5
DA
330
1F
100
AcDbEntity
  8
0
  6
Continuous
 62
     1
370
    15
100
AcDbSpline
210
0.0
220
0.0
230
1.0
 70
     8
 71
     3
 72
    27
 73
    23
 74
     0
 42
0.000000001
 43
0.00000001
 40
0.0
 40
0.0
 40
0.0
 40
0.0
 40
0.0318766478118241
 40
0.0828670106848772
 40
0.1338604612286464
 40
0.1849273328504576
 40
0.235969014962303
 40
0.2869544076173108
 40
0.3379565156758643
 40
0.389033746941193
 40
0.4400594237065412
 40
0.4910423876267452
 40
0.5420556847975708
 40
0.5931361569206358
 40
0.6441483460195108
 40
0.6951314241255916
 40
0.7461584353958112
 40
0.7972350272263207
 40
0.8482362543002236
 40
0.8992219894452772
 40
0.9502652317076322
 40
1.0
 40
1.0
 40
1.0
 40
1.0
 10
27.29401414142929
 20
7.907911942911162
 30
0.0
 10
27.58886613048617
 20
7.910064018126118
 30
0.0
 10
28.35536777369126
 20
7.91565858506067
 30
0.0
 10
29.59226178027818
 20
7.640884721968662
 30
0.0
 10
31.00657562013965
 20
7.123714116382375
 30
0.0
 10
32.42303714329083
 20
6.370714039828743
 30
0.0
 10
33.83874184215867
 20
5.418336284013993
 30
0.0
 10
35.25281097141624
 20
4.293065730397938
 30
0.0
 10
36.66734879322604
 20
3.031643962592983
 30
0.0
 10
38.08413112450016
 20
1.675451750913329
 30
0.0
 10
39.49935567669125
 20
0.2650344715581445
 30
0.0
 10
40.91335568352892
 20
-1.153848644423565
 30
0.0
 10
42.32821551111827
 20
-2.536264481938228
 30
0.0
 10
43.74509690628214
 20
-3.836933973287555
 30
0.0
 10
45.15992447450998
 20
-5.017309600422384
 30
0.0
 10
46.57392761838496
 20
-6.038383659643498
 30
0.0
 10
47.98919231706523
 20
-6.867985133785165
 30
0.0
 10
49.40595332295915
 20
-7.47904333955074
 30
0.0
 10
50.8204729002174
 20
-7.854886011473617
 30
0.0
 10
52.23452704132423
 20
-7.976624255785262
 30
0.0
 10
53.63806364276398
 20
-7.86457420916633
 30
0.0
 10
54.57018427971897
 20
-7.5843374136488
 30
0.0
 10
55.03019339921153
 20
-7.44603827462688
 30
0.0
  0
SPLINE
  5
DB
330
1F
100
AcDbEntity
  8
0
  6
Continuous
 62
     1
370
    15
100
AcDbSpline
210
0.0
220
0.0
230
1.0
 70
     8
 71
     3
 72
    13
 73
     9
 74
     0
 42
0.000000001
 43
0.00000001
 40
0.0
 40
0.0
 40
0.0
 40
0.0
 40
0.0697818809072584
 40
0.255711120129215
 40
0.4418691400957934
 40
0.6280854839821396
 40
0.8140304643517239
 40
1.0
 40
1.0
 40
1.0
 40
1.0
 10
77.16747952386274
 20
7.908703724819845
 30
0.0
 10
77.34212203689424
 20
7.916199955510709
 30
0.0
 10
77.98208805742634
 20
7.943669400612871
 30
0.0
 10
79.08734412802406
 20
7.735809272456131
 30
0.0
 10
80.48530724557416
 20
7.294374201970918
 30
0.0
 10
81.88371493703924
 20
6.609158597229122
 30
0.0
 10
83.27987519166842
 20
5.733456880709892
 30
0.0
 10
84.21060458040155
 20
5.005750990100926
 30
0.0
 10
84.67600000000002
 20
4.64187402177478
 30
0.0
  0
SPLINE
  5
DC
330
1F
100
AcDbEntity
  8
0
  6
Continuous
 62
     1
370
    15
100
AcDbSpline
210
0.0
220
0.0
230
1.0
 70
     8
 71
     3
 72
    27
 73
    23
 74
     0
 42
0.000000001
 43
0.00000001
 40
0.0
 40
0.0
 40
0.0
 40
0.0
 40
0.032925245394871
 40
0.08399383721723
 40
0.1350372386811076
 40
0.1860243487920237
 40
0.2370281748695475
 40
0.2881071266843911
 40
0.3391345222626277
 40
0.3901192035569272
 40
0.4411342191236315
 40
0.4922164119053802
 40
0.5432303193628083
 40
0.594215114846831
 40
0.645243844974892
 40
0.6963221573333768
 40
0.7473251023965749
 40
0.7983125550090726
 40
0.8493575166760143
 40
0.9004248300521682
 40
0.9514193449246335
 40
1.0
 40
1.0
 40
1.0
 40
1.0
 10
30.09326840073178
 20
7.421990105756597
 30
0.0
 10
30.39752229520419
 20
7.528354656592218
 30
0.0
 10
31.17368817577818
 20
7.79969558849496
 30
0.0
 10
32.42305612334111
 20
7.959682773997542
 30
0.0
 10
33.838736763844
 20
7.924744901869303
 30
0.0
 10
35.25281233194781
 20
7.628873789775908
 30
0.0
 10
36.66734842800129
 20
7.093479149567161
 30
0.0
 10
38.08413122235284
 20
6.333265456873846
 30
0.0
 10
39.49935565036796
 20
5.371847033454698
 30
0.0
 10
40.91335569110608
 20
4.239962378217353
 30
0.0
 10
42.32821550713388
 20
2.973474842454775
 30
0.0
 10
43.74509691463589
 20
1.614107810662301
 30
0.0
 10
45.15992444513158
 20
0.2021582210015183
 30
0.0
 10
46.5739277275343
 20
-1.216054608100996
 30
0.0
 10
47.98919190927273
 20
-2.595624444922936
 30
0.0
 10
49.40595484548251
 20
-3.891846635081817
 30
0.0
 10
50.82046722834725
 20
-5.066106864239206
 30
0.0
 10
52.23454821294789
 20
-6.07911151337465
 30
0.0
 10
53.65029220662446
 20
-6.900499409654113
 30
0.0
 10
55.06674348483948
 20
-7.497550694102348
 30
0.0
 10
56.45864610573639
 20
-7.871604300114194
 30
0.0
 10
57.37896200242859
 20
-7.912082860811966
 30
0.0
 10
57.82796499344536
 20
-7.931831508956234
 30
0.0
  0
SPLINE
  5
DD
330
1F
100
AcDbEntity
  8
0
  6
Continuous
 62
     1
370
    15
100
AcDbSpline
210
0.0
220
0.0
230
1.0
 70
     8
 71
     3
 72
    10
 73
     6
 74
     0
 42
0.000000001
 43
0.00000001
 40
0.0
 40
0.0
 40
0.0
 40
0.0
 40
0.1103878511445383
 40
0.4072005410308741
 40
0.6256012656870604
 40
0.6256012656870604
 40
0.6256012656870604
 40
0.6256012656870604
 10
79.96505538338322
 20
7.422083220645427
 30
0.0
 10
80.13843724995908
 20
7.488996141184178
 30
0.0
 10
80.77801116269154
 20
7.735825635216633
 30
0.0
 10
81.7611988026864
 20
7.896984245040573
 30
0.0
 10
82.56990215148325
 20
7.943482895500643
 30
0.0
 10
82.91270932704106
 20
7.937500000000004
 30
0.0
  0
SPLINE
  5
DF
330
1F
100
AcDbEntity
  8
0
  6
Continuous
 62
     1
370
    15
100
AcDbSpline
210
0.0
220
0.0
230
1.0
 70
     8
 71
     3
 72
    18
 73
    14
 74
     0
 42
0.000000001
 43
0.00000001
 40
0.0772930179358478
 40
0.0772930179358478
 40
0.0772930179358478
 40
0.0772930179358478
 40
0.2499999999999969
 40
0.2499999999999969
 40
0.4999999999999938
 40
0.4999999999999938
 40
0.6249999999999953
 40
0.6249999999999953
 40
0.7499999999999969
 40
0.7499999999999969
 40
0.8749999999999984
 40
0.8749999999999984
 40
1.0
 40
1.0
 40
1.0
 40
1.0
 10
84.75094477026536
 20
7.484433452256734
 30
0.0
 10
84.7268162754775
 20
7.340543342722325
 30
0.0
 10
84.69623922113924
 20
7.199292684016132
 30
0.0
 10
84.60271829145144
 20
6.861223135544501
 30
0.0
 10
84.53084107203996
 20
6.666038629125301
 30
0.0
 10
84.39028294579748
 20
6.393333883760261
 30
0.0
 10
84.33864173259391
 20
6.307137699506549
 30
0.0
 10
84.2244009709752
 20
6.145513478749949
 30
0.0
 10
84.16105057947934
 20
6.06943577089827
 30
0.0
 10
84.02489696942958
 20
5.933857392783473
 30
0.0
 10
83.95260591737602
 20
5.874591668212918
 30
0.0
 10
83.79923164623308
 20
5.773842689578072
 30
0.0
 10
83.71711916861973
 20
5.732022169808578
 30
0.0
 10
83.63293193635123
 20
5.700879523372288
 30
0.0
  0
SPLINE
  5
E0
330
1F
100
AcDbEntity
  8
0
  6
Continuous
 62
     1
370
    15
100
AcDbSpline
210
0.0
220
0.0
230
1.0
 70
     8
 71
     3
 72
     8
 73
     4
 74
     0
 42
0.000000001
 43
0.00000001
 40
0.0
 40
0.0
 40
0.0
 40
0.0
 40
1.0
 40
1.0
 40
1.0
 40
1.0
 10
86.2
 20
4.70250520334066
 30
0.0
 10
85.3447800266477
 20
5.101066738530646
 30
0.0
 10
84.48671974576729
 20
5.435280985634804
 30
0.0
 10
83.63293193635127
 20
5.700879523372295
 30
0.0
  0
LINE
  5
E1
330
1F
100
AcDbEntity
  8
0
  6
Continuous
 62
     1
370
    15
100
AcDbLine
 10
86.2
 20
4.124082064810054
 30
0.0
 11
86.2
 21
4.702505203340677
 31
0.0
  0
SPLINE
  5
E2
330
1F
100
AcDbEntity
  8
0
  6
Continuous
 62
     1
370
    15
100
AcDbSpline
210
0.0
220
0.0
230
1.0
 70
     8
 71
     3
 72
    22
 73
    18
 74
     0
 42
0.000000001
 43
0.00000001
 40
0.0
 40
0.0
 40
0.0
 40
0.0
 40
0.1250000000000042
 40
0.1250000000000042
 40
0.2500000000000083
 40
0.2500000000000083
 40
0.3750000000000125
 40
0.3750000000000125
 40
0.4375000000000145
 40
0.4375000000000145
 40
0.5000000000000167
 40
0.5000000000000167
 40
0.6250000000000124
 40
0.6250000000000124
 40
0.7500000000000083
 40
0.7500000000000083
 40
1.0
 40
1.0
 40
1.0
 40
1.0
 10
86.2
 20
-6.315709687758193
 30
0.0
 10
86.2
 20
-6.369435746320044
 30
0.0
 10
86.19919136918989
 20
-6.429281169462314
 30
0.0
 10
86.19039327505122
 20
-6.563299452900851
 30
0.0
 10
86.18260552933852
 20
-6.637303120324683
 30
0.0
 10
86.14892622269466
 20
-6.806813529653546
 30
0.0
 10
86.12288567055424
 20
-6.903052787674104
 30
0.0
 10
86.05533113578106
 20
-7.063635115150604
 30
0.0
 10
86.02853298675205
 20
-7.118535313655555
 30
0.0
 10
85.96418744957911
 20
-7.230411703566617
 30
0.0
 10
85.92601116449384
 20
-7.287988889041705
 30
0.0
 10
85.80094945025414
 20
-7.450683253755044
 30
0.0
 10
85.6999139857134
 20
-7.549856216972473
 30
0.0
 10
85.49349236323363
 20
-7.705599968528491
 30
0.0
 10
85.3881996271418
 20
-7.764002938301649
 30
0.0
 10
85.0749743961533
 20
-7.892480200836951
 30
0.0
 10
84.87171397415662
 20
-7.916761241800314
 30
0.0
 10
84.676
 20
-7.897018418289832
 30
0.0
  0
SPLINE
  5
E3
330
1F
100
AcDbEntity
  8
0
  6
Continuous
 62
     1
370
    15
100
AcDbSpline
210
0.0
220
0.0
230
1.0
 70
     8
 71
     3
 72
    28
 73
    24
 74
     0
 42
0.000000001
 43
0.00000001
 40
0.0
 40
0.0
 40
0.0
 40
0.0
 40
0.0253358123980289
 40
0.0747871750112141
 40
0.1241710333720332
 40
0.1735814178670941
 40
0.2230659997913115
 40
0.2740718013477809
 40
0.3250534386928012
 40
0.3760839415620124
 40
0.4271552452511816
 40
0.4781510043613742
 40
0.5291362220197855
 40
0.5801838671813101
 40
0.6312415886890415
 40
0.6822298393497703
 40
0.7332211775533126
 40
0.78428593379352
 40
0.8353255015672058
 40
0.8863087822157745
 40
0.9373087775754743
 40
0.9883838930300639
 40
1.0
 40
1.0
 40
1.0
 40
1.0
 10
10.66930943132823
 20
7.90792126059374
 30
0.0
 10
10.90362103383456
 20
7.91334597132212
 30
0.0
 10
11.59527056725005
 20
7.929358830284563
 30
0.0
 10
12.74383398898269
 20
7.699041151673593
 30
0.0
 10
14.11347818443176
 20
7.239809723408833
 30
0.0
 10
15.48391330124738
 20
6.552900487041237
 30
0.0
 10
16.87124275183085
 20
5.665916902633141
 30
0.0
 10
18.27119480696668
 20
4.592082952939768
 30
0.0
 10
19.68522446359615
 20
3.361713792521917
 30
0.0
 10
21.10065396800566
 20
2.024843941768308
 30
0.0
 10
22.51732033576519
 20
0.624759989592273
 30
0.0
 10
23.93173916077208
 20
-0.79651287544131
 30
0.0
 10
25.34586409006929
 20
-2.192377425363004
 30
0.0
 10
26.76181120411281
 20
-3.518085618521906
 30
0.0
 10
28.17806334803009
 20
-4.732100588819452
 30
0.0
 10
29.59227481833822
 20
-5.796929183956968
 30
0.0
 10
31.00657185088383
 20
-6.67774735566793
 30
0.0
 10
32.42303916244683
 20
-7.346615396686952
 30
0.0
 10
33.83873754019822
 20
-7.781549033758832
 30
0.0
 10
35.25282614632121
 20
-7.975043389745004
 30
0.0
 10
36.66729233331297
 20
-7.896082227891842
 30
0.0
 10
37.71959475542084
 20
-7.705694664981266
 30
0.0
 10
38.29918670012168
 20
-7.47161838041516
 30
0.0
 10
38.40657975720656
 20
-7.428246197588154
 30
0.0
  0
SPLINE
  5
E4
330
1F
100
AcDbEntity
  8
0
  6
Continuous
 62
     1
370
    15
100
AcDbSpline
210
0.0
220
0.0
230
1.0
 70
     8
 71
     3
 72
    25
 73
    21
 74
     0
 42
0.000000001
 43
0.00000001
 40
0.0
 40
0.0
 40
0.0
 40
0.0
 40
0.0076322010254603
 40
0.0662300868232467
 40
0.1248414945405349
 40
0.1835398114302805
 40
0.2421886053175467
 40
0.3007826385036376
 40
0.3594058494345747
 40
0.4181108636221049
 40
0.4767431042352336
 40
0.5353362069202335
 40
0.5939741259225366
 40
0.6526776535568611
 40
0.7105533732176069
 40
0.7684071066683167
 40
0.8263320275249093
 40
0.8842750964496712
 40
0.9421337279151467
 40
1.0
 40
1.0
 40
1.0
 40
1.0
 10
60.54355686516749
 20
7.923241153450523
 30
0.0
 10
60.60497075042613
 20
7.927843924092278
 30
0.0
 10
61.13790311675997
 20
7.96778546889883
 30
0.0
 10
62.14148419569057
 20
7.802799713056273
 30
0.0
 10
63.5559952960454
 20
7.415047022851144
 30
0.0
 10
64.97266902018805
 20
6.768071142938716
 30
0.0
 10
66.38806313679524
 20
5.912753522612237
 30
0.0
 10
67.80207862164804
 20
4.868026011209239
 30
0.0
 10
69.21681224690005
 20
3.669204702556747
 30
0.0
 10
70.63368282810943
 20
2.355307905134687
 30
0.0
 10
72.04864478819013
 20
0.965479542986734
 30
0.0
 10
73.46263963476926
 20
-0.4548873824043258
 30
0.0
 10
74.87774306606558
 20
-1.860848358345816
 30
0.0
 10
76.28860886556366
 20
-3.20088896239342
 30
0.0
 10
77.69124292862216
 20
-4.436578449829016
 30
0.0
 10
79.08738347988016
 20
-5.529410081967489
 30
0.0
 10
80.48529669523245
 20
-6.452064370383055
 30
0.0
 10
81.88371774624505
 20
-7.170511540412564
 30
0.0
 10
83.27987448968562
 20
-7.685391020522761
 30
0.0
 10
84.21060434639698
 20
-7.826472847439302
 30
0.0
 10
84.676
 20
-7.897018418289834
 30
0.0
  0
SPLINE
  5
E5
330
1F
100
AcDbEntity
  8
0
  6
Continuous
 62
     1
370
    15
100
AcDbSpline
210
0.0
220
0.0
230
1.0
 70
     8
 71
     3
 72
    28
 73
    24
 74
     0
 42
0.000000001
 43
0.00000001
 40
0.0
 40
0.0
 40
0.0
 40
0.0
 40
0.0232440548478513
 40
0.0726579622253382
 40
0.1221460723221414
 40
0.1731555105117552
 40
0.2241407827670496
 40
0.2751749240305699
 40
0.3262498690230821
 40
0.3772492640504084
 40
0.4282381168743646
 40
0.4792894016524165
 40
0.5303507634951028
 40
0.581342649537625
 40
0.6323376233430974
 40
0.6834060204198252
 40
0.734449227234133
 40
0.7854361429101413
 40
0.8364397744890124
 40
0.887518531518718
 40
0.9385457325084217
 40
0.9895302193770755
 40
0.9999999999999999
 40
0.9999999999999999
 40
0.9999999999999999
 40
0.9999999999999999
 10
13.46893902838253
 20
7.421401240153124
 30
0.0
 10
13.68372965298635
 20
7.501491964025557
 30
0.0
 10
14.35513785568485
 20
7.75184539107665
 30
0.0
 10
15.4838950464197
 20
7.930674394333911
 30
0.0
 10
16.87124781413485
 20
7.957547908424179
 30
0.0
 10
18.2711934339777
 20
7.726450180700737
 30
0.0
 10
19.68522483180537
 20
7.25126370404044
 30
0.0
 10
21.10065386918316
 20
6.545289393175345
 30
0.0
 10
22.51732036231621
 20
5.632719304948678
 30
0.0
 10
23.93173915326864
 20
4.540578033002157
 30
0.0
 10
25.3458640935589
 20
3.304498240857033
 30
0.0
 10
26.76181119765793
 20
1.964258323183355
 30
0.0
 10
28.17806337034718
 20
0.562020721930464
 30
0.0
 10
29.59227473564571
 20
-0.8590226978189555
 30
0.0
 10
31.00657215959247
 20
-2.252842041083598
 30
0.0
 10
32.42303800875683
 20
-3.574128687978066
 30
0.0
 10
33.83874184124311
 20
-4.782596306267179
 30
0.0
 10
35.25281011188152
 20
-5.840184333907478
 30
0.0
 10
36.66735223602397
 20
-6.711040748641497
 30
0.0
 10
38.08411819811536
 20
-7.374246650113855
 30
0.0
 10
39.49940386159072
 20
-7.782498423359467
 30
0.0
 10
40.53859088702539
 20
-7.96076936349561
 30
0.0
 10
41.10669741387102
 20
-7.9233322574482
 30
0.0
 10
41.20348403177904
 20
-7.916954209129145
 30
0.0
  0
SPLINE
  5
E6
330
1F
100
AcDbEntity
  8
0
  6
Continuous
 62
     1
370
    15
100
AcDbSpline
210
0.0
220
0.0
230
1.0
 70
     8
 71
     3
 72
    23
 73
    19
 74
     0
 42
0.000000001
 43
0.00000001
 40
0.0
 40
0.0
 40
0.0
 40
0.0
 40
0.0100985412329428
 40
0.076492856267137
 40
0.1428311552858419
 40
0.2091075138701708
 40
0.2754168757242006
 40
0.3418187661459447
 40
0.4081383415733079
 40
0.4744136476575673
 40
0.5407396459736898
 40
0.6071398549386718
 40
0.6726037211548687
 40
0.7380427185258769
 40
0.8035622367585238
 40
0.8691022824716705
 40
0.9345468200413192
 40
1.0
 40
1.0
 40
1.0
 40
1.0
 10
63.34017883789953
 20
7.433783391160931
 30
0.0
 10
63.41197757099893
 20
7.463396793129449
 30
0.0
 10
63.95582742460141
 20
7.68770777509279
 30
0.0
 10
64.97274331698942
 20
7.879482041864295
 30
0.0
 10
66.38804325720676
 20
7.979516423434376
 30
0.0
 10
67.80208394898534
 20
7.804441619305639
 30
0.0
 10
69.21681081686478
 20
7.387645386848935
 30
0.0
 10
70.63368321099081
 20
6.735723444835183
 30
0.0
 10
72.04864468573003
 20
5.870042922558643
 30
0.0
 10
73.46263966223889
 20
4.818114066401282
 30
0.0
 10
74.87774305869009
 20
3.613375883022345
 30
0.0
 10
76.28860886750991
 20
2.300862257771071
 30
0.0
 10
77.69124292810407
 20
0.9207724952769258
 30
0.0
 10
79.08738348001908
 20
-0.4816649040627511
 30
0.0
 10
80.48529669519517
 20
-1.869391775520451
 30
0.0
 10
81.88371774625494
 20
-3.195713738608381
 30
0.0
 10
83.27987448968318
 20
-4.436624705679481
 30
0.0
 10
84.21060434639615
 20
-5.141482140057934
 30
0.0
 10
84.67600000000003
 20
-5.49393412599575
 30
0.0
  0
SPLINE
  5
E7
330
1F
100
AcDbEntity
  8
0
  6
Continuous
 62
     1
370
    15
100
AcDbSpline
210
0.0
220
0.0
230
1.0
 70
     8
 71
     3
 72
     8
 73
     4
 74
     0
 42
0.000000001
 43
0.00000001
 40
0.0
 40
0.0
 40
0.0
 40
0.0
 40
1.0
 40
1.0
 40
1.0
 40
1.0
 10
84.67600000000002
 20
-5.493934125995741
 30
0.0
 10
84.71095114307083
 20
-5.519162593127143
 30
0.0
 10
84.74545935163951
 20
-5.543492670437199
 30
0.0
 10
84.77957148333479
 20
-5.566952247763297
 30
0.0
  0
SPLINE
  5
E8
330
1F
100
AcDbEntity
  8
0
  6
Continuous
 62
     1
370
    15
100
AcDbSpline
210
0.0
220
0.0
230
1.0
 70
     8
 71
     3
 72
    10
 73
     6
 74
     0
 42
0.000000001
 43
0.00000001
 40
0.0
 40
0.0
 40
0.0
 40
0.0
 40
0.2063724999660299
 40
0.904352791422353
 40
1.0
 40
1.0
 40
1.0
 40
1.0
 10
84.2408020300474
 20
-5.154816842944729
 30
0.0
 10
84.21006073540181
 20
-5.148398028692483
 30
0.0
 10
84.07534813740901
 20
-5.120269898308855
 30
0.0
 10
83.84208948520241
 20
-5.187773313088834
 30
0.0
 10
83.65542817458544
 20
-5.263948324921071
 30
0.0
 10
83.63293193635124
 20
-5.273128862698314
 30
0.0
  0
SPLINE
  5
E9
330
1F
100
AcDbEntity
  8
0
  6
Continuous
 62
     1
370
    15
100
AcDbSpline
210
0.0
220
0.0
230
1.0
 70
     8
 71
     3
 72
     8
 73
     4
 74
     0
 42
0.000000001
 43
0.00000001
 40
0.0
 40
0.0
 40
0.0
 40
0.0
 40
1.0
 40
1.0
 40
1.0
 40
1.0
 10
86.2
 20
-6.068865479789234
 30
0.0
 10
85.3447800266477
 20
-5.87673528170806
 30
0.0
 10
84.48671974576726
 20
-5.611308796185192
 30
0.0
 10
83.63293193635124
 20
-5.273128862698314
 30
0.0
  0
LINE
  5
EA
330
1F
100
AcDbEntity
  8
0
  6
Continuous
 62
     1
370
    15
100
AcDbLine
 10
86.2
 20
-6.315709687758194
 30
0.0
 11
86.2
 21
-6.068865479789236
 31
0.0
  0
SPLINE
  5
EB
330
1F
100
AcDbEntity
  8
0
  6
Continuous
 62
     1
370
    15
100
AcDbSpline
210
0.0
220
0.0
230
1.0
 70
     8
 71
     3
 72
    10
 73
     6
 74
     0
 42
0.000000001
 43
0.00000001
 40
0.0
 40
0.0
 40
0.0
 40
0.0
 40
0.3955089633359546
 40
0.790955305414828
 40
0.9999999999999999
 40
0.9999999999999999
 40
0.9999999999999999
 40
0.9999999999999999
 10
10.00000000000001
 20
-7.909334097421381
 30
0.0
 10
10.45740136438824
 20
-7.922949989283996
 30
0.0
 10
11.37213167243322
 20
-7.95017961719395
 30
0.0
 10
12.52889264054439
 20
-7.763417989536078
 30
0.0
 10
13.22738638048616
 20
-7.509285255779557
 30
0.0
 10
13.46893902838247
 20
-7.421401240153119
 30
0.0
  0
SPLINE
  5
EC
330
1F
100
AcDbEntity
  8
0
  6
Continuous
 62
     1
370
    15
100
AcDbSpline
210
0.0
220
0.0
230
1.0
 70
     8
 71
     3
 72
    27
 73
    23
 74
     0
 42
0.000000001
 43
0.00000001
 40
0.0
 40
0.0
 40
0.0
 40
0.0
 40
0.038285997341731
 40
0.0893647846372924
 40
0.1403920158623033
 40
0.1913765329409548
 40
0.2423913841943081
 40
0.293473412446336
 40
0.344487155593982
 40
0.3954717868619887
 40
0.4465003526325259
 40
0.4975785004737882
 40
0.5485812812625122
 40
0.5995685696504364
 40
0.6506133669075741
 40
0.7016805158019316
 40
0.7526748664270763
 40
0.8036673532928955
 40
0.8547302557495939
 40
0.9057799288279352
 40
0.9567683864693338
 40
1.0
 40
1.0
 40
1.0
 40
1.0
 10
35.60532941201618
 20
7.913923859035378
 30
0.0
 10
35.95913942171602
 20
7.909629111925102
 30
0.0
 10
36.78498065649251
 20
7.899604581359636
 30
0.0
 10
38.08414595461863
 20
7.589045257717181
 30
0.0
 10
39.49935170832988
 20
7.040697904758548
 30
0.0
 10
40.91335674762109
 20
6.260673578415593
 30
0.0
 10
42.32821522366783
 20
5.284197966917388
 30
0.0
 10
43.74509699005175
 20
4.14076600574321
 30
0.0
 10
45.15992442669604
 20
2.86502911984297
 30
0.0
 10
46.57392772595851
 20
1.498501585060605
 30
0.0
 10
47.98919193406007
 20
0.0845413513443498
 30
0.0
 10
49.40595474786795
 20
-1.330962181186624
 30
0.0
 10
50.820467593345
 20
-2.70572420572937
 30
0.0
 10
52.23454685014273
 20
-3.994477778124327
 30
0.0
 10
53.650297300178
 20
-5.156163013000704
 30
0.0
 10
55.06672447830117
 20
-6.154038311375006
 30
0.0
 10
56.48100322438458
 20
-6.957709760312006
 30
0.0
 10
57.89523285011715
 20
-7.540134514435966
 30
0.0
 10
59.31152256984709
 20
-7.884929386175155
 30
0.0
 10
60.72745095586799
 20
-7.973491039299853
 30
0.0
 10
62.06967057587821
 20
-7.840417149419507
 30
0.0
 10
62.94057571706462
 20
-7.56167875689308
 30
0.0
 10
63.34017883789949
 20
-7.433783391160917
 30
0.0
  0
SPLINE
  5
ED
330
1F
100
AcDbEntity
  8
0
  6
Continuous
 62
     1
370
    15
100
AcDbSpline
210
0.0
220
0.0
230
1.0
 70
    24
 71
     3
 72
    15
 73
    11
 74
     0
 42
0.000000001
 43
0.00000001
 40
0.0
 40
0.0
 40
0.0
 40
0.0
 40
0.0762280878099135
 40
0.2142775465515687
 40
0.3563304489488655
 40
0.4943799076905198
 40
0.6364328100878163
 40
0.7744822688294709
 40
0.9165351712267686
 40
1.0
 40
1.0
 40
1.0
 40
1.0
 10
10.0
 20
-5.395151791938235
 30
0.0
 10
10.0
 20
-5.392164577545102
 30
0.0
 10
10.0
 20
-5.383767502535421
 30
0.0
 10
10.0
 20
-5.494045310687855
 30
0.0
 10
10.0
 20
-5.711808053652764
 30
0.0
 10
10.0
 20
-6.040970693436781
 30
0.0
 10
10.0
 20
-6.459031045389369
 30
0.0
 10
10.0
 20
-6.964252862764232
 30
0.0
 10
10.00000000000001
 20
-7.456351181201814
 30
0.0
 10
10.0
 20
-7.786970746084204
 30
0.0
 10
10.0
 20
-7.909334097421411
 30
0.0
  0
SPLINE
  5
EE
330
1F
100
AcDbEntity
  8
0
  6
Continuous
 62
     1
370
    15
100
AcDbSpline
210
0.0
220
0.0
230
1.0
 70
     8
 71
     3
 72
    12
 73
     8
 74
     0
 42
0.000000001
 43
0.00000001
 40
0.0
 40
0.0
 40
0.0
 40
0.0
 40
0.218864989283045
 40
0.437695325493643
 40
0.6562269443896861
 40
0.8748759457514027
 40
1.0
 40
1.0
 40
1.0
 40
1.0
 10
10.00000000000001
 20
-5.589232792066826
 30
0.0
 10
10.45740629260626
 20
-5.897559669438299
 30
0.0
 10
11.372146456307
 20
-6.514164606535016
 30
0.0
 10
12.74383126938547
 20
-7.202883756966001
 30
0.0
 10
14.11347554566558
 20
-7.678888722596759
 30
0.0
 10
15.28790469336738
 20
-7.922870687494193
 30
0.0
 10
16.00665109323966
 20
-7.912329813495173
 30
0.0
 10
16.26825525930482
 20
-7.908493221683933
 30
0.0
  0
SPLINE
  5
EF
330
1F
100
AcDbEntity
  8
0
  6
Continuous
 62
     1
370
    15
100
AcDbSpline
210
0.0
220
0.0
230
1.0
 70
     8
 71
     3
 72
    27
 73
    23
 74
     0
 42
0.000000001
 43
0.00000001
 40
0.0
 40
0.0
 40
0.0
 40
0.0
 40
0.0394100547412155
 40
0.0903942685536748
 40
0.1414088163604019
 40
0.1924905407662212
 40
0.2435039804738325
 40
0.2944883084749679
 40
0.3455165707173019
 40
0.3965944147354372
 40
0.4475968921493333
 40
0.4985838772545804
 40
0.5496283708869671
 40
0.6006952160236219
 40
0.6516892633240822
 40
0.7026814468763031
 40
0.7537440456005569
 40
0.8047934150251452
 40
0.8557815693769122
 40
0.9067814896432563
 40
0.9578570327454677
 40
1.0
 40
1.0
 40
1.0
 40
1.0
 10
38.4065797572065
 20
7.428246197588162
 30
0.0
 10
38.77097268861611
 20
7.548853318562337
 30
0.0
 10
39.60677544801834
 20
7.825488115301745
 30
0.0
 10
40.91333295843837
 20
7.969627134029142
 30
0.0
 10
42.32822160920256
 20
7.900879953875807
 30
0.0
 10
43.74509528061668
 20
7.574446782286937
 30
0.0
 10
45.15992488418594
 20
7.009551829804148
 30
0.0
 10
46.573927603245
 20
6.221826860214936
 30
0.0
 10
47.98919196715846
 20
5.236969156544204
 30
0.0
 10
49.40595473838201
 20
4.086996578388703
 30
0.0
 10
50.82046759822376
 20
2.806254302127145
 30
0.0
 10
52.23454684010122
 20
1.436634651605154
 30
0.0
 10
53.65029733551346
 20
0.0219387029244697
 30
0.0
 10
55.06672434703518
 20
-1.392915628484457
 30
0.0
 10
56.48100371332559
 20
-2.764774539889742
 30
0.0
 10
57.8952310243313
 20
-4.048845437699614
 30
0.0
 10
59.31152939352081
 20
-5.203814073837481
 30
0.0
 10
60.72742551098298
 20
-6.193630848279449
 30
0.0
 10
62.14154348372126
 20
-6.989389783979902
 30
0.0
 10
63.55596500566561
 20
-7.556281390962128
 30
0.0
 10
64.89047308259683
 20
-7.889505585074966
 30
0.0
 10
65.75221981432753
 20
-7.910076804317393
 30
0.0
 10
66.14180514623261
 20
-7.919376805096226
 30
0.0
  0
LINE
  5
F2
330
1F
100
AcDbEntity
  8
0
  6
Continuous
 62
     1
370
    15
100
AcDbLine
 10
86.2
 20
-0.8660254037844348
 30
0.0
 11
86.2
 21
2.301504479657855
 31
0.0
  0
LINE
  5
F3
330
1F
100
AcDbEntity
  8
0
  6
Continuous
 62
     1
370
    15
100
AcDbLine
 10
83.63293193635124
 20
0.427750660673976
 30
0.0
 11
86.2
 21
-0.8660254037844348
 31
0.0
  0
SPLINE
  5
F4
330
1F
100
AcDbEntity
  8
0
  6
Continuous
 62
     1
370
    15
100
AcDbSpline
210
0.0
220
0.0
230
1.0
 70
     8
 71
     3
 72
    16
 73
    12
 74
     0
 42
0.000000001
 43
0.00000001
 40
0.0
 40
0.0
 40
0.0
 40
0.0
 40
0.2500000000000105
 40
0.2500000000000105
 40
0.3750000000000125
 40
0.3750000000000125
 40
0.5000000000000144
 40
0.5000000000000144
 40
0.7500000000000072
 40
0.7500000000000072
 40
1.0
 40
1.0
 40
1.0
 40
1.0
 10
86.2
 20
2.301504479657855
 30
0.0
 10
86.20000000000002
 20
2.403986197921068
 30
0.0
 10
86.15766148609055
 20
2.481388414192416
 30
0.0
 10
86.03781797076607
 20
2.544311604323537
 30
0.0
 10
85.98801320139081
 20
2.556937566388608
 30
0.0
 10
85.87534501604452
 20
2.565110802708578
 30
0.0
 10
85.81170797014894
 20
2.560924315125341
 30
0.0
 10
85.60448194037825
 20
2.525432191372698
 30
0.0
 10
85.44675405091172
 20
2.471590892628427
 30
0.0
 10
85.11939704419346
 20
2.321147702915708
 30
0.0
 10
84.94803584896084
 20
2.223760598222415
 30
0.0
 10
84.77957148333428
 20
2.112212791839501
 30
0.0
  0
LINE
  5
F5
330
1F
100
AcDbEntity
  8
0
  6
Continuous
 62
     1
370
    15
100
AcDbLine
 10
86.2
 20
2.301504479657855
 30
0.0
 11
86.2
 21
4.124082064810054
 31
0.0
  0
LINE
  5
F6
330
1F
100
AcDbEntity
  8
0
  6
Continuous
 62
     1
370
    15
100
AcDbLine
 10
86.2
 20
-4.033555287226754
 30
0.0
 11
86.2
 21
-2.191627622948155
 31
0.0
  0
SPLINE
  5
F7
330
1F
100
AcDbEntity
  8
0
  6
Continuous
 62
     1
370
    15
100
AcDbSpline
210
0.0
220
0.0
230
1.0
 70
     8
 71
     3
 72
    16
 73
    12
 74
     0
 42
0.000000001
 43
0.00000001
 40
0.0
 40
0.0
 40
0.0
 40
0.0
 40
0.2500000000000017
 40
0.2500000000000017
 40
0.3750000000000052
 40
0.3750000000000052
 40
0.5000000000000085
 40
0.5000000000000085
 40
0.7500000000000042
 40
0.7500000000000042
 40
1.0
 40
1.0
 40
1.0
 40
1.0
 10
86.2
 20
-4.033555287226754
 30
0.0
 10
86.20000000000002
 20
-4.136037005489969
 30
0.0
 10
86.15766148609055
 20
-4.264787161093919
 30
0.0
 10
86.03781797076604
 20
-4.473055971230584
 30
0.0
 10
85.98801320139083
 20
-4.546084910164971
 30
0.0
 10
85.87534501604455
 20
-4.690901561939874
 30
0.0
 10
85.81170797014893
 20
-4.763893767471348
 30
0.0
 10
85.60448194037821
 20
-4.979724343130245
 30
0.0
 10
85.44675405091171
 20
-5.117174645142274
 30
0.0
 10
85.11939704419346
 20
-5.363748406875049
 30
0.0
 10
84.94803584896087
 20
-5.474187308441192
 30
0.0
 10
84.77957148333427
 20
-5.566952247762905
 30
0.0
  0
LINE
  5
F8
330
1F
100
AcDbEntity
  8
0
  6
Continuous
 62
     1
370
    15
100
AcDbLine
 10
86.2
 20
-0.8660254037844348
 30
0.0
 11
86.2
 21
-1.366360276448573
 31
0.0
  0
LINE
  5
F9
330
1F
100
AcDbEntity
  8
0
  6
Continuous
 62
     1
370
    15
100
AcDbLine
 10
86.2
 20
-4.033555287226755
 30
0.0
 11
86.2
 21
-6.06886547978924
 31
0.0
  0
LINE
  5
FB
330
1F
100
AcDbEntity
  8
0
  6
Continuous
 62
     1
370
    15
100
AcDbLine
 10
86.2
 20
4.702505203340677
 30
0.0
 11
86.2
 21
4.889500000000004
 31
0.0
  0
LINE
  5
FD
330
1F
100
AcDbEntity
  8
0
  6
Continuous
 62
     1
370
    15
100
AcDbLine
 10
86.2
 20
-6.413499999999998
 30
0.0
 11
86.2
 21
-6.315709687758194
 31
0.0
  0
LINE
  5
100
330
1F
100
AcDbEntity
  8
0
  6
Continuous
 62
     8
370
    15
100
AcDbLine
 10
84.67600000000002
 20
-7.937499999999996
 30
0.0
 11
84.67600000000002
 21
-7.897018418289838
 31
0.0
  0
LINE
  5
102
330
1F
100
AcDbEntity
  8
중심선
100
AcDbLine
 10
-43.8
 20
-0.0000000000000008
 30
0.0
 11
89.20000000000002
 21
-0.0000000000000008
 31
0.0
  0
CIRCLE
  5
103
330
1F
100
AcDbEntity
  8
외형선
100
AcDbCircle
 10
0.0
 20
0.0
 30
0.0
 40
3.000000000000001
  0
INSERT
  5
104
330
1F
100
AcDbEntity
  8
0
  6
Continuous
 62
     7
100
AcDbBlockReference
 66
     1
  2
블럭10
 10
-16.62936049909348
 20
-51.78679627639981
 30
0.0
  0
ATTRIB
  5
105
330
104
100
AcDbEntity
  8
FORMAT
 62
     2
100
AcDbText
 10
-27.68038085127795
 20
-49.71142936356762
 30
0.0
 40
4.233333333333333
  1
GMG23941[ 6 FLUTE ]
 41
0.75
  7
SLDTEXTSTYLE0
 11
-27.68038085127795
 21
-51.82809603023429
 31
0.0
100
AcDbAttribute
  2
AUTOATTR0
 70
     0
 74
     1
  0
SEQEND
  5
106
330
104
100
AcDbEntity
  8
0
  6
Continuous
 62
     7
  0
HATCH
  5
107
330
1F
100
AcDbEntity
  8
중심선
100
AcDbHatch
 10
0.0
 20
0.0
 30
0.0
210
0.0
220
0.0
230
1.0
  2
SOLID
 70
     1
 71
     0
 91
        1
 92
        0
 93
        4
 72
     1
 10
-10.91445119471263
 20
-35.53962197475587
 11
-14.36072643854992
 21
-35.53962197475587
 72
     1
 10
-14.36072643854992
 20
-35.53962197475587
 11
-16.48895629775394
 21
-38.07594755532847
 72
     1
 10
-16.48895629775394
 20
-38.07594755532847
 11
-13.04264796880351
 21
-38.07590812602598
 72
     1
 10
-13.04264796880351
 20
-38.07590812602598
 11
-10.91445119471263
 21
-35.53962197475587
 97
        0
 75
     0
 76
     1
 98
        1
 10
-2.688574199412049
 20
0.260378025244119
  0
HATCH
  5
108
330
1F
100
AcDbEntity
  8
중심선
100
AcDbHatch
 10
0.0
 20
0.0
 30
0.0
210
0.0
220
0.0
230
1.0
  2
SOLID
 70
     1
 71
     0
 91
        1
 92
        0
 93
        4
 72
     1
 10
-5.901687203676683
 20
-35.53962197475587
 11
-9.347962447513964
 21
-35.53962197475587
 72
     1
 10
-9.347962447513964
 20
-35.53962197475587
 11
-13.87910045587135
 21
-40.93962197475589
 72
     1
 10
-13.87910045587135
 20
-40.93962197475589
 11
-10.43282521203407
 21
-40.93962197475589
 72
     1
 10
-10.43282521203407
 20
-40.93962197475589
 11
-5.901687203676683
 21
-35.53962197475587
 97
        0
 75
     0
 76
     1
 98
        1
 10
-2.688574199412049
 20
0.260378025244119
  0
HATCH
  5
109
330
1F
100
AcDbEntity
  8
중심선
100
AcDbHatch
 10
0.0
 20
0.0
 30
0.0
210
0.0
220
0.0
230
1.0
  2
SOLID
 70
     1
 71
     0
 91
        1
 92
        0
 93
        4
 72
     1
 10
-0.8889232126407869
 20
-35.5396219747559
 11
-4.335198456477903
 21
-35.53962197475587
 72
     1
 10
-4.335198456477903
 20
-35.53962197475587
 11
-11.38363535836715
 21
-43.93962197475589
 72
     1
 10
-11.38363535836715
 20
-43.93962197475589
 11
-7.937360114529869
 21
-43.93962197475589
 72
     1
 10
-7.937360114529869
 20
-43.93962197475589
 11
-0.8889232126407869
 21
-35.5396219747559
 97
        0
 75
     0
 76
     1
 98
        1
 10
-2.688574199412049
 20
0.260378025244119
  0
HATCH
  5
10A
330
1F
100
AcDbEntity
  8
중심선
100
AcDbHatch
 10
0.0
 20
0.0
 30
0.0
210
0.0
220
0.0
230
1.0
  2
SOLID
 70
     1
 71
     0
 91
        1
 92
        0
 93
        6
 72
     3
 10
3.910967218371413
 20
-39.73962197480715
 11
3.960054785062283
 21
1.540882976769353E-10
 40
0.3939339440162628
 50
17.09539180608436
 51
320.0019657685082
 73
     0
 72
     1
 10
5.593966874072008
 20
-38.32751597939418
 11
7.899268747773046
 21
-36.39318926934626
 72
     3
 10
3.910967218318566
 20
-39.73962197475603
 11
6.600054785286829
 21
-1.278976924368180E-13
 40
0.636358354079598
 50
39.99873849337417
 51
368.4976242363724
 73
     1
 72
     1
 10
10.33629971021917
 20
-38.7796219746859
 11
2.591034525154488
 21
-38.77962197468587
 72
     1
 10
2.591034525154488
 20
-38.77962197468587
 11
2.591009480708554
 21
-40.69962197468579
 72
     1
 10
2.591009480708554
 20
-40.6996219746858
 11
7.032389250180591
 21
-40.69962197468577
 97
        0
 75
     0
 76
     1
 98
        1
 10
-2.688574199412049
 20
0.260378025244119
  0
POINT
  5
10B
330
1F
100
AcDbEntity
  8
치수문자_일반주서
100
AcDbPoint
 10
0.0
 20
0.0
 30
0.0
  0
DIMENSION
  5
10C
330
1F
100
AcDbEntity
  8
치수문자_일반주서
100
AcDbDimension
  2
_D
 10
86.2
 20
40.59305141807179
 30
0.0
 11
22.70000000000001
 21
40.59305141807179
 31
0.0
 70
   160
  1
<>
 71
     2
 42
127.0
  3
SLDDIMSTYLE0
100
AcDbAlignedDimension
 13
-40.8
 23
7.437499999999999
 33
0.0
 14
86.2
 24
6.413500000000004
 34
0.0
 50
-0.0000000000000064
100
AcDbRotatedDimension
1001
ACAD
1000
DSTYLE
1002
{
1070
   273
1070
     7
1002
}
  0
DIMENSION
  5
120
330
1F
100
AcDbEntity
  8
치수문자_일반주서
100
AcDbDimension
  2
_D_1
 10
10.0
 20
24.04049453033793
 30
0.0
 11
47.26180339570445
 21
24.04049453033793
 31
0.0
 70
   160
  1
<>
 71
     2
 42
76.2
  3
SLDDIMSTYLE1
100
AcDbAlignedDimension
 13
86.2
 23
4.889500000000004
 33
0.0
 14
9.999999999999998
 24
-7.937499999999997
 34
0.0
 50
0.000000000000016
100
AcDbRotatedDimension
1001
ACAD
1000
DSTYLE
1002
{
1070
   273
1070
     7
1002
}
  0
DIMENSION
  5
134
330
1F
100
AcDbEntity
  8
치수문자_일반주서
100
AcDbDimension
  2
_D_2
 10
-53.8
 20
-7.93750000000005
 30
0.0
 11
-53.80000000000003
 21
-0.0000000000000023
 31
0.0
 70
   160
  1
%%c<>
 71
     2
 42
15.875
 52
-270.0
  3
SLDDIMSTYLE2
100
AcDbAlignedDimension
 13
-40.3
 23
7.937499999999999
 33
0.0
 14
-40.3
 24
-7.9375
 34
0.0
 50
90.0000000000002
100
AcDbRotatedDimension
1001
ACAD
1000
DSTYLE
1002
{
1070
   171
1070
     3
1070
   273
1070
     7
1002
}
  0
INSERT
  5
14F
330
1F
100
AcDbEntity
  8
외형선
100
AcDbBlockReference
  2
SW_DOWELSYMBOL_0
 10
0.0
 20
0.0
 30
0.0
  0
ARC
  5
176
330
1F
100
AcDbEntity
  8
0
  6
Continuous
 62
     1
370
    15
100
AcDbCircle
 10
83.152
 20
4.889500000000004
 30
0.0
 40
3.047999999999999
100
AcDbArc
 50
356.5316757392881
 51
90.0
  0
DIMENSION
  5
177
330
1F
100
AcDbEntity
  8
치수문자_일반주서
100
AcDbDimension
  2
*D6
 10
102.919109225848
 20
-7.937499999999998
 30
0.0
 11
102.919109225848
 21
0.0000000000000036
 31
0.0
 70
   160
  1
{%%c<>}
 71
     5
 42
15.875
  3
SLDDIMSTYLE2
100
AcDbAlignedDimension
 13
83.152
 23
7.937500000000003
 33
0.0
 14
84.67600000000002
 24
-7.937499999999996
 34
0.0
 50
90.0
100
AcDbRotatedDimension
1001
ACAD
1000
DSTYLE
1002
{
1070
   171
1070
     3
1070
   273
1070
     7
1002
}
  0
DIMENSION
  5
18A
330
1F
100
AcDbEntity
  8
치수문자_일반주서
100
AcDbDimension
  2
*D7
 10
83.152
 20
4.889500000000004
 30
0.0
 11
100.7202680889572
 21
24.02099344628024
 31
0.0
 70
   164
  1
<>
 71
     5
 42
3.047999999999998
  3
SLDDIMSTYLE2
100
AcDbRadialDimension
 15
85.21358880916395
 25
7.134529082646808
 35
0.0
 40
0.0
1001
ACAD
1000
DSTYLE
1002
{
1070
   171
1070
     3
1070
   273
1070
     2
1002
}
1001
ACAD_DSTYLE_DIMRADIAL_EXTENSION
1070
   387
1070
     1
1070
   388
1040
6.222651629303366
1070
   390
1040
1.570796326794897
  0
LINE
  5
1F3
330
1F
100
AcDbEntity
  8
0
  6
Continuous
 62
     4
370
    15
100
AcDbLine
 10
-21.68332500000001
 20
6.286499999999961
 30
0.0
 11
-11.497925
 21
6.286499999999961
 31
0.0
  0
LINE
  5
1F4
330
1F
100
AcDbEntity
  8
0
  6
Continuous
 62
     4
370
    15
100
AcDbLine
 10
-21.68332500000001
 20
6.286500000000061
 30
0.0
 11
-23.33432499999996
 21
7.937499999999972
 31
0.0
  0
LINE
  5
1F5
330
1F
100
AcDbEntity
  8
0
  6
Continuous
 62
     4
370
    15
100
AcDbLine
 10
-11.49792500000011
 20
6.286500000000061
 30
0.0
 11
-9.846925000000098
 21
7.937499999999972
 31
0.0
  0
LINE
  5
1F6
330
1F
100
AcDbEntity
  8
0
  6
Continuous
 62
     4
370
    15
100
AcDbLine
 10
-23.334325
 20
7.9375
 30
0.0
 11
-40.3
 21
7.937499999999999
 31
0.0
  0
ENDSEC
  0
SECTION
  2
OBJECTS
  0
DICTIONARY
  5
C
330
0
100
AcDbDictionary
281
     1
  3
ACAD_GROUP
350
D
  3
ACAD_IMAGE_VARS
350
173
  3
ACAD_LAYOUT
350
1A
  3
ACAD_MLINESTYLE
350
17
  3
ACAD_PLOTSETTINGS
350
19
  3
ACAD_PLOTSTYLENAME
350
E
  3
ACAD_SCALELIST
350
47
  3
APPDATA
350
171
  3
DWGPROPS
350
21B
  0
DICTIONARY
  5
1E5
330
2
100
AcDbDictionary
280
     1
281
     1
  3
ACAD_LAYERSTATES
360
1E6
  0
DICTIONARY
  5
219
330
1F
100
AcDbDictionary
280
     1
281
     1
  3
DIM_BOUNDING_BOXES_V1
360
21A
  0
DICTIONARY
  5
D
102
{ACAD_REACTORS
330
C
102
}
330
C
100
AcDbDictionary
281
     1
  0
RASTERVARIABLES
  5
173
102
{ACAD_REACTORS
330
C
102
}
330
C
100
AcDbRasterVariables
 90
        0
 70
     1
 71
     1
 72
     1
  0
DICTIONARY
  5
1A
102
{ACAD_REACTORS
330
C
102
}
330
C
100
AcDbDictionary
281
     1
  3
Layout1
350
1E
  3
Layout2
350
26
  3
Model
350
22
  0
DICTIONARY
  5
17
102
{ACAD_REACTORS
330
C
102
}
330
C
100
AcDbDictionary
281
     1
  3
Standard
350
18
  0
DICTIONARY
  5
19
102
{ACAD_REACTORS
330
C
102
}
330
C
100
AcDbDictionary
281
     1
  0
ACDBDICTIONARYWDFLT
  5
E
102
{ACAD_REACTORS
330
C
102
}
330
C
100
AcDbDictionary
281
     1
  3
Normal
350
F
100
AcDbDictionaryWithDefault
340
F
  0
DICTIONARY
  5
47
102
{ACAD_REACTORS
330
C
102
}
330
C
100
AcDbDictionary
281
     1
  3
A0
350
48
  3
A1
350
49
  3
A2
350
4A
  3
A3
350
4B
  3
A4
350
4C
  3
A5
350
4D
  3
A6
350
4E
  3
A7
350
4F
  3
A8
350
50
  3
A9
350
51
  3
B0
350
52
  3
B1
350
53
  3
B2
350
54
  3
B3
350
55
  3
B4
350
56
  3
B5
350
57
  3
B6
350
58
  3
B7
350
59
  3
B8
350
5A
  3
B9
350
5B
  3
C0
350
5C
  3
C1
350
5D
  3
C2
350
5E
  3
C3
350
5F
  3
C4
350
60
  3
C5
350
61
  3
C6
350
62
  3
C7
350
63
  3
C8
350
64
  3
C9
350
65
  3
D0
350
66
  3
D1
350
67
  3
D2
350
68
  0
DICTIONARY
  5
171
102
{ACAD_REACTORS
330
C
102
}
330
C
100
AcDbDictionary
281
     1
  0
XRECORD
  5
21B
102
{ACAD_REACTORS
330
C
102
}
330
C
100
AcDbXrecord
280
     1
  1
DWGPROPS COOKIE
  2

  3

  4

  6

  7

  8
12015018
  9

300
=
301
=
302
=
303
=
304
=
305
=
306
=
307
=
308
=
309
=
 40
0.0
 41
2458236.374306667
 42
2459697.068130891
  1

 90
        0
  0
DICTIONARY
  5
1E6
102
{ACAD_REACTORS
330
1E5
102
}
330
1E5
100
AcDbDictionary
281
     1
  0
DICTIONARY
  5
21A
102
{ACAD_REACTORS
330
219
102
}
330
219
100
AcDbDictionary
281
     1
  0
LAYOUT
  5
1E
102
{ACAD_REACTORS
330
1A
102
}
330
1A
100
AcDbPlotSettings
  1

  2
none_device
  4

  6

 40
0.0
 41
0.0
 42
0.0
 43
0.0
 44
0.0
 45
0.0
 46
0.0
 47
0.0
 48
0.0
 49
0.0
140
0.0
141
0.0
142
1.0
143
1.0
 70
   688
 72
     1
 73
     0
 74
     5
  7

 75
    16
147
1.0
148
0.0
149
0.0
100
AcDbLayout
  1
Layout1
 70
     1
 71
     1
 10
0.0
 20
0.0
 11
420.0
 21
297.0
 12
0.0
 22
0.0
 32
0.0
 14
1.000000000000000E+20
 24
1.000000000000000E+20
 34
1.000000000000000E+20
 15
-1.000000000000000E+20
 25
-1.000000000000000E+20
 35
-1.000000000000000E+20
146
0.0
 13
0.0
 23
0.0
 33
0.0
 16
1.0
 26
0.0
 36
0.0
 17
0.0
 27
1.0
 37
0.0
 76
     0
330
1B
  0
LAYOUT
  5
26
102
{ACAD_REACTORS
330
1A
102
}
330
1A
100
AcDbPlotSettings
  1

  2
none_device
  4

  6

 40
0.0
 41
0.0
 42
0.0
 43
0.0
 44
0.0
 45
0.0
 46
0.0
 47
0.0
 48
0.0
 49
0.0
140
0.0
141
0.0
142
1.0
143
1.0
 70
   688
 72
     1
 73
     0
 74
     5
  7

 75
    16
147
1.0
148
0.0
149
0.0
100
AcDbLayout
  1
Layout2
 70
     1
 71
     2
 10
0.0
 20
0.0
 11
0.0
 21
0.0
 12
0.0
 22
0.0
 32
0.0
 14
0.0
 24
0.0
 34
0.0
 15
0.0
 25
0.0
 35
0.0
146
0.0
 13
0.0
 23
0.0
 33
0.0
 16
1.0
 26
0.0
 36
0.0
 17
0.0
 27
1.0
 37
0.0
 76
     0
330
23
  0
LAYOUT
  5
22
102
{ACAD_REACTORS
330
1A
102
}
330
1A
100
AcDbPlotSettings
  1

  2
none_device
  4
ANSI_A_(11.00_x_8.50_Inches)
  6

 40
6.35
 41
19.05
 42
6.35000508
 43
19.05000254
 44
279.4
 45
215.9
 46
106.3857193428541
 47
88.53148962314341
 48
0.0
 49
0.0
140
0.0
141
0.0
142
0.0708095191304554
143
1.0
 70
  1696
 72
     0
 73
     0
 74
     0
  7

 75
     0
147
0.0235690232323232
148
0.0
149
0.0
100
AcDbLayout
  1
Model
 70
     1
 71
     0
 10
0.0
 20
0.0
 11
420.0
 21
297.0
 12
0.0
 22
0.0
 32
0.0
 14
-58.17500000000008
 24
-49.71142936356762
 34
0.0
 15
110.9292923961483
 25
44.96805141807179
 35
0.0
146
0.0
 13
0.0
 23
0.0
 33
0.0
 16
1.0
 26
0.0
 36
0.0
 17
0.0
 27
1.0
 37
0.0
 76
     0
330
1F
331
29
  0
MLINESTYLE
  5
18
102
{ACAD_REACTORS
330
17
102
}
330
17
100
AcDbMlineStyle
  2
Standard
 70
     0
  3

 62
   256
 51
90.0
 52
90.0
 71
     2
 49
0.5
 62
   256
  6
BYLAYER
 49
-0.5
 62
   256
  6
BYLAYER
  0
ACDBPLACEHOLDER
  5
F
102
{ACAD_REACTORS
330
E
102
}
330
E
  0
SCALE
  5
48
102
{ACAD_REACTORS
330
47
102
}
330
47
100
AcDbScale
 70
     0
300
1:1
140
1.0
141
1.0
290
     1
  0
SCALE
  5
49
102
{ACAD_REACTORS
330
47
102
}
330
47
100
AcDbScale
 70
     0
300
1:2
140
1.0
141
2.0
290
     0
  0
SCALE
  5
4A
102
{ACAD_REACTORS
330
47
102
}
330
47
100
AcDbScale
 70
     0
300
1:4
140
1.0
141
4.0
290
     0
  0
SCALE
  5
4B
102
{ACAD_REACTORS
330
47
102
}
330
47
100
AcDbScale
 70
     0
300
1:5
140
1.0
141
5.0
290
     0
  0
SCALE
  5
4C
102
{ACAD_REACTORS
330
47
102
}
330
47
100
AcDbScale
 70
     0
300
1:8
140
1.0
141
8.0
290
     0
  0
SCALE
  5
4D
102
{ACAD_REACTORS
330
47
102
}
330
47
100
AcDbScale
 70
     0
300
1:10
140
1.0
141
10.0
290
     0
  0
SCALE
  5
4E
102
{ACAD_REACTORS
330
47
102
}
330
47
100
AcDbScale
 70
     0
300
1:16
140
1.0
141
16.0
290
     0
  0
SCALE
  5
4F
102
{ACAD_REACTORS
330
47
102
}
330
47
100
AcDbScale
 70
     0
300
1:20
140
1.0
141
20.0
290
     0
  0
SCALE
  5
50
102
{ACAD_REACTORS
330
47
102
}
330
47
100
AcDbScale
 70
     0
300
1:30
140
1.0
141
30.0
290
     0
  0
SCALE
  5
51
102
{ACAD_REACTORS
330
47
102
}
330
47
100
AcDbScale
 70
     0
300
1:40
140
1.0
141
40.0
290
     0
  0
SCALE
  5
52
102
{ACAD_REACTORS
330
47
102
}
330
47
100
AcDbScale
 70
     0
300
1:50
140
1.0
141
50.0
290
     0
  0
SCALE
  5
53
102
{ACAD_REACTORS
330
47
102
}
330
47
100
AcDbScale
 70
     0
300
1:100
140
1.0
141
100.0
290
     0
  0
SCALE
  5
54
102
{ACAD_REACTORS
330
47
102
}
330
47
100
AcDbScale
 70
     0
300
2:1
140
2.0
141
1.0
290
     0
  0
SCALE
  5
55
102
{ACAD_REACTORS
330
47
102
}
330
47
100
AcDbScale
 70
     0
300
4:1
140
4.0
141
1.0
290
     0
  0
SCALE
  5
56
102
{ACAD_REACTORS
330
47
102
}
330
47
100
AcDbScale
 70
     0
300
8:1
140
8.0
141
1.0
290
     0
  0
SCALE
  5
57
102
{ACAD_REACTORS
330
47
102
}
330
47
100
AcDbScale
 70
     0
300
10:1
140
10.0
141
1.0
290
     0
  0
SCALE
  5
58
102
{ACAD_REACTORS
330
47
102
}
330
47
100
AcDbScale
 70
     0
300
100:1
140
100.0
141
1.0
290
     0
  0
SCALE
  5
59
102
{ACAD_REACTORS
330
47
102
}
330
47
100
AcDbScale
 70
     0
300
1/128" = 1'-0"
140
0.0078125
141
12.0
290
     0
  0
SCALE
  5
5A
102
{ACAD_REACTORS
330
47
102
}
330
47
100
AcDbScale
 70
     0
300
1/64" = 1'-0"
140
0.015625
141
12.0
290
     0
  0
SCALE
  5
5B
102
{ACAD_REACTORS
330
47
102
}
330
47
100
AcDbScale
 70
     0
300
1/32" = 1'-0"
140
0.03125
141
12.0
290
     0
  0
SCALE
  5
5C
102
{ACAD_REACTORS
330
47
102
}
330
47
100
AcDbScale
 70
     0
300
1/16" = 1'-0"
140
0.0625
141
12.0
290
     0
  0
SCALE
  5
5D
102
{ACAD_REACTORS
330
47
102
}
330
47
100
AcDbScale
 70
     0
300
3/32" = 1'-0"
140
0.09375
141
12.0
290
     0
  0
SCALE
  5
5E
102
{ACAD_REACTORS
330
47
102
}
330
47
100
AcDbScale
 70
     0
300
1/8" = 1'-0"
140
0.125
141
12.0
290
     0
  0
SCALE
  5
5F
102
{ACAD_REACTORS
330
47
102
}
330
47
100
AcDbScale
 70
     0
300
3/16" = 1'-0"
140
0.1875
141
12.0
290
     0
  0
SCALE
  5
60
102
{ACAD_REACTORS
330
47
102
}
330
47
100
AcDbScale
 70
     0
300
1/4" = 1'-0"
140
0.25
141
12.0
290
     0
  0
SCALE
  5
61
102
{ACAD_REACTORS
330
47
102
}
330
47
100
AcDbScale
 70
     0
300
3/8" = 1'-0"
140
0.375
141
12.0
290
     0
  0
SCALE
  5
62
102
{ACAD_REACTORS
330
47
102
}
330
47
100
AcDbScale
 70
     0
300
1/2" = 1'-0"
140
0.5
141
12.0
290
     0
  0
SCALE
  5
63
102
{ACAD_REACTORS
330
47
102
}
330
47
100
AcDbScale
 70
     0
300
3/4" = 1'-0"
140
0.75
141
12.0
290
     0
  0
SCALE
  5
64
102
{ACAD_REACTORS
330
47
102
}
330
47
100
AcDbScale
 70
     0
300
1" = 1'-0"
140
1.0
141
12.0
290
     0
  0
SCALE
  5
65
102
{ACAD_REACTORS
330
47
102
}
330
47
100
AcDbScale
 70
     0
300
1-1/2" = 1'-0"
140
1.5
141
12.0
290
     0
  0
SCALE
  5
66
102
{ACAD_REACTORS
330
47
102
}
330
47
100
AcDbScale
 70
     0
300
3" = 1'-0"
140
3.0
141
12.0
290
     0
  0
SCALE
  5
67
102
{ACAD_REACTORS
330
47
102
}
330
47
100
AcDbScale
 70
     0
300
6" = 1'-0"
140
6.0
141
12.0
290
     0
  0
SCALE
  5
68
102
{ACAD_REACTORS
330
47
102
}
330
47
100
AcDbScale
 70
     0
300
1'-0" = 1'-0"
140
12.0
141
12.0
290
     0
  0
ENDSEC
  0
EOF
