  0
SECTION
  2
HEADER
  9
$ACADVER
  1
AC1015
  9
$ACADMAINTVER
 70
     6
  9
$DWGCODEPAGE
  3
ANSI_949
  9
$INSBASE
 10
0.0
 20
0.0
 30
0.0
  9
$EXTMIN
 10
-53.2663050602423
 20
-49.97370379473831
 30
-0.0000000000000001
  9
$EXTMAX
 10
106.075576366446
 20
44.70577698690109
 30
0.0000000000000001
  9
$LIMMIN
 10
0.0
 20
0.0
  9
$LIMMAX
 10
420.0
 20
297.0
  9
$ORTHOMODE
 70
     1
  9
$REGENMODE
 70
     1
  9
$FILLMODE
 70
     1
  9
$QTEXTMODE
 70
     0
  9
$MIRRTEXT
 70
     1
  9
$LTSCALE
 40
1.0
  9
$ATTMODE
 70
     1
  9
$TEXTSIZE
 40
3.5
  9
$TRACEWID
 40
1.0
  9
$TEXTSTYLE
  7
Standard
  9
$CLAYER
  8
0
  9
$CELTYPE
  6
ByLayer
  9
$CECOLOR
 62
   256
  9
$CELTSCALE
 40
1.0
  9
$DISPSILH
 70
     0
  9
$DIMSCALE
 40
1.0
  9
$DIMASZ
 40
3.302
  9
$DIMEXO
 40
1.0
  9
$DIMDLI
 40
3.75
  9
$DIMRND
 40
0.0
  9
$DIMDLE
 40
0.0
  9
$DIMEXE
 40
1.0
  9
$DIMTP
 40
0.0
  9
$DIMTM
 40
0.0
  9
$DIMTXT
 40
3.5
  9
$DIMCEN
 40
2.5
  9
$DIMTSZ
 40
0.0
  9
$DIMTOL
 70
     0
  9
$DIMLIM
 70
     0
  9
$DIMTIH
 70
     1
  9
$DIMTOH
 70
     1
  9
$DIMSE1
 70
     0
  9
$DIMSE2
 70
     0
  9
$DIMTAD
 70
     1
  9
$DIMZIN
 70
     0
  9
$DIMBLK
  1

  9
$DIMASO
 70
     1
  9
$DIMSHO
 70
     1
  9
$DIMPOST
  1

  9
$DIMAPOST
  1

  9
$DIMALT
 70
     0
  9
$DIMALTD
 70
     3
  9
$DIMALTF
 40
0.0393700787401575
  9
$DIMLFAC
 40
1.0
  9
$DIMTOFL
 70
     1
  9
$DIMTVP
 40
0.0
  9
$DIMTIX
 70
     0
  9
$DIMSOXD
 70
     0
  9
$DIMSAH
 70
     0
  9
$DIMBLK1
  1

  9
$DIMBLK2
  1

  9
$DIMSTYLE
  2
ISO-25
  9
$DIMCLRD
 70
     0
  9
$DIMCLRE
 70
     0
  9
$DIMCLRT
 70
     0
  9
$DIMTFAC
 40
1.0
  9
$DIMGAP
 40
1.524
  9
$DIMJUST
 70
     0
  9
$DIMSD1
 70
     0
  9
$DIMSD2
 70
     0
  9
$DIMTOLJ
 70
     0
  9
$DIMTZIN
 70
     0
  9
$DIMALTZ
 70
     0
  9
$DIMALTTZ
 70
     0
  9
$DIMUPT
 70
     0
  9
$DIMDEC
 70
     2
  9
$DIMTDEC
 70
     2
  9
$DIMALTU
 70
     2
  9
$DIMALTTD
 70
     3
  9
$DIMTXSTY
  7
Standard
  9
$DIMAUNIT
 70
     0
  9
$DIMADEC
 70
     2
  9
$DIMALTRND
 40
0.0
  9
$DIMAZIN
 70
     0
  9
$DIMDSEP
 70
    44
  9
$DIMATFIT
 70
     3
  9
$DIMFRAC
 70
     0
  9
$DIMLDRBLK
  1

  9
$DIMLUNIT
 70
     2
  9
$DIMLWD
 70
    -2
  9
$DIMLWE
 70
    -2
  9
$DIMTMOVE
 70
     0
  9
$LUNITS
 70
     2
  9
$LUPREC
 70
     2
  9
$SKETCHINC
 40
1.0
  9
$FILLETRAD
 40
10.0
  9
$AUNITS
 70
     0
  9
$AUPREC
 70
     2
  9
$MENU
  1
.
  9
$ELEVATION
 40
0.0
  9
$PELEVATION
 40
0.0
  9
$THICKNESS
 40
0.0
  9
$LIMCHECK
 70
     0
  9
$CHAMFERA
 40
0.0
  9
$CHAMFERB
 40
0.0
  9
$CHAMFERC
 40
0.0
  9
$CHAMFERD
 40
0.0
  9
$SKPOLY
 70
     0
  9
$TDCREATE
 40
2458236.74796875
  9
$TDUCREATE
 40
2458236.37296875
  9
$TDUPDATE
 40
2459697.442902755
  9
$TDUUPDATE
 40
2459697.067902755
  9
$TDINDWG
 40
0.0041175694
  9
$TDUSRTIMER
 40
0.0000638542
  9
$USRTIMER
 70
     1
  9
$ANGBASE
 50
0.0
  9
$ANGDIR
 70
     0
  9
$PDMODE
 70
     0
  9
$PDSIZE
 40
-1.0
  9
$PLINEWID
 40
0.0
  9
$SPLFRAME
 70
     0
  9
$SPLINETYPE
 70
     6
  9
$SPLINESEGS
 70
     8
  9
$HANDSEED
  5
218
  9
$SURFTAB1
 70
     6
  9
$SURFTAB2
 70
     6
  9
$SURFTYPE
 70
     6
  9
$SURFU
 70
     6
  9
$SURFV
 70
     6
  9
$UCSBASE
  2

  9
$UCSNAME
  2

  9
$UCSORG
 10
0.0
 20
0.0
 30
0.0
  9
$UCSXDIR
 10
1.0
 20
0.0
 30
0.0
  9
$UCSYDIR
 10
0.0
 20
1.0
 30
0.0
  9
$UCSORTHOREF
  2

  9
$UCSORTHOVIEW
 70
     1
  9
$UCSORGTOP
 10
0.0
 20
0.0
 30
0.0
  9
$UCSORGBOTTOM
 10
0.0
 20
0.0
 30
0.0
  9
$UCSORGLEFT
 10
0.0
 20
0.0
 30
0.0
  9
$UCSORGRIGHT
 10
0.0
 20
0.0
 30
0.0
  9
$UCSORGFRONT
 10
0.0
 20
0.0
 30
0.0
  9
$UCSORGBACK
 10
0.0
 20
0.0
 30
0.0
  9
$PUCSBASE
  2

  9
$PUCSNAME
  2

  9
$PUCSORG
 10
0.0
 20
0.0
 30
0.0
  9
$PUCSXDIR
 10
1.0
 20
0.0
 30
0.0
  9
$PUCSYDIR
 10
0.0
 20
1.0
 30
0.0
  9
$PUCSORTHOREF
  2

  9
$PUCSORTHOVIEW
 70
     0
  9
$PUCSORGTOP
 10
0.0
 20
0.0
 30
0.0
  9
$PUCSORGBOTTOM
 10
0.0
 20
0.0
 30
0.0
  9
$PUCSORGLEFT
 10
0.0
 20
0.0
 30
0.0
  9
$PUCSORGRIGHT
 10
0.0
 20
0.0
 30
0.0
  9
$PUCSORGFRONT
 10
0.0
 20
0.0
 30
0.0
  9
$PUCSORGBACK
 10
0.0
 20
0.0
 30
0.0
  9
$USERI1
 70
     0
  9
$USERI2
 70
     0
  9
$USERI3
 70
     0
  9
$USERI4
 70
     0
  9
$USERI5
 70
     0
  9
$USERR1
 40
0.0
  9
$USERR2
 40
0.0
  9
$USERR3
 40
0.0
  9
$USERR4
 40
0.0
  9
$USERR5
 40
0.0
  9
$WORLDVIEW
 70
     1
  9
$SHADEDGE
 70
     3
  9
$SHADEDIF
 70
    70
  9
$TILEMODE
 70
     1
  9
$MAXACTVP
 70
    64
  9
$PINSBASE
 10
0.0
 20
0.0
 30
0.0
  9
$PLIMCHECK
 70
     0
  9
$PEXTMIN
 10
1.000000000000000E+20
 20
1.000000000000000E+20
 30
1.000000000000000E+20
  9
$PEXTMAX
 10
-1.000000000000000E+20
 20
-1.000000000000000E+20
 30
-1.000000000000000E+20
  9
$PLIMMIN
 10
0.0
 20
0.0
  9
$PLIMMAX
 10
0.0
 20
0.0
  9
$UNITMODE
 70
     0
  9
$VISRETAIN
 70
     1
  9
$PLINEGEN
 70
     0
  9
$PSLTSCALE
 70
     1
  9
$TREEDEPTH
 70
  3020
  9
$CMLSTYLE
  2
Standard
  9
$CMLJUST
 70
     0
  9
$CMLSCALE
 40
20.0
  9
$PROXYGRAPHICS
 70
     1
  9
$MEASUREMENT
 70
     1
  9
$CELWEIGHT
370
    -1
  9
$ENDCAPS
280
     0
  9
$JOINSTYLE
280
     0
  9
$LWDISPLAY
290
     1
  9
$INSUNITS
 70
     4
  9
$HYPERLINKBASE
  1

  9
$STYLESHEET
  1

  9
$XEDIT
290
     1
  9
$CEPSNTYPE
380
     0
  9
$PSTYLEMODE
290
     1
  9
$FINGERPRINTGUID
  2
{9E4A8900-7AA8-445F-8AF0-E4520D96BA40}
  9
$VERSIONGUID
  2
{FAEB1C32-E019-11D5-929B-00C0DF256EC4}
  9
$EXTNAMES
290
     1
  9
$PSVPSCALE
 40
0.0
  9
$OLESTARTUP
290
     0
  0
ENDSEC
  0
SECTION
  2
CLASSES
  0
CLASS
  1
ACDBDICTIONARYWDFLT
  2
AcDbDictionaryWithDefault
  3
ObjectDBX Classes
 90
        0
280
     0
281
     0
  0
CLASS
  1
VISUALSTYLE
  2
AcDbVisualStyle
  3
ObjectDBX Classes
 90
     4095
280
     0
281
     0
  0
CLASS
  1
MATERIAL
  2
AcDbMaterial
  3
ObjectDBX Classes
 90
     1153
280
     0
281
     0
  0
CLASS
  1
SCALE
  2
AcDbScale
  3
ObjectDBX Classes
 90
     1153
280
     0
281
     0
  0
CLASS
  1
SUN
  2
AcDbSun
  3
SCENEOE
 90
     1153
280
     0
281
     0
  0
CLASS
  1
ACDBPLACEHOLDER
  2
AcDbPlaceHolder
  3
ObjectDBX Classes
 90
        0
280
     0
281
     0
  0
CLASS
  1
LAYOUT
  2
AcDbLayout
  3
ObjectDBX Classes
 90
        0
280
     0
281
     0
  0
CLASS
  1
TABLESTYLE
  2
AcDbTableStyle
  3
ObjectDBX Classes
 90
     4095
280
     0
281
     0
  0
CLASS
  1
MLEADERSTYLE
  2
AcDbMLeaderStyle
  3
ACDB_MLEADERSTYLE_CLASS
 90
     4095
280
     0
281
     0
  0
CLASS
  1
RASTERVARIABLES
  2
AcDbRasterVariables
  3
ISM
 90
        0
280
     0
281
     0
  0
CLASS
  1
DIMASSOC
  2
AcDbDimAssoc
  3
"AcDbDimAssoc|Product Desc:     AcDim ARX App For Dimension|Company:          Autodesk, Inc.|WEB Address:      www.autodesk.com"
 90
        0
280
     0
281
     0
  0
ENDSEC
  0
SECTION
  2
TABLES
  0
TABLE
  2
VPORT
  5
8
330
0
100
AcDbSymbolTable
 70
     1
  0
VPORT
  5
29
330
8
100
AcDbSymbolTableRecord
100
AcDbViewportTableRecord
  2
*Active
 70
     0
 10
0.0
 20
0.0
 11
1.0
 21
1.0
 12
26.38493098697273
 22
-2.855879443589451
 13
0.0
 23
0.0
 14
10.0
 24
10.0
 15
10.0
 25
10.0
 16
0.0
 26
0.0
 36
1.0
 17
0.0197046661291154
 27
0.2219160396708375
 37
0.2639208145930523
 40
96.57307039727219
 41
1.89119170984456
 42
50.0
 43
0.0
 44
0.0
 50
0.0
 51
0.0
 71
    16
 72
  2000
 73
     1
 74
     3
 75
     0
 76
     0
 77
     0
 78
     0
281
     0
 65
     1
110
0.0
120
0.0
130
0.0
111
1.0
121
0.0
131
0.0
112
0.0
122
1.0
132
0.0
 79
     1
146
0.0
  0
ENDTAB
  0
TABLE
  2
LTYPE
  5
5
330
0
100
AcDbSymbolTable
 70
     6
  0
LTYPE
  5
14
330
5
100
AcDbSymbolTableRecord
100
AcDbLinetypeTableRecord
  2
ByBlock
 70
     0
  3

 72
    65
 73
     0
 40
0.0
  0
LTYPE
  5
15
330
5
100
AcDbSymbolTableRecord
100
AcDbLinetypeTableRecord
  2
ByLayer
 70
     0
  3

 72
    65
 73
     0
 40
0.0
  0
LTYPE
  5
16
330
5
100
AcDbSymbolTableRecord
100
AcDbLinetypeTableRecord
  2
Continuous
 70
     0
  3
Solid line
 72
    65
 73
     0
 40
0.0
  0
LTYPE
  5
6A
330
5
100
AcDbSymbolTableRecord
100
AcDbLinetypeTableRecord
  2
HIDDEN
 70
     0
  3
Hidden __ __ __ __ __ __ __ __ __ __ __ __ __ __
 72
    65
 73
     2
 40
1.905
 49
1.27
 74
     0
 49
-0.635
 74
     0
  0
LTYPE
  5
6B
330
5
100
AcDbSymbolTableRecord
100
AcDbLinetypeTableRecord
  2
PHANTOM
 70
     0
  3
Phantom ______  __  __  ______  __  __  ______
 72
    65
 73
     6
 40
12.7
 49
6.35
 74
     0
 49
-1.27
 74
     0
 49
1.27
 74
     0
 49
-1.27
 74
     0
 49
1.27
 74
     0
 49
-1.27
 74
     0
  0
LTYPE
  5
6C
330
5
100
AcDbSymbolTableRecord
100
AcDbLinetypeTableRecord
  2
CENTER
 70
     0
  3
Center ____ _ ____ _ ____ _ ____ _ ____ _ ____
 72
    65
 73
     4
 40
10.16
 49
6.35
 74
     0
 49
-1.27
 74
     0
 49
1.27
 74
     0
 49
-1.27
 74
     0
  0
LTYPE
  5
6D
330
5
100
AcDbSymbolTableRecord
100
AcDbLinetypeTableRecord
  2
CENTERX2
 70
     0
  3
Center (2x) ________  __  ________  __  _____
 72
    65
 73
     4
 40
20.32
 49
12.7
 74
     0
 49
-2.54
 74
     0
 49
2.54
 74
     0
 49
-2.54
 74
     0
  0
LTYPE
  5
6E
330
5
100
AcDbSymbolTableRecord
100
AcDbLinetypeTableRecord
  2
DOT2
 70
     0
  3
Dot (.5x) ........................................
 72
    65
 73
     2
 40
0.635
 49
0.0
 74
     0
 49
-0.635
 74
     0
  0
ENDTAB
  0
TABLE
  2
LAYER
  5
2
102
{ACAD_XDICTIONARY
360
1E1
102
}
330
0
100
AcDbSymbolTable
 70
    17
  0
LAYER
  5
10
330
2
100
AcDbSymbolTableRecord
100
AcDbLayerTableRecord
  2
0
 70
     0
 62
     7
  6
Continuous
370
    -3
390
F
  0
LAYER
  5
6F
330
2
100
AcDbSymbolTableRecord
100
AcDbLayerTableRecord
  2
FORMAT
 70
     0
 62
     2
  6
Continuous
370
    -3
390
F
  0
LAYER
  5
70
330
2
100
AcDbSymbolTableRecord
100
AcDbLayerTableRecord
  2
외형선
 70
     0
 62
   100
  6
Continuous
370
    30
390
F
  0
LAYER
  5
71
330
2
100
AcDbSymbolTableRecord
100
AcDbLayerTableRecord
  2
숨은선
 70
     0
 62
     2
  6
HIDDEN
370
    15
390
F
  0
LAYER
  5
72
330
2
100
AcDbSymbolTableRecord
100
AcDbLayerTableRecord
  2
중심선
 70
     0
 62
     1
  6
CENTERX2
370
    -3
390
F
  0
LAYER
  5
73
330
2
100
AcDbSymbolTableRecord
100
AcDbLayerTableRecord
  2
파단선
 70
     0
 62
     4
  6
Continuous
370
    -3
390
F
  0
LAYER
  5
74
330
2
100
AcDbSymbolTableRecord
100
AcDbLayerTableRecord
  2
해칭선
 70
     0
 62
     4
  6
Continuous
370
    -3
390
F
  0
LAYER
  5
75
330
2
100
AcDbSymbolTableRecord
100
AcDbLayerTableRecord
  2
가는실선
 70
     0
 62
     4
  6
Continuous
370
    -3
390
F
  0
LAYER
  5
76
330
2
100
AcDbSymbolTableRecord
100
AcDbLayerTableRecord
  2
치수_보조선
 70
     0
 62
     4
  6
Continuous
370
    -3
390
F
  0
LAYER
  5
77
330
2
100
AcDbSymbolTableRecord
100
AcDbLayerTableRecord
  2
치수문자_일반주서
 70
     0
 62
     7
  6
Continuous
370
    15
390
F
  0
LAYER
  5
78
330
2
100
AcDbSymbolTableRecord
100
AcDbLayerTableRecord
  2
개별주서
 70
     0
 62
   100
  6
Continuous
370
    30
390
F
  0
LAYER
  5
79
330
2
100
AcDbSymbolTableRecord
100
AcDbLayerTableRecord
  2
중간선
 70
     0
 62
     2
  6
Continuous
370
    15
390
F
  0
LAYER
  5
7A
330
2
100
AcDbSymbolTableRecord
100
AcDbLayerTableRecord
  2
윤곽선
 70
     0
 62
     3
  6
Continuous
370
    40
390
F
  0
LAYER
  5
7B
330
2
100
AcDbSymbolTableRecord
100
AcDbLayerTableRecord
  2
중심마크
 70
     0
 62
   100
  6
Continuous
370
    30
390
F
  0
LAYER
  5
7C
330
2
100
AcDbSymbolTableRecord
100
AcDbLayerTableRecord
  2
가상선
 70
     0
 62
     4
  6
PHANTOM
370
    -3
390
F
  0
LAYER
  5
7D
330
2
100
AcDbSymbolTableRecord
100
AcDbLayerTableRecord
  2
특수지정선
 70
     0
 62
     5
  6
CENTERX2
370
    60
390
F
  0
LAYER
  5
16D
330
2
100
AcDbSymbolTableRecord
100
AcDbLayerTableRecord
  2
Defpoints
 70
     0
 62
     7
  6
Continuous
290
     0
370
    -3
390
F
  0
ENDTAB
  0
TABLE
  2
STYLE
  5
3
330
0
100
AcDbSymbolTable
 70
     2
  0
STYLE
  5
11
330
3
100
AcDbSymbolTableRecord
100
AcDbTextStyleTableRecord
  2
Standard
 70
     0
 40
0.0
 41
1.0
 50
0.0
 71
     0
 42
3.5
  3
txt
  4

  0
STYLE
  5
93
330
3
100
AcDbSymbolTableRecord
100
AcDbTextStyleTableRecord
  2
SLDTEXTSTYLE0
 70
     0
 40
0.0
 41
0.75
 50
0.0
 71
     0
 42
3.5
  3
TXT
  4

  0
ENDTAB
  0
TABLE
  2
VIEW
  5
6
330
0
100
AcDbSymbolTable
 70
     0
  0
ENDTAB
  0
TABLE
  2
UCS
  5
7
330
0
100
AcDbSymbolTable
 70
     0
  0
ENDTAB
  0
TABLE
  2
APPID
  5
9
330
0
100
AcDbSymbolTable
 70
     3
  0
APPID
  5
12
330
9
100
AcDbSymbolTableRecord
100
AcDbRegAppTableRecord
  2
ACAD
 70
     0
  0
APPID
  5
17F
330
9
100
AcDbSymbolTableRecord
100
AcDbRegAppTableRecord
  2
ACAD_DSTYLE_DIMRADIAL_EXTENSION
 70
     0
  0
APPID
  5
182
330
9
100
AcDbSymbolTableRecord
100
AcDbRegAppTableRecord
  2
PE_DIMMEASUREMENT
 70
     0
  0
ENDTAB
  0
TABLE
  2
DIMSTYLE
  5
A
330
0
100
AcDbSymbolTable
 70
     5
100
AcDbDimStyleTable
  0
DIMSTYLE
105
27
330
A
100
AcDbSymbolTableRecord
100
AcDbDimStyleTableRecord
  2
ISO-25
 70
     0
 41
2.5
 42
0.625
 43
3.75
 44
1.25
 73
     0
 74
     0
 77
     1
 78
     8
140
2.5
141
2.5
143
0.03937007874016
147
0.625
171
     3
172
     1
178
     0
271
     2
272
     2
274
     3
278
    44
283
     0
284
     8
340
11
  0
DIMSTYLE
105
F5
102
{ACAD_REACTORS
330
F4
330
16E
330
109
330
11D
330
185
102
}
330
A
100
AcDbSymbolTableRecord
100
AcDbDimStyleTableRecord
  2
SLDDIMSTYLE0
 70
     0
 41
3.302
 44
0.0
 45
0.000000001
 73
     0
 74
     0
 77
     1
 78
    12
 79
     3
140
3.5
143
0.0393700787401575
147
0.875
148
0.000000001
170
     1
172
     1
173
     1
178
     0
271
     2
272
     2
276
     2
284
    12
289
     0
340
93
  0
DIMSTYLE
105
10A
330
A
100
AcDbSymbolTableRecord
100
AcDbDimStyleTableRecord
  2
SLDDIMSTYLE1
 70
     0
 41
3.302
 44
0.0
 45
0.000000001
 73
     0
 74
     0
 77
     1
 78
    12
 79
     3
140
3.5
143
0.0393700787401575
147
0.875
148
0.000000001
170
     1
173
     1
178
     0
271
     2
272
     2
276
     2
284
    12
340
93
  0
DIMSTYLE
105
11E
330
A
100
AcDbSymbolTableRecord
100
AcDbDimStyleTableRecord
  2
SLDDIMSTYLE2
 70
     0
 41
3.302
 44
0.0
 45
0.000000001
 73
     0
 74
     0
 77
     1
 78
     4
 79
     1
140
3.5
143
0.0393700787401575
147
0.875
148
0.000000001
170
     1
173
     1
178
     0
271
     2
272
     2
276
     2
284
    12
340
93
  0
DIMSTYLE
105
132
330
A
100
AcDbSymbolTableRecord
100
AcDbDimStyleTableRecord
  2
SLDDIMSTYLE3
 70
     0
 41
3.302
 44
0.0
 45
0.000000001
 73
     0
 74
     0
 77
     1
 78
     8
 79
     2
140
3.5
143
0.0393700787401575
147
0.875
148
0.000000001
170
     1
172
     1
173
     1
178
     0
271
     2
272
     2
276
     2
284
    12
289
     0
340
93
341
133
343
133
344
133
  0
ENDTAB
  0
TABLE
  2
BLOCK_RECORD
  5
1
330
0
100
AcDbSymbolTable
 70
    10
  0
BLOCK_RECORD
  5
1F
102
{ACAD_XDICTIONARY
360
215
102
}
330
1
100
AcDbSymbolTableRecord
100
AcDbBlockTableRecord
  2
*Model_Space
340
22
  0
BLOCK_RECORD
  5
1B
330
1
100
AcDbSymbolTableRecord
100
AcDbBlockTableRecord
  2
*Paper_Space
340
1E
  0
BLOCK_RECORD
  5
23
330
1
100
AcDbSymbolTableRecord
100
AcDbBlockTableRecord
  2
*Paper_Space0
340
26
  0
BLOCK_RECORD
  5
7E
330
1
100
AcDbSymbolTableRecord
100
AcDbBlockTableRecord
  2
블럭10
340
0
102
{BLKREFS
331
EC
102
}
  0
BLOCK_RECORD
  5
F6
330
1
100
AcDbSymbolTableRecord
100
AcDbBlockTableRecord
  2
_D
340
0
  0
BLOCK_RECORD
  5
10B
330
1
100
AcDbSymbolTableRecord
100
AcDbBlockTableRecord
  2
_D_1
340
0
  0
BLOCK_RECORD
  5
11F
330
1
100
AcDbSymbolTableRecord
100
AcDbBlockTableRecord
  2
_D_2
340
0
  0
BLOCK_RECORD
  5
133
330
1
100
AcDbSymbolTableRecord
100
AcDbBlockTableRecord
  2
_NONE
340
0
  0
BLOCK_RECORD
  5
136
330
1
100
AcDbSymbolTableRecord
100
AcDbBlockTableRecord
  2
_D_3
340
0
  0
BLOCK_RECORD
  5
142
330
1
100
AcDbSymbolTableRecord
100
AcDbBlockTableRecord
  2
SW_DOWELSYMBOL_0
340
0
102
{BLKREFS
331
148
102
}
  0
BLOCK_RECORD
  5
171
330
1
100
AcDbSymbolTableRecord
100
AcDbBlockTableRecord
  2
*D8
340
0
  0
BLOCK_RECORD
  5
188
330
1
100
AcDbSymbolTableRecord
100
AcDbBlockTableRecord
  2
*D9
340
0
  0
ENDTAB
  0
ENDSEC
  0
SECTION
  2
BLOCKS
  0
BLOCK
  5
20
330
1F
100
AcDbEntity
  8
0
100
AcDbBlockBegin
  2
*Model_Space
 70
     0
 10
0.0
 20
0.0
 30
0.0
  3
*Model_Space
  1
*Model_Space
  0
ENDBLK
  5
21
330
1F
100
AcDbEntity
  8
0
100
AcDbBlockEnd
  0
BLOCK
  5
1C
330
1B
100
AcDbEntity
 67
     1
  8
0
100
AcDbBlockBegin
  2
*Paper_Space
 70
     0
 10
0.0
 20
0.0
 30
0.0
  3
*Paper_Space
  1
*Paper_Space
  0
ENDBLK
  5
1D
330
1B
100
AcDbEntity
 67
     1
  8
0
100
AcDbBlockEnd
  0
BLOCK
  5
24
330
23
100
AcDbEntity
  8
0
100
AcDbBlockBegin
  2
*Paper_Space0
 70
     0
 10
0.0
 20
0.0
 30
0.0
  3
*Paper_Space0
  1
*Paper_Space0
  0
ENDBLK
  5
25
330
23
100
AcDbEntity
  8
0
100
AcDbBlockEnd
  0
BLOCK
  5
7F
330
7E
100
AcDbEntity
  8
0
100
AcDbBlockBegin
  2
블럭10
 70
     2
 10
0.0
 20
0.0
 30
0.0
  3
블럭10
  1
블럭10
  0
ELLIPSE
  5
81
330
7E
100
AcDbEntity
  8
중심선
100
AcDbEllipse
 10
20.54032771741204
 20
12.0471743016438
 30
0.0
 11
6.600054785286829
 21
-1.261213355974178E-13
 31
0.0
210
0.0
220
0.0
230
1.0
 40
0.636358354079598
 41
0.9219305317359503
 42
6.513795318482858
  0
ELLIPSE
  5
82
330
7E
100
AcDbEntity
  8
중심선
100
AcDbEllipse
 10
20.54032771746488
 20
12.04717430159265
 30
0.0
 11
3.960054785062283
 21
1.540847449632565E-10
 31
0.0
210
0.0
220
0.0
230
1.0
 40
0.3939339440162632
 41
1.131841032648279
 42
5.62031148352944
  0
LINE
  5
83
330
7E
100
AcDbEntity
  8
중심선
100
AcDbLine
 10
2.268634060543552
 20
16.24717430164393
 30
0.0
 11
5.714909304380834
 21
16.24717430164393
 31
0.0
  0
LINE
  5
84
330
7E
100
AcDbEntity
  8
중심선
100
AcDbLine
 10
5.245725140726316
 20
7.84717430164391
 30
0.0
 11
8.692000384563599
 21
7.84717430164391
 31
0.0
  0
LINE
  5
85
330
7E
100
AcDbEntity
  8
중심선
100
AcDbLine
 10
15.74043728645272
 20
16.24717430164393
 30
0.0
 11
8.692000384563599
 21
7.84717430164391
 31
0.0
  0
LINE
  5
86
330
7E
100
AcDbEntity
  8
중심선
100
AcDbLine
 10
0.1404042013395286
 20
13.71084872107135
 30
0.0
 11
3.58671253028996
 21
13.71088815037384
 31
0.0
  0
LINE
  5
87
330
7E
100
AcDbEntity
  8
중심선
100
AcDbLine
 10
2.750260043222114
 20
10.84717430164391
 30
0.0
 11
6.196535287059397
 21
10.84717430164391
 31
0.0
  0
LINE
  5
88
330
7E
100
AcDbEntity
  8
중심선
100
AcDbLine
 10
12.29416204261559
 20
16.24717430164393
 30
0.0
 11
5.245725140726316
 21
7.84717430164391
 31
0.0
  0
LINE
  5
89
330
7E
100
AcDbEntity
  8
중심선
100
AcDbLine
 10
10.72767329541681
 20
16.24717430164393
 30
0.0
 11
6.196535287059397
 21
10.84717430164391
 31
0.0
  0
LINE
  5
8A
330
7E
100
AcDbEntity
  8
중심선
100
AcDbLine
 10
7.28139805157953
 20
16.24717430164393
 30
0.0
 11
2.750260043222114
 21
10.84717430164391
 31
0.0
  0
LINE
  5
8B
330
7E
100
AcDbEntity
  8
중심선
100
AcDbLine
 10
5.714909304380834
 20
16.24717430164393
 30
0.0
 11
3.58671253028996
 21
13.71088815037384
 31
0.0
  0
LINE
  5
8C
330
7E
100
AcDbEntity
  8
중심선
100
AcDbLine
 10
2.268634060543552
 20
16.24717430164393
 30
0.0
 11
0.1404042013395286
 21
13.71084872107135
 31
0.0
  0
LINE
  5
8D
330
7E
100
AcDbEntity
  8
중심선
100
AcDbLine
 10
7.28139805157953
 20
16.24717430164393
 30
0.0
 11
10.72767329541681
 21
16.24717430164393
 31
0.0
  0
LINE
  5
8E
330
7E
100
AcDbEntity
  8
중심선
100
AcDbLine
 10
12.29416204261559
 20
16.24717430164393
 30
0.0
 11
15.74043728645272
 21
16.24717430164393
 31
0.0
  0
LINE
  5
8F
330
7E
100
AcDbEntity
  8
중심선
100
AcDbLine
 10
19.22036997980202
 20
11.08717430171403
 30
0.0
 11
23.66174974927406
 21
11.08717430171406
 31
0.0
  0
LINE
  5
90
330
7E
100
AcDbEntity
  8
중심선
100
AcDbLine
 10
19.22039502424796
 20
13.00717430171391
 30
0.0
 11
19.22036997980202
 21
11.08717430171403
 31
0.0
  0
LINE
  5
91
330
7E
100
AcDbEntity
  8
중심선
100
AcDbLine
 10
19.22039502424796
 20
13.00717430171391
 30
0.0
 11
26.96566020931264
 21
13.00717430171391
 31
0.0
  0
LINE
  5
92
330
7E
100
AcDbEntity
  8
중심선
100
AcDbLine
 10
22.22332737316547
 20
13.45928029700563
 30
0.0
 11
24.52862924686651
 21
15.39360700705356
 31
0.0
  0
ATTDEF
  5
94
330
7E
100
AcDbEntity
  8
FORMAT
 62
     2
100
AcDbText
 10
-11.05102035218446
 20
2.075366912832191
 30
0.0
 40
4.233333333333333
  1
GMG22939[ 6 FLUTE ]
 41
0.75
  7
SLDTEXTSTYLE0
 11
-11.05102035218446
 21
-0.0412997538344756
 31
0.0
100
AcDbAttributeDefinition
  3

  2
AUTOATTR0
 70
     0
 74
     1
  0
ENDBLK
  5
80
330
7E
100
AcDbEntity
  8
0
100
AcDbBlockEnd
  0
BLOCK
  5
F7
330
F6
100
AcDbEntity
  8
0
100
AcDbBlockBegin
  2
_D
 70
     0
 10
0.0
 20
0.0
 30
0.0
  3
_D
  1
_D
  0
LINE
  5
F9
330
F6
100
AcDbEntity
  8
치수문자_일반주서
 62
     0
370
    -2
100
AcDbLine
 10
83.21401407992553
 20
-8.199774431170688
 30
0.0
 11
101.7342597956985
 21
-8.199774431170619
 31
0.0
  0
LINE
  5
FA
330
F6
100
AcDbEntity
  8
치수문자_일반주서
 62
     0
370
    -2
100
AcDbLine
 10
83.15151407992553
 20
7.665775663541057
 30
0.0
 11
101.7342597956985
 21
7.665775663541126
 31
0.0
  0
LINE
  5
FB
330
F6
100
AcDbEntity
  8
치수문자_일반주서
 62
     0
370
    -2
100
AcDbLine
 10
101.7342597956985
 20
-4.897774431170619
 30
0.0
 11
101.7342597956985
 21
4.363775663541126
 31
0.0
  0
SOLID
  5
FC
330
F6
100
AcDbEntity
  8
치수문자_일반주서
 62
     0
100
AcDbTrace
 10
101.1839264623652
 20
-4.897774431170621
 30
0.0
 11
102.2845931290319
 21
-4.897774431170618
 31
0.0
 12
101.7342597956985
 22
-8.199774431170619
 32
0.0
 13
101.7342597956985
 23
-8.199774431170619
 33
0.0
  0
SOLID
  5
FD
330
F6
100
AcDbEntity
  8
치수문자_일반주서
 62
     0
100
AcDbTrace
 10
102.2845931290318
 20
4.363775663541128
 30
0.0
 11
101.1839264623652
 21
4.363775663541125
 31
0.0
 12
101.7342597956985
 22
7.665775663541126
 32
0.0
 13
101.7342597956985
 23
7.665775663541126
 33
0.0
  0
MTEXT
  5
FE
330
F6
100
AcDbEntity
  8
치수문자_일반주서
 62
     0
100
AcDbMText
 10
97.3592597956985
 20
3.994221878887512
 30
0.0
 40
3.5
 41
0.0
 71
     2
 72
     1
  1
\A1;%%c15.87 [5/8]
  7
SLDTEXTSTYLE0
 11
-3.582820546496833E-15
 21
1.0
 31
0.0
 73
     1
 44
1.0
  0
POINT
  5
FF
330
F6
100
AcDbEntity
  8
Defpoints
 62
     0
100
AcDbPoint
 10
83.15151407992553
 20
-8.199774431170688
 30
0.0
  0
POINT
  5
100
330
F6
100
AcDbEntity
  8
Defpoints
 62
     0
100
AcDbPoint
 10
83.08901407992553
 20
7.665775663541057
 30
0.0
  0
POINT
  5
101
330
F6
100
AcDbEntity
  8
Defpoints
 62
     0
100
AcDbPoint
 10
101.7342597956985
 20
7.665775663541126
 30
0.0
  0
ENDBLK
  5
F8
330
F6
100
AcDbEntity
  8
0
100
AcDbBlockEnd
  0
BLOCK
  5
10C
330
10B
100
AcDbEntity
  8
0
100
AcDbBlockBegin
  2
_D_1
 70
     0
 10
0.0
 20
0.0
 30
0.0
  3
_D_1
  1
_D_1
  0
LINE
  5
10E
330
10B
100
AcDbEntity
  8
치수문자_일반주서
 62
     0
370
    -2
100
AcDbLine
 10
-40.80048592007449
 20
7.237725568829306
 30
0.0
 11
-40.80048592007448
 21
40.33077698690109
 31
0.0
  0
LINE
  5
10F
330
10B
100
AcDbEntity
  8
치수문자_일반주서
 62
     0
370
    -2
100
AcDbLine
 10
86.19951407992552
 20
4.689725568829314
 30
0.0
 11
86.19951407992554
 21
40.33077698690109
 31
0.0
  0
LINE
  5
110
330
10B
100
AcDbEntity
  8
치수문자_일반주서
 62
     0
370
    -2
100
AcDbLine
 10
-37.49848592007448
 20
40.33077698690109
 30
0.0
 11
82.89751407992554
 21
40.33077698690109
 31
0.0
  0
SOLID
  5
111
330
10B
100
AcDbEntity
  8
치수문자_일반주서
 62
     0
100
AcDbTrace
 10
-37.49848592007448
 20
40.88111032023443
 30
0.0
 11
-37.49848592007448
 21
39.78044365356776
 31
0.0
 12
-40.80048592007448
 22
40.33077698690109
 32
0.0
 13
-40.80048592007448
 23
40.33077698690109
 33
0.0
  0
SOLID
  5
112
330
10B
100
AcDbEntity
  8
치수문자_일반주서
 62
     0
100
AcDbTrace
 10
82.89751407992554
 20
39.78044365356776
 30
0.0
 11
82.89751407992554
 21
40.88111032023443
 31
0.0
 12
86.19951407992554
 22
40.33077698690109
 32
0.0
 13
86.19951407992554
 23
40.33077698690109
 33
0.0
  0
MTEXT
  5
113
330
10B
100
AcDbEntity
  8
치수문자_일반주서
 62
     0
100
AcDbMText
 10
22.69951407992552
 20
44.70577698690109
 30
0.0
 40
3.5
 41
0.0
 71
     2
 72
     1
  1
\A1;127 [5]
  7
SLDTEXTSTYLE0
 73
     1
 44
1.0
  0
POINT
  5
114
330
10B
100
AcDbEntity
  8
Defpoints
 62
     0
100
AcDbPoint
 10
-40.80048592007449
 20
7.175225568829306
 30
0.0
  0
POINT
  5
115
330
10B
100
AcDbEntity
  8
Defpoints
 62
     0
100
AcDbPoint
 10
86.19951407992552
 20
4.627225568829314
 30
0.0
  0
POINT
  5
116
330
10B
100
AcDbEntity
  8
Defpoints
 62
     0
100
AcDbPoint
 10
86.19951407992552
 20
40.33077698690109
 30
0.0
  0
ENDBLK
  5
10D
330
10B
100
AcDbEntity
  8
0
100
AcDbBlockEnd
  0
BLOCK
  5
120
330
11F
100
AcDbEntity
  8
0
100
AcDbBlockBegin
  2
_D_2
 70
     0
 10
0.0
 20
0.0
 30
0.0
  3
_D_2
  1
_D_2
  0
LINE
  5
122
330
11F
100
AcDbEntity
  8
치수문자_일반주서
 62
     0
370
    -2
100
AcDbLine
 10
86.19951407992552
 20
4.689725568829314
 30
0.0
 11
86.19951407992552
 21
22.25422009916724
 31
0.0
  0
LINE
  5
123
330
11F
100
AcDbEntity
  8
치수문자_일반주서
 62
     0
370
    -2
100
AcDbLine
 10
9.99951407992552
 20
-8.137274431170688
 30
0.0
 11
9.999514079925518
 21
22.25422009916724
 31
0.0
  0
LINE
  5
124
330
11F
100
AcDbEntity
  8
치수문자_일반주서
 62
     0
370
    -2
100
AcDbLine
 10
82.89751407992551
 20
22.25422009916724
 30
0.0
 11
13.30151407992552
 21
22.25422009916724
 31
0.0
  0
SOLID
  5
125
330
11F
100
AcDbEntity
  8
치수문자_일반주서
 62
     0
100
AcDbTrace
 10
82.89751407992551
 20
21.70388676583391
 30
0.0
 11
82.89751407992551
 21
22.80455343250058
 31
0.0
 12
86.19951407992552
 22
22.25422009916724
 32
0.0
 13
86.19951407992552
 23
22.25422009916724
 33
0.0
  0
SOLID
  5
126
330
11F
100
AcDbEntity
  8
치수문자_일반주서
 62
     0
100
AcDbTrace
 10
13.30151407992552
 20
22.80455343250058
 30
0.0
 11
13.30151407992552
 21
21.70388676583391
 31
0.0
 12
9.999514079925518
 22
22.25422009916724
 32
0.0
 13
9.999514079925518
 23
22.25422009916724
 33
0.0
  0
MTEXT
  5
127
330
11F
100
AcDbEntity
  8
치수문자_일반주서
 62
     0
100
AcDbMText
 10
47.26131747562998
 20
26.62922009916724
 30
0.0
 40
3.5
 41
0.0
 71
     2
 72
     1
  1
\A1;76.2 [3]
  7
SLDTEXTSTYLE0
 73
     1
 44
1.0
  0
POINT
  5
128
330
11F
100
AcDbEntity
  8
Defpoints
 62
     0
100
AcDbPoint
 10
86.19951407992552
 20
4.627225568829314
 30
0.0
  0
POINT
  5
129
330
11F
100
AcDbEntity
  8
Defpoints
 62
     0
100
AcDbPoint
 10
9.99951407992552
 20
-8.199774431170688
 30
0.0
  0
POINT
  5
12A
330
11F
100
AcDbEntity
  8
Defpoints
 62
     0
100
AcDbPoint
 10
9.99951407992552
 20
22.25422009916724
 30
0.0
  0
ENDBLK
  5
121
330
11F
100
AcDbEntity
  8
0
100
AcDbBlockEnd
  0
BLOCK
  5
134
330
133
100
AcDbEntity
  8
0
100
AcDbBlockBegin
  2
_NONE
 70
     0
 10
0.0
 20
0.0
 30
0.0
  3
_NONE
  1
_NONE
  0
ENDBLK
  5
135
330
133
100
AcDbEntity
  8
0
100
AcDbBlockEnd
  0
BLOCK
  5
137
330
136
100
AcDbEntity
  8
0
100
AcDbBlockBegin
  2
_D_3
 70
     0
 10
0.0
 20
0.0
 30
0.0
  3
_D_3
  1
_D_3
  0
LINE
  5
139
330
136
100
AcDbEntity
  8
치수문자_일반주서
100
AcDbLine
 10
-64.59336763611721
 20
-13.61414086223941
 30
0.0
 11
-64.59336763611721
 21
-14.32507834780391
 31
0.0
  0
LINE
  5
13A
330
136
100
AcDbEntity
  8
치수문자_일반주서
100
AcDbLine
 10
-64.59336763611721
 20
-14.32507834780391
 30
0.0
 11
-59.03711764505791
 21
-14.32507834780387
 31
0.0
  0
LINE
  5
13B
330
136
100
AcDbEntity
  8
치수문자_일반주서
100
AcDbLine
 10
-59.03711764505791
 20
-14.32507834780387
 30
0.0
 11
-59.03711764505791
 21
-13.61414086223937
 31
0.0
  0
LINE
  5
13C
330
136
100
AcDbEntity
  8
치수문자_일반주서
100
AcDbLine
 10
-64.59336763611729
 20
-2.785408000102152
 30
0.0
 11
-64.59336763611729
 21
-2.074470514537652
 31
0.0
  0
LINE
  5
13D
330
136
100
AcDbEntity
  8
치수문자_일반주서
100
AcDbLine
 10
-64.59336763611729
 20
-2.074470514537652
 30
0.0
 11
-59.037117645058
 21
-2.074470514537613
 31
0.0
  0
LINE
  5
13E
330
136
100
AcDbEntity
  8
치수문자_일반주서
100
AcDbLine
 10
-59.037117645058
 20
-2.074470514537613
 30
0.0
 11
-59.03711764505799
 21
-2.785408000102113
 31
0.0
  0
MTEXT
  5
13F
330
136
100
AcDbEntity
  8
치수문자_일반주서
100
AcDbMText
 10
-63.54885455963682
 20
-12.72546896162803
 30
0.0
 40
3.5
 41
0.0
 71
     1
 72
     1
  1
0.00
  7
SLDTEXTSTYLE0
 11
-7.044195017643634E-15
 21
1.0
 31
0.0
 73
     1
 44
1.0
  0
MTEXT
  5
140
330
136
100
AcDbEntity
  8
치수문자_일반주서
100
AcDbMText
 10
-58.31222300927634
 20
-12.13204884353451
 30
0.0
 40
3.5
 41
0.0
 71
     1
 72
     1
  1
%%c
  7
SLDTEXTSTYLE0
 11
-7.044195017643634E-15
 21
1.0
 31
0.0
 73
     1
 44
1.0
  0
MTEXT
  5
141
330
136
100
AcDbEntity
  8
치수문자_일반주서
100
AcDbMText
 10
-58.31222300927638
 20
-6.853611445160426
 30
0.0
 40
3.5
 41
0.0
 71
     1
 72
     1
  1
0
  7
SLDTEXTSTYLE0
 11
-7.044195017643634E-15
 21
1.0
 31
0.0
 73
     1
 44
1.0
  0
ENDBLK
  5
138
330
136
100
AcDbEntity
  8
0
100
AcDbBlockEnd
  0
BLOCK
  5
143
330
142
100
AcDbEntity
  8
0
100
AcDbBlockBegin
  2
SW_DOWELSYMBOL_0
 70
     0
 10
0.0
 20
0.0
 30
0.0
  3
SW_DOWELSYMBOL_0
  1
SW_DOWELSYMBOL_0
  0
CIRCLE
  5
145
330
142
100
AcDbEntity
  8
외형선
 62
     0
100
AcDbCircle
 10
0.0
 20
0.0
 30
0.0
 40
3.000000000000001
  0
HATCH
  5
146
330
142
100
AcDbEntity
  8
0
  6
Continuous
 62
     0
370
    30
100
AcDbHatch
 10
0.0
 20
0.0
 30
0.0
210
0.0
220
0.0
230
1.0
  2
SOLID
 70
     1
 71
     0
 91
        1
 92
        0
 93
        3
 72
     2
 10
0.0
 20
0.0
 40
3.000000000000001
 50
0.0
 51
90.0
 73
     1
 72
     1
 10
0.0
 20
3.000000000000001
 11
0.0
 21
0.0
 72
     1
 10
0.0
 20
0.0
 11
3.000000000000003
 21
0.0
 97
        0
 75
     0
 76
     1
 98
        1
 10
0.0
 20
0.0
  0
HATCH
  5
147
330
142
100
AcDbEntity
  8
0
  6
Continuous
 62
     0
370
    30
100
AcDbHatch
 10
0.0
 20
0.0
 30
0.0
210
0.0
220
0.0
230
1.0
  2
SOLID
 70
     1
 71
     0
 91
        1
 92
        0
 93
        3
 72
     2
 10
0.0
 20
0.0
 40
3.000000000000001
 50
180.0
 51
270.0000000000007
 73
     1
 72
     1
 10
0.0
 20
-3.000000000000001
 11
0.0
 21
0.0
 72
     1
 10
0.0
 20
0.0
 11
-3.000000000000003
 21
0.0
 97
        0
 75
     0
 76
     1
 98
        1
 10
0.0
 20
0.0
  0
ENDBLK
  5
144
330
142
100
AcDbEntity
  8
0
100
AcDbBlockEnd
  0
BLOCK
  5
172
330
171
100
AcDbEntity
  8
0
100
AcDbBlockBegin
  2
*D8
 70
     1
 10
0.0
 20
0.0
 30
0.0
  3
*D8
  1
*D8
  0
LINE
  5
174
330
171
100
AcDbEntity
  8
치수문자_일반주서
 62
     0
370
    -2
100
AcDbLine
 10
-40.36298592007449
 20
7.675225568829309
 30
0.0
 11
-48.8913050602423
 21
7.675225568829308
 31
0.0
  0
LINE
  5
175
330
171
100
AcDbEntity
  8
치수문자_일반주서
 62
     0
370
    -2
100
AcDbLine
 10
-40.36298592007449
 20
-8.199774431170692
 30
0.0
 11
-48.8913050602423
 21
-8.199774431170692
 31
0.0
  0
LINE
  5
176
330
171
100
AcDbEntity
  8
치수문자_일반주서
 62
     0
370
    -2
100
AcDbLine
 10
-48.8913050602423
 20
4.373225568829309
 30
0.0
 11
-48.8913050602423
 21
-4.897774431170692
 31
0.0
  0
SOLID
  5
177
330
171
100
AcDbEntity
  8
치수문자_일반주서
 62
     0
100
AcDbTrace
 10
-48.34097172690897
 20
4.373225568829309
 30
0.0
 11
-49.44163839357564
 21
4.373225568829309
 31
0.0
 12
-48.8913050602423
 22
7.675225568829308
 32
0.0
 13
-48.8913050602423
 23
7.675225568829308
 33
0.0
  0
SOLID
  5
178
330
171
100
AcDbEntity
  8
치수문자_일반주서
 62
     0
100
AcDbTrace
 10
-49.44163839357564
 20
-4.897774431170692
 30
0.0
 11
-48.34097172690897
 21
-4.897774431170692
 31
0.0
 12
-48.8913050602423
 22
-8.199774431170692
 32
0.0
 13
-48.8913050602423
 23
-8.199774431170692
 33
0.0
  0
MTEXT
  5
179
330
171
100
AcDbEntity
  8
치수문자_일반주서
 62
     0
100
AcDbMText
 10
-51.5163050602423
 20
-0.2622744311706917
 30
0.0
 40
3.5
 41
0.0
 71
     5
 72
     1
  1
\A1;{%%C15.88 [5/8]}
  7
SLDTEXTSTYLE0
 11
0.0
 21
1.0
 31
0.0
 73
     1
 44
1.0
  0
POINT
  5
17A
330
171
100
AcDbEntity
  8
Defpoints
 62
     0
100
AcDbPoint
 10
-40.30048592007449
 20
7.675225568829309
 30
0.0
  0
POINT
  5
17B
330
171
100
AcDbEntity
  8
Defpoints
 62
     0
100
AcDbPoint
 10
-40.30048592007449
 20
-8.199774431170692
 30
0.0
  0
POINT
  5
17C
330
171
100
AcDbEntity
  8
Defpoints
 62
     0
100
AcDbPoint
 10
-48.8913050602423
 20
-8.199774431170692
 30
0.0
  0
ENDBLK
  5
173
330
171
100
AcDbEntity
  8
0
100
AcDbBlockEnd
  0
BLOCK
  5
189
330
188
100
AcDbEntity
  8
0
100
AcDbBlockBegin
  2
*D9
 70
     1
 10
0.0
 20
0.0
 30
0.0
  3
*D9
  1
*D9
  0
LINE
  5
18B
330
188
100
AcDbEntity
  8
치수문자_일반주서
 62
     0
370
    -2
100
AcDbLine
 10
87.37094283838483
 20
10.15434183095192
 30
0.0
 11
106.075576366446
 21
37.93352999099233
 31
0.0
  0
MTEXT
  5
18C
330
188
100
AcDbEntity
  8
치수문자_일반주서
 62
     0
100
AcDbMText
 10
95.46797006494019
 20
26.87954416619801
 30
0.0
 40
3.5
 41
0.0
 71
     5
 72
     1
  1
\A1;R1.52 [R0.060]
  7
SLDTEXTSTYLE0
 11
0.5585223287317275
 21
0.8294894865566943
 31
0.0
 73
     1
 44
1.0
  0
LINE
  5
18D
330
188
100
AcDbEntity
  8
치수문자_일반주서
 62
     0
370
    -2
100
AcDbLine
 10
84.67551407992552
 20
6.151225568829313
 30
0.0
 11
85.52670210891267
 21
7.415367546341715
 31
0.0
  0
SOLID
  5
18E
330
188
100
AcDbEntity
  8
치수문자_일반주서
 62
     0
100
AcDbTrace
 10
86.91444712428313
 20
10.46171528586395
 30
0.0
 11
87.82743855248654
 21
9.846968376039891
 31
0.0
 12
85.52670210891267
 22
7.415367546341715
 32
0.0
 13
85.52670210891267
 23
7.415367546341715
 33
0.0
  0
POINT
  5
18F
330
188
100
AcDbEntity
  8
Defpoints
 62
     0
100
AcDbPoint
 10
85.52670210891267
 20
7.415367546341715
 30
0.0
  0
POINT
  5
190
330
188
100
AcDbEntity
  8
Defpoints
 62
     0
100
AcDbPoint
 10
84.67551407992552
 20
6.151225568829313
 30
0.0
  0
ENDBLK
  5
18A
330
188
100
AcDbEntity
  8
0
100
AcDbBlockEnd
  0
ENDSEC
  0
SECTION
  2
ENTITIES
  0
LINE
  5
95
330
1F
100
AcDbEntity
  8
0
  6
Continuous
 62
     4
370
    15
100
AcDbLine
 10
-40.30048592007449
 20
7.675225568829309
 30
0.0
 11
-40.80048592007449
 21
7.175225568829305
 31
0.0
  0
LINE
  5
96
330
1F
100
AcDbEntity
  8
0
  6
Continuous
 62
     4
370
    15
100
AcDbLine
 10
-40.80048592007449
 20
-7.699774431170687
 30
0.0
 11
-40.30048592007449
 21
-8.199774431170692
 31
0.0
  0
LINE
  5
97
330
1F
100
AcDbEntity
  8
0
  6
Continuous
 62
     4
370
    15
100
AcDbLine
 10
9.99951407992552
 20
7.675225568829313
 30
0.0
 11
-9.847410920074568
 21
7.675225568829311
 31
0.0
  0
LINE
  5
98
330
1F
100
AcDbEntity
  8
0
  6
Continuous
 62
     4
370
    15
100
AcDbLine
 10
-40.30048592007449
 20
-8.199774431170692
 30
0.0
 11
9.99951407992552
 21
-8.199774431170688
 31
0.0
  0
LINE
  5
9B
330
1F
100
AcDbEntity
  8
0
  6
Continuous
 62
     1
370
    15
100
AcDbLine
 10
57.82747907337088
 20
-8.199774431170688
 30
0.0
 11
60.54307094509296
 21
-8.199774431170688
 31
0.0
  0
LINE
  5
9C
330
1F
100
AcDbEntity
  8
0
  6
Continuous
 62
     1
370
    15
100
AcDbLine
 10
9.999514079925522
 20
-8.199774431170688
 30
0.0
 11
10.66882351125369
 21
-8.199774431170688
 31
0.0
  0
LINE
  5
9D
330
1F
100
AcDbEntity
  8
0
  6
Continuous
 62
     1
370
    15
100
AcDbLine
 10
35.60484349194168
 20
7.675225568829313
 30
0.0
 11
32.8919542465516
 21
7.675225568829313
 31
0.0
  0
LINE
  5
9E
330
1F
100
AcDbEntity
  8
0
  6
Continuous
 62
     1
370
    15
100
AcDbLine
 10
84.844966169345
 20
7.665775663541063
 30
0.0
 11
82.76478860795305
 21
7.675225568829313
 31
0.0
  0
LINE
  5
9F
330
1F
100
AcDbEntity
  8
0
  6
Continuous
 62
     1
370
    15
100
AcDbLine
 10
74.45209631870819
 20
-8.199774431170688
 30
0.0
 11
77.16695341831878
 21
-8.199774431170688
 31
0.0
  0
LINE
  5
A0
330
1F
100
AcDbEntity
  8
0
  6
Continuous
 62
     1
370
    15
100
AcDbLine
 10
24.57927690380165
 20
-8.199774431170688
 30
0.0
 11
27.29352822135482
 21
-8.199774431170688
 31
0.0
  0
LINE
  5
A1
330
1F
100
AcDbEntity
  8
0
  6
Continuous
 62
     1
370
    15
100
AcDbLine
 10
52.22909759233314
 20
7.675225568829313
 30
0.0
 11
49.5166421571817
 21
7.675225568829313
 31
0.0
  0
LINE
  5
A2
330
1F
100
AcDbEntity
  8
0
  6
Continuous
 62
     1
370
    15
100
AcDbLine
 10
66.1413192261581
 20
-8.199774431170688
 30
0.0
 11
68.85377282174917
 21
-8.199774431170688
 31
0.0
  0
LINE
  5
A3
330
1F
100
AcDbEntity
  8
0
  6
Continuous
 62
     1
370
    15
100
AcDbLine
 10
16.26776933923033
 20
-8.199774431170688
 30
0.0
 11
18.98120000422297
 21
-8.199774431170688
 31
0.0
  0
LINE
  5
A4
330
1F
100
AcDbEntity
  8
0
  6
Continuous
 62
     1
370
    15
100
AcDbLine
 10
43.91820014918914
 20
7.675225568829313
 30
0.0
 11
41.20299811170447
 21
7.675225568829313
 31
0.0
  0
LINE
  5
A5
330
1F
100
AcDbEntity
  8
0
  6
Continuous
 62
     1
370
    15
100
AcDbLine
 10
41.20299811170455
 20
-8.199774431170688
 30
0.0
 11
43.91820014918917
 21
-8.199774431170688
 31
0.0
  0
LINE
  5
A6
330
1F
100
AcDbEntity
  8
0
  6
Continuous
 62
     1
370
    15
100
AcDbLine
 10
18.98120000422301
 20
7.675225568829313
 30
0.0
 11
16.26776933923039
 21
7.675225568829313
 31
0.0
  0
LINE
  5
A7
330
1F
100
AcDbEntity
  8
0
  6
Continuous
 62
     1
370
    15
100
AcDbLine
 10
68.85377282174926
 20
7.675225568829313
 30
0.0
 11
66.14131922615817
 21
7.675225568829313
 31
0.0
  0
LINE
  5
A8
330
1F
100
AcDbEntity
  8
0
  6
Continuous
 62
     1
370
    15
100
AcDbLine
 10
49.51664215718173
 20
-8.199774431170688
 30
0.0
 11
52.22909759233317
 21
-8.199774431170688
 31
0.0
  0
LINE
  5
A9
330
1F
100
AcDbEntity
  8
0
  6
Continuous
 62
     1
370
    15
100
AcDbLine
 10
27.29352822135478
 20
7.675225568829313
 30
0.0
 11
24.57927690380173
 21
7.675225568829313
 31
0.0
  0
LINE
  5
AA
330
1F
100
AcDbEntity
  8
0
  6
Continuous
 62
     1
370
    15
100
AcDbLine
 10
77.16695341831876
 20
7.675225568829313
 30
0.0
 11
74.45209631870827
 21
7.675225568829313
 31
0.0
  0
LINE
  5
AB
330
1F
100
AcDbEntity
  8
0
  6
Continuous
 62
     1
370
    15
100
AcDbLine
 10
82.76478860795301
 20
-8.199774431170688
 30
0.0
 11
84.8449661693451
 21
-8.190324525882454
 31
0.0
  0
LINE
  5
AC
330
1F
100
AcDbEntity
  8
0
  6
Continuous
 62
     1
370
    15
100
AcDbLine
 10
32.89195424655157
 20
-8.199774431170688
 30
0.0
 11
35.60484349194173
 21
-8.199774431170688
 31
0.0
  0
LINE
  5
AD
330
1F
100
AcDbEntity
  8
0
  6
Continuous
 62
     1
370
    15
100
AcDbLine
 10
10.66882351125374
 20
7.675225568829313
 30
0.0
 11
9.999514079925522
 21
7.675225568829313
 31
0.0
  0
LINE
  5
AE
330
1F
100
AcDbEntity
  8
0
  6
Continuous
 62
     1
370
    15
100
AcDbLine
 10
60.54307094509298
 20
7.675225568829313
 30
0.0
 11
57.82747907337087
 21
7.675225568829313
 31
0.0
  0
SPLINE
  5
AF
330
1F
100
AcDbEntity
  8
0
  6
Continuous
 62
     4
370
    15
100
AcDbSpline
210
0.0
220
0.0
230
1.0
 70
     8
 71
     3
 72
    14
 73
    10
 74
     0
 42
0.000000001
 43
0.00000001
 40
0.0
 40
0.0
 40
0.0
 40
0.0
 40
0.25
 40
0.25
 40
0.5
 40
0.5
 40
0.75
 40
0.75
 40
1.0
 40
1.0
 40
1.0
 40
1.0
 10
7.474536699202844
 20
-1.220957932540267
 30
0.0
 10
7.363690074450705
 20
-1.110513319885333
 30
0.0
 10
7.272524067547487
 20
-0.9863098654009064
 30
0.0
 10
7.124686751965526
 20
-0.7134116485866249
 30
0.0
 10
7.069545200836622
 20
-0.5660593658161289
 30
0.0
 10
6.993357227849745
 20
-0.2650668162865825
 30
0.0
 10
6.971713269572258
 20
-0.109133612142109
 30
0.0
 10
6.95000162237387
 20
0.2009160112025495
 30
0.0
 10
6.949890455152911
 20
0.3563085114262378
 30
0.0
 10
6.949890455152911
 20
0.5114699469396013
 30
0.0
  0
SPLINE
  5
B0
330
1F
100
AcDbEntity
  8
0
  6
Continuous
 62
     4
370
    15
100
AcDbSpline
210
0.0
220
0.0
230
1.0
 70
     8
 71
     3
 72
    22
 73
    18
 74
     0
 42
0.000000001
 43
0.00000001
 40
0.0
 40
0.0
 40
0.0
 40
0.0
 40
0.1250000000000002
 40
0.1250000000000002
 40
0.2500000000000003
 40
0.2500000000000003
 40
0.3750000000000002
 40
0.3750000000000002
 40
0.5000000000000001
 40
0.5000000000000001
 40
0.6250000000000001
 40
0.6250000000000001
 40
0.75
 40
0.75
 40
0.875
 40
0.875
 40
1.0
 40
1.0
 40
1.0
 40
1.0
 10
6.949890455152913
 20
0.5114699469396018
 30
0.0
 10
6.949890455152913
 20
0.6866536689884509
 30
0.0
 10
6.950229248510902
 20
0.8608834615282832
 30
0.0
 10
6.980860141919532
 20
1.20482741473444
 30
0.0
 10
7.01110582126584
 20
1.376570161833577
 30
0.0
 10
7.117555302909069
 20
1.704547852256702
 30
0.0
 10
7.19320332669586
 20
1.859638696324227
 30
0.0
 10
7.394534319893577
 20
2.138869558296746
 30
0.0
 10
7.516334908576729
 20
2.258788198163328
 30
0.0
 10
7.80471341631447
 20
2.456034883563079
 30
0.0
 10
7.963017842011155
 20
2.52787790884303
 30
0.0
 10
8.305820896001299
 20
2.617812581566022
 30
0.0
 10
8.482021140372739
 20
2.633512274339912
 30
0.0
 10
8.83601230973045
 20
2.60649777172114
 30
0.0
 10
9.007905605719955
 20
2.563921323604998
 30
0.0
 10
9.328928781776437
 20
2.423313482682968
 30
0.0
 10
9.47402953070343
 20
2.327083391110467
 30
0.0
 10
9.599857196550172
 20
2.207134117797509
 30
0.0
  0
LINE
  5
B2
330
1F
100
AcDbEntity
  8
0
  6
Continuous
 62
     4
370
    15
100
AcDbLine
 10
-40.30048592007449
 20
7.675225568829309
 30
0.0
 11
-40.30048592007449
 21
-8.199774431170692
 31
0.0
  0
LINE
  5
B3
330
1F
100
AcDbEntity
  8
0
  6
Continuous
 62
     4
370
    15
100
AcDbLine
 10
-40.80048592007449
 20
7.175225568829306
 30
0.0
 11
-40.80048592007449
 21
-7.699774431170687
 31
0.0
  0
SPLINE
  5
B4
330
1F
100
AcDbEntity
  8
0
  6
Continuous
 62
     4
370
    15
100
AcDbSpline
210
0.0
220
0.0
230
1.0
 70
     8
 71
     3
 72
    10
 73
     6
 74
     0
 42
0.000000001
 43
0.00000001
 40
0.0
 40
0.0
 40
0.0
 40
0.0
 40
0.5
 40
0.5
 40
1.0
 40
1.0
 40
1.0
 40
1.0
 10
9.999514079925532
 20
-8.171608528592076
 30
0.0
 10
9.577782297088362
 20
-8.136146087535389
 30
0.0
 10
9.160584928760935
 20
-8.067484160404513
 30
0.0
 10
8.315761857264143
 20
-7.864334890970139
 30
0.0
 10
7.893323620529167
 20
-7.730037480269007
 30
0.0
 10
7.474536699202856
 20
-7.565370584356458
 30
0.0
  0
LINE
  5
B5
330
1F
100
AcDbEntity
  8
0
  6
Continuous
 62
     1
370
    15
100
AcDbLine
 10
9.99951407992552
 20
7.675225568829313
 30
0.0
 11
9.99951407992552
 21
7.413252462358439
 31
0.0
  0
SPLINE
  5
B6
330
1F
100
AcDbEntity
  8
0
  6
Continuous
 62
     4
370
    15
100
AcDbSpline
210
0.0
220
0.0
230
1.0
 70
     8
 71
     3
 72
     8
 73
     4
 74
     0
 42
0.000000001
 43
0.00000001
 40
0.0
 40
0.0
 40
0.0
 40
0.0
 40
1.0
 40
1.0
 40
1.0
 40
1.0
 10
9.99951407992552
 20
7.413252462358439
 30
0.0
 10
9.865936312211696
 20
7.447254527373071
 30
0.0
 10
9.732633450893509
 20
7.477976825494999
 30
0.0
 10
9.599857196550197
 20
7.505380612392587
 30
0.0
  0
SPLINE
  5
B7
330
1F
100
AcDbEntity
  8
0
  6
Continuous
 62
     4
370
    15
100
AcDbSpline
210
0.0
220
0.0
230
1.0
 70
     8
 71
     3
 72
    22
 73
    18
 74
     0
 42
0.000000001
 43
0.00000001
 40
0.0
 40
0.0
 40
0.0
 40
0.0
 40
0.1250000000000001
 40
0.1250000000000001
 40
0.2500000000000003
 40
0.2500000000000003
 40
0.3750000000000003
 40
0.3750000000000003
 40
0.5000000000000002
 40
0.5000000000000002
 40
0.6250000000000002
 40
0.6250000000000002
 40
0.7500000000000001
 40
0.7500000000000001
 40
0.8750000000000001
 40
0.8750000000000001
 40
1.0
 40
1.0
 40
1.0
 40
1.0
 10
6.949890455152913
 20
6.965936765381998
 30
0.0
 10
6.949890455152912
 20
7.038668879660593
 30
0.0
 10
6.950229248510902
 20
7.105889884675697
 30
0.0
 10
6.980860141919534
 20
7.228600389709555
 30
0.0
 10
7.01110582126584
 20
7.284691051254351
 30
0.0
 10
7.117555302909069
 20
7.382435652756326
 30
0.0
 10
7.19320332669586
 20
7.423782446078039
 30
0.0
 10
7.394534319893577
 20
7.491519771821673
 30
0.0
 10
7.516334908576729
 20
7.517022009170979
 30
0.0
 10
7.80471341631447
 20
7.555921347102166
 30
0.0
 10
7.963017842011157
 20
7.568324673600068
 30
0.0
 10
8.305820896001299
 20
7.583508072654097
 30
0.0
 10
8.482021140372739
 20
7.585923744173179
 30
0.0
 10
8.83601230973045
 20
7.58153417474829
 30
0.0
 10
9.007905605719955
 20
7.574732532844892
 30
0.0
 10
9.328928781776437
 20
7.549511561167445
 30
0.0
 10
9.47402953070343
 20
7.531350275098768
 30
0.0
 10
9.599857196550172
 20
7.505380612392594
 30
0.0
  0
SPLINE
  5
B8
330
1F
100
AcDbEntity
  8
0
  6
Continuous
 62
     4
370
    15
100
AcDbSpline
210
0.0
220
0.0
230
1.0
 70
     8
 71
     3
 72
    14
 73
    10
 74
     0
 42
0.000000001
 43
0.00000001
 40
0.0
 40
0.0
 40
0.0
 40
0.0
 40
0.2500000000000001
 40
0.2500000000000001
 40
0.5000000000000001
 40
0.5000000000000001
 40
0.75
 40
0.75
 40
1.0
 40
1.0
 40
1.0
 40
1.0
 10
7.474536699202842
 20
6.082138220645535
 30
0.0
 10
7.363690074450705
 20
6.148997972621176
 30
0.0
 10
7.272524067547487
 20
6.222152178271427
 30
0.0
 10
7.124686751965526
 20
6.376144635478864
 30
0.0
 10
7.069545200836622
 20
6.456110308926076
 30
0.0
 10
6.993357227849745
 20
6.611641516357428
 30
0.0
 10
6.971713269572258
 20
6.688406272285927
 30
0.0
 10
6.95000162237387
 20
6.832998548819439
 30
0.0
 10
6.949890455152912
 20
6.901517428200425
 30
0.0
 10
6.949890455152911
 20
6.965936765381998
 30
0.0
  0
SPLINE
  5
B9
330
1F
100
AcDbEntity
  8
0
  6
Continuous
 62
     4
370
    15
100
AcDbSpline
210
0.0
220
0.0
230
1.0
 70
     8
 71
     3
 72
    10
 73
     6
 74
     0
 42
0.000000001
 43
0.00000001
 40
0.0
 40
0.0
 40
0.0
 40
0.0
 40
0.5
 40
0.5
 40
1.0
 40
1.0
 40
1.0
 40
1.0
 10
9.999514079925532
 20
4.27097302597574
 30
0.0
 10
9.577782297088358
 20
4.616826914109058
 30
0.0
 10
9.160584928760935
 20
4.942342644541968
 30
0.0
 10
8.315761857264139
 20
5.54940682762555
 30
0.0
 10
7.893323620529157
 20
5.829537027301777
 30
0.0
 10
7.474536699202845
 20
6.082138220645537
 30
0.0
  0
LINE
  5
BA
330
1F
100
AcDbEntity
  8
0
  6
Continuous
 62
     1
370
    15
100
AcDbLine
 10
9.999514079925522
 20
4.270973025975755
 30
0.0
 11
9.999514079925522
 21
1.824019670291606
 31
0.0
  0
SPLINE
  5
BB
330
1F
100
AcDbEntity
  8
0
  6
Continuous
 62
     4
370
    15
100
AcDbSpline
210
0.0
220
0.0
230
1.0
 70
     8
 71
     3
 72
     8
 73
     4
 74
     0
 42
0.000000001
 43
0.00000001
 40
0.0
 40
0.0
 40
0.0
 40
0.0
 40
1.0
 40
1.0
 40
1.0
 40
1.0
 10
9.999514079925522
 20
1.824019670291606
 30
0.0
 10
9.865936312211696
 20
1.952777054039961
 30
0.0
 10
9.732633450893509
 20
2.080560878800149
 30
0.0
 10
9.599857196550197
 20
2.207134117797486
 30
0.0
  0
SPLINE
  5
BC
330
1F
100
AcDbEntity
  8
0
  6
Continuous
 62
     4
370
    15
100
AcDbSpline
210
0.0
220
0.0
230
1.0
 70
     8
 71
     3
 72
    10
 73
     6
 74
     0
 42
0.000000001
 43
0.00000001
 40
0.0
 40
0.0
 40
0.0
 40
0.0
 40
0.5
 40
0.5
 40
1.0
 40
1.0
 40
1.0
 40
1.0
 10
9.999514079925532
 20
-3.638361071445707
 30
0.0
 10
9.57778229708836
 20
-3.257044742255697
 30
0.0
 10
9.160584928760937
 20
-2.862867084691909
 30
0.0
 10
8.31576185726414
 20
-2.052653632173942
 30
0.0
 10
7.893323620529157
 20
-1.638226021796583
 30
0.0
 10
7.474536699202845
 20
-1.220957932540267
 30
0.0
  0
LINE
  5
BD
330
1F
100
AcDbEntity
  8
0
  6
Continuous
 62
     1
370
    15
100
AcDbLine
 10
9.999514079925522
 20
-3.638361071445713
 30
0.0
 11
9.999514079925522
 21
-5.851507223237516
 31
0.0
  0
SPLINE
  5
BE
330
1F
100
AcDbEntity
  8
0
  6
Continuous
 62
     4
370
    15
100
AcDbSpline
210
0.0
220
0.0
230
1.0
 70
     8
 71
     3
 72
     8
 73
     4
 74
     0
 42
0.000000001
 43
0.00000001
 40
0.0
 40
0.0
 40
0.0
 40
0.0
 40
1.0
 40
1.0
 40
1.0
 40
1.0
 10
9.999514079925522
 20
-5.851507223237516
 30
0.0
 10
9.8659363122117
 20
-5.756751904503798
 30
0.0
 10
9.732633450893516
 20
-5.65969037786554
 30
0.0
 10
9.599857196550209
 20
-5.560520925765795
 30
0.0
  0
SPLINE
  5
BF
330
1F
100
AcDbEntity
  8
0
  6
Continuous
 62
     4
370
    15
100
AcDbSpline
210
0.0
220
0.0
230
1.0
 70
     8
 71
     3
 72
    22
 73
    18
 74
     0
 42
0.000000001
 43
0.00000001
 40
0.0
 40
0.0
 40
0.0
 40
0.0
 40
0.1250000000000001
 40
0.1250000000000001
 40
0.2500000000000001
 40
0.2500000000000001
 40
0.3750000000000002
 40
0.3750000000000002
 40
0.5000000000000002
 40
0.5000000000000002
 40
0.6250000000000001
 40
0.6250000000000001
 40
0.7500000000000001
 40
0.7500000000000001
 40
0.875
 40
0.875
 40
1.0
 40
1.0
 40
1.0
 40
1.0
 10
6.949890455152913
 20
-6.716741249613063
 30
0.0
 10
6.949890455152915
 20
-6.614289641842808
 30
0.0
 10
6.9502292485109
 20
-6.507280854318086
 30
0.0
 10
6.980860141919532
 20
-6.286047406145791
 30
0.0
 10
7.011105821265842
 20
-6.170395320591449
 30
0.0
 10
7.117555302909069
 20
-5.940162231670303
 30
0.0
 10
7.19320332669586
 20
-5.826418180924494
 30
0.0
 10
7.394534319893577
 20
-5.614924644695614
 30
0.0
 10
7.516334908576729
 20
-5.520508242178339
 30
0.0
 10
7.80471341631447
 20
-5.362160894709779
 30
0.0
 10
7.963017842011155
 20
-5.302721195927727
 30
0.0
 10
8.3058208960013
 20
-5.227969922258766
 30
0.0
 10
8.482021140372744
 20
-5.214685901003959
 30
0.0
 10
8.836012309730457
 20
-5.237310834197847
 30
0.0
 10
9.007905605719964
 20
-5.273085640410588
 30
0.0
 10
9.328928781776447
 20
-5.388472509655168
 30
0.0
 10
9.47402953070343
 20
-5.466541315158987
 30
0.0
 10
9.599857196550174
 20
-5.560520925765773
 30
0.0
  0
SPLINE
  5
C0
330
1F
100
AcDbEntity
  8
0
  6
Continuous
 62
     4
370
    15
100
AcDbSpline
210
0.0
220
0.0
230
1.0
 70
     8
 71
     3
 72
    14
 73
    10
 74
     0
 42
0.000000001
 43
0.00000001
 40
0.0
 40
0.0
 40
0.0
 40
0.0
 40
0.2500000000000001
 40
0.2500000000000001
 40
0.5000000000000001
 40
0.5000000000000001
 40
0.75
 40
0.75
 40
1.0
 40
1.0
 40
1.0
 40
1.0
 10
7.474536699202859
 20
-7.565370584356459
 30
0.0
 10
7.363690074450719
 20
-7.521785723677167
 30
0.0
 10
7.2725240675475
 20
-7.470736474842991
 30
0.0
 10
7.124686751965533
 20
-7.35183071523615
 30
0.0
 10
7.069545200836629
 20
-7.284444105912867
 30
0.0
 10
6.993357227849748
 20
-7.138982763814672
 30
0.0
 10
6.971713269572251
 20
-7.059814315598702
 30
0.0
 10
6.950001622373865
 20
-6.894356968787556
 30
0.0
 10
6.949890455152912
 20
-6.807483347944853
 30
0.0
 10
6.949890455152912
 20
-6.716741249613064
 30
0.0
  0
SPLINE
  5
C1
330
1F
100
AcDbEntity
  8
0
  6
Continuous
 62
     1
370
    15
100
AcDbSpline
210
0.0
220
0.0
230
1.0
 70
    24
 71
     3
 72
    18
 73
    14
 74
     0
 42
0.000000001
 43
0.00000001
 40
0.0
 40
0.0
 40
0.0
 40
0.0
 40
0.25
 40
0.25
 40
0.5
 40
0.5
 40
0.625
 40
0.625
 40
0.75
 40
0.75
 40
0.875
 40
0.875
 40
1.0
 40
1.0
 40
1.0
 40
1.0
 10
9.999514079925522
 20
1.824019670291569
 30
0.0
 10
9.999514079925522
 20
1.608163392490972
 30
0.0
 10
9.999514079925522
 20
1.335421739407831
 30
0.0
 10
9.999514079925522
 20
0.63756881600534
 30
0.0
 10
9.999514079925522
 20
0.2101528812285941
 30
0.0
 10
9.999514079925522
 20
-0.541517590297491
 30
0.0
 10
9.999514079925522
 20
-0.8098713104626681
 30
0.0
 10
9.999514079925522
 20
-1.370467688132424
 30
0.0
 10
9.999514079925522
 20
-1.662685131854704
 30
0.0
 10
9.999514079925522
 20
-2.250864078803943
 30
0.0
 10
9.999514079925522
 20
-2.546668233039701
 30
0.0
 10
9.999514079925522
 20
-3.115934804387194
 30
0.0
 10
9.999514079925522
 20
-3.389147164154293
 30
0.0
 10
9.999514079925522
 20
-3.638361071445718
 30
0.0
  0
SPLINE
  5
C2
330
1F
100
AcDbEntity
  8
0
  6
Continuous
 62
     1
370
    15
100
AcDbSpline
210
0.0
220
0.0
230
1.0
 70
    24
 71
     3
 72
    15
 73
    11
 74
     0
 42
0.000000001
 43
0.00000001
 40
0.0
 40
0.0
 40
0.0
 40
0.0
 40
0.087407394996733
 40
0.2257630852686036
 40
0.3641187755404743
 40
0.5024744658123456
 40
0.640830156084217
 40
0.779185846356088
 40
0.9175415366279591
 40
1.0
 40
1.0
 40
1.0
 40
1.0
 10
9.999514079925522
 20
-5.657088170729415
 30
0.0
 10
9.999514079925522
 20
-5.653367869233426
 30
0.0
 10
9.999514079925524
 20
-5.643758765290959
 30
0.0
 10
9.999514079925522
 20
-5.757295823700328
 30
0.0
 10
9.999514079925522
 20
-5.976486966111016
 30
0.0
 10
9.999514079925522
 20
-6.305689476447688
 30
0.0
 10
9.999514079925522
 20
-6.725422319657736
 30
0.0
 10
9.999514079925522
 20
-7.229616877925415
 30
0.0
 10
9.999514079925522
 20
-7.721503480847995
 30
0.0
 10
9.999514079925522
 20
-8.049226986340871
 30
0.0
 10
9.999514079925522
 20
-8.171608528592097
 30
0.0
  0
SPLINE
  5
C3
330
1F
100
AcDbEntity
  8
0
  6
Continuous
 62
     1
370
    15
100
AcDbSpline
210
0.0
220
0.0
230
1.0
 70
    24
 71
     3
 72
    16
 73
    12
 74
     0
 42
0.000000001
 43
0.00000001
 40
0.0
 40
0.0
 40
0.0
 40
0.0
 40
0.0563118354363342
 40
0.1825487333683491
 40
0.3087856313003639
 40
0.4350225292323786
 40
0.5612594271643933
 40
0.6874963250964085
 40
0.8137332230284239
 40
0.9399701209604386
 40
1.0
 40
1.0
 40
1.0
 40
1.0
 10
9.99951407992552
 20
7.413252462358439
 30
0.0
 10
9.99951407992552
 20
7.316205218385956
 30
0.0
 10
9.999514079925522
 20
7.001602589528383
 30
0.0
 10
9.999514079925522
 20
6.489191304696948
 30
0.0
 10
9.999514079925522
 20
5.907544100714459
 30
0.0
 10
9.999514079925522
 20
5.392182339084918
 30
0.0
 10
9.999514079925522
 20
4.95510870913686
 30
0.0
 10
9.999514079925522
 20
4.610230214875721
 30
0.0
 10
9.999514079925522
 20
4.371128788285839
 30
0.0
 10
9.999514079925522
 20
4.246283900756521
 30
0.0
 10
9.999514079925522
 20
4.243038515678925
 30
0.0
 10
9.999514079925522
 20
4.24199259607473
 30
0.0
  0
SPLINE
  5
C4
330
1F
100
AcDbEntity
  8
0
  6
Continuous
 62
     1
370
    15
100
AcDbSpline
210
0.0
220
0.0
230
1.0
 70
     8
 71
     3
 72
    16
 73
    12
 74
     0
 42
0.000000001
 43
0.00000001
 40
0.0
 40
0.0
 40
0.0
 40
0.0
 40
0.1164459024273427
 40
0.232873367879881
 40
0.3491419024436647
 40
0.4654728896966121
 40
0.5819785661424001
 40
0.7020657767830123
 40
0.8220960956061899
 40
0.9422414626065848
 40
1.0
 40
1.0
 40
1.0
 40
1.0
 10
9.999514079925532
 20
-3.638361071445703
 30
0.0
 10
10.45692045206625
 20
-4.042346775872037
 30
0.0
 10
11.37166077482334
 20
-4.850254221338285
 30
0.0
 10
12.74334439566671
 20
-5.897977718347065
 30
0.0
 10
14.11299319713493
 20
-6.785973408002882
 30
0.0
 10
15.48342732297512
 20
-7.477858742117452
 30
0.0
 10
16.87075612211726
 20
-7.959274023093273
 30
0.0
 10
18.27071188906788
 20
-8.212090244459526
 30
0.0
 10
19.68472728299236
 20
-8.202552675105895
 30
0.0
 10
20.85481819143314
 20
-8.025990913589139
 30
0.0
 10
21.55382027461392
 20
-7.766120678935581
 30
0.0
 10
21.78075929597514
 20
-7.681750834907609
 30
0.0
  0
SPLINE
  5
C5
330
1F
100
AcDbEntity
  8
0
  6
Continuous
 62
     1
370
    15
100
AcDbSpline
210
0.0
220
0.0
230
1.0
 70
     8
 71
     3
 72
    27
 73
    23
 74
     0
 42
0.000000001
 43
0.00000001
 40
0.0
 40
0.0
 40
0.0
 40
0.0
 40
0.044766193926368
 40
0.0957507152145763
 40
0.1467791709105431
 40
0.1978572085702806
 40
0.2488598793400558
 40
0.2998470577424497
 40
0.3508917448900039
 40
0.4019587836265627
 40
0.4529530242509432
 40
0.5039454011200183
 40
0.5550081934280784
 40
0.6060577563863183
 40
0.6570461040396645
 40
0.7080462176521933
 40
0.759121954387284
 40
0.8101545991911062
 40
0.8611395945340097
 40
0.9121499785915003
 40
0.9632315429113767
 40
1.0
 40
1.0
 40
1.0
 40
1.0
 10
43.91820014918914
 20
7.661694921201748
 30
0.0
 10
44.33205448883813
 20
7.64846318514539
 30
0.0
 10
45.2172503373221
 20
7.620161735327908
 30
0.0
 10
46.57341806276811
 20
7.27060987570237
 30
0.0
 10
47.9887123856121
 20
6.691271404465241
 30
0.0
 10
49.40546712201234
 20
5.885736697455317
 30
0.0
 10
50.81998213211384
 20
4.886150882827531
 30
0.0
 10
52.23406079863089
 20
3.722888687925167
 30
0.0
 10
53.64981144658182
 20
2.433807699638592
 30
0.0
 10
55.0662384239192
 20
1.059773217775493
 30
0.0
 10
56.48051777435274
 20
-0.3573073362213158
 30
0.0
 10
57.8947451829407
 20
-1.77134961943612
 30
0.0
 10
59.31104317719424
 20
-3.136537278111135
 30
0.0
 10
60.72694069618974
 20
-4.410951216541991
 30
0.0
 10
62.14105344360753
 20
-5.554373536066449
 30
0.0
 10
63.55549447603909
 20
-6.529952114672228
 30
0.0
 10
64.97218743308689
 20
-7.306174963360808
 30
0.0
 10
66.38757478408851
 20
-7.859083924075573
 30
0.0
 10
67.80159810116405
 20
-8.173358767070773
 30
0.0
 10
69.21630713749934
 20
-8.228338128668423
 30
0.0
 10
70.5013934309317
 20
-8.077601707087497
 30
0.0
 10
71.31336906355355
 20
-7.802605084611345
 30
0.0
 10
71.65321065637731
 20
-7.687508908754838
 30
0.0
  0
SPLINE
  5
C6
330
1F
100
AcDbEntity
  8
0
  6
Continuous
 62
     1
370
    15
100
AcDbSpline
210
0.0
220
0.0
230
1.0
 70
    24
 71
     3
 72
    18
 73
    14
 74
     0
 42
0.000000001
 43
0.00000001
 40
0.0
 40
0.0
 40
0.0
 40
0.0
 40
0.25
 40
0.25
 40
0.5
 40
0.5
 40
0.625
 40
0.625
 40
0.75
 40
0.75
 40
0.875
 40
0.875
 40
1.0
 40
1.0
 40
1.0
 40
1.0
 10
9.999514079925522
 20
1.824019670291573
 30
0.0
 10
9.999514079925522
 20
1.608163392490976
 30
0.0
 10
9.999514079925522
 20
1.335421739407834
 30
0.0
 10
9.999514079925522
 20
0.637568816005344
 30
0.0
 10
9.999514079925522
 20
0.2101528812285972
 30
0.0
 10
9.999514079925522
 20
-0.5415175902974882
 30
0.0
 10
9.999514079925522
 20
-0.8098713104626677
 30
0.0
 10
9.999514079925522
 20
-1.370467688132425
 30
0.0
 10
9.999514079925522
 20
-1.662685131854704
 30
0.0
 10
9.999514079925522
 20
-2.250864078803944
 30
0.0
 10
9.999514079925522
 20
-2.5466682330397
 30
0.0
 10
9.999514079925522
 20
-3.115934804387195
 30
0.0
 10
9.999514079925522
 20
-3.389147164154293
 30
0.0
 10
9.999514079925522
 20
-3.638361071445718
 30
0.0
  0
SPLINE
  5
C7
330
1F
100
AcDbEntity
  8
0
  6
Continuous
 62
     1
370
    15
100
AcDbSpline
210
0.0
220
0.0
230
1.0
 70
     8
 71
     3
 72
    18
 73
    14
 74
     0
 42
0.000000001
 43
0.00000001
 40
0.0
 40
0.0
 40
0.0
 40
0.0
 40
0.0940927762684023
 40
0.1881706547507152
 40
0.2821201109506979
 40
0.3761200313300664
 40
0.4702611073086946
 40
0.567296200926986
 40
0.6642853237645302
 40
0.7613674099625137
 40
0.8585271169656508
 40
0.9555431055079529
 40
1.0
 40
1.0
 40
1.0
 40
1.0
 10
9.999514079925532
 20
1.824019670291597
 30
0.0
 10
10.45692045345264
 20
1.376963907171017
 30
0.0
 10
11.37166077898227
 20
0.4829231636338336
 30
0.0
 10
12.74334437904353
 20
-0.8960709436473977
 30
0.0
 10
14.11299325939126
 20
-2.252859260101842
 30
0.0
 10
15.48342709025416
 20
-3.551410762867608
 30
0.0
 10
16.87075700340975
 20
-4.763164119375189
 30
0.0
 10
18.27070848813386
 20
-5.851157518882752
 30
0.0
 10
19.6847399610675
 20
-6.772041808185846
 30
0.0
 10
21.10016276898505
 20
-7.490183130383447
 30
0.0
 10
22.51685411651398
 20
-7.964730018957186
 30
0.0
 10
23.67597876277518
 20
-8.1971642278651
 30
0.0
 10
24.36329304858096
 20
-8.175351738660982
 30
0.0
 10
24.57927690380165
 20
-8.168497311788796
 30
0.0
  0
SPLINE
  5
C8
330
1F
100
AcDbEntity
  8
0
  6
Continuous
 62
     1
370
    15
100
AcDbSpline
210
0.0
220
0.0
230
1.0
 70
     8
 71
     3
 72
    27
 73
    23
 74
     0
 42
0.000000001
 43
0.00000001
 40
0.0
 40
0.0
 40
0.0
 40
0.0
 40
0.0458493835948485
 40
0.0969270205173186
 40
0.1479292911411245
 40
0.1989160695190955
 40
0.249960356191037
 40
0.3010269942766218
 40
0.352020834821172
 40
0.4030128116250394
 40
0.4540752033154405
 40
0.5051243657598146
 40
0.5561123133795646
 40
0.6071120268661864
 40
0.658187362882062
 40
0.7092196073047505
 40
0.7602042026403585
 40
0.8112141864913646
 40
0.8622953500463051
 40
0.9133131909207575
 40
0.9642969765967627
 40
1.0
 40
1.0
 40
1.0
 40
1.0
 10
46.71678316280011
 20
7.175988039318252
 30
0.0
 10
47.14060700357356
 20
7.30836969113947
 30
0.0
 10
48.03658376246271
 20
7.588228613466035
 30
0.0
 10
49.40548067029273
 20
7.712960681551473
 30
0.0
 10
50.81997850549421
 20
7.610992032001857
 30
0.0
 10
52.23406177146781
 20
7.253454806531583
 30
0.0
 10
53.6498111856373
 20
6.659323771941124
 30
0.0
 10
55.06623849377813
 20
5.845736619271682
 30
0.0
 10
56.48051775550826
 20
4.837900891733887
 30
0.0
 10
57.89474518851586
 20
3.668223539236253
 30
0.0
 10
59.31104317376343
 20
2.374859879782592
 30
0.0
 10
60.72694070432821
 20
0.9976380658529228
 30
0.0
 10
62.14105341451649
 20
-0.4201486589068278
 30
0.0
 10
63.55549458437449
 20
-1.83306884160262
 30
0.0
 10
64.97218702834245
 20
-3.19483710949652
 30
0.0
 10
66.38757629250225
 20
-4.46457201270111
 30
0.0
 10
67.80159247622355
 20
-5.601361852390445
 30
0.0
 10
69.21632815477876
 20
-6.568242971564018
 30
0.0
 10
70.63318981443281
 20
-7.336844544085488
 30
0.0
 10
72.04818536721339
 20
-7.872724684117464
 30
0.0
 10
73.32050788465075
 20
-8.168550344504744
 30
0.0
 10
74.12199431983693
 20
-8.171911177262807
 30
0.0
 10
74.4520963187082
 20
-8.173295377372261
 30
0.0
  0
SPLINE
  5
C9
330
1F
100
AcDbEntity
  8
0
  6
Continuous
 62
     1
370
    15
100
AcDbSpline
210
0.0
220
0.0
230
1.0
 70
     8
 71
     3
 72
    34
 73
    30
 74
     0
 42
0.000000001
 43
0.00000001
 40
0.0
 40
0.0
 40
0.0
 40
0.0
 40
0.1249999999999962
 40
0.1249999999999962
 40
0.1874999999999942
 40
0.1874999999999942
 40
0.2499999999999922
 40
0.2499999999999922
 40
0.3124999999999903
 40
0.3124999999999903
 40
0.3749999999999884
 40
0.3749999999999884
 40
0.499999999999986
 40
0.499999999999986
 40
0.5624999999999848
 40
0.5624999999999848
 40
0.6249999999999835
 40
0.6249999999999835
 40
0.6874999999999822
 40
0.6874999999999822
 40
0.7187499999999826
 40
0.7187499999999826
 40
0.7499999999999828
 40
0.7499999999999828
 40
0.8124999999999863
 40
0.8124999999999863
 40
0.8749999999999898
 40
0.8749999999999898
 40
1.0
 40
1.0
 40
1.0
 40
1.0
 10
83.15151407992553
 20
3.366420988347556
 30
0.0
 10
83.4660084032181
 20
3.087330248580549
 30
0.0
 10
83.7618412613083
 20
2.775988797532711
 30
0.0
 10
84.18721172071945
 20
2.270535423296939
 30
0.0
 10
84.3249873487628
 20
2.095867580893866
 30
0.0
 10
84.5864471545067
 20
1.744052307733313
 30
0.0
 10
84.71109258576384
 20
1.565602461238623
 30
0.0
 10
84.94676982529283
 20
1.202322100227154
 30
0.0
 10
85.05830323623233
 20
1.016427449049561
 30
0.0
 10
85.26035775456029
 20
0.6442018651271405
 30
0.0
 10
85.35139540753758
 20
0.4572137141442342
 30
0.0
 10
85.59185741640758
 20
-0.111781687380549
 30
0.0
 10
85.70861054386353
 20
-0.5046555093737614
 30
0.0
 10
85.80368368111978
 20
-1.118616574172291
 30
0.0
 10
85.82272764640015
 20
-1.329459810010374
 30
0.0
 10
85.82975165098618
 20
-1.760287452068775
 30
0.0
 10
85.81831590953816
 20
-1.98100236794633
 30
0.0
 10
85.74566086697021
 20
-2.417457291651405
 30
0.0
 10
85.68374039601242
 20
-2.635673933981427
 30
0.0
 10
85.52180077470658
 20
-2.903617361860817
 30
0.0
 10
85.45838351097986
 20
-2.978786082737405
 30
0.0
 10
85.31190386039995
 20
-3.095467620616825
 30
0.0
 10
85.23155945781683
 20
-3.134621320314919
 30
0.0
 10
84.97870175096652
 20
-3.200873024660566
 30
0.0
 10
84.80260332192931
 20
-3.177525289976175
 30
0.0
 10
84.45882230252296
 20
-3.066527143427928
 30
0.0
 10
84.28744217554477
 20
-2.976587144931932
 30
0.0
 10
83.78829833563488
 20
-2.659172133292365
 30
0.0
 10
83.4652064249833
 20
-2.380416027737725
 30
0.0
 10
83.15151407992553
 20
-2.075692402554877
 30
0.0
  0
SPLINE
  5
CA
330
1F
100
AcDbEntity
  8
0
  6
Continuous
 62
     1
370
    15
100
AcDbSpline
210
0.0
220
0.0
230
1.0
 70
     8
 71
     3
 72
    28
 73
    24
 74
     0
 42
0.000000001
 43
0.00000001
 40
0.0
 40
0.0
 40
0.0
 40
0.0
 40
0.0253641695468934
 40
0.0763968730024397
 40
0.1274703790373961
 40
0.1784683372356701
 40
0.2294557535275842
 40
0.2805056000146702
 40
0.331565523282485
 40
0.3825559727075087
 40
0.4335495098084898
 40
0.4846164681121392
 40
0.5356582368630654
 40
0.5866437160616071
 40
0.637645910692068
 40
0.6887232286568193
 40
0.7397489920340807
 40
0.7907320424936963
 40
0.8417454262554217
 40
0.8928259850834104
 40
0.9438382607713043
 40
0.9948214254169906
 40
1.0
 40
1.0
 40
1.0
 40
1.0
 10
18.98120000422302
 20
7.643732341509198
 30
0.0
 10
19.21559254072785
 20
7.649841562903259
 30
0.0
 10
19.92158280825754
 20
7.668242536375818
 30
0.0
 10
21.10017768669342
 20
7.426261554535845
 30
0.0
 10
22.51683183646362
 20
6.941695890318941
 30
0.0
 10
23.93125393080692
 20
6.214966731506259
 30
0.0
 10
25.34537798623703
 20
5.286346311473005
 30
0.0
 10
26.76132532811233
 20
4.181341340815575
 30
0.0
 10
28.17757743557085
 20
2.936001703772149
 30
0.0
 10
29.59178882391283
 20
1.588300360740499
 30
0.0
 10
31.00608622082969
 20
0.1818576486811069
 30
0.0
 10
32.42255215517689
 20
-1.237466838115546
 30
0.0
 10
33.83825567416636
 20
-2.626486932118361
 30
0.0
 10
35.25232511240042
 20
-3.940964608595105
 30
0.0
 10
36.66686287678903
 20
-5.138876299347143
 30
0.0
 10
38.08364512860253
 20
-6.181107374181783
 30
0.0
 10
39.4988700557798
 20
-7.036464229607647
 30
0.0
 10
40.91286864323854
 20
-7.677458908394016
 30
0.0
 10
42.32773377816505
 20
-8.081560301031242
 30
0.0
 10
43.74459534554762
 20
-8.244020971382257
 30
0.0
 10
45.15949682271675
 20
-8.129630962689287
 30
0.0
 10
46.14964409271791
 20
-7.93731010759499
 30
0.0
 10
46.66890319951247
 20
-7.720526165326554
 30
0.0
 10
46.71678316280016
 20
-7.700536901659621
 30
0.0
  0
SPLINE
  5
CB
330
1F
100
AcDbEntity
  8
0
  6
Continuous
 62
     1
370
    15
100
AcDbSpline
210
0.0
220
0.0
230
1.0
 70
     8
 71
     3
 72
    18
 73
    14
 74
     0
 42
0.000000001
 43
0.00000001
 40
0.0
 40
0.0
 40
0.0
 40
0.0
 40
0.0253361914574823
 40
0.1244245966489401
 40
0.223390167061678
 40
0.3222896764243594
 40
0.4212648314106661
 40
0.5203507274436062
 40
0.6162544195177808
 40
0.7121257611125553
 40
0.8081447426091504
 40
0.9041348480612283
 40
1.0
 40
1.0
 40
1.0
 40
1.0
 10
68.85377282174926
 20
7.651228088842643
 30
0.0
 10
68.97449473736211
 20
7.658400405347957
 30
0.0
 10
69.56735320553493
 20
7.69362324417556
 30
0.0
 10
70.63325643649986
 20
7.505607128429318
 30
0.0
 10
72.04814261125505
 20
7.083631597126415
 30
0.0
 10
73.4621592925747
 20
6.408745501039016
 30
0.0
 10
74.8772510912432
 20
5.527603087996968
 30
0.0
 10
76.27962630998233
 20
4.473323277379434
 30
0.0
 10
77.6652098517902
 20
3.284827573479951
 30
0.0
 10
79.03587595340765
 20
2.002380850500093
 30
0.0
 10
80.40872583914306
 20
0.654838379587642
 30
0.0
 10
81.78110157289831
 20
-0.7243067278417388
 30
0.0
 10
82.69490829547298
 20
-1.625426141165563
 30
0.0
 10
83.15151407992552
 20
-2.075692402554892
 30
0.0
  0
SPLINE
  5
CC
330
1F
100
AcDbEntity
  8
0
  6
Continuous
 62
     1
370
    15
100
AcDbSpline
210
0.0
220
0.0
230
1.0
 70
     8
 71
     3
 72
    28
 73
    24
 74
     0
 42
0.000000001
 43
0.00000001
 40
0.0
 40
0.0
 40
0.0
 40
0.0
 40
0.0265403661450966
 40
0.0775388235813619
 40
0.1285267390080686
 40
0.1795770852410996
 40
0.2306375083535047
 40
0.2816284569430136
 40
0.3326224932387062
 40
0.3836899514558146
 40
0.4347322198736098
 40
0.4857181981879815
 40
0.5367208920979055
 40
0.5877987100775305
 40
0.6388249729649783
 40
0.6898085225166478
 40
0.7408224056673711
 40
0.7919034645419593
 40
0.842916239608004
 40
0.8938999033468621
 40
0.9449275007545104
 40
0.9960046792919707
 40
1.0
 40
1.0
 40
1.0
 40
1.0
 10
21.7807592959752
 20
7.157201972566233
 30
0.0
 10
22.02627993083028
 20
7.247169324238633
 30
0.0
 10
22.74357904748655
 20
7.510012819737941
 30
0.0
 10
23.93124275404195
 20
7.683312507866909
 30
0.0
 10
25.34538098485202
 20
7.682167606005542
 30
0.0
 10
26.76132452400975
 20
7.417261426256188
 30
0.0
 10
28.17757765071175
 20
6.912306781219042
 30
0.0
 10
29.5917887663285
 20
6.178622635371219
 30
0.0
 10
31.00608623617082
 20
5.240771861855108
 30
0.0
 10
32.42255215149186
 20
4.129299372474961
 30
0.0
 10
33.83825567356425
 20
2.878198490870776
 30
0.0
 10
35.25232511848161
 20
1.527106378634368
 30
0.0
 10
36.66686285304049
 20
0.1190727056890879
 30
0.0
 10
38.08364521761656
 20
-1.299578599346593
 30
0.0
 10
39.49886972400821
 20
-2.686520754275178
 30
0.0
 10
40.91286988064125
 20
-3.996665584245912
 30
0.0
 10
42.32772915433994
 20
-5.188329911471455
 30
0.0
 10
43.74461261712745
 20
-6.223277184139253
 30
0.0
 10
45.15943247864192
 20
-7.068363735013751
 30
0.0
 10
46.57346436824229
 20
-7.70470930669286
 30
0.0
 10
47.98862167384786
 20
-8.077934944919763
 30
0.0
 10
48.97068934480451
 20
-8.234813906194635
 30
0.0
 10
49.47971415512216
 20
-8.193673263974851
 30
0.0
 10
49.51664215718174
 20
-8.190688651653744
 30
0.0
  0
SPLINE
  5
CD
330
1F
100
AcDbEntity
  8
0
  6
Continuous
 62
     1
370
    15
100
AcDbSpline
210
0.0
220
0.0
230
1.0
 70
     8
 71
     3
 72
    16
 73
    12
 74
     0
 42
0.000000001
 43
0.00000001
 40
0.0
 40
0.0
 40
0.0
 40
0.0
 40
0.0343696382037031
 40
0.1573404852840615
 40
0.2804053895187502
 40
0.4036079882718325
 40
0.5228538604555555
 40
0.6420595083158109
 40
0.761448730431458
 40
0.8808020483077685
 40
1.0
 40
1.0
 40
1.0
 40
1.0
 10
71.65321065637737
 20
7.162960046413473
 30
0.0
 10
71.78494738232718
 20
7.215363992706417
 30
0.0
 10
72.38802386127726
 20
7.455263589311519
 30
0.0
 10
73.4621105995
 20
7.644337281503891
 30
0.0
 10
74.87726417319286
 20
7.708879988648516
 30
0.0
 10
76.27962292816267
 20
7.505210517354441
 30
0.0
 10
77.6652107450111
 20
7.070529129303885
 30
0.0
 10
79.03587571377275
 20
6.420937780255822
 30
0.0
 10
80.4087259030685
 20
5.571231736557756
 30
0.0
 10
81.78110155694326
 20
4.555269841543631
 30
0.0
 10
82.69490829015697
 20
3.762531838493428
 30
0.0
 10
83.15151407992559
 20
3.366420988347548
 30
0.0
  0
SPLINE
  5
CE
330
1F
100
AcDbEntity
  8
0
  6
Continuous
 62
     1
370
    15
100
AcDbSpline
210
0.0
220
0.0
230
1.0
 70
     8
 71
     3
 72
    34
 73
    30
 74
     0
 42
0.000000001
 43
0.00000001
 40
0.0
 40
0.0
 40
0.0
 40
0.0
 40
0.1250000000000014
 40
0.1250000000000014
 40
0.1875000000000019
 40
0.1875000000000019
 40
0.2500000000000026
 40
0.2500000000000026
 40
0.3125000000000031
 40
0.3125000000000031
 40
0.3750000000000037
 40
0.3750000000000037
 40
0.5000000000000031
 40
0.5000000000000031
 40
0.5625000000000031
 40
0.5625000000000031
 40
0.6250000000000031
 40
0.6250000000000031
 40
0.6875000000000031
 40
0.6875000000000031
 40
0.718750000000004
 40
0.718750000000004
 40
0.7500000000000049
 40
0.7500000000000049
 40
0.8125000000000038
 40
0.8125000000000038
 40
0.8750000000000026
 40
0.8750000000000026
 40
1.0
 40
1.0
 40
1.0
 40
1.0
 10
83.15151407992553
 20
7.665775663541057
 30
0.0
 10
83.4660084032181
 20
7.650467853640245
 30
0.0
 10
83.76184126130838
 20
7.569663935798
 30
0.0
 10
84.18721172071947
 20
7.357997943650027
 30
0.0
 10
84.32498734876283
 20
7.272089815132516
 30
0.0
 10
84.58644715450671
 20
7.075085383010363
 30
0.0
 10
84.71109258576382
 20
6.963479163141757
 30
0.0
 10
84.94676982529282
 20
6.715324120329508
 30
0.0
 10
85.05830323623233
 20
6.57782876944199
 30
0.0
 10
85.26035775456032
 20
6.286319287470723
 30
0.0
 10
85.35139540753758
 20
6.131937493873008
 30
0.0
 10
85.59185741640758
 20
5.649900891210399
 30
0.0
 10
85.70861054386356
 20
5.299423685645777
 30
0.0
 10
85.80368368111978
 20
4.799101228079426
 30
0.0
 10
85.82272764640014
 20
4.635132329345621
 30
0.0
 10
85.82975165098615
 20
4.331417689623257
 30
0.0
 10
85.81831590953821
 20
4.190931205480284
 30
0.0
 10
85.74566086697021
 20
3.966009135265828
 30
0.0
 10
85.68374039601241
 20
3.881381748629144
 30
0.0
 10
85.52180077470659
 20
3.851276582540112
 30
0.0
 10
85.45838351097989
 20
3.857963100276079
 30
0.0
 10
85.31190386039995
 20
3.904680042259154
 30
0.0
 10
85.23155945781687
 20
3.943848524692641
 30
0.0
 10
84.9787017509665
 20
4.092725797535405
 30
0.0
 10
84.80260332192924
 20
4.226694976162895
 30
0.0
 10
84.45882230252292
 20
4.500044631444534
 30
0.0
 10
84.28744217554474
 20
4.643572987179432
 30
0.0
 10
83.78829833563483
 20
5.054069065710483
 30
0.0
 10
83.4652064249833
 20
5.309002750878641
 30
0.0
 10
83.15151407992553
 20
5.523293186304158
 30
0.0
  0
SPLINE
  5
CF
330
1F
100
AcDbEntity
  8
0
  6
Continuous
 62
     1
370
    15
100
AcDbSpline
210
0.0
220
0.0
230
1.0
 70
     8
 71
     3
 72
    27
 73
    23
 74
     0
 42
0.000000001
 43
0.00000001
 40
0.0
 40
0.0
 40
0.0
 40
0.0
 40
0.0318766478118246
 40
0.0828670106848776
 40
0.1338604612286469
 40
0.1849273328504582
 40
0.2359690149623034
 40
0.2869544076173111
 40
0.3379565156758647
 40
0.3890337469411934
 40
0.4400594237065416
 40
0.4910423876267456
 40
0.5420556847975713
 40
0.5931361569206361
 40
0.6441483460195111
 40
0.6951314241255919
 40
0.7461584353958115
 40
0.797235027226321
 40
0.8482362543002242
 40
0.8992219894452775
 40
0.9502652317076326
 40
1.0
 40
1.0
 40
1.0
 40
1.0
 10
27.29352822135479
 20
7.645637511740471
 30
0.0
 10
27.58838021041166
 20
7.647789586955427
 30
0.0
 10
28.35488185361676
 20
7.653384153889982
 30
0.0
 10
29.5917758602037
 20
7.378610290797974
 30
0.0
 10
31.00608970006516
 20
6.861439685211682
 30
0.0
 10
32.42255122321636
 20
6.108439608658053
 30
0.0
 10
33.83825592208417
 20
5.1560618528433
 30
0.0
 10
35.25232505134175
 20
4.030791299227247
 30
0.0
 10
36.66686287315155
 20
2.769369531422294
 30
0.0
 10
38.08364520442567
 20
1.413177319742636
 30
0.0
 10
39.49886975661677
 20
0.0027600403874567
 30
0.0
 10
40.91286976345443
 20
-1.416123075594259
 30
0.0
 10
42.32772959104378
 20
-2.798538913108914
 30
0.0
 10
43.74461098620763
 20
-4.099208404458245
 30
0.0
 10
45.15943855443551
 20
-5.279584031593076
 30
0.0
 10
46.57344169831046
 20
-6.300658090814188
 30
0.0
 10
47.98870639699074
 20
-7.130259564955856
 30
0.0
 10
49.40546740288465
 20
-7.741317770721432
 30
0.0
 10
50.81998698014291
 20
-8.117160442644305
 30
0.0
 10
52.23404112124975
 20
-8.238898686955956
 30
0.0
 10
53.63757772268949
 20
-8.12684864033702
 30
0.0
 10
54.56969835964447
 20
-7.846611844819488
 30
0.0
 10
55.02970747913702
 20
-7.708312705797572
 30
0.0
  0
SPLINE
  5
D0
330
1F
100
AcDbEntity
  8
0
  6
Continuous
 62
     1
370
    15
100
AcDbSpline
210
0.0
220
0.0
230
1.0
 70
     8
 71
     3
 72
    12
 73
     8
 74
     0
 42
0.000000001
 43
0.00000001
 40
0.0
 40
0.0
 40
0.0
 40
0.0
 40
0.0832871800235199
 40
0.312309981531318
 40
0.5416854734611618
 40
0.7709919846872688
 40
1.0
 40
1.0
 40
1.0
 40
1.0
 10
77.16695341831877
 20
7.647831538528862
 30
0.0
 10
77.33308237840065
 20
7.655080518208474
 30
0.0
 10
77.95603218220398
 20
7.682262717308277
 30
0.0
 10
79.03583373991759
 20
7.485029923087328
 30
0.0
 10
80.40873710009329
 20
7.059108556127366
 30
0.0
 10
81.78109876228817
 20
6.41192420907758
 30
0.0
 10
82.69490735900982
 20
5.81937488664014
 30
0.0
 10
83.15151407992553
 20
5.523293186304156
 30
0.0
  0
SPLINE
  5
D1
330
1F
100
AcDbEntity
  8
0
  6
Continuous
 62
     1
370
    15
100
AcDbSpline
210
0.0
220
0.0
230
1.0
 70
     8
 71
     3
 72
    27
 73
    23
 74
     0
 42
0.000000001
 43
0.00000001
 40
0.0
 40
0.0
 40
0.0
 40
0.0
 40
0.032925245394871
 40
0.08399383721723
 40
0.1350372386811078
 40
0.1860243487920236
 40
0.2370281748695477
 40
0.2881071266843913
 40
0.3391345222626278
 40
0.3901192035569272
 40
0.4411342191236315
 40
0.4922164119053802
 40
0.5432303193628084
 40
0.5942151148468312
 40
0.6452438449748922
 40
0.6963221573333768
 40
0.7473251023965748
 40
0.7983125550090728
 40
0.8493575166760144
 40
0.9004248300521682
 40
0.9514193449246335
 40
1.0
 40
1.0
 40
1.0
 40
1.0
 10
30.0927824806573
 20
7.159715674585907
 30
0.0
 10
30.39703637512972
 20
7.266080225421527
 30
0.0
 10
31.17320225570369
 20
7.537421157324268
 30
0.0
 10
32.42257020326662
 20
7.697408342826853
 30
0.0
 10
33.83825084376951
 20
7.662470470698612
 30
0.0
 10
35.25232641187331
 20
7.366599358605218
 30
0.0
 10
36.6668625079268
 20
6.83120471839647
 30
0.0
 10
38.08364530227835
 20
6.070991025703155
 30
0.0
 10
39.49886973029347
 20
5.10957260228401
 30
0.0
 10
40.91286977103157
 20
3.97768794704666
 30
0.0
 10
42.32772958705938
 20
2.711200411284085
 30
0.0
 10
43.74461099456141
 20
1.35183337949161
 30
0.0
 10
45.15943852505708
 20
-0.060116210169172
 30
0.0
 10
46.57344180745982
 20
-1.478329039271685
 30
0.0
 10
47.98870598919824
 20
-2.857898876093623
 30
0.0
 10
49.40546892540801
 20
-4.154121066252507
 30
0.0
 10
50.81998130827275
 20
-5.328381295409903
 30
0.0
 10
52.2340622928734
 20
-6.341385944545336
 30
0.0
 10
53.64980628654997
 20
-7.162773840824809
 30
0.0
 10
55.06625756476498
 20
-7.759825125273037
 30
0.0
 10
56.45816018566192
 20
-8.133878731284888
 30
0.0
 10
57.37847608235409
 20
-8.174357291982654
 30
0.0
 10
57.82747907337088
 20
-8.194105940126924
 30
0.0
  0
SPLINE
  5
D2
330
1F
100
AcDbEntity
  8
0
  6
Continuous
 62
     1
370
    15
100
AcDbSpline
210
0.0
220
0.0
230
1.0
 70
     8
 71
     3
 72
    10
 73
     6
 74
     0
 42
0.000000001
 43
0.00000001
 40
0.0
 40
0.0
 40
0.0
 40
0.0
 40
0.1392888544930637
 40
0.5699247137579283
 40
1.0
 40
1.0
 40
1.0
 40
1.0
 10
79.96472305851374
 20
7.162427030313877
 30
0.0
 10
80.11274490793015
 20
7.220105434869111
 30
0.0
 10
80.71840219806722
 20
7.456106716707436
 30
0.0
 10
81.78112191914889
 20
7.655442816581332
 30
0.0
 10
82.69491507461113
 20
7.662332877031544
 30
0.0
 10
83.15151407992553
 20
7.665775663541069
 30
0.0
  0
SPLINE
  5
D3
330
1F
100
AcDbEntity
  8
0
  6
Continuous
 62
     1
370
    15
100
AcDbSpline
210
0.0
220
0.0
230
1.0
 70
     8
 71
     3
 72
    22
 73
    18
 74
     0
 42
0.000000001
 43
0.00000001
 40
0.0
 40
0.0
 40
0.0
 40
0.0
 40
0.06827402829501
 40
0.1365372467073773
 40
0.2047072814888087
 40
0.2729139332449741
 40
0.3412230079687685
 40
0.4116319914215072
 40
0.4820076183243602
 40
0.5524506997476635
 40
0.6229501030827811
 40
0.6933452238294715
 40
0.7637257930372903
 40
0.8341925378741466
 40
0.9046731922128967
 40
0.9750579482113054
 40
1.0
 40
1.0
 40
1.0
 40
1.0
 10
9.999514079925532
 20
4.270973025975739
 30
0.0
 10
10.45692045329948
 20
3.882681818417489
 30
0.0
 10
11.37166077852283
 20
3.106160881764902
 30
0.0
 10
12.7433443808799
 20
1.805805258882186
 30
0.0
 10
14.11299325251378
 20
0.452529456550727
 30
0.0
 10
15.48342711596293
 20
-0.9244716592187077
 30
0.0
 10
16.87075690605305
 20
-2.294006679754097
 30
0.0
 10
18.27070886383625
 20
-3.617838868640677
 30
0.0
 10
19.68473856051599
 20
-4.848833914958739
 30
0.0
 10
21.10016800296247
 20
-5.934264049978506
 30
0.0
 10
22.51683457858483
 20
-6.839217180206325
 30
0.0
 10
23.93125263516709
 20
-7.536811169632509
 30
0.0
 10
25.3453804302653
 20
-8.002406864791263
 30
0.0
 10
26.76131683639887
 20
-8.226659115724287
 30
0.0
 10
28.17760894248092
 20
-8.182788781014438
 30
0.0
 10
29.28746552249847
 20
-7.99732522262177
 30
0.0
 10
29.92577119155422
 20
-7.749188872812203
 30
0.0
 10
30.0927824806573
 20
-7.684264536927278
 30
0.0
  0
SPLINE
  5
D4
330
1F
100
AcDbEntity
  8
0
  6
Continuous
 62
     1
370
    15
100
AcDbSpline
210
0.0
220
0.0
230
1.0
 70
     8
 71
     3
 72
    28
 73
    24
 74
     0
 42
0.000000001
 43
0.00000001
 40
0.0
 40
0.0
 40
0.0
 40
0.0
 40
0.0001663145232093
 40
0.0512103302777077
 40
0.1022766973272193
 40
0.1532702672220694
 40
0.2042619733861281
 40
0.2553240940629944
 40
0.3063729855640467
 40
0.3573606625653731
 40
0.4083601053711239
 40
0.4594351703047622
 40
0.510467143873922
 40
0.5614514686088985
 40
0.6124611817245235
 40
0.6635420741662972
 40
0.7145596442636675
 40
0.7655431593433392
 40
0.8165656703676588
 40
0.8676452693174631
 40
0.917084415806342
 40
0.9665068853555178
 40
1.0
 40
1.0
 40
1.0
 40
1.0
 10
52.22909759233313
 20
7.674816769934072
 30
0.0
 10
52.23063461853634
 20
7.674952991780849
 30
0.0
 10
52.70390428851722
 20
7.716897409080305
 30
0.0
 10
53.64986332060239
 20
7.570592443921029
 30
0.0
 10
55.06622454386785
 20
7.219015941170404
 30
0.0
 10
56.48052149081357
 20
6.598936924632225
 30
0.0
 10
57.89474418606159
 20
5.769446825665884
 30
0.0
 10
59.31104344263733
 20
4.747210478324763
 30
0.0
 10
60.72694063172695
 20
3.56660043911277
 30
0.0
 10
62.14105343642977
 20
2.263883863409194
 30
0.0
 10
63.55549456928203
 20
0.880920698831133
 30
0.0
 10
64.97218706680957
 20
-0.536892345521595
 30
0.0
 10
66.38757615392942
 20
-1.947002293970437
 30
0.0
 10
67.80159299168598
 20
-3.303856064937247
 30
0.0
 10
69.21632622912603
 20
-4.56437474175459
 30
0.0
 10
70.63319700826494
 20
-5.687318765622945
 30
0.0
 10
72.04815856537383
 20
-6.639336607291371
 30
0.0
 10
73.46215482517162
 20
-7.389184890977329
 30
0.0
 10
74.87725300112703
 20
-7.912352874339988
 30
0.0
 10
76.27962319556592
 20
-8.192236531134402
 30
0.0
 10
77.66522007107693
 20
-8.218369057574506
 30
0.0
 10
78.88797238084908
 20
-8.058003781954364
 30
0.0
 10
79.65492031825038
 20
-7.793728049123159
 30
0.0
 10
79.96472305851373
 20
-7.686975892655243
 30
0.0
  0
SPLINE
  5
D5
330
1F
100
AcDbEntity
  8
0
  6
Continuous
 62
     1
370
    15
100
AcDbSpline
210
0.0
220
0.0
230
1.0
 70
    24
 71
     3
 72
    16
 73
    12
 74
     0
 42
0.000000001
 43
0.00000001
 40
0.0
 40
0.0
 40
0.0
 40
0.0
 40
0.0559977918036298
 40
0.1797425883058914
 40
0.3070759922897857
 40
0.4308207887920468
 40
0.5581541927759414
 40
0.6818989892782027
 40
0.8092323932620973
 40
0.9329771897643585
 40
1.0
 40
1.0
 40
1.0
 40
1.0
 10
9.999514079925522
 20
7.413252462358441
 30
0.0
 10
9.99951407992552
 20
7.31621120481657
 30
0.0
 10
9.99951407992552
 20
7.004726657993704
 30
0.0
 10
9.99951407992552
 20
6.491816849966426
 30
0.0
 10
9.999514079925522
 20
5.912978514452536
 30
0.0
 10
9.99951407992552
 20
5.39396549322843
 30
0.0
 10
9.999514079925522
 20
4.959119874898487
 30
0.0
 10
9.99951407992552
 20
4.611044389611406
 30
0.0
 10
9.99951407992552
 20
4.373047928096137
 30
0.0
 10
9.99951407992552
 20
4.244926851559891
 30
0.0
 10
9.999514079925522
 20
4.242179555832468
 30
0.0
 10
9.999514079925522
 20
4.24121434227578
 30
0.0
  0
SPLINE
  5
D6
330
1F
100
AcDbEntity
  8
0
  6
Continuous
 62
     1
370
    15
100
AcDbSpline
210
0.0
220
0.0
230
1.0
 70
     8
 71
     3
 72
    24
 73
    20
 74
     0
 42
0.000000001
 43
0.00000001
 40
0.0
 40
0.0
 40
0.0
 40
0.0
 40
0.0599269010480388
 40
0.119844313820907
 40
0.1796799355178735
 40
0.2395476974279833
 40
0.2995053601568881
 40
0.3613061984790888
 40
0.4230777583961007
 40
0.4849085258986793
 40
0.5467887294418786
 40
0.6085773999012132
 40
0.6703532978809997
 40
0.7322048357274097
 40
0.7940685825113094
 40
0.8558481554080689
 40
0.9176314693054283
 40
0.9795037396758836
 40
1.0
 40
1.0
 40
1.0
 40
1.0
 10
9.999514079925532
 20
7.413252462358439
 30
0.0
 10
10.4569204532981
 20
7.274675079219326
 30
0.0
 10
11.37166077851869
 20
6.99754225401132
 30
0.0
 10
12.74334438089643
 20
6.304996247543055
 30
0.0
 10
14.11299325245186
 20
5.432832779410663
 30
0.0
 10
15.48342711619439
 20
4.386750985797172
 30
0.0
 10
16.87075690517652
 20
3.192266546498714
 30
0.0
 10
18.27070886721882
 20
1.876025235398411
 30
0.0
 10
19.68473854790641
 20
0.4784362278777659
 30
0.0
 10
21.10016805008553
 20
-0.9424806708881116
 30
0.0
 10
22.5168344026791
 20
-2.340878259776774
 30
0.0
 10
23.93125329049887
 20
-3.674762200734992
 30
0.0
 10
25.34537798371575
 20
-4.900159261301553
 30
0.0
 10
26.76132598034977
 20
-5.978300192089818
 30
0.0
 10
28.17757483028804
 20
-6.873903147908505
 30
0.0
 10
29.59179857837066
 20
-7.565169490022487
 30
0.0
 10
31.00604977811976
 20
-8.007184184146192
 30
0.0
 10
32.1069338617478
 20
-8.210621266487113
 30
0.0
 10
32.73553549522437
 20
-8.179563100185012
 30
0.0
 10
32.89195424655157
 20
-8.171834708572955
 30
0.0
  0
SPLINE
  5
D7
330
1F
100
AcDbEntity
  8
0
  6
Continuous
 62
     1
370
    15
100
AcDbSpline
210
0.0
220
0.0
230
1.0
 70
     8
 71
     3
 72
    28
 73
    24
 74
     0
 42
0.000000001
 43
0.00000001
 40
0.0
 40
0.0
 40
0.0
 40
0.0
 40
0.00133082823437
 40
0.0523237521556897
 40
0.1033148123698276
 40
0.1543762862047794
 40
0.205424531031502
 40
0.2564115621339479
 40
0.3074103588917722
 40
0.3584847768195218
 40
0.4095161039286634
 40
0.4604997828072251
 40
0.5115088497448219
 40
0.5625890951068857
 40
0.6136060189266974
 40
0.6645888881602102
 40
0.7156107528443811
 40
0.7666897047308614
 40
0.8161282249372492
 40
0.8655500684151927
 40
0.9150480205195258
 40
0.9645310869726459
 40
1.0
 40
1.0
 40
1.0
 40
1.0
 10
55.02970747913702
 20
7.183763843456201
 30
0.0
 10
55.04201648920095
 20
7.188987778481514
 30
0.0
 10
55.52596593905036
 20
7.394375577209178
 30
0.0
 10
56.48045193325076
 20
7.585624394731307
 30
0.0
 10
57.8947628525334
 20
7.721666251407461
 30
0.0
 10
59.31103843930204
 20
7.577361499900684
 30
0.0
 10
60.72694197041415
 20
7.191919145338693
 30
0.0
 10
62.14105307784175
 20
6.567952304735751
 30
0.0
 10
63.55549466551614
 20
5.727722278143005
 30
0.0
 10
64.97218704110635
 20
4.698437686148072
 30
0.0
 10
66.38757616052617
 20
3.511226390823852
 30
0.0
 10
67.8015929909647
 20
2.204178641817367
 30
0.0
 10
69.21632622540929
 20
0.8187243754521982
 30
0.0
 10
70.63319702387133
 20
-0.5995082232649068
 30
0.0
 10
72.04815850677005
 20
-2.008445152956257
 30
0.0
 10
73.46215504392342
 20
-3.361911906277847
 30
0.0
 10
74.87725218359911
 20
-4.617037369082074
 30
0.0
 10
76.27962620888931
 20
-5.72183928409458
 30
0.0
 10
77.66520922845376
 20
-6.648485290142842
 30
0.0
 10
79.03587855414884
 20
-7.3773522214014
 30
0.0
 10
80.40871604394331
 20
-7.885273490200543
 30
0.0
 10
81.65212886243646
 20
-8.16823467395672
 30
0.0
 10
82.43706448200703
 20
-8.173573684796352
 30
0.0
 10
82.76478860795302
 20
-8.17580281367929
 30
0.0
  0
SPLINE
  5
D8
330
1F
100
AcDbEntity
  8
0
  6
Continuous
 62
     1
370
    15
100
AcDbSpline
210
0.0
220
0.0
230
1.0
 70
     8
 71
     3
 72
    34
 73
    30
 74
     0
 42
0.000000001
 43
0.00000001
 40
0.0
 40
0.0
 40
0.0
 40
0.0
 40
0.1250000000000014
 40
0.1250000000000014
 40
0.1875000000000019
 40
0.1875000000000019
 40
0.2500000000000024
 40
0.2500000000000024
 40
0.312500000000003
 40
0.312500000000003
 40
0.3750000000000036
 40
0.3750000000000036
 40
0.5000000000000032
 40
0.5000000000000032
 40
0.562500000000003
 40
0.562500000000003
 40
0.6250000000000028
 40
0.6250000000000028
 40
0.6875000000000026
 40
0.6875000000000026
 40
0.7187500000000014
 40
0.7187500000000014
 40
0.7500000000000003
 40
0.7500000000000003
 40
0.8125000000000011
 40
0.8125000000000011
 40
0.8750000000000018
 40
0.8750000000000018
 40
1.0
 40
1.0
 40
1.0
 40
1.0
 10
83.15151407992553
 20
-4.561629106364201
 30
0.0
 10
83.4660084032181
 20
-4.825412036230395
 30
0.0
 10
83.76184126130838
 20
-5.055949569436001
 30
0.0
 10
84.18721172071947
 20
-5.349736951523798
 30
0.0
 10
84.3249873487628
 20
-5.438496665409343
 30
0.0
 10
84.58644715450669
 20
-5.593307506447742
 30
0.0
 10
84.7110925857638
 20
-5.660151133073831
 30
0.0
 10
84.94676982529282
 20
-5.775276451273052
 30
0.0
 10
85.05830323623239
 20
-5.823675751563149
 30
0.0
 10
85.26035775456037
 20
-5.904391853514301
 30
0.0
 10
85.35139540753757
 20
-5.936998210899479
 30
0.0
 10
85.59185741640759
 20
-6.023957009761651
 30
0.0
 10
85.70861054386357
 20
-6.066353626190236
 30
0.0
 10
85.80368368111976
 20
-6.17999223342241
 30
0.0
 10
85.82272764640014
 20
-6.226866570526679
 30
0.0
 10
85.82975165098614
 20
-6.353979572862714
 30
0.0
 10
85.81831590953817
 20
-6.434208004597294
 30
0.0
 10
85.74566086697021
 20
-6.645740858087907
 30
0.0
 10
85.68374039601244
 20
-6.779330113781253
 30
0.0
 10
85.52180077470662
 20
-7.017168375571607
 30
0.0
 10
85.45838351097987
 20
-7.099023614184166
 30
0.0
 10
85.31190386040001
 20
-7.262422094046657
 30
0.0
 10
85.23155945781686
 20
-7.340744276178238
 30
0.0
 10
84.97870175096652
 20
-7.555873253366645
 30
0.0
 10
84.80260332192931
 20
-7.666494697309734
 30
0.0
 10
84.45882230252295
 20
-7.828846206043124
 30
0.0
 10
84.28744217554478
 20
-7.882434563282049
 30
0.0
 10
83.7882983356349
 20
-7.975515630173531
 30
0.0
 10
83.46520642498332
 20
-7.951693209787044
 30
0.0
 10
83.15151407992553
 20
-7.861260020029713
 30
0.0
  0
SPLINE
  5
D9
330
1F
100
AcDbEntity
  8
0
  6
Continuous
 62
     1
370
    15
100
AcDbSpline
210
0.0
220
0.0
230
1.0
 70
     8
 71
     3
 72
    28
 73
    24
 74
     0
 42
0.000000001
 43
0.00000001
 40
0.0
 40
0.0
 40
0.0
 40
0.0
 40
0.0253358123980293
 40
0.0747871750112145
 40
0.1241710333720337
 40
0.1735814178670945
 40
0.2230659997913116
 40
0.274071801347781
 40
0.3250534386928012
 40
0.3760839415620125
 40
0.4271552452511816
 40
0.4781510043613743
 40
0.5291362220197856
 40
0.5801838671813101
 40
0.6312415886890415
 40
0.6822298393497703
 40
0.7332211775533127
 40
0.7842859337935202
 40
0.8353255015672056
 40
0.8863087822157744
 40
0.9373087775754742
 40
0.9883838930300638
 40
1.0
 40
1.0
 40
1.0
 40
1.0
 10
10.66882351125374
 20
7.64564682942305
 30
0.0
 10
10.90313511376008
 20
7.651071540151428
 30
0.0
 10
11.59478464717557
 20
7.667084399113877
 30
0.0
 10
12.74334806890821
 20
7.436766720502902
 30
0.0
 10
14.11299226435728
 20
6.977535292238136
 30
0.0
 10
15.48342738117289
 20
6.290626055870543
 30
0.0
 10
16.87075683175637
 20
5.403642471462449
 30
0.0
 10
18.27070888689219
 20
4.329808521769079
 30
0.0
 10
19.68473854352166
 20
3.099439361351226
 30
0.0
 10
21.10016804793117
 20
1.762569510597619
 30
0.0
 10
22.5168344156907
 20
0.3624855584215809
 30
0.0
 10
23.93125324069759
 20
-1.058787306612
 30
0.0
 10
25.34537816999481
 20
-2.454651856533691
 30
0.0
 10
26.76132528403832
 20
-3.780360049692598
 30
0.0
 10
28.1775774279556
 20
-4.99437501999014
 30
0.0
 10
29.59178889826374
 20
-6.059203615127661
 30
0.0
 10
31.00608593080933
 20
-6.940021786838619
 30
0.0
 10
32.42255324237234
 20
-7.608889827857639
 30
0.0
 10
33.83825162012374
 20
-8.043823464929524
 30
0.0
 10
35.25234022624672
 20
-8.237317820915692
 30
0.0
 10
36.66680641323849
 20
-8.158356659062532
 30
0.0
 10
37.71910883534636
 20
-7.967969096151957
 30
0.0
 10
38.29870078004718
 20
-7.733892811585851
 30
0.0
 10
38.40609383713207
 20
-7.690520628758843
 30
0.0
  0
SPLINE
  5
DA
330
1F
100
AcDbEntity
  8
0
  6
Continuous
 62
     1
370
    15
100
AcDbSpline
210
0.0
220
0.0
230
1.0
 70
     8
 71
     3
 72
    24
 73
    20
 74
     0
 42
0.000000001
 43
0.00000001
 40
0.0
 40
0.0
 40
0.0
 40
0.0
 40
0.0081466950099917
 40
0.070694720439668
 40
0.1332571793143965
 40
0.1959124059921773
 40
0.2585147712744267
 40
0.3210586843841616
 40
0.3836337421384814
 40
0.4462961175853076
 40
0.5088808137213484
 40
0.571423733604022
 40
0.6340144909148927
 40
0.6966752795985371
 40
0.7573236788524873
 40
0.8179516200328402
 40
0.8786729270004507
 40
0.9393759730873916
 40
1.0
 40
1.0
 40
1.0
 40
1.0
 10
60.54307094509299
 20
7.660966722279833
 30
0.0
 10
60.60448483035157
 20
7.665569492921935
 30
0.0
 10
61.13741719668465
 20
7.705511037731473
 30
0.0
 10
62.14099827565281
 20
7.540525281748164
 30
0.0
 10
63.55550937584006
 20
7.152772592169772
 30
0.0
 10
64.97218310060082
 20
6.505796709945962
 30
0.0
 10
66.38757721490502
 20
5.65047909823045
 30
0.0
 10
67.80159270834426
 20
4.605751554722855
 30
0.0
 10
69.21632630152703
 20
3.406930365976638
 30
0.0
 10
70.63319700254598
 20
2.093033120589044
 30
0.0
 10
72.04815851599834
 20
0.7032064283754395
 30
0.0
 10
73.46215502831225
 20
-0.7171667251637255
 30
0.0
 10
74.87725223688592
 20
-2.123104434474177
 30
0.0
 10
76.27962601382183
 20
-3.455143474779481
 30
0.0
 10
77.66520993001338
 20
-4.67644059712273
 30
0.0
 10
79.0358759324218
 20
-5.75467845160938
 30
0.0
 10
80.40872584474128
 20
-6.663942359419175
 30
0.0
 10
81.78110157150105
 20
-7.39915486083344
 30
0.0
 10
82.69490829500745
 20
-7.707291862535236
 30
0.0
 10
83.15151407992553
 20
-7.861260020029728
 30
0.0
  0
SPLINE
  5
DB
330
1F
100
AcDbEntity
  8
0
  6
Continuous
 62
     1
370
    15
100
AcDbSpline
210
0.0
220
0.0
230
1.0
 70
     8
 71
     3
 72
    28
 73
    24
 74
     0
 42
0.000000001
 43
0.00000001
 40
0.0
 40
0.0
 40
0.0
 40
0.0
 40
0.0232440548478518
 40
0.0726579622253386
 40
0.1221460723221414
 40
0.1731555105117552
 40
0.2241407827670497
 40
0.2751749240305699
 40
0.3262498690230821
 40
0.3772492640504085
 40
0.4282381168743648
 40
0.4792894016524166
 40
0.5303507634951029
 40
0.5813426495376252
 40
0.6323376233430975
 40
0.6834060204198253
 40
0.7344492272341332
 40
0.7854361429101413
 40
0.8364397744890126
 40
0.8875185315187182
 40
0.9385457325084219
 40
0.9895302193770756
 40
1.0
 40
1.0
 40
1.0
 40
1.0
 10
13.46845310830803
 20
7.159126808982434
 30
0.0
 10
13.68324373291186
 20
7.239217532854869
 30
0.0
 10
14.35465193561037
 20
7.489570959905967
 30
0.0
 10
15.48340912634523
 20
7.668399963163224
 30
0.0
 10
16.87076189406036
 20
7.695273477253489
 30
0.0
 10
18.27070751390321
 20
7.464175749530049
 30
0.0
 10
19.68473891173089
 20
6.988989272869749
 30
0.0
 10
21.10016794910867
 20
6.283014962004651
 30
0.0
 10
22.51683444224172
 20
5.370444873777989
 30
0.0
 10
23.93125323319415
 20
4.278303601831466
 30
0.0
 10
25.34537817348441
 20
3.042223809686343
 30
0.0
 10
26.76132527758345
 20
1.701983892012665
 30
0.0
 10
28.17757745027269
 20
0.2997462907597725
 30
0.0
 10
29.59178881557122
 20
-1.121297128989646
 30
0.0
 10
31.00608623951799
 20
-2.515116472254288
 30
0.0
 10
32.42255208868234
 20
-3.83640311914876
 30
0.0
 10
33.83825592116864
 20
-5.044870737437865
 30
0.0
 10
35.25232419180702
 20
-6.102458765078175
 30
0.0
 10
36.6668663159495
 20
-6.973315179812185
 30
0.0
 10
38.08363227804087
 20
-7.636521081284545
 30
0.0
 10
39.49891794151622
 20
-8.044772854530159
 30
0.0
 10
40.53810496695091
 20
-8.223043794666298
 30
0.0
 10
41.10621149379652
 20
-8.185606688618893
 30
0.0
 10
41.20299811170455
 20
-8.179228640299836
 30
0.0
  0
SPLINE
  5
DC
330
1F
100
AcDbEntity
  8
0
  6
Continuous
 62
     1
370
    15
100
AcDbSpline
210
0.0
220
0.0
230
1.0
 70
     8
 71
     3
 72
    22
 73
    18
 74
     0
 42
0.000000001
 43
0.00000001
 40
0.0
 40
0.0
 40
0.0
 40
0.0
 40
0.0108754139818589
 40
0.0823773908895081
 40
0.1538190425141278
 40
0.2251939886759965
 40
0.2966044770228673
 40
0.3681146120866082
 40
0.4395360997288892
 40
0.5109099124226943
 40
0.582338317061461
 40
0.6538466413153082
 40
0.7230584321407277
 40
0.7922468762673404
 40
0.8615418691803586
 40
0.930816022825256
 40
0.9999999999999999
 40
0.9999999999999999
 40
0.9999999999999999
 40
0.9999999999999999
 10
63.33969291782504
 20
7.171508959990241
 30
0.0
 10
63.41149165092273
 20
7.201122361962823
 30
0.0
 10
63.95534150451216
 20
7.425433343956948
 30
0.0
 10
64.97225739742657
 20
7.617207609479463
 30
0.0
 10
66.38755733531006
 20
7.717241996587646
 30
0.0
 10
67.80159803568334
 20
7.542167172064514
 30
0.0
 10
69.21632487149128
 20
7.125371015710096
 30
0.0
 10
70.63319738542761
 20
6.473448789399155
 30
0.0
 10
72.04815841353782
 20
5.607769326926178
 30
0.0
 10
73.46215505578321
 20
4.555836518151515
 30
0.0
 10
74.87725222950554
 20
3.351113100652345
 30
0.0
 10
76.27962601572972
 20
2.046466329710503
 30
0.0
 10
77.66520992950947
 20
0.6839433419962117
 30
0.0
 10
79.03587593255696
 20
-0.6934472883335561
 30
0.0
 10
80.40872584470522
 20
-2.054166721404502
 30
0.0
 10
81.78110157151005
 20
-3.371153295580066
 30
0.0
 10
82.69490829501045
 20
-4.164976172545009
 30
0.0
 10
83.15151407992553
 20
-4.561629106364203
 30
0.0
  0
SPLINE
  5
DD
330
1F
100
AcDbEntity
  8
0
  6
Continuous
 62
     1
370
    15
100
AcDbSpline
210
0.0
220
0.0
230
1.0
 70
     8
 71
     3
 72
    10
 73
     6
 74
     0
 42
0.000000001
 43
0.00000001
 40
0.0
 40
0.0
 40
0.0
 40
0.0
 40
0.3955089633359558
 40
0.7909553054148305
 40
1.0
 40
1.0
 40
1.0
 40
1.0
 10
9.999514079925532
 20
-8.171608528592074
 30
0.0
 10
10.45691544431376
 20
-8.185224420454686
 30
0.0
 10
11.37164575235874
 20
-8.212454048364641
 30
0.0
 10
12.5284067204699
 20
-8.025692420706763
 30
0.0
 10
13.22690046041168
 20
-7.771559686950248
 30
0.0
 10
13.46845310830798
 20
-7.683675671323808
 30
0.0
  0
SPLINE
  5
DE
330
1F
100
AcDbEntity
  8
0
  6
Continuous
 62
     1
370
    15
100
AcDbSpline
210
0.0
220
0.0
230
1.0
 70
     8
 71
     3
 72
    27
 73
    23
 74
     0
 42
0.000000001
 43
0.00000001
 40
0.0
 40
0.0
 40
0.0
 40
0.0
 40
0.0382859973417314
 40
0.0893647846372927
 40
0.1403920158623037
 40
0.1913765329409552
 40
0.2423913841943083
 40
0.2934734124463362
 40
0.3444871555939822
 40
0.395471786861989
 40
0.4465003526325261
 40
0.4975785004737882
 40
0.5485812812625124
 40
0.5995685696504365
 40
0.6506133669075741
 40
0.7016805158019317
 40
0.7526748664270764
 40
0.8036673532928954
 40
0.854730255749594
 40
0.9057799288279351
 40
0.9567683864693338
 40
1.0
 40
1.0
 40
1.0
 40
1.0
 10
35.60484349194167
 20
7.651649427864688
 30
0.0
 10
35.95865350164151
 20
7.64735468075441
 30
0.0
 10
36.78449473641799
 20
7.637330150188944
 30
0.0
 10
38.08366003454415
 20
7.326770826546495
 30
0.0
 10
39.4988657882554
 20
6.778423473587855
 30
0.0
 10
40.91287082754661
 20
5.998399147244906
 30
0.0
 10
42.32772930359335
 20
5.021923535746696
 30
0.0
 10
43.74461106997726
 20
3.87849157457252
 30
0.0
 10
45.15943850662155
 20
2.602754688672279
 30
0.0
 10
46.57344180588402
 20
1.236227153889914
 30
0.0
 10
47.98870601398558
 20
-0.1777330798263356
 30
0.0
 10
49.40546882779346
 20
-1.593236612357323
 30
0.0
 10
50.81998167327053
 20
-2.967998636900053
 30
0.0
 10
52.23406093006823
 20
-4.256752209295018
 30
0.0
 10
53.64981138010351
 20
-5.418437444171397
 30
0.0
 10
55.06623855822668
 20
-6.416312742545695
 30
0.0
 10
56.48051730431008
 20
-7.219984191482693
 30
0.0
 10
57.89474693004268
 20
-7.802408945606662
 30
0.0
 10
59.31103664977258
 20
-8.147203817345844
 30
0.0
 10
60.72696503579351
 20
-8.235765470470545
 30
0.0
 10
62.0691846558037
 20
-8.102691580590193
 30
0.0
 10
62.94008979699013
 20
-7.823953188063768
 30
0.0
 10
63.339692917825
 20
-7.696057822331605
 30
0.0
  0
SPLINE
  5
DF
330
1F
100
AcDbEntity
  8
0
  6
Continuous
 62
     1
370
    15
100
AcDbSpline
210
0.0
220
0.0
230
1.0
 70
    24
 71
     3
 72
    15
 73
    11
 74
     0
 42
0.000000001
 43
0.00000001
 40
0.0
 40
0.0
 40
0.0
 40
0.0
 40
0.0762280878099217
 40
0.214277546551575
 40
0.3563304489488707
 40
0.4943799076905241
 40
0.6364328100878199
 40
0.7744822688294732
 40
0.9165351712267705
 40
1.0
 40
1.0
 40
1.0
 40
1.0
 10
9.999514079925522
 20
-5.657426223108932
 30
0.0
 10
9.999514079925522
 20
-5.654439008715798
 30
0.0
 10
9.999514079925522
 20
-5.646041933706117
 30
0.0
 10
9.99951407992552
 20
-5.756319741858553
 30
0.0
 10
9.999514079925522
 20
-5.974082484823457
 30
0.0
 10
9.999514079925522
 20
-6.303245124607473
 30
0.0
 10
9.999514079925522
 20
-6.721305476560066
 30
0.0
 10
9.99951407992552
 20
-7.226527293934923
 30
0.0
 10
9.999514079925522
 20
-7.718625612372507
 30
0.0
 10
9.999514079925522
 20
-8.049245177254894
 30
0.0
 10
9.999514079925522
 20
-8.171608528592099
 30
0.0
  0
SPLINE
  5
E0
330
1F
100
AcDbEntity
  8
0
  6
Continuous
 62
     1
370
    15
100
AcDbSpline
210
0.0
220
0.0
230
1.0
 70
     8
 71
     3
 72
    12
 73
     8
 74
     0
 42
0.000000001
 43
0.00000001
 40
0.0
 40
0.0
 40
0.0
 40
0.0
 40
0.2188649892830455
 40
0.4376953254936439
 40
0.6562269443896873
 40
0.8748759457514043
 40
1.0
 40
1.0
 40
1.0
 40
1.0
 10
9.999514079925532
 20
-5.851507223237524
 30
0.0
 10
10.45692037253178
 20
-6.159834100608999
 30
0.0
 10
11.37166053623252
 20
-6.776439037705716
 30
0.0
 10
12.74334534931099
 20
-7.465158188136694
 30
0.0
 10
14.11298962559111
 20
-7.941163153767454
 30
0.0
 10
15.2874187732929
 20
-8.185145118664884
 30
0.0
 10
16.00616517316518
 20
-8.174604244665868
 30
0.0
 10
16.26776933923033
 20
-8.170767652854625
 30
0.0
  0
SPLINE
  5
E1
330
1F
100
AcDbEntity
  8
0
  6
Continuous
 62
     1
370
    15
100
AcDbSpline
210
0.0
220
0.0
230
1.0
 70
     8
 71
     3
 72
    27
 73
    23
 74
     0
 42
0.000000001
 43
0.00000001
 40
0.0
 40
0.0
 40
0.0
 40
0.0
 40
0.0394100547412155
 40
0.0903942685536746
 40
0.1414088163604018
 40
0.1924905407662211
 40
0.2435039804738325
 40
0.294488308474968
 40
0.3455165707173021
 40
0.3965944147354371
 40
0.4475968921493331
 40
0.4985838772545804
 40
0.5496283708869671
 40
0.6006952160236217
 40
0.6516892633240822
 40
0.7026814468763031
 40
0.7537440456005569
 40
0.804793415025145
 40
0.8557815693769122
 40
0.9067814896432563
 40
0.9578570327454677
 40
1.0
 40
1.0
 40
1.0
 40
1.0
 10
38.40609383713201
 20
7.165971766417472
 30
0.0
 10
38.77048676854162
 20
7.286578887391647
 30
0.0
 10
39.60628952794384
 20
7.563213684131055
 30
0.0
 10
40.91284703836389
 20
7.707352702858453
 30
0.0
 10
42.32773568912805
 20
7.638605522705117
 30
0.0
 10
43.7446093605422
 20
7.312172351116247
 30
0.0
 10
45.15943896411145
 20
6.747277398633456
 30
0.0
 10
46.5734416831705
 20
5.959552429044246
 30
0.0
 10
47.98870604708397
 20
4.974694725373518
 30
0.0
 10
49.40546881830751
 20
3.824722147218009
 30
0.0
 10
50.81998167814926
 20
2.543979870956453
 30
0.0
 10
52.23406092002671
 20
1.174360220434465
 30
0.0
 10
53.64981141543898
 20
-0.2403357282462183
 30
0.0
 10
55.06623842696068
 20
-1.655190059655152
 30
0.0
 10
56.48051779325112
 20
-3.02704897106043
 30
0.0
 10
57.89474510425681
 20
-4.311119868870307
 30
0.0
 10
59.31104347344632
 20
-5.466088505008165
 30
0.0
 10
60.72693959090849
 20
-6.455905279450147
 30
0.0
 10
62.14105756364674
 20
-7.251664215150586
 30
0.0
 10
63.55547908559112
 20
-7.81855582213282
 30
0.0
 10
64.88998716252233
 20
-8.151780016245656
 30
0.0
 10
65.75173389425305
 20
-8.172351235488083
 30
0.0
 10
66.14131922615812
 20
-8.181651236266916
 30
0.0
  0
LINE
  5
E4
330
1F
100
AcDbEntity
  8
0
  6
Continuous
 62
     1
370
    15
100
AcDbLine
 10
86.19951407992552
 20
-0.2622744311706875
 30
0.0
 11
86.19951407992552
 21
6.151225568829313
 31
0.0
  0
LINE
  5
E5
330
1F
100
AcDbEntity
  8
0
  6
Continuous
 62
     1
370
    15
100
AcDbLine
 10
86.19951407992559
 20
-6.675774431170687
 30
0.0
 11
86.19951407992552
 21
-0.2622744311706875
 31
0.0
  0
LINE
  5
E9
330
1F
100
AcDbEntity
  8
0
  6
Continuous
 62
     8
370
    15
100
AcDbLine
 10
83.15151407992552
 20
7.665775663541067
 30
0.0
 11
83.15151407992553
 21
7.675225568829309
 31
0.0
  0
LINE
  5
EA
330
1F
100
AcDbEntity
  8
중심선
100
AcDbLine
 10
-43.80048592007447
 20
-0.2622744311706912
 30
0.0
 11
89.19951407992554
 21
-0.2622744311706912
 31
0.0
  0
CIRCLE
  5
EB
330
1F
100
AcDbEntity
  8
외형선
100
AcDbCircle
 10
-0.0004859200744782
 20
-0.2622744311706944
 30
0.0
 40
3.000000000000001
  0
INSERT
  5
EC
330
1F
100
AcDbEntity
  8
0
  6
Continuous
 62
     7
100
AcDbBlockReference
 66
     1
  2
블럭10
 10
-16.62984641916796
 20
-52.04907070757051
 30
0.0
  0
ATTRIB
  5
ED
330
EC
100
AcDbEntity
  8
FORMAT
 62
     2
100
AcDbText
 10
-27.68086677135242
 20
-49.97370379473831
 30
0.0
 40
4.233333333333333
  1
GMG23939[ 6 FLUTE ]
 41
0.75
  7
SLDTEXTSTYLE0
 11
-27.68086677135242
 21
-52.09037046140498
 31
0.0
100
AcDbAttribute
  2
AUTOATTR0
 70
     0
 74
     1
  0
SEQEND
  5
EE
330
EC
100
AcDbEntity
  8
0
  6
Continuous
 62
     7
  0
HATCH
  5
EF
330
1F
100
AcDbEntity
  8
중심선
100
AcDbHatch
 10
0.0
 20
0.0
 30
0.0
210
0.0
220
0.0
230
1.0
  2
SOLID
 70
     1
 71
     0
 91
        1
 92
        0
 93
        4
 72
     1
 10
-10.91493711478711
 20
-35.80189640592657
 11
-14.36121235862439
 21
-35.80189640592657
 72
     1
 10
-14.36121235862439
 20
-35.80189640592657
 11
-16.48944221782842
 21
-38.33822198649916
 72
     1
 10
-16.48944221782842
 20
-38.33822198649916
 11
-13.04313388887798
 21
-38.33818255719667
 72
     1
 10
-13.04313388887798
 20
-38.33818255719667
 11
-10.91493711478711
 21
-35.80189640592657
 97
        0
 75
     0
 76
     1
 98
        1
 10
0.0
 20
0.0
  0
HATCH
  5
F0
330
1F
100
AcDbEntity
  8
중심선
100
AcDbHatch
 10
0.0
 20
0.0
 30
0.0
210
0.0
220
0.0
230
1.0
  2
SOLID
 70
     1
 71
     0
 91
        1
 92
        0
 93
        4
 72
     1
 10
-5.902173123751159
 20
-35.80189640592657
 11
-9.348448367588441
 21
-35.80189640592657
 72
     1
 10
-9.348448367588441
 20
-35.80189640592657
 11
-13.87958637594583
 21
-41.20189640592658
 72
     1
 10
-13.87958637594583
 20
-41.20189640592658
 11
-10.43331113210855
 21
-41.20189640592658
 72
     1
 10
-10.43331113210855
 20
-41.20189640592658
 11
-5.902173123751159
 21
-35.80189640592657
 97
        0
 75
     0
 76
     1
 98
        1
 10
0.0
 20
0.0
  0
HATCH
  5
F1
330
1F
100
AcDbEntity
  8
중심선
100
AcDbHatch
 10
0.0
 20
0.0
 30
0.0
210
0.0
220
0.0
230
1.0
  2
SOLID
 70
     1
 71
     0
 91
        1
 92
        0
 93
        4
 72
     1
 10
-0.8894091327152631
 20
-35.8018964059266
 11
-4.335684376552379
 21
-35.80189640592657
 72
     1
 10
-4.335684376552379
 20
-35.80189640592657
 11
-11.38412127844163
 21
-44.20189640592659
 72
     1
 10
-11.38412127844163
 20
-44.20189640592659
 11
-7.937846034604346
 21
-44.20189640592659
 72
     1
 10
-7.937846034604346
 20
-44.20189640592659
 11
-0.8894091327152633
 21
-35.8018964059266
 97
        0
 75
     0
 76
     1
 98
        1
 10
0.0
 20
0.0
  0
HATCH
  5
F2
330
1F
100
AcDbEntity
  8
중심선
100
AcDbHatch
 10
0.0
 20
0.0
 30
0.0
210
0.0
220
0.0
230
1.0
  2
SOLID
 70
     1
 71
     0
 91
        1
 92
        0
 93
        6
 72
     3
 10
3.910481298296936
 20
-40.00189640597785
 11
3.960054785062284
 21
1.540850780301639E-10
 40
0.3939339440162633
 50
17.09539180608434
 51
320.0019657685079
 73
     0
 72
     1
 10
5.593480953997531
 20
-38.58979041056487
 11
7.89878282769857
 21
-36.65546370051695
 72
     3
 10
3.91048129824409
 20
-40.00189640592671
 11
6.600054785286829
 21
-1.249000902703301E-13
 40
0.6363583540795982
 50
39.99873849337408
 51
368.4976242363724
 73
     1
 72
     1
 10
10.3358137901447
 20
-39.04189640585659
 11
2.590548605080012
 21
-39.04189640585656
 72
     1
 10
2.590548605080012
 20
-39.04189640585656
 11
2.590523560634078
 21
-40.96189640585649
 72
     1
 10
2.590523560634078
 20
-40.96189640585649
 11
7.031903330106115
 21
-40.96189640585646
 97
        0
 75
     0
 76
     1
 98
        1
 10
0.0
 20
0.0
  0
POINT
  5
F3
330
1F
100
AcDbEntity
  8
치수문자_일반주서
100
AcDbPoint
 10
-0.0004859200744782
 20
-0.2622744311706944
 30
0.0
  0
DIMENSION
  5
F4
330
1F
100
AcDbEntity
  8
치수문자_일반주서
100
AcDbDimension
  2
_D
 10
101.7342597956985
 20
7.665775663541126
 30
0.0
 11
101.7342597956985
 21
3.994221878887528
 31
0.0
 70
   160
  1
%%c<>
 71
     2
 42
15.86555009471174
 52
-270.0
  3
SLDDIMSTYLE0
100
AcDbAlignedDimension
 13
83.15151407992553
 23
-8.199774431170688
 33
0.0
 14
83.08901407992553
 24
7.665775663541057
 34
0.0
 50
90.0000000000002
100
AcDbRotatedDimension
1001
ACAD
1000
DSTYLE
1002
{
1070
   171
1070
     3
1070
   273
1070
     7
1002
}
  0
DIMENSION
  5
109
330
1F
100
AcDbEntity
  8
치수문자_일반주서
100
AcDbDimension
  2
_D_1
 10
86.19951407992554
 20
40.33077698690109
 30
0.0
 11
22.69951407992552
 21
40.33077698690109
 31
0.0
 70
   160
  1
<>
 71
     2
 42
127.0
  3
SLDDIMSTYLE0
100
AcDbAlignedDimension
 13
-40.80048592007449
 23
7.175225568829306
 33
0.0
 14
86.19951407992552
 24
4.627225568829314
 34
0.0
 50
-0.0000000000000064
100
AcDbRotatedDimension
1001
ACAD
1000
DSTYLE
1002
{
1070
   171
1070
     3
1070
   273
1070
     7
1002
}
  0
DIMENSION
  5
11D
330
1F
100
AcDbEntity
  8
치수문자_일반주서
100
AcDbDimension
  2
_D_2
 10
9.999514079925518
 20
22.25422009916724
 30
0.0
 11
47.26131747562998
 21
22.25422009916724
 31
0.0
 70
   160
  1
<>
 71
     2
 42
76.2
  3
SLDDIMSTYLE0
100
AcDbAlignedDimension
 13
86.19951407992552
 23
4.627225568829314
 33
0.0
 14
9.99951407992552
 24
-8.199774431170688
 34
0.0
 50
0.0000000000000107
100
AcDbRotatedDimension
1001
ACAD
1000
DSTYLE
1002
{
1070
   171
1070
     3
1070
   273
1070
     7
1002
}
  0
INSERT
  5
148
330
1F
100
AcDbEntity
  8
외형선
100
AcDbBlockReference
  2
SW_DOWELSYMBOL_0
 10
-0.0004859200744782
 20
-0.2622744311706944
 30
0.0
  0
DIMENSION
  5
16E
330
1F
100
AcDbEntity
  8
치수문자_일반주서
100
AcDbDimension
  2
*D8
 10
-48.8913050602423
 20
-8.199774431170692
 30
0.0
 11
-48.8913050602423
 21
-0.2622744311706917
 31
0.0
 70
   160
  1
{%%C<>[]}
 71
     5
 42
15.875
  3
SLDDIMSTYLE0
100
AcDbAlignedDimension
 13
-40.30048592007449
 23
7.675225568829309
 33
0.0
 14
-40.30048592007449
 24
-8.199774431170692
 34
0.0
 50
90.0
100
AcDbRotatedDimension
1001
ACAD
1000
DSTYLE
1002
{
1070
   283
1070
     1
1070
   170
1070
     1
1070
   171
1070
     3
1070
   273
1070
     7
1002
}
  0
ARC
  5
180
330
1F
100
AcDbEntity
  8
0
  6
Continuous
 62
     1
370
    15
100
AcDbCircle
 10
84.67551407992552
 20
6.151225568829313
 30
0.0
 40
1.524
100
AcDbArc
 50
0.0
 51
83.61613724112073
  0
ARC
  5
184
330
1F
100
AcDbEntity
  8
0
  6
Continuous
 62
     1
370
    15
100
AcDbCircle
 10
84.67551407992559
 20
-6.675774431170707
 30
0.0
 40
1.524
100
AcDbArc
 50
276.3838627588803
 51
0.0000000000007346
  0
DIMENSION
  5
185
330
1F
100
AcDbEntity
  8
치수문자_일반주서
100
AcDbDimension
  2
*D9
 10
84.67551407992552
 20
6.151225568829313
 30
0.0
 11
97.64537996715151
 21
25.41342305327723
 31
0.0
 70
   164
  1
<>
 71
     5
 42
1.524
  3
SLDDIMSTYLE0
100
AcDbRadialDimension
 15
85.52670210891267
 25
7.415367546341715
 35
0.0
 40
0.0
1001
ACAD
1000
DSTYLE
1002
{
1070
   171
1070
     3
1070
   273
1070
     2
1002
}
1001
ACAD_DSTYLE_DIMRADIAL_EXTENSION
1070
   387
1070
     1
1070
   388
1040
0.0
1070
   390
1040
1.459376902657004
  0
LINE
  5
1EF
330
1F
100
AcDbEntity
  8
0
  6
Continuous
 62
     4
370
    15
100
AcDbLine
 10
-21.68381092007451
 20
6.024225568829273
 30
0.0
 11
-11.49841092007449
 21
6.024225568829273
 31
0.0
  0
LINE
  5
1F0
330
1F
100
AcDbEntity
  8
0
  6
Continuous
 62
     4
370
    15
100
AcDbLine
 10
-21.68381092007451
 20
6.024225568829372
 30
0.0
 11
-23.33481092007446
 21
7.675225568829283
 31
0.0
  0
LINE
  5
1F1
330
1F
100
AcDbEntity
  8
0
  6
Continuous
 62
     4
370
    15
100
AcDbLine
 10
-11.4984109200746
 20
6.024225568829372
 30
0.0
 11
-9.847410920074594
 21
7.675225568829283
 31
0.0
  0
LINE
  5
1F2
330
1F
100
AcDbEntity
  8
0
  6
Continuous
 62
     4
370
    15
100
AcDbLine
 10
-23.3348109200745
 20
7.67522556882931
 30
0.0
 11
-40.30048592007449
 21
7.675225568829309
 31
0.0
  0
ENDSEC
  0
SECTION
  2
OBJECTS
  0
DICTIONARY
  5
C
330
0
100
AcDbDictionary
281
     1
  3
ACAD_GROUP
350
D
  3
ACAD_IMAGE_VARS
350
16C
  3
ACAD_LAYOUT
350
1A
  3
ACAD_MLINESTYLE
350
17
  3
ACAD_PLOTSETTINGS
350
19
  3
ACAD_PLOTSTYLENAME
350
E
  3
ACAD_SCALELIST
350
47
  3
APPDATA
350
16A
  3
DWGPROPS
350
217
  0
DICTIONARY
  5
1E1
330
2
100
AcDbDictionary
280
     1
281
     1
  3
ACAD_LAYERSTATES
360
1E2
  0
DICTIONARY
  5
215
330
1F
100
AcDbDictionary
280
     1
281
     1
  3
DIM_BOUNDING_BOXES_V1
360
216
  0
DICTIONARY
  5
D
102
{ACAD_REACTORS
330
C
102
}
330
C
100
AcDbDictionary
281
     1
  0
RASTERVARIABLES
  5
16C
102
{ACAD_REACTORS
330
C
102
}
330
C
100
AcDbRasterVariables
 90
        0
 70
     1
 71
     1
 72
     1
  0
DICTIONARY
  5
1A
102
{ACAD_REACTORS
330
C
102
}
330
C
100
AcDbDictionary
281
     1
  3
Layout1
350
1E
  3
Layout2
350
26
  3
Model
350
22
  0
DICTIONARY
  5
17
102
{ACAD_REACTORS
330
C
102
}
330
C
100
AcDbDictionary
281
     1
  3
Standard
350
18
  0
DICTIONARY
  5
19
102
{ACAD_REACTORS
330
C
102
}
330
C
100
AcDbDictionary
281
     1
  0
ACDBDICTIONARYWDFLT
  5
E
102
{ACAD_REACTORS
330
C
102
}
330
C
100
AcDbDictionary
281
     1
  3
Normal
350
F
100
AcDbDictionaryWithDefault
340
F
  0
DICTIONARY
  5
47
102
{ACAD_REACTORS
330
C
102
}
330
C
100
AcDbDictionary
281
     1
  3
A0
350
48
  3
A1
350
49
  3
A2
350
4A
  3
A3
350
4B
  3
A4
350
4C
  3
A5
350
4D
  3
A6
350
4E
  3
A7
350
4F
  3
A8
350
50
  3
A9
350
51
  3
B0
350
52
  3
B1
350
53
  3
B2
350
54
  3
B3
350
55
  3
B4
350
56
  3
B5
350
57
  3
B6
350
58
  3
B7
350
59
  3
B8
350
5A
  3
B9
350
5B
  3
C0
350
5C
  3
C1
350
5D
  3
C2
350
5E
  3
C3
350
5F
  3
C4
350
60
  3
C5
350
61
  3
C6
350
62
  3
C7
350
63
  3
C8
350
64
  3
C9
350
65
  3
D0
350
66
  3
D1
350
67
  3
D2
350
68
  0
DICTIONARY
  5
16A
102
{ACAD_REACTORS
330
C
102
}
330
C
100
AcDbDictionary
281
     1
  0
XRECORD
  5
217
102
{ACAD_REACTORS
330
C
102
}
330
C
100
AcDbXrecord
280
     1
  1
DWGPROPS COOKIE
  2

  3

  4

  6

  7

  8
12015018
  9

300
=
301
=
302
=
303
=
304
=
305
=
306
=
307
=
308
=
309
=
 40
0.0
 41
2458236.37296875
 42
2459697.067902755
  1

 90
        0
  0
DICTIONARY
  5
1E2
102
{ACAD_REACTORS
330
1E1
102
}
330
1E1
100
AcDbDictionary
281
     1
  0
DICTIONARY
  5
216
102
{ACAD_REACTORS
330
215
102
}
330
215
100
AcDbDictionary
281
     1
  0
LAYOUT
  5
1E
102
{ACAD_REACTORS
330
1A
102
}
330
1A
100
AcDbPlotSettings
  1

  2
none_device
  4

  6

 40
0.0
 41
0.0
 42
0.0
 43
0.0
 44
0.0
 45
0.0
 46
0.0
 47
0.0
 48
0.0
 49
0.0
140
0.0
141
0.0
142
1.0
143
1.0
 70
   688
 72
     1
 73
     0
 74
     5
  7

 75
    16
147
1.0
148
0.0
149
0.0
100
AcDbLayout
  1
Layout1
 70
     1
 71
     1
 10
0.0
 20
0.0
 11
420.0
 21
297.0
 12
0.0
 22
0.0
 32
0.0
 14
1.000000000000000E+20
 24
1.000000000000000E+20
 34
1.000000000000000E+20
 15
-1.000000000000000E+20
 25
-1.000000000000000E+20
 35
-1.000000000000000E+20
146
0.0
 13
0.0
 23
0.0
 33
0.0
 16
1.0
 26
0.0
 36
0.0
 17
0.0
 27
1.0
 37
0.0
 76
     0
330
1B
  0
LAYOUT
  5
26
102
{ACAD_REACTORS
330
1A
102
}
330
1A
100
AcDbPlotSettings
  1

  2
none_device
  4

  6

 40
0.0
 41
0.0
 42
0.0
 43
0.0
 44
0.0
 45
0.0
 46
0.0
 47
0.0
 48
0.0
 49
0.0
140
0.0
141
0.0
142
1.0
143
1.0
 70
   688
 72
     1
 73
     0
 74
     5
  7

 75
    16
147
1.0
148
0.0
149
0.0
100
AcDbLayout
  1
Layout2
 70
     1
 71
     2
 10
0.0
 20
0.0
 11
0.0
 21
0.0
 12
0.0
 22
0.0
 32
0.0
 14
0.0
 24
0.0
 34
0.0
 15
0.0
 25
0.0
 35
0.0
146
0.0
 13
0.0
 23
0.0
 33
0.0
 16
1.0
 26
0.0
 36
0.0
 17
0.0
 27
1.0
 37
0.0
 76
     0
330
23
  0
LAYOUT
  5
22
102
{ACAD_REACTORS
330
1A
102
}
330
1A
100
AcDbPlotSettings
  1

  2
none_device
  4
ANSI_A_(11.00_x_8.50_Inches)
  6

 40
6.35
 41
19.05
 42
6.35000508
 43
19.05000254
 44
279.4
 45
215.9
 46
78.1921821748933
 47
88.63870220843127
 48
0.0
 49
0.0
140
0.0
141
0.0
142
0.0506775322124551
143
1.0
 70
  1696
 72
     0
 73
     0
 74
     0
  7

 75
     0
147
0.0235690232323232
148
0.0
149
0.0
100
AcDbLayout
  1
Model
 70
     1
 71
     0
 10
0.0
 20
0.0
 11
420.0
 21
297.0
 12
0.0
 22
0.0
 32
0.0
 14
-53.2663050602423
 24
-49.97370379473831
 34
-0.0000000000000001
 15
106.075576366446
 25
44.70577698690109
 35
0.0000000000000001
146
0.0
 13
0.0
 23
0.0
 33
0.0
 16
1.0
 26
0.0
 36
0.0
 17
0.0
 27
1.0
 37
0.0
 76
     0
330
1F
331
29
  0
MLINESTYLE
  5
18
102
{ACAD_REACTORS
330
17
102
}
330
17
100
AcDbMlineStyle
  2
Standard
 70
     0
  3

 62
   256
 51
90.0
 52
90.0
 71
     2
 49
0.5
 62
   256
  6
BYLAYER
 49
-0.5
 62
   256
  6
BYLAYER
  0
ACDBPLACEHOLDER
  5
F
102
{ACAD_REACTORS
330
E
102
}
330
E
  0
SCALE
  5
48
102
{ACAD_REACTORS
330
47
102
}
330
47
100
AcDbScale
 70
     0
300
1:1
140
1.0
141
1.0
290
     1
  0
SCALE
  5
49
102
{ACAD_REACTORS
330
47
102
}
330
47
100
AcDbScale
 70
     0
300
1:2
140
1.0
141
2.0
290
     0
  0
SCALE
  5
4A
102
{ACAD_REACTORS
330
47
102
}
330
47
100
AcDbScale
 70
     0
300
1:4
140
1.0
141
4.0
290
     0
  0
SCALE
  5
4B
102
{ACAD_REACTORS
330
47
102
}
330
47
100
AcDbScale
 70
     0
300
1:5
140
1.0
141
5.0
290
     0
  0
SCALE
  5
4C
102
{ACAD_REACTORS
330
47
102
}
330
47
100
AcDbScale
 70
     0
300
1:8
140
1.0
141
8.0
290
     0
  0
SCALE
  5
4D
102
{ACAD_REACTORS
330
47
102
}
330
47
100
AcDbScale
 70
     0
300
1:10
140
1.0
141
10.0
290
     0
  0
SCALE
  5
4E
102
{ACAD_REACTORS
330
47
102
}
330
47
100
AcDbScale
 70
     0
300
1:16
140
1.0
141
16.0
290
     0
  0
SCALE
  5
4F
102
{ACAD_REACTORS
330
47
102
}
330
47
100
AcDbScale
 70
     0
300
1:20
140
1.0
141
20.0
290
     0
  0
SCALE
  5
50
102
{ACAD_REACTORS
330
47
102
}
330
47
100
AcDbScale
 70
     0
300
1:30
140
1.0
141
30.0
290
     0
  0
SCALE
  5
51
102
{ACAD_REACTORS
330
47
102
}
330
47
100
AcDbScale
 70
     0
300
1:40
140
1.0
141
40.0
290
     0
  0
SCALE
  5
52
102
{ACAD_REACTORS
330
47
102
}
330
47
100
AcDbScale
 70
     0
300
1:50
140
1.0
141
50.0
290
     0
  0
SCALE
  5
53
102
{ACAD_REACTORS
330
47
102
}
330
47
100
AcDbScale
 70
     0
300
1:100
140
1.0
141
100.0
290
     0
  0
SCALE
  5
54
102
{ACAD_REACTORS
330
47
102
}
330
47
100
AcDbScale
 70
     0
300
2:1
140
2.0
141
1.0
290
     0
  0
SCALE
  5
55
102
{ACAD_REACTORS
330
47
102
}
330
47
100
AcDbScale
 70
     0
300
4:1
140
4.0
141
1.0
290
     0
  0
SCALE
  5
56
102
{ACAD_REACTORS
330
47
102
}
330
47
100
AcDbScale
 70
     0
300
8:1
140
8.0
141
1.0
290
     0
  0
SCALE
  5
57
102
{ACAD_REACTORS
330
47
102
}
330
47
100
AcDbScale
 70
     0
300
10:1
140
10.0
141
1.0
290
     0
  0
SCALE
  5
58
102
{ACAD_REACTORS
330
47
102
}
330
47
100
AcDbScale
 70
     0
300
100:1
140
100.0
141
1.0
290
     0
  0
SCALE
  5
59
102
{ACAD_REACTORS
330
47
102
}
330
47
100
AcDbScale
 70
     0
300
1/128" = 1'-0"
140
0.0078125
141
12.0
290
     0
  0
SCALE
  5
5A
102
{ACAD_REACTORS
330
47
102
}
330
47
100
AcDbScale
 70
     0
300
1/64" = 1'-0"
140
0.015625
141
12.0
290
     0
  0
SCALE
  5
5B
102
{ACAD_REACTORS
330
47
102
}
330
47
100
AcDbScale
 70
     0
300
1/32" = 1'-0"
140
0.03125
141
12.0
290
     0
  0
SCALE
  5
5C
102
{ACAD_REACTORS
330
47
102
}
330
47
100
AcDbScale
 70
     0
300
1/16" = 1'-0"
140
0.0625
141
12.0
290
     0
  0
SCALE
  5
5D
102
{ACAD_REACTORS
330
47
102
}
330
47
100
AcDbScale
 70
     0
300
3/32" = 1'-0"
140
0.09375
141
12.0
290
     0
  0
SCALE
  5
5E
102
{ACAD_REACTORS
330
47
102
}
330
47
100
AcDbScale
 70
     0
300
1/8" = 1'-0"
140
0.125
141
12.0
290
     0
  0
SCALE
  5
5F
102
{ACAD_REACTORS
330
47
102
}
330
47
100
AcDbScale
 70
     0
300
3/16" = 1'-0"
140
0.1875
141
12.0
290
     0
  0
SCALE
  5
60
102
{ACAD_REACTORS
330
47
102
}
330
47
100
AcDbScale
 70
     0
300
1/4" = 1'-0"
140
0.25
141
12.0
290
     0
  0
SCALE
  5
61
102
{ACAD_REACTORS
330
47
102
}
330
47
100
AcDbScale
 70
     0
300
3/8" = 1'-0"
140
0.375
141
12.0
290
     0
  0
SCALE
  5
62
102
{ACAD_REACTORS
330
47
102
}
330
47
100
AcDbScale
 70
     0
300
1/2" = 1'-0"
140
0.5
141
12.0
290
     0
  0
SCALE
  5
63
102
{ACAD_REACTORS
330
47
102
}
330
47
100
AcDbScale
 70
     0
300
3/4" = 1'-0"
140
0.75
141
12.0
290
     0
  0
SCALE
  5
64
102
{ACAD_REACTORS
330
47
102
}
330
47
100
AcDbScale
 70
     0
300
1" = 1'-0"
140
1.0
141
12.0
290
     0
  0
SCALE
  5
65
102
{ACAD_REACTORS
330
47
102
}
330
47
100
AcDbScale
 70
     0
300
1-1/2" = 1'-0"
140
1.5
141
12.0
290
     0
  0
SCALE
  5
66
102
{ACAD_REACTORS
330
47
102
}
330
47
100
AcDbScale
 70
     0
300
3" = 1'-0"
140
3.0
141
12.0
290
     0
  0
SCALE
  5
67
102
{ACAD_REACTORS
330
47
102
}
330
47
100
AcDbScale
 70
     0
300
6" = 1'-0"
140
6.0
141
12.0
290
     0
  0
SCALE
  5
68
102
{ACAD_REACTORS
330
47
102
}
330
47
100
AcDbScale
 70
     0
300
1'-0" = 1'-0"
140
12.0
141
12.0
290
     0
  0
ENDSEC
  0
EOF
