  0
SECTION
  2
HEADER
  9
$ACADVER
  1
AC1015
  9
$ACADMAINTVER
 70
     6
  9
$DWGCODEPAGE
  3
ANSI_949
  9
$INSBASE
 10
0.0
 20
0.0
 30
0.0
  9
$EXTMIN
 10
-54.38042929291704
 20
-49.71142936356762
 30
0.0
  9
$EXTMAX
 10
80.52506644379285
 20
44.96805141807178
 30
0.0
  9
$LIMMIN
 10
0.0
 20
0.0
  9
$LIMMAX
 10
420.0
 20
297.0
  9
$ORTHOMODE
 70
     0
  9
$REGENMODE
 70
     1
  9
$FILLMODE
 70
     1
  9
$QTEXTMODE
 70
     0
  9
$MIRRTEXT
 70
     1
  9
$LTSCALE
 40
1.0
  9
$ATTMODE
 70
     1
  9
$TEXTSIZE
 40
3.5
  9
$TRACEWID
 40
1.0
  9
$TEXTSTYLE
  7
Standard
  9
$CLAYER
  8
0
  9
$CELTYPE
  6
ByLayer
  9
$CECOLOR
 62
   256
  9
$CELTSCALE
 40
1.0
  9
$DISPSILH
 70
     0
  9
$DIMSCALE
 40
1.0
  9
$DIMASZ
 40
3.302
  9
$DIMEXO
 40
1.0
  9
$DIMDLI
 40
3.75
  9
$DIMRND
 40
0.0
  9
$DIMDLE
 40
0.0
  9
$DIMEXE
 40
1.0
  9
$DIMTP
 40
0.0
  9
$DIMTM
 40
0.0
  9
$DIMTXT
 40
3.5
  9
$DIMCEN
 40
2.5
  9
$DIMTSZ
 40
0.0
  9
$DIMTOL
 70
     0
  9
$DIMLIM
 70
     0
  9
$DIMTIH
 70
     1
  9
$DIMTOH
 70
     1
  9
$DIMSE1
 70
     0
  9
$DIMSE2
 70
     0
  9
$DIMTAD
 70
     1
  9
$DIMZIN
 70
     0
  9
$DIMBLK
  1

  9
$DIMASO
 70
     1
  9
$DIMSHO
 70
     1
  9
$DIMPOST
  1

  9
$DIMAPOST
  1

  9
$DIMALT
 70
     0
  9
$DIMALTD
 70
     3
  9
$DIMALTF
 40
0.0393700787401575
  9
$DIMLFAC
 40
1.0
  9
$DIMTOFL
 70
     1
  9
$DIMTVP
 40
0.0
  9
$DIMTIX
 70
     0
  9
$DIMSOXD
 70
     0
  9
$DIMSAH
 70
     0
  9
$DIMBLK1
  1

  9
$DIMBLK2
  1

  9
$DIMSTYLE
  2
ISO-25
  9
$DIMCLRD
 70
     0
  9
$DIMCLRE
 70
     0
  9
$DIMCLRT
 70
     0
  9
$DIMTFAC
 40
1.0
  9
$DIMGAP
 40
1.524
  9
$DIMJUST
 70
     0
  9
$DIMSD1
 70
     0
  9
$DIMSD2
 70
     0
  9
$DIMTOLJ
 70
     0
  9
$DIMTZIN
 70
     0
  9
$DIMALTZ
 70
     0
  9
$DIMALTTZ
 70
     0
  9
$DIMUPT
 70
     0
  9
$DIMDEC
 70
     2
  9
$DIMTDEC
 70
     2
  9
$DIMALTU
 70
     2
  9
$DIMALTTD
 70
     3
  9
$DIMTXSTY
  7
Standard
  9
$DIMAUNIT
 70
     0
  9
$DIMADEC
 70
     2
  9
$DIMALTRND
 40
0.0
  9
$DIMAZIN
 70
     0
  9
$DIMDSEP
 70
    44
  9
$DIMATFIT
 70
     3
  9
$DIMFRAC
 70
     0
  9
$DIMLDRBLK
  1

  9
$DIMLUNIT
 70
     2
  9
$DIMLWD
 70
    -2
  9
$DIMLWE
 70
    -2
  9
$DIMTMOVE
 70
     0
  9
$LUNITS
 70
     2
  9
$LUPREC
 70
     2
  9
$SKETCHINC
 40
1.0
  9
$FILLETRAD
 40
10.0
  9
$AUNITS
 70
     0
  9
$AUPREC
 70
     2
  9
$MENU
  1
.
  9
$ELEVATION
 40
0.0
  9
$PELEVATION
 40
0.0
  9
$THICKNESS
 40
0.0
  9
$LIMCHECK
 70
     0
  9
$CHAMFERA
 40
0.0
  9
$CHAMFERB
 40
0.0
  9
$CHAMFERC
 40
0.0
  9
$CHAMFERD
 40
0.0
  9
$SKPOLY
 70
     0
  9
$TDCREATE
 40
2458236.747116343
  9
$TDUCREATE
 40
2458236.372116343
  9
$TDUPDATE
 40
2459697.442195741
  9
$TDUUPDATE
 40
2459697.067195741
  9
$TDINDWG
 40
0.0030810185
  9
$TDUSRTIMER
 40
0.000045787
  9
$USRTIMER
 70
     1
  9
$ANGBASE
 50
0.0
  9
$ANGDIR
 70
     0
  9
$PDMODE
 70
     0
  9
$PDSIZE
 40
-1.0
  9
$PLINEWID
 40
0.0
  9
$SPLFRAME
 70
     0
  9
$SPLINETYPE
 70
     6
  9
$SPLINESEGS
 70
     8
  9
$HANDSEED
  5
208
  9
$SURFTAB1
 70
     6
  9
$SURFTAB2
 70
     6
  9
$SURFTYPE
 70
     6
  9
$SURFU
 70
     6
  9
$SURFV
 70
     6
  9
$UCSBASE
  2

  9
$UCSNAME
  2

  9
$UCSORG
 10
0.0
 20
0.0
 30
0.0
  9
$UCSXDIR
 10
1.0
 20
0.0
 30
0.0
  9
$UCSYDIR
 10
0.0
 20
1.0
 30
0.0
  9
$UCSORTHOREF
  2

  9
$UCSORTHOVIEW
 70
     0
  9
$UCSORGTOP
 10
0.0
 20
0.0
 30
0.0
  9
$UCSORGBOTTOM
 10
0.0
 20
0.0
 30
0.0
  9
$UCSORGLEFT
 10
0.0
 20
0.0
 30
0.0
  9
$UCSORGRIGHT
 10
0.0
 20
0.0
 30
0.0
  9
$UCSORGFRONT
 10
0.0
 20
0.0
 30
0.0
  9
$UCSORGBACK
 10
0.0
 20
0.0
 30
0.0
  9
$PUCSBASE
  2

  9
$PUCSNAME
  2

  9
$PUCSORG
 10
0.0
 20
0.0
 30
0.0
  9
$PUCSXDIR
 10
1.0
 20
0.0
 30
0.0
  9
$PUCSYDIR
 10
0.0
 20
1.0
 30
0.0
  9
$PUCSORTHOREF
  2

  9
$PUCSORTHOVIEW
 70
     0
  9
$PUCSORGTOP
 10
0.0
 20
0.0
 30
0.0
  9
$PUCSORGBOTTOM
 10
0.0
 20
0.0
 30
0.0
  9
$PUCSORGLEFT
 10
0.0
 20
0.0
 30
0.0
  9
$PUCSORGRIGHT
 10
0.0
 20
0.0
 30
0.0
  9
$PUCSORGFRONT
 10
0.0
 20
0.0
 30
0.0
  9
$PUCSORGBACK
 10
0.0
 20
0.0
 30
0.0
  9
$USERI1
 70
     0
  9
$USERI2
 70
     0
  9
$USERI3
 70
     0
  9
$USERI4
 70
     0
  9
$USERI5
 70
     0
  9
$USERR1
 40
0.0
  9
$USERR2
 40
0.0
  9
$USERR3
 40
0.0
  9
$USERR4
 40
0.0
  9
$USERR5
 40
0.0
  9
$WORLDVIEW
 70
     1
  9
$SHADEDGE
 70
     3
  9
$SHADEDIF
 70
    70
  9
$TILEMODE
 70
     1
  9
$MAXACTVP
 70
    64
  9
$PINSBASE
 10
0.0
 20
0.0
 30
0.0
  9
$PLIMCHECK
 70
     0
  9
$PEXTMIN
 10
1.000000000000000E+20
 20
1.000000000000000E+20
 30
1.000000000000000E+20
  9
$PEXTMAX
 10
-1.000000000000000E+20
 20
-1.000000000000000E+20
 30
-1.000000000000000E+20
  9
$PLIMMIN
 10
0.0
 20
0.0
  9
$PLIMMAX
 10
0.0
 20
0.0
  9
$UNITMODE
 70
     0
  9
$VISRETAIN
 70
     1
  9
$PLINEGEN
 70
     0
  9
$PSLTSCALE
 70
     1
  9
$TREEDEPTH
 70
  3020
  9
$CMLSTYLE
  2
Standard
  9
$CMLJUST
 70
     0
  9
$CMLSCALE
 40
20.0
  9
$PROXYGRAPHICS
 70
     1
  9
$MEASUREMENT
 70
     1
  9
$CELWEIGHT
370
    -1
  9
$ENDCAPS
280
     0
  9
$JOINSTYLE
280
     0
  9
$LWDISPLAY
290
     1
  9
$INSUNITS
 70
     4
  9
$HYPERLINKBASE
  1

  9
$STYLESHEET
  1

  9
$XEDIT
290
     1
  9
$CEPSNTYPE
380
     0
  9
$PSTYLEMODE
290
     1
  9
$FINGERPRINTGUID
  2
{3CAA589F-AF6E-4BCB-82B9-E20A7CE4CD28}
  9
$VERSIONGUID
  2
{FAEB1C32-E019-11D5-929B-00C0DF256EC4}
  9
$EXTNAMES
290
     1
  9
$PSVPSCALE
 40
0.0
  9
$OLESTARTUP
290
     0
  0
ENDSEC
  0
SECTION
  2
CLASSES
  0
CLASS
  1
ACDBDICTIONARYWDFLT
  2
AcDbDictionaryWithDefault
  3
ObjectDBX Classes
 90
        0
280
     0
281
     0
  0
CLASS
  1
VISUALSTYLE
  2
AcDbVisualStyle
  3
ObjectDBX Classes
 90
     4095
280
     0
281
     0
  0
CLASS
  1
MATERIAL
  2
AcDbMaterial
  3
ObjectDBX Classes
 90
     1153
280
     0
281
     0
  0
CLASS
  1
SCALE
  2
AcDbScale
  3
ObjectDBX Classes
 90
     1153
280
     0
281
     0
  0
CLASS
  1
SUN
  2
AcDbSun
  3
SCENEOE
 90
     1153
280
     0
281
     0
  0
CLASS
  1
ACDBPLACEHOLDER
  2
AcDbPlaceHolder
  3
ObjectDBX Classes
 90
        0
280
     0
281
     0
  0
CLASS
  1
LAYOUT
  2
AcDbLayout
  3
ObjectDBX Classes
 90
        0
280
     0
281
     0
  0
CLASS
  1
TABLESTYLE
  2
AcDbTableStyle
  3
ObjectDBX Classes
 90
     4095
280
     0
281
     0
  0
CLASS
  1
MLEADERSTYLE
  2
AcDbMLeaderStyle
  3
ACDB_MLEADERSTYLE_CLASS
 90
     4095
280
     0
281
     0
  0
CLASS
  1
RASTERVARIABLES
  2
AcDbRasterVariables
  3
ISM
 90
        0
280
     0
281
     0
  0
CLASS
  1
DIMASSOC
  2
AcDbDimAssoc
  3
"AcDbDimAssoc|Product Desc:     AcDim ARX App For Dimension|Company:          Autodesk, Inc.|WEB Address:      www.autodesk.com"
 90
        0
280
     0
281
     0
  0
ENDSEC
  0
SECTION
  2
TABLES
  0
TABLE
  2
VPORT
  5
8
330
0
100
AcDbSymbolTable
 70
     1
  0
VPORT
  5
29
330
8
100
AcDbSymbolTableRecord
100
AcDbViewportTableRecord
  2
*Active
 70
     0
 10
0.0
 20
0.0
 11
1.0
 21
1.0
 12
13.0723185754379
 22
-2.371688972747926
 13
0.0
 23
0.0
 14
10.0
 24
10.0
 15
10.0
 25
10.0
 16
0.0
 26
0.0
 36
1.0
 17
0.0
 27
0.0
 37
0.0
 40
96.57307039727219
 41
1.898569570871261
 42
50.0
 43
0.0
 44
0.0
 50
0.0
 51
0.0
 71
    16
 72
  2000
 73
     1
 74
     3
 75
     0
 76
     0
 77
     0
 78
     0
281
     0
 65
     1
110
0.0
120
0.0
130
0.0
111
1.0
121
0.0
131
0.0
112
0.0
122
1.0
132
0.0
 79
     0
146
0.0
  0
ENDTAB
  0
TABLE
  2
LTYPE
  5
5
330
0
100
AcDbSymbolTable
 70
     6
  0
LTYPE
  5
14
330
5
100
AcDbSymbolTableRecord
100
AcDbLinetypeTableRecord
  2
ByBlock
 70
     0
  3

 72
    65
 73
     0
 40
0.0
  0
LTYPE
  5
15
330
5
100
AcDbSymbolTableRecord
100
AcDbLinetypeTableRecord
  2
ByLayer
 70
     0
  3

 72
    65
 73
     0
 40
0.0
  0
LTYPE
  5
16
330
5
100
AcDbSymbolTableRecord
100
AcDbLinetypeTableRecord
  2
Continuous
 70
     0
  3
Solid line
 72
    65
 73
     0
 40
0.0
  0
LTYPE
  5
6A
330
5
100
AcDbSymbolTableRecord
100
AcDbLinetypeTableRecord
  2
HIDDEN
 70
     0
  3
Hidden __ __ __ __ __ __ __ __ __ __ __ __ __ __
 72
    65
 73
     2
 40
1.905
 49
1.27
 74
     0
 49
-0.635
 74
     0
  0
LTYPE
  5
6B
330
5
100
AcDbSymbolTableRecord
100
AcDbLinetypeTableRecord
  2
PHANTOM
 70
     0
  3
Phantom ______  __  __  ______  __  __  ______
 72
    65
 73
     6
 40
12.7
 49
6.35
 74
     0
 49
-1.27
 74
     0
 49
1.27
 74
     0
 49
-1.27
 74
     0
 49
1.27
 74
     0
 49
-1.27
 74
     0
  0
LTYPE
  5
6C
330
5
100
AcDbSymbolTableRecord
100
AcDbLinetypeTableRecord
  2
CENTER
 70
     0
  3
Center ____ _ ____ _ ____ _ ____ _ ____ _ ____
 72
    65
 73
     4
 40
10.16
 49
6.35
 74
     0
 49
-1.27
 74
     0
 49
1.27
 74
     0
 49
-1.27
 74
     0
  0
LTYPE
  5
6D
330
5
100
AcDbSymbolTableRecord
100
AcDbLinetypeTableRecord
  2
CENTERX2
 70
     0
  3
Center (2x) ________  __  ________  __  _____
 72
    65
 73
     4
 40
20.32
 49
12.7
 74
     0
 49
-2.54
 74
     0
 49
2.54
 74
     0
 49
-2.54
 74
     0
  0
LTYPE
  5
6E
330
5
100
AcDbSymbolTableRecord
100
AcDbLinetypeTableRecord
  2
DOT2
 70
     0
  3
Dot (.5x) ........................................
 72
    65
 73
     2
 40
0.635
 49
0.0
 74
     0
 49
-0.635
 74
     0
  0
ENDTAB
  0
TABLE
  2
LAYER
  5
2
102
{ACAD_XDICTIONARY
360
1D1
102
}
330
0
100
AcDbSymbolTable
 70
    17
  0
LAYER
  5
10
330
2
100
AcDbSymbolTableRecord
100
AcDbLayerTableRecord
  2
0
 70
     0
 62
     7
  6
Continuous
370
    -3
390
F
  0
LAYER
  5
6F
330
2
100
AcDbSymbolTableRecord
100
AcDbLayerTableRecord
  2
FORMAT
 70
     0
 62
     2
  6
Continuous
370
    -3
390
F
  0
LAYER
  5
70
330
2
100
AcDbSymbolTableRecord
100
AcDbLayerTableRecord
  2
외형선
 70
     0
 62
   100
  6
Continuous
370
    30
390
F
  0
LAYER
  5
71
330
2
100
AcDbSymbolTableRecord
100
AcDbLayerTableRecord
  2
숨은선
 70
     0
 62
     2
  6
HIDDEN
370
    15
390
F
  0
LAYER
  5
72
330
2
100
AcDbSymbolTableRecord
100
AcDbLayerTableRecord
  2
중심선
 70
     0
 62
     1
  6
CENTERX2
370
    -3
390
F
  0
LAYER
  5
73
330
2
100
AcDbSymbolTableRecord
100
AcDbLayerTableRecord
  2
파단선
 70
     0
 62
     4
  6
Continuous
370
    -3
390
F
  0
LAYER
  5
74
330
2
100
AcDbSymbolTableRecord
100
AcDbLayerTableRecord
  2
해칭선
 70
     0
 62
     4
  6
Continuous
370
    -3
390
F
  0
LAYER
  5
75
330
2
100
AcDbSymbolTableRecord
100
AcDbLayerTableRecord
  2
가는실선
 70
     0
 62
     4
  6
Continuous
370
    -3
390
F
  0
LAYER
  5
76
330
2
100
AcDbSymbolTableRecord
100
AcDbLayerTableRecord
  2
치수_보조선
 70
     0
 62
     4
  6
Continuous
370
    -3
390
F
  0
LAYER
  5
77
330
2
100
AcDbSymbolTableRecord
100
AcDbLayerTableRecord
  2
치수문자_일반주서
 70
     0
 62
     7
  6
Continuous
370
    15
390
F
  0
LAYER
  5
78
330
2
100
AcDbSymbolTableRecord
100
AcDbLayerTableRecord
  2
개별주서
 70
     0
 62
   100
  6
Continuous
370
    30
390
F
  0
LAYER
  5
79
330
2
100
AcDbSymbolTableRecord
100
AcDbLayerTableRecord
  2
중간선
 70
     0
 62
     2
  6
Continuous
370
    15
390
F
  0
LAYER
  5
7A
330
2
100
AcDbSymbolTableRecord
100
AcDbLayerTableRecord
  2
윤곽선
 70
     0
 62
     3
  6
Continuous
370
    40
390
F
  0
LAYER
  5
7B
330
2
100
AcDbSymbolTableRecord
100
AcDbLayerTableRecord
  2
중심마크
 70
     0
 62
   100
  6
Continuous
370
    30
390
F
  0
LAYER
  5
7C
330
2
100
AcDbSymbolTableRecord
100
AcDbLayerTableRecord
  2
가상선
 70
     0
 62
     4
  6
PHANTOM
370
    -3
390
F
  0
LAYER
  5
7D
330
2
100
AcDbSymbolTableRecord
100
AcDbLayerTableRecord
  2
특수지정선
 70
     0
 62
     5
  6
CENTERX2
370
    60
390
F
  0
LAYER
  5
160
330
2
100
AcDbSymbolTableRecord
100
AcDbLayerTableRecord
  2
Defpoints
 70
     0
 62
     7
  6
Continuous
290
     0
370
    -3
390
F
  0
ENDTAB
  0
TABLE
  2
STYLE
  5
3
330
0
100
AcDbSymbolTable
 70
     2
  0
STYLE
  5
11
330
3
100
AcDbSymbolTableRecord
100
AcDbTextStyleTableRecord
  2
Standard
 70
     0
 40
0.0
 41
1.0
 50
0.0
 71
     0
 42
3.5
  3
txt
  4

  0
STYLE
  5
93
330
3
100
AcDbSymbolTableRecord
100
AcDbTextStyleTableRecord
  2
SLDTEXTSTYLE0
 70
     0
 40
0.0
 41
0.75
 50
0.0
 71
     0
 42
3.5
  3
TXT
  4

  0
ENDTAB
  0
TABLE
  2
VIEW
  5
6
330
0
100
AcDbSymbolTable
 70
     0
  0
ENDTAB
  0
TABLE
  2
UCS
  5
7
330
0
100
AcDbSymbolTable
 70
     0
  0
ENDTAB
  0
TABLE
  2
APPID
  5
9
330
0
100
AcDbSymbolTable
 70
     3
  0
APPID
  5
12
330
9
100
AcDbSymbolTableRecord
100
AcDbRegAppTableRecord
  2
ACAD
 70
     0
  0
APPID
  5
161
330
9
100
AcDbSymbolTableRecord
100
AcDbRegAppTableRecord
  2
ACAD_DSTYLE_DIMRADIAL_EXTENSION
 70
     0
  0
APPID
  5
173
330
9
100
AcDbSymbolTableRecord
100
AcDbRegAppTableRecord
  2
PE_DIMMEASUREMENT
 70
     0
  0
ENDTAB
  0
TABLE
  2
DIMSTYLE
  5
A
330
0
100
AcDbSymbolTable
 70
     4
100
AcDbDimStyleTable
  0
DIMSTYLE
105
27
330
A
100
AcDbSymbolTableRecord
100
AcDbDimStyleTableRecord
  2
ISO-25
 70
     0
 41
2.5
 42
0.625
 43
3.75
 44
1.25
 73
     0
 74
     0
 77
     1
 78
     8
140
2.5
141
2.5
143
0.03937007874016
147
0.625
171
     3
172
     1
178
     0
271
     2
272
     2
274
     3
278
    44
283
     0
284
     8
340
11
  0
DIMSTYLE
105
E9
102
{ACAD_REACTORS
330
E8
330
162
330
176
102
}
330
A
100
AcDbSymbolTableRecord
100
AcDbDimStyleTableRecord
  2
SLDDIMSTYLE0
 70
     0
 41
3.302
 44
0.0
 45
0.000000001
 73
     0
 74
     0
 77
     1
 78
    12
 79
     3
140
3.5
143
0.0393700787401575
147
0.875
148
0.000000001
170
     1
172
     1
173
     1
178
     0
271
     2
272
     2
276
     2
284
    12
289
     0
340
93
  0
DIMSTYLE
105
FE
102
{ACAD_REACTORS
330
FD
330
111
102
}
330
A
100
AcDbSymbolTableRecord
100
AcDbDimStyleTableRecord
  2
SLDDIMSTYLE1
 70
     0
 41
3.302
 44
0.0
 45
0.000000001
 73
     0
 74
     0
 77
     1
 78
     4
 79
     1
140
3.5
143
0.0393700787401575
147
0.875
148
0.000000001
170
     1
173
     1
178
     0
271
     2
272
     2
276
     2
284
    12
340
93
  0
DIMSTYLE
105
125
330
A
100
AcDbSymbolTableRecord
100
AcDbDimStyleTableRecord
  2
SLDDIMSTYLE2
 70
     0
 41
3.302
 44
0.0
 45
0.000000001
 73
     0
 74
     0
 77
     1
 78
     8
 79
     2
140
3.5
143
0.0393700787401575
147
0.875
148
0.000000001
170
     1
172
     1
173
     1
178
     0
271
     2
272
     2
276
     2
284
    12
289
     0
340
93
341
126
343
126
344
126
  0
ENDTAB
  0
TABLE
  2
BLOCK_RECORD
  5
1
330
0
100
AcDbSymbolTable
 70
    10
  0
BLOCK_RECORD
  5
1F
102
{ACAD_XDICTIONARY
360
205
102
}
330
1
100
AcDbSymbolTableRecord
100
AcDbBlockTableRecord
  2
*Model_Space
340
22
  0
BLOCK_RECORD
  5
1B
330
1
100
AcDbSymbolTableRecord
100
AcDbBlockTableRecord
  2
*Paper_Space
340
1E
  0
BLOCK_RECORD
  5
23
330
1
100
AcDbSymbolTableRecord
100
AcDbBlockTableRecord
  2
*Paper_Space0
340
26
  0
BLOCK_RECORD
  5
7E
330
1
100
AcDbSymbolTableRecord
100
AcDbBlockTableRecord
  2
블럭10
340
0
102
{BLKREFS
331
E0
102
}
  0
BLOCK_RECORD
  5
EA
330
1
100
AcDbSymbolTableRecord
100
AcDbBlockTableRecord
  2
_D
340
0
  0
BLOCK_RECORD
  5
FF
330
1
100
AcDbSymbolTableRecord
100
AcDbBlockTableRecord
  2
_D_1
340
0
  0
BLOCK_RECORD
  5
112
330
1
100
AcDbSymbolTableRecord
100
AcDbBlockTableRecord
  2
_D_2
340
0
  0
BLOCK_RECORD
  5
126
330
1
100
AcDbSymbolTableRecord
100
AcDbBlockTableRecord
  2
_NONE
340
0
  0
BLOCK_RECORD
  5
129
330
1
100
AcDbSymbolTableRecord
100
AcDbBlockTableRecord
  2
_D_3
340
0
  0
BLOCK_RECORD
  5
135
330
1
100
AcDbSymbolTableRecord
100
AcDbBlockTableRecord
  2
SW_DOWELSYMBOL_0
340
0
102
{BLKREFS
331
13B
102
}
  0
BLOCK_RECORD
  5
165
330
1
100
AcDbSymbolTableRecord
100
AcDbBlockTableRecord
  2
*D8
340
0
  0
BLOCK_RECORD
  5
179
330
1
100
AcDbSymbolTableRecord
100
AcDbBlockTableRecord
  2
*D9
340
0
  0
ENDTAB
  0
ENDSEC
  0
SECTION
  2
BLOCKS
  0
BLOCK
  5
20
330
1F
100
AcDbEntity
  8
0
100
AcDbBlockBegin
  2
*Model_Space
 70
     0
 10
0.0
 20
0.0
 30
0.0
  3
*Model_Space
  1
*Model_Space
  0
ENDBLK
  5
21
330
1F
100
AcDbEntity
  8
0
100
AcDbBlockEnd
  0
BLOCK
  5
1C
330
1B
100
AcDbEntity
 67
     1
  8
0
100
AcDbBlockBegin
  2
*Paper_Space
 70
     0
 10
0.0
 20
0.0
 30
0.0
  3
*Paper_Space
  1
*Paper_Space
  0
ENDBLK
  5
1D
330
1B
100
AcDbEntity
 67
     1
  8
0
100
AcDbBlockEnd
  0
BLOCK
  5
24
330
23
100
AcDbEntity
  8
0
100
AcDbBlockBegin
  2
*Paper_Space0
 70
     0
 10
0.0
 20
0.0
 30
0.0
  3
*Paper_Space0
  1
*Paper_Space0
  0
ENDBLK
  5
25
330
23
100
AcDbEntity
  8
0
100
AcDbBlockEnd
  0
BLOCK
  5
7F
330
7E
100
AcDbEntity
  8
0
100
AcDbBlockBegin
  2
블럭10
 70
     2
 10
0.0
 20
0.0
 30
0.0
  3
블럭10
  1
블럭10
  0
ELLIPSE
  5
81
330
7E
100
AcDbEntity
  8
중심선
100
AcDbEllipse
 10
20.54032771741204
 20
12.0471743016438
 30
0.0
 11
6.600054785286829
 21
-1.261213355974178E-13
 31
0.0
210
0.0
220
0.0
230
1.0
 40
0.636358354079598
 41
0.9219305317359503
 42
6.513795318482858
  0
ELLIPSE
  5
82
330
7E
100
AcDbEntity
  8
중심선
100
AcDbEllipse
 10
20.54032771746488
 20
12.04717430159265
 30
0.0
 11
3.960054785062283
 21
1.540847449632565E-10
 31
0.0
210
0.0
220
0.0
230
1.0
 40
0.3939339440162632
 41
1.131841032648279
 42
5.62031148352944
  0
LINE
  5
83
330
7E
100
AcDbEntity
  8
중심선
100
AcDbLine
 10
2.268634060543552
 20
16.24717430164393
 30
0.0
 11
5.714909304380834
 21
16.24717430164393
 31
0.0
  0
LINE
  5
84
330
7E
100
AcDbEntity
  8
중심선
100
AcDbLine
 10
5.245725140726316
 20
7.84717430164391
 30
0.0
 11
8.692000384563599
 21
7.84717430164391
 31
0.0
  0
LINE
  5
85
330
7E
100
AcDbEntity
  8
중심선
100
AcDbLine
 10
15.74043728645272
 20
16.24717430164393
 30
0.0
 11
8.692000384563599
 21
7.84717430164391
 31
0.0
  0
LINE
  5
86
330
7E
100
AcDbEntity
  8
중심선
100
AcDbLine
 10
0.1404042013395286
 20
13.71084872107135
 30
0.0
 11
3.58671253028996
 21
13.71088815037384
 31
0.0
  0
LINE
  5
87
330
7E
100
AcDbEntity
  8
중심선
100
AcDbLine
 10
2.750260043222114
 20
10.84717430164391
 30
0.0
 11
6.196535287059397
 21
10.84717430164391
 31
0.0
  0
LINE
  5
88
330
7E
100
AcDbEntity
  8
중심선
100
AcDbLine
 10
12.29416204261559
 20
16.24717430164393
 30
0.0
 11
5.245725140726316
 21
7.84717430164391
 31
0.0
  0
LINE
  5
89
330
7E
100
AcDbEntity
  8
중심선
100
AcDbLine
 10
10.72767329541681
 20
16.24717430164393
 30
0.0
 11
6.196535287059397
 21
10.84717430164391
 31
0.0
  0
LINE
  5
8A
330
7E
100
AcDbEntity
  8
중심선
100
AcDbLine
 10
7.28139805157953
 20
16.24717430164393
 30
0.0
 11
2.750260043222114
 21
10.84717430164391
 31
0.0
  0
LINE
  5
8B
330
7E
100
AcDbEntity
  8
중심선
100
AcDbLine
 10
5.714909304380834
 20
16.24717430164393
 30
0.0
 11
3.58671253028996
 21
13.71088815037384
 31
0.0
  0
LINE
  5
8C
330
7E
100
AcDbEntity
  8
중심선
100
AcDbLine
 10
2.268634060543552
 20
16.24717430164393
 30
0.0
 11
0.1404042013395286
 21
13.71084872107135
 31
0.0
  0
LINE
  5
8D
330
7E
100
AcDbEntity
  8
중심선
100
AcDbLine
 10
7.28139805157953
 20
16.24717430164393
 30
0.0
 11
10.72767329541681
 21
16.24717430164393
 31
0.0
  0
LINE
  5
8E
330
7E
100
AcDbEntity
  8
중심선
100
AcDbLine
 10
12.29416204261559
 20
16.24717430164393
 30
0.0
 11
15.74043728645272
 21
16.24717430164393
 31
0.0
  0
LINE
  5
8F
330
7E
100
AcDbEntity
  8
중심선
100
AcDbLine
 10
19.22036997980202
 20
11.08717430171403
 30
0.0
 11
23.66174974927406
 21
11.08717430171406
 31
0.0
  0
LINE
  5
90
330
7E
100
AcDbEntity
  8
중심선
100
AcDbLine
 10
19.22039502424796
 20
13.00717430171391
 30
0.0
 11
19.22036997980202
 21
11.08717430171403
 31
0.0
  0
LINE
  5
91
330
7E
100
AcDbEntity
  8
중심선
100
AcDbLine
 10
19.22039502424796
 20
13.00717430171391
 30
0.0
 11
26.96566020931264
 21
13.00717430171391
 31
0.0
  0
LINE
  5
92
330
7E
100
AcDbEntity
  8
중심선
100
AcDbLine
 10
22.22332737316547
 20
13.45928029700563
 30
0.0
 11
24.52862924686651
 21
15.39360700705356
 31
0.0
  0
ATTDEF
  5
94
330
7E
100
AcDbEntity
  8
FORMAT
 62
     2
100
AcDbText
 10
-11.05102035218446
 20
2.075366912832191
 30
0.0
 40
4.233333333333333
  1
GMG22934[ 6 FLUTE ]
 41
0.75
  7
SLDTEXTSTYLE0
 11
-11.05102035218446
 21
-0.0412997538344756
 31
0.0
100
AcDbAttributeDefinition
  3

  2
AUTOATTR0
 70
     0
 74
     1
  0
ENDBLK
  5
80
330
7E
100
AcDbEntity
  8
0
100
AcDbBlockEnd
  0
BLOCK
  5
EB
330
EA
100
AcDbEntity
  8
0
100
AcDbBlockBegin
  2
_D
 70
     0
 10
0.0
 20
0.0
 30
0.0
  3
_D
  1
_D
  0
LINE
  5
ED
330
EA
100
AcDbEntity
  8
치수문자_일반주서
 62
     0
370
    -2
100
AcDbLine
 10
58.5765
 20
-7.937499999999997
 30
0.0
 11
76.63027804920587
 21
-7.937499999999931
 31
0.0
  0
LINE
  5
EE
330
EA
100
AcDbEntity
  8
치수문자_일반주서
 62
     0
370
    -2
100
AcDbLine
 10
58.04753233343285
 20
7.937500000000004
 30
0.0
 11
76.63027804920581
 21
7.937500000000072
 31
0.0
  0
LINE
  5
EF
330
EA
100
AcDbEntity
  8
치수문자_일반주서
 62
     0
370
    -2
100
AcDbLine
 10
76.63027804920586
 20
-4.635499999999931
 30
0.0
 11
76.63027804920583
 21
4.635500000000072
 31
0.0
  0
SOLID
  5
F0
330
EA
100
AcDbEntity
  8
치수문자_일반주서
 62
     0
100
AcDbTrace
 10
76.07994471587253
 20
-4.635499999999933
 30
0.0
 11
77.18061138253918
 21
-4.635499999999929
 31
0.0
 12
76.63027804920587
 22
-7.937499999999931
 32
0.0
 13
76.63027804920587
 23
-7.937499999999931
 33
0.0
  0
SOLID
  5
F1
330
EA
100
AcDbEntity
  8
치수문자_일반주서
 62
     0
100
AcDbTrace
 10
77.18061138253915
 20
4.635500000000074
 30
0.0
 11
76.0799447158725
 21
4.635500000000071
 31
0.0
 12
76.63027804920581
 22
7.937500000000072
 32
0.0
 13
76.63027804920581
 23
7.937500000000072
 33
0.0
  0
MTEXT
  5
F2
330
EA
100
AcDbEntity
  8
치수문자_일반주서
 62
     0
100
AcDbMText
 10
72.25527804920584
 20
0.0000000000000564
 30
0.0
 40
3.5
 41
0.0
 71
     2
 72
     1
  1
\A1;%%c15.88 [5/8]
  7
SLDTEXTSTYLE0
 11
-3.580687802255622E-15
 21
1.0
 31
0.0
 73
     1
 44
1.0
  0
POINT
  5
F3
330
EA
100
AcDbEntity
  8
Defpoints
 62
     0
100
AcDbPoint
 10
58.514
 20
-7.937499999999997
 30
0.0
  0
POINT
  5
F4
330
EA
100
AcDbEntity
  8
Defpoints
 62
     0
100
AcDbPoint
 10
57.98503233343285
 20
7.937500000000004
 30
0.0
  0
POINT
  5
F5
330
EA
100
AcDbEntity
  8
Defpoints
 62
     0
100
AcDbPoint
 10
76.63027804920581
 20
7.937500000000073
 30
0.0
  0
ENDBLK
  5
EC
330
EA
100
AcDbEntity
  8
0
100
AcDbBlockEnd
  0
BLOCK
  5
100
330
FF
100
AcDbEntity
  8
0
100
AcDbBlockBegin
  2
_D_1
 70
     0
 10
0.0
 20
0.0
 30
0.0
  3
_D_1
  1
_D_1
  0
LINE
  5
102
330
FF
100
AcDbEntity
  8
치수문자_일반주서
 62
     0
370
    -2
100
AcDbLine
 10
-40.8
 20
7.499999999999997
 30
0.0
 11
-40.8
 21
40.59305141807178
 31
0.0
  0
LINE
  5
103
330
FF
100
AcDbEntity
  8
치수문자_일반주서
 62
     0
370
    -2
100
AcDbLine
 10
60.8
 20
5.714000000000004
 30
0.0
 11
60.8
 21
40.59305141807178
 31
0.0
  0
LINE
  5
104
330
FF
100
AcDbEntity
  8
치수문자_일반주서
 62
     0
370
    -2
100
AcDbLine
 10
-37.498
 20
40.59305141807178
 30
0.0
 11
57.498
 21
40.59305141807178
 31
0.0
  0
SOLID
  5
105
330
FF
100
AcDbEntity
  8
치수문자_일반주서
 62
     0
100
AcDbTrace
 10
-37.498
 20
41.14338475140512
 30
0.0
 11
-37.498
 21
40.04271808473845
 31
0.0
 12
-40.8
 22
40.59305141807178
 32
0.0
 13
-40.8
 23
40.59305141807178
 33
0.0
  0
SOLID
  5
106
330
FF
100
AcDbEntity
  8
치수문자_일반주서
 62
     0
100
AcDbTrace
 10
57.498
 20
40.04271808473845
 30
0.0
 11
57.498
 21
41.14338475140512
 31
0.0
 12
60.8
 22
40.59305141807178
 32
0.0
 13
60.8
 23
40.59305141807178
 33
0.0
  0
MTEXT
  5
107
330
FF
100
AcDbEntity
  8
치수문자_일반주서
 62
     0
100
AcDbMText
 10
10.0
 20
44.96805141807178
 30
0.0
 40
3.5
 41
0.0
 71
     2
 72
     1
  1
\A1;101.60 [4]
  7
SLDTEXTSTYLE0
 73
     1
 44
1.0
  0
POINT
  5
108
330
FF
100
AcDbEntity
  8
Defpoints
 62
     0
100
AcDbPoint
 10
-40.8
 20
7.437499999999997
 30
0.0
  0
POINT
  5
109
330
FF
100
AcDbEntity
  8
Defpoints
 62
     0
100
AcDbPoint
 10
60.8
 20
5.651500000000004
 30
0.0
  0
POINT
  5
10A
330
FF
100
AcDbEntity
  8
Defpoints
 62
     0
100
AcDbPoint
 10
60.8
 20
40.59305141807178
 30
0.0
  0
ENDBLK
  5
101
330
FF
100
AcDbEntity
  8
0
100
AcDbBlockEnd
  0
BLOCK
  5
113
330
112
100
AcDbEntity
  8
0
100
AcDbBlockBegin
  2
_D_2
 70
     0
 10
0.0
 20
0.0
 30
0.0
  3
_D_2
  1
_D_2
  0
LINE
  5
115
330
112
100
AcDbEntity
  8
치수문자_일반주서
 62
     0
370
    -2
100
AcDbLine
 10
60.8
 20
5.714000000000004
 30
0.0
 11
60.8
 21
23.27849453033793
 31
0.0
  0
LINE
  5
116
330
112
100
AcDbEntity
  8
치수문자_일반주서
 62
     0
370
    -2
100
AcDbLine
 10
9.999999999999995
 20
-7.874999999999997
 30
0.0
 11
9.999999999999993
 21
23.27849453033793
 31
0.0
  0
LINE
  5
117
330
112
100
AcDbEntity
  8
치수문자_일반주서
 62
     0
370
    -2
100
AcDbLine
 10
57.498
 20
23.27849453033793
 30
0.0
 11
13.30199999999999
 21
23.27849453033793
 31
0.0
  0
SOLID
  5
118
330
112
100
AcDbEntity
  8
치수문자_일반주서
 62
     0
100
AcDbTrace
 10
57.498
 20
22.72816119700459
 30
0.0
 11
57.498
 21
23.82882786367126
 31
0.0
 12
60.8
 22
23.27849453033793
 32
0.0
 13
60.8
 23
23.27849453033793
 33
0.0
  0
SOLID
  5
119
330
112
100
AcDbEntity
  8
치수문자_일반주서
 62
     0
100
AcDbTrace
 10
13.30199999999999
 20
23.82882786367126
 30
0.0
 11
13.30199999999999
 21
22.72816119700459
 31
0.0
 12
9.999999999999993
 22
23.27849453033793
 32
0.0
 13
9.999999999999993
 23
23.27849453033793
 33
0.0
  0
MTEXT
  5
11A
330
112
100
AcDbEntity
  8
치수문자_일반주서
 62
     0
100
AcDbMText
 10
34.84120226380296
 20
27.65349453033793
 30
0.0
 40
3.5
 41
0.0
 71
     2
 72
     1
  1
\A1;50.80 [2]
  7
SLDTEXTSTYLE0
 73
     1
 44
1.0
  0
POINT
  5
11B
330
112
100
AcDbEntity
  8
Defpoints
 62
     0
100
AcDbPoint
 10
60.8
 20
5.651500000000004
 30
0.0
  0
POINT
  5
11C
330
112
100
AcDbEntity
  8
Defpoints
 62
     0
100
AcDbPoint
 10
9.999999999999995
 20
-7.937499999999997
 30
0.0
  0
POINT
  5
11D
330
112
100
AcDbEntity
  8
Defpoints
 62
     0
100
AcDbPoint
 10
9.999999999999995
 20
23.27849453033793
 30
0.0
  0
ENDBLK
  5
114
330
112
100
AcDbEntity
  8
0
100
AcDbBlockEnd
  0
BLOCK
  5
127
330
126
100
AcDbEntity
  8
0
100
AcDbBlockBegin
  2
_NONE
 70
     0
 10
0.0
 20
0.0
 30
0.0
  3
_NONE
  1
_NONE
  0
ENDBLK
  5
128
330
126
100
AcDbEntity
  8
0
100
AcDbBlockEnd
  0
BLOCK
  5
12A
330
129
100
AcDbEntity
  8
0
100
AcDbBlockBegin
  2
_D_3
 70
     0
 10
0.0
 20
0.0
 30
0.0
  3
_D_3
  1
_D_3
  0
LINE
  5
12C
330
129
100
AcDbEntity
  8
치수문자_일반주서
100
AcDbLine
 10
-64.5933676361172
 20
-13.61414086223942
 30
0.0
 11
-64.5933676361172
 21
-14.32507834780392
 31
0.0
  0
LINE
  5
12D
330
129
100
AcDbEntity
  8
치수문자_일반주서
100
AcDbLine
 10
-64.5933676361172
 20
-14.32507834780392
 30
0.0
 11
-59.0371176450579
 21
-14.32507834780388
 31
0.0
  0
LINE
  5
12E
330
129
100
AcDbEntity
  8
치수문자_일반주서
100
AcDbLine
 10
-59.0371176450579
 20
-14.32507834780388
 30
0.0
 11
-59.0371176450579
 21
-13.61414086223938
 31
0.0
  0
LINE
  5
12F
330
129
100
AcDbEntity
  8
치수문자_일반주서
100
AcDbLine
 10
-64.59336763611728
 20
-2.785408000102166
 30
0.0
 11
-64.59336763611728
 21
-2.074470514537666
 31
0.0
  0
LINE
  5
130
330
129
100
AcDbEntity
  8
치수문자_일반주서
100
AcDbLine
 10
-64.59336763611728
 20
-2.074470514537666
 30
0.0
 11
-59.03711764505798
 21
-2.074470514537627
 31
0.0
  0
LINE
  5
131
330
129
100
AcDbEntity
  8
치수문자_일반주서
100
AcDbLine
 10
-59.03711764505798
 20
-2.074470514537627
 30
0.0
 11
-59.03711764505798
 21
-2.785408000102127
 31
0.0
  0
MTEXT
  5
132
330
129
100
AcDbEntity
  8
치수문자_일반주서
100
AcDbMText
 10
-63.54885455963681
 20
-12.72546896162804
 30
0.0
 40
3.5
 41
0.0
 71
     1
 72
     1
  1
0.00
  7
SLDTEXTSTYLE0
 11
-7.044195017643634E-15
 21
1.0
 31
0.0
 73
     1
 44
1.0
  0
MTEXT
  5
133
330
129
100
AcDbEntity
  8
치수문자_일반주서
100
AcDbMText
 10
-58.31222300927633
 20
-12.13204884353452
 30
0.0
 40
3.5
 41
0.0
 71
     1
 72
     1
  1
%%c
  7
SLDTEXTSTYLE0
 11
-7.044195017643634E-15
 21
1.0
 31
0.0
 73
     1
 44
1.0
  0
MTEXT
  5
134
330
129
100
AcDbEntity
  8
치수문자_일반주서
100
AcDbMText
 10
-58.31222300927637
 20
-6.85361144516044
 30
0.0
 40
3.5
 41
0.0
 71
     1
 72
     1
  1
0
  7
SLDTEXTSTYLE0
 11
-7.044195017643634E-15
 21
1.0
 31
0.0
 73
     1
 44
1.0
  0
ENDBLK
  5
12B
330
129
100
AcDbEntity
  8
0
100
AcDbBlockEnd
  0
BLOCK
  5
136
330
135
100
AcDbEntity
  8
0
100
AcDbBlockBegin
  2
SW_DOWELSYMBOL_0
 70
     0
 10
0.0
 20
0.0
 30
0.0
  3
SW_DOWELSYMBOL_0
  1
SW_DOWELSYMBOL_0
  0
CIRCLE
  5
138
330
135
100
AcDbEntity
  8
외형선
 62
     0
100
AcDbCircle
 10
0.0
 20
0.0
 30
0.0
 40
3.000000000000004
  0
HATCH
  5
139
330
135
100
AcDbEntity
  8
0
  6
Continuous
 62
     0
370
    30
100
AcDbHatch
 10
0.0
 20
0.0
 30
0.0
210
0.0
220
0.0
230
1.0
  2
SOLID
 70
     1
 71
     0
 91
        1
 92
        0
 93
        3
 72
     2
 10
0.0
 20
0.0
 40
3.000000000000004
 50
0.0
 51
90.0
 73
     1
 72
     1
 10
0.0
 20
3.000000000000004
 11
0.0
 21
0.0
 72
     1
 10
0.0
 20
0.0
 11
3.000000000000004
 21
0.0
 97
        0
 75
     0
 76
     1
 98
        1
 10
0.0
 20
0.0
  0
HATCH
  5
13A
330
135
100
AcDbEntity
  8
0
  6
Continuous
 62
     0
370
    30
100
AcDbHatch
 10
0.0
 20
0.0
 30
0.0
210
0.0
220
0.0
230
1.0
  2
SOLID
 70
     1
 71
     0
 91
        1
 92
        0
 93
        3
 72
     2
 10
0.0
 20
0.0
 40
3.000000000000004
 50
180.0
 51
270.0000000000007
 73
     1
 72
     1
 10
0.0
 20
-3.000000000000004
 11
0.0
 21
0.0
 72
     1
 10
0.0
 20
0.0
 11
-3.000000000000004
 21
0.0
 97
        0
 75
     0
 76
     1
 98
        1
 10
0.0
 20
0.0
  0
ENDBLK
  5
137
330
135
100
AcDbEntity
  8
0
100
AcDbBlockEnd
  0
BLOCK
  5
166
330
165
100
AcDbEntity
  8
0
100
AcDbBlockBegin
  2
*D8
 70
     1
 10
0.0
 20
0.0
 30
0.0
  3
*D8
  1
*D8
  0
LINE
  5
168
330
165
100
AcDbEntity
  8
치수문자_일반주서
 62
     0
370
    -2
100
AcDbLine
 10
-40.3625
 20
7.9375
 30
0.0
 11
-50.00542929291704
 21
7.9375
 31
0.0
  0
LINE
  5
169
330
165
100
AcDbEntity
  8
치수문자_일반주서
 62
     0
370
    -2
100
AcDbLine
 10
-40.3625
 20
-7.937500000000001
 30
0.0
 11
-50.00542929291704
 21
-7.937500000000001
 31
0.0
  0
LINE
  5
16A
330
165
100
AcDbEntity
  8
치수문자_일반주서
 62
     0
370
    -2
100
AcDbLine
 10
-50.00542929291704
 20
4.6355
 30
0.0
 11
-50.00542929291704
 21
-4.635500000000001
 31
0.0
  0
SOLID
  5
16B
330
165
100
AcDbEntity
  8
치수문자_일반주서
 62
     0
100
AcDbTrace
 10
-49.45509595958371
 20
4.6355
 30
0.0
 11
-50.55576262625038
 21
4.6355
 31
0.0
 12
-50.00542929291704
 22
7.9375
 32
0.0
 13
-50.00542929291704
 23
7.9375
 33
0.0
  0
SOLID
  5
16C
330
165
100
AcDbEntity
  8
치수문자_일반주서
 62
     0
100
AcDbTrace
 10
-50.55576262625038
 20
-4.635500000000001
 30
0.0
 11
-49.45509595958371
 21
-4.635500000000001
 31
0.0
 12
-50.00542929291704
 22
-7.937500000000001
 32
0.0
 13
-50.00542929291704
 23
-7.937500000000001
 33
0.0
  0
MTEXT
  5
16D
330
165
100
AcDbEntity
  8
치수문자_일반주서
 62
     0
100
AcDbMText
 10
-52.63042929291704
 20
-0.0000000000000009
 30
0.0
 40
3.5
 41
0.0
 71
     5
 72
     1
  1
\A1;{%%c15.88 [5/8]}
  7
SLDTEXTSTYLE0
 11
0.0
 21
1.0
 31
0.0
 73
     1
 44
1.0
  0
POINT
  5
16E
330
165
100
AcDbEntity
  8
Defpoints
 62
     0
100
AcDbPoint
 10
-40.3
 20
7.9375
 30
0.0
  0
POINT
  5
16F
330
165
100
AcDbEntity
  8
Defpoints
 62
     0
100
AcDbPoint
 10
-40.3
 20
-7.937500000000001
 30
0.0
  0
POINT
  5
170
330
165
100
AcDbEntity
  8
Defpoints
 62
     0
100
AcDbPoint
 10
-50.00542929291704
 20
-7.9375
 30
0.0
  0
ENDBLK
  5
167
330
165
100
AcDbEntity
  8
0
100
AcDbBlockEnd
  0
BLOCK
  5
17A
330
179
100
AcDbEntity
  8
0
100
AcDbBlockBegin
  2
*D9
 70
     1
 10
0.0
 20
0.0
 30
0.0
  3
*D9
  1
*D9
  0
LINE
  5
17C
330
179
100
AcDbEntity
  8
치수문자_일반주서
 62
     0
370
    -2
100
AcDbLine
 10
62.36696526710416
 20
10.49637087058724
 30
0.0
 11
80.52506644379285
 21
36.32215558351425
 31
0.0
  0
MTEXT
  5
17D
330
179
100
AcDbEntity
  8
치수문자_일반주서
 62
     0
100
AcDbMText
 10
70.8287013198865
 20
27.09519761331125
 30
0.0
 40
3.5
 41
0.0
 71
     5
 72
     1
  1
\A1;R.78 [R0.03]
  7
SLDTEXTSTYLE0
 11
0.575162895960861
 21
0.8180389007314479
 31
0.0
 73
     1
 44
1.0
  0
LINE
  5
17E
330
179
100
AcDbEntity
  8
치수문자_일반주서
 62
     0
370
    -2
100
AcDbLine
 10
60.018
 20
7.155500000000004
 30
0.0
 11
60.46777738464139
 21
7.795206420371996
 31
0.0
  0
SOLID
  5
17F
330
179
100
AcDbEntity
  8
치수문자_일반주서
 62
     0
100
AcDbTrace
 10
61.91677119206828
 20
10.81290218433103
 30
0.0
 11
62.81715934214003
 21
10.17983955684344
 31
0.0
 12
60.46777738464139
 22
7.795206420371996
 32
0.0
 13
60.46777738464139
 23
7.795206420371996
 33
0.0
  0
POINT
  5
180
330
179
100
AcDbEntity
  8
Defpoints
 62
     0
100
AcDbPoint
 10
60.46777738464139
 20
7.795206420371996
 30
0.0
  0
POINT
  5
181
330
179
100
AcDbEntity
  8
Defpoints
 62
     0
100
AcDbPoint
 10
60.018
 20
7.155500000000004
 30
0.0
  0
ENDBLK
  5
17B
330
179
100
AcDbEntity
  8
0
100
AcDbBlockEnd
  0
ENDSEC
  0
SECTION
  2
ENTITIES
  0
LINE
  5
95
330
1F
100
AcDbEntity
  8
0
  6
Continuous
 62
     4
370
    15
100
AcDbLine
 10
9.999999999999995
 20
7.937500000000004
 30
0.0
 11
-9.846925000000079
 21
7.937500000000003
 31
0.0
  0
LINE
  5
96
330
1F
100
AcDbEntity
  8
0
  6
Continuous
 62
     4
370
    15
100
AcDbLine
 10
-40.3
 20
-7.937500000000001
 30
0.0
 11
9.999999999999995
 21
-7.937499999999997
 31
0.0
  0
LINE
  5
97
330
1F
100
AcDbEntity
  8
0
  6
Continuous
 62
     4
370
    15
100
AcDbLine
 10
-40.3
 20
7.937499999999998
 30
0.0
 11
-40.8
 21
7.437499999999996
 31
0.0
  0
LINE
  5
98
330
1F
100
AcDbEntity
  8
0
  6
Continuous
 62
     4
370
    15
100
AcDbLine
 10
-40.8
 20
-7.437499999999999
 30
0.0
 11
-40.3
 21
-7.937499999999999
 31
0.0
  0
LINE
  5
99
330
1F
100
AcDbEntity
  8
0
  6
Continuous
 62
     1
370
    15
100
AcDbLine
 10
32.42806122493518
 20
-7.937499999999997
 30
0.0
 11
35.14332287907699
 21
-7.937499999999997
 31
0.0
  0
LINE
  5
9A
330
1F
100
AcDbEntity
  8
0
  6
Continuous
 62
     1
370
    15
100
AcDbLine
 10
10.20580389057127
 20
7.937500000000004
 30
0.0
 11
9.999999999999996
 21
7.937500000000004
 31
0.0
  0
LINE
  5
9B
330
1F
100
AcDbEntity
  8
0
  6
Continuous
 62
     1
370
    15
100
AcDbLine
 10
60.018
 20
7.937500000000004
 30
0.0
 11
57.36460218016904
 21
7.937500000000004
 31
0.0
  0
LINE
  5
9C
330
1F
100
AcDbEntity
  8
0
  6
Continuous
 62
     1
370
    15
100
AcDbLine
 10
49.05302239185878
 20
-7.937499999999997
 30
0.0
 11
51.76630720913113
 21
-7.937499999999997
 31
0.0
  0
LINE
  5
9D
330
1F
100
AcDbEntity
  8
0
  6
Continuous
 62
     1
370
    15
100
AcDbLine
 10
26.83071748318666
 20
7.937500000000004
 30
0.0
 11
24.1163634543988
 21
7.937500000000004
 31
0.0
  0
LINE
  5
9E
330
1F
100
AcDbEntity
  8
0
  6
Continuous
 62
     1
370
    15
100
AcDbLine
 10
40.74034566589233
 20
-7.937499999999997
 30
0.0
 11
43.455092542075
 21
-7.937499999999997
 31
0.0
  0
LINE
  5
9F
330
1F
100
AcDbEntity
  8
0
  6
Continuous
 62
     1
370
    15
100
AcDbLine
 10
18.51793699246607
 20
7.937500000000004
 30
0.0
 11
15.80466711416323
 21
7.937500000000004
 31
0.0
  0
LINE
  5
A0
330
1F
100
AcDbEntity
  8
0
  6
Continuous
 62
     1
370
    15
100
AcDbLine
 10
15.80466711416329
 20
-7.937499999999997
 30
0.0
 11
18.51793699246613
 21
-7.937499999999997
 31
0.0
  0
LINE
  5
A1
330
1F
100
AcDbEntity
  8
0
  6
Continuous
 62
     1
370
    15
100
AcDbLine
 10
43.45509254207504
 20
7.937500000000004
 30
0.0
 11
40.7403456658924
 21
7.937500000000004
 31
0.0
  0
LINE
  5
A2
330
1F
100
AcDbEntity
  8
0
  6
Continuous
 62
     1
370
    15
100
AcDbLine
 10
24.11636345439886
 20
-7.937499999999997
 30
0.0
 11
26.83071748318665
 21
-7.937499999999997
 31
0.0
  0
LINE
  5
A3
330
1F
100
AcDbEntity
  8
0
  6
Continuous
 62
     1
370
    15
100
AcDbLine
 10
51.76630720913113
 20
7.937500000000004
 30
0.0
 11
49.05302239185883
 21
7.937500000000004
 31
0.0
  0
LINE
  5
A4
330
1F
100
AcDbEntity
  8
0
  6
Continuous
 62
     1
370
    15
100
AcDbLine
 10
57.36460218016902
 20
-7.937499999999997
 30
0.0
 11
60.018
 21
-7.937499999999997
 31
0.0
  0
LINE
  5
A5
330
1F
100
AcDbEntity
  8
0
  6
Continuous
 62
     1
370
    15
100
AcDbLine
 10
9.999999999999996
 20
-7.937499999999997
 30
0.0
 11
10.20580389057134
 21
-7.937499999999997
 31
0.0
  0
LINE
  5
A6
330
1F
100
AcDbEntity
  8
0
  6
Continuous
 62
     1
370
    15
100
AcDbLine
 10
35.14332287907705
 20
7.937500000000004
 30
0.0
 11
32.42806122493517
 21
7.937500000000004
 31
0.0
  0
SPLINE
  5
A9
330
1F
100
AcDbEntity
  8
0
  6
Continuous
 62
     4
370
    15
100
AcDbSpline
210
0.0
220
0.0
230
1.0
 70
     8
 71
     3
 72
    14
 73
    10
 74
     0
 42
0.000000001
 43
0.00000001
 40
0.0
 40
0.0
 40
0.0
 40
0.0
 40
0.25
 40
0.25
 40
0.5
 40
0.5
 40
0.7500000000000001
 40
0.7500000000000001
 40
1.0
 40
1.0
 40
1.0
 40
1.0
 10
7.477003894352046
 20
-1.420170562733768
 30
0.0
 10
7.365662130466664
 20
-1.310607398754337
 30
0.0
 10
7.274089193076967
 20
-1.187156837042251
 30
0.0
 10
7.125606185282615
 20
-0.9152845740147384
 30
0.0
 10
7.07027087726414
 20
-0.7682646233287549
 30
0.0
 10
6.993829273236646
 20
-0.4673157562438666
 30
0.0
 10
6.972140047561335
 20
-0.3111493493598841
 30
0.0
 10
6.950389455685897
 20
-0.0001314680784439
 30
0.0
 10
6.950274816200426
 20
0.1560195565388676
 30
0.0
 10
6.950274816200429
 20
0.3122100195854502
 30
0.0
  0
SPLINE
  5
AA
330
1F
100
AcDbEntity
  8
0
  6
Continuous
 62
     4
370
    15
100
AcDbSpline
210
0.0
220
0.0
230
1.0
 70
     8
 71
     3
 72
    22
 73
    18
 74
     0
 42
0.000000001
 43
0.00000001
 40
0.0
 40
0.0
 40
0.0
 40
0.0
 40
0.1249999999999999
 40
0.1249999999999999
 40
0.2499999999999999
 40
0.2499999999999999
 40
0.3749999999999999
 40
0.3749999999999999
 40
0.4999999999999998
 40
0.4999999999999998
 40
0.6249999999999998
 40
0.6249999999999998
 40
0.7499999999999998
 40
0.7499999999999998
 40
0.8749999999999999
 40
0.8749999999999999
 40
1.0
 40
1.0
 40
1.0
 40
1.0
 10
6.950274816200422
 20
0.3122100195854086
 30
0.0
 10
6.950274816200426
 20
0.4879074499410584
 30
0.0
 10
6.950703496011264
 20
0.6629840314143086
 30
0.0
 10
6.98142467045041
 20
1.00926429615691
 30
0.0
 10
7.01165284161355
 20
1.18250388566914
 30
0.0
 10
7.11795941024427
 20
1.514057454228476
 30
0.0
 10
7.193449504620872
 20
1.671134380565198
 30
0.0
 10
7.394435697493061
 20
1.954578469799977
 30
0.0
 10
7.515940911653987
 20
2.07651116421258
 30
0.0
 10
7.803878647120861
 20
2.277544093575102
 30
0.0
 10
7.961827235201169
 20
2.350898995099909
 30
0.0
 10
8.304231674977036
 20
2.443037532537443
 30
0.0
 10
8.480106624162683
 20
2.459292308598581
 30
0.0
 10
8.833866389581821
 20
2.43227306471262
 30
0.0
 10
9.005547755917748
 20
2.389156692526917
 30
0.0
 10
9.326606309785497
 20
2.246459464277689
 30
0.0
 10
9.47168970426262
 20
2.148815630281386
 30
0.0
 10
9.597656539071892
 20
2.027190465195751
 30
0.0
  0
SPLINE
  5
AB
330
1F
100
AcDbEntity
  8
0
  6
Continuous
 62
     4
370
    15
100
AcDbSpline
210
0.0
220
0.0
230
1.0
 70
     8
 71
     3
 72
     8
 73
     4
 74
     0
 42
0.000000001
 43
0.00000001
 40
0.0
 40
0.0
 40
0.0
 40
0.0
 40
1.0
 40
1.0
 40
1.0
 40
1.0
 10
9.999999999999996
 20
7.544665736268191
 30
0.0
 10
9.865820087679742
 20
7.586253971170215
 30
0.0
 10
9.73161986776807
 20
7.624623892733793
 30
0.0
 10
9.597656539071892
 20
7.65970716370953
 30
0.0
  0
SPLINE
  5
AC
330
1F
100
AcDbEntity
  8
0
  6
Continuous
 62
     4
370
    15
100
AcDbSpline
210
0.0
220
0.0
230
1.0
 70
     8
 71
     3
 72
    22
 73
    18
 74
     0
 42
0.000000001
 43
0.00000001
 40
0.0
 40
0.0
 40
0.0
 40
0.0
 40
0.125
 40
0.125
 40
0.25
 40
0.25
 40
0.375
 40
0.375
 40
0.5
 40
0.5
 40
0.625
 40
0.625
 40
0.75
 40
0.75
 40
0.875
 40
0.875
 40
1.0
 40
1.0
 40
1.0
 40
1.0
 10
6.950274816200422
 20
7.024862056395969
 30
0.0
 10
6.950274816200426
 20
7.10672120557951
 30
0.0
 10
6.950703496011266
 20
7.183207437675193
 30
0.0
 10
6.981424670450414
 20
7.324581141908583
 30
0.0
 10
7.011652841613547
 20
7.390179574357227
 30
0.0
 10
7.117959410244268
 20
7.506463965515346
 30
0.0
 10
7.193449504620874
 20
7.556750491308899
 30
0.0
 10
7.394435697493061
 20
7.640887347666905
 30
0.0
 10
7.515940911653984
 20
7.673555107522419
 30
0.0
 10
7.803878647120857
 20
7.724416922551655
 30
0.0
 10
7.961827235201166
 20
7.741242414654005
 30
0.0
 10
8.304231674977034
 20
7.762035328828982
 30
0.0
 10
8.48010662416268
 20
7.765469892368203
 30
0.0
 10
8.833866389581818
 20
7.759539067235185
 30
0.0
 10
9.005547755917746
 20
7.750190543335445
 30
0.0
 10
9.326606309785495
 20
7.716572470158876
 30
0.0
 10
9.471689704262623
 20
7.692696255893051
 30
0.0
 10
9.597656539071892
 20
7.65970716370953
 30
0.0
  0
SPLINE
  5
AD
330
1F
100
AcDbEntity
  8
0
  6
Continuous
 62
     4
370
    15
100
AcDbSpline
210
0.0
220
0.0
230
1.0
 70
     8
 71
     3
 72
    14
 73
    10
 74
     0
 42
0.000000001
 43
0.00000001
 40
0.0
 40
0.0
 40
0.0
 40
0.0
 40
0.2499999999999999
 40
0.2499999999999999
 40
0.4999999999999999
 40
0.4999999999999999
 40
0.7499999999999999
 40
0.7499999999999999
 40
1.0
 40
1.0
 40
1.0
 40
1.0
 10
7.477003894352033
 20
6.053069778740674
 30
0.0
 10
7.36566213046665
 20
6.125106441257973
 30
0.0
 10
7.27408919307697
 20
6.204217552636092
 30
0.0
 10
7.125606185282617
 20
6.37161292082543
 30
0.0
 10
7.07027087726414
 20
6.458918338828441
 30
0.0
 10
6.993829273236646
 20
6.629739756561539
 30
0.0
 10
6.972140047561331
 20
6.714539116111031
 30
0.0
 10
6.950389455685895
 20
6.875330539897194
 30
0.0
 10
6.950274816200421
 20
6.952091393843834
 30
0.0
 10
6.950274816200426
 20
7.024862056395331
 30
0.0
  0
SPLINE
  5
AE
330
1F
100
AcDbEntity
  8
0
  6
Continuous
 62
     4
370
    15
100
AcDbSpline
210
0.0
220
0.0
230
1.0
 70
     8
 71
     3
 72
    12
 73
     8
 74
     0
 42
0.000000001
 43
0.00000001
 40
0.0
 40
0.0
 40
0.0
 40
0.0
 40
0.2500000000000001
 40
0.2500000000000001
 40
0.5000000000000002
 40
0.5000000000000002
 40
1.0
 40
1.0
 40
1.0
 40
1.0
 10
9.99999999999999
 20
4.14595311002081
 30
0.0
 10
9.789105934140958
 20
4.325356462348074
 30
0.0
 10
9.578162403092259
 20
4.500397526363759
 30
0.0
 10
9.158168597470864
 20
4.840139347664024
 30
0.0
 10
8.950039660076532
 20
5.004614651239696
 30
0.0
 10
8.32092452923934
 20
5.483023796631029
 30
0.0
 10
7.897156209918903
 20
5.781236735090419
 30
0.0
 10
7.477003894352035
 20
6.053069778740673
 30
0.0
  0
LINE
  5
AF
330
1F
100
AcDbEntity
  8
0
  6
Continuous
 62
     4
370
    15
100
AcDbLine
 10
10.0
 20
4.145953110020812
 30
0.0
 11
9.999999999999998
 21
1.636579164289563
 31
0.0
  0
SPLINE
  5
B0
330
1F
100
AcDbEntity
  8
0
  6
Continuous
 62
     4
370
    15
100
AcDbSpline
210
0.0
220
0.0
230
1.0
 70
     8
 71
     3
 72
     8
 73
     4
 74
     0
 42
0.000000001
 43
0.00000001
 40
0.0
 40
0.0
 40
0.0
 40
0.0
 40
1.0
 40
1.0
 40
1.0
 40
1.0
 10
9.999999999999998
 20
1.636579164289559
 30
0.0
 10
9.865820087679744
 20
1.767557802431919
 30
0.0
 10
9.73161986776807
 20
1.897844419526162
 30
0.0
 10
9.597656539071892
 20
2.02719046519575
 30
0.0
  0
SPLINE
  5
B1
330
1F
100
AcDbEntity
  8
0
  6
Continuous
 62
     4
370
    15
100
AcDbSpline
210
0.0
220
0.0
230
1.0
 70
     8
 71
     3
 72
    12
 73
     8
 74
     0
 42
0.000000001
 43
0.00000001
 40
0.0
 40
0.0
 40
0.0
 40
0.0
 40
0.2499999999999999
 40
0.2499999999999999
 40
0.4999999999999999
 40
0.4999999999999999
 40
1.0
 40
1.0
 40
1.0
 40
1.0
 10
9.99999999999999
 20
-3.78886908391867
 30
0.0
 10
9.789105934140958
 20
-3.604001405567552
 30
0.0
 10
9.57816240309226
 20
-3.415120984095469
 30
0.0
 10
9.158168597470864
 20
-3.03115216918285
 30
0.0
 10
8.950039660076532
 20
-2.836360557037267
 30
0.0
 10
8.32092452923934
 20
-2.242216719812705
 30
0.0
 10
7.897156209918903
 20
-1.833611264950232
 30
0.0
 10
7.477003894352035
 20
-1.420170562733781
 30
0.0
  0
LINE
  5
B2
330
1F
100
AcDbEntity
  8
0
  6
Continuous
 62
     1
370
    15
100
AcDbLine
 10
10.0
 20
-3.78886908391878
 30
0.0
 11
9.999999999999998
 21
-5.908086571978637
 31
0.0
  0
SPLINE
  5
B3
330
1F
100
AcDbEntity
  8
0
  6
Continuous
 62
     4
370
    15
100
AcDbSpline
210
0.0
220
0.0
230
1.0
 70
     8
 71
     3
 72
     8
 73
     4
 74
     0
 42
0.000000001
 43
0.00000001
 40
0.0
 40
0.0
 40
0.0
 40
0.0
 40
1.0
 40
1.0
 40
1.0
 40
1.0
 10
9.999999999999998
 20
-5.908086571978636
 30
0.0
 10
9.865820087679744
 20
-5.818696168738301
 30
0.0
 10
9.731619867768071
 20
-5.726779473207636
 30
0.0
 10
9.597656539071892
 20
-5.632516698513784
 30
0.0
  0
SPLINE
  5
B4
330
1F
100
AcDbEntity
  8
0
  6
Continuous
 62
     4
370
    15
100
AcDbSpline
210
0.0
220
0.0
230
1.0
 70
     8
 71
     3
 72
    22
 73
    18
 74
     0
 42
0.000000001
 43
0.00000001
 40
0.0
 40
0.0
 40
0.0
 40
0.0
 40
0.1249999999999999
 40
0.1249999999999999
 40
0.2499999999999998
 40
0.2499999999999998
 40
0.3749999999999998
 40
0.3749999999999998
 40
0.4999999999999998
 40
0.4999999999999998
 40
0.6249999999999998
 40
0.6249999999999998
 40
0.7499999999999998
 40
0.7499999999999998
 40
0.875
 40
0.875
 40
1.0
 40
1.0
 40
1.0
 40
1.0
 10
6.950274816200424
 20
-6.712652036810562
 30
0.0
 10
6.950274816200428
 20
-6.618813755638453
 30
0.0
 10
6.950703496011266
 20
-6.520223406260889
 30
0.0
 10
6.981424670450412
 20
-6.31531684575168
 30
0.0
 10
7.01165284161355
 20
-6.207675688688093
 30
0.0
 10
7.11795941024427
 20
-5.992406511286874
 30
0.0
 10
7.193449504620876
 20
-5.885616110743704
 30
0.0
 10
7.394435697493063
 20
-5.686308877866937
 30
0.0
 10
7.515940911653986
 20
-5.597043943309846
 30
0.0
 10
7.803878647120859
 20
-5.446872828976558
 30
0.0
 10
7.961827235201171
 20
-5.390343419554104
 30
0.0
 10
8.304231674977036
 20
-5.318997796291547
 30
0.0
 10
8.480106624162683
 20
-5.306177583769631
 30
0.0
 10
8.83386638958182
 20
-5.327266002522574
 30
0.0
 10
9.005547755917748
 20
-5.361033850808538
 30
0.0
 10
9.326606309785497
 20
-5.470113005881196
 30
0.0
 10
9.471689704262621
 20
-5.54388062561167
 30
0.0
 10
9.597656539071894
 20
-5.632516698513784
 30
0.0
  0
SPLINE
  5
B5
330
1F
100
AcDbEntity
  8
0
  6
Continuous
 62
     4
370
    15
100
AcDbSpline
210
0.0
220
0.0
230
1.0
 70
     8
 71
     3
 72
    14
 73
    10
 74
     0
 42
0.000000001
 43
0.00000001
 40
0.0
 40
0.0
 40
0.0
 40
0.0
 40
0.2500000000000001
 40
0.2500000000000001
 40
0.5000000000000001
 40
0.5000000000000001
 40
0.75
 40
0.75
 40
1.0
 40
1.0
 40
1.0
 40
1.0
 10
7.477003894352048
 20
-7.473240341474408
 30
0.0
 10
7.365662130466665
 20
-7.435713840012276
 30
0.0
 10
7.274089193076969
 20
-7.391374389678333
 30
0.0
 10
7.125606185282617
 20
-7.286897494840157
 30
0.0
 10
7.07027087726414
 20
-7.227182962157188
 30
0.0
 10
6.993829273236646
 20
-7.097055512805398
 30
0.0
 10
6.972140047561335
 20
-7.02568846547091
 30
0.0
 10
6.950389455685898
 20
-6.875462007975634
 30
0.0
 10
6.950274816200418
 20
-6.796071837304969
 30
0.0
 10
6.950274816200421
 20
-6.712652036809883
 30
0.0
  0
SPLINE
  5
B6
330
1F
100
AcDbEntity
  8
0
  6
Continuous
 62
     4
370
    15
100
AcDbSpline
210
0.0
220
0.0
230
1.0
 70
     8
 71
     3
 72
    12
 73
     8
 74
     0
 42
0.000000001
 43
0.00000001
 40
0.0
 40
0.0
 40
0.0
 40
0.0
 40
0.25
 40
0.25
 40
0.5
 40
0.5
 40
1.0
 40
1.0
 40
1.0
 40
1.0
 10
9.999999999999991
 20
-7.934822193939463
 30
0.0
 10
9.789105934140958
 20
-7.92935786791561
 30
0.0
 10
9.57816240309226
 20
-7.915518510459212
 30
0.0
 10
9.158168597470866
 20
-7.871291516846861
 30
0.0
 10
8.950039660076534
 20
-7.840975208276951
 30
0.0
 10
8.320924529239342
 20
-7.725240516443725
 30
0.0
 10
7.897156209918904
 20
-7.614848000040645
 30
0.0
 10
7.477003894352035
 20
-7.473240341474446
 30
0.0
  0
LINE
  5
B7
330
1F
100
AcDbEntity
  8
0
  6
Continuous
 62
     1
370
    15
100
AcDbLine
 10
10.0
 20
-7.934822193939573
 30
0.0
 11
9.999999999999995
 21
-7.937499999999997
 31
0.0
  0
LINE
  5
B8
330
1F
100
AcDbEntity
  8
0
  6
Continuous
 62
     4
370
    15
100
AcDbLine
 10
9.999999999999995
 20
7.937500000000004
 30
0.0
 11
9.999999999999996
 21
7.544665736268191
 31
0.0
  0
LINE
  5
B9
330
1F
100
AcDbEntity
  8
0
  6
Continuous
 62
     4
370
    15
100
AcDbLine
 10
-40.3
 20
7.937499999999998
 30
0.0
 11
-40.3
 21
-7.937499999999999
 31
0.0
  0
LINE
  5
BA
330
1F
100
AcDbEntity
  8
0
  6
Continuous
 62
     4
370
    15
100
AcDbLine
 10
-40.8
 20
7.437499999999997
 30
0.0
 11
-40.8
 21
-7.437499999999988
 31
0.0
  0
SPLINE
  5
BB
330
1F
100
AcDbEntity
  8
0
  6
Continuous
 62
     4
370
    15
100
AcDbSpline
210
0.0
220
0.0
230
1.0
 70
    24
 71
     3
 72
    18
 73
    14
 74
     0
 42
0.000000001
 43
0.00000001
 40
0.0
 40
0.0
 40
0.0
 40
0.0
 40
0.25
 40
0.25
 40
0.5
 40
0.5
 40
0.625
 40
0.625
 40
0.75
 40
0.75
 40
0.875
 40
0.875
 40
1.0
 40
1.0
 40
1.0
 40
1.0
 10
9.999999999999998
 20
1.636579164289531
 30
0.0
 10
9.999999999999998
 20
1.435382571755549
 30
0.0
 10
9.999999999999998
 20
1.177689998723502
 30
0.0
 10
9.999999999999998
 20
0.5070893648975879
 30
0.0
 10
10.0
 20
0.091866381014336
 30
0.0
 10
10.0
 20
-0.6487518922836492
 30
0.0
 10
10.0
 20
-0.9146549976972389
 30
0.0
 10
10.0
 20
-1.473760569631559
 30
0.0
 10
10.0
 20
-1.7669482504114
 30
0.0
 10
10.0
 20
-2.361190901204874
 30
0.0
 10
10.0
 20
-2.662097763553526
 30
0.0
 10
10.0
 20
-3.245844761673949
 30
0.0
 10
10.0
 20
-3.528436468047019
 30
0.0
 10
10.0
 20
-3.78886908391878
 30
0.0
  0
SPLINE
  5
BC
330
1F
100
AcDbEntity
  8
0
  6
Continuous
 62
     1
370
    15
100
AcDbSpline
210
0.0
220
0.0
230
1.0
 70
    24
 71
     3
 72
    12
 73
     8
 74
     0
 42
0.000000001
 43
0.00000001
 40
0.0
 40
0.0
 40
0.0
 40
0.0
 40
0.116001481293265
 40
0.3502743255817772
 40
0.5845471698702894
 40
0.7922735849351448
 40
1.0
 40
1.0
 40
1.0
 40
1.0
 10
10.00000000000001
 20
-5.979136725541597
 30
0.0
 10
10.00000000000001
 20
-6.021710044568369
 30
0.0
 10
10.00000000000001
 20
-6.150263063405953
 30
0.0
 10
10.00000000000001
 20
-6.474710355039138
 30
0.0
 10
10.00000000000001
 20
-6.914727566811353
 30
0.0
 10
10.0
 20
-7.406437019703409
 30
0.0
 10
10.0
 20
-7.758693802527517
 30
0.0
 10
10.0
 20
-7.934822193939573
 30
0.0
  0
SPLINE
  5
BD
330
1F
100
AcDbEntity
  8
0
  6
Continuous
 62
     4
370
    15
100
AcDbSpline
210
0.0
220
0.0
230
1.0
 70
    24
 71
     3
 72
    15
 73
    11
 74
     0
 42
0.000000001
 43
0.00000001
 40
0.0
 40
0.0
 40
0.0
 40
0.0
 40
0.156533264197808
 40
0.2800407678132555
 40
0.4035482714287031
 40
0.52705577504415
 40
0.6505632786595968
 40
0.7740707822750436
 40
0.8975782858904903
 40
1.0
 40
1.0
 40
1.0
 40
1.0
 10
9.999999999999996
 20
7.544665736268191
 30
0.0
 10
9.999999999999998
 20
7.266715288928427
 30
0.0
 10
10.0
 20
6.769457041066787
 30
0.0
 10
10.0
 20
6.108527186602796
 30
0.0
 10
10.0
 20
5.555587861555948
 30
0.0
 10
10.0
 20
5.076810213475529
 30
0.0
 10
10.00000000000001
 20
4.681285191819264
 30
0.0
 10
10.00000000000001
 20
4.387080200998974
 30
0.0
 10
10.00000000000001
 20
4.1986895259788
 30
0.0
 10
10.00000000000001
 20
4.158157335403057
 30
0.0
 10
10.0
 20
4.139782658248928
 30
0.0
  0
SPLINE
  5
BE
330
1F
100
AcDbEntity
  8
0
  6
Continuous
 62
     1
370
    15
100
AcDbSpline
210
0.0
220
0.0
230
1.0
 70
     8
 71
     3
 72
    29
 73
    25
 74
     0
 42
0.000000001
 43
0.00000001
 40
0.0
 40
0.0
 40
0.0
 40
0.0
 40
0.0095111995614369
 40
0.0580071040650077
 40
0.1065310610164164
 40
0.1551287780605085
 40
0.2036404904692918
 40
0.2521422452691972
 40
0.3007316921517725
 40
0.3492726259145723
 40
0.397765619087636
 40
0.4463179844898499
 40
0.4948987451944379
 40
0.543396441102806
 40
0.5919155546927787
 40
0.6405141030697326
 40
0.6890299532793801
 40
0.7375292083919642
 40
0.786113974119362
 40
0.834661380832801
 40
0.8831542247921785
 40
0.9316998220481798
 40
0.9802859626710444
 40
0.9999999999999999
 40
0.9999999999999999
 40
0.9999999999999999
 40
0.9999999999999999
 10
46.25375542550626
 20
-7.432176012785741
 30
0.0
 10
46.16578245746506
 20
-7.467731883374173
 30
0.0
 10
45.62925106843155
 20
-7.684580775253969
 30
0.0
 10
44.64526164742035
 20
-7.87462938400883
 30
0.0
 10
43.29934618157417
 20
-7.977183396576227
 30
0.0
 10
41.9514257152296
 20
-7.832508460493865
 30
0.0
 10
40.60591132181108
 20
-7.467810912888897
 30
0.0
 10
39.26068187882754
 20
-6.887109341913926
 30
0.0
 10
37.91297833601876
 20
-6.110164860124782
 30
0.0
 10
36.56666615008175
 20
-5.157164328233634
 30
0.0
 10
35.22169142911597
 20
-4.055573808981237
 30
0.0
 10
33.87505653999278
 20
-2.838324210006079
 30
0.0
 10
32.52760355040653
 20
-1.540377574896067
 30
0.0
 10
31.18248873164576
 20
-0.1965560245688148
 30
0.0
 10
29.83677546246814
 20
1.152645568353538
 30
0.0
 10
28.48881274811708
 20
2.466916428070338
 30
0.0
 10
27.14318906124907
 20
3.712323096544059
 30
0.0
 10
25.79802966561265
 20
4.851154675316835
 30
0.0
 10
24.45046021891728
 20
5.84964022027565
 30
0.0
 10
23.10396956471707
 20
6.680054203143301
 30
0.0
 10
21.7589860504696
 20
7.322828319603579
 30
0.0
 10
20.4125928030458
 20
7.7410107772085
 30
0.0
 10
19.33120624648433
 20
7.940218014205046
 30
0.0
 10
18.70009870783286
 20
7.916765835058833
 30
0.0
 10
18.51793699246607
 20
7.90999664134663
 30
0.0
  0
SPLINE
  5
BF
330
1F
100
AcDbEntity
  8
0
  6
Continuous
 62
     1
370
    15
100
AcDbSpline
210
0.0
220
0.0
230
1.0
 70
     8
 71
     3
 72
    29
 73
    25
 74
     0
 42
0.000000001
 43
0.00000001
 40
0.0
 40
0.0
 40
0.0
 40
0.0
 40
0.015929453011567
 40
0.0644227540892315
 40
0.1129706184352934
 40
0.1615558421474795
 40
0.2100555544387852
 40
0.2585718619835884
 40
0.3071708684752529
 40
0.355690439431143
 40
0.404188592503535
 40
0.4527698111551576
 40
0.5013226342367381
 40
0.549816084529495
 40
0.5983574758639004
 40
0.6469473807753908
 40
0.6954495927775812
 40
0.7439617624825152
 40
0.7925599376334809
 40
0.8410843519964636
 40
0.8895807136471713
 40
0.9381555912444222
 40
0.9867155882714722
 40
1.0
 40
1.0
 40
1.0
 40
1.0
 10
21.31745283031098
 20
7.425433469756975
 30
0.0
 10
21.46474786285925
 20
7.482800734487851
 30
0.0
 10
22.06044638769448
 20
7.714808524450605
 30
0.0
 10
23.1039181568375
 20
7.901680914130819
 30
0.0
 10
24.450474012764
 20
7.971036336976447
 30
0.0
 10
25.79802597565988
 20
7.797009797117928
 30
0.0
 10
27.14319004955887
 20
7.402899522975601
 30
0.0
 10
28.48881248273747
 20
6.795047343072273
 30
0.0
 10
29.83677553352589
 20
5.993652511016588
 30
0.0
 10
31.18248871252888
 20
5.019067963626108
 30
0.0
 10
32.52760355591327
 20
3.90006067802168
 30
0.0
 10
33.8750565371132
 20
2.67063449088404
 30
0.0
 10
35.22169143511887
 20
1.36396368141008
 30
0.0
 10
36.56666612896517
 20
0.017222237761173
 30
0.0
 10
37.91297841460999
 20
-1.329363109984823
 30
0.0
 10
39.26068158551871
 20
-2.63663163377252
 30
0.0
 10
40.60591241428722
 20
-3.870096220057554
 30
0.0
 10
41.95142163383682
 20
-4.992131702100611
 30
0.0
 10
43.29936143376982
 20
-5.969783017013723
 30
0.0
 10
44.64520483886482
 20
-6.776188123930488
 30
0.0
 10
45.99027613354064
 20
-7.392764401267098
 30
0.0
 10
47.33751337400361
 20
-7.779080813108373
 30
0.0
 10
48.35881170079887
 20
-7.952554955446122
 30
0.0
 10
48.9302708221288
 20
-7.921504897794645
 30
0.0
 10
49.05302239185878
 20
-7.914835228566067
 30
0.0
  0
SPLINE
  5
C0
330
1F
100
AcDbEntity
  8
0
  6
Continuous
 62
     1
370
    15
100
AcDbSpline
210
0.0
220
0.0
230
1.0
 70
     8
 71
     3
 72
    36
 73
    32
 74
     0
 42
0.000000001
 43
0.00000001
 40
0.0
 40
0.0
 40
0.0
 40
0.0
 40
0.1250000000000002
 40
0.1250000000000002
 40
0.2500000000000004
 40
0.2500000000000004
 40
0.3750000000000006
 40
0.3750000000000006
 40
0.4375000000000007
 40
0.4375000000000007
 40
0.5000000000000008
 40
0.5000000000000008
 40
0.5625000000000009
 40
0.5625000000000009
 40
0.625000000000001
 40
0.625000000000001
 40
0.6562500000000011
 40
0.6562500000000011
 40
0.6875000000000011
 40
0.6875000000000011
 40
0.7500000000000007
 40
0.7500000000000007
 40
0.7812500000000006
 40
0.7812500000000006
 40
0.8125000000000004
 40
0.8125000000000004
 40
0.8750000000000003
 40
0.8750000000000003
 40
0.9375000000000002
 40
0.9375000000000002
 40
1.0
 40
1.0
 40
1.0
 40
1.0
 10
58.514
 20
2.936519843861509
 30
0.0
 10
58.79932913593309
 20
2.671346340650921
 30
0.0
 10
59.06399700914352
 20
2.377815492028156
 30
0.0
 10
59.56812431921893
 20
1.749628195384817
 30
0.0
 10
59.79462395214175
 20
1.428901511791969
 30
0.0
 10
60.18560895246016
 20
0.7664275185180942
 30
0.0
 10
60.34202921480506
 20
0.4358802122463486
 30
0.0
 10
60.51064922990836
 20
-0.077016887764619
 30
0.0
 10
60.55583665074641
 20
-0.251161941572964
 30
0.0
 10
60.62497649273546
 20
-0.6036109066813306
 30
0.0
 10
60.64932395629748
 20
-0.7827681572257716
 30
0.0
 10
60.68172104508964
 20
-1.150771436061611
 30
0.0
 10
60.68999266249048
 20
-1.339549954565477
 30
0.0
 10
60.69127141591164
 20
-1.730653706055414
 30
0.0
 10
60.68455167052087
 20
-1.929407291764733
 30
0.0
 10
60.65650883831623
 20
-2.229932340961509
 30
0.0
 10
60.64414997611519
 20
-2.329532340057018
 30
0.0
 10
60.61037113115205
 20
-2.527056852105518
 30
0.0
 10
60.58869626900427
 20
-2.626050777799589
 30
0.0
 10
60.50353665184869
 20
-2.910000959556758
 30
0.0
 10
60.41718300241015
 20
-3.084142193186702
 30
0.0
 10
60.23118264647865
 20
-3.253540682090402
 30
0.0
 10
60.16270982974423
 20
-3.292903295501751
 30
0.0
 10
60.01619024350099
 20
-3.340538354972339
 30
0.0
 10
59.940958251667
 20
-3.348342438037971
 30
0.0
 10
59.70870997673698
 20
-3.336594964813725
 30
0.0
 10
59.55350183824878
 20
-3.28333419405194
 30
0.0
 10
59.24599226141481
 20
-3.130444894885763
 30
0.0
 10
59.09720083963134
 20
-3.03210160753394
 30
0.0
 10
58.80230572493947
 20
-2.806695237051657
 30
0.0
 10
58.65661138447958
 20
-2.679679316329596
 30
0.0
 10
58.51399999999999
 20
-2.544549278223649
 30
0.0
  0
SPLINE
  5
C1
330
1F
100
AcDbEntity
  8
0
  6
Continuous
 62
     1
370
    15
100
AcDbSpline
210
0.0
220
0.0
230
1.0
 70
     8
 71
     3
 72
    18
 73
    14
 74
     0
 42
0.000000001
 43
0.00000001
 40
0.0
 40
0.0
 40
0.0
 40
0.0
 40
0.09843949443398
 40
0.1968374939955371
 40
0.2951439019007337
 40
0.3844849919053989
 40
0.4739890937339568
 40
0.5633858150051834
 40
0.652706438891487
 40
0.742148603310717
 40
0.8316181761007884
 40
0.9209431311678326
 40
1.0
 40
1.0
 40
1.0
 40
1.0
 10
58.51399999999989
 20
-2.54454927822355
 30
0.0
 10
58.01961441572571
 20
-2.068103991890975
 30
0.0
 10
57.03105164388707
 20
-1.115414253621477
 30
0.0
 10
55.54906010716038
 20
0.3757362185368412
 30
0.0
 10
54.11344910313897
 20
1.802966645699801
 30
0.0
 10
52.72335784416208
 20
3.130120012344087
 30
0.0
 10
51.37550557645935
 20
4.322296607132783
 30
0.0
 10
50.02937376382746
 20
5.391991348791865
 30
0.0
 10
48.68437657897466
 20
6.30674722184132
 30
0.0
 10
47.33754635415927
 20
7.041315825600135
 30
0.0
 10
45.99024270612436
 20
7.568099417014357
 30
0.0
 10
44.69706130428066
 20
7.886804225899083
 30
0.0
 10
43.85190259810752
 20
7.913383435584432
 30
0.0
 10
43.45509254207506
 20
7.925862627489463
 30
0.0
  0
SPLINE
  5
C2
330
1F
100
AcDbEntity
  8
0
  6
Continuous
 62
     1
370
    15
100
AcDbSpline
210
0.0
220
0.0
230
1.0
 70
     8
 71
     3
 72
    16
 73
    12
 74
     0
 42
0.000000001
 43
0.00000001
 40
0.0
 40
0.0
 40
0.0
 40
0.0
 40
0.079932495815646
 40
0.1990021679908207
 40
0.3178604850063199
 40
0.4367550260427961
 40
0.5558547833218039
 40
0.6747633375444737
 40
0.7830809708151483
 40
0.8916584152771101
 40
1.0
 40
1.0
 40
1.0
 40
1.0
 10
21.31745283031103
 20
-7.425433469756969
 30
0.0
 10
21.0159261490472
 20
-7.52963473113987
 30
0.0
 10
20.2652369247676
 20
-7.789057093859545
 30
0.0
 10
19.06491796986467
 20
-7.951443463645158
 30
0.0
 10
17.71977704392168
 20
-7.936710063102526
 30
0.0
 10
16.37416439830085
 20
-7.685660214265722
 30
0.0
 10
15.02625356129636
 20
-7.216802599615916
 30
0.0
 10
13.72006362485008
 20
-6.560187392042026
 30
0.0
 10
12.4547086389221
 20
-5.752402510649116
 30
0.0
 10
11.22600273318314
 20
-4.841538932362229
 30
0.0
 10
10.40837123619689
 20
-4.13950458878412
 30
0.0
 10
10.00000000000004
 20
-3.788869083918705
 30
0.0
  0
SPLINE
  5
C3
330
1F
100
AcDbEntity
  8
0
  6
Continuous
 62
     1
370
    15
100
AcDbSpline
210
0.0
220
0.0
230
1.0
 70
    24
 71
     3
 72
    18
 73
    14
 74
     0
 42
0.000000001
 43
0.00000001
 40
0.0
 40
0.0
 40
0.0
 40
0.0
 40
0.2500000000000001
 40
0.2500000000000001
 40
0.5000000000000001
 40
0.5000000000000001
 40
0.6250000000000001
 40
0.6250000000000001
 40
0.75
 40
0.75
 40
0.875
 40
0.875
 40
1.0
 40
1.0
 40
1.0
 40
1.0
 10
9.999999999999998
 20
1.636579164290402
 30
0.0
 10
9.999999999999998
 20
1.43538257175651
 30
0.0
 10
9.999999999999998
 20
1.177689998724545
 30
0.0
 10
9.999999999999998
 20
0.5070893648987211
 30
0.0
 10
9.999999999999998
 20
0.0918663810154746
 30
0.0
 10
10.0
 20
-0.6487518922826165
 30
0.0
 10
10.0
 20
-0.9146549976962599
 30
0.0
 10
10.0
 20
-1.473760569630723
 30
0.0
 10
10.0
 20
-1.766948250410656
 30
0.0
 10
10.0
 20
-2.361190901204333
 30
0.0
 10
10.0
 20
-2.6620977635531
 30
0.0
 10
10.0
 20
-3.245844761673744
 30
0.0
 10
10.0
 20
-3.528436468046927
 30
0.0
 10
10.0
 20
-3.78886908391878
 30
0.0
  0
SPLINE
  5
C4
330
1F
100
AcDbEntity
  8
0
  6
Continuous
 62
     1
370
    15
100
AcDbSpline
210
0.0
220
0.0
230
1.0
 70
     8
 71
     3
 72
    18
 73
    14
 74
     0
 42
0.000000001
 43
0.00000001
 40
0.0
 40
0.0
 40
0.0
 40
0.0
 40
0.0868572920169372
 40
0.1739036724460836
 40
0.2607417626183674
 40
0.3560705788235168
 40
0.4515526822428168
 40
0.5468702640968309
 40
0.6421588052055385
 40
0.7376167894405409
 40
0.8329951174603087
 40
0.9282698002163682
 40
1.0
 40
1.0
 40
1.0
 40
1.0
 10
9.999999999997454
 20
1.636579164292045
 30
0.0
 10
10.40837123900378
 20
1.232608896229422
 30
0.0
 10
11.22600274161508
 20
0.4237889164236984
 30
0.0
 10
12.45470860513466
 20
-0.806746744966242
 30
0.0
 10
13.72006375641693
 20
-2.057635912623247
 30
0.0
 10
15.02625301592263
 20
-3.293982781951936
 30
0.0
 10
16.37416642956687
 20
-4.471595075407185
 30
0.0
 10
17.71976948072059
 20
-5.522795127374359
 30
0.0
 10
19.06494620881377
 20
-6.414856337804637
 30
0.0
 10
20.41254771046773
 20
-7.123810262487191
 30
0.0
 10
21.75901848838045
 20
-7.621451345484649
 30
0.0
 10
22.99268043633706
 20
-7.903143132881907
 30
0.0
 10
23.77874232810839
 20
-7.91229685265863
 30
0.0
 10
24.11636345439886
 20
-7.91622846315027
 30
0.0
  0
SPLINE
  5
C5
330
1F
100
AcDbEntity
  8
0
  6
Continuous
 62
     1
370
    15
100
AcDbSpline
210
0.0
220
0.0
230
1.0
 70
     8
 71
     3
 72
    16
 73
    12
 74
     0
 42
0.000000001
 43
0.00000001
 40
0.0
 40
0.0
 40
0.0
 40
0.0
 40
0.088380882444958
 40
0.1982472712467896
 40
0.3079643655907731
 40
0.4177749342478297
 40
0.5277174039399077
 40
0.6374596378646666
 40
0.7582144306713324
 40
0.8790817301977751
 40
1.0
 40
1.0
 40
1.0
 40
1.0
 10
46.25375542550631
 20
7.43217601278575
 30
0.0
 10
46.61503603650018
 20
7.550327327819071
 30
0.0
 10
47.42542504034964
 20
7.815352694749108
 30
0.0
 10
48.68440144534146
 20
7.962990565796393
 30
0.0
 10
50.02936709876549
 20
7.916366570876646
 30
0.0
 10
51.3755073650856
 20
7.636017966996919
 30
0.0
 10
52.72335736716909
 20
7.138763143427253
 30
0.0
 10
54.11344924514329
 20
6.412340045857247
 30
0.0
 10
55.54906006773578
 20
5.453858797698339
 30
0.0
 10
57.0310516537519
 20
4.283429327948598
 30
0.0
 10
58.01961441901444
 20
3.385552765008143
 30
0.0
 10
58.51399999999988
 20
2.936519843861614
 30
0.0
  0
SPLINE
  5
C6
330
1F
100
AcDbEntity
  8
0
  6
Continuous
 62
     1
370
    15
100
AcDbSpline
210
0.0
220
0.0
230
1.0
 70
     8
 71
     3
 72
    36
 73
    32
 74
     0
 42
0.000000001
 43
0.00000001
 40
0.0
 40
0.0
 40
0.0
 40
0.0
 40
0.1250000000000005
 40
0.1250000000000005
 40
0.250000000000001
 40
0.250000000000001
 40
0.3750000000000015
 40
0.3750000000000015
 40
0.4375000000000018
 40
0.4375000000000018
 40
0.500000000000002
 40
0.500000000000002
 40
0.5625000000000022
 40
0.5625000000000022
 40
0.6250000000000024
 40
0.6250000000000024
 40
0.6562500000000024
 40
0.6562500000000024
 40
0.6875000000000023
 40
0.6875000000000023
 40
0.7500000000000019
 40
0.7500000000000019
 40
0.7812500000000016
 40
0.7812500000000016
 40
0.8125000000000012
 40
0.8125000000000012
 40
0.8750000000000008
 40
0.8750000000000008
 40
0.9375000000000004
 40
0.9375000000000004
 40
1.0
 40
1.0
 40
1.0
 40
1.0
 10
58.514
 20
7.854617889697337
 30
0.0
 10
58.79932913593309
 20
7.813478476877433
 30
0.0
 10
59.06399700914353
 20
7.70626629577381
 30
0.0
 10
59.56812431921892
 20
7.371954666921352
 30
0.0
 10
59.79462395214175
 20
7.15127201870361
 30
0.0
 10
60.18560895246017
 20
6.61657686931769
 30
0.0
 10
60.34202921480506
 20
6.310593741466652
 30
0.0
 10
60.51064922990837
 20
5.82573385953259
 30
0.0
 10
60.55583665074642
 20
5.6599183066101
 30
0.0
 10
60.62497649273545
 20
5.333614510268388
 30
0.0
 10
60.64932395629748
 20
5.172375722571997
 30
0.0
 10
60.68172104508964
 20
4.860816478173214
 30
0.0
 10
60.68999266249052
 20
4.71044847816287
 30
0.0
 10
60.69127141591164
 20
4.426957998575111
 30
0.0
 10
60.68455167052084
 20
4.29626342006376
 30
0.0
 10
60.65650883831619
 20
4.126321959991854
 30
0.0
 10
60.6441499761152
 20
4.074616849431768
 30
0.0
 10
60.61037113115209
 20
3.983652753989808
 30
0.0
 10
60.58869626900427
 20
3.944016130013453
 30
0.0
 10
60.50353665184868
 20
3.854393855507037
 30
0.0
 10
60.41718300241016
 20
3.835616649641242
 30
0.0
 10
60.23118264647865
 20
3.900483771620219
 30
0.0
 10
60.16270982974423
 20
3.935827484193488
 30
0.0
 10
60.01619024350099
 20
4.026437316649915
 30
0.0
 10
59.94095825166701
 20
4.079750524803214
 30
0.0
 10
59.708709976737
 20
4.255069056025322
 30
0.0
 10
59.55350183824879
 20
4.385450694662708
 30
0.0
 10
59.24599226141481
 20
4.644915112541871
 30
0.0
 10
59.09720083963132
 20
4.771611016226635
 30
0.0
 10
58.80230572493944
 20
5.015370871851565
 30
0.0
 10
58.65661138447952
 20
5.13184346611678
 30
0.0
 10
58.51399999999999
 20
5.239014128522339
 30
0.0
  0
SPLINE
  5
C7
330
1F
100
AcDbEntity
  8
0
  6
Continuous
 62
     1
370
    15
100
AcDbSpline
210
0.0
220
0.0
230
1.0
 70
     8
 71
     3
 72
    12
 73
     8
 74
     0
 42
0.000000001
 43
0.00000001
 40
0.0
 40
0.0
 40
0.0
 40
0.0
 40
0.2197147750729017
 40
0.4393369345080104
 40
0.6587546633912198
 40
0.8581620009442154
 40
1.0
 40
1.0
 40
1.0
 40
1.0
 10
58.51399999999989
 20
5.239014128522411
 30
0.0
 10
58.01961448726637
 20
5.592340818507976
 30
0.0
 10
57.03105185847888
 20
6.29884526185556
 30
0.0
 10
55.54905924954805
 20
7.093177485328782
 30
0.0
 10
54.11345219219032
 20
7.628296781415489
 30
0.0
 10
52.85353445892788
 20
7.907927831575038
 30
0.0
 10
52.08552777884494
 20
7.912208648402799
 30
0.0
 10
51.76630720913113
 20
7.913987962075503
 30
0.0
  0
SPLINE
  5
C8
330
1F
100
AcDbEntity
  8
0
  6
Continuous
 62
     1
370
    15
100
AcDbSpline
210
0.0
220
0.0
230
1.0
 70
     8
 71
     3
 72
    22
 73
    18
 74
     0
 42
0.000000001
 43
0.00000001
 40
0.0
 40
0.0
 40
0.0
 40
0.0
 40
0.0580947007437211
 40
0.1266457695929014
 40
0.1951733901950359
 40
0.2638218340748847
 40
0.3324174910752505
 40
0.4009360529593998
 40
0.469529153264565
 40
0.5381795398199188
 40
0.6067080681963837
 40
0.6752574817655027
 40
0.743925214081284
 40
0.8124827070431776
 40
0.874933936302069
 40
0.9375349613770355
 40
1.0
 40
1.0
 40
1.0
 40
1.0
 10
29.62948693755952
 20
-7.435084457870781
 30
0.0
 10
29.24905767388645
 20
-7.557164863908599
 30
0.0
 10
28.41972631910286
 20
-7.823298724259787
 30
0.0
 10
27.14317064255992
 20
-7.965799398565813
 30
0.0
 10
25.79803442265198
 20
-7.909059747762432
 30
0.0
 10
24.45045964488013
 20
-7.619761214387627
 30
0.0
 10
23.10396710787813
 20
-7.113305349073512
 30
0.0
 10
21.75899644261137
 20
-6.401799282738017
 30
0.0
 10
20.41255362616727
 20
-5.507015389254261
 30
0.0
 10
19.064944626301
 20
-4.455052059806425
 30
0.0
 10
17.71976990456293
 20
-3.2737685000677
 30
0.0
 10
16.37416631573457
 20
-1.998529949701889
 30
0.0
 10
15.02625304648542
 20
-0.6680242739773687
 30
0.0
 10
13.72006374904418
 20
0.6440946912122675
 30
0.0
 10
12.45470860702892
 20
1.897389612490376
 30
0.0
 10
11.22600274114417
 20
3.070197775821439
 30
0.0
 10
10.40837123884864
 20
3.787628023312561
 30
0.0
 10
10.00000000000004
 20
4.145953110020772
 30
0.0
  0
SPLINE
  5
C9
330
1F
100
AcDbEntity
  8
0
  6
Continuous
 62
     1
370
    15
100
AcDbSpline
210
0.0
220
0.0
230
1.0
 70
    24
 71
     3
 72
    15
 73
    11
 74
     0
 42
0.000000001
 43
0.00000001
 40
0.0
 40
0.0
 40
0.0
 40
0.0
 40
0.1560522229605452
 40
0.2774263375811577
 40
0.4023203097482349
 40
0.5236944243688475
 40
0.6485883965359238
 40
0.7699625111565451
 40
0.894856483323612
 40
1.0
 40
1.0
 40
1.0
 40
1.0
 10
9.999999999999996
 20
7.54466573627003
 30
0.0
 10
9.999999999999998
 20
7.266750203022815
 30
0.0
 10
10.0
 20
6.772677852863583
 30
0.0
 10
10.0
 20
6.110988411886279
 30
0.0
 10
10.0
 20
5.560737357311566
 30
0.0
 10
10.0
 20
5.078343358715865
 30
0.0
 10
10.0
 20
4.684929065001109
 30
0.0
 10
10.0
 20
4.387421228847437
 30
0.0
 10
10.0
 20
4.198087869639266
 30
0.0
 10
10.00000000000001
 20
4.156118523544468
 30
0.0
 10
10.00000000000001
 20
4.136935543138964
 30
0.0
  0
SPLINE
  5
CA
330
1F
100
AcDbEntity
  8
0
  6
Continuous
 62
     1
370
    15
100
AcDbSpline
210
0.0
220
0.0
230
1.0
 70
     8
 71
     3
 72
    24
 73
    20
 74
     0
 42
0.000000001
 43
0.00000001
 40
0.0
 40
0.0
 40
0.0
 40
0.0
 40
0.0546690641286415
 40
0.1094571428649573
 40
0.1641141211128121
 40
0.2241152683441804
 40
0.2842128964621375
 40
0.344206972652625
 40
0.4041827702354026
 40
0.4642652174376016
 40
0.5242975280233142
 40
0.5842646029858944
 40
0.6442991511774255
 40
0.7043798981605244
 40
0.7643549012641154
 40
0.8243504261467646
 40
0.8844482169885367
 40
0.9444477774227555
 40
1.0
 40
1.0
 40
1.0
 40
1.0
 10
9.99999999999704
 20
7.54466573626911
 30
0.0
 10
10.40837123884673
 20
7.400185372356857
 30
0.0
 10
11.22600274114442
 20
7.110910110634588
 30
0.0
 10
12.45470860701896
 20
6.460777033963581
 30
0.0
 10
13.72006374907876
 20
5.642105206215594
 30
0.0
 10
15.02625304634073
 20
4.643354568724805
 30
0.0
 10
16.37416631627347
 20
3.48362356629357
 30
0.0
 10
17.71976990255642
 20
2.221950859936264
 30
0.0
 10
19.06494463379277
 20
0.8963149992549112
 30
0.0
 10
20.41255359816174
 20
-0.4532250562934664
 30
0.0
 10
21.7589965469783
 20
-1.790784097513938
 30
0.0
 10
23.10396671865239
 20
-3.077662201965547
 30
0.0
 10
24.45046109983834
 20
-4.275397634987513
 30
0.0
 10
25.79802899225385
 20
-5.349862268539185
 30
0.0
 10
27.14319087173299
 20
-6.271806774680306
 30
0.0
 10
28.48880617096336
 20
-7.014776505993441
 30
0.0
 10
29.8367999877929
 20
-7.550436959325399
 30
0.0
 10
31.14936206525182
 20
-7.881367927466944
 30
0.0
 10
32.01290682756348
 20
-7.914025570863015
 30
0.0
 10
32.42806122493518
 20
-7.929725931580138
 30
0.0
  0
SPLINE
  5
CB
330
1F
100
AcDbEntity
  8
0
  6
Continuous
 62
     1
370
    15
100
AcDbSpline
210
0.0
220
0.0
230
1.0
 70
     8
 71
     3
 72
    10
 73
     6
 74
     0
 42
0.000000001
 43
0.00000001
 40
0.0
 40
0.0
 40
0.0
 40
0.0
 40
0.2489818419085405
 40
0.6244117607241102
 40
0.9999999999999999
 40
0.9999999999999999
 40
0.9999999999999999
 40
0.9999999999999999
 10
54.56621457708982
 20
7.420133176508636
 30
0.0
 10
54.8936871337667
 20
7.533209030868125
 30
0.0
 10
55.71494266845163
 20
7.81678751504501
 30
0.0
 10
57.03107152798685
 20
7.983134336254508
 30
0.0
 10
58.0196210446904
 20
7.89746272529672
 30
0.0
 10
58.51399999999989
 20
7.854617889697355
 30
0.0
  0
SPLINE
  5
CC
330
1F
100
AcDbEntity
  8
0
  6
Continuous
 62
     1
370
    15
100
AcDbSpline
210
0.0
220
0.0
230
1.0
 70
     8
 71
     3
 72
    29
 73
    25
 74
     0
 42
0.000000001
 43
0.00000001
 40
0.0
 40
0.0
 40
0.0
 40
0.0
 40
0.0179433967447997
 40
0.0664485852477826
 40
0.1150422763562936
 40
0.1635776682636796
 40
0.2120717452732948
 40
0.2606318092376252
 40
0.3092067537926687
 40
0.3577031822929391
 40
0.4062276635441533
 40
0.4548259056850261
 40
0.503338142261313
 40
0.5518404211211303
 40
0.6004303930111276
 40
0.6489718512571666
 40
0.6974653683954731
 40
0.7460182584044448
 40
0.7945995440226009
 40
0.8430977639470246
 40
0.8916174017844704
 40
0.9402164752671875
 40
0.9887328496890474
 40
1.0
 40
1.0
 40
1.0
 40
1.0
 10
54.56621457708983
 20
-7.420133176508624
 30
0.0
 10
54.40033716340598
 20
-7.485446943360548
 30
0.0
 10
53.78605439294626
 20
-7.727319063017696
 30
0.0
 10
52.72339109145544
 20
-7.908148460496354
 30
0.0
 10
51.37549679963817
 20
-7.9686325351942
 30
0.0
 10
50.0293756391933
 20
-7.784839019182049
 30
0.0
 10
48.68437783982437
 20
-7.381521042938481
 30
0.0
 10
47.337539420765
 20
-6.765590620208934
 30
0.0
 10
45.99026916614602
 20
-5.956200132282604
 30
0.0
 10
44.64520670560689
 20
-4.974778097510455
 30
0.0
 10
43.29936093259453
 20
-3.850708479522029
 30
0.0
 10
41.95142176789101
 20
-2.617783302535284
 30
0.0
 10
40.60591237861758
 20
-1.30789921433231
 30
0.0
 10
39.2606815943
 20
0.0396985767113976
 30
0.0
 10
37.91297841523075
 20
1.384244954743231
 30
0.0
 10
36.56666611772321
 20
2.690293446029034
 30
0.0
 10
35.22169147944224
 20
3.919714607660683
 30
0.0
 10
33.87505637078108
 20
5.035691482794683
 30
0.0
 10
32.5276041767768
 20
6.007099764605227
 30
0.0
 10
31.18248639941846
 20
6.8059214135591
 30
0.0
 10
29.83678417688382
 20
7.414057457704417
 30
0.0
 10
28.48878019007808
 20
7.790081089684051
 30
0.0
 10
27.48733601541609
 20
7.956225334816665
 30
0.0
 10
26.93484344251116
 20
7.923369976806354
 30
0.0
 10
26.83071748318665
 20
7.917177865202416
 30
0.0
  0
SPLINE
  5
CD
330
1F
100
AcDbEntity
  8
0
  6
Continuous
 62
     1
370
    15
100
AcDbSpline
210
0.0
220
0.0
230
1.0
 70
     8
 71
     3
 72
    29
 73
    25
 74
     0
 42
0.000000001
 43
0.00000001
 40
0.0
 40
0.0
 40
0.0
 40
0.0
 40
0.007483262565733
 40
0.056003985126878
 40
0.1045032892961742
 40
0.1530856610162511
 40
0.2016396364923208
 40
0.2501342377703623
 40
0.2986767812279262
 40
0.3472678394140379
 40
0.3957712026094708
 40
0.4442845237439919
 40
0.4928838523658719
 40
0.541409418449067
 40
0.5899069311541598
 40
0.638482961669361
 40
0.6870441112611729
 40
0.7355392724230396
 40
0.7840757494063294
 40
0.8326705268941034
 40
0.8811767997977503
 40
0.9345506443498797
 40
0.9879742170828363
 40
1.0
 40
1.0
 40
1.0
 40
1.0
 10
29.62948693755952
 20
7.435084457870791
 30
0.0
 10
29.69871595218969
 20
7.463355480550218
 30
0.0
 10
30.21681894157969
 20
7.674932973622609
 30
0.0
 10
31.18245882712597
 20
7.865103303414686
 30
0.0
 10
32.52761157762173
 20
7.978335918070712
 30
0.0
 10
33.8750543875115
 20
7.842785375264987
 30
0.0
 10
35.2216920099857
 20
7.487588465565035
 30
0.0
 10
36.56666597548163
 20
6.915658266920405
 30
0.0
 10
37.91297845342038
 20
6.145812146416459
 30
0.0
 10
39.26068158402553
 20
5.200435217273147
 30
0.0
 10
40.60591238158472
 20
4.104453715513278
 30
0.0
 10
41.95142176628833
 20
2.890608099622732
 30
0.0
 10
43.29936093603624
 20
1.595732312118512
 30
0.0
 10
44.64520669346738
 20
0.253356341128085
 30
0.0
 10
45.99026921127303
 20
-1.096654114501755
 30
0.0
 10
47.33753925211212
 20
-2.413662883504927
 30
0.0
 10
48.68437846862348
 20
-3.661864634935277
 30
0.0
 10
50.02937329517767
 20
-4.80582836524365
 30
0.0
 10
51.37550556076685
 20
-5.811702707878272
 30
0.0
 10
52.72335837678008
 20
-6.648526473670969
 30
0.0
 10
54.11344690469274
 20
-7.322894824149276
 30
0.0
 10
55.54906927989035
 20
-7.761480558644657
 30
0.0
 10
56.6479581915823
 20
-7.960943477686992
 30
0.0
 10
57.25336385010589
 20
-7.920788526388672
 30
0.0
 10
57.36460218016904
 20
-7.913410383050723
 30
0.0
  0
SPLINE
  5
CE
330
1F
100
AcDbEntity
  8
0
  6
Continuous
 62
     1
370
    15
100
AcDbSpline
210
0.0
220
0.0
230
1.0
 70
     8
 71
     3
 72
    36
 73
    32
 74
     0
 42
0.000000001
 43
0.00000001
 40
0.0
 40
0.0
 40
0.0
 40
0.0
 40
0.1249999999999996
 40
0.1249999999999996
 40
0.2499999999999993
 40
0.2499999999999993
 40
0.3749999999999989
 40
0.3749999999999989
 40
0.4374999999999988
 40
0.4374999999999988
 40
0.4999999999999987
 40
0.4999999999999987
 40
0.5624999999999986
 40
0.5624999999999986
 40
0.6249999999999986
 40
0.6249999999999986
 40
0.6562499999999984
 40
0.6562499999999984
 40
0.6874999999999983
 40
0.6874999999999983
 40
0.7499999999999987
 40
0.7499999999999987
 40
0.7812499999999989
 40
0.7812499999999989
 40
0.812499999999999
 40
0.812499999999999
 40
0.8749999999999993
 40
0.8749999999999993
 40
0.9374999999999998
 40
0.9374999999999998
 40
1.0
 40
1.0
 40
1.0
 40
1.0
 10
58.514
 20
-4.918098045835834
 30
0.0
 10
58.79932913593307
 20
-5.14213213622652
 30
0.0
 10
59.06399700914353
 20
-5.328450803745657
 30
0.0
 10
59.56812431921893
 20
-5.622326471536534
 30
0.0
 10
59.79462395214175
 20
-5.722370506911643
 30
0.0
 10
60.18560895246017
 20
-5.850149350799595
 30
0.0
 10
60.34202921480506
 20
-5.874713529220291
 30
0.0
 10
60.51064922990835
 20
-5.902750747297195
 30
0.0
 10
60.55583665074639
 20
-5.911080248183053
 30
0.0
 10
60.62497649273545
 20
-5.937225416949707
 30
0.0
 10
60.64932395629751
 20
-5.955143879797764
 30
0.0
 10
60.68172104508964
 20
-6.011587914234816
 30
0.0
 10
60.68999266249052
 20
-6.049998432728338
 30
0.0
 10
60.69127141591165
 20
-6.157611704630514
 30
0.0
 10
60.68455167052085
 20
-6.225670711828478
 30
0.0
 10
60.65650883831623
 20
-6.35625430095335
 30
0.0
 10
60.64414997611524
 20
-6.404149189488777
 30
0.0
 10
60.61037113115212
 20
-6.51070960609531
 30
0.0
 10
60.58869626900428
 20
-6.570066907813026
 30
0.0
 10
60.50353665184869
 20
-6.764394815063779
 30
0.0
 10
60.41718300241016
 20
-6.919758842827927
 30
0.0
 10
60.23118264647865
 20
-7.154024453710606
 30
0.0
 10
60.16270982974422
 20
-7.228730779695209
 30
0.0
 10
60.01619024350094
 20
-7.366975671622217
 30
0.0
 10
59.94095825166698
 20
-7.428092962841156
 30
0.0
 10
59.70870997673698
 20
-7.591664020839026
 30
0.0
 10
59.55350183824881
 20
-7.668784888714629
 30
0.0
 10
59.24599226141482
 20
-7.775360007427618
 30
0.0
 10
59.09720083963134
 20
-7.803712623760558
 30
0.0
 10
58.80230572493946
 20
-7.822066108903203
 30
0.0
 10
58.65661138447953
 20
-7.811522782446358
 30
0.0
 10
58.51399999999999
 20
-7.783563406745972
 30
0.0
  0
SPLINE
  5
CF
330
1F
100
AcDbEntity
  8
0
  6
Continuous
 62
     1
370
    15
100
AcDbSpline
210
0.0
220
0.0
230
1.0
 70
     8
 71
     3
 72
    25
 73
    21
 74
     0
 42
0.000000001
 43
0.00000001
 40
0.0
 40
0.0
 40
0.0
 40
0.0
 40
0.0634286313620244
 40
0.1268305258641992
 40
0.1901734040798668
 40
0.2477395577458412
 40
0.3054107466615881
 40
0.3630127458499233
 40
0.420565712350681
 40
0.4781969924358678
 40
0.5358459328662274
 40
0.5934016901255942
 40
0.650990740503108
 40
0.7086673306024471
 40
0.7662418489502913
 40
0.8238045494400024
 40
0.8814713243721923
 40
0.9390805231157479
 40
0.9966328251589744
 40
1.0
 40
1.0
 40
1.0
 40
1.0
 10
58.51399999999989
 20
-7.783563406745952
 30
0.0
 10
58.01961441597714
 20
-7.660575543665277
 30
0.0
 10
57.03105164464129
 20
-7.414651660168475
 30
0.0
 10
55.54906010414619
 20
-6.715874067433512
 30
0.0
 10
54.11344911399581
 20
-5.83097506292536
 30
0.0
 10
52.72335780769396
 20
-4.787740700022142
 30
0.0
 10
51.37550571320729
 20
-3.643717775688822
 30
0.0
 10
50.02937325425572
 20
-2.393612105791807
 30
0.0
 10
48.68437848011198
 20
-1.074330171968493
 30
0.0
 10
47.33753924712047
 20
0.2747141634653078
 30
0.0
 10
45.99026921973521
 20
1.615497787079064
 30
0.0
 10
44.64520666464949
 20
2.911418930983144
 30
0.0
 10
43.29936104300094
 20
4.123389540061558
 30
0.0
 10
41.95142136691604
 20
5.215474743493481
 30
0.0
 10
40.60591386886811
 20
6.159994177311487
 30
0.0
 10
39.26067603014308
 20
6.925728550126167
 30
0.0
 10
37.91299921397097
 20
7.498651877502112
 30
0.0
 10
36.56658861906216
 20
7.831595957858872
 30
0.0
 10
35.64419784338759
 20
7.970764323496141
 30
0.0
 10
35.16955746328799
 20
7.933299965231118
 30
0.0
 10
35.14332287907705
 20
7.931229214610181
 30
0.0
  0
SPLINE
  5
D0
330
1F
100
AcDbEntity
  8
0
  6
Continuous
 62
     1
370
    15
100
AcDbSpline
210
0.0
220
0.0
230
1.0
 70
     8
 71
     3
 72
    10
 73
     6
 74
     0
 42
0.000000001
 43
0.00000001
 40
0.0
 40
0.0
 40
0.0
 40
0.0
 40
0.1832721583087786
 40
0.5920801001707983
 40
1.0
 40
1.0
 40
1.0
 40
1.0
 10
13.0057331853792
 20
-7.427050366340628
 30
0.0
 10
12.82225471510599
 20
-7.495210920780186
 30
0.0
 10
12.2295081023034
 20
-7.715410804235906
 30
0.0
 10
11.22596460604518
 20
-7.906042772356458
 30
0.0
 10
10.40835853636675
 20
-7.92523600978931
 30
0.0
 10
10.00000000000004
 20
-7.934822193939458
 30
0.0
  0
SPLINE
  5
D1
330
1F
100
AcDbEntity
  8
0
  6
Continuous
 62
     1
370
    15
100
AcDbSpline
210
0.0
220
0.0
230
1.0
 70
    24
 71
     3
 72
    12
 73
     8
 74
     0
 42
0.000000001
 43
0.00000001
 40
0.0
 40
0.0
 40
0.0
 40
0.0
 40
0.1161458487925269
 40
0.3470346047647184
 40
0.5846191503015834
 40
0.7899792384621629
 40
1.0
 40
1.0
 40
1.0
 40
1.0
 10
10.0
 20
-5.979126725539628
 30
0.0
 10
10.0
 20
-6.02169511952352
 30
0.0
 10
10.0
 20
-6.148886112014849
 30
0.0
 10
10.0
 20
-6.472167164084239
 30
0.0
 10
10.00000000000001
 20
-6.910866013059241
 30
0.0
 10
10.00000000000001
 20
-7.404303401680596
 30
0.0
 10
10.0
 20
-7.75666473678158
 30
0.0
 10
10.0
 20
-7.934822193939573
 30
0.0
  0
SPLINE
  5
D2
330
1F
100
AcDbEntity
  8
0
  6
Continuous
 62
     1
370
    15
100
AcDbSpline
210
0.0
220
0.0
230
1.0
 70
     8
 71
     3
 72
    12
 73
     8
 74
     0
 42
0.000000001
 43
0.00000001
 40
0.0
 40
0.0
 40
0.0
 40
0.0
 40
0.2112255789786468
 40
0.4229109962554907
 40
0.6340898788582756
 40
0.8659170971458916
 40
1.0
 40
1.0
 40
1.0
 40
1.0
 10
9.999999999997454
 20
-5.908086571976944
 30
0.0
 10
10.40837106810705
 20
-6.167450977255986
 30
0.0
 10
11.22600222855285
 20
-6.686744424385614
 30
0.0
 10
12.45471066054525
 20
-7.269033180011614
 30
0.0
 10
13.72005575251498
 20
-7.693863413278721
 30
0.0
 10
14.83647225277515
 20
-7.922780960904448
 30
0.0
 10
15.54502673657187
 20
-7.913153947551792
 30
0.0
 10
15.80466711416329
 20
-7.909626256401538
 30
0.0
  0
SPLINE
  5
D3
330
1F
100
AcDbEntity
  8
0
  6
Continuous
 62
     1
370
    15
100
AcDbSpline
210
0.0
220
0.0
230
1.0
 70
     8
 71
     3
 72
    22
 73
    18
 74
     0
 42
0.000000001
 43
0.00000001
 40
0.0
 40
0.0
 40
0.0
 40
0.0
 40
0.0641253111525961
 40
0.1295188252411563
 40
0.1949257648859493
 40
0.2604486620946264
 40
0.3258721107023217
 40
0.3912577370054323
 40
0.4567492230919322
 40
0.522220646324865
 40
0.5876031022153493
 40
0.6530412611864514
 40
0.7185580224360386
 40
0.78395545946999
 40
0.8559154850380509
 40
0.9279425554516502
 40
1.0
 40
1.0
 40
1.0
 40
1.0
 10
37.94128401863223
 20
7.446821642507248
 30
0.0
 10
38.38133099130869
 20
7.579698607437118
 30
0.0
 10
39.27012772270162
 20
7.84808043810572
 30
0.0
 10
40.60592708689974
 20
7.971822270169263
 30
0.0
 10
41.95141781767315
 20
7.883524589181873
 30
0.0
 10
43.29936199313645
 20
7.56510949181175
 30
0.0
 10
44.64520641040211
 20
7.030381989096036
 30
0.0
 10
45.99026928796763
 20
6.29316507121912
 30
0.0
 10
47.33753922883062
 20
5.37637966663278
 30
0.0
 10
48.68437848500454
 20
4.305149140971404
 30
0.0
 10
50.02937325294432
 20
3.109413848882631
 30
0.0
 10
51.37550571355921
 20
1.824788921783534
 30
0.0
 10
52.72335780760012
 20
0.4894680838053888
 30
0.0
 10
54.11344911402372
 20
-0.9078466481423757
 30
0.0
 10
55.54906010413848
 20
-2.318780514679933
 30
0.0
 10
57.03105164464321
 20
-3.705503131854266
 30
0.0
 10
58.01961441597778
 20
-4.513842939738831
 30
0.0
 10
58.51399999999989
 20
-4.91809804583575
 30
0.0
  0
SPLINE
  5
D4
330
1F
100
AcDbEntity
  8
0
  6
Continuous
 62
     1
370
    15
100
AcDbSpline
210
0.0
220
0.0
230
1.0
 70
     8
 71
     3
 72
    29
 73
    25
 74
     0
 42
0.000000001
 43
0.00000001
 40
0.0
 40
0.0
 40
0.0
 40
0.0
 40
0.0010283016951037
 40
0.049569018977442
 40
0.0980617958838474
 40
0.1466139447546176
 40
0.1951944888011259
 40
0.2436919684218626
 40
0.2922108656286863
 40
0.3408091972682319
 40
0.3893248311092845
 40
0.4378238699272836
 40
0.4864084189787403
 40
0.53495560918285
 40
0.5834482368762347
 40
0.6319936176309766
 40
0.6805795415717686
 40
0.7290792228487075
 40
0.7775936851987431
 40
0.8261918852509905
 40
0.8747120656280108
 40
0.9189106612518663
 40
0.9632152718377878
 40
1.0
 40
1.0
 40
1.0
 40
1.0
 10
37.94128401863217
 20
-7.44682164250724
 30
0.0
 10
37.93177200587053
 20
-7.450825859194912
 30
0.0
 10
37.47324787492647
 20
-7.643848095690327
 30
0.0
 10
36.56667521052039
 20
-7.83188066749469
 30
0.0
 10
35.2216889991409
 20
-7.979451119869839
 30
0.0
 10
33.87505719183034
 20
-7.872955199700601
 30
0.0
 10
32.52760337629881
 20
-7.547551041102725
 30
0.0
 10
31.18248877731964
 20
-7.003239808253835
 30
0.0
 10
29.83677545381049
 20
-6.258284544858904
 30
0.0
 10
28.48881273695864
 20
-5.334923623694002
 30
0.0
 10
27.14318911440885
 20
-4.257164579101218
 30
0.0
 10
25.79802946402184
 20
-3.056873144943598
 30
0.0
 10
24.45046097334462
 20
-1.77055389223312
 30
0.0
 10
23.10396675284056
 20
-0.4325524662503389
 30
0.0
 10
21.7589965365099
 20
0.9186683478703855
 30
0.0
 10
20.41255360583535
 20
2.242753920369811
 30
0.0
 10
19.06494461358037
 20
3.501567793890286
 30
0.0
 10
17.71976997559853
 20
4.66154939413246
 30
0.0
 10
16.37416604397404
 20
5.687525769927445
 30
0.0
 10
15.0262540636694
 20
6.548591394356157
 30
0.0
 10
13.7200601020441
 20
7.204618058192886
 30
0.0
 10
12.4547208885718
 20
7.648735709852057
 30
0.0
 10
11.29469148560313
 20
7.900744671853633
 30
0.0
 10
10.54561090013952
 20
7.916931901348312
 30
0.0
 10
10.20580389057128
 20
7.924274948484394
 30
0.0
  0
SPLINE
  5
D5
330
1F
100
AcDbEntity
  8
0
  6
Continuous
 62
     1
370
    15
100
AcDbSpline
210
0.0
220
0.0
230
1.0
 70
     8
 71
     3
 72
    29
 73
    25
 74
     0
 42
0.000000001
 43
0.00000001
 40
0.0
 40
0.0
 40
0.0
 40
0.0
 40
0.0243373945579298
 40
0.0728594519375423
 40
0.1214595320105719
 40
0.1699758711419977
 40
0.2184774286285211
 40
0.2670652321151937
 40
0.3156124908474038
 40
0.3641069944775053
 40
0.4126560627290817
 40
0.4612424912732318
 40
0.5097434062759618
 40
0.5582609169437239
 40
0.6068611286091421
 40
0.6553819027689182
 40
0.7038812585140685
 40
0.7524636818983362
 40
0.8010177090083995
 40
0.8495123618572938
 40
0.898054956936694
 40
0.9466460667962343
 40
0.9951494815718377
 40
1.0
 40
1.0
 40
1.0
 40
1.0
 10
13.00573318537914
 20
7.427050366340634
 30
0.0
 10
13.2305940987475
 20
7.508039129942289
 30
0.0
 10
13.90376570186211
 20
7.750497167719099
 30
0.0
 10
15.02621337227471
 20
7.931426672771344
 30
0.0
 10
16.37417693374408
 20
7.956822995138996
 30
0.0
 10
17.71976706097574
 20
7.744232638240603
 30
0.0
 10
19.06494539602035
 20
7.311622578668175
 30
0.0
 10
20.41255339621103
 20
6.669292363358208
 30
0.0
 10
21.7589965925909
 20
5.835380015276402
 30
0.0
 10
23.10396673779362
 20
4.833325507261939
 30
0.0
 10
24.45046097741375
 20
3.69312584803078
 30
0.0
 10
25.79802946281492
 20
2.447878113347838
 30
0.0
 10
27.14318911517306
 20
1.13067965356409
 30
0.0
 10
28.48881273510577
 20
-0.2188058613508321
 30
0.0
 10
29.8367754604645
 20
-1.560067813277335
 30
0.0
 10
31.18248875260964
 20
-2.858445049734234
 30
0.0
 10
32.52760346852459
 20
-4.07496317401584
 30
0.0
 10
33.87505684706678
 20
-5.172967781448972
 30
0.0
 10
35.22169028424135
 20
-6.123669641308392
 30
0.0
 10
36.56667041891409
 20
-6.897442096438117
 30
0.0
 10
37.91296237955977
 20
-7.479112679985197
 30
0.0
 10
39.26074144814591
 20
-7.822307928163711
 30
0.0
 10
40.2023852982819
 20
-7.967397488278777
 30
0.0
 10
40.69551427235535
 20
-7.930595725862436
 30
0.0
 10
40.74034566589233
 20
-7.92725000013857
 30
0.0
  0
LINE
  5
D6
330
1F
100
AcDbEntity
  8
0
  6
Continuous
 62
     1
370
    15
100
AcDbLine
 10
9.999999999999996
 20
7.544665736270029
 30
0.0
 11
9.999999999999996
 21
7.937500000000004
 31
0.0
  0
LINE
  5
D9
330
1F
100
AcDbEntity
  8
0
  6
Continuous
 62
     1
370
    15
100
AcDbLine
 10
9.999999999997863
 20
1.636579164292448
 30
0.0
 11
10.0
 21
4.145953110020812
 31
0.0
  0
LINE
  5
DA
330
1F
100
AcDbEntity
  8
0
  6
Continuous
 62
     1
370
    15
100
AcDbLine
 10
60.8
 20
0.0000000000000033
 30
0.0
 11
60.8
 21
7.155500000000004
 31
0.0
  0
LINE
  5
DB
330
1F
100
AcDbEntity
  8
0
  6
Continuous
 62
     1
370
    15
100
AcDbLine
 10
60.8
 20
-7.155499999999997
 30
0.0
 11
60.8
 21
0.0000000000000033
 31
0.0
  0
LINE
  5
DE
330
1F
100
AcDbEntity
  8
중심선
100
AcDbLine
 10
-43.8
 20
0.0
 30
0.0
 11
63.79999999999999
 21
0.0
 31
0.0
  0
CIRCLE
  5
DF
330
1F
100
AcDbEntity
  8
외형선
100
AcDbCircle
 10
0.0
 20
0.0
 30
0.0
 40
3.000000000000005
  0
INSERT
  5
E0
330
1F
100
AcDbEntity
  8
0
  6
Continuous
 62
     7
100
AcDbBlockReference
 66
     1
  2
블럭10
 10
-16.62936049909349
 20
-51.78679627639982
 30
0.0
  0
ATTRIB
  5
E1
330
E0
100
AcDbEntity
  8
FORMAT
 62
     2
100
AcDbText
 10
-27.68038085127795
 20
-49.71142936356762
 30
0.0
 40
4.233333333333333
  1
GMG23934[ 6 FLUTE ]
 41
0.75
  7
SLDTEXTSTYLE0
 11
-27.68038085127795
 21
-51.82809603023429
 31
0.0
100
AcDbAttribute
  2
AUTOATTR0
 70
     0
 74
     1
  0
SEQEND
  5
E2
330
E0
100
AcDbEntity
  8
0
  6
Continuous
 62
     7
  0
HATCH
  5
E3
330
1F
100
AcDbEntity
  8
중심선
100
AcDbHatch
 10
0.0
 20
0.0
 30
0.0
210
0.0
220
0.0
230
1.0
  2
SOLID
 70
     1
 71
     0
 91
        1
 92
        0
 93
        4
 72
     1
 10
-10.91445119471263
 20
-35.53962197475588
 11
-14.36072643854992
 21
-35.53962197475588
 72
     1
 10
-14.36072643854992
 20
-35.53962197475588
 11
-16.48895629775394
 21
-38.07594755532848
 72
     1
 10
-16.48895629775394
 20
-38.07594755532848
 11
-13.04264796880351
 21
-38.07590812602599
 72
     1
 10
-13.04264796880351
 20
-38.07590812602599
 11
-10.91445119471263
 21
-35.53962197475588
 97
        0
 75
     0
 76
     1
 98
        1
 10
0.0004859200744764
 20
0.2622744311706908
  0
HATCH
  5
E4
330
1F
100
AcDbEntity
  8
중심선
100
AcDbHatch
 10
0.0
 20
0.0
 30
0.0
210
0.0
220
0.0
230
1.0
  2
SOLID
 70
     1
 71
     0
 91
        1
 92
        0
 93
        4
 72
     1
 10
-5.901687203676683
 20
-35.53962197475588
 11
-9.347962447513964
 21
-35.53962197475588
 72
     1
 10
-9.347962447513964
 20
-35.53962197475588
 11
-13.87910045587135
 21
-40.93962197475589
 72
     1
 10
-13.87910045587135
 20
-40.93962197475589
 11
-10.43282521203407
 21
-40.93962197475589
 72
     1
 10
-10.43282521203407
 20
-40.93962197475589
 11
-5.901687203676683
 21
-35.53962197475588
 97
        0
 75
     0
 76
     1
 98
        1
 10
0.0004859200744764
 20
0.2622744311706908
  0
HATCH
  5
E5
330
1F
100
AcDbEntity
  8
중심선
100
AcDbHatch
 10
0.0
 20
0.0
 30
0.0
210
0.0
220
0.0
230
1.0
  2
SOLID
 70
     1
 71
     0
 91
        1
 92
        0
 93
        4
 72
     1
 10
-0.8889232126407867
 20
-35.53962197475591
 11
-4.335198456477903
 21
-35.53962197475588
 72
     1
 10
-4.335198456477903
 20
-35.53962197475588
 11
-11.38363535836715
 21
-43.9396219747559
 72
     1
 10
-11.38363535836715
 20
-43.9396219747559
 11
-7.937360114529869
 21
-43.9396219747559
 72
     1
 10
-7.937360114529869
 20
-43.9396219747559
 11
-0.8889232126407869
 21
-35.53962197475591
 97
        0
 75
     0
 76
     1
 98
        1
 10
0.0004859200744764
 20
0.2622744311706908
  0
HATCH
  5
E6
330
1F
100
AcDbEntity
  8
중심선
100
AcDbHatch
 10
0.0
 20
0.0
 30
0.0
210
0.0
220
0.0
230
1.0
  2
SOLID
 70
     1
 71
     0
 91
        1
 92
        0
 93
        6
 72
     3
 10
3.910967218371413
 20
-39.73962197480716
 11
3.960054785062283
 21
1.540882976769353E-10
 40
0.3939339440162628
 50
17.09539180608436
 51
320.0019657685081
 73
     0
 72
     1
 10
5.593966874072008
 20
-38.32751597939419
 11
7.899268747773046
 21
-36.39318926934626
 72
     3
 10
3.910967218318566
 20
-39.73962197475603
 11
6.600054785286829
 21
-1.278976924368180E-13
 40
0.636358354079598
 50
39.99873849337411
 51
368.4976242363724
 73
     1
 72
     1
 10
10.33629971021917
 20
-38.7796219746859
 11
2.591034525154488
 21
-38.77962197468587
 72
     1
 10
2.591034525154488
 20
-38.77962197468587
 11
2.591009480708554
 21
-40.6996219746858
 72
     1
 10
2.591009480708554
 20
-40.6996219746858
 11
7.032389250180591
 21
-40.69962197468577
 97
        0
 75
     0
 76
     1
 98
        1
 10
0.0004859200744764
 20
0.2622744311706908
  0
POINT
  5
E7
330
1F
100
AcDbEntity
  8
치수문자_일반주서
100
AcDbPoint
 10
0.0
 20
0.0
 30
0.0
  0
DIMENSION
  5
E8
330
1F
100
AcDbEntity
  8
치수문자_일반주서
100
AcDbDimension
  2
_D
 10
76.63027804920581
 20
7.937500000000072
 30
0.0
 11
76.63027804920584
 21
0.0000000000000719
 31
0.0
 70
   160
  1
%%c<>
 71
     2
 42
15.875
 52
-270.0
  3
SLDDIMSTYLE0
100
AcDbAlignedDimension
 13
58.514
 23
-7.937499999999997
 33
0.0
 14
57.98503233343285
 24
7.937500000000004
 34
0.0
 50
90.0000000000002
100
AcDbRotatedDimension
1001
ACAD
1000
DSTYLE
1002
{
1070
   171
1070
     3
1070
   273
1070
     7
1002
}
  0
DIMENSION
  5
FD
330
1F
100
AcDbEntity
  8
치수문자_일반주서
100
AcDbDimension
  2
_D_1
 10
60.8
 20
40.59305141807178
 30
0.0
 11
10.0
 21
40.59305141807178
 31
0.0
 70
   160
  1
<>
 71
     2
 42
101.6
  3
SLDDIMSTYLE1
100
AcDbAlignedDimension
 13
-40.8
 23
7.437499999999997
 33
0.0
 14
60.8
 24
5.651500000000004
 34
0.0
100
AcDbRotatedDimension
1001
ACAD
1000
DSTYLE
1002
{
1070
   171
1070
     3
1070
   273
1070
     7
1002
}
  0
DIMENSION
  5
111
330
1F
100
AcDbEntity
  8
치수문자_일반주서
100
AcDbDimension
  2
_D_2
 10
9.999999999999993
 20
23.27849453033793
 30
0.0
 11
34.84120226380296
 21
23.27849453033793
 31
0.0
 70
   160
  1
<>
 71
     2
 42
50.80000000000001
  3
SLDDIMSTYLE1
100
AcDbAlignedDimension
 13
60.8
 23
5.651500000000004
 33
0.0
 14
9.999999999999995
 24
-7.937499999999997
 34
0.0
 50
0.000000000000028
100
AcDbRotatedDimension
1001
ACAD
1000
DSTYLE
1002
{
1070
   171
1070
     3
1070
   273
1070
     7
1002
}
  0
INSERT
  5
13B
330
1F
100
AcDbEntity
  8
외형선
100
AcDbBlockReference
  2
SW_DOWELSYMBOL_0
 10
0.0
 20
0.0
 30
0.0
  0
DIMENSION
  5
162
330
1F
100
AcDbEntity
  8
치수문자_일반주서
100
AcDbDimension
  2
*D8
 10
-50.00542929291704
 20
-7.937500000000001
 30
0.0
 11
-50.00542929291704
 21
-0.0000000000000009
 31
0.0
 70
   160
  1
{%%c<>}
 71
     5
 42
15.875
  3
SLDDIMSTYLE0
100
AcDbAlignedDimension
 13
-40.3
 23
7.9375
 33
0.0
 14
-40.3
 24
-7.937500000000001
 34
0.0
 50
90.0
100
AcDbRotatedDimension
1001
ACAD
1000
DSTYLE
1002
{
1070
   171
1070
     3
1070
   273
1070
     7
1002
}
  0
ARC
  5
174
330
1F
100
AcDbEntity
  8
0
  6
Continuous
 62
     1
370
    15
100
AcDbCircle
 10
60.018
 20
7.155500000000004
 30
0.0
 40
0.7819999999999997
100
AcDbArc
 50
0.0
 51
90.0
  0
ARC
  5
175
330
1F
100
AcDbEntity
  8
0
  6
Continuous
 62
     1
370
    15
100
AcDbCircle
 10
60.018
 20
-7.155499999999997
 30
0.0
 40
0.7819999999999997
100
AcDbArc
 50
270.0
 51
0.0
  0
DIMENSION
  5
176
330
1F
100
AcDbEntity
  8
치수문자_일반주서
100
AcDbDimension
  2
*D9
 10
60.018
 20
7.155500000000004
 30
0.0
 11
72.97605343430655
 21
25.58539501141399
 31
0.0
 70
   164
  1
<>
 71
     5
 42
0.7820000000000004
  3
SLDDIMSTYLE0
100
AcDbRadialDimension
 15
60.46777738464139
 25
7.795206420371996
 35
0.0
 40
0.0
1001
ACAD
1000
DSTYLE
1002
{
1070
   171
1070
     2
1070
   273
1070
     2
1002
}
1001
ACAD_DSTYLE_DIMRADIAL_EXTENSION
1070
   387
1070
     1
1070
   388
1040
0.0
1070
   390
1040
1.570796326794897
  0
LINE
  5
1DF
330
1F
100
AcDbEntity
  8
0
  6
Continuous
 62
     4
370
    15
100
AcDbLine
 10
-21.68332500000001
 20
6.286499999999965
 30
0.0
 11
-11.497925
 21
6.286499999999965
 31
0.0
  0
LINE
  5
1E0
330
1F
100
AcDbEntity
  8
0
  6
Continuous
 62
     4
370
    15
100
AcDbLine
 10
-21.68332500000001
 20
6.286500000000064
 30
0.0
 11
-23.33432499999996
 21
7.937499999999975
 31
0.0
  0
LINE
  5
1E1
330
1F
100
AcDbEntity
  8
0
  6
Continuous
 62
     4
370
    15
100
AcDbLine
 10
-11.49792500000011
 20
6.286500000000064
 30
0.0
 11
-9.846925000000098
 21
7.937499999999975
 31
0.0
  0
LINE
  5
1E2
330
1F
100
AcDbEntity
  8
0
  6
Continuous
 62
     4
370
    15
100
AcDbLine
 10
-23.33432499999999
 20
7.937500000000002
 30
0.0
 11
-40.3
 21
7.9375
 31
0.0
  0
ENDSEC
  0
SECTION
  2
OBJECTS
  0
DICTIONARY
  5
C
330
0
100
AcDbDictionary
281
     1
  3
ACAD_GROUP
350
D
  3
ACAD_IMAGE_VARS
350
15F
  3
ACAD_LAYOUT
350
1A
  3
ACAD_MLINESTYLE
350
17
  3
ACAD_PLOTSETTINGS
350
19
  3
ACAD_PLOTSTYLENAME
350
E
  3
ACAD_SCALELIST
350
47
  3
APPDATA
350
15D
  3
DWGPROPS
350
207
  0
DICTIONARY
  5
1D1
330
2
100
AcDbDictionary
280
     1
281
     1
  3
ACAD_LAYERSTATES
360
1D2
  0
DICTIONARY
  5
205
330
1F
100
AcDbDictionary
280
     1
281
     1
  3
DIM_BOUNDING_BOXES_V1
360
206
  0
DICTIONARY
  5
D
102
{ACAD_REACTORS
330
C
102
}
330
C
100
AcDbDictionary
281
     1
  0
RASTERVARIABLES
  5
15F
102
{ACAD_REACTORS
330
C
102
}
330
C
100
AcDbRasterVariables
 90
        0
 70
     1
 71
     1
 72
     1
  0
DICTIONARY
  5
1A
102
{ACAD_REACTORS
330
C
102
}
330
C
100
AcDbDictionary
281
     1
  3
Layout1
350
1E
  3
Layout2
350
26
  3
Model
350
22
  0
DICTIONARY
  5
17
102
{ACAD_REACTORS
330
C
102
}
330
C
100
AcDbDictionary
281
     1
  3
Standard
350
18
  0
DICTIONARY
  5
19
102
{ACAD_REACTORS
330
C
102
}
330
C
100
AcDbDictionary
281
     1
  0
ACDBDICTIONARYWDFLT
  5
E
102
{ACAD_REACTORS
330
C
102
}
330
C
100
AcDbDictionary
281
     1
  3
Normal
350
F
100
AcDbDictionaryWithDefault
340
F
  0
DICTIONARY
  5
47
102
{ACAD_REACTORS
330
C
102
}
330
C
100
AcDbDictionary
281
     1
  3
A0
350
48
  3
A1
350
49
  3
A2
350
4A
  3
A3
350
4B
  3
A4
350
4C
  3
A5
350
4D
  3
A6
350
4E
  3
A7
350
4F
  3
A8
350
50
  3
A9
350
51
  3
B0
350
52
  3
B1
350
53
  3
B2
350
54
  3
B3
350
55
  3
B4
350
56
  3
B5
350
57
  3
B6
350
58
  3
B7
350
59
  3
B8
350
5A
  3
B9
350
5B
  3
C0
350
5C
  3
C1
350
5D
  3
C2
350
5E
  3
C3
350
5F
  3
C4
350
60
  3
C5
350
61
  3
C6
350
62
  3
C7
350
63
  3
C8
350
64
  3
C9
350
65
  3
D0
350
66
  3
D1
350
67
  3
D2
350
68
  0
DICTIONARY
  5
15D
102
{ACAD_REACTORS
330
C
102
}
330
C
100
AcDbDictionary
281
     1
  0
XRECORD
  5
207
102
{ACAD_REACTORS
330
C
102
}
330
C
100
AcDbXrecord
280
     1
  1
DWGPROPS COOKIE
  2

  3

  4

  6

  7

  8
12015018
  9

300
=
301
=
302
=
303
=
304
=
305
=
306
=
307
=
308
=
309
=
 40
0.0
 41
2458236.372116343
 42
2459697.067195741
  1

 90
        0
  0
DICTIONARY
  5
1D2
102
{ACAD_REACTORS
330
1D1
102
}
330
1D1
100
AcDbDictionary
281
     1
  0
DICTIONARY
  5
206
102
{ACAD_REACTORS
330
205
102
}
330
205
100
AcDbDictionary
281
     1
  0
LAYOUT
  5
1E
102
{ACAD_REACTORS
330
1A
102
}
330
1A
100
AcDbPlotSettings
  1

  2
none_device
  4

  6

 40
0.0
 41
0.0
 42
0.0
 43
0.0
 44
0.0
 45
0.0
 46
0.0
 47
0.0
 48
0.0
 49
0.0
140
0.0
141
0.0
142
1.0
143
1.0
 70
   688
 72
     1
 73
     0
 74
     5
  7

 75
    16
147
1.0
148
0.0
149
0.0
100
AcDbLayout
  1
Layout1
 70
     1
 71
     1
 10
0.0
 20
0.0
 11
420.0
 21
297.0
 12
0.0
 22
0.0
 32
0.0
 14
1.000000000000000E+20
 24
1.000000000000000E+20
 34
1.000000000000000E+20
 15
-1.000000000000000E+20
 25
-1.000000000000000E+20
 35
-1.000000000000000E+20
146
0.0
 13
0.0
 23
0.0
 33
0.0
 16
1.0
 26
0.0
 36
0.0
 17
0.0
 27
1.0
 37
0.0
 76
     0
330
1B
  0
LAYOUT
  5
26
102
{ACAD_REACTORS
330
1A
102
}
330
1A
100
AcDbPlotSettings
  1

  2
none_device
  4

  6

 40
0.0
 41
0.0
 42
0.0
 43
0.0
 44
0.0
 45
0.0
 46
0.0
 47
0.0
 48
0.0
 49
0.0
140
0.0
141
0.0
142
1.0
143
1.0
 70
   688
 72
     1
 73
     0
 74
     5
  7

 75
    16
147
1.0
148
0.0
149
0.0
100
AcDbLayout
  1
Layout2
 70
     1
 71
     2
 10
0.0
 20
0.0
 11
0.0
 21
0.0
 12
0.0
 22
0.0
 32
0.0
 14
0.0
 24
0.0
 34
0.0
 15
0.0
 25
0.0
 35
0.0
146
0.0
 13
0.0
 23
0.0
 33
0.0
 16
1.0
 26
0.0
 36
0.0
 17
0.0
 27
1.0
 37
0.0
 76
     0
330
23
  0
LAYOUT
  5
22
102
{ACAD_REACTORS
330
1A
102
}
330
1A
100
AcDbPlotSettings
  1

  2
none_device
  4
ANSI_A_(11.00_x_8.50_Inches)
  6

 40
6.35
 41
19.05
 42
6.35000508
 43
19.05000254
 44
279.4
 45
215.9
 46
89.33740652420362
 47
88.60367662800151
 48
0.0
 49
0.0
140
0.0
141
0.0
142
0.057470619123188
143
1.0
 70
  1696
 72
     0
 73
     0
 74
     0
  7

 75
     0
147
0.0235690232323232
148
0.0
149
0.0
100
AcDbLayout
  1
Model
 70
     1
 71
     0
 10
0.0
 20
0.0
 11
420.0
 21
297.0
 12
0.0
 22
0.0
 32
0.0
 14
-54.38042929291704
 24
-49.71142936356762
 34
0.0
 15
80.52506644379285
 25
44.96805141807178
 35
0.0
146
0.0
 13
0.0
 23
0.0
 33
0.0
 16
1.0
 26
0.0
 36
0.0
 17
0.0
 27
1.0
 37
0.0
 76
     0
330
1F
331
29
  0
MLINESTYLE
  5
18
102
{ACAD_REACTORS
330
17
102
}
330
17
100
AcDbMlineStyle
  2
Standard
 70
     0
  3

 62
   256
 51
90.0
 52
90.0
 71
     2
 49
0.5
 62
   256
  6
BYLAYER
 49
-0.5
 62
   256
  6
BYLAYER
  0
ACDBPLACEHOLDER
  5
F
102
{ACAD_REACTORS
330
E
102
}
330
E
  0
SCALE
  5
48
102
{ACAD_REACTORS
330
47
102
}
330
47
100
AcDbScale
 70
     0
300
1:1
140
1.0
141
1.0
290
     1
  0
SCALE
  5
49
102
{ACAD_REACTORS
330
47
102
}
330
47
100
AcDbScale
 70
     0
300
1:2
140
1.0
141
2.0
290
     0
  0
SCALE
  5
4A
102
{ACAD_REACTORS
330
47
102
}
330
47
100
AcDbScale
 70
     0
300
1:4
140
1.0
141
4.0
290
     0
  0
SCALE
  5
4B
102
{ACAD_REACTORS
330
47
102
}
330
47
100
AcDbScale
 70
     0
300
1:5
140
1.0
141
5.0
290
     0
  0
SCALE
  5
4C
102
{ACAD_REACTORS
330
47
102
}
330
47
100
AcDbScale
 70
     0
300
1:8
140
1.0
141
8.0
290
     0
  0
SCALE
  5
4D
102
{ACAD_REACTORS
330
47
102
}
330
47
100
AcDbScale
 70
     0
300
1:10
140
1.0
141
10.0
290
     0
  0
SCALE
  5
4E
102
{ACAD_REACTORS
330
47
102
}
330
47
100
AcDbScale
 70
     0
300
1:16
140
1.0
141
16.0
290
     0
  0
SCALE
  5
4F
102
{ACAD_REACTORS
330
47
102
}
330
47
100
AcDbScale
 70
     0
300
1:20
140
1.0
141
20.0
290
     0
  0
SCALE
  5
50
102
{ACAD_REACTORS
330
47
102
}
330
47
100
AcDbScale
 70
     0
300
1:30
140
1.0
141
30.0
290
     0
  0
SCALE
  5
51
102
{ACAD_REACTORS
330
47
102
}
330
47
100
AcDbScale
 70
     0
300
1:40
140
1.0
141
40.0
290
     0
  0
SCALE
  5
52
102
{ACAD_REACTORS
330
47
102
}
330
47
100
AcDbScale
 70
     0
300
1:50
140
1.0
141
50.0
290
     0
  0
SCALE
  5
53
102
{ACAD_REACTORS
330
47
102
}
330
47
100
AcDbScale
 70
     0
300
1:100
140
1.0
141
100.0
290
     0
  0
SCALE
  5
54
102
{ACAD_REACTORS
330
47
102
}
330
47
100
AcDbScale
 70
     0
300
2:1
140
2.0
141
1.0
290
     0
  0
SCALE
  5
55
102
{ACAD_REACTORS
330
47
102
}
330
47
100
AcDbScale
 70
     0
300
4:1
140
4.0
141
1.0
290
     0
  0
SCALE
  5
56
102
{ACAD_REACTORS
330
47
102
}
330
47
100
AcDbScale
 70
     0
300
8:1
140
8.0
141
1.0
290
     0
  0
SCALE
  5
57
102
{ACAD_REACTORS
330
47
102
}
330
47
100
AcDbScale
 70
     0
300
10:1
140
10.0
141
1.0
290
     0
  0
SCALE
  5
58
102
{ACAD_REACTORS
330
47
102
}
330
47
100
AcDbScale
 70
     0
300
100:1
140
100.0
141
1.0
290
     0
  0
SCALE
  5
59
102
{ACAD_REACTORS
330
47
102
}
330
47
100
AcDbScale
 70
     0
300
1/128" = 1'-0"
140
0.0078125
141
12.0
290
     0
  0
SCALE
  5
5A
102
{ACAD_REACTORS
330
47
102
}
330
47
100
AcDbScale
 70
     0
300
1/64" = 1'-0"
140
0.015625
141
12.0
290
     0
  0
SCALE
  5
5B
102
{ACAD_REACTORS
330
47
102
}
330
47
100
AcDbScale
 70
     0
300
1/32" = 1'-0"
140
0.03125
141
12.0
290
     0
  0
SCALE
  5
5C
102
{ACAD_REACTORS
330
47
102
}
330
47
100
AcDbScale
 70
     0
300
1/16" = 1'-0"
140
0.0625
141
12.0
290
     0
  0
SCALE
  5
5D
102
{ACAD_REACTORS
330
47
102
}
330
47
100
AcDbScale
 70
     0
300
3/32" = 1'-0"
140
0.09375
141
12.0
290
     0
  0
SCALE
  5
5E
102
{ACAD_REACTORS
330
47
102
}
330
47
100
AcDbScale
 70
     0
300
1/8" = 1'-0"
140
0.125
141
12.0
290
     0
  0
SCALE
  5
5F
102
{ACAD_REACTORS
330
47
102
}
330
47
100
AcDbScale
 70
     0
300
3/16" = 1'-0"
140
0.1875
141
12.0
290
     0
  0
SCALE
  5
60
102
{ACAD_REACTORS
330
47
102
}
330
47
100
AcDbScale
 70
     0
300
1/4" = 1'-0"
140
0.25
141
12.0
290
     0
  0
SCALE
  5
61
102
{ACAD_REACTORS
330
47
102
}
330
47
100
AcDbScale
 70
     0
300
3/8" = 1'-0"
140
0.375
141
12.0
290
     0
  0
SCALE
  5
62
102
{ACAD_REACTORS
330
47
102
}
330
47
100
AcDbScale
 70
     0
300
1/2" = 1'-0"
140
0.5
141
12.0
290
     0
  0
SCALE
  5
63
102
{ACAD_REACTORS
330
47
102
}
330
47
100
AcDbScale
 70
     0
300
3/4" = 1'-0"
140
0.75
141
12.0
290
     0
  0
SCALE
  5
64
102
{ACAD_REACTORS
330
47
102
}
330
47
100
AcDbScale
 70
     0
300
1" = 1'-0"
140
1.0
141
12.0
290
     0
  0
SCALE
  5
65
102
{ACAD_REACTORS
330
47
102
}
330
47
100
AcDbScale
 70
     0
300
1-1/2" = 1'-0"
140
1.5
141
12.0
290
     0
  0
SCALE
  5
66
102
{ACAD_REACTORS
330
47
102
}
330
47
100
AcDbScale
 70
     0
300
3" = 1'-0"
140
3.0
141
12.0
290
     0
  0
SCALE
  5
67
102
{ACAD_REACTORS
330
47
102
}
330
47
100
AcDbScale
 70
     0
300
6" = 1'-0"
140
6.0
141
12.0
290
     0
  0
SCALE
  5
68
102
{ACAD_REACTORS
330
47
102
}
330
47
100
AcDbScale
 70
     0
300
1'-0" = 1'-0"
140
12.0
141
12.0
290
     0
  0
ENDSEC
  0
EOF
