  0
SECTION
  2
HEADER
  9
$ACADVER
  1
AC1015
  9
$ACADMAINTVER
 70
     6
  9
$DWGCODEPAGE
  3
ANSI_949
  9
$INSBASE
 10
0.0
 20
0.0
 30
0.0
  9
$EXTMIN
 10
-59.5528202349345
 20
-49.71142936356763
 30
0.0
  9
$EXTMAX
 10
68.22295181301786
 20
44.96805141807176
 30
0.0
  9
$LIMMIN
 10
0.0
 20
0.0
  9
$LIMMAX
 10
420.0
 20
297.0
  9
$ORTHOMODE
 70
     0
  9
$REGENMODE
 70
     1
  9
$FILLMODE
 70
     1
  9
$QTEXTMODE
 70
     0
  9
$MIRRTEXT
 70
     1
  9
$LTSCALE
 40
1.0
  9
$ATTMODE
 70
     1
  9
$TEXTSIZE
 40
3.5
  9
$TRACEWID
 40
1.0
  9
$TEXTSTYLE
  7
Standard
  9
$CLAYER
  8
0
  9
$CELTYPE
  6
ByLayer
  9
$CECOLOR
 62
   256
  9
$CELTSCALE
 40
1.0
  9
$DISPSILH
 70
     0
  9
$DIMSCALE
 40
1.0
  9
$DIMASZ
 40
3.302
  9
$DIMEXO
 40
1.0
  9
$DIMDLI
 40
3.75
  9
$DIMRND
 40
0.0
  9
$DIMDLE
 40
0.0
  9
$DIMEXE
 40
1.0
  9
$DIMTP
 40
0.0
  9
$DIMTM
 40
0.0
  9
$DIMTXT
 40
3.5
  9
$DIMCEN
 40
2.5
  9
$DIMTSZ
 40
0.0
  9
$DIMTOL
 70
     0
  9
$DIMLIM
 70
     0
  9
$DIMTIH
 70
     1
  9
$DIMTOH
 70
     1
  9
$DIMSE1
 70
     0
  9
$DIMSE2
 70
     0
  9
$DIMTAD
 70
     1
  9
$DIMZIN
 70
     0
  9
$DIMBLK
  1

  9
$DIMASO
 70
     1
  9
$DIMSHO
 70
     1
  9
$DIMPOST
  1

  9
$DIMAPOST
  1

  9
$DIMALT
 70
     0
  9
$DIMALTD
 70
     3
  9
$DIMALTF
 40
0.0393700787401575
  9
$DIMLFAC
 40
1.0
  9
$DIMTOFL
 70
     1
  9
$DIMTVP
 40
0.0
  9
$DIMTIX
 70
     0
  9
$DIMSOXD
 70
     0
  9
$DIMSAH
 70
     0
  9
$DIMBLK1
  1

  9
$DIMBLK2
  1

  9
$DIMSTYLE
  2
ISO-25
  9
$DIMCLRD
 70
     0
  9
$DIMCLRE
 70
     0
  9
$DIMCLRT
 70
     0
  9
$DIMTFAC
 40
1.0
  9
$DIMGAP
 40
1.524
  9
$DIMJUST
 70
     0
  9
$DIMSD1
 70
     0
  9
$DIMSD2
 70
     0
  9
$DIMTOLJ
 70
     0
  9
$DIMTZIN
 70
     0
  9
$DIMALTZ
 70
     0
  9
$DIMALTTZ
 70
     0
  9
$DIMUPT
 70
     0
  9
$DIMDEC
 70
     2
  9
$DIMTDEC
 70
     2
  9
$DIMALTU
 70
     2
  9
$DIMALTTD
 70
     3
  9
$DIMTXSTY
  7
Standard
  9
$DIMAUNIT
 70
     0
  9
$DIMADEC
 70
     2
  9
$DIMALTRND
 40
0.0
  9
$DIMAZIN
 70
     0
  9
$DIMDSEP
 70
    44
  9
$DIMATFIT
 70
     3
  9
$DIMFRAC
 70
     0
  9
$DIMLDRBLK
  1

  9
$DIMLUNIT
 70
     2
  9
$DIMLWD
 70
    -2
  9
$DIMLWE
 70
    -2
  9
$DIMTMOVE
 70
     0
  9
$LUNITS
 70
     2
  9
$LUPREC
 70
     2
  9
$SKETCHINC
 40
1.0
  9
$FILLETRAD
 40
10.0
  9
$AUNITS
 70
     0
  9
$AUPREC
 70
     2
  9
$MENU
  1
.
  9
$ELEVATION
 40
0.0
  9
$PELEVATION
 40
0.0
  9
$THICKNESS
 40
0.0
  9
$LIMCHECK
 70
     0
  9
$CHAMFERA
 40
0.0
  9
$CHAMFERB
 40
0.0
  9
$CHAMFERC
 40
0.0
  9
$CHAMFERD
 40
0.0
  9
$SKPOLY
 70
     0
  9
$TDCREATE
 40
2458236.746632454
  9
$TDUCREATE
 40
2458236.371632454
  9
$TDUPDATE
 40
2459697.441839491
  9
$TDUUPDATE
 40
2459697.066839491
  9
$TDINDWG
 40
0.0029770486
  9
$TDUSRTIMER
 40
0.000067419
  9
$USRTIMER
 70
     1
  9
$ANGBASE
 50
0.0
  9
$ANGDIR
 70
     0
  9
$PDMODE
 70
     0
  9
$PDSIZE
 40
-1.0
  9
$PLINEWID
 40
0.0
  9
$SPLFRAME
 70
     0
  9
$SPLINETYPE
 70
     6
  9
$SPLINESEGS
 70
     8
  9
$HANDSEED
  5
202
  9
$SURFTAB1
 70
     6
  9
$SURFTAB2
 70
     6
  9
$SURFTYPE
 70
     6
  9
$SURFU
 70
     6
  9
$SURFV
 70
     6
  9
$UCSBASE
  2

  9
$UCSNAME
  2

  9
$UCSORG
 10
0.0
 20
0.0
 30
0.0
  9
$UCSXDIR
 10
1.0
 20
0.0
 30
0.0
  9
$UCSYDIR
 10
0.0
 20
1.0
 30
0.0
  9
$UCSORTHOREF
  2

  9
$UCSORTHOVIEW
 70
     0
  9
$UCSORGTOP
 10
0.0
 20
0.0
 30
0.0
  9
$UCSORGBOTTOM
 10
0.0
 20
0.0
 30
0.0
  9
$UCSORGLEFT
 10
0.0
 20
0.0
 30
0.0
  9
$UCSORGRIGHT
 10
0.0
 20
0.0
 30
0.0
  9
$UCSORGFRONT
 10
0.0
 20
0.0
 30
0.0
  9
$UCSORGBACK
 10
0.0
 20
0.0
 30
0.0
  9
$PUCSBASE
  2

  9
$PUCSNAME
  2

  9
$PUCSORG
 10
0.0
 20
0.0
 30
0.0
  9
$PUCSXDIR
 10
1.0
 20
0.0
 30
0.0
  9
$PUCSYDIR
 10
0.0
 20
1.0
 30
0.0
  9
$PUCSORTHOREF
  2

  9
$PUCSORTHOVIEW
 70
     0
  9
$PUCSORGTOP
 10
0.0
 20
0.0
 30
0.0
  9
$PUCSORGBOTTOM
 10
0.0
 20
0.0
 30
0.0
  9
$PUCSORGLEFT
 10
0.0
 20
0.0
 30
0.0
  9
$PUCSORGRIGHT
 10
0.0
 20
0.0
 30
0.0
  9
$PUCSORGFRONT
 10
0.0
 20
0.0
 30
0.0
  9
$PUCSORGBACK
 10
0.0
 20
0.0
 30
0.0
  9
$USERI1
 70
     0
  9
$USERI2
 70
     0
  9
$USERI3
 70
     0
  9
$USERI4
 70
     0
  9
$USERI5
 70
     0
  9
$USERR1
 40
0.0
  9
$USERR2
 40
0.0
  9
$USERR3
 40
0.0
  9
$USERR4
 40
0.0
  9
$USERR5
 40
0.0
  9
$WORLDVIEW
 70
     1
  9
$SHADEDGE
 70
     3
  9
$SHADEDIF
 70
    70
  9
$TILEMODE
 70
     1
  9
$MAXACTVP
 70
    64
  9
$PINSBASE
 10
0.0
 20
0.0
 30
0.0
  9
$PLIMCHECK
 70
     0
  9
$PEXTMIN
 10
1.000000000000000E+20
 20
1.000000000000000E+20
 30
1.000000000000000E+20
  9
$PEXTMAX
 10
-1.000000000000000E+20
 20
-1.000000000000000E+20
 30
-1.000000000000000E+20
  9
$PLIMMIN
 10
0.0
 20
0.0
  9
$PLIMMAX
 10
0.0
 20
0.0
  9
$UNITMODE
 70
     0
  9
$VISRETAIN
 70
     1
  9
$PLINEGEN
 70
     0
  9
$PSLTSCALE
 70
     1
  9
$TREEDEPTH
 70
  3020
  9
$CMLSTYLE
  2
Standard
  9
$CMLJUST
 70
     0
  9
$CMLSCALE
 40
20.0
  9
$PROXYGRAPHICS
 70
     1
  9
$MEASUREMENT
 70
     1
  9
$CELWEIGHT
370
    -1
  9
$ENDCAPS
280
     0
  9
$JOINSTYLE
280
     0
  9
$LWDISPLAY
290
     1
  9
$INSUNITS
 70
     4
  9
$HYPERLINKBASE
  1

  9
$STYLESHEET
  1

  9
$XEDIT
290
     1
  9
$CEPSNTYPE
380
     0
  9
$PSTYLEMODE
290
     1
  9
$FINGERPRINTGUID
  2
{F7B282E3-3865-4405-AE7E-AD9F7E36F3F0}
  9
$VERSIONGUID
  2
{FAEB1C32-E019-11D5-929B-00C0DF256EC4}
  9
$EXTNAMES
290
     1
  9
$PSVPSCALE
 40
0.0
  9
$OLESTARTUP
290
     0
  0
ENDSEC
  0
SECTION
  2
CLASSES
  0
CLASS
  1
ACDBDICTIONARYWDFLT
  2
AcDbDictionaryWithDefault
  3
ObjectDBX Classes
 90
        0
280
     0
281
     0
  0
CLASS
  1
VISUALSTYLE
  2
AcDbVisualStyle
  3
ObjectDBX Classes
 90
     4095
280
     0
281
     0
  0
CLASS
  1
MATERIAL
  2
AcDbMaterial
  3
ObjectDBX Classes
 90
     1153
280
     0
281
     0
  0
CLASS
  1
SCALE
  2
AcDbScale
  3
ObjectDBX Classes
 90
     1153
280
     0
281
     0
  0
CLASS
  1
SUN
  2
AcDbSun
  3
SCENEOE
 90
     1153
280
     0
281
     0
  0
CLASS
  1
ACDBPLACEHOLDER
  2
AcDbPlaceHolder
  3
ObjectDBX Classes
 90
        0
280
     0
281
     0
  0
CLASS
  1
LAYOUT
  2
AcDbLayout
  3
ObjectDBX Classes
 90
        0
280
     0
281
     0
  0
CLASS
  1
TABLESTYLE
  2
AcDbTableStyle
  3
ObjectDBX Classes
 90
     4095
280
     0
281
     0
  0
CLASS
  1
MLEADERSTYLE
  2
AcDbMLeaderStyle
  3
ACDB_MLEADERSTYLE_CLASS
 90
     4095
280
     0
281
     0
  0
CLASS
  1
RASTERVARIABLES
  2
AcDbRasterVariables
  3
ISM
 90
        0
280
     0
281
     0
  0
CLASS
  1
DIMASSOC
  2
AcDbDimAssoc
  3
"AcDbDimAssoc|Product Desc:     AcDim ARX App For Dimension|Company:          Autodesk, Inc.|WEB Address:      www.autodesk.com"
 90
        0
280
     0
281
     0
  0
ENDSEC
  0
SECTION
  2
TABLES
  0
TABLE
  2
VPORT
  5
8
330
0
100
AcDbSymbolTable
 70
     1
  0
VPORT
  5
29
330
8
100
AcDbSymbolTableRecord
100
AcDbViewportTableRecord
  2
*Active
 70
     0
 10
0.0
 20
0.0
 11
1.0
 21
1.0
 12
4.335065789041678
 22
-2.371688972747933
 13
0.0
 23
0.0
 14
10.0
 24
10.0
 15
10.0
 25
10.0
 16
0.0
 26
0.0
 36
1.0
 17
0.0
 27
0.0
 37
0.0
 40
96.57307039727219
 41
1.898569570871261
 42
50.0
 43
0.0
 44
0.0
 50
0.0
 51
0.0
 71
    16
 72
  2000
 73
     1
 74
     3
 75
     0
 76
     0
 77
     0
 78
     0
281
     0
 65
     1
110
0.0
120
0.0
130
0.0
111
1.0
121
0.0
131
0.0
112
0.0
122
1.0
132
0.0
 79
     0
146
0.0
  0
ENDTAB
  0
TABLE
  2
LTYPE
  5
5
330
0
100
AcDbSymbolTable
 70
     6
  0
LTYPE
  5
14
330
5
100
AcDbSymbolTableRecord
100
AcDbLinetypeTableRecord
  2
ByBlock
 70
     0
  3

 72
    65
 73
     0
 40
0.0
  0
LTYPE
  5
15
330
5
100
AcDbSymbolTableRecord
100
AcDbLinetypeTableRecord
  2
ByLayer
 70
     0
  3

 72
    65
 73
     0
 40
0.0
  0
LTYPE
  5
16
330
5
100
AcDbSymbolTableRecord
100
AcDbLinetypeTableRecord
  2
Continuous
 70
     0
  3
Solid line
 72
    65
 73
     0
 40
0.0
  0
LTYPE
  5
6A
330
5
100
AcDbSymbolTableRecord
100
AcDbLinetypeTableRecord
  2
HIDDEN
 70
     0
  3
Hidden __ __ __ __ __ __ __ __ __ __ __ __ __ __
 72
    65
 73
     2
 40
1.905
 49
1.27
 74
     0
 49
-0.635
 74
     0
  0
LTYPE
  5
6B
330
5
100
AcDbSymbolTableRecord
100
AcDbLinetypeTableRecord
  2
PHANTOM
 70
     0
  3
Phantom ______  __  __  ______  __  __  ______
 72
    65
 73
     6
 40
12.7
 49
6.35
 74
     0
 49
-1.27
 74
     0
 49
1.27
 74
     0
 49
-1.27
 74
     0
 49
1.27
 74
     0
 49
-1.27
 74
     0
  0
LTYPE
  5
6C
330
5
100
AcDbSymbolTableRecord
100
AcDbLinetypeTableRecord
  2
CENTER
 70
     0
  3
Center ____ _ ____ _ ____ _ ____ _ ____ _ ____
 72
    65
 73
     4
 40
10.16
 49
6.35
 74
     0
 49
-1.27
 74
     0
 49
1.27
 74
     0
 49
-1.27
 74
     0
  0
LTYPE
  5
6D
330
5
100
AcDbSymbolTableRecord
100
AcDbLinetypeTableRecord
  2
CENTERX2
 70
     0
  3
Center (2x) ________  __  ________  __  _____
 72
    65
 73
     4
 40
20.32
 49
12.7
 74
     0
 49
-2.54
 74
     0
 49
2.54
 74
     0
 49
-2.54
 74
     0
  0
LTYPE
  5
6E
330
5
100
AcDbSymbolTableRecord
100
AcDbLinetypeTableRecord
  2
DOT2
 70
     0
  3
Dot (.5x) ........................................
 72
    65
 73
     2
 40
0.635
 49
0.0
 74
     0
 49
-0.635
 74
     0
  0
ENDTAB
  0
TABLE
  2
LAYER
  5
2
102
{ACAD_XDICTIONARY
360
1CB
102
}
330
0
100
AcDbSymbolTable
 70
    17
  0
LAYER
  5
10
330
2
100
AcDbSymbolTableRecord
100
AcDbLayerTableRecord
  2
0
 70
     0
 62
     7
  6
Continuous
370
    -3
390
F
  0
LAYER
  5
6F
330
2
100
AcDbSymbolTableRecord
100
AcDbLayerTableRecord
  2
FORMAT
 70
     0
 62
     2
  6
Continuous
370
    -3
390
F
  0
LAYER
  5
70
330
2
100
AcDbSymbolTableRecord
100
AcDbLayerTableRecord
  2
외형선
 70
     0
 62
   100
  6
Continuous
370
    30
390
F
  0
LAYER
  5
71
330
2
100
AcDbSymbolTableRecord
100
AcDbLayerTableRecord
  2
숨은선
 70
     0
 62
     2
  6
HIDDEN
370
    15
390
F
  0
LAYER
  5
72
330
2
100
AcDbSymbolTableRecord
100
AcDbLayerTableRecord
  2
중심선
 70
     0
 62
     1
  6
CENTERX2
370
    -3
390
F
  0
LAYER
  5
73
330
2
100
AcDbSymbolTableRecord
100
AcDbLayerTableRecord
  2
파단선
 70
     0
 62
     4
  6
Continuous
370
    -3
390
F
  0
LAYER
  5
74
330
2
100
AcDbSymbolTableRecord
100
AcDbLayerTableRecord
  2
해칭선
 70
     0
 62
     4
  6
Continuous
370
    -3
390
F
  0
LAYER
  5
75
330
2
100
AcDbSymbolTableRecord
100
AcDbLayerTableRecord
  2
가는실선
 70
     0
 62
     4
  6
Continuous
370
    -3
390
F
  0
LAYER
  5
76
330
2
100
AcDbSymbolTableRecord
100
AcDbLayerTableRecord
  2
치수_보조선
 70
     0
 62
     4
  6
Continuous
370
    -3
390
F
  0
LAYER
  5
77
330
2
100
AcDbSymbolTableRecord
100
AcDbLayerTableRecord
  2
치수문자_일반주서
 70
     0
 62
     7
  6
Continuous
370
    15
390
F
  0
LAYER
  5
78
330
2
100
AcDbSymbolTableRecord
100
AcDbLayerTableRecord
  2
개별주서
 70
     0
 62
   100
  6
Continuous
370
    30
390
F
  0
LAYER
  5
79
330
2
100
AcDbSymbolTableRecord
100
AcDbLayerTableRecord
  2
중간선
 70
     0
 62
     2
  6
Continuous
370
    15
390
F
  0
LAYER
  5
7A
330
2
100
AcDbSymbolTableRecord
100
AcDbLayerTableRecord
  2
윤곽선
 70
     0
 62
     3
  6
Continuous
370
    40
390
F
  0
LAYER
  5
7B
330
2
100
AcDbSymbolTableRecord
100
AcDbLayerTableRecord
  2
중심마크
 70
     0
 62
   100
  6
Continuous
370
    30
390
F
  0
LAYER
  5
7C
330
2
100
AcDbSymbolTableRecord
100
AcDbLayerTableRecord
  2
가상선
 70
     0
 62
     4
  6
PHANTOM
370
    -3
390
F
  0
LAYER
  5
7D
330
2
100
AcDbSymbolTableRecord
100
AcDbLayerTableRecord
  2
특수지정선
 70
     0
 62
     5
  6
CENTERX2
370
    60
390
F
  0
LAYER
  5
158
330
2
100
AcDbSymbolTableRecord
100
AcDbLayerTableRecord
  2
Defpoints
 70
     0
 62
     7
  6
Continuous
290
     0
370
    -3
390
F
  0
ENDTAB
  0
TABLE
  2
STYLE
  5
3
330
0
100
AcDbSymbolTable
 70
     2
  0
STYLE
  5
11
330
3
100
AcDbSymbolTableRecord
100
AcDbTextStyleTableRecord
  2
Standard
 70
     0
 40
0.0
 41
1.0
 50
0.0
 71
     0
 42
3.5
  3
txt
  4

  0
STYLE
  5
93
330
3
100
AcDbSymbolTableRecord
100
AcDbTextStyleTableRecord
  2
SLDTEXTSTYLE0
 70
     0
 40
0.0
 41
0.75
 50
0.0
 71
     0
 42
3.5
  3
TXT
  4

  0
ENDTAB
  0
TABLE
  2
VIEW
  5
6
330
0
100
AcDbSymbolTable
 70
     0
  0
ENDTAB
  0
TABLE
  2
UCS
  5
7
330
0
100
AcDbSymbolTable
 70
     0
  0
ENDTAB
  0
TABLE
  2
APPID
  5
9
330
0
100
AcDbSymbolTable
 70
     3
  0
APPID
  5
12
330
9
100
AcDbSymbolTableRecord
100
AcDbRegAppTableRecord
  2
ACAD
 70
     0
  0
APPID
  5
16B
330
9
100
AcDbSymbolTableRecord
100
AcDbRegAppTableRecord
  2
PE_DIMMEASUREMENT
 70
     0
  0
APPID
  5
16C
330
9
100
AcDbSymbolTableRecord
100
AcDbRegAppTableRecord
  2
ACAD_DSTYLE_DIMRADIAL_EXTENSION
 70
     0
  0
ENDTAB
  0
TABLE
  2
DIMSTYLE
  5
A
330
0
100
AcDbSymbolTable
 70
     5
100
AcDbDimStyleTable
  0
DIMSTYLE
105
27
330
A
100
AcDbSymbolTableRecord
100
AcDbDimStyleTableRecord
  2
ISO-25
 70
     0
 41
2.5
 42
0.625
 43
3.75
 44
1.25
 73
     0
 74
     0
 77
     1
 78
     8
140
2.5
141
2.5
143
0.03937007874016
147
0.625
171
     3
172
     1
178
     0
271
     2
272
     2
274
     3
278
    44
283
     0
284
     8
340
11
  0
DIMSTYLE
105
E0
102
{ACAD_REACTORS
330
DF
330
170
102
}
330
A
100
AcDbSymbolTableRecord
100
AcDbDimStyleTableRecord
  2
SLDDIMSTYLE0
 70
     0
 41
3.302
 44
0.0
 45
0.000000001
 73
     0
 74
     0
 77
     1
 78
    12
 79
     3
140
3.5
143
0.0393700787401575
147
0.875
148
0.000000001
170
     1
172
     1
173
     1
178
     0
271
     2
272
     2
276
     2
284
    12
289
     0
340
93
  0
DIMSTYLE
105
F5
102
{ACAD_REACTORS
330
F4
102
}
330
A
100
AcDbSymbolTableRecord
100
AcDbDimStyleTableRecord
  2
SLDDIMSTYLE1
 70
     0
 41
3.302
 44
0.0
 45
0.000000001
 73
     0
 74
     0
 77
     1
 78
     4
 79
     1
140
3.5
143
0.0393700787401575
147
0.875
148
0.000000001
170
     1
173
     1
178
     0
271
     2
272
     2
276
     2
284
    12
340
93
  0
DIMSTYLE
105
109
102
{ACAD_REACTORS
330
108
330
15A
102
}
330
A
100
AcDbSymbolTableRecord
100
AcDbDimStyleTableRecord
  2
SLDDIMSTYLE2
 70
     0
 41
3.302
 44
0.0
 45
0.000000001
 73
     0
 74
     0
 77
     1
 78
    12
 79
     3
140
3.5
143
0.0393700787401575
147
0.875
148
0.000000001
170
     1
173
     1
178
     0
271
     2
272
     2
276
     2
284
    12
340
93
  0
DIMSTYLE
105
11D
330
A
100
AcDbSymbolTableRecord
100
AcDbDimStyleTableRecord
  2
SLDDIMSTYLE3
 70
     0
 41
3.302
 44
0.0
 45
0.000000001
 73
     0
 74
     0
 77
     1
 78
     8
 79
     2
140
3.5
143
0.0393700787401575
147
0.875
148
0.000000001
170
     1
172
     1
173
     1
178
     0
271
     2
272
     2
276
     2
284
    12
289
     0
340
93
341
11E
343
11E
344
11E
  0
ENDTAB
  0
TABLE
  2
BLOCK_RECORD
  5
1
330
0
100
AcDbSymbolTable
 70
    10
  0
BLOCK_RECORD
  5
1F
102
{ACAD_XDICTIONARY
360
1FF
102
}
330
1
100
AcDbSymbolTableRecord
100
AcDbBlockTableRecord
  2
*Model_Space
340
22
  0
BLOCK_RECORD
  5
1B
330
1
100
AcDbSymbolTableRecord
100
AcDbBlockTableRecord
  2
*Paper_Space
340
1E
  0
BLOCK_RECORD
  5
23
330
1
100
AcDbSymbolTableRecord
100
AcDbBlockTableRecord
  2
*Paper_Space0
340
26
  0
BLOCK_RECORD
  5
7E
330
1
100
AcDbSymbolTableRecord
100
AcDbBlockTableRecord
  2
블럭10
340
0
102
{BLKREFS
331
D7
102
}
  0
BLOCK_RECORD
  5
E1
330
1
100
AcDbSymbolTableRecord
100
AcDbBlockTableRecord
  2
_D
340
0
  0
BLOCK_RECORD
  5
F6
330
1
100
AcDbSymbolTableRecord
100
AcDbBlockTableRecord
  2
_D_1
340
0
  0
BLOCK_RECORD
  5
10A
330
1
100
AcDbSymbolTableRecord
100
AcDbBlockTableRecord
  2
_D_2
340
0
  0
BLOCK_RECORD
  5
11E
330
1
100
AcDbSymbolTableRecord
100
AcDbBlockTableRecord
  2
_NONE
340
0
  0
BLOCK_RECORD
  5
121
330
1
100
AcDbSymbolTableRecord
100
AcDbBlockTableRecord
  2
_D_3
340
0
  0
BLOCK_RECORD
  5
12D
330
1
100
AcDbSymbolTableRecord
100
AcDbBlockTableRecord
  2
SW_DOWELSYMBOL_0
340
0
102
{BLKREFS
331
133
102
}
  0
BLOCK_RECORD
  5
15D
330
1
100
AcDbSymbolTableRecord
100
AcDbBlockTableRecord
  2
*D8
340
0
  0
BLOCK_RECORD
  5
173
330
1
100
AcDbSymbolTableRecord
100
AcDbBlockTableRecord
  2
*D9
340
0
  0
ENDTAB
  0
ENDSEC
  0
SECTION
  2
BLOCKS
  0
BLOCK
  5
20
330
1F
100
AcDbEntity
  8
0
100
AcDbBlockBegin
  2
*Model_Space
 70
     0
 10
0.0
 20
0.0
 30
0.0
  3
*Model_Space
  1
*Model_Space
  0
ENDBLK
  5
21
330
1F
100
AcDbEntity
  8
0
100
AcDbBlockEnd
  0
BLOCK
  5
1C
330
1B
100
AcDbEntity
 67
     1
  8
0
100
AcDbBlockBegin
  2
*Paper_Space
 70
     0
 10
0.0
 20
0.0
 30
0.0
  3
*Paper_Space
  1
*Paper_Space
  0
ENDBLK
  5
1D
330
1B
100
AcDbEntity
 67
     1
  8
0
100
AcDbBlockEnd
  0
BLOCK
  5
24
330
23
100
AcDbEntity
  8
0
100
AcDbBlockBegin
  2
*Paper_Space0
 70
     0
 10
0.0
 20
0.0
 30
0.0
  3
*Paper_Space0
  1
*Paper_Space0
  0
ENDBLK
  5
25
330
23
100
AcDbEntity
  8
0
100
AcDbBlockEnd
  0
BLOCK
  5
7F
330
7E
100
AcDbEntity
  8
0
100
AcDbBlockBegin
  2
블럭10
 70
     2
 10
0.0
 20
0.0
 30
0.0
  3
블럭10
  1
블럭10
  0
ELLIPSE
  5
81
330
7E
100
AcDbEntity
  8
중심선
100
AcDbEllipse
 10
20.54032771741204
 20
12.0471743016438
 30
0.0
 11
6.600054785286829
 21
-1.261213355974178E-13
 31
0.0
210
0.0
220
0.0
230
1.0
 40
0.636358354079598
 41
0.9219305317359503
 42
6.513795318482858
  0
ELLIPSE
  5
82
330
7E
100
AcDbEntity
  8
중심선
100
AcDbEllipse
 10
20.54032771746488
 20
12.04717430159265
 30
0.0
 11
3.960054785062283
 21
1.540847449632565E-10
 31
0.0
210
0.0
220
0.0
230
1.0
 40
0.3939339440162632
 41
1.131841032648279
 42
5.62031148352944
  0
LINE
  5
83
330
7E
100
AcDbEntity
  8
중심선
100
AcDbLine
 10
2.268634060543552
 20
16.24717430164393
 30
0.0
 11
5.714909304380834
 21
16.24717430164393
 31
0.0
  0
LINE
  5
84
330
7E
100
AcDbEntity
  8
중심선
100
AcDbLine
 10
5.245725140726316
 20
7.84717430164391
 30
0.0
 11
8.692000384563599
 21
7.84717430164391
 31
0.0
  0
LINE
  5
85
330
7E
100
AcDbEntity
  8
중심선
100
AcDbLine
 10
15.74043728645272
 20
16.24717430164393
 30
0.0
 11
8.692000384563599
 21
7.84717430164391
 31
0.0
  0
LINE
  5
86
330
7E
100
AcDbEntity
  8
중심선
100
AcDbLine
 10
0.1404042013395286
 20
13.71084872107135
 30
0.0
 11
3.58671253028996
 21
13.71088815037384
 31
0.0
  0
LINE
  5
87
330
7E
100
AcDbEntity
  8
중심선
100
AcDbLine
 10
2.750260043222114
 20
10.84717430164391
 30
0.0
 11
6.196535287059397
 21
10.84717430164391
 31
0.0
  0
LINE
  5
88
330
7E
100
AcDbEntity
  8
중심선
100
AcDbLine
 10
12.29416204261559
 20
16.24717430164393
 30
0.0
 11
5.245725140726316
 21
7.84717430164391
 31
0.0
  0
LINE
  5
89
330
7E
100
AcDbEntity
  8
중심선
100
AcDbLine
 10
10.72767329541681
 20
16.24717430164393
 30
0.0
 11
6.196535287059397
 21
10.84717430164391
 31
0.0
  0
LINE
  5
8A
330
7E
100
AcDbEntity
  8
중심선
100
AcDbLine
 10
7.28139805157953
 20
16.24717430164393
 30
0.0
 11
2.750260043222114
 21
10.84717430164391
 31
0.0
  0
LINE
  5
8B
330
7E
100
AcDbEntity
  8
중심선
100
AcDbLine
 10
5.714909304380834
 20
16.24717430164393
 30
0.0
 11
3.58671253028996
 21
13.71088815037384
 31
0.0
  0
LINE
  5
8C
330
7E
100
AcDbEntity
  8
중심선
100
AcDbLine
 10
2.268634060543552
 20
16.24717430164393
 30
0.0
 11
0.1404042013395286
 21
13.71084872107135
 31
0.0
  0
LINE
  5
8D
330
7E
100
AcDbEntity
  8
중심선
100
AcDbLine
 10
7.28139805157953
 20
16.24717430164393
 30
0.0
 11
10.72767329541681
 21
16.24717430164393
 31
0.0
  0
LINE
  5
8E
330
7E
100
AcDbEntity
  8
중심선
100
AcDbLine
 10
12.29416204261559
 20
16.24717430164393
 30
0.0
 11
15.74043728645272
 21
16.24717430164393
 31
0.0
  0
LINE
  5
8F
330
7E
100
AcDbEntity
  8
중심선
100
AcDbLine
 10
19.22036997980202
 20
11.08717430171403
 30
0.0
 11
23.66174974927406
 21
11.08717430171406
 31
0.0
  0
LINE
  5
90
330
7E
100
AcDbEntity
  8
중심선
100
AcDbLine
 10
19.22039502424796
 20
13.00717430171391
 30
0.0
 11
19.22036997980202
 21
11.08717430171403
 31
0.0
  0
LINE
  5
91
330
7E
100
AcDbEntity
  8
중심선
100
AcDbLine
 10
19.22039502424796
 20
13.00717430171391
 30
0.0
 11
26.96566020931264
 21
13.00717430171391
 31
0.0
  0
LINE
  5
92
330
7E
100
AcDbEntity
  8
중심선
100
AcDbLine
 10
22.22332737316547
 20
13.45928029700563
 30
0.0
 11
24.52862924686651
 21
15.39360700705356
 31
0.0
  0
ATTDEF
  5
94
330
7E
100
AcDbEntity
  8
FORMAT
 62
     2
100
AcDbText
 10
-11.05102035218446
 20
2.075366912832191
 30
0.0
 40
4.233333333333333
  1
GMG22931[ 6 FLUTE ]
 41
0.75
  7
SLDTEXTSTYLE0
 11
-11.05102035218446
 21
-0.0412997538344756
 31
0.0
100
AcDbAttributeDefinition
  3

  2
AUTOATTR0
 70
     0
 74
     1
  0
ENDBLK
  5
80
330
7E
100
AcDbEntity
  8
0
100
AcDbBlockEnd
  0
BLOCK
  5
E2
330
E1
100
AcDbEntity
  8
0
100
AcDbBlockBegin
  2
_D
 70
     0
 10
0.0
 20
0.0
 30
0.0
  3
_D
  1
_D
  0
LINE
  5
E4
330
E1
100
AcDbEntity
  8
치수문자_일반주서
 62
     0
370
    -2
100
AcDbLine
 10
38.76450000000005
 20
-7.937500000000006
 30
0.0
 11
56.34724571577302
 21
-7.93749999999994
 31
0.0
  0
LINE
  5
E5
330
E1
100
AcDbEntity
  8
치수문자_일반주서
 62
     0
370
    -2
100
AcDbLine
 10
37.76450000000001
 20
7.937499999999997
 30
0.0
 11
56.34724571577296
 21
7.937500000000067
 31
0.0
  0
LINE
  5
E6
330
E1
100
AcDbEntity
  8
치수문자_일반주서
 62
     0
370
    -2
100
AcDbLine
 10
56.34724571577301
 20
-4.635499999999941
 30
0.0
 11
56.34724571577298
 21
4.635500000000067
 31
0.0
  0
SOLID
  5
E7
330
E1
100
AcDbEntity
  8
치수문자_일반주서
 62
     0
100
AcDbTrace
 10
55.79691238243967
 20
-4.635499999999943
 30
0.0
 11
56.89757904910634
 21
-4.635499999999939
 31
0.0
 12
56.34724571577302
 22
-7.93749999999994
 32
0.0
 13
56.34724571577302
 23
-7.93749999999994
 33
0.0
  0
SOLID
  5
E8
330
E1
100
AcDbEntity
  8
치수문자_일반주서
 62
     0
100
AcDbTrace
 10
56.89757904910631
 20
4.635500000000069
 30
0.0
 11
55.79691238243964
 21
4.635500000000065
 31
0.0
 12
56.34724571577296
 22
7.937500000000067
 32
0.0
 13
56.34724571577296
 23
7.937500000000067
 33
0.0
  0
MTEXT
  5
E9
330
E1
100
AcDbEntity
  8
치수문자_일반주서
 62
     0
100
AcDbMText
 10
51.97224571577299
 20
0.0000000000000476
 30
0.0
 40
3.5
 41
0.0
 71
     2
 72
     1
  1
\A1;%%c15.88 [5/8]
  7
SLDTEXTSTYLE0
 11
-3.580687802255621E-15
 21
1.0
 31
0.0
 73
     1
 44
1.0
  0
POINT
  5
EA
330
E1
100
AcDbEntity
  8
Defpoints
 62
     0
100
AcDbPoint
 10
38.70200000000005
 20
-7.937500000000006
 30
0.0
  0
POINT
  5
EB
330
E1
100
AcDbEntity
  8
Defpoints
 62
     0
100
AcDbPoint
 10
37.70200000000001
 20
7.937499999999997
 30
0.0
  0
POINT
  5
EC
330
E1
100
AcDbEntity
  8
Defpoints
 62
     0
100
AcDbPoint
 10
56.34724571577296
 20
7.937500000000067
 30
0.0
  0
ENDBLK
  5
E3
330
E1
100
AcDbEntity
  8
0
100
AcDbBlockEnd
  0
BLOCK
  5
F7
330
F6
100
AcDbEntity
  8
0
100
AcDbBlockBegin
  2
_D_1
 70
     0
 10
0.0
 20
0.0
 30
0.0
  3
_D_1
  1
_D_1
  0
LINE
  5
F9
330
F6
100
AcDbEntity
  8
치수문자_일반주서
 62
     0
370
    -2
100
AcDbLine
 10
-47.15
 20
7.499999999999989
 30
0.0
 11
-47.15
 21
40.59305141807177
 31
0.0
  0
LINE
  5
FA
330
F6
100
AcDbEntity
  8
치수문자_일반주서
 62
     0
370
    -2
100
AcDbLine
 10
41.75000000000001
 20
4.951999999999997
 30
0.0
 11
41.75000000000001
 21
40.59305141807177
 31
0.0
  0
LINE
  5
FB
330
F6
100
AcDbEntity
  8
치수문자_일반주서
 62
     0
370
    -2
100
AcDbLine
 10
-43.848
 20
40.59305141807177
 30
0.0
 11
38.44800000000001
 21
40.59305141807177
 31
0.0
  0
SOLID
  5
FC
330
F6
100
AcDbEntity
  8
치수문자_일반주서
 62
     0
100
AcDbTrace
 10
-43.848
 20
41.14338475140511
 30
0.0
 11
-43.848
 21
40.04271808473844
 31
0.0
 12
-47.15
 22
40.59305141807177
 32
0.0
 13
-47.15
 23
40.59305141807177
 33
0.0
  0
SOLID
  5
FD
330
F6
100
AcDbEntity
  8
치수문자_일반주서
 62
     0
100
AcDbTrace
 10
38.44800000000001
 20
40.04271808473844
 30
0.0
 11
38.44800000000001
 21
41.14338475140511
 31
0.0
 12
41.75000000000001
 22
40.59305141807177
 32
0.0
 13
41.75000000000001
 23
40.59305141807177
 33
0.0
  0
MTEXT
  5
FE
330
F6
100
AcDbEntity
  8
치수문자_일반주서
 62
     0
100
AcDbMText
 10
-2.699999999999998
 20
44.96805141807177
 30
0.0
 40
3.5
 41
0.0
 71
     2
 72
     1
  1
\A1;88.90 [3 1/2]
  7
SLDTEXTSTYLE0
 73
     1
 44
1.0
  0
POINT
  5
FF
330
F6
100
AcDbEntity
  8
Defpoints
 62
     0
100
AcDbPoint
 10
-47.15
 20
7.437499999999989
 30
0.0
  0
POINT
  5
100
330
F6
100
AcDbEntity
  8
Defpoints
 62
     0
100
AcDbPoint
 10
41.75000000000001
 20
4.889499999999997
 30
0.0
  0
POINT
  5
101
330
F6
100
AcDbEntity
  8
Defpoints
 62
     0
100
AcDbPoint
 10
41.75000000000001
 20
40.59305141807177
 30
0.0
  0
ENDBLK
  5
F8
330
F6
100
AcDbEntity
  8
0
100
AcDbBlockEnd
  0
BLOCK
  5
10B
330
10A
100
AcDbEntity
  8
0
100
AcDbBlockBegin
  2
_D_2
 70
     0
 10
0.0
 20
0.0
 30
0.0
  3
_D_2
  1
_D_2
  0
LINE
  5
10D
330
10A
100
AcDbEntity
  8
치수문자_일반주서
 62
     0
370
    -2
100
AcDbLine
 10
41.75000000000001
 20
4.951999999999997
 30
0.0
 11
41.75000000000001
 21
22.51649453033793
 31
0.0
  0
LINE
  5
10E
330
10A
100
AcDbEntity
  8
치수문자_일반주서
 62
     0
370
    -2
100
AcDbLine
 10
10.0
 20
-7.566603663021273
 30
0.0
 11
10.0
 21
22.51649453033793
 31
0.0
  0
LINE
  5
10F
330
10A
100
AcDbEntity
  8
치수문자_일반주서
 62
     0
370
    -2
100
AcDbLine
 10
38.44800000000001
 20
22.51649453033793
 30
0.0
 11
13.302
 21
22.51649453033793
 31
0.0
  0
SOLID
  5
110
330
10A
100
AcDbEntity
  8
치수문자_일반주서
 62
     0
100
AcDbTrace
 10
38.44800000000001
 20
21.96616119700459
 30
0.0
 11
38.44800000000001
 21
23.06682786367126
 31
0.0
 12
41.75000000000001
 22
22.51649453033793
 32
0.0
 13
41.75000000000001
 23
22.51649453033793
 33
0.0
  0
SOLID
  5
111
330
10A
100
AcDbEntity
  8
치수문자_일반주서
 62
     0
100
AcDbTrace
 10
13.302
 20
23.06682786367126
 30
0.0
 11
13.302
 21
21.96616119700459
 31
0.0
 12
10.0
 22
22.51649453033793
 32
0.0
 13
10.0
 23
22.51649453033793
 33
0.0
  0
MTEXT
  5
112
330
10A
100
AcDbEntity
  8
치수문자_일반주서
 62
     0
100
AcDbMText
 10
25.52575141487686
 20
26.89149453033793
 30
0.0
 40
3.5
 41
0.0
 71
     2
 72
     1
  1
\A1;31.75 [1 1/4]
  7
SLDTEXTSTYLE0
 73
     1
 44
1.0
  0
POINT
  5
113
330
10A
100
AcDbEntity
  8
Defpoints
 62
     0
100
AcDbPoint
 10
41.75000000000001
 20
4.889499999999997
 30
0.0
  0
POINT
  5
114
330
10A
100
AcDbEntity
  8
Defpoints
 62
     0
100
AcDbPoint
 10
10.0
 20
-7.629103663021273
 30
0.0
  0
POINT
  5
115
330
10A
100
AcDbEntity
  8
Defpoints
 62
     0
100
AcDbPoint
 10
10.0
 20
22.51649453033793
 30
0.0
  0
ENDBLK
  5
10C
330
10A
100
AcDbEntity
  8
0
100
AcDbBlockEnd
  0
BLOCK
  5
11F
330
11E
100
AcDbEntity
  8
0
100
AcDbBlockBegin
  2
_NONE
 70
     0
 10
0.0
 20
0.0
 30
0.0
  3
_NONE
  1
_NONE
  0
ENDBLK
  5
120
330
11E
100
AcDbEntity
  8
0
100
AcDbBlockEnd
  0
BLOCK
  5
122
330
121
100
AcDbEntity
  8
0
100
AcDbBlockBegin
  2
_D_3
 70
     0
 10
0.0
 20
0.0
 30
0.0
  3
_D_3
  1
_D_3
  0
LINE
  5
124
330
121
100
AcDbEntity
  8
치수문자_일반주서
100
AcDbLine
 10
-70.94336763611722
 20
-13.61414086223942
 30
0.0
 11
-70.94336763611722
 21
-14.32507834780392
 31
0.0
  0
LINE
  5
125
330
121
100
AcDbEntity
  8
치수문자_일반주서
100
AcDbLine
 10
-70.94336763611722
 20
-14.32507834780392
 30
0.0
 11
-65.38711764505791
 21
-14.32507834780388
 31
0.0
  0
LINE
  5
126
330
121
100
AcDbEntity
  8
치수문자_일반주서
100
AcDbLine
 10
-65.38711764505791
 20
-14.32507834780388
 30
0.0
 11
-65.38711764505791
 21
-13.61414086223938
 31
0.0
  0
LINE
  5
127
330
121
100
AcDbEntity
  8
치수문자_일반주서
100
AcDbLine
 10
-70.9433676361173
 20
-2.785408000102166
 30
0.0
 11
-70.9433676361173
 21
-2.074470514537666
 31
0.0
  0
LINE
  5
128
330
121
100
AcDbEntity
  8
치수문자_일반주서
100
AcDbLine
 10
-70.9433676361173
 20
-2.074470514537666
 30
0.0
 11
-65.387117645058
 21
-2.074470514537627
 31
0.0
  0
LINE
  5
129
330
121
100
AcDbEntity
  8
치수문자_일반주서
100
AcDbLine
 10
-65.387117645058
 20
-2.074470514537627
 30
0.0
 11
-65.387117645058
 21
-2.785408000102127
 31
0.0
  0
MTEXT
  5
12A
330
121
100
AcDbEntity
  8
치수문자_일반주서
100
AcDbMText
 10
-69.89885455963683
 20
-12.72546896162804
 30
0.0
 40
3.5
 41
0.0
 71
     1
 72
     1
  1
0.00
  7
SLDTEXTSTYLE0
 11
-7.044195017643634E-15
 21
1.0
 31
0.0
 73
     1
 44
1.0
  0
MTEXT
  5
12B
330
121
100
AcDbEntity
  8
치수문자_일반주서
100
AcDbMText
 10
-64.66222300927636
 20
-12.13204884353452
 30
0.0
 40
3.5
 41
0.0
 71
     1
 72
     1
  1
%%c
  7
SLDTEXTSTYLE0
 11
-7.044195017643634E-15
 21
1.0
 31
0.0
 73
     1
 44
1.0
  0
MTEXT
  5
12C
330
121
100
AcDbEntity
  8
치수문자_일반주서
100
AcDbMText
 10
-64.66222300927639
 20
-6.85361144516044
 30
0.0
 40
3.5
 41
0.0
 71
     1
 72
     1
  1
0
  7
SLDTEXTSTYLE0
 11
-7.044195017643634E-15
 21
1.0
 31
0.0
 73
     1
 44
1.0
  0
ENDBLK
  5
123
330
121
100
AcDbEntity
  8
0
100
AcDbBlockEnd
  0
BLOCK
  5
12E
330
12D
100
AcDbEntity
  8
0
100
AcDbBlockBegin
  2
SW_DOWELSYMBOL_0
 70
     0
 10
0.0
 20
0.0
 30
0.0
  3
SW_DOWELSYMBOL_0
  1
SW_DOWELSYMBOL_0
  0
CIRCLE
  5
130
330
12D
100
AcDbEntity
  8
외형선
 62
     0
100
AcDbCircle
 10
0.0
 20
0.0
 30
0.0
 40
3.000000000000005
  0
HATCH
  5
131
330
12D
100
AcDbEntity
  8
0
  6
Continuous
 62
     0
370
    30
100
AcDbHatch
 10
0.0
 20
0.0
 30
0.0
210
0.0
220
0.0
230
1.0
  2
SOLID
 70
     1
 71
     0
 91
        1
 92
        0
 93
        3
 72
     2
 10
0.0
 20
0.0
 40
3.000000000000005
 50
0.0
 51
90.0
 73
     1
 72
     1
 10
0.0
 20
3.000000000000005
 11
0.0
 21
0.0
 72
     1
 10
0.0
 20
0.0
 11
3.000000000000006
 21
0.0
 97
        0
 75
     0
 76
     1
 98
        1
 10
0.0
 20
0.0
  0
HATCH
  5
132
330
12D
100
AcDbEntity
  8
0
  6
Continuous
 62
     0
370
    30
100
AcDbHatch
 10
0.0
 20
0.0
 30
0.0
210
0.0
220
0.0
230
1.0
  2
SOLID
 70
     1
 71
     0
 91
        1
 92
        0
 93
        3
 72
     2
 10
0.0
 20
0.0
 40
3.000000000000005
 50
180.0
 51
270.0000000000007
 73
     1
 72
     1
 10
0.0
 20
-3.000000000000005
 11
0.0
 21
0.0
 72
     1
 10
0.0
 20
0.0
 11
-3.000000000000006
 21
0.0
 97
        0
 75
     0
 76
     1
 98
        1
 10
0.0
 20
0.0
  0
ENDBLK
  5
12F
330
12D
100
AcDbEntity
  8
0
100
AcDbBlockEnd
  0
BLOCK
  5
15E
330
15D
100
AcDbEntity
  8
0
100
AcDbBlockBegin
  2
*D8
 70
     1
 10
0.0
 20
0.0
 30
0.0
  3
*D8
  1
*D8
  0
LINE
  5
160
330
15D
100
AcDbEntity
  8
치수문자_일반주서
 62
     0
370
    -2
100
AcDbLine
 10
-46.7125
 20
7.937499999999993
 30
0.0
 11
-55.1778202349345
 21
7.937499999999993
 31
0.0
  0
LINE
  5
161
330
15D
100
AcDbEntity
  8
치수문자_일반주서
 62
     0
370
    -2
100
AcDbLine
 10
-46.7125
 20
-7.937500000000008
 30
0.0
 11
-55.1778202349345
 21
-7.937500000000008
 31
0.0
  0
LINE
  5
162
330
15D
100
AcDbEntity
  8
치수문자_일반주서
 62
     0
370
    -2
100
AcDbLine
 10
-55.1778202349345
 20
4.635499999999993
 30
0.0
 11
-55.1778202349345
 21
-4.635500000000008
 31
0.0
  0
SOLID
  5
163
330
15D
100
AcDbEntity
  8
치수문자_일반주서
 62
     0
100
AcDbTrace
 10
-54.62748690160117
 20
4.635499999999993
 30
0.0
 11
-55.72815356826784
 21
4.635499999999993
 31
0.0
 12
-55.1778202349345
 22
7.937499999999993
 32
0.0
 13
-55.1778202349345
 23
7.937499999999993
 33
0.0
  0
SOLID
  5
164
330
15D
100
AcDbEntity
  8
치수문자_일반주서
 62
     0
100
AcDbTrace
 10
-55.72815356826784
 20
-4.635500000000008
 30
0.0
 11
-54.62748690160117
 21
-4.635500000000008
 31
0.0
 12
-55.1778202349345
 22
-7.937500000000008
 32
0.0
 13
-55.1778202349345
 23
-7.937500000000008
 33
0.0
  0
MTEXT
  5
165
330
15D
100
AcDbEntity
  8
치수문자_일반주서
 62
     0
100
AcDbMText
 10
-57.8028202349345
 20
-0.0000000000000071
 30
0.0
 40
3.5
 41
0.0
 71
     5
 72
     1
  1
\A1;{%%C15.88 [5/8]}
  7
SLDTEXTSTYLE0
 11
0.0
 21
1.0
 31
0.0
 73
     1
 44
1.0
  0
POINT
  5
166
330
15D
100
AcDbEntity
  8
Defpoints
 62
     0
100
AcDbPoint
 10
-46.65
 20
7.937499999999993
 30
0.0
  0
POINT
  5
167
330
15D
100
AcDbEntity
  8
Defpoints
 62
     0
100
AcDbPoint
 10
-46.65
 20
-7.937500000000008
 30
0.0
  0
POINT
  5
168
330
15D
100
AcDbEntity
  8
Defpoints
 62
     0
100
AcDbPoint
 10
-55.1778202349345
 20
-7.937500000000007
 30
0.0
  0
ENDBLK
  5
15F
330
15D
100
AcDbEntity
  8
0
100
AcDbBlockEnd
  0
BLOCK
  5
174
330
173
100
AcDbEntity
  8
0
100
AcDbBlockBegin
  2
*D9
 70
     1
 10
0.0
 20
0.0
 30
0.0
  3
*D9
  1
*D9
  0
LINE
  5
176
330
173
100
AcDbEntity
  8
치수문자_일반주서
 62
     0
370
    -2
100
AcDbLine
 10
43.75233501976026
 20
9.70822871848539
 30
0.0
 11
68.22295181301786
 21
32.57163887549257
 31
0.0
  0
MTEXT
  5
177
330
173
100
AcDbEntity
  8
치수문자_일반주서
 62
     0
100
AcDbMText
 10
55.40192361357099
 20
24.18515272386218
 30
0.0
 40
3.5
 41
0.0
 71
     5
 72
     1
  1
\A1;R1.52 [R0.060]
  7
SLDTEXTSTYLE0
 11
0.7306951968007166
 21
0.6827038372327799
 31
0.0
 73
     1
 44
1.0
  0
LINE
  5
178
330
173
100
AcDbEntity
  8
치수문자_일반주서
 62
     0
370
    -2
100
AcDbLine
 10
40.22600000000001
 20
6.413499999999997
 30
0.0
 11
41.3395794799243
 21
7.453940647942752
 31
0.0
  0
SOLID
  5
179
330
173
100
AcDbEntity
  8
치수문자_일반주서
 62
     0
100
AcDbTrace
 10
43.37662034133648
 20
10.11035464179139
 30
0.0
 11
44.12804969818404
 21
9.306102795179395
 31
0.0
 12
41.3395794799243
 22
7.453940647942752
 32
0.0
 13
41.3395794799243
 23
7.453940647942752
 33
0.0
  0
POINT
  5
17A
330
173
100
AcDbEntity
  8
Defpoints
 62
     0
100
AcDbPoint
 10
41.3395794799243
 20
7.453940647942752
 30
0.0
  0
POINT
  5
17B
330
173
100
AcDbEntity
  8
Defpoints
 62
     0
100
AcDbPoint
 10
40.22600000000001
 20
6.413499999999997
 30
0.0
  0
ENDBLK
  5
175
330
173
100
AcDbEntity
  8
0
100
AcDbBlockEnd
  0
ENDSEC
  0
SECTION
  2
ENTITIES
  0
LINE
  5
95
330
1F
100
AcDbEntity
  8
0
  6
Continuous
 62
     4
370
    15
100
AcDbLine
 10
7.779732457534865
 20
7.937499999999996
 30
0.0
 11
-16.19692500000008
 21
7.937499999999995
 31
0.0
  0
LINE
  5
96
330
1F
100
AcDbEntity
  8
0
  6
Continuous
 62
     4
370
    15
100
AcDbLine
 10
-46.65
 20
-7.937500000000008
 30
0.0
 11
7.779732457534871
 21
-7.937500000000004
 31
0.0
  0
LINE
  5
97
330
1F
100
AcDbEntity
  8
0
  6
Continuous
 62
     4
370
    15
100
AcDbLine
 10
-46.65
 20
7.937499999999989
 30
0.0
 11
-47.15
 21
7.437499999999988
 31
0.0
  0
LINE
  5
98
330
1F
100
AcDbEntity
  8
0
  6
Continuous
 62
     4
370
    15
100
AcDbLine
 10
-47.15
 20
-7.437500000000004
 30
0.0
 11
-46.65
 21
-7.937500000000004
 31
0.0
  0
LINE
  5
9B
330
1F
100
AcDbEntity
  8
0
  6
Continuous
 62
     1
370
    15
100
AcDbLine
 10
21.69151787545872
 20
-7.937500000000004
 30
0.0
 11
24.40505488808813
 21
-7.937500000000004
 31
0.0
  0
LINE
  5
9C
330
1F
100
AcDbEntity
  8
0
  6
Continuous
 62
     1
370
    15
100
AcDbLine
 10
24.40505488808819
 20
7.937499999999996
 30
0.0
 11
21.69151787545878
 21
7.937499999999996
 31
0.0
  0
LINE
  5
9D
330
1F
100
AcDbEntity
  8
0
  6
Continuous
 62
     1
370
    15
100
AcDbLine
 10
30.0025406386698
 20
-7.937500000000004
 30
0.0
 11
32.71710800960505
 21
-7.937500000000004
 31
0.0
  0
LINE
  5
9E
330
1F
100
AcDbEntity
  8
0
  6
Continuous
 62
     1
370
    15
100
AcDbLine
 10
38.31521577473855
 20
-7.937500000000004
 30
0.0
 11
40.22600000000002
 21
-7.937500000000007
 31
0.0
  0
LINE
  5
9F
330
1F
100
AcDbEntity
  8
0
  6
Continuous
 62
     1
370
    15
100
AcDbLine
 10
16.09190545555585
 20
7.937499999999996
 30
0.0
 11
13.3777831466802
 21
7.937499999999996
 31
0.0
  0
LINE
  5
A0
330
1F
100
AcDbEntity
  8
0
  6
Continuous
 62
     1
370
    15
100
AcDbLine
 10
32.71710800960505
 20
7.937499999999996
 30
0.0
 11
30.00254063866986
 21
7.937499999999996
 31
0.0
  0
LINE
  5
A1
330
1F
100
AcDbEntity
  8
0
  6
Continuous
 62
     1
370
    15
100
AcDbLine
 10
13.3777831466802
 20
-7.937500000000004
 30
0.0
 11
16.09190545555578
 21
-7.937500000000004
 31
0.0
  0
LINE
  5
A2
330
1F
100
AcDbEntity
  8
0
  6
Continuous
 62
     1
370
    15
100
AcDbLine
 10
38.70200000000001
 20
7.937499999999996
 30
0.0
 11
38.31521577473854
 21
7.937499999999996
 31
0.0
  0
SPLINE
  5
A3
330
1F
100
AcDbEntity
  8
0
  6
Continuous
 62
     4
370
    15
100
AcDbSpline
210
0.0
220
0.0
230
1.0
 70
     8
 71
     3
 72
    14
 73
    10
 74
     0
 42
0.000000001
 43
0.00000001
 40
0.0
 40
0.0
 40
0.0
 40
0.0
 40
0.25
 40
0.25
 40
0.5
 40
0.5
 40
0.75
 40
0.75
 40
1.0
 40
1.0
 40
1.0
 40
1.0
 10
7.476351367189886
 20
-3.703315151773994
 30
0.0
 10
7.365165552855801
 20
-3.604823714234287
 30
0.0
 10
7.273726914054099
 20
-3.493164412394985
 30
0.0
 10
7.125470285467886
 20
-3.244942334509155
 30
0.0
 10
7.070215016526752
 20
-3.109600463801415
 30
0.0
 10
6.993890706334668
 20
-2.829853717346151
 30
0.0
 10
6.972234207864962
 20
-2.683360052436394
 30
0.0
 10
6.950521067356077
 20
-2.388788889409725
 30
0.0
 10
6.9504126405108
 20
-2.239521748692865
 30
0.0
 10
6.9504126405108
 20
-2.088826580713123
 30
0.0
  0
SPLINE
  5
A4
330
1F
100
AcDbEntity
  8
0
  6
Continuous
 62
     4
370
    15
100
AcDbSpline
210
0.0
220
0.0
230
1.0
 70
     8
 71
     3
 72
    22
 73
    18
 74
     0
 42
0.000000001
 43
0.00000001
 40
0.0
 40
0.0
 40
0.0
 40
0.0
 40
0.1250000000000001
 40
0.1250000000000001
 40
0.2500000000000001
 40
0.2500000000000001
 40
0.3750000000000001
 40
0.3750000000000001
 40
0.5000000000000001
 40
0.5000000000000001
 40
0.6250000000000001
 40
0.6250000000000001
 40
0.7500000000000001
 40
0.7500000000000001
 40
0.8750000000000001
 40
0.8750000000000001
 40
1.0
 40
1.0
 40
1.0
 40
1.0
 10
6.950412640510798
 20
-2.08882658071321
 30
0.0
 10
6.950412640510798
 20
-1.919161766913926
 30
0.0
 10
6.950823511445596
 20
-1.748328015487143
 30
0.0
 10
6.981549483441008
 20
-1.406998409067678
 30
0.0
 10
7.011792713671817
 20
-1.234449848220919
 30
0.0
 10
7.118150414629959
 20
-0.9010203459927916
 30
0.0
 10
7.193682397042779
 20
-0.7413811595331669
 30
0.0
 10
7.394753623006026
 20
-0.451059940740744
 30
0.0
 10
7.516322719735109
 20
-0.3249387272134605
 30
0.0
 10
7.804352253156075
 20
-0.1160187169818504
 30
0.0
 10
7.96236964259516
 20
-0.0391898830978178
 30
0.0
 10
8.304845943487702
 20
0.0573635825066028
 30
0.0
 10
8.480777844096542
 20
0.0744402197298958
 30
0.0
 10
8.834569173328118
 20
0.0459068007477903
 30
0.0
 10
9.006282102456872
 20
0.0004662274419733
 30
0.0
 10
9.32731747599884
 20
-0.1488780202930846
 30
0.0
 10
9.472394517174852
 20
-0.2507523073651609
 30
0.0
 10
9.598326626586546
 20
-0.3764869371484065
 30
0.0
  0
SPLINE
  5
A6
330
1F
100
AcDbEntity
  8
0
  6
Continuous
 62
     1
370
    15
100
AcDbSpline
210
0.0
220
0.0
230
1.0
 70
    24
 71
     3
 72
    18
 73
    14
 74
     0
 42
0.000000001
 43
0.00000001
 40
0.0
 40
0.0
 40
0.0
 40
0.0
 40
0.2500000000000001
 40
0.2500000000000001
 40
0.5000000000000002
 40
0.5000000000000002
 40
0.6250000000000002
 40
0.6250000000000002
 40
0.7500000000000001
 40
0.7500000000000001
 40
0.875
 40
0.875
 40
1.0
 40
1.0
 40
1.0
 40
1.0
 10
10.0
 20
-0.7764109331539787
 30
0.0
 10
10.0
 20
-0.8908002061840484
 30
0.0
 10
10.0
 20
-1.056560191484848
 30
0.0
 10
10.0
 20
-1.549439173894076
 30
0.0
 10
10.0
 20
-1.878798482226584
 30
0.0
 10
10.0
 20
-2.521509397013937
 30
0.0
 10
10.0
 20
-2.760098558766214
 30
0.0
 10
10.0
 20
-3.280686386149949
 30
0.0
 10
10.0
 20
-3.562724941969441
 30
0.0
 10
10.0
 20
-4.155532225390869
 30
0.0
 10
10.0
 20
-4.466208740521392
 30
0.0
 10
10.0
 20
-5.092571350791886
 30
0.0
 10
10.0
 20
-5.408031118238718
 30
0.0
 10
10.0
 20
-5.712053521011027
 30
0.0
  0
SPLINE
  5
A7
330
1F
100
AcDbEntity
  8
0
  6
Continuous
 62
     4
370
    15
100
AcDbSpline
210
0.0
220
0.0
230
1.0
 70
     8
 71
     3
 72
    12
 73
     8
 74
     0
 42
0.000000001
 43
0.00000001
 40
0.0
 40
0.0
 40
0.0
 40
0.0
 40
0.25
 40
0.25
 40
0.5
 40
0.5
 40
1.0
 40
1.0
 40
1.0
 40
1.0
 10
10.0
 20
-5.712053521011018
 30
0.0
 10
9.789020413239033
 20
-5.56590262673533
 30
0.0
 10
9.578200450479414
 20
-5.413754770986142
 30
0.0
 10
9.158867737853047
 20
-5.098975757754381
 30
0.0
 10
8.950521958507553
 20
-4.936410325992166
 30
0.0
 10
8.319848413350638
 20
-4.432202187250248
 30
0.0
 10
7.895871106263312
 20
-4.074937219077216
 30
0.0
 10
7.476351367189884
 20
-3.703315151773991
 30
0.0
  0
SPLINE
  5
A8
330
1F
100
AcDbEntity
  8
0
  6
Continuous
 62
     4
370
    15
100
AcDbSpline
210
0.0
220
0.0
230
1.0
 70
     8
 71
     3
 72
     8
 73
     4
 74
     0
 42
0.000000001
 43
0.00000001
 40
0.0
 40
0.0
 40
0.0
 40
0.0
 40
1.0
 40
1.0
 40
1.0
 40
1.0
 10
10.0
 20
-0.7764109331539603
 30
0.0
 10
9.86595957624902
 20
-0.6433271531036118
 30
0.0
 10
9.731983167529357
 20
-0.5099338854450901
 30
0.0
 10
9.598326626586678
 20
-0.3764869371485403
 30
0.0
  0
SPLINE
  5
A9
330
1F
100
AcDbEntity
  8
0
  6
Continuous
 62
     4
370
    15
100
AcDbSpline
210
0.0
220
0.0
230
1.0
 70
     8
 71
     3
 72
     8
 73
     4
 74
     0
 42
0.000000001
 43
0.00000001
 40
0.0
 40
0.0
 40
0.0
 40
0.0
 40
1.0
 40
1.0
 40
1.0
 40
1.0
 10
10.0
 20
-7.229317893270373
 30
0.0
 10
9.86595957624902
 20
-7.174103952788904
 30
0.0
 10
9.731983167529357
 20
-7.11581903581506
 30
0.0
 10
9.59832662658668
 20
-7.054583314308448
 30
0.0
  0
SPLINE
  5
AA
330
1F
100
AcDbEntity
  8
0
  6
Continuous
 62
     4
370
    15
100
AcDbSpline
210
0.0
220
0.0
230
1.0
 70
     8
 71
     3
 72
    22
 73
    18
 74
     0
 42
0.000000001
 43
0.00000001
 40
0.0
 40
0.0
 40
0.0
 40
0.0
 40
0.125
 40
0.125
 40
0.25
 40
0.25
 40
0.375
 40
0.375
 40
0.5
 40
0.5
 40
0.625
 40
0.625
 40
0.75
 40
0.75
 40
0.875
 40
0.875
 40
1.0
 40
1.0
 40
1.0
 40
1.0
 10
6.950412640510798
 20
-7.676195277445909
 30
0.0
 10
6.950412640510798
 20
-7.631442637971402
 30
0.0
 10
6.950823511445598
 20
-7.581114499681506
 30
0.0
 10
6.98154948344101
 20
-7.470399502770106
 30
0.0
 10
7.011792713671814
 20
-7.409224583386216
 30
0.0
 10
7.118150414629962
 20
-7.281709258406781
 30
0.0
 10
7.193682397042784
 20
-7.215877833945979
 30
0.0
 10
7.394753623006033
 20
-7.089656408596671
 30
0.0
 10
7.516322719735117
 20
-7.0313798335338
 30
0.0
 10
7.804352253156087
 20
-6.931947434236768
 30
0.0
 10
7.962369642595172
 20
-6.893714942449741
 30
0.0
 10
8.304845943487715
 20
-6.845342483983095
 30
0.0
 10
8.48077784409655
 20
-6.836565334909111
 30
0.0
 10
8.834569173328125
 20
-6.851019379231553
 30
0.0
 10
9.006282102456879
 20
-6.874147719093563
 30
0.0
 10
9.327317475998841
 20
-6.947610657857611
 30
0.0
 10
9.472394517174857
 20
-6.996886597587415
 30
0.0
 10
9.598326626586546
 20
-7.054583314308386
 30
0.0
  0
SPLINE
  5
AB
330
1F
100
AcDbEntity
  8
0
  6
Continuous
 62
     4
370
    15
100
AcDbSpline
210
0.0
220
0.0
230
1.0
 70
     8
 71
     3
 72
    14
 73
    10
 74
     0
 42
0.000000001
 43
0.00000001
 40
0.0
 40
0.0
 40
0.0
 40
0.0
 40
0.2500000000000002
 40
0.2500000000000002
 40
0.5000000000000003
 40
0.5000000000000003
 40
0.7500000000000001
 40
0.7500000000000001
 40
1.0
 40
1.0
 40
1.0
 40
1.0
 10
7.476351367189886
 20
-7.931708755974285
 30
0.0
 10
7.365165552855801
 20
-7.927455853320278
 30
0.0
 10
7.273726914054101
 20
-7.92034708421419
 30
0.0
 10
7.125470285467886
 20
-7.897005644993327
 30
0.0
 10
7.070215016526752
 20
-7.880761038106443
 30
0.0
 10
6.99389070633467
 20
-7.838628078283398
 30
0.0
 10
6.97223420786496
 20
-7.812439896272704
 30
0.0
 10
6.950521067356078
 20
-7.75117070332013
 30
0.0
 10
6.950412640510797
 20
-7.715944276499321
 30
0.0
 10
6.950412640510797
 20
-7.676195277445663
 30
0.0
  0
SPLINE
  5
AC
330
1F
100
AcDbEntity
  8
0
  6
Continuous
 62
     4
370
    15
100
AcDbSpline
210
0.0
220
0.0
230
1.0
 70
     8
 71
     3
 72
    12
 73
     8
 74
     0
 42
0.000000001
 43
0.00000001
 40
0.0
 40
0.0
 40
0.0
 40
0.0
 40
0.2500000000000001
 40
0.2500000000000001
 40
0.5000000000000001
 40
0.5000000000000001
 40
1.0
 40
1.0
 40
1.0
 40
1.0
 10
10.0
 20
-7.629103663021273
 30
0.0
 10
9.789020413239035
 20
-7.687204878332499
 30
0.0
 10
9.578200450479414
 20
-7.737231607755922
 30
0.0
 10
9.158867737853047
 20
-7.82076417670999
 30
0.0
 10
8.950521958507554
 20
-7.854295358637754
 30
0.0
 10
8.319848413350638
 20
-7.930312313735528
 30
0.0
 10
7.895871106263312
 20
-7.947755556750093
 30
0.0
 10
7.476351367189884
 20
-7.931708755974287
 30
0.0
  0
SPLINE
  5
AD
330
1F
100
AcDbEntity
  8
0
  6
Continuous
 62
     4
370
    15
100
AcDbSpline
210
0.0
220
0.0
230
1.0
 70
     8
 71
     3
 72
     9
 73
     5
 74
     0
 42
0.000000001
 43
0.00000001
 40
0.0
 40
0.0
 40
0.0
 40
0.0
 40
0.5676403212942738
 40
1.0
 40
1.0
 40
1.0
 40
1.0
 10
9.999999999999998
 20
7.629103663021267
 30
0.0
 10
9.580232805318674
 20
7.731400220212377
 30
0.0
 10
8.840737778389975
 20
7.911613910737151
 30
0.0
 10
8.099998328216516
 20
7.916916757697642
 30
0.0
 10
7.779732457534865
 20
7.919209494905703
 30
0.0
  0
LINE
  5
AE
330
1F
100
AcDbEntity
  8
0
  6
Continuous
 62
     1
370
    15
100
AcDbLine
 10
9.999999999999998
 20
7.629103663021272
 30
0.0
 11
9.999999999999998
 21
6.452906960116461
 31
0.0
  0
SPLINE
  5
AF
330
1F
100
AcDbEntity
  8
0
  6
Continuous
 62
     4
370
    15
100
AcDbSpline
210
0.0
220
0.0
230
1.0
 70
     8
 71
     3
 72
     8
 73
     4
 74
     0
 42
0.000000001
 43
0.00000001
 40
0.0
 40
0.0
 40
0.0
 40
0.0
 40
1.0
 40
1.0
 40
1.0
 40
1.0
 10
9.999999999999998
 20
6.45290696011646
 30
0.0
 10
9.865959576249017
 20
6.530776799685343
 30
0.0
 10
9.731983167529348
 20
6.605885150370021
 30
0.0
 10
9.598326626586667
 20
6.678096377159961
 30
0.0
  0
SPLINE
  5
B0
330
1F
100
AcDbEntity
  8
0
  6
Continuous
 62
     4
370
    15
100
AcDbSpline
210
0.0
220
0.0
230
1.0
 70
     8
 71
     3
 72
    22
 73
    18
 74
     0
 42
0.000000001
 43
0.00000001
 40
0.0
 40
0.0
 40
0.0
 40
0.0
 40
0.1249999999999999
 40
0.1249999999999999
 40
0.2499999999999999
 40
0.2499999999999999
 40
0.3749999999999999
 40
0.3749999999999999
 40
0.4999999999999999
 40
0.4999999999999999
 40
0.6249999999999999
 40
0.6249999999999999
 40
0.7499999999999999
 40
0.7499999999999999
 40
0.8749999999999999
 40
0.8749999999999999
 40
1.0
 40
1.0
 40
1.0
 40
1.0
 10
6.950412640510798
 20
5.587368696732734
 30
0.0
 10
6.950412640510798
 20
5.712280871057517
 30
0.0
 10
6.950823511445599
 20
5.832786484194405
 30
0.0
 10
6.981549483441011
 20
6.063401093702475
 30
0.0
 10
7.011792713671817
 20
6.174774735165342
 30
0.0
 10
7.118150414629959
 20
6.38068891241404
 30
0.0
 10
7.193682397042775
 20
6.474496674412863
 30
0.0
 10
7.394753623006021
 20
6.638596467855979
 30
0.0
 10
7.516322719735108
 20
6.706441106320391
 30
0.0
 10
7.804352253156074
 20
6.815928717254969
 30
0.0
 10
7.962369642595155
 20
6.854525059351976
 30
0.0
 10
8.304845943487695
 20
6.90270606648975
 30
0.0
 10
8.480777844096535
 20
6.911005554639061
 30
0.0
 10
8.834569173328108
 20
6.896926179979394
 30
0.0
 10
9.006282102456861
 20
6.874613946535588
 30
0.0
 10
9.327317475998827
 20
6.79873263756458
 30
0.0
 10
9.472394517174843
 20
6.746134290222307
 30
0.0
 10
9.59832662658654
 20
6.678096377160031
 30
0.0
  0
SPLINE
  5
B1
330
1F
100
AcDbEntity
  8
0
  6
Continuous
 62
     4
370
    15
100
AcDbSpline
210
0.0
220
0.0
230
1.0
 70
     8
 71
     3
 72
    14
 73
    10
 74
     0
 42
0.000000001
 43
0.00000001
 40
0.0
 40
0.0
 40
0.0
 40
0.0
 40
0.25
 40
0.25
 40
0.5
 40
0.5
 40
0.75
 40
0.75
 40
1.0
 40
1.0
 40
1.0
 40
1.0
 10
7.476351367189886
 20
4.228393604200308
 30
0.0
 10
7.365165552855801
 20
4.322632139086007
 30
0.0
 10
7.273726914054098
 20
4.427182671819226
 30
0.0
 10
7.125470285467884
 20
4.652063310484196
 30
0.0
 10
7.07021501652675
 20
4.771160574305053
 30
0.0
 10
6.993890706334668
 20
5.008774360937276
 30
0.0
 10
6.972234207864958
 20
5.129079843836339
 30
0.0
 10
6.950521067356076
 20
5.362381813910439
 30
0.0
 10
6.950412640510802
 20
5.476422527806496
 30
0.0
 10
6.950412640510802
 20
5.587368696732579
 30
0.0
  0
SPLINE
  5
B2
330
1F
100
AcDbEntity
  8
0
  6
Continuous
 62
     4
370
    15
100
AcDbSpline
210
0.0
220
0.0
230
1.0
 70
     8
 71
     3
 72
    12
 73
     8
 74
     0
 42
0.000000001
 43
0.00000001
 40
0.0
 40
0.0
 40
0.0
 40
0.0
 40
0.2500000000000001
 40
0.2500000000000001
 40
0.5000000000000002
 40
0.5000000000000002
 40
1.0
 40
1.0
 40
1.0
 40
1.0
 10
9.999999999999998
 20
1.917050142010246
 30
0.0
 10
9.789020413239035
 20
2.121302251597159
 30
0.0
 10
9.578200450479414
 20
2.323476836769772
 30
0.0
 10
9.158867737853047
 20
2.721788418955607
 30
0.0
 10
8.950521958507558
 20
2.917885032645582
 30
0.0
 10
8.319848413350643
 20
3.498110126485279
 30
0.0
 10
7.895871106263315
 20
3.872818337672881
 30
0.0
 10
7.476351367189889
 20
4.228393604200305
 30
0.0
  0
LINE
  5
B3
330
1F
100
AcDbEntity
  8
0
  6
Continuous
 62
     1
370
    15
100
AcDbLine
 10
9.999999999999998
 20
1.917050142010244
 30
0.0
 11
10.0
 21
-0.7764109331539585
 31
0.0
  0
LINE
  5
B4
330
1F
100
AcDbEntity
  8
0
  6
Continuous
 62
     4
370
    15
100
AcDbLine
 10
9.999999999999998
 20
-5.712053521011025
 30
0.0
 11
10.0
 21
-7.229317893270373
 31
0.0
  0
LINE
  5
B5
330
1F
100
AcDbEntity
  8
0
  6
Continuous
 62
     4
370
    15
100
AcDbLine
 10
-46.65
 20
7.937499999999989
 30
0.0
 11
-46.65
 21
-7.93749999999999
 31
0.0
  0
LINE
  5
B6
330
1F
100
AcDbEntity
  8
0
  6
Continuous
 62
     4
370
    15
100
AcDbLine
 10
-47.15
 20
7.437499999999989
 30
0.0
 11
-47.15
 21
-7.437500000000004
 31
0.0
  0
SPLINE
  5
B7
330
1F
100
AcDbEntity
  8
0
  6
Continuous
 62
     1
370
    15
100
AcDbSpline
210
0.0
220
0.0
230
1.0
 70
    24
 71
     3
 72
    18
 73
    14
 74
     0
 42
0.000000001
 43
0.00000001
 40
0.0
 40
0.0
 40
0.0
 40
0.0
 40
0.2499999999999999
 40
0.2499999999999999
 40
0.4999999999999998
 40
0.4999999999999998
 40
0.6249999999999998
 40
0.6249999999999998
 40
0.7499999999999999
 40
0.7499999999999999
 40
0.875
 40
0.875
 40
1.0
 40
1.0
 40
1.0
 40
1.0
 10
9.999999999999998
 20
6.452906960116411
 30
0.0
 10
9.999999999999998
 20
6.130619408946655
 30
0.0
 10
10.0
 20
5.761043540790395
 30
0.0
 10
9.999999999999998
 20
4.937370207893169
 30
0.0
 10
10.0
 20
4.481639020748191
 30
0.0
 10
10.0
 20
3.792772457135152
 30
0.0
 10
10.0
 20
3.563042343291064
 30
0.0
 10
10.0
 20
3.122452647283082
 30
0.0
 10
9.999999999999998
 20
2.911725158530332
 30
0.0
 10
10.0
 20
2.532116992353594
 30
0.0
 10
9.999999999999998
 20
2.363455589693043
 30
0.0
 10
9.999999999999998
 20
2.089374255912283
 30
0.0
 10
10.0
 20
1.984161287618899
 30
0.0
 10
10.0
 20
1.917050142010245
 30
0.0
  0
SPLINE
  5
B8
330
1F
100
AcDbEntity
  8
0
  6
Continuous
 62
     4
370
    15
100
AcDbSpline
210
0.0
220
0.0
230
1.0
 70
    24
 71
     3
 72
     9
 73
     5
 74
     0
 42
0.000000001
 43
0.00000001
 40
0.0
 40
0.0
 40
0.0
 40
0.0
 40
0.0670791049896841
 40
1.0
 40
1.0
 40
1.0
 40
1.0
 10
9.999999999999998
 20
-7.29197090922384
 30
0.0
 10
9.999999999999998
 20
-7.298378842870245
 30
0.0
 10
9.999999999999998
 20
-7.393906856361038
 30
0.0
 10
9.999999999999998
 20
-7.515586334950867
 30
0.0
 10
9.999999999999998
 20
-7.62910366302128
 30
0.0
  0
SPLINE
  5
B9
330
1F
100
AcDbEntity
  8
0
  6
Continuous
 62
     1
370
    15
100
AcDbSpline
210
0.0
220
0.0
230
1.0
 70
     8
 71
     3
 72
    34
 73
    30
 74
     0
 42
0.000000001
 43
0.00000001
 40
0.0
 40
0.0
 40
0.0
 40
0.0
 40
0.1249999999999999
 40
0.1249999999999999
 40
0.1874999999999999
 40
0.1874999999999999
 40
0.2499999999999998
 40
0.2499999999999998
 40
0.3124999999999998
 40
0.3124999999999998
 40
0.3749999999999998
 40
0.3749999999999998
 40
0.4999999999999998
 40
0.4999999999999998
 40
0.5624999999999999
 40
0.5624999999999999
 40
0.6249999999999998
 40
0.6249999999999998
 40
0.6874999999999999
 40
0.6874999999999999
 40
0.71875
 40
0.71875
 40
0.75
 40
0.75
 40
0.8125
 40
0.8125
 40
0.875
 40
0.875
 40
1.0
 40
1.0
 40
1.0
 40
1.0
 10
38.702
 20
3.628695419518269
 30
0.0
 10
39.01649432329259
 20
3.349604679751257
 30
0.0
 10
39.31232718138283
 20
3.038263228703411
 30
0.0
 10
39.73769764079393
 20
2.532809854467629
 30
0.0
 10
39.87547326883728
 20
2.35814201206456
 30
0.0
 10
40.13693307458118
 20
2.006326738904001
 30
0.0
 10
40.26157850583829
 20
1.827876892409306
 30
0.0
 10
40.49725574536729
 20
1.464596531397831
 30
0.0
 10
40.60878915630683
 20
1.278701880220239
 30
0.0
 10
40.81084367463482
 20
0.9064762962978111
 30
0.0
 10
40.90188132761207
 20
0.7194881453149007
 30
0.0
 10
41.14234333648209
 20
0.1504927437901064
 30
0.0
 10
41.25909646393805
 20
-0.2423810782031069
 30
0.0
 10
41.35416960119427
 20
-0.8563421430016503
 30
0.0
 10
41.37321356647465
 20
-1.067185378839734
 30
0.0
 10
41.38023757106064
 20
-1.498013020898144
 30
0.0
 10
41.36880182961264
 20
-1.718727936775705
 30
0.0
 10
41.29614678704466
 20
-2.155182860480787
 30
0.0
 10
41.2342263160869
 20
-2.373399502810817
 30
0.0
 10
41.07228669478105
 20
-2.641342930690203
 30
0.0
 10
41.00886943105431
 20
-2.716511651566779
 30
0.0
 10
40.86238978047439
 20
-2.833193189446181
 30
0.0
 10
40.78204537789127
 20
-2.872346889144272
 30
0.0
 10
40.52918767104097
 20
-2.938598593489897
 30
0.0
 10
40.35308924200374
 20
-2.915250858805503
 30
0.0
 10
40.00930822259739
 20
-2.804252712257247
 30
0.0
 10
39.83792809561919
 20
-2.714312713761253
 30
0.0
 10
39.33878425570933
 20
-2.39689770212168
 30
0.0
 10
39.01569234505779
 20
-2.118141596567031
 30
0.0
 10
38.70200000000001
 20
-1.813417971384187
 30
0.0
  0
SPLINE
  5
BA
330
1F
100
AcDbEntity
  8
0
  6
Continuous
 62
     1
370
    15
100
AcDbSpline
210
0.0
220
0.0
230
1.0
 70
     8
 71
     3
 72
    19
 73
    15
 74
     0
 42
0.000000001
 43
0.00000001
 40
0.0
 40
0.0
 40
0.0
 40
0.0
 40
0.0789890857785566
 40
0.1581918678682644
 40
0.2371652480603209
 40
0.3163166264509022
 40
0.3953773653584687
 40
0.4822316250369224
 40
0.5692821561718493
 40
0.6561426123616276
 40
0.7430230324016124
 40
0.8300677112547938
 40
0.9169083665203092
 40
1.0
 40
1.0
 40
1.0
 40
1.0
 10
38.70200000000001
 20
-1.813417971384188
 30
0.0
 10
38.32597174440086
 20
-1.443013015004553
 30
0.0
 10
37.57289792998507
 20
-0.701201012247274
 30
0.0
 10
36.44054666418047
 20
0.4317081971820815
 30
0.0
 10
35.31155258267114
 20
1.558061516091871
 30
0.0
 10
34.17987875072814
 20
2.649638156895779
 30
0.0
 10
33.01231521781264
 20
3.723488266722045
 30
0.0
 10
31.80780598000499
 20
4.749090038539097
 30
0.0
 10
30.56315131584227
 20
5.687793558133557
 30
0.0
 10
29.32123871836076
 20
6.489292564732967
 30
0.0
 10
28.0790449888377
 20
7.132563537164643
 30
0.0
 10
26.83445701780403
 20
7.596282870717216
 30
0.0
 10
25.61112603439685
 20
7.886372028459562
 30
0.0
 10
24.80112187162991
 20
7.917966601286283
 30
0.0
 10
24.40505488808819
 20
7.933415370232139
 30
0.0
  0
SPLINE
  5
BB
330
1F
100
AcDbEntity
  8
0
  6
Continuous
 62
     1
370
    15
100
AcDbSpline
210
0.0
220
0.0
230
1.0
 70
     8
 71
     3
 72
    17
 73
    13
 74
     0
 42
0.000000001
 43
0.00000001
 40
0.0
 40
0.0
 40
0.0
 40
0.0
 40
0.0760975830127274
 40
0.1841279219974616
 40
0.292133437189859
 40
0.4003752986239921
 40
0.5083731088442146
 40
0.6066801660688135
 40
0.7050999277908241
 40
0.8032983599460981
 40
0.9017820389355337
 40
1.0
 40
1.0
 40
1.0
 40
1.0
 10
27.20380301326531
 20
7.429963638945995
 30
0.0
 10
27.49572627840978
 20
7.529530415692273
 30
0.0
 10
28.20207228922559
 20
7.770445080474878
 30
0.0
 10
29.32126351247494
 20
7.93649913852466
 30
0.0
 10
30.56314465474671
 20
7.951121192856215
 30
0.0
 10
31.80780776758812
 20
7.76495367584597
 30
0.0
 10
33.01231478686532
 20
7.401283950555457
 30
0.0
 10
34.17987886172842
 20
6.886240982239946
 30
0.0
 10
35.31155255300169
 20
6.249898360455047
 30
0.0
 10
36.44054667211116
 20
5.482899394293151
 30
0.0
 10
37.57289792800625
 20
4.613655681385075
 30
0.0
 10
38.32597174374185
 20
3.956719695569193
 30
0.0
 10
38.702
 20
3.628695419518265
 30
0.0
  0
SPLINE
  5
BC
330
1F
100
AcDbEntity
  8
0
  6
Continuous
 62
     1
370
    15
100
AcDbSpline
210
0.0
220
0.0
230
1.0
 70
     8
 71
     3
 72
    22
 73
    18
 74
     0
 42
0.000000001
 43
0.00000001
 40
0.0
 40
0.0
 40
0.0
 40
0.0
 40
0.0214790375115567
 40
0.0936489838632702
 40
0.1658809395507832
 40
0.2382022655449166
 40
0.3103630024754661
 40
0.3826311201955961
 40
0.4549209741991681
 40
0.5270797550187005
 40
0.5993857601746052
 40
0.6716363230002754
 40
0.7372320306288269
 40
0.8030118350813434
 40
0.8686029720433961
 40
0.9343284760654177
 40
1.0
 40
1.0
 40
1.0
 40
1.0
 10
27.20380301326526
 20
-7.429963638946002
 30
0.0
 10
27.08052326409102
 20
-7.477920010380561
 30
0.0
 10
26.54302137487112
 20
-7.687010638962018
 30
0.0
 10
25.59288220510545
 20
-7.872661489531851
 30
0.0
 10
24.35013384539367
 20
-7.972010739034778
 30
0.0
 10
23.1058923208979
 20
-7.863257245053952
 30
0.0
 10
21.8644108963156
 20
-7.565135991082899
 30
0.0
 10
20.62107823604428
 20
-7.081370118251836
 30
0.0
 10
19.37736712957542
 20
-6.425110330352186
 30
0.0
 10
18.13590830368545
 20
-5.609828123994394
 30
0.0
 10
16.89195749070841
 20
-4.659295760549261
 30
0.0
 10
15.68645067839845
 20
-3.626494509788884
 30
0.0
 10
14.52052582864337
 20
-2.545225713750824
 30
0.0
 10
13.38881133258692
 20
-1.451300882768487
 30
0.0
 10
12.26055689034417
 20
-0.3239961979448905
 30
0.0
 10
11.12976609091893
 20
0.8089460576515205
 30
0.0
 10
10.37648554357486
 20
1.547783289437267
 30
0.0
 10
10.00000000000001
 20
1.91705014201024
 30
0.0
  0
SPLINE
  5
BD
330
1F
100
AcDbEntity
  8
0
  6
Continuous
 62
     1
370
    15
100
AcDbSpline
210
0.0
220
0.0
230
1.0
 70
    24
 71
     3
 72
    18
 73
    14
 74
     0
 42
0.000000001
 43
0.00000001
 40
0.0
 40
0.0
 40
0.0
 40
0.0
 40
0.2499999999999999
 40
0.2499999999999999
 40
0.4999999999999998
 40
0.4999999999999998
 40
0.6249999999999998
 40
0.6249999999999998
 40
0.7499999999999999
 40
0.7499999999999999
 40
0.875
 40
0.875
 40
1.0
 40
1.0
 40
1.0
 40
1.0
 10
10.00000000000001
 20
6.452906960116403
 30
0.0
 10
10.00000000000001
 20
6.130619408946647
 30
0.0
 10
10.0
 20
5.761043540790383
 30
0.0
 10
10.0
 20
4.937370207893161
 30
0.0
 10
10.00000000000001
 20
4.481639020748181
 30
0.0
 10
10.00000000000001
 20
3.792772457135144
 30
0.0
 10
10.00000000000001
 20
3.563042343291059
 30
0.0
 10
10.00000000000001
 20
3.122452647283078
 30
0.0
 10
10.00000000000001
 20
2.911725158530325
 30
0.0
 10
10.00000000000001
 20
2.53211699235359
 30
0.0
 10
10.00000000000001
 20
2.363455589693041
 30
0.0
 10
10.00000000000001
 20
2.08937425591228
 30
0.0
 10
10.00000000000001
 20
1.984161287618895
 30
0.0
 10
10.00000000000001
 20
1.91705014201024
 30
0.0
  0
SPLINE
  5
BE
330
1F
100
AcDbEntity
  8
0
  6
Continuous
 62
     1
370
    15
100
AcDbSpline
210
0.0
220
0.0
230
1.0
 70
     8
 71
     3
 72
    24
 73
    20
 74
     0
 42
0.000000001
 43
0.00000001
 40
0.0
 40
0.0
 40
0.0
 40
0.0
 40
0.0564830443972146
 40
0.1130125162182614
 40
0.1694264210452894
 40
0.2260025958121897
 40
0.2824204317975544
 40
0.3445620040240681
 40
0.4067512613264336
 40
0.468813893293655
 40
0.5309892592440372
 40
0.5931459301590505
 40
0.6552102445465782
 40
0.717412679060832
 40
0.7795382475805996
 40
0.8416104828463606
 40
0.9038285507304344
 40
0.9659292091861013
 40
1.0
 40
1.0
 40
1.0
 40
1.0
 10
10.0
 20
6.452906960116454
 30
0.0
 10
10.37648554357362
 20
6.22094604573379
 30
0.0
 10
11.12976609091523
 20
5.756833551826391
 30
0.0
 10
12.26055689035894
 20
4.910804478677361
 30
0.0
 10
13.38881133253155
 20
3.971773657209797
 30
0.0
 10
14.52052582885049
 20
2.954127489458303
 30
0.0
 10
15.68645067759489
 20
1.837471766661315
 30
0.0
 10
16.89195749404941
 20
0.6440526442828236
 30
0.0
 10
18.13590829125667
 20
-0.6014091139163187
 30
0.0
 10
19.37736717587875
 20
-1.835096828679405
 30
0.0
 10
20.62107806290177
 20
-3.021232615330194
 30
0.0
 10
21.86441154183353
 20
-4.13396920864623
 30
0.0
 10
23.10588991350065
 20
-5.147235216178609
 30
0.0
 10
24.35014284792976
 20
-6.032295633012949
 30
0.0
 10
25.59284866793432
 20
-6.77041896660861
 30
0.0
 10
26.83446705706244
 20
-7.345725922795902
 30
0.0
 10
28.07908015611567
 20
-7.730782080133817
 30
0.0
 10
29.1344218278886
 20
-7.927603610109313
 30
0.0
 10
29.77544461832507
 20
-7.917141945420718
 30
0.0
 10
30.0025406386698
 20
-7.913435677168786
 30
0.0
  0
SPLINE
  5
BF
330
1F
100
AcDbEntity
  8
0
  6
Continuous
 62
     1
370
    15
100
AcDbSpline
210
0.0
220
0.0
230
1.0
 70
     8
 71
     3
 72
    29
 73
    25
 74
     0
 42
0.000000001
 43
0.00000001
 40
0.0
 40
0.0
 40
0.0
 40
0.0
 40
0.0080306450173728
 40
0.0523813720426093
 40
0.0966813112350799
 40
0.1453481776915266
 40
0.1941250205244547
 40
0.2427953590591881
 40
0.291476883896534
 40
0.3402504475326187
 40
0.3889096910566942
 40
0.4376107432216786
 40
0.486372051653066
 40
0.5350250858962733
 40
0.5837505196389141
 40
0.6324906086662376
 40
0.6811423240379875
 40
0.7298933026792607
 40
0.7786069003609408
 40
0.8228335857470794
 40
0.8671843949914468
 40
0.9114079986907412
 40
0.9557221968801681
 40
1.0
 40
1.0
 40
1.0
 40
1.0
 10
35.51660470181125
 20
-7.437839896754647
 30
0.0
 10
35.44835756378403
 20
-7.464932315339605
 30
0.0
 10
35.00320294418457
 20
-7.641647641986808
 30
0.0
 10
34.17984979160371
 20
-7.820873171252223
 30
0.0
 10
33.01232380451945
 20
-7.964135521262002
 30
0.0
 10
31.80780368322963
 20
-7.916875760913801
 30
0.0
 10
30.56315155619348
 20
-7.679090951700297
 30
0.0
 10
29.32124004647833
 20
-7.251721907601775
 30
0.0
 10
28.07903942933128
 20
-6.646960831196028
 30
0.0
 10
26.83447794964934
 20
-5.881107374354678
 30
0.0
 10
25.59284574948577
 20
-4.96926586447359
 30
0.0
 10
24.35014363134224
 20
-3.936579756777443
 30
0.0
 10
23.10588970400579
 20
-2.809171537409842
 30
0.0
 10
21.86441159800735
 20
-1.610054798066954
 30
0.0
 10
20.62107804783469
 20
-0.3736336737712267
 30
0.0
 10
19.37736717990813
 20
0.8715128255146952
 30
0.0
 10
18.13590829017512
 20
2.097969900146116
 30
0.0
 10
16.89195749434015
 20
3.270196398899086
 30
0.0
 10
15.68645067752496
 20
4.330350532590244
 30
0.0
 10
14.52052582886851
 20
5.262886461204452
 30
0.0
 10
13.38881133252673
 20
6.056607433008323
 30
0.0
 10
12.26055689036024
 20
6.728040040794581
 30
0.0
 10
11.12976609091491
 20
7.272313494775833
 30
0.0
 10
10.37648554357352
 20
7.51020618369899
 30
0.0
 10
10.0
 20
7.629103663021269
 30
0.0
  0
SPLINE
  5
C0
330
1F
100
AcDbEntity
  8
0
  6
Continuous
 62
     1
370
    15
100
AcDbSpline
210
0.0
220
0.0
230
1.0
 70
     8
 71
     3
 72
    31
 73
    27
 74
     0
 42
0.000000001
 43
0.00000001
 40
0.0
 40
0.0
 40
0.0
 40
0.0
 40
0.0198494163114492
 40
0.0606172175222076
 40
0.1013016743802432
 40
0.1421031567196443
 40
0.1827904486418764
 40
0.2276055721844119
 40
0.2724550851459606
 40
0.3172132787244493
 40
0.3620527735510684
 40
0.4068787859328494
 40
0.4516381928355457
 40
0.4964972089100277
 40
0.5413007909342323
 40
0.5860659101986194
 40
0.6309362007126557
 40
0.6757218181511548
 40
0.7204971445095979
 40
0.7653704517914084
 40
0.8101425839366384
 40
0.8508972672759889
 40
0.8916986739761297
 40
0.9324083251435483
 40
0.973236229717467
 40
1.0
 40
1.0
 40
1.0
 40
1.0
 10
10.57921089143372
 20
7.430195031422231
 30
0.0
 10
10.76268163513979
 20
7.497364433545108
 30
0.0
 10
11.3229744823293
 20
7.702489974540016
 30
0.0
 10
12.26058198778572
 20
7.880229964508494
 30
0.0
 10
13.3888045929151
 20
7.965687996868068
 30
0.0
 10
14.52052762548586
 20
7.882001009322757
 30
0.0
 10
15.68645014210458
 20
7.632609999550653
 30
0.0
 10
16.8919576437538
 20
7.201608569891127
 30
0.0
 10
18.13590825021896
 20
6.581863429486988
 30
0.0
 10
19.37736719063079
 20
5.799242960062472
 30
0.0
 10
20.62107804494561
 20
4.876421986585632
 30
0.0
 10
21.86441159883439
 20
3.834194907707579
 30
0.0
 10
23.10588970358111
 20
2.69609415739538
 30
0.0
 10
24.35014363221413
 20
1.494982022092574
 30
0.0
 10
25.59284574642878
 20
0.2557418106061857
 30
0.0
 10
26.83447796100782
 20
-0.9910329319506613
 30
0.0
 10
28.07903938687636
 20
-2.210365912700209
 30
0.0
 10
29.32124020455845
 20
-3.378116077456314
 30
0.0
 10
30.56315096580291
 20
-4.463350192535256
 30
0.0
 10
31.80780588988613
 20
-5.436986870325838
 30
0.0
 10
33.01231590187756
 20
-6.254867164868212
 30
0.0
 10
34.17987636914665
 20
-6.907970651624473
 30
0.0
 10
35.31156152509946
 20
-7.401434727488398
 30
0.0
 10
36.44051332082836
 20
-7.739891592926026
 30
0.0
 10
37.44376028254914
 20
-7.920895640213717
 30
0.0
 10
38.0680288257495
 20
-7.919819951808058
 30
0.0
 10
38.31521577473855
 20
-7.919394019510247
 30
0.0
  0
SPLINE
  5
C1
330
1F
100
AcDbEntity
  8
0
  6
Continuous
 62
     1
370
    15
100
AcDbSpline
210
0.0
220
0.0
230
1.0
 70
     8
 71
     3
 72
    34
 73
    30
 74
     0
 42
0.000000001
 43
0.00000001
 40
0.0
 40
0.0
 40
0.0
 40
0.0
 40
0.1249999999999997
 40
0.1249999999999997
 40
0.1874999999999996
 40
0.1874999999999996
 40
0.2499999999999994
 40
0.2499999999999994
 40
0.3124999999999993
 40
0.3124999999999993
 40
0.3749999999999992
 40
0.3749999999999992
 40
0.4999999999999987
 40
0.4999999999999987
 40
0.5624999999999984
 40
0.5624999999999984
 40
0.6249999999999983
 40
0.6249999999999983
 40
0.6874999999999982
 40
0.6874999999999982
 40
0.7187499999999981
 40
0.7187499999999981
 40
0.749999999999998
 40
0.749999999999998
 40
0.8124999999999979
 40
0.8124999999999979
 40
0.8749999999999987
 40
0.8749999999999987
 40
1.0
 40
1.0
 40
1.0
 40
1.0
 10
38.702
 20
-4.299354675193504
 30
0.0
 10
39.01649432329258
 20
-4.563137605059701
 30
0.0
 10
39.31232718138281
 20
-4.793675138265301
 30
0.0
 10
39.73769764079393
 20
-5.087462520353108
 30
0.0
 10
39.87547326883727
 20
-5.176222234238666
 30
0.0
 10
40.13693307458117
 20
-5.33103307527707
 30
0.0
 10
40.26157850583829
 20
-5.397876701903165
 30
0.0
 10
40.49725574536729
 20
-5.513002020102384
 30
0.0
 10
40.60878915630682
 20
-5.561401320392456
 30
0.0
 10
40.81084367463482
 20
-5.642117422343611
 30
0.0
 10
40.90188132761207
 20
-5.674723779728798
 30
0.0
 10
41.1423433364821
 20
-5.761682578590972
 30
0.0
 10
41.25909646393805
 20
-5.804079195019556
 30
0.0
 10
41.35416960119426
 20
-5.917717802251737
 30
0.0
 10
41.37321356647466
 20
-5.964592139356015
 30
0.0
 10
41.38023757106064
 20
-6.091705141692057
 30
0.0
 10
41.36880182961262
 20
-6.171933573426633
 30
0.0
 10
41.29614678704466
 20
-6.383466426917264
 30
0.0
 10
41.2342263160869
 20
-6.517055682610611
 30
0.0
 10
41.07228669478103
 20
-6.754893944400979
 30
0.0
 10
41.00886943105429
 20
-6.836749183013539
 30
0.0
 10
40.86238978047439
 20
-7.000147662876024
 30
0.0
 10
40.78204537789126
 20
-7.078469845007601
 30
0.0
 10
40.52918767104095
 20
-7.293598822195991
 30
0.0
 10
40.35308924200373
 20
-7.404220266139085
 30
0.0
 10
40.00930822259739
 20
-7.566571774872472
 30
0.0
 10
39.8379280956192
 20
-7.620160132111387
 30
0.0
 10
39.33878425570931
 20
-7.713241199002855
 30
0.0
 10
39.01569234505779
 20
-7.689418778616378
 30
0.0
 10
38.70200000000001
 20
-7.598985588859046
 30
0.0
  0
SPLINE
  5
C2
330
1F
100
AcDbEntity
  8
0
  6
Continuous
 62
     1
370
    15
100
AcDbSpline
210
0.0
220
0.0
230
1.0
 70
     8
 71
     3
 72
    26
 73
    22
 74
     0
 42
0.000000001
 43
0.00000001
 40
0.0
 40
0.0
 40
0.0
 40
0.0
 40
0.0499491155971182
 40
0.1000333630500257
 40
0.1499725471465083
 40
0.2000242892313074
 40
0.2500187150176565
 40
0.3049414098940534
 40
0.3599882179383793
 40
0.4149148312075186
 40
0.4698540687101441
 40
0.524897176036902
 40
0.5798112680995331
 40
0.6347725430484896
 40
0.6898018198388428
 40
0.7447089044554771
 40
0.7996976950849722
 40
0.8547030248464798
 40
0.9096086210587864
 40
0.9646262402276018
 40
1.0
 40
1.0
 40
1.0
 40
1.0
 10
38.70200000000001
 20
-7.598985588859042
 30
0.0
 10
38.325971744361
 20
-7.475222840045554
 30
0.0
 10
37.57289792986534
 20
-7.227362515871099
 30
0.0
 10
36.4405466646603
 20
-6.669758989447752
 30
0.0
 10
35.31155258087608
 20
-5.985500581725547
 30
0.0
 10
34.17987875744388
 20
-5.179496181952013
 30
0.0
 10
33.0123151917395
 20
-4.238193840581021
 30
0.0
 10
31.80780608815718
 20
-3.168458283497489
 30
0.0
 10
30.56315091283326
 20
-1.991163827995182
 30
0.0
 10
29.32124021845198
 20
-0.7622925010127138
 30
0.0
 10
28.0790393842262
 20
0.4849210366170482
 30
0.0
 10
26.8344779576762
 20
1.717768118143391
 30
0.0
 10
25.59284576235958
 20
2.911756842785928
 30
0.0
 10
24.35014357171876
 20
4.033192867436528
 30
0.0
 10
23.1058899297008
 20
5.054660589057145
 30
0.0
 10
21.86441075646894
 20
5.955014995614759
 30
0.0
 10
20.62108119454717
 20
6.707425266414671
 30
0.0
 10
19.37735544175056
 20
7.297933446627018
 30
0.0
 10
18.13595204629161
 20
7.702873736543473
 30
0.0
 10
17.03968823960884
 20
7.918788877961949
 30
0.0
 10
16.35848680601936
 20
7.916200076331958
 30
0.0
 10
16.09190545555585
 20
7.915186974772603
 30
0.0
  0
SPLINE
  5
C3
330
1F
100
AcDbEntity
  8
0
  6
Continuous
 62
     1
370
    15
100
AcDbSpline
210
0.0
220
0.0
230
1.0
 70
     8
 71
     3
 72
    24
 73
    20
 74
     0
 42
0.000000001
 43
0.00000001
 40
0.0
 40
0.0
 40
0.0
 40
0.0
 40
0.0245338257761735
 40
0.0873109975242381
 40
0.15006929328455
 40
0.2127343385830529
 40
0.2755388408961598
 40
0.3382657332159247
 40
0.4009387760601703
 40
0.4637590630611064
 40
0.5264608042080811
 40
0.5891481374117313
 40
0.6519726480139686
 40
0.7146555091852677
 40
0.7717137736778809
 40
0.8288374528335339
 40
0.8858326703983777
 40
0.9429934476877085
 40
1.0
 40
1.0
 40
1.0
 40
1.0
 10
18.89126003390623
 20
7.427320987261192
 30
0.0
 10
19.05316044312433
 20
7.48878644570613
 30
0.0
 10
19.62933174055576
 20
7.707529765197869
 30
0.0
 10
20.62108316200869
 20
7.890498591639544
 30
0.0
 10
21.86441023026546
 20
7.970070531999683
 30
0.0
 10
23.10589007096317
 20
7.842845476333394
 30
0.0
 10
24.35014353388329
 20
7.527302921210554
 30
0.0
 10
25.59284577248183
 20
7.026542635789245
 30
0.0
 10
26.83447795495767
 20
6.353140210490571
 30
0.0
 10
28.07903938495381
 20
5.526256261663248
 30
0.0
 10
29.32124021825723
 20
4.562545768917888
 30
0.0
 10
30.5631509128856
 20
3.486655672563585
 30
0.0
 10
31.80780608814313
 20
2.328254864838097
 30
0.0
 10
33.01231519174289
 20
1.146387831908524
 30
0.0
 10
34.17987875744301
 20
-0.0218570343424743
 30
0.0
 10
35.31155258087632
 20
-1.150994558588109
 30
0.0
 10
36.44054666466023
 20
-2.259029288347968
 30
0.0
 10
37.57289792986536
 20
-3.32293751031821
 30
0.0
 10
38.325971744361
 20
-3.974175532407712
 30
0.0
 10
38.70200000000001
 20
-4.299354675193503
 30
0.0
  0
SPLINE
  5
C6
330
1F
100
AcDbEntity
  8
0
  6
Continuous
 62
     1
370
    15
100
AcDbSpline
210
0.0
220
0.0
230
1.0
 70
     8
 71
     3
 72
    34
 73
    30
 74
     0
 42
0.000000001
 43
0.00000001
 40
0.0
 40
0.0
 40
0.0
 40
0.0
 40
0.125
 40
0.125
 40
0.1874999999999999
 40
0.1874999999999999
 40
0.2499999999999998
 40
0.2499999999999998
 40
0.3124999999999997
 40
0.3124999999999997
 40
0.3749999999999996
 40
0.3749999999999996
 40
0.4999999999999993
 40
0.4999999999999993
 40
0.5624999999999992
 40
0.5624999999999992
 40
0.6249999999999991
 40
0.6249999999999991
 40
0.687499999999999
 40
0.687499999999999
 40
0.718749999999999
 40
0.718749999999999
 40
0.749999999999999
 40
0.749999999999999
 40
0.8124999999999991
 40
0.8124999999999991
 40
0.8749999999999993
 40
0.8749999999999993
 40
1.0
 40
1.0
 40
1.0
 40
1.0
 10
38.702
 20
7.928050094711755
 30
0.0
 10
39.01649432329258
 20
7.912742284810946
 30
0.0
 10
39.31232718138283
 20
7.831938366968705
 30
0.0
 10
39.73769764079393
 20
7.620272374820729
 30
0.0
 10
39.87547326883728
 20
7.534364246303215
 30
0.0
 10
40.13693307458117
 20
7.337359814181061
 30
0.0
 10
40.26157850583829
 20
7.225753594312461
 30
0.0
 10
40.4972557453673
 20
6.977598551500206
 30
0.0
 10
40.60878915630683
 20
6.840103200612687
 30
0.0
 10
40.81084367463482
 20
6.548593718641418
 30
0.0
 10
40.90188132761207
 20
6.394211925043692
 30
0.0
 10
41.14234333648209
 20
5.912175322381073
 30
0.0
 10
41.25909646393805
 20
5.561698116816444
 30
0.0
 10
41.35416960119426
 20
5.061375659250083
 30
0.0
 10
41.37321356647466
 20
4.89740676051628
 30
0.0
 10
41.38023757106064
 20
4.593692120793913
 30
0.0
 10
41.36880182961262
 20
4.453205636650929
 30
0.0
 10
41.29614678704466
 20
4.228283566436478
 30
0.0
 10
41.2342263160869
 20
4.143656179799804
 30
0.0
 10
41.07228669478103
 20
4.113551013710789
 30
0.0
 10
41.00886943105431
 20
4.120237531446769
 30
0.0
 10
40.86238978047437
 20
4.166954473429853
 30
0.0
 10
40.78204537789126
 20
4.206122955863346
 30
0.0
 10
40.52918767104097
 20
4.355000228706111
 30
0.0
 10
40.35308924200375
 20
4.488969407333597
 30
0.0
 10
40.0093082225974
 20
4.762319062615232
 30
0.0
 10
39.83792809561918
 20
4.905847418350146
 30
0.0
 10
39.33878425570931
 20
5.316343496881188
 30
0.0
 10
39.0156923450578
 20
5.571277182049351
 30
0.0
 10
38.70200000000001
 20
5.785567617474864
 30
0.0
  0
LINE
  5
C7
330
1F
100
AcDbEntity
  8
0
  6
Continuous
 62
     1
370
    15
100
AcDbLine
 10
41.75000000000001
 20
-0.0000000000000035
 30
0.0
 11
41.75000000000001
 21
6.413499999999997
 31
0.0
  0
LINE
  5
C8
330
1F
100
AcDbEntity
  8
0
  6
Continuous
 62
     1
370
    15
100
AcDbLine
 10
41.75000000000002
 20
-6.413500000000008
 30
0.0
 11
41.75000000000001
 21
-0.0000000000000035
 31
0.0
  0
SPLINE
  5
C9
330
1F
100
AcDbEntity
  8
0
  6
Continuous
 62
     1
370
    15
100
AcDbSpline
210
0.0
220
0.0
230
1.0
 70
     8
 71
     3
 72
    17
 73
    13
 74
     0
 42
0.000000001
 43
0.00000001
 40
0.0
 40
0.0
 40
0.0
 40
0.0
 40
0.096636405998591
 40
0.1933522443193382
 40
0.2898703599593548
 40
0.3866661019907642
 40
0.4831909434193272
 40
0.5895084811363324
 40
0.695907602882656
 40
0.8020900823175162
 40
0.9084654374566314
 40
1.0
 40
1.0
 40
1.0
 40
1.0
 10
10.00000000000001
 20
-0.7764109331539656
 30
0.0
 10
10.37648554431033
 20
-1.149753714522343
 30
0.0
 10
11.12976609312596
 20
-1.89674615419412
 30
0.0
 10
12.26055688151509
 20
-2.972704619341376
 30
0.0
 10
13.38881136565956
 20
-3.993037339899641
 30
0.0
 10
14.52052570491493
 20
-4.928093936957087
 30
0.0
 10
15.68645115842202
 20
-5.795124104900713
 30
0.0
 10
16.89195549490527
 20
-6.557343245344208
 30
0.0
 10
18.13591572822034
 20
-7.184131152867646
 30
0.0
 10
19.37733946948619
 20
-7.631122987286183
 30
0.0
 10
20.56342139613223
 20
-7.896752357612029
 30
0.0
 10
21.3347661500111
 20
-7.916646374984665
 30
0.0
 10
21.69151787545873
 20
-7.925847481219047
 30
0.0
  0
SPLINE
  5
CA
330
1F
100
AcDbEntity
  8
0
  6
Continuous
 62
     1
370
    15
100
AcDbSpline
210
0.0
220
0.0
230
1.0
 70
     8
 71
     3
 72
    15
 73
    11
 74
     0
 42
0.000000001
 43
0.00000001
 40
0.0
 40
0.0
 40
0.0
 40
0.0
 40
0.0849554566931854
 40
0.2248589946963876
 40
0.3646552583710163
 40
0.491575167101565
 40
0.6188512813361008
 40
0.7457623463694649
 40
0.8729333957158916
 40
1.0
 40
1.0
 40
1.0
 40
1.0
 10
18.89126003390617
 20
-7.427320987261194
 30
0.0
 10
18.63965996392915
 20
-7.516375563061449
 30
0.0
 10
17.97372818034882
 20
-7.752084052745375
 30
0.0
 10
16.89196268773586
 20
-7.92453668833626
 30
0.0
 10
15.68644942842761
 20
-7.958036914933104
 30
0.0
 10
14.52052615082949
 20
-7.807804963954132
 30
0.0
 10
13.38881124646646
 20
-7.507990433381983
 30
0.0
 10
12.26055691333488
 20
-7.05201431663145
 30
0.0
 10
11.12976608517187
 20
-6.463372917068586
 30
0.0
 10
10.37648554165969
 20
-5.962424720409464
 30
0.0
 10
10.00000000000001
 20
-5.712053521011025
 30
0.0
  0
SPLINE
  5
CB
330
1F
100
AcDbEntity
  8
0
  6
Continuous
 62
     1
370
    15
100
AcDbSpline
210
0.0
220
0.0
230
1.0
 70
    24
 71
     3
 72
    18
 73
    14
 74
     0
 42
0.000000001
 43
0.00000001
 40
0.0
 40
0.0
 40
0.0
 40
0.0
 40
0.2499999999999999
 40
0.2499999999999999
 40
0.4999999999999999
 40
0.4999999999999999
 40
0.625
 40
0.625
 40
0.7500000000000001
 40
0.7500000000000001
 40
0.875
 40
0.875
 40
1.0
 40
1.0
 40
1.0
 40
1.0
 10
10.00000000000001
 20
-0.7764109331539849
 30
0.0
 10
10.00000000000001
 20
-0.890800206184054
 30
0.0
 10
10.00000000000001
 20
-1.056560191484853
 30
0.0
 10
10.00000000000001
 20
-1.54943917389408
 30
0.0
 10
10.00000000000001
 20
-1.878798482226588
 30
0.0
 10
10.00000000000001
 20
-2.521509397013941
 30
0.0
 10
10.00000000000001
 20
-2.760098558766214
 30
0.0
 10
10.00000000000001
 20
-3.280686386149948
 30
0.0
 10
10.00000000000001
 20
-3.562724941969443
 30
0.0
 10
10.00000000000001
 20
-4.155532225390869
 30
0.0
 10
10.00000000000001
 20
-4.466208740521388
 30
0.0
 10
10.00000000000001
 20
-5.092571350791883
 30
0.0
 10
10.00000000000001
 20
-5.408031118238715
 30
0.0
 10
10.00000000000001
 20
-5.712053521011025
 30
0.0
  0
SPLINE
  5
CC
330
1F
100
AcDbEntity
  8
0
  6
Continuous
 62
     1
370
    15
100
AcDbSpline
210
0.0
220
0.0
230
1.0
 70
     8
 71
     3
 72
    13
 73
     9
 74
     0
 42
0.000000001
 43
0.00000001
 40
0.0
 40
0.0
 40
0.0
 40
0.0
 40
0.1886810319478764
 40
0.3778725197405579
 40
0.566516035793181
 40
0.7555847356981238
 40
0.9444369252963338
 40
1.0
 40
1.0
 40
1.0
 40
1.0
 10
38.70200000000001
 20
5.785567617474856
 30
0.0
 10
38.32597194376203
 20
6.032259654447137
 30
0.0
 10
37.5728985286079
 20
6.526311126650231
 30
0.0
 10
36.44054426502916
 20
7.100867529777015
 30
0.0
 10
35.31156155812042
 20
7.545805470153024
 30
0.0
 10
34.17984517150229
 20
7.820741365519175
 30
0.0
 10
33.3153796322736
 20
7.949237992104578
 30
0.0
 10
32.82792204695726
 20
7.924153489601303
 30
0.0
 10
32.71710800960505
 20
7.918451013978617
 30
0.0
  0
LINE
  5
CD
330
1F
100
AcDbEntity
  8
0
  6
Continuous
 62
     1
370
    15
100
AcDbLine
 10
10.57921089143372
 20
-7.430195031422239
 30
0.0
 11
10.00000000000001
 21
-7.629103663021277
 31
0.0
  0
SPLINE
  5
CE
330
1F
100
AcDbEntity
  8
0
  6
Continuous
 62
     1
370
    15
100
AcDbSpline
210
0.0
220
0.0
230
1.0
 70
     8
 71
     3
 72
    10
 73
     6
 74
     0
 42
0.000000001
 43
0.00000001
 40
0.0
 40
0.0
 40
0.0
 40
0.0
 40
0.334429423809567
 40
0.6691337389031808
 40
1.0
 40
1.0
 40
1.0
 40
1.0
 10
10.00000000000033
 20
-7.22931789327051
 30
0.0
 10
10.37650095973766
 20
-7.370079732577826
 30
0.0
 10
11.12981235207833
 20
-7.651719113340644
 30
0.0
 10
12.25681748232624
 20
-7.890200139732548
 30
0.0
 10
13.00556716238115
 20
-7.921293256944534
 30
0.0
 10
13.3777831466802
 20
-7.936750165356348
 30
0.0
  0
SPLINE
  5
CF
330
1F
100
AcDbEntity
  8
0
  6
Continuous
 62
     1
370
    15
100
AcDbSpline
210
0.0
220
0.0
230
1.0
 70
     8
 71
     3
 72
    10
 73
     6
 74
     0
 42
0.000000001
 43
0.00000001
 40
0.0
 40
0.0
 40
0.0
 40
0.0
 40
0.2900884347239641
 40
0.6455237157230151
 40
1.0
 40
1.0
 40
1.0
 40
1.0
 10
35.51660470181124
 20
7.437839896754642
 30
0.0
 10
35.82431744604794
 20
7.538664709414183
 30
0.0
 10
36.50905992543705
 20
7.76302666223383
 30
0.0
 10
37.57287510727273
 20
7.934073927115779
 30
0.0
 10
38.32596414368438
 20
7.930056229720321
 30
0.0
 10
40.226
 20
7.937499999999996
 30
0.0
  0
SPLINE
  5
D0
330
1F
100
AcDbEntity
  8
0
  6
Continuous
 62
     1
370
    15
100
AcDbSpline
210
0.0
220
0.0
230
1.0
 70
    24
 71
     3
 72
     9
 73
     5
 74
     0
 42
0.000000001
 43
0.00000001
 40
0.0
 40
0.0
 40
0.0
 40
0.0
 40
0.0670467487821332
 40
1.0
 40
1.0
 40
1.0
 40
1.0
 10
10.00000000000001
 20
-7.291980909223842
 30
0.0
 10
10.00000000000001
 20
-7.298385548726687
 30
0.0
 10
10.00000000000001
 20
-7.393910531208067
 30
0.0
 10
10.00000000000001
 20
-7.515586071816731
 30
0.0
 10
10.00000000000001
 20
-7.629103663021277
 30
0.0
  0
LINE
  5
D1
330
1F
100
AcDbEntity
  8
0
  6
Continuous
 62
     1
370
    15
100
AcDbLine
 10
10.0
 20
-7.229317893270647
 30
0.0
 11
10.00000000000001
 21
-5.712053521011025
 31
0.0
  0
LINE
  5
D4
330
1F
100
AcDbEntity
  8
0
  6
Continuous
 62
     8
370
    15
100
AcDbLine
 10
38.702
 20
7.928050094711751
 30
0.0
 11
38.70200000000001
 21
7.937499999999998
 31
0.0
  0
LINE
  5
D5
330
1F
100
AcDbEntity
  8
중심선
100
AcDbLine
 10
-50.15
 20
0.0000000000000003
 30
0.0
 11
44.75000000000001
 21
0.0000000000000003
 31
0.0
  0
CIRCLE
  5
D6
330
1F
100
AcDbEntity
  8
외형선
100
AcDbCircle
 10
0.0
 20
0.0
 30
0.0
 40
3.000000000000004
  0
INSERT
  5
D7
330
1F
100
AcDbEntity
  8
0
  6
Continuous
 62
     7
100
AcDbBlockReference
 66
     1
  2
블럭10
 10
-16.62936049909348
 20
-51.78679627639983
 30
0.0
  0
ATTRIB
  5
D8
330
D7
100
AcDbEntity
  8
FORMAT
 62
     2
100
AcDbText
 10
-27.68038085127794
 20
-49.71142936356763
 30
0.0
 40
4.233333333333333
  1
GMG23931[ 6 FLUTE ]
 41
0.75
  7
SLDTEXTSTYLE0
 11
-27.68038085127794
 21
-51.8280960302343
 31
0.0
100
AcDbAttribute
  2
AUTOATTR0
 70
     0
 74
     1
  0
SEQEND
  5
D9
330
D7
100
AcDbEntity
  8
0
  6
Continuous
 62
     7
  0
HATCH
  5
DA
330
1F
100
AcDbEntity
  8
중심선
100
AcDbHatch
 10
0.0
 20
0.0
 30
0.0
210
0.0
220
0.0
230
1.0
  2
SOLID
 70
     1
 71
     0
 91
        1
 92
        0
 93
        4
 72
     1
 10
-10.91445119471263
 20
-35.53962197475589
 11
-14.36072643854991
 21
-35.53962197475589
 72
     1
 10
-14.36072643854991
 20
-35.53962197475589
 11
-16.48895629775393
 21
-38.07594755532848
 72
     1
 10
-16.48895629775393
 20
-38.07594755532848
 11
-13.0426479688035
 21
-38.07590812602599
 72
     1
 10
-13.0426479688035
 20
-38.07590812602599
 11
-10.91445119471263
 21
-35.53962197475589
 97
        0
 75
     0
 76
     1
 98
        1
 10
0.0004859200744818
 20
0.2622744311706841
  0
HATCH
  5
DB
330
1F
100
AcDbEntity
  8
중심선
100
AcDbHatch
 10
0.0
 20
0.0
 30
0.0
210
0.0
220
0.0
230
1.0
  2
SOLID
 70
     1
 71
     0
 91
        1
 92
        0
 93
        4
 72
     1
 10
-5.901687203676677
 20
-35.53962197475589
 11
-9.347962447513959
 21
-35.53962197475589
 72
     1
 10
-9.347962447513959
 20
-35.53962197475589
 11
-13.87910045587135
 21
-40.9396219747559
 72
     1
 10
-13.87910045587135
 20
-40.9396219747559
 11
-10.43282521203406
 21
-40.9396219747559
 72
     1
 10
-10.43282521203406
 20
-40.9396219747559
 11
-5.901687203676677
 21
-35.53962197475589
 97
        0
 75
     0
 76
     1
 98
        1
 10
0.0004859200744818
 20
0.2622744311706841
  0
HATCH
  5
DC
330
1F
100
AcDbEntity
  8
중심선
100
AcDbHatch
 10
0.0
 20
0.0
 30
0.0
210
0.0
220
0.0
230
1.0
  2
SOLID
 70
     1
 71
     0
 91
        1
 92
        0
 93
        4
 72
     1
 10
-0.8889232126407813
 20
-35.53962197475592
 11
-4.335198456477897
 21
-35.53962197475589
 72
     1
 10
-4.335198456477897
 20
-35.53962197475589
 11
-11.38363535836715
 21
-43.93962197475591
 72
     1
 10
-11.38363535836715
 20
-43.93962197475591
 11
-7.937360114529864
 21
-43.93962197475591
 72
     1
 10
-7.937360114529864
 20
-43.93962197475591
 11
-0.8889232126407816
 21
-35.53962197475592
 97
        0
 75
     0
 76
     1
 98
        1
 10
0.0004859200744818
 20
0.2622744311706841
  0
HATCH
  5
DD
330
1F
100
AcDbEntity
  8
중심선
100
AcDbHatch
 10
0.0
 20
0.0
 30
0.0
210
0.0
220
0.0
230
1.0
  2
SOLID
 70
     1
 71
     0
 91
        1
 92
        0
 93
        6
 72
     3
 10
3.910967218371418
 20
-39.73962197480716
 11
3.960054785062283
 21
1.540882976769353E-10
 40
0.3939339440162628
 50
17.09539180608436
 51
320.0019657685081
 73
     0
 72
     1
 10
5.593966874072013
 20
-38.32751597939419
 11
7.899268747773052
 21
-36.39318926934627
 72
     3
 10
3.910967218318572
 20
-39.73962197475603
 11
6.600054785286829
 21
-1.278976924368180E-13
 40
0.636358354079598
 50
39.99873849337411
 51
368.4976242363724
 73
     1
 72
     1
 10
10.33629971021918
 20
-38.77962197468591
 11
2.591034525154495
 21
-38.77962197468588
 72
     1
 10
2.591034525154494
 20
-38.77962197468588
 11
2.59100948070856
 21
-40.6996219746858
 72
     1
 10
2.59100948070856
 20
-40.6996219746858
 11
7.032389250180596
 21
-40.69962197468578
 97
        0
 75
     0
 76
     1
 98
        1
 10
0.0004859200744818
 20
0.2622744311706841
  0
POINT
  5
DE
330
1F
100
AcDbEntity
  8
치수문자_일반주서
100
AcDbPoint
 10
0.0
 20
0.0
 30
0.0
  0
DIMENSION
  5
DF
330
1F
100
AcDbEntity
  8
치수문자_일반주서
100
AcDbDimension
  2
_D
 10
56.34724571577296
 20
7.937500000000067
 30
0.0
 11
56.34724571577299
 21
0.0000000000000631
 31
0.0
 70
   160
  1
%%c<>
 71
     2
 42
15.87500000000001
 52
-270.0
  3
SLDDIMSTYLE0
100
AcDbAlignedDimension
 13
38.70200000000005
 23
-7.937500000000006
 33
0.0
 14
37.70200000000001
 24
7.937499999999997
 34
0.0
 50
90.0000000000002
100
AcDbRotatedDimension
1001
ACAD
1000
DSTYLE
1002
{
1070
   171
1070
     3
1070
   273
1070
     7
1002
}
  0
DIMENSION
  5
F4
330
1F
100
AcDbEntity
  8
치수문자_일반주서
100
AcDbDimension
  2
_D_1
 10
41.75000000000001
 20
40.59305141807177
 30
0.0
 11
-2.699999999999998
 21
40.59305141807177
 31
0.0
 70
   160
  1
<>
 71
     2
 42
88.9
  3
SLDDIMSTYLE1
100
AcDbAlignedDimension
 13
-47.15
 23
7.437499999999989
 33
0.0
 14
41.75000000000001
 24
4.889499999999997
 34
0.0
 50
0.0000000000000046
100
AcDbRotatedDimension
1001
ACAD
1000
DSTYLE
1002
{
1070
   171
1070
     3
1070
   273
1070
     7
1002
}
  0
DIMENSION
  5
108
330
1F
100
AcDbEntity
  8
치수문자_일반주서
100
AcDbDimension
  2
_D_2
 10
10.0
 20
22.51649453033793
 30
0.0
 11
25.52575141487686
 21
22.51649453033793
 31
0.0
 70
   160
  1
<>
 71
     2
 42
31.75000000000001
  3
SLDDIMSTYLE2
100
AcDbAlignedDimension
 13
41.75000000000001
 23
4.889499999999997
 33
0.0
 14
10.0
 24
-7.629103663021273
 34
0.0
 50
0.0000000000000128
100
AcDbRotatedDimension
1001
ACAD
1000
DSTYLE
1002
{
1070
   171
1070
     3
1070
   273
1070
     7
1002
}
  0
INSERT
  5
133
330
1F
100
AcDbEntity
  8
외형선
100
AcDbBlockReference
  2
SW_DOWELSYMBOL_0
 10
0.0
 20
0.0
 30
0.0
  0
DIMENSION
  5
15A
330
1F
100
AcDbEntity
  8
치수문자_일반주서
100
AcDbDimension
  2
*D8
 10
-55.1778202349345
 20
-7.937500000000008
 30
0.0
 11
-55.1778202349345
 21
-0.0000000000000071
 31
0.0
 70
   160
  1
{%%C<>}
 71
     5
 42
15.875
  3
SLDDIMSTYLE2
100
AcDbAlignedDimension
 13
-46.65
 23
7.937499999999993
 33
0.0
 14
-46.65
 24
-7.937500000000008
 34
0.0
 50
90.0
100
AcDbRotatedDimension
1001
ACAD
1000
DSTYLE
1002
{
1070
   171
1070
     3
1070
   273
1070
     7
1002
}
  0
ARC
  5
16D
330
1F
100
AcDbEntity
  8
0
  6
Continuous
 62
     1
370
    15
100
AcDbCircle
 10
40.22600000000001
 20
6.413499999999997
 30
0.0
 40
1.524
100
AcDbArc
 50
0.0
 51
90.00000000000026
  0
ARC
  5
16F
330
1F
100
AcDbEntity
  8
0
  6
Continuous
 62
     1
370
    15
100
AcDbCircle
 10
40.22600000000002
 20
-6.413500000000008
 30
0.0
 40
1.524
100
AcDbArc
 50
270.0
 51
0.0000000000001336
  0
DIMENSION
  5
170
330
1F
100
AcDbEntity
  8
치수문자_일반주서
100
AcDbDimension
  2
*D9
 10
40.22600000000001
 20
6.413499999999997
 30
0.0
 11
57.19402118630704
 21
22.2670778322603
 31
0.0
 70
   164
  1
<>
 71
     5
 42
1.523999999999997
  3
SLDDIMSTYLE0
100
AcDbRadialDimension
 15
41.3395794799243
 25
7.453940647942752
 35
0.0
 40
0.0
1001
ACAD
1000
DSTYLE
1002
{
1070
   171
1070
     3
1070
   273
1070
     2
1002
}
1001
ACAD_DSTYLE_DIMRADIAL_EXTENSION
1070
   387
1070
     1
1070
   388
1040
0.0
1070
   390
1040
1.570796326794901
  0
LINE
  5
1D9
330
1F
100
AcDbEntity
  8
0
  6
Continuous
 62
     4
370
    15
100
AcDbLine
 10
-28.03332500000002
 20
6.286499999999954
 30
0.0
 11
-17.847925
 21
6.286499999999954
 31
0.0
  0
LINE
  5
1DA
330
1F
100
AcDbEntity
  8
0
  6
Continuous
 62
     4
370
    15
100
AcDbLine
 10
-28.03332500000002
 20
6.286500000000053
 30
0.0
 11
-29.68432499999997
 21
7.937499999999964
 31
0.0
  0
LINE
  5
1DB
330
1F
100
AcDbEntity
  8
0
  6
Continuous
 62
     4
370
    15
100
AcDbLine
 10
-17.84792500000012
 20
6.286500000000053
 30
0.0
 11
-16.19692500000011
 21
7.937499999999964
 31
0.0
  0
LINE
  5
1DC
330
1F
100
AcDbEntity
  8
0
  6
Continuous
 62
     4
370
    15
100
AcDbLine
 10
-29.68432499999999
 20
7.937499999999994
 30
0.0
 11
-46.65
 21
7.937499999999993
 31
0.0
  0
ENDSEC
  0
SECTION
  2
OBJECTS
  0
DICTIONARY
  5
C
330
0
100
AcDbDictionary
281
     1
  3
ACAD_GROUP
350
D
  3
ACAD_IMAGE_VARS
350
157
  3
ACAD_LAYOUT
350
1A
  3
ACAD_MLINESTYLE
350
17
  3
ACAD_PLOTSETTINGS
350
19
  3
ACAD_PLOTSTYLENAME
350
E
  3
ACAD_SCALELIST
350
47
  3
APPDATA
350
155
  3
DWGPROPS
350
201
  0
DICTIONARY
  5
1CB
330
2
100
AcDbDictionary
280
     1
281
     1
  3
ACAD_LAYERSTATES
360
1CC
  0
DICTIONARY
  5
1FF
330
1F
100
AcDbDictionary
280
     1
281
     1
  3
DIM_BOUNDING_BOXES_V1
360
200
  0
DICTIONARY
  5
D
102
{ACAD_REACTORS
330
C
102
}
330
C
100
AcDbDictionary
281
     1
  0
RASTERVARIABLES
  5
157
102
{ACAD_REACTORS
330
C
102
}
330
C
100
AcDbRasterVariables
 90
        0
 70
     1
 71
     1
 72
     1
  0
DICTIONARY
  5
1A
102
{ACAD_REACTORS
330
C
102
}
330
C
100
AcDbDictionary
281
     1
  3
Layout1
350
1E
  3
Layout2
350
26
  3
Model
350
22
  0
DICTIONARY
  5
17
102
{ACAD_REACTORS
330
C
102
}
330
C
100
AcDbDictionary
281
     1
  3
Standard
350
18
  0
DICTIONARY
  5
19
102
{ACAD_REACTORS
330
C
102
}
330
C
100
AcDbDictionary
281
     1
  0
ACDBDICTIONARYWDFLT
  5
E
102
{ACAD_REACTORS
330
C
102
}
330
C
100
AcDbDictionary
281
     1
  3
Normal
350
F
100
AcDbDictionaryWithDefault
340
F
  0
DICTIONARY
  5
47
102
{ACAD_REACTORS
330
C
102
}
330
C
100
AcDbDictionary
281
     1
  3
A0
350
48
  3
A1
350
49
  3
A2
350
4A
  3
A3
350
4B
  3
A4
350
4C
  3
A5
350
4D
  3
A6
350
4E
  3
A7
350
4F
  3
A8
350
50
  3
A9
350
51
  3
B0
350
52
  3
B1
350
53
  3
B2
350
54
  3
B3
350
55
  3
B4
350
56
  3
B5
350
57
  3
B6
350
58
  3
B7
350
59
  3
B8
350
5A
  3
B9
350
5B
  3
C0
350
5C
  3
C1
350
5D
  3
C2
350
5E
  3
C3
350
5F
  3
C4
350
60
  3
C5
350
61
  3
C6
350
62
  3
C7
350
63
  3
C8
350
64
  3
C9
350
65
  3
D0
350
66
  3
D1
350
67
  3
D2
350
68
  0
DICTIONARY
  5
155
102
{ACAD_REACTORS
330
C
102
}
330
C
100
AcDbDictionary
281
     1
  0
XRECORD
  5
201
102
{ACAD_REACTORS
330
C
102
}
330
C
100
AcDbXrecord
280
     1
  1
DWGPROPS COOKIE
  2

  3

  4

  6

  7

  8
12015018
  9

300
=
301
=
302
=
303
=
304
=
305
=
306
=
307
=
308
=
309
=
 40
0.0
 41
2458236.371632454
 42
2459697.066839491
  1

 90
        0
  0
DICTIONARY
  5
1CC
102
{ACAD_REACTORS
330
1CB
102
}
330
1CB
100
AcDbDictionary
281
     1
  0
DICTIONARY
  5
200
102
{ACAD_REACTORS
330
1FF
102
}
330
1FF
100
AcDbDictionary
281
     1
  0
LAYOUT
  5
1E
102
{ACAD_REACTORS
330
1A
102
}
330
1A
100
AcDbPlotSettings
  1

  2
none_device
  4

  6

 40
0.0
 41
0.0
 42
0.0
 43
0.0
 44
0.0
 45
0.0
 46
0.0
 47
0.0
 48
0.0
 49
0.0
140
0.0
141
0.0
142
1.0
143
1.0
 70
   688
 72
     1
 73
     0
 74
     5
  7

 75
    16
147
1.0
148
0.0
149
0.0
100
AcDbLayout
  1
Layout1
 70
     1
 71
     1
 10
0.0
 20
0.0
 11
420.0
 21
297.0
 12
0.0
 22
0.0
 32
0.0
 14
1.000000000000000E+20
 24
1.000000000000000E+20
 34
1.000000000000000E+20
 15
-1.000000000000000E+20
 25
-1.000000000000000E+20
 35
-1.000000000000000E+20
146
0.0
 13
0.0
 23
0.0
 33
0.0
 16
1.0
 26
0.0
 36
0.0
 17
0.0
 27
1.0
 37
0.0
 76
     0
330
1B
  0
LAYOUT
  5
26
102
{ACAD_REACTORS
330
1A
102
}
330
1A
100
AcDbPlotSettings
  1

  2
none_device
  4

  6

 40
0.0
 41
0.0
 42
0.0
 43
0.0
 44
0.0
 45
0.0
 46
0.0
 47
0.0
 48
0.0
 49
0.0
140
0.0
141
0.0
142
1.0
143
1.0
 70
   688
 72
     1
 73
     0
 74
     5
  7

 75
    16
147
1.0
148
0.0
149
0.0
100
AcDbLayout
  1
Layout2
 70
     1
 71
     2
 10
0.0
 20
0.0
 11
0.0
 21
0.0
 12
0.0
 22
0.0
 32
0.0
 14
0.0
 24
0.0
 34
0.0
 15
0.0
 25
0.0
 35
0.0
146
0.0
 13
0.0
 23
0.0
 33
0.0
 16
1.0
 26
0.0
 36
0.0
 17
0.0
 27
1.0
 37
0.0
 76
     0
330
23
  0
LAYOUT
  5
22
102
{ACAD_REACTORS
330
1A
102
}
330
1A
100
AcDbPlotSettings
  1

  2
none_device
  4
ANSI_A_(11.00_x_8.50_Inches)
  6

 40
6.35
 41
19.05
 42
6.35000508
 43
19.05000254
 44
279.4
 45
215.9
 46
106.0463130442677
 47
88.58238961766857
 48
0.0
 49
0.0
140
0.0
141
0.0
142
0.0615991591641248
143
1.0
 70
  1696
 72
     0
 73
     0
 74
     0
  7

 75
     0
147
0.0235690232323232
148
0.0
149
0.0
100
AcDbLayout
  1
Model
 70
     1
 71
     0
 10
0.0
 20
0.0
 11
420.0
 21
297.0
 12
0.0
 22
0.0
 32
0.0
 14
-59.5528202349345
 24
-49.71142936356763
 34
0.0
 15
68.22295181301786
 25
44.96805141807176
 35
0.0
146
0.0
 13
0.0
 23
0.0
 33
0.0
 16
1.0
 26
0.0
 36
0.0
 17
0.0
 27
1.0
 37
0.0
 76
     0
330
1F
331
29
  0
MLINESTYLE
  5
18
102
{ACAD_REACTORS
330
17
102
}
330
17
100
AcDbMlineStyle
  2
Standard
 70
     0
  3

 62
   256
 51
90.0
 52
90.0
 71
     2
 49
0.5
 62
   256
  6
BYLAYER
 49
-0.5
 62
   256
  6
BYLAYER
  0
ACDBPLACEHOLDER
  5
F
102
{ACAD_REACTORS
330
E
102
}
330
E
  0
SCALE
  5
48
102
{ACAD_REACTORS
330
47
102
}
330
47
100
AcDbScale
 70
     0
300
1:1
140
1.0
141
1.0
290
     1
  0
SCALE
  5
49
102
{ACAD_REACTORS
330
47
102
}
330
47
100
AcDbScale
 70
     0
300
1:2
140
1.0
141
2.0
290
     0
  0
SCALE
  5
4A
102
{ACAD_REACTORS
330
47
102
}
330
47
100
AcDbScale
 70
     0
300
1:4
140
1.0
141
4.0
290
     0
  0
SCALE
  5
4B
102
{ACAD_REACTORS
330
47
102
}
330
47
100
AcDbScale
 70
     0
300
1:5
140
1.0
141
5.0
290
     0
  0
SCALE
  5
4C
102
{ACAD_REACTORS
330
47
102
}
330
47
100
AcDbScale
 70
     0
300
1:8
140
1.0
141
8.0
290
     0
  0
SCALE
  5
4D
102
{ACAD_REACTORS
330
47
102
}
330
47
100
AcDbScale
 70
     0
300
1:10
140
1.0
141
10.0
290
     0
  0
SCALE
  5
4E
102
{ACAD_REACTORS
330
47
102
}
330
47
100
AcDbScale
 70
     0
300
1:16
140
1.0
141
16.0
290
     0
  0
SCALE
  5
4F
102
{ACAD_REACTORS
330
47
102
}
330
47
100
AcDbScale
 70
     0
300
1:20
140
1.0
141
20.0
290
     0
  0
SCALE
  5
50
102
{ACAD_REACTORS
330
47
102
}
330
47
100
AcDbScale
 70
     0
300
1:30
140
1.0
141
30.0
290
     0
  0
SCALE
  5
51
102
{ACAD_REACTORS
330
47
102
}
330
47
100
AcDbScale
 70
     0
300
1:40
140
1.0
141
40.0
290
     0
  0
SCALE
  5
52
102
{ACAD_REACTORS
330
47
102
}
330
47
100
AcDbScale
 70
     0
300
1:50
140
1.0
141
50.0
290
     0
  0
SCALE
  5
53
102
{ACAD_REACTORS
330
47
102
}
330
47
100
AcDbScale
 70
     0
300
1:100
140
1.0
141
100.0
290
     0
  0
SCALE
  5
54
102
{ACAD_REACTORS
330
47
102
}
330
47
100
AcDbScale
 70
     0
300
2:1
140
2.0
141
1.0
290
     0
  0
SCALE
  5
55
102
{ACAD_REACTORS
330
47
102
}
330
47
100
AcDbScale
 70
     0
300
4:1
140
4.0
141
1.0
290
     0
  0
SCALE
  5
56
102
{ACAD_REACTORS
330
47
102
}
330
47
100
AcDbScale
 70
     0
300
8:1
140
8.0
141
1.0
290
     0
  0
SCALE
  5
57
102
{ACAD_REACTORS
330
47
102
}
330
47
100
AcDbScale
 70
     0
300
10:1
140
10.0
141
1.0
290
     0
  0
SCALE
  5
58
102
{ACAD_REACTORS
330
47
102
}
330
47
100
AcDbScale
 70
     0
300
100:1
140
100.0
141
1.0
290
     0
  0
SCALE
  5
59
102
{ACAD_REACTORS
330
47
102
}
330
47
100
AcDbScale
 70
     0
300
1/128" = 1'-0"
140
0.0078125
141
12.0
290
     0
  0
SCALE
  5
5A
102
{ACAD_REACTORS
330
47
102
}
330
47
100
AcDbScale
 70
     0
300
1/64" = 1'-0"
140
0.015625
141
12.0
290
     0
  0
SCALE
  5
5B
102
{ACAD_REACTORS
330
47
102
}
330
47
100
AcDbScale
 70
     0
300
1/32" = 1'-0"
140
0.03125
141
12.0
290
     0
  0
SCALE
  5
5C
102
{ACAD_REACTORS
330
47
102
}
330
47
100
AcDbScale
 70
     0
300
1/16" = 1'-0"
140
0.0625
141
12.0
290
     0
  0
SCALE
  5
5D
102
{ACAD_REACTORS
330
47
102
}
330
47
100
AcDbScale
 70
     0
300
3/32" = 1'-0"
140
0.09375
141
12.0
290
     0
  0
SCALE
  5
5E
102
{ACAD_REACTORS
330
47
102
}
330
47
100
AcDbScale
 70
     0
300
1/8" = 1'-0"
140
0.125
141
12.0
290
     0
  0
SCALE
  5
5F
102
{ACAD_REACTORS
330
47
102
}
330
47
100
AcDbScale
 70
     0
300
3/16" = 1'-0"
140
0.1875
141
12.0
290
     0
  0
SCALE
  5
60
102
{ACAD_REACTORS
330
47
102
}
330
47
100
AcDbScale
 70
     0
300
1/4" = 1'-0"
140
0.25
141
12.0
290
     0
  0
SCALE
  5
61
102
{ACAD_REACTORS
330
47
102
}
330
47
100
AcDbScale
 70
     0
300
3/8" = 1'-0"
140
0.375
141
12.0
290
     0
  0
SCALE
  5
62
102
{ACAD_REACTORS
330
47
102
}
330
47
100
AcDbScale
 70
     0
300
1/2" = 1'-0"
140
0.5
141
12.0
290
     0
  0
SCALE
  5
63
102
{ACAD_REACTORS
330
47
102
}
330
47
100
AcDbScale
 70
     0
300
3/4" = 1'-0"
140
0.75
141
12.0
290
     0
  0
SCALE
  5
64
102
{ACAD_REACTORS
330
47
102
}
330
47
100
AcDbScale
 70
     0
300
1" = 1'-0"
140
1.0
141
12.0
290
     0
  0
SCALE
  5
65
102
{ACAD_REACTORS
330
47
102
}
330
47
100
AcDbScale
 70
     0
300
1-1/2" = 1'-0"
140
1.5
141
12.0
290
     0
  0
SCALE
  5
66
102
{ACAD_REACTORS
330
47
102
}
330
47
100
AcDbScale
 70
     0
300
3" = 1'-0"
140
3.0
141
12.0
290
     0
  0
SCALE
  5
67
102
{ACAD_REACTORS
330
47
102
}
330
47
100
AcDbScale
 70
     0
300
6" = 1'-0"
140
6.0
141
12.0
290
     0
  0
SCALE
  5
68
102
{ACAD_REACTORS
330
47
102
}
330
47
100
AcDbScale
 70
     0
300
1'-0" = 1'-0"
140
12.0
141
12.0
290
     0
  0
ENDSEC
  0
EOF
