  0
SECTION
  2
HEADER
  9
$ACADVER
  1
AC1015
  9
$ACADMAINTVER
 70
     6
  9
$DWGCODEPAGE
  3
ANSI_949
  9
$INSBASE
 10
0.0
 20
0.0
 30
0.0
  9
$EXTMIN
 10
-64.52500000000006
 20
-49.71142936356761
 30
0.0
  9
$EXTMAX
 10
68.04814856333866
 20
43.38055141807179
 30
0.0
  9
$LIMMIN
 10
0.0
 20
0.0
  9
$LIMMAX
 10
420.0
 20
297.0
  9
$ORTHOMODE
 70
     0
  9
$REGENMODE
 70
     1
  9
$FILLMODE
 70
     1
  9
$QTEXTMODE
 70
     0
  9
$MIRRTEXT
 70
     1
  9
$LTSCALE
 40
1.0
  9
$ATTMODE
 70
     1
  9
$TEXTSIZE
 40
3.5
  9
$TRACEWID
 40
1.0
  9
$TEXTSTYLE
  7
Standard
  9
$CLAYER
  8
0
  9
$CELTYPE
  6
ByLayer
  9
$CECOLOR
 62
   256
  9
$CELTSCALE
 40
1.0
  9
$DISPSILH
 70
     0
  9
$DIMSCALE
 40
1.0
  9
$DIMASZ
 40
3.302
  9
$DIMEXO
 40
1.0
  9
$DIMDLI
 40
3.75
  9
$DIMRND
 40
0.0
  9
$DIMDLE
 40
0.0
  9
$DIMEXE
 40
1.0
  9
$DIMTP
 40
0.0
  9
$DIMTM
 40
0.0
  9
$DIMTXT
 40
3.5
  9
$DIMCEN
 40
2.5
  9
$DIMTSZ
 40
0.0
  9
$DIMTOL
 70
     0
  9
$DIMLIM
 70
     0
  9
$DIMTIH
 70
     1
  9
$DIMTOH
 70
     1
  9
$DIMSE1
 70
     0
  9
$DIMSE2
 70
     0
  9
$DIMTAD
 70
     1
  9
$DIMZIN
 70
     0
  9
$DIMBLK
  1

  9
$DIMASO
 70
     1
  9
$DIMSHO
 70
     1
  9
$DIMPOST
  1

  9
$DIMAPOST
  1

  9
$DIMALT
 70
     0
  9
$DIMALTD
 70
     3
  9
$DIMALTF
 40
0.0393700787401575
  9
$DIMLFAC
 40
1.0
  9
$DIMTOFL
 70
     1
  9
$DIMTVP
 40
0.0
  9
$DIMTIX
 70
     0
  9
$DIMSOXD
 70
     0
  9
$DIMSAH
 70
     0
  9
$DIMBLK1
  1

  9
$DIMBLK2
  1

  9
$DIMSTYLE
  2
ISO-25
  9
$DIMCLRD
 70
     0
  9
$DIMCLRE
 70
     0
  9
$DIMCLRT
 70
     0
  9
$DIMTFAC
 40
1.0
  9
$DIMGAP
 40
1.524
  9
$DIMJUST
 70
     0
  9
$DIMSD1
 70
     0
  9
$DIMSD2
 70
     0
  9
$DIMTOLJ
 70
     0
  9
$DIMTZIN
 70
     0
  9
$DIMALTZ
 70
     0
  9
$DIMALTTZ
 70
     0
  9
$DIMUPT
 70
     0
  9
$DIMDEC
 70
     2
  9
$DIMTDEC
 70
     2
  9
$DIMALTU
 70
     2
  9
$DIMALTTD
 70
     3
  9
$DIMTXSTY
  7
Standard
  9
$DIMAUNIT
 70
     0
  9
$DIMADEC
 70
     2
  9
$DIMALTRND
 40
0.0
  9
$DIMAZIN
 70
     0
  9
$DIMDSEP
 70
    44
  9
$DIMATFIT
 70
     3
  9
$DIMFRAC
 70
     0
  9
$DIMLDRBLK
  1

  9
$DIMLUNIT
 70
     2
  9
$DIMLWD
 70
    -2
  9
$DIMLWE
 70
    -2
  9
$DIMTMOVE
 70
     0
  9
$LUNITS
 70
     2
  9
$LUPREC
 70
     2
  9
$SKETCHINC
 40
1.0
  9
$FILLETRAD
 40
10.0
  9
$AUNITS
 70
     0
  9
$AUPREC
 70
     2
  9
$MENU
  1
.
  9
$ELEVATION
 40
0.0
  9
$PELEVATION
 40
0.0
  9
$THICKNESS
 40
0.0
  9
$LIMCHECK
 70
     0
  9
$CHAMFERA
 40
0.0
  9
$CHAMFERB
 40
0.0
  9
$CHAMFERC
 40
0.0
  9
$CHAMFERD
 40
0.0
  9
$SKPOLY
 70
     0
  9
$TDCREATE
 40
2458236.744607408
  9
$TDUCREATE
 40
2458236.369607408
  9
$TDUPDATE
 40
2459697.433775567
  9
$TDUUPDATE
 40
2459697.058775567
  9
$TDINDWG
 40
0.0018452546
  9
$TDUSRTIMER
 40
0.0001176505
  9
$USRTIMER
 70
     1
  9
$ANGBASE
 50
0.0
  9
$ANGDIR
 70
     0
  9
$PDMODE
 70
     0
  9
$PDSIZE
 40
-1.0
  9
$PLINEWID
 40
0.0
  9
$SPLFRAME
 70
     0
  9
$SPLINETYPE
 70
     6
  9
$SPLINESEGS
 70
     8
  9
$HANDSEED
  5
1FB
  9
$SURFTAB1
 70
     6
  9
$SURFTAB2
 70
     6
  9
$SURFTYPE
 70
     6
  9
$SURFU
 70
     6
  9
$SURFV
 70
     6
  9
$UCSBASE
  2

  9
$UCSNAME
  2

  9
$UCSORG
 10
0.0
 20
0.0
 30
0.0
  9
$UCSXDIR
 10
1.0
 20
0.0
 30
0.0
  9
$UCSYDIR
 10
0.0
 20
1.0
 30
0.0
  9
$UCSORTHOREF
  2

  9
$UCSORTHOVIEW
 70
     0
  9
$UCSORGTOP
 10
0.0
 20
0.0
 30
0.0
  9
$UCSORGBOTTOM
 10
0.0
 20
0.0
 30
0.0
  9
$UCSORGLEFT
 10
0.0
 20
0.0
 30
0.0
  9
$UCSORGRIGHT
 10
0.0
 20
0.0
 30
0.0
  9
$UCSORGFRONT
 10
0.0
 20
0.0
 30
0.0
  9
$UCSORGBACK
 10
0.0
 20
0.0
 30
0.0
  9
$PUCSBASE
  2

  9
$PUCSNAME
  2

  9
$PUCSORG
 10
0.0
 20
0.0
 30
0.0
  9
$PUCSXDIR
 10
1.0
 20
0.0
 30
0.0
  9
$PUCSYDIR
 10
0.0
 20
1.0
 30
0.0
  9
$PUCSORTHOREF
  2

  9
$PUCSORTHOVIEW
 70
     0
  9
$PUCSORGTOP
 10
0.0
 20
0.0
 30
0.0
  9
$PUCSORGBOTTOM
 10
0.0
 20
0.0
 30
0.0
  9
$PUCSORGLEFT
 10
0.0
 20
0.0
 30
0.0
  9
$PUCSORGRIGHT
 10
0.0
 20
0.0
 30
0.0
  9
$PUCSORGFRONT
 10
0.0
 20
0.0
 30
0.0
  9
$PUCSORGBACK
 10
0.0
 20
0.0
 30
0.0
  9
$USERI1
 70
     0
  9
$USERI2
 70
     0
  9
$USERI3
 70
     0
  9
$USERI4
 70
     0
  9
$USERI5
 70
     0
  9
$USERR1
 40
0.0
  9
$USERR2
 40
0.0
  9
$USERR3
 40
0.0
  9
$USERR4
 40
0.0
  9
$USERR5
 40
0.0
  9
$WORLDVIEW
 70
     1
  9
$SHADEDGE
 70
     3
  9
$SHADEDIF
 70
    70
  9
$TILEMODE
 70
     1
  9
$MAXACTVP
 70
    64
  9
$PINSBASE
 10
0.0
 20
0.0
 30
0.0
  9
$PLIMCHECK
 70
     0
  9
$PEXTMIN
 10
1.000000000000000E+20
 20
1.000000000000000E+20
 30
1.000000000000000E+20
  9
$PEXTMAX
 10
-1.000000000000000E+20
 20
-1.000000000000000E+20
 30
-1.000000000000000E+20
  9
$PLIMMIN
 10
0.0
 20
0.0
  9
$PLIMMAX
 10
0.0
 20
0.0
  9
$UNITMODE
 70
     0
  9
$VISRETAIN
 70
     1
  9
$PLINEGEN
 70
     0
  9
$PSLTSCALE
 70
     1
  9
$TREEDEPTH
 70
  3020
  9
$CMLSTYLE
  2
Standard
  9
$CMLJUST
 70
     0
  9
$CMLSCALE
 40
20.0
  9
$PROXYGRAPHICS
 70
     1
  9
$MEASUREMENT
 70
     1
  9
$CELWEIGHT
370
    -1
  9
$ENDCAPS
280
     0
  9
$JOINSTYLE
280
     0
  9
$LWDISPLAY
290
     1
  9
$INSUNITS
 70
     4
  9
$HYPERLINKBASE
  1

  9
$STYLESHEET
  1

  9
$XEDIT
290
     1
  9
$CEPSNTYPE
380
     0
  9
$PSTYLEMODE
290
     1
  9
$FINGERPRINTGUID
  2
{FA7138E1-FB8C-42BF-A340-10F6B2944424}
  9
$VERSIONGUID
  2
{FAEB1C32-E019-11D5-929B-00C0DF256EC4}
  9
$EXTNAMES
290
     1
  9
$PSVPSCALE
 40
0.0
  9
$OLESTARTUP
290
     0
  0
ENDSEC
  0
SECTION
  2
CLASSES
  0
CLASS
  1
ACDBDICTIONARYWDFLT
  2
AcDbDictionaryWithDefault
  3
ObjectDBX Classes
 90
        0
280
     0
281
     0
  0
CLASS
  1
VISUALSTYLE
  2
AcDbVisualStyle
  3
ObjectDBX Classes
 90
     4095
280
     0
281
     0
  0
CLASS
  1
MATERIAL
  2
AcDbMaterial
  3
ObjectDBX Classes
 90
     1153
280
     0
281
     0
  0
CLASS
  1
SCALE
  2
AcDbScale
  3
ObjectDBX Classes
 90
     1153
280
     0
281
     0
  0
CLASS
  1
SUN
  2
AcDbSun
  3
SCENEOE
 90
     1153
280
     0
281
     0
  0
CLASS
  1
ACDBPLACEHOLDER
  2
AcDbPlaceHolder
  3
ObjectDBX Classes
 90
        0
280
     0
281
     0
  0
CLASS
  1
LAYOUT
  2
AcDbLayout
  3
ObjectDBX Classes
 90
        0
280
     0
281
     0
  0
CLASS
  1
TABLESTYLE
  2
AcDbTableStyle
  3
ObjectDBX Classes
 90
     4095
280
     0
281
     0
  0
CLASS
  1
MLEADERSTYLE
  2
AcDbMLeaderStyle
  3
ACDB_MLEADERSTYLE_CLASS
 90
     4095
280
     0
281
     0
  0
CLASS
  1
RASTERVARIABLES
  2
AcDbRasterVariables
  3
ISM
 90
        0
280
     0
281
     0
  0
CLASS
  1
DIMASSOC
  2
AcDbDimAssoc
  3
"AcDbDimAssoc|Product Desc:     AcDim ARX App For Dimension|Company:          Autodesk, Inc.|WEB Address:      www.autodesk.com"
 90
        0
280
     0
281
     0
  0
ENDSEC
  0
SECTION
  2
TABLES
  0
TABLE
  2
VPORT
  5
8
330
0
100
AcDbSymbolTable
 70
     1
  0
VPORT
  5
29
330
8
100
AcDbSymbolTableRecord
100
AcDbViewportTableRecord
  2
*Active
 70
     0
 10
0.0
 20
0.0
 11
1.0
 21
1.0
 12
1.761574281669297
 22
-3.165438972747907
 13
0.0
 23
0.0
 14
10.0
 24
10.0
 15
10.0
 25
10.0
 16
0.0
 26
0.0
 36
1.0
 17
0.0
 27
0.0
 37
0.0
 40
94.9538203972722
 41
1.898569570871261
 42
50.0
 43
0.0
 44
0.0
 50
0.0
 51
0.0
 71
    16
 72
  2000
 73
     1
 74
     3
 75
     0
 76
     0
 77
     0
 78
     0
281
     0
 65
     1
110
0.0
120
0.0
130
0.0
111
1.0
121
0.0
131
0.0
112
0.0
122
1.0
132
0.0
 79
     0
146
0.0
  0
ENDTAB
  0
TABLE
  2
LTYPE
  5
5
330
0
100
AcDbSymbolTable
 70
     6
  0
LTYPE
  5
14
330
5
100
AcDbSymbolTableRecord
100
AcDbLinetypeTableRecord
  2
ByBlock
 70
     0
  3

 72
    65
 73
     0
 40
0.0
  0
LTYPE
  5
15
330
5
100
AcDbSymbolTableRecord
100
AcDbLinetypeTableRecord
  2
ByLayer
 70
     0
  3

 72
    65
 73
     0
 40
0.0
  0
LTYPE
  5
16
330
5
100
AcDbSymbolTableRecord
100
AcDbLinetypeTableRecord
  2
Continuous
 70
     0
  3
Solid line
 72
    65
 73
     0
 40
0.0
  0
LTYPE
  5
6A
330
5
100
AcDbSymbolTableRecord
100
AcDbLinetypeTableRecord
  2
HIDDEN
 70
     0
  3
Hidden __ __ __ __ __ __ __ __ __ __ __ __ __ __
 72
    65
 73
     2
 40
1.905
 49
1.27
 74
     0
 49
-0.635
 74
     0
  0
LTYPE
  5
6B
330
5
100
AcDbSymbolTableRecord
100
AcDbLinetypeTableRecord
  2
PHANTOM
 70
     0
  3
Phantom ______  __  __  ______  __  __  ______
 72
    65
 73
     6
 40
12.7
 49
6.35
 74
     0
 49
-1.27
 74
     0
 49
1.27
 74
     0
 49
-1.27
 74
     0
 49
1.27
 74
     0
 49
-1.27
 74
     0
  0
LTYPE
  5
6C
330
5
100
AcDbSymbolTableRecord
100
AcDbLinetypeTableRecord
  2
CENTER
 70
     0
  3
Center ____ _ ____ _ ____ _ ____ _ ____ _ ____
 72
    65
 73
     4
 40
10.16
 49
6.35
 74
     0
 49
-1.27
 74
     0
 49
1.27
 74
     0
 49
-1.27
 74
     0
  0
LTYPE
  5
6D
330
5
100
AcDbSymbolTableRecord
100
AcDbLinetypeTableRecord
  2
CENTERX2
 70
     0
  3
Center (2x) ________  __  ________  __  _____
 72
    65
 73
     4
 40
20.32
 49
12.7
 74
     0
 49
-2.54
 74
     0
 49
2.54
 74
     0
 49
-2.54
 74
     0
  0
LTYPE
  5
6E
330
5
100
AcDbSymbolTableRecord
100
AcDbLinetypeTableRecord
  2
DOT2
 70
     0
  3
Dot (.5x) ........................................
 72
    65
 73
     2
 40
0.635
 49
0.0
 74
     0
 49
-0.635
 74
     0
  0
ENDTAB
  0
TABLE
  2
LAYER
  5
2
102
{ACAD_XDICTIONARY
360
1C3
102
}
330
0
100
AcDbSymbolTable
 70
    17
  0
LAYER
  5
10
330
2
100
AcDbSymbolTableRecord
100
AcDbLayerTableRecord
  2
0
 70
     0
 62
     7
  6
Continuous
370
    -3
390
F
  0
LAYER
  5
6F
330
2
100
AcDbSymbolTableRecord
100
AcDbLayerTableRecord
  2
FORMAT
 70
     0
 62
     2
  6
Continuous
370
    -3
390
F
  0
LAYER
  5
70
330
2
100
AcDbSymbolTableRecord
100
AcDbLayerTableRecord
  2
외형선
 70
     0
 62
   100
  6
Continuous
370
    30
390
F
  0
LAYER
  5
71
330
2
100
AcDbSymbolTableRecord
100
AcDbLayerTableRecord
  2
숨은선
 70
     0
 62
     2
  6
HIDDEN
370
    15
390
F
  0
LAYER
  5
72
330
2
100
AcDbSymbolTableRecord
100
AcDbLayerTableRecord
  2
중심선
 70
     0
 62
     1
  6
CENTERX2
370
    -3
390
F
  0
LAYER
  5
73
330
2
100
AcDbSymbolTableRecord
100
AcDbLayerTableRecord
  2
파단선
 70
     0
 62
     4
  6
Continuous
370
    -3
390
F
  0
LAYER
  5
74
330
2
100
AcDbSymbolTableRecord
100
AcDbLayerTableRecord
  2
해칭선
 70
     0
 62
     4
  6
Continuous
370
    -3
390
F
  0
LAYER
  5
75
330
2
100
AcDbSymbolTableRecord
100
AcDbLayerTableRecord
  2
가는실선
 70
     0
 62
     4
  6
Continuous
370
    -3
390
F
  0
LAYER
  5
76
330
2
100
AcDbSymbolTableRecord
100
AcDbLayerTableRecord
  2
치수_보조선
 70
     0
 62
     4
  6
Continuous
370
    -3
390
F
  0
LAYER
  5
77
330
2
100
AcDbSymbolTableRecord
100
AcDbLayerTableRecord
  2
치수문자_일반주서
 70
     0
 62
     7
  6
Continuous
370
    15
390
F
  0
LAYER
  5
78
330
2
100
AcDbSymbolTableRecord
100
AcDbLayerTableRecord
  2
개별주서
 70
     0
 62
   100
  6
Continuous
370
    30
390
F
  0
LAYER
  5
79
330
2
100
AcDbSymbolTableRecord
100
AcDbLayerTableRecord
  2
중간선
 70
     0
 62
     2
  6
Continuous
370
    15
390
F
  0
LAYER
  5
7A
330
2
100
AcDbSymbolTableRecord
100
AcDbLayerTableRecord
  2
윤곽선
 70
     0
 62
     3
  6
Continuous
370
    40
390
F
  0
LAYER
  5
7B
330
2
100
AcDbSymbolTableRecord
100
AcDbLayerTableRecord
  2
중심마크
 70
     0
 62
   100
  6
Continuous
370
    30
390
F
  0
LAYER
  5
7C
330
2
100
AcDbSymbolTableRecord
100
AcDbLayerTableRecord
  2
가상선
 70
     0
 62
     4
  6
PHANTOM
370
    -3
390
F
  0
LAYER
  5
7D
330
2
100
AcDbSymbolTableRecord
100
AcDbLayerTableRecord
  2
특수지정선
 70
     0
 62
     5
  6
CENTERX2
370
    60
390
F
  0
LAYER
  5
163
330
2
100
AcDbSymbolTableRecord
100
AcDbLayerTableRecord
  2
Defpoints
 70
     0
 62
     7
  6
Continuous
290
     0
370
    -3
390
F
  0
ENDTAB
  0
TABLE
  2
STYLE
  5
3
330
0
100
AcDbSymbolTable
 70
     2
  0
STYLE
  5
11
330
3
100
AcDbSymbolTableRecord
100
AcDbTextStyleTableRecord
  2
Standard
 70
     0
 40
0.0
 41
1.0
 50
0.0
 71
     0
 42
3.5
  3
txt
  4

  0
STYLE
  5
93
330
3
100
AcDbSymbolTableRecord
100
AcDbTextStyleTableRecord
  2
SLDTEXTSTYLE0
 70
     0
 40
0.0
 41
0.75
 50
0.0
 71
     0
 42
3.5
  3
TXT
  4

  0
ENDTAB
  0
TABLE
  2
VIEW
  5
6
330
0
100
AcDbSymbolTable
 70
     0
  0
ENDTAB
  0
TABLE
  2
UCS
  5
7
330
0
100
AcDbSymbolTable
 70
     0
  0
ENDTAB
  0
TABLE
  2
APPID
  5
9
330
0
100
AcDbSymbolTable
 70
     2
  0
APPID
  5
12
330
9
100
AcDbSymbolTableRecord
100
AcDbRegAppTableRecord
  2
ACAD
 70
     0
  0
APPID
  5
162
330
9
100
AcDbSymbolTableRecord
100
AcDbRegAppTableRecord
  2
ACAD_DSTYLE_DIMRADIAL_EXTENSION
 70
     0
  0
ENDTAB
  0
TABLE
  2
DIMSTYLE
  5
A
330
0
100
AcDbSymbolTable
 70
     5
100
AcDbDimStyleTable
  0
DIMSTYLE
105
27
330
A
100
AcDbSymbolTableRecord
100
AcDbDimStyleTableRecord
  2
ISO-25
 70
     0
 41
2.5
 42
0.625
 43
3.75
 44
1.25
 73
     0
 74
     0
 77
     1
 78
     8
140
2.5
141
2.5
143
0.03937007874016
147
0.625
171
     3
172
     1
178
     0
271
     2
272
     2
274
     3
278
    44
283
     0
284
     8
340
11
  0
DIMSTYLE
105
E6
102
{ACAD_REACTORS
330
E5
330
167
102
}
330
A
100
AcDbSymbolTableRecord
100
AcDbDimStyleTableRecord
  2
SLDDIMSTYLE0
 70
     0
 41
3.302
 44
0.0
 45
0.000000001
 73
     0
 74
     0
 77
     1
 78
    12
 79
     3
140
3.5
143
0.0393700787401575
147
0.875
148
0.000000001
170
     1
172
     1
173
     1
178
     0
271
     2
272
     2
276
     2
284
    12
289
     0
340
93
  0
DIMSTYLE
105
FB
102
{ACAD_REACTORS
330
FA
102
}
330
A
100
AcDbSymbolTableRecord
100
AcDbDimStyleTableRecord
  2
SLDDIMSTYLE1
 70
     0
 41
3.302
 44
0.0
 45
0.000000001
 73
     0
 74
     0
 77
     1
 78
     4
 79
     1
140
3.5
143
0.0393700787401575
147
0.875
148
0.000000001
170
     1
173
     1
178
     0
271
     2
272
     2
276
     2
284
    12
340
93
  0
DIMSTYLE
105
10F
102
{ACAD_REACTORS
330
10E
102
}
330
A
100
AcDbSymbolTableRecord
100
AcDbDimStyleTableRecord
  2
SLDDIMSTYLE2
 70
     0
 41
3.302
 44
0.0
 45
0.000000001
 73
     0
 74
     0
 77
     1
 78
    12
 79
     3
140
3.5
143
0.0393700787401575
147
0.875
148
0.000000001
170
     1
173
     1
178
     0
271
     2
272
     2
276
     2
284
    12
340
93
  0
DIMSTYLE
105
123
102
{ACAD_REACTORS
330
122
102
}
330
A
100
AcDbSymbolTableRecord
100
AcDbDimStyleTableRecord
  2
SLDDIMSTYLE3
 70
     0
 41
3.302
 44
0.0
 45
0.000000001
 73
     0
 74
     0
 77
     1
 78
     4
 79
     1
140
3.5
143
0.0393700787401575
147
0.875
148
0.000000001
170
     1
172
     1
173
     1
178
     0
271
     2
272
     2
276
     2
284
    12
289
     0
340
93
  0
ENDTAB
  0
TABLE
  2
BLOCK_RECORD
  5
1
330
0
100
AcDbSymbolTable
 70
     8
  0
BLOCK_RECORD
  5
1F
102
{ACAD_XDICTIONARY
360
1F8
102
}
330
1
100
AcDbSymbolTableRecord
100
AcDbBlockTableRecord
  2
*Model_Space
340
22
  0
BLOCK_RECORD
  5
1B
330
1
100
AcDbSymbolTableRecord
100
AcDbBlockTableRecord
  2
*Paper_Space
340
1E
  0
BLOCK_RECORD
  5
23
330
1
100
AcDbSymbolTableRecord
100
AcDbBlockTableRecord
  2
*Paper_Space0
340
26
  0
BLOCK_RECORD
  5
7E
330
1
100
AcDbSymbolTableRecord
100
AcDbBlockTableRecord
  2
블럭10
340
0
102
{BLKREFS
331
DD
102
}
  0
BLOCK_RECORD
  5
E7
330
1
100
AcDbSymbolTableRecord
100
AcDbBlockTableRecord
  2
_D
340
0
  0
BLOCK_RECORD
  5
FC
330
1
100
AcDbSymbolTableRecord
100
AcDbBlockTableRecord
  2
_D_1
340
0
  0
BLOCK_RECORD
  5
110
330
1
100
AcDbSymbolTableRecord
100
AcDbBlockTableRecord
  2
_D_2
340
0
  0
BLOCK_RECORD
  5
124
330
1
100
AcDbSymbolTableRecord
100
AcDbBlockTableRecord
  2
_D_3
340
0
  0
BLOCK_RECORD
  5
137
330
1
100
AcDbSymbolTableRecord
100
AcDbBlockTableRecord
  2
SW_DOWELSYMBOL_0
340
0
102
{BLKREFS
331
13D
102
}
  0
BLOCK_RECORD
  5
16A
330
1
100
AcDbSymbolTableRecord
100
AcDbBlockTableRecord
  2
*D7
340
0
  0
ENDTAB
  0
ENDSEC
  0
SECTION
  2
BLOCKS
  0
BLOCK
  5
20
330
1F
100
AcDbEntity
  8
0
100
AcDbBlockBegin
  2
*Model_Space
 70
     0
 10
0.0
 20
0.0
 30
0.0
  3
*Model_Space
  1
*Model_Space
  0
ENDBLK
  5
21
330
1F
100
AcDbEntity
  8
0
100
AcDbBlockEnd
  0
BLOCK
  5
1C
330
1B
100
AcDbEntity
 67
     1
  8
0
100
AcDbBlockBegin
  2
*Paper_Space
 70
     0
 10
0.0
 20
0.0
 30
0.0
  3
*Paper_Space
  1
*Paper_Space
  0
ENDBLK
  5
1D
330
1B
100
AcDbEntity
 67
     1
  8
0
100
AcDbBlockEnd
  0
BLOCK
  5
24
330
23
100
AcDbEntity
  8
0
100
AcDbBlockBegin
  2
*Paper_Space0
 70
     0
 10
0.0
 20
0.0
 30
0.0
  3
*Paper_Space0
  1
*Paper_Space0
  0
ENDBLK
  5
25
330
23
100
AcDbEntity
  8
0
100
AcDbBlockEnd
  0
BLOCK
  5
7F
330
7E
100
AcDbEntity
  8
0
100
AcDbBlockBegin
  2
블럭10
 70
     2
 10
0.0
 20
0.0
 30
0.0
  3
블럭10
  1
블럭10
  0
ELLIPSE
  5
81
330
7E
100
AcDbEntity
  8
중심선
100
AcDbEllipse
 10
20.54032771741204
 20
12.0471743016438
 30
0.0
 11
6.600054785286829
 21
-1.261213355974178E-13
 31
0.0
210
0.0
220
0.0
230
1.0
 40
0.636358354079598
 41
0.9219305317359503
 42
6.513795318482858
  0
ELLIPSE
  5
82
330
7E
100
AcDbEntity
  8
중심선
100
AcDbEllipse
 10
20.54032771746488
 20
12.04717430159265
 30
0.0
 11
3.960054785062283
 21
1.540847449632565E-10
 31
0.0
210
0.0
220
0.0
230
1.0
 40
0.3939339440162632
 41
1.131841032648279
 42
5.62031148352944
  0
LINE
  5
83
330
7E
100
AcDbEntity
  8
중심선
100
AcDbLine
 10
2.268634060543552
 20
16.24717430164393
 30
0.0
 11
5.714909304380834
 21
16.24717430164393
 31
0.0
  0
LINE
  5
84
330
7E
100
AcDbEntity
  8
중심선
100
AcDbLine
 10
5.245725140726316
 20
7.84717430164391
 30
0.0
 11
8.692000384563599
 21
7.84717430164391
 31
0.0
  0
LINE
  5
85
330
7E
100
AcDbEntity
  8
중심선
100
AcDbLine
 10
15.74043728645272
 20
16.24717430164393
 30
0.0
 11
8.692000384563599
 21
7.84717430164391
 31
0.0
  0
LINE
  5
86
330
7E
100
AcDbEntity
  8
중심선
100
AcDbLine
 10
0.1404042013395286
 20
13.71084872107135
 30
0.0
 11
3.58671253028996
 21
13.71088815037384
 31
0.0
  0
LINE
  5
87
330
7E
100
AcDbEntity
  8
중심선
100
AcDbLine
 10
2.750260043222114
 20
10.84717430164391
 30
0.0
 11
6.196535287059397
 21
10.84717430164391
 31
0.0
  0
LINE
  5
88
330
7E
100
AcDbEntity
  8
중심선
100
AcDbLine
 10
12.29416204261559
 20
16.24717430164393
 30
0.0
 11
5.245725140726316
 21
7.84717430164391
 31
0.0
  0
LINE
  5
89
330
7E
100
AcDbEntity
  8
중심선
100
AcDbLine
 10
10.72767329541681
 20
16.24717430164393
 30
0.0
 11
6.196535287059397
 21
10.84717430164391
 31
0.0
  0
LINE
  5
8A
330
7E
100
AcDbEntity
  8
중심선
100
AcDbLine
 10
7.28139805157953
 20
16.24717430164393
 30
0.0
 11
2.750260043222114
 21
10.84717430164391
 31
0.0
  0
LINE
  5
8B
330
7E
100
AcDbEntity
  8
중심선
100
AcDbLine
 10
5.714909304380834
 20
16.24717430164393
 30
0.0
 11
3.58671253028996
 21
13.71088815037384
 31
0.0
  0
LINE
  5
8C
330
7E
100
AcDbEntity
  8
중심선
100
AcDbLine
 10
2.268634060543552
 20
16.24717430164393
 30
0.0
 11
0.1404042013395286
 21
13.71084872107135
 31
0.0
  0
LINE
  5
8D
330
7E
100
AcDbEntity
  8
중심선
100
AcDbLine
 10
7.28139805157953
 20
16.24717430164393
 30
0.0
 11
10.72767329541681
 21
16.24717430164393
 31
0.0
  0
LINE
  5
8E
330
7E
100
AcDbEntity
  8
중심선
100
AcDbLine
 10
12.29416204261559
 20
16.24717430164393
 30
0.0
 11
15.74043728645272
 21
16.24717430164393
 31
0.0
  0
LINE
  5
8F
330
7E
100
AcDbEntity
  8
중심선
100
AcDbLine
 10
19.22036997980202
 20
11.08717430171403
 30
0.0
 11
23.66174974927406
 21
11.08717430171406
 31
0.0
  0
LINE
  5
90
330
7E
100
AcDbEntity
  8
중심선
100
AcDbLine
 10
19.22039502424796
 20
13.00717430171391
 30
0.0
 11
19.22036997980202
 21
11.08717430171403
 31
0.0
  0
LINE
  5
91
330
7E
100
AcDbEntity
  8
중심선
100
AcDbLine
 10
19.22039502424796
 20
13.00717430171391
 30
0.0
 11
26.96566020931264
 21
13.00717430171391
 31
0.0
  0
LINE
  5
92
330
7E
100
AcDbEntity
  8
중심선
100
AcDbLine
 10
22.22332737316547
 20
13.45928029700563
 30
0.0
 11
24.52862924686651
 21
15.39360700705356
 31
0.0
  0
ATTDEF
  5
94
330
7E
100
AcDbEntity
  8
FORMAT
 62
     2
100
AcDbText
 10
-11.05102035218446
 20
2.075366912832191
 30
0.0
 40
4.233333333333333
  1
GMG22922[ 6 FLUTE ]
 41
0.75
  7
SLDTEXTSTYLE0
 11
-11.05102035218446
 21
-0.0412997538344756
 31
0.0
100
AcDbAttributeDefinition
  3

  2
AUTOATTR0
 70
     0
 74
     1
  0
ENDBLK
  5
80
330
7E
100
AcDbEntity
  8
0
100
AcDbBlockEnd
  0
BLOCK
  5
E8
330
E7
100
AcDbEntity
  8
0
100
AcDbBlockBegin
  2
_D
 70
     0
 10
0.0
 20
0.0
 30
0.0
  3
_D
  1
_D
  0
LINE
  5
EA
330
E7
100
AcDbEntity
  8
치수문자_일반주서
 62
     0
370
    -2
100
AcDbLine
 10
39.52650000000003
 20
-6.349999999999995
 30
0.0
 11
57.27597954368472
 21
-6.34999999999993
 31
0.0
  0
LINE
  5
EB
330
E7
100
AcDbEntity
  8
치수문자_일반주서
 62
     0
370
    -2
100
AcDbLine
 10
39.06538985117777
 20
6.350000000000006
 30
0.0
 11
57.27597954368468
 21
6.350000000000072
 31
0.0
  0
LINE
  5
EC
330
E7
100
AcDbEntity
  8
치수문자_일반주서
 62
     0
370
    -2
100
AcDbLine
 10
57.27597954368471
 20
-3.047999999999931
 30
0.0
 11
57.27597954368469
 21
3.048000000000073
 31
0.0
  0
SOLID
  5
ED
330
E7
100
AcDbEntity
  8
치수문자_일반주서
 62
     0
100
AcDbTrace
 10
56.72564621035137
 20
-3.047999999999933
 30
0.0
 11
57.82631287701804
 21
-3.047999999999929
 31
0.0
 12
57.27597954368472
 22
-6.34999999999993
 32
0.0
 13
57.27597954368472
 23
-6.34999999999993
 33
0.0
  0
SOLID
  5
EE
330
E7
100
AcDbEntity
  8
치수문자_일반주서
 62
     0
100
AcDbTrace
 10
57.82631287701803
 20
3.048000000000075
 30
0.0
 11
56.72564621035136
 21
3.048000000000071
 31
0.0
 12
57.27597954368468
 22
6.350000000000072
 32
0.0
 13
57.27597954368468
 23
6.350000000000072
 33
0.0
  0
MTEXT
  5
EF
330
E7
100
AcDbEntity
  8
치수문자_일반주서
 62
     0
100
AcDbMText
 10
52.9009795436847
 20
0.0000000000000561
 30
0.0
 40
3.5
 41
0.0
 71
     2
 72
     1
  1
\A1;%%c12.7 [1/2]
  7
SLDTEXTSTYLE0
 11
-3.356894814614645E-15
 21
1.0
 31
0.0
 73
     1
 44
1.0
  0
POINT
  5
F0
330
E7
100
AcDbEntity
  8
Defpoints
 62
     0
100
AcDbPoint
 10
39.46400000000003
 20
-6.349999999999995
 30
0.0
  0
POINT
  5
F1
330
E7
100
AcDbEntity
  8
Defpoints
 62
     0
100
AcDbPoint
 10
39.00288985117777
 20
6.350000000000006
 30
0.0
  0
POINT
  5
F2
330
E7
100
AcDbEntity
  8
Defpoints
 62
     0
100
AcDbPoint
 10
57.27597954368468
 20
6.350000000000074
 30
0.0
  0
ENDBLK
  5
E9
330
E7
100
AcDbEntity
  8
0
100
AcDbBlockEnd
  0
BLOCK
  5
FD
330
FC
100
AcDbEntity
  8
0
100
AcDbBlockBegin
  2
_D_1
 70
     0
 10
0.0
 20
0.0
 30
0.0
  3
_D_1
  1
_D_1
  0
LINE
  5
FF
330
FC
100
AcDbEntity
  8
치수문자_일반주서
 62
     0
370
    -2
100
AcDbLine
 10
-47.15000000000001
 20
5.912499999999998
 30
0.0
 11
-47.15000000000001
 21
39.00555141807179
 31
0.0
  0
LINE
  5
100
330
FC
100
AcDbEntity
  8
치수문자_일반주서
 62
     0
370
    -2
100
AcDbLine
 10
41.75
 20
4.126500000000007
 30
0.0
 11
41.75
 21
39.00555141807179
 31
0.0
  0
LINE
  5
101
330
FC
100
AcDbEntity
  8
치수문자_일반주서
 62
     0
370
    -2
100
AcDbLine
 10
-43.84800000000001
 20
39.00555141807179
 30
0.0
 11
38.448
 21
39.00555141807179
 31
0.0
  0
SOLID
  5
102
330
FC
100
AcDbEntity
  8
치수문자_일반주서
 62
     0
100
AcDbTrace
 10
-43.84800000000001
 20
39.55588475140512
 30
0.0
 11
-43.84800000000001
 21
38.45521808473845
 31
0.0
 12
-47.15000000000001
 22
39.00555141807179
 32
0.0
 13
-47.15000000000001
 23
39.00555141807179
 33
0.0
  0
SOLID
  5
103
330
FC
100
AcDbEntity
  8
치수문자_일반주서
 62
     0
100
AcDbTrace
 10
38.448
 20
38.45521808473845
 30
0.0
 11
38.448
 21
39.55588475140512
 31
0.0
 12
41.75
 22
39.00555141807179
 32
0.0
 13
41.75
 23
39.00555141807179
 33
0.0
  0
MTEXT
  5
104
330
FC
100
AcDbEntity
  8
치수문자_일반주서
 62
     0
100
AcDbMText
 10
-2.699999999999999
 20
43.38055141807179
 30
0.0
 40
3.5
 41
0.0
 71
     2
 72
     1
  1
\A1;88.90 [3 1/2]
  7
SLDTEXTSTYLE0
 73
     1
 44
1.0
  0
POINT
  5
105
330
FC
100
AcDbEntity
  8
Defpoints
 62
     0
100
AcDbPoint
 10
-47.15000000000001
 20
5.849999999999998
 30
0.0
  0
POINT
  5
106
330
FC
100
AcDbEntity
  8
Defpoints
 62
     0
100
AcDbPoint
 10
41.75
 20
4.064000000000007
 30
0.0
  0
POINT
  5
107
330
FC
100
AcDbEntity
  8
Defpoints
 62
     0
100
AcDbPoint
 10
41.75
 20
39.00555141807179
 30
0.0
  0
ENDBLK
  5
FE
330
FC
100
AcDbEntity
  8
0
100
AcDbBlockEnd
  0
BLOCK
  5
111
330
110
100
AcDbEntity
  8
0
100
AcDbBlockBegin
  2
_D_2
 70
     0
 10
0.0
 20
0.0
 30
0.0
  3
_D_2
  1
_D_2
  0
LINE
  5
113
330
110
100
AcDbEntity
  8
치수문자_일반주서
 62
     0
370
    -2
100
AcDbLine
 10
41.75
 20
4.126500000000007
 30
0.0
 11
41.75
 21
21.69099453033795
 31
0.0
  0
LINE
  5
114
330
110
100
AcDbEntity
  8
치수문자_일반주서
 62
     0
370
    -2
100
AcDbLine
 10
9.999999999999995
 20
-5.951567544348813
 30
0.0
 11
9.999999999999995
 21
21.69099453033795
 31
0.0
  0
LINE
  5
115
330
110
100
AcDbEntity
  8
치수문자_일반주서
 62
     0
370
    -2
100
AcDbLine
 10
38.448
 20
21.69099453033795
 30
0.0
 11
13.30199999999999
 21
21.69099453033795
 31
0.0
  0
SOLID
  5
116
330
110
100
AcDbEntity
  8
치수문자_일반주서
 62
     0
100
AcDbTrace
 10
38.448
 20
21.14066119700461
 30
0.0
 11
38.448
 21
22.24132786367128
 31
0.0
 12
41.75
 22
21.69099453033795
 32
0.0
 13
41.75
 23
21.69099453033795
 33
0.0
  0
SOLID
  5
117
330
110
100
AcDbEntity
  8
치수문자_일반주서
 62
     0
100
AcDbTrace
 10
13.30199999999999
 20
22.24132786367128
 30
0.0
 11
13.30199999999999
 21
21.14066119700461
 31
0.0
 12
9.999999999999995
 22
21.69099453033795
 32
0.0
 13
9.999999999999995
 23
21.69099453033795
 33
0.0
  0
MTEXT
  5
118
330
110
100
AcDbEntity
  8
치수문자_일반주서
 62
     0
100
AcDbMText
 10
25.52575141487685
 20
26.06599453033795
 30
0.0
 40
3.5
 41
0.0
 71
     2
 72
     1
  1
\A1;31.75 [1 1/4]
  7
SLDTEXTSTYLE0
 73
     1
 44
1.0
  0
POINT
  5
119
330
110
100
AcDbEntity
  8
Defpoints
 62
     0
100
AcDbPoint
 10
41.75
 20
4.064000000000007
 30
0.0
  0
POINT
  5
11A
330
110
100
AcDbEntity
  8
Defpoints
 62
     0
100
AcDbPoint
 10
9.999999999999995
 20
-6.014067544348813
 30
0.0
  0
POINT
  5
11B
330
110
100
AcDbEntity
  8
Defpoints
 62
     0
100
AcDbPoint
 10
9.999999999999995
 20
21.69099453033795
 30
0.0
  0
ENDBLK
  5
112
330
110
100
AcDbEntity
  8
0
100
AcDbBlockEnd
  0
BLOCK
  5
125
330
124
100
AcDbEntity
  8
0
100
AcDbBlockBegin
  2
_D_3
 70
     0
 10
0.0
 20
0.0
 30
0.0
  3
_D_3
  1
_D_3
  0
LINE
  5
127
330
124
100
AcDbEntity
  8
치수문자_일반주서
 62
     0
370
    -2
100
AcDbLine
 10
-46.71250000000001
 20
6.350000000000002
 30
0.0
 11
-60.15000000000004
 21
6.349999999999952
 31
0.0
  0
LINE
  5
128
330
124
100
AcDbEntity
  8
치수문자_일반주서
 62
     0
370
    -2
100
AcDbLine
 10
-46.71250000000001
 20
-6.349999999999997
 30
0.0
 11
-60.15
 21
-6.350000000000048
 31
0.0
  0
LINE
  5
129
330
124
100
AcDbEntity
  8
치수문자_일반주서
 62
     0
370
    -2
100
AcDbLine
 10
-60.15000000000003
 20
3.047999999999952
 30
0.0
 11
-60.15000000000001
 21
-3.048000000000048
 31
0.0
  0
SOLID
  5
12A
330
124
100
AcDbEntity
  8
치수문자_일반주서
 62
     0
100
AcDbTrace
 10
-59.59966666666669
 20
3.047999999999954
 30
0.0
 11
-60.70033333333336
 21
3.04799999999995
 31
0.0
 12
-60.15000000000004
 22
6.349999999999952
 32
0.0
 13
-60.15000000000004
 23
6.349999999999952
 33
0.0
  0
SOLID
  5
12B
330
124
100
AcDbEntity
  8
치수문자_일반주서
 62
     0
100
AcDbTrace
 10
-60.70033333333335
 20
-3.04800000000005
 30
0.0
 11
-59.59966666666668
 21
-3.048000000000046
 31
0.0
 12
-60.15
 22
-6.350000000000048
 32
0.0
 13
-60.15
 23
-6.350000000000048
 33
0.0
  0
MTEXT
  5
12C
330
124
100
AcDbEntity
  8
치수문자_일반주서
 62
     0
100
AcDbMText
 10
-64.52500000000002
 20
-0.0000000000000138
 30
0.0
 40
3.5
 41
0.0
 71
     2
 72
     1
  1
\A1;%%c12.70 [1/2]
  7
SLDTEXTSTYLE0
 11
-3.356894814614647E-15
 21
1.0
 31
0.0
 73
     1
 44
1.0
  0
POINT
  5
12D
330
124
100
AcDbEntity
  8
Defpoints
 62
     0
100
AcDbPoint
 10
-46.65000000000001
 20
6.350000000000002
 30
0.0
  0
POINT
  5
12E
330
124
100
AcDbEntity
  8
Defpoints
 62
     0
100
AcDbPoint
 10
-46.65000000000001
 20
-6.349999999999997
 30
0.0
  0
POINT
  5
12F
330
124
100
AcDbEntity
  8
Defpoints
 62
     0
100
AcDbPoint
 10
-60.15
 20
-6.350000000000048
 30
0.0
  0
ENDBLK
  5
126
330
124
100
AcDbEntity
  8
0
100
AcDbBlockEnd
  0
BLOCK
  5
138
330
137
100
AcDbEntity
  8
0
100
AcDbBlockBegin
  2
SW_DOWELSYMBOL_0
 70
     0
 10
0.0
 20
0.0
 30
0.0
  3
SW_DOWELSYMBOL_0
  1
SW_DOWELSYMBOL_0
  0
CIRCLE
  5
13A
330
137
100
AcDbEntity
  8
외형선
 62
     0
100
AcDbCircle
 10
0.0
 20
0.0
 30
0.0
 40
3.000000000000004
  0
HATCH
  5
13B
330
137
100
AcDbEntity
  8
0
  6
Continuous
 62
     0
370
    30
100
AcDbHatch
 10
0.0
 20
0.0
 30
0.0
210
0.0
220
0.0
230
1.0
  2
SOLID
 70
     1
 71
     0
 91
        1
 92
        0
 93
        3
 72
     2
 10
0.0
 20
0.0
 40
3.000000000000004
 50
0.0
 51
90.0
 73
     1
 72
     1
 10
0.0
 20
3.000000000000004
 11
0.0
 21
0.0
 72
     1
 10
0.0
 20
0.0
 11
3.000000000000004
 21
0.0
 97
        0
 75
     0
 76
     1
 98
        1
 10
0.0
 20
0.0
  0
HATCH
  5
13C
330
137
100
AcDbEntity
  8
0
  6
Continuous
 62
     0
370
    30
100
AcDbHatch
 10
0.0
 20
0.0
 30
0.0
210
0.0
220
0.0
230
1.0
  2
SOLID
 70
     1
 71
     0
 91
        1
 92
        0
 93
        3
 72
     2
 10
0.0
 20
0.0
 40
3.000000000000004
 50
180.0
 51
270.0000000000007
 73
     1
 72
     1
 10
0.0
 20
-3.000000000000004
 11
0.0
 21
0.0
 72
     1
 10
0.0
 20
0.0
 11
-3.000000000000004
 21
0.0
 97
        0
 75
     0
 76
     1
 98
        1
 10
0.0
 20
0.0
  0
ENDBLK
  5
139
330
137
100
AcDbEntity
  8
0
100
AcDbBlockEnd
  0
BLOCK
  5
16B
330
16A
100
AcDbEntity
  8
0
100
AcDbBlockBegin
  2
*D7
 70
     1
 10
0.0
 20
0.0
 30
0.0
  3
*D7
  1
*D7
  0
LINE
  5
16D
330
16A
100
AcDbEntity
  8
치수문자_일반주서
 62
     0
370
    -2
100
AcDbLine
 10
43.20690036088845
 20
7.777306999354019
 30
0.0
 11
68.04814856333866
 21
32.45536934193385
 31
0.0
  0
MTEXT
  5
16E
330
16A
100
AcDbEntity
  8
치수문자_일반주서
 62
     0
100
AcDbMText
 10
56.26605629156816
 20
24.4508127208907
 30
0.0
 40
3.5
 41
0.0
 71
     5
 72
     1
  1
\A1;R3.05 [R0.12]
  7
SLDTEXTSTYLE0
 11
0.7094331276989699
 21
0.7047727558037817
 31
0.0
 73
     1
 44
1.0
  0
LINE
  5
16F
330
16A
100
AcDbEntity
  8
치수문자_일반주서
 62
     0
370
    -2
100
AcDbLine
 10
38.702
 20
3.302000000000007
 30
0.0
 11
40.86435217322646
 21
5.450147359689932
 31
0.0
  0
SOLID
  5
170
330
16A
100
AcDbEntity
  8
치수문자_일반주서
 62
     0
100
AcDbTrace
 10
42.81904042094444
 20
8.167731697297686
 30
0.0
 11
43.59476030083247
 21
7.386882301410353
 31
0.0
 12
40.86435217322646
 22
5.450147359689932
 32
0.0
 13
40.86435217322646
 23
5.450147359689932
 33
0.0
  0
POINT
  5
171
330
16A
100
AcDbEntity
  8
Defpoints
 62
     0
100
AcDbPoint
 10
40.86435217322646
 20
5.450147359689932
 30
0.0
  0
POINT
  5
172
330
16A
100
AcDbEntity
  8
Defpoints
 62
     0
100
AcDbPoint
 10
38.702
 20
3.302000000000007
 30
0.0
  0
ENDBLK
  5
16C
330
16A
100
AcDbEntity
  8
0
100
AcDbBlockEnd
  0
ENDSEC
  0
SECTION
  2
ENTITIES
  0
LINE
  5
95
330
1F
100
AcDbEntity
  8
0
  6
Continuous
 62
     4
370
    15
100
AcDbLine
 10
8.097270301605084
 20
6.350000000000006
 30
0.0
 11
-17.416125
 21
6.350000000000004
 31
0.0
  0
LINE
  5
96
330
1F
100
AcDbEntity
  8
0
  6
Continuous
 62
     4
370
    15
100
AcDbLine
 10
-46.65000000000001
 20
-6.349999999999997
 30
0.0
 11
8.097270301605098
 21
-6.349999999999993
 31
0.0
  0
LINE
  5
97
330
1F
100
AcDbEntity
  8
0
  6
Continuous
 62
     4
370
    15
100
AcDbLine
 10
-46.65000000000001
 20
6.349999999999997
 30
0.0
 11
-47.15000000000001
 21
5.849999999999998
 31
0.0
  0
LINE
  5
98
330
1F
100
AcDbEntity
  8
0
  6
Continuous
 62
     4
370
    15
100
AcDbLine
 10
-47.15000000000001
 20
-5.849999999999994
 30
0.0
 11
-46.65000000000001
 21
-6.349999999999992
 31
0.0
  0
LINE
  5
99
330
1F
100
AcDbEntity
  8
0
  6
Continuous
 62
     1
370
    15
100
AcDbLine
 10
7.970376235597087
 20
-6.280844186446925
 30
0.0
 11
7.970376224053132
 21
-6.280705353153939
 31
0.0
  0
LINE
  5
9A
330
1F
100
AcDbEntity
  8
0
  6
Continuous
 62
     1
370
    15
100
AcDbLine
 10
25.70340550578122
 20
-6.349999999999993
 30
0.0
 11
27.87321375738287
 21
-6.349999999999993
 31
0.0
  0
LINE
  5
9B
330
1F
100
AcDbEntity
  8
0
  6
Continuous
 62
     1
370
    15
100
AcDbLine
 10
19.05192204434376
 20
-6.349999999999993
 30
0.0
 11
21.22473802695535
 21
-6.349999999999993
 31
0.0
  0
LINE
  5
9C
330
1F
100
AcDbEntity
  8
0
  6
Continuous
 62
     1
370
    15
100
AcDbLine
 10
39.464
 20
6.350000000000006
 30
0.0
 11
39.00288985117777
 21
6.350000000000006
 31
0.0
  0
LINE
  5
9D
330
1F
100
AcDbEntity
  8
0
  6
Continuous
 62
     1
370
    15
100
AcDbLine
 10
32.3513847642764
 20
-6.349999999999993
 30
0.0
 11
34.524135164046
 21
-6.349999999999993
 31
0.0
  0
LINE
  5
9E
330
1F
100
AcDbEntity
  8
0
  6
Continuous
 62
     1
370
    15
100
AcDbLine
 10
14.57377096210656
 20
6.350000000000006
 30
0.0
 11
12.40251837069717
 21
6.350000000000006
 31
0.0
  0
LINE
  5
A0
330
1F
100
AcDbEntity
  8
0
  6
Continuous
 62
     1
370
    15
100
AcDbLine
 10
21.22473802695539
 20
6.350000000000006
 30
0.0
 11
19.05192204434376
 21
6.350000000000006
 31
0.0
  0
LINE
  5
A1
330
1F
100
AcDbEntity
  8
0
  6
Continuous
 62
     1
370
    15
100
AcDbLine
 10
27.8732137573829
 20
6.350000000000006
 30
0.0
 11
25.70340550578126
 21
6.350000000000006
 31
0.0
  0
LINE
  5
A4
330
1F
100
AcDbEntity
  8
0
  6
Continuous
 62
     1
370
    15
100
AcDbLine
 10
12.40251837069722
 20
-6.349999999999993
 30
0.0
 11
14.57377096210655
 21
-6.349999999999993
 31
0.0
  0
LINE
  5
A5
330
1F
100
AcDbEntity
  8
0
  6
Continuous
 62
     1
370
    15
100
AcDbLine
 10
34.52413516404599
 20
6.350000000000006
 30
0.0
 11
32.35138476427644
 21
6.350000000000006
 31
0.0
  0
SPLINE
  5
A6
330
1F
100
AcDbEntity
  8
0
  6
Continuous
 62
     4
370
    15
100
AcDbSpline
210
0.0
220
0.0
230
1.0
 70
     8
 71
     3
 72
    20
 73
    16
 74
     0
 42
0.000000001
 43
0.00000001
 40
0.0
 40
0.0
 40
0.0
 40
0.0
 40
0.1250000000000001
 40
0.1250000000000001
 40
0.2500000000000001
 40
0.2500000000000001
 40
0.3750000000000002
 40
0.3750000000000002
 40
0.5000000000000002
 40
0.5000000000000002
 40
0.7500000000000002
 40
0.7500000000000002
 40
0.8750000000000001
 40
0.8750000000000001
 40
1.0
 40
1.0
 40
1.0
 40
1.0
 10
7.970376223537983
 20
-2.344740257881149
 30
0.0
 10
7.970376223537984
 20
-2.218549995456832
 30
0.0
 10
7.970574704376943
 20
-2.091005479590368
 30
0.0
 10
7.992550938187218
 20
-1.835102359492236
 30
0.0
 10
8.014164132650246
 20
-1.705648848541054
 30
0.0
 10
8.091360364277635
 20
-1.451954061224597
 30
0.0
 10
8.145642639295469
 20
-1.330748497943007
 30
0.0
 10
8.29368158515019
 20
-1.103628604052399
 30
0.0
 10
8.38334682559394
 20
-1.003813187734173
 30
0.0
 10
8.702187530413427
 20
-0.7497028549628455
 30
0.0
 10
8.972368724363672
 20
-0.6544975381944347
 30
0.0
 10
9.381754190779862
 20
-0.6561768759494111
 30
0.0
 10
9.517245167301494
 20
-0.6800821772468841
 30
0.0
 10
9.774100578642168
 20
-0.7722969085585865
 30
0.0
 10
9.893738590921037
 20
-0.8399360496976602
 30
0.0
 10
9.999999999999856
 20
-0.9262503012289134
 30
0.0
  0
SPLINE
  5
A7
330
1F
100
AcDbEntity
  8
0
  6
Continuous
 62
     4
370
    15
100
AcDbSpline
210
0.0
220
0.0
230
1.0
 70
     8
 71
     3
 72
    14
 73
    10
 74
     0
 42
0.000000001
 43
0.00000001
 40
0.0
 40
0.0
 40
0.0
 40
0.0
 40
0.25
 40
0.25
 40
0.5
 40
0.5
 40
0.75
 40
0.75
 40
1.0
 40
1.0
 40
1.0
 40
1.0
 10
8.39015925086294
 20
-3.56887586880174
 30
0.0
 10
8.30150265142728
 20
-3.495283856552463
 30
0.0
 10
8.228580541900042
 20
-3.41166480016558
 30
0.0
 10
8.110315485923413
 20
-3.225089480158445
 30
0.0
 10
8.066195901752385
 20
-3.122997569686931
 30
0.0
 10
8.005212551946315
 20
-2.911156257174387
 30
0.0
 10
7.987867946454951
 20
-2.799796051497634
 30
0.0
 10
7.970467864698372
 20
-2.574966198543415
 30
0.0
 10
7.970376223537981
 20
-2.460613557004752
 30
0.0
 10
7.970376223537983
 20
-2.34474025788115
 30
0.0
  0
SPLINE
  5
A8
330
1F
100
AcDbEntity
  8
0
  6
Continuous
 62
     4
370
    15
100
AcDbSpline
210
0.0
220
0.0
230
1.0
 70
     8
 71
     3
 72
    10
 73
     6
 74
     0
 42
0.000000001
 43
0.00000001
 40
0.0
 40
0.0
 40
0.0
 40
0.0
 40
0.5
 40
0.5
 40
1.0
 40
1.0
 40
1.0
 40
1.0
 10
9.999999999999991
 20
-4.772003652656107
 30
0.0
 10
9.732802537947506
 20
-4.595253522383095
 30
0.0
 10
9.462925626698317
 20
-4.405121413064342
 30
0.0
 10
8.924281858482132
 20
-4.002468838553402
 30
0.0
 10
8.656992520525948
 20
-3.790368655289735
 30
0.0
 10
8.390159250862942
 20
-3.568875868801739
 30
0.0
  0
SPLINE
  5
A9
330
1F
100
AcDbEntity
  8
0
  6
Continuous
 62
     4
370
    15
100
AcDbSpline
210
0.0
220
0.0
230
1.0
 70
     8
 71
     3
 72
    20
 73
    16
 74
     0
 42
0.000000001
 43
0.00000001
 40
0.0
 40
0.0
 40
0.0
 40
0.0
 40
0.125
 40
0.125
 40
0.2500000000000001
 40
0.2500000000000001
 40
0.3750000000000001
 40
0.3750000000000001
 40
0.5
 40
0.5
 40
0.7499999999999999
 40
0.7499999999999999
 40
0.875
 40
0.875
 40
1.0
 40
1.0
 40
1.0
 40
1.0
 10
7.970376223537983
 20
-6.282998254944609
 30
0.0
 10
7.970376223537984
 20
-6.26332489809616
 30
0.0
 10
7.970574704376945
 20
-6.239366737301328
 30
0.0
 10
7.992550938187222
 20
-6.183455723030941
 30
0.0
 10
8.014164132650253
 20
-6.15120241583138
 30
0.0
 10
8.091360364277643
 20
-6.080751525436853
 30
0.0
 10
8.14564263929548
 20
-6.043454496333157
 30
0.0
 10
8.293681585150205
 20
-5.968309363307322
 30
0.0
 10
8.383346825593948
 20
-5.932527227221487
 30
0.0
 10
8.70218753041344
 20
-5.837663782231417
 30
0.0
 10
8.97236872436368
 20
-5.797221408842457
 30
0.0
 10
9.381754190779867
 20
-5.797910114057929
 30
0.0
 10
9.517245167301496
 20
-5.807820045354319
 30
0.0
 10
9.77410057864217
 20
-5.8447342289373
 30
0.0
 10
9.89373859092104
 20
-5.871432475682399
 30
0.0
 10
9.999999999999856
 20
-5.903568173439439
 30
0.0
  0
SPLINE
  5
AA
330
1F
100
AcDbEntity
  8
0
  6
Continuous
 62
     4
370
    15
100
AcDbSpline
210
0.0
220
0.0
230
1.0
 70
     8
 71
     3
 72
    14
 73
    10
 74
     0
 42
0.000000001
 43
0.00000001
 40
0.0
 40
0.0
 40
0.0
 40
0.0
 40
0.2500000000000001
 40
0.2500000000000001
 40
0.5000000000000001
 40
0.5000000000000001
 40
0.7500000000000002
 40
0.7500000000000002
 40
1.0
 40
1.0
 40
1.0
 40
1.0
 10
8.390159250862942
 20
-6.332978224957104
 30
0.0
 10
8.30150265142728
 20
-6.339488544578053
 30
0.0
 10
8.22858054190004
 20
-6.344933765266884
 30
0.0
 10
8.110315485923412
 20
-6.350682812328498
 30
0.0
 10
8.066195901752387
 20
-6.35085233311932
 30
0.0
 10
8.005212551946318
 20
-6.343995020620977
 30
0.0
 10
7.987867946454957
 20
-6.33692924985573
 30
0.0
 10
7.970467864698377
 20
-6.315463067664786
 30
0.0
 10
7.970376223537977
 20
-6.301063173101296
 30
0.0
 10
7.970376223537979
 20
-6.28299825494461
 30
0.0
  0
SPLINE
  5
AB
330
1F
100
AcDbEntity
  8
0
  6
Continuous
 62
     4
370
    15
100
AcDbSpline
210
0.0
220
0.0
230
1.0
 70
     8
 71
     3
 72
    10
 73
     6
 74
     0
 42
0.000000001
 43
0.00000001
 40
0.0
 40
0.0
 40
0.0
 40
0.0
 40
0.5
 40
0.5
 40
1.0
 40
1.0
 40
1.0
 40
1.0
 10
9.999999999999991
 20
-6.01406754434881
 30
0.0
 10
9.732802537947508
 20
-6.100052386010738
 30
0.0
 10
9.462925626698318
 20
-6.17020112879331
 30
0.0
 10
8.924281858482132
 20
-6.276883365991781
 30
0.0
 10
8.656992520525948
 20
-6.31338385880651
 30
0.0
 10
8.390159250862942
 20
-6.332978224957104
 30
0.0
  0
SPLINE
  5
AC
330
1F
100
AcDbEntity
  8
0
  6
Continuous
 62
     4
370
    15
100
AcDbSpline
210
0.0
220
0.0
230
1.0
 70
     8
 71
     3
 72
    10
 73
     6
 74
     0
 42
0.000000001
 43
0.00000001
 40
0.0
 40
0.0
 40
0.0
 40
0.0
 40
0.4036730919152877
 40
0.8203169061205845
 40
1.0
 40
1.0
 40
1.0
 40
1.0
 10
8.39015925086294
 20
6.332978224957113
 30
0.0
 10
8.340610269456915
 20
6.336589016377788
 30
0.0
 10
8.239920211232905
 20
6.343926620261173
 30
0.0
 10
8.145270384547342
 20
6.349938453757359
 30
0.0
 10
8.108384595734933
 20
6.349333215811869
 30
0.0
 10
8.097270301605084
 20
6.349150847676031
 30
0.0
  0
SPLINE
  5
AD
330
1F
100
AcDbEntity
  8
0
  6
Continuous
 62
     4
370
    15
100
AcDbSpline
210
0.0
220
0.0
230
1.0
 70
     8
 71
     3
 72
    10
 73
     6
 74
     0
 42
0.000000001
 43
0.00000001
 40
0.0
 40
0.0
 40
0.0
 40
0.0
 40
0.5
 40
0.5
 40
1.0
 40
1.0
 40
1.0
 40
1.0
 10
9.999999999999991
 20
6.014067544348808
 30
0.0
 10
9.732802537947506
 20
6.100052386010737
 30
0.0
 10
9.462925626698317
 20
6.170201128793311
 30
0.0
 10
8.924281858482132
 20
6.276883365991784
 30
0.0
 10
8.656992520525948
 20
6.313383858806517
 30
0.0
 10
8.39015925086294
 20
6.332978224957113
 30
0.0
  0
SPLINE
  5
AE
330
1F
100
AcDbEntity
  8
0
  6
Continuous
 62
     4
370
    15
100
AcDbSpline
210
0.0
220
0.0
230
1.0
 70
     8
 71
     3
 72
    20
 73
    16
 74
     0
 42
0.000000001
 43
0.00000001
 40
0.0
 40
0.0
 40
0.0
 40
0.0
 40
0.1249999999999998
 40
0.1249999999999998
 40
0.2499999999999996
 40
0.2499999999999996
 40
0.3749999999999994
 40
0.3749999999999994
 40
0.4999999999999992
 40
0.4999999999999992
 40
0.7499999999999996
 40
0.7499999999999996
 40
0.8749999999999998
 40
0.8749999999999998
 40
1.0
 40
1.0
 40
1.0
 40
1.0
 10
7.970376223537983
 20
3.938257997063418
 30
0.0
 10
7.970376223537983
 20
4.044774902639284
 30
0.0
 10
7.970574704376943
 20
4.148361257710919
 30
0.0
 10
7.992550938187218
 20
4.348353363538664
 30
0.0
 10
8.01416413265025
 20
4.445553567290284
 30
0.0
 10
8.09136036427764
 20
4.628797464212212
 30
0.0
 10
8.14564263929547
 20
4.712705998390109
 30
0.0
 10
8.293681585150196
 20
4.864680759254881
 30
0.0
 10
8.383346825593945
 20
4.928714039487271
 30
0.0
 10
8.702187530413436
 20
5.087960927268528
 30
0.0
 10
8.972368724363676
 20
5.14272387064798
 30
0.0
 10
9.381754190779864
 20
5.141733238108475
 30
0.0
 10
9.517245167301496
 20
5.127737868107389
 30
0.0
 10
9.774100578642166
 20
5.07243732037867
 30
0.0
 10
9.893738590921037
 20
5.031496425984693
 30
0.0
 10
9.999999999999854
 20
4.977317872210479
 30
0.0
  0
SPLINE
  5
AF
330
1F
100
AcDbEntity
  8
0
  6
Continuous
 62
     4
370
    15
100
AcDbSpline
210
0.0
220
0.0
230
1.0
 70
     8
 71
     3
 72
    14
 73
    10
 74
     0
 42
0.000000001
 43
0.00000001
 40
0.0
 40
0.0
 40
0.0
 40
0.0
 40
0.25
 40
0.25
 40
0.5
 40
0.5
 40
0.75
 40
0.75
 40
1.0
 40
1.0
 40
1.0
 40
1.0
 10
8.390159250862942
 20
2.764102356155306
 30
0.0
 10
8.301502651427278
 20
2.844204688025533
 30
0.0
 10
8.22858054190004
 20
2.933268965101248
 30
0.0
 10
8.110315485923412
 20
3.125593332169995
 30
0.0
 10
8.066195901752382
 20
3.227854763432334
 30
0.0
 10
8.005212551946313
 20
3.432838763446536
 30
0.0
 10
7.987867946454957
 20
3.537133198358045
 30
0.0
 10
7.970467864698379
 20
3.740496869121324
 30
0.0
 10
7.970376223537977
 20
3.8404496160965
 30
0.0
 10
7.970376223537979
 20
3.938257997063418
 30
0.0
  0
SPLINE
  5
B0
330
1F
100
AcDbEntity
  8
0
  6
Continuous
 62
     4
370
    15
100
AcDbSpline
210
0.0
220
0.0
230
1.0
 70
     8
 71
     3
 72
    10
 73
     6
 74
     0
 42
0.000000001
 43
0.00000001
 40
0.0
 40
0.0
 40
0.0
 40
0.0
 40
0.5
 40
0.5
 40
1.0
 40
1.0
 40
1.0
 40
1.0
 10
9.999999999999991
 20
1.242063891692641
 30
0.0
 10
9.732802537947506
 20
1.504798863627581
 30
0.0
 10
9.462925626698317
 20
1.765079715728906
 30
0.0
 10
8.924281858482132
 20
2.274414527438317
 30
0.0
 10
8.656992520525948
 20
2.523015203516714
 30
0.0
 10
8.39015925086294
 20
2.764102356155305
 30
0.0
  0
LINE
  5
B1
330
1F
100
AcDbEntity
  8
0
  6
Continuous
 62
     4
370
    15
100
AcDbLine
 10
-46.65000000000001
 20
6.349999999999997
 30
0.0
 11
-46.65000000000001
 21
-6.349999999999997
 31
0.0
  0
LINE
  5
B2
330
1F
100
AcDbEntity
  8
0
  6
Continuous
 62
     4
370
    15
100
AcDbLine
 10
9.999999999999996
 20
-4.772003652656114
 30
0.0
 11
9.999999999999993
 21
-5.903568173439315
 31
0.0
  0
LINE
  5
B3
330
1F
100
AcDbEntity
  8
0
  6
Continuous
 62
     4
370
    15
100
AcDbLine
 10
9.999999999999996
 20
1.242063891692637
 30
0.0
 11
9.999999999999993
 21
-0.9262503012285817
 31
0.0
  0
LINE
  5
B4
330
1F
100
AcDbEntity
  8
0
  6
Continuous
 62
     1
370
    15
100
AcDbLine
 10
9.999999999999996
 20
6.014067544348809
 30
0.0
 11
9.999999999999991
 21
4.977317872210687
 31
0.0
  0
SPLINE
  5
B5
330
1F
100
AcDbEntity
  8
0
  6
Continuous
 62
     1
370
    15
100
AcDbSpline
210
0.0
220
0.0
230
1.0
 70
    24
 71
     3
 72
     8
 73
     4
 74
     0
 42
0.000000001
 43
0.00000001
 40
0.0
 40
0.0
 40
0.0
 40
0.0
 40
1.0
 40
1.0
 40
1.0
 40
1.0
 10
9.999999999999993
 20
-0.9262503012285994
 30
0.0
 10
9.999999999999993
 20
-0.9712384494344759
 30
0.0
 10
9.999999999999993
 20
-1.028833675969258
 30
0.0
 10
9.999999999999993
 20
-1.100755961752421
 30
0.0
  0
LINE
  5
B6
330
1F
100
AcDbEntity
  8
0
  6
Continuous
 62
     4
370
    15
100
AcDbLine
 10
-47.15000000000001
 20
5.849999999999998
 30
0.0
 11
-47.15000000000001
 21
-5.849999999999994
 31
0.0
  0
SPLINE
  5
B8
330
1F
100
AcDbEntity
  8
0
  6
Continuous
 62
     1
370
    15
100
AcDbSpline
210
0.0
220
0.0
230
1.0
 70
    24
 71
     3
 72
    14
 73
    10
 74
     0
 42
0.000000001
 43
0.00000001
 40
0.0
 40
0.0
 40
0.0
 40
0.0
 40
0.25
 40
0.25
 40
0.5
 40
0.5
 40
0.75
 40
0.75
 40
1.0
 40
1.0
 40
1.0
 40
1.0
 10
9.999999999999995
 20
4.50223855293474
 30
0.0
 10
9.999999999999995
 20
4.245746069048691
 30
0.0
 10
9.999999999999995
 20
3.960100617078344
 30
0.0
 10
9.999999999999995
 20
3.348151760276229
 30
0.0
 10
9.999999999999995
 20
3.021386277847578
 30
0.0
 10
9.999999999999995
 20
2.382508122089289
 30
0.0
 10
9.999999999999995
 20
2.071354582237289
 30
0.0
 10
9.999999999999995
 20
1.555798342405143
 30
0.0
 10
9.999999999999995
 20
1.353968346346127
 30
0.0
 10
9.999999999999995
 20
1.242063891692637
 30
0.0
  0
SPLINE
  5
B9
330
1F
100
AcDbEntity
  8
0
  6
Continuous
 62
     4
370
    15
100
AcDbSpline
210
0.0
220
0.0
230
1.0
 70
    24
 71
     3
 72
    14
 73
    10
 74
     0
 42
0.000000001
 43
0.00000001
 40
0.0
 40
0.0
 40
0.0
 40
0.0
 40
0.25
 40
0.25
 40
0.5
 40
0.5
 40
0.75
 40
0.75
 40
1.0
 40
1.0
 40
1.0
 40
1.0
 10
9.999999999999995
 20
-1.100755961752433
 30
0.0
 10
9.999999999999995
 20
-1.215625691448515
 30
0.0
 10
9.999999999999995
 20
-1.37034509517278
 30
0.0
 10
9.999999999999995
 20
-1.788456984229166
 30
0.0
 10
9.999999999999996
 20
-2.052978854179301
 30
0.0
 10
9.999999999999995
 20
-2.697784582666003
 30
0.0
 10
9.999999999999995
 20
-3.078954236250396
 30
0.0
 10
9.999999999999995
 20
-3.905732027446842
 30
0.0
 10
9.999999999999995
 20
-4.349876765405904
 30
0.0
 10
9.999999999999995
 20
-4.772003652656114
 30
0.0
  0
SPLINE
  5
BA
330
1F
100
AcDbEntity
  8
0
  6
Continuous
 62
     1
370
    15
100
AcDbSpline
210
0.0
220
0.0
230
1.0
 70
    24
 71
     3
 72
     8
 73
     4
 74
     0
 42
0.000000001
 43
0.00000001
 40
0.0
 40
0.0
 40
0.0
 40
0.0
 40
1.0
 40
1.0
 40
1.0
 40
1.0
 10
9.999999999999993
 20
4.977317872210782
 30
0.0
 10
9.999999999999993
 20
4.821100329419387
 30
0.0
 10
9.999999999999993
 20
4.662833739987909
 30
0.0
 10
9.999999999999993
 20
4.502238552934762
 30
0.0
  0
LINE
  5
BB
330
1F
100
AcDbEntity
  8
0
  6
Continuous
 62
     4
370
    15
100
AcDbLine
 10
9.999999999999993
 20
-5.962328037884665
 30
0.0
 11
9.999999999999996
 21
-6.014067544348811
 31
0.0
  0
SPLINE
  5
BC
330
1F
100
AcDbEntity
  8
0
  6
Continuous
 62
     1
370
    15
100
AcDbSpline
210
0.0
220
0.0
230
1.0
 70
     8
 71
     3
 72
    26
 73
    22
 74
     0
 42
0.000000001
 43
0.00000001
 40
0.0
 40
0.0
 40
0.0
 40
0.0
 40
0.04479322326222
 40
0.1002512605879217
 40
0.1557649357464544
 40
0.2102069395510222
 40
0.2645471906143314
 40
0.3188752299599486
 40
0.3732964639144661
 40
0.4277009983469278
 40
0.4820247537630094
 40
0.5363739743010997
 40
0.590821073686089
 40
0.645184916034354
 40
0.6995055183513891
 40
0.7538891931952505
 40
0.8083270181922707
 40
0.8626634017531466
 40
0.9169942021248058
 40
0.9652669457045165
 40
1.0
 40
1.0
 40
1.0
 40
1.0
 10
36.76122517586069
 20
-5.941819607890277
 30
0.0
 10
36.4299462572073
 20
-6.049239727150834
 30
0.0
 10
35.68851425516566
 20
-6.289655611163773
 30
0.0
 10
34.53723791820968
 20
-6.385778691364799
 30
0.0
 10
33.31384260875264
 20
-6.274436349399581
 30
0.0
 10
32.09741754675589
 20
-5.928033332906613
 30
0.0
 10
30.89174957116441
 20
-5.371922752414919
 30
0.0
 10
29.68636322540332
 20
-4.621796374633514
 30
0.0
 10
28.47882610049217
 20
-3.706305834764569
 30
0.0
 10
27.27168751249175
 20
-2.657242755125035
 30
0.0
 10
26.06639911826369
 20
-1.511833383776779
 30
0.0
 10
24.86054218052515
 20
-0.3119051339328679
 30
0.0
 10
23.65238499710247
 20
0.8975635302994631
 30
0.0
 10
22.44619812326635
 20
2.076266017954788
 30
0.0
 10
21.24098494683376
 20
3.180192816631934
 30
0.0
 10
20.03433434079341
 20
4.16945799011148
 30
0.0
 10
18.8264161737646
 20
5.007472729522356
 30
0.0
 10
17.62078376679195
 20
5.668323335627994
 30
0.0
 10
16.46103292719973
 20
6.10047815454017
 30
0.0
 10
15.44391085328305
 20
6.325637663985455
 30
0.0
 10
14.83046291661183
 20
6.33006721259696
 30
0.0
 10
14.57377096210656
 20
6.331920718693717
 30
0.0
  0
SPLINE
  5
BD
330
1F
100
AcDbEntity
  8
0
  6
Continuous
 62
     1
370
    15
100
AcDbSpline
210
0.0
220
0.0
230
1.0
 70
     8
 71
     3
 72
    26
 73
    22
 74
     0
 42
0.000000001
 43
0.00000001
 40
0.0
 40
0.0
 40
0.0
 40
0.0
 40
0.0363434942186831
 40
0.0906796771354124
 40
0.1451173011137005
 40
0.1995007751387862
 40
0.2538211768699491
 40
0.3081848184726724
 40
0.3626317168046829
 40
0.4169807366512245
 40
0.4713042914697905
 40
0.5257086250064498
 40
0.5801296580034995
 40
0.6344574967357826
 40
0.688797547140664
 40
0.7432393499110689
 40
0.7987528200781531
 40
0.8542106526178562
 40
0.9097025002523265
 40
0.9652827359592046
 40
1.0
 40
1.0
 40
1.0
 40
1.0
 10
16.81473329905603
 20
5.935454355722554
 30
0.0
 10
17.08343396177544
 20
6.028507640372894
 30
0.0
 10
17.75386177465595
 20
6.260682393788451
 30
0.0
 10
18.82637832734607
 20
6.37908568933184
 30
0.0
 10
20.0343444788338
 20
6.313691576365885
 30
0.0
 10
21.24098223509613
 20
6.012771526427014
 30
0.0
 10
22.44619885008047
 20
5.497472304891683
 30
0.0
 10
23.65238480211994
 20
4.783593074948511
 30
0.0
 10
24.8605422320419
 20
3.898852337525438
 30
0.0
 10
26.0663991069295
 20
2.872515450625777
 30
0.0
 10
27.2716875063836
 20
1.742745058742168
 30
0.0
 10
28.47882613634419
 20
0.5509987704369079
 30
0.0
 10
29.68636308817607
 20
-0.660229959499906
 30
0.0
 10
30.89175008329894
 20
-1.848894396523503
 30
0.0
 10
32.09741563309515
 20
-2.970915840935604
 30
0.0
 10
33.31384982511693
 20
-3.99188190646153
 30
0.0
 10
34.53721040892075
 20
-4.873393421732965
 30
0.0
 10
35.76769302904447
 20
-5.580770290935626
 30
0.0
 10
36.99890568579546
 20
-6.068838231684133
 30
0.0
 10
38.07850140359221
 20
-6.329116112700411
 30
0.0
 10
38.74618226850066
 20
-6.324012578521113
 30
0.0
 10
39.00288985117777
 20
-6.322050389710358
 30
0.0
  0
SPLINE
  5
BE
330
1F
100
AcDbEntity
  8
0
  6
Continuous
 62
     1
370
    15
100
AcDbSpline
210
0.0
220
0.0
230
1.0
 70
     8
 71
     3
 72
    25
 73
    21
 74
     0
 42
0.000000001
 43
0.00000001
 40
0.0
 40
0.0
 40
0.0
 40
0.0
 40
0.0212490639717788
 40
0.0812780569019194
 40
0.1412886295314057
 40
0.2012100993851767
 40
0.2611596583783876
 40
0.3212171820056497
 40
0.3811828694927556
 40
0.4411008613408548
 40
0.501088424934977
 40
0.5611357185080972
 40
0.6210711177559575
 40
0.681000358502776
 40
0.734247298575593
 40
0.7873809906989246
 40
0.8404955300722647
 40
0.8937492763110199
 40
0.9468587325639739
 40
1.0
 40
1.0
 40
1.0
 40
1.0
 10
30.11401805100239
 20
-5.934660208852072
 30
0.0
 10
29.97162061197037
 20
-5.990435357208118
 30
0.0
 10
29.42694781284367
 20
-6.20377631602948
 30
0.0
 10
28.47878887670413
 20
-6.350326711959419
 30
0.0
 10
27.27169746879134
 20
-6.362147978547226
 30
0.0
 10
26.06639645021281
 20
-6.130580352614248
 30
0.0
 10
24.86054289966507
 20
-5.681962826672402
 30
0.0
 10
23.652384794775
 20
-5.028727131269932
 30
0.0
 10
22.44619821392753
 20
-4.193990274595767
 30
0.0
 10
21.24098478623126
 20
-3.208082612733028
 30
0.0
 10
20.03433489347031
 20
-2.106993778374842
 30
0.0
 10
18.82641412335939
 20
-0.9310814677002475
 30
0.0
 10
17.62079139911712
 20
0.2797621108745151
 30
0.0
 10
16.46100578768378
 20
1.435540169613893
 30
0.0
 10
15.34448429232854
 20
2.496749452463057
 30
0.0
 10
14.27580774752771
 20
3.445777267088438
 30
0.0
 10
13.20761308588508
 20
4.298398656708126
 30
0.0
 10
12.13653423365294
 20
5.024001649288789
 30
0.0
 10
11.06853797348914
 20
5.621875712852565
 30
0.0
 10
10.35625041016146
 20
5.883310842856693
 30
0.0
 10
9.999999999999995
 20
6.01406754434881
 30
0.0
  0
SPLINE
  5
BF
330
1F
100
AcDbEntity
  8
0
  6
Continuous
 62
     1
370
    15
100
AcDbSpline
210
0.0
220
0.0
230
1.0
 70
     8
 71
     3
 72
    27
 73
    23
 74
     0
 42
0.000000001
 43
0.00000001
 40
0.0
 40
0.0
 40
0.0
 40
0.0
 40
0.0407387948051425
 40
0.0888865576672019
 40
0.1371651303795193
 40
0.185317501476952
 40
0.2334872359994657
 40
0.2817596384045211
 40
0.336090054785339
 40
0.3904260543159135
 40
0.4448634945656803
 40
0.4992467850450023
 40
0.5535670034432723
 40
0.6079304615671668
 40
0.6623771761393548
 40
0.7167260125564165
 40
0.7710493840314477
 40
0.8254535339519419
 40
0.8798743832764653
 40
0.9342020386507552
 40
0.988541905656429
 40
1.0
 40
1.0
 40
1.0
 40
1.0
 10
10.16496721316252
 20
5.94822220750658
 30
0.0
 10
10.46621268785013
 20
6.045136836474625
 30
0.0
 10
11.12348969827419
 20
6.256591490392767
 30
0.0
 10
12.13652900427461
 20
6.37162382943903
 30
0.0
 10
13.20761448456551
 20
6.329941617666601
 30
0.0
 10
14.27580737315412
 20
6.104423327248095
 30
0.0
 10
15.34448439248433
 20
5.707180109662798
 30
0.0
 10
16.46100575710855
 20
5.125594519864999
 30
0.0
 10
17.62079140744897
 20
4.350361412999382
 30
0.0
 10
18.82641412210691
 20
3.388103918794367
 30
0.0
 10
20.0343348901233
 20
2.305240408879904
 30
0.0
 10
21.24098480084509
 20
1.138531727257978
 30
0.0
 10
22.44619815886482
 20
-0.0695172383941096
 30
0.0
 10
23.65238500074962
 20
-1.275006006622842
 30
0.0
 10
24.86054213020851
 20
-2.433184653228247
 30
0.0
 10
26.06639931541025
 20
-3.505300663461674
 30
0.0
 10
27.27168677398641
 20
-4.451464253412077
 30
0.0
 10
28.47882886231256
 20
-5.235438143357917
 30
0.0
 10
29.68635292239696
 20
-5.836214574711609
 30
0.0
 10
30.89178795238257
 20
-6.20790826657716
 30
0.0
 10
31.77959700800319
 20
-6.370679730863881
 30
0.0
 10
32.26658108128839
 20
-6.336851421035782
 30
0.0
 10
32.3513847642764
 20
-6.330960539957617
 30
0.0
  0
SPLINE
  5
C0
330
1F
100
AcDbEntity
  8
0
  6
Continuous
 62
     1
370
    15
100
AcDbSpline
210
0.0
220
0.0
230
1.0
 70
     8
 71
     3
 72
    18
 73
    14
 74
     0
 42
0.000000001
 43
0.00000001
 40
0.0
 40
0.0
 40
0.0
 40
0.0
 40
0.1250000000000001
 40
0.1250000000000001
 40
0.1875000000000001
 40
0.1875000000000001
 40
0.2500000000000002
 40
0.2500000000000002
 40
0.3125000000000001
 40
0.3125000000000001
 40
0.375
 40
0.375
 40
0.4606547121651064
 40
0.4606547121651064
 40
0.4606547121651064
 40
0.4606547121651064
 10
39.46399999999999
 20
-3.565862921727996
 30
0.0
 10
39.7100730522485
 20
-3.769000800438895
 30
0.0
 10
39.94039201725501
 20
-3.945114967426578
 30
0.0
 10
40.27133798775798
 20
-4.166301540906614
 30
0.0
 10
40.37839620092794
 20
-4.231962167337833
 30
0.0
 10
40.58098571340835
 20
-4.345485970708275
 30
0.0
 10
40.67726392616929
 20
-4.393832152796821
 30
0.0
 10
40.85855814168463
 20
-4.475841411328354
 30
0.0
 10
40.94376646048374
 20
-4.509493034571176
 30
0.0
 10
41.09690218989651
 20
-4.564488828985644
 30
0.0
 10
41.16539481671384
 20
-4.586102198242323
 30
0.0
 10
41.30714381146612
 20
-4.631483639514986
 30
0.0
 10
41.37249050736236
 20
-4.652786994528288
 30
0.0
 10
41.41990703397955
 20
-4.68159608387548
 30
0.0
  0
SPLINE
  5
C1
330
1F
100
AcDbEntity
  8
0
  6
Continuous
 62
     1
370
    15
100
AcDbSpline
210
0.0
220
0.0
230
1.0
 70
     8
 71
     3
 72
    23
 73
    19
 74
     0
 42
0.000000001
 43
0.00000001
 40
0.0
 40
0.0
 40
0.0
 40
0.0
 40
0.0675161894102864
 40
0.1351296859285472
 40
0.2026356581344333
 40
0.2701002508919894
 40
0.3376325269631796
 40
0.4038611169511326
 40
0.4699659249305253
 40
0.5360558773794902
 40
0.6022592008859222
 40
0.6684422094567909
 40
0.7345269505139456
 40
0.8006426698416755
 40
0.8668774585931367
 40
0.9330109653240344
 40
0.9990918706424334
 40
1.0
 40
1.0
 40
1.0
 40
1.0
 10
39.46399999999936
 20
-6.12123196802619
 30
0.0
 10
39.05363981395487
 20
-5.989748849217782
 30
0.0
 10
38.23232801389459
 20
-5.726593112724466
 30
0.0
 10
36.99892576547921
 20
-5.05646977595598
 30
0.0
 10
35.76768765596184
 20
-4.212415495903588
 30
0.0
 10
34.53721185067404
 20
-3.206012428132436
 30
0.0
 10
33.31384944741397
 20
-2.08817378238991
 30
0.0
 10
32.0974157314188
 20
-0.9028188176549048
 30
0.0
 10
30.89175006383697
 20
0.3083454272781372
 30
0.0
 10
29.68636306780443
 20
1.508379972237559
 30
0.0
 10
28.47882623752144
 20
2.65301849089263
 30
0.0
 10
27.2716871224861
 20
3.702416072087689
 30
0.0
 10
26.0664005393659
 20
4.619721569519151
 30
0.0
 10
24.8605368785075
 20
5.368645883130964
 30
0.0
 10
23.65240480879049
 20
5.930967585241683
 30
0.0
 10
22.44612434080885
 20
6.252998198535164
 30
0.0
 10
21.63757001506882
 20
6.386958239211039
 30
0.0
 10
21.23025968391243
 20
6.34896761493682
 30
0.0
 10
21.2247380269554
 20
6.348452599287128
 30
0.0
  0
SPLINE
  5
C2
330
1F
100
AcDbEntity
  8
0
  6
Continuous
 62
     1
370
    15
100
AcDbSpline
210
0.0
220
0.0
230
1.0
 70
     8
 71
     3
 72
    21
 73
    17
 74
     0
 42
0.000000001
 43
0.00000001
 40
0.0
 40
0.0
 40
0.0
 40
0.0
 40
0.0118823767142208
 40
0.0873806624190368
 40
0.1627432258313685
 40
0.2380704783992538
 40
0.3135097420260666
 40
0.3889721618044747
 40
0.4643053546215139
 40
0.5396554806409029
 40
0.6151467006325614
 40
0.6921239382629412
 40
0.7690240264942435
 40
0.8459712814406696
 40
0.9230410988864848
 40
1.0
 40
1.0
 40
1.0
 40
1.0
 10
23.46194821228376
 20
5.944978043431083
 30
0.0
 10
23.52531477336111
 20
5.971340993496979
 30
0.0
 10
23.99130000639357
 20
6.165208945631585
 30
0.0
 10
24.86061774235625
 20
6.319615181534503
 30
0.0
 10
26.06637890081776
 20
6.381198664570684
 30
0.0
 10
27.27169292893017
 20
6.193083032697325
 30
0.0
 10
28.47882468009329
 20
5.787556486328741
 30
0.0
 10
29.6863634843682
 20
5.1726354729258
 30
0.0
 10
30.89174995228413
 20
4.371269287601777
 30
0.0
 10
32.09741576135509
 20
3.412278293886799
 30
0.0
 10
33.31384943920989
 20
2.324386605095351
 30
0.0
 10
34.53721185288782
 20
1.141998352676037
 30
0.0
 10
35.76768765536873
 20
-0.0920484735334602
 30
0.0
 10
36.99892576563772
 20
-1.320278253408089
 30
0.0
 10
38.23232801385502
 20
-2.507172635119146
 30
0.0
 10
39.05363981394168
 20
-3.213135614557671
 30
0.0
 10
39.46399999999935
 20
-3.565862921728537
 30
0.0
  0
SPLINE
  5
C3
330
1F
100
AcDbEntity
  8
0
  6
Continuous
 62
     1
370
    15
100
AcDbSpline
210
0.0
220
0.0
230
1.0
 70
     8
 71
     3
 72
    19
 73
    15
 74
     0
 42
0.000000001
 43
0.00000001
 40
0.0
 40
0.0
 40
0.0
 40
0.0
 40
0.0754686415634001
 40
0.1649879190157034
 40
0.2546111387438237
 40
0.3443235968525576
 40
0.4338688814823529
 40
0.5234049651268271
 40
0.6029574910851198
 40
0.6823408212092699
 40
0.761695536550321
 40
0.8412582311247206
 40
0.9206053521314135
 40
1.0
 40
1.0
 40
1.0
 40
1.0
 10
23.46194821228371
 20
-5.944978043431066
 30
0.0
 10
23.12324432279742
 20
-6.053056205599649
 30
0.0
 10
22.38277717337983
 20
-6.289334356336681
 30
0.0
 10
21.24100984092415
 20
-6.384598320975141
 30
0.0
 10
20.03432816879215
 20
-6.277354602990211
 30
0.0
 10
18.82641592276607
 20
-5.938626611887988
 30
0.0
 10
17.62079091550567
 20
-5.387373050603376
 30
0.0
 10
16.46100590128871
 20
-4.669400380012365
 30
0.0
 10
15.34448426349006
 20
-3.83627926181497
 30
0.0
 10
14.2758077552441
 20
-2.92720399661187
 30
0.0
 10
13.20761308381229
 20
-1.934478710895567
 30
0.0
 10
12.13653423420462
 20
-0.8907902884278742
 30
0.0
 10
11.06853797335128
 20
0.1839478659817238
 30
0.0
 10
10.3562504101155
 20
0.8892881574554657
 30
0.0
 10
9.999999999999995
 20
1.242063891692637
 30
0.0
  0
SPLINE
  5
C4
330
1F
100
AcDbEntity
  8
0
  6
Continuous
 62
     1
370
    15
100
AcDbSpline
210
0.0
220
0.0
230
1.0
 70
     8
 71
     3
 72
    21
 73
    17
 74
     0
 42
0.000000001
 43
0.00000001
 40
0.0
 40
0.0
 40
0.0
 40
0.0
 40
0.0680658963790256
 40
0.136091047461689
 40
0.2043010121119607
 40
0.2723326739001867
 40
0.3403888674536337
 40
0.4085901144385609
 40
0.485350374168125
 40
0.5621185220026215
 40
0.6390299894814545
 40
0.7158649519246091
 40
0.7926108035225733
 40
0.8694177459935821
 40
0.9463423166187793
 40
1.0
 40
1.0
 40
1.0
 40
1.0
 10
10.00000000000161
 20
4.982660781466778
 30
0.0
 10
10.35625041016571
 20
4.748207210401997
 30
0.0
 10
11.06853797349864
 20
4.279440415799528
 30
0.0
 10
12.13653423362141
 20
3.415822445538266
 30
0.0
 10
13.20761308600848
 20
2.468614633690557
 30
0.0
 10
14.27580774707193
 20
1.446057609177595
 30
0.0
 10
15.34448429403425
 20
0.3837229441348476
 30
0.0
 10
16.46100578096558
 20
-0.7331866697449866
 30
0.0
 10
17.62079142771661
 20
-1.876274455779733
 30
0.0
 10
18.82641401694725
 20
-2.996158288947766
 30
0.0
 10
20.03433529114989
 20
-4.007158050277514
 30
0.0
 10
21.24098330456335
 20
-4.874237242219292
 30
0.0
 10
22.44620373845654
 20
-5.568289295942229
 30
0.0
 10
23.65236414448288
 20
-6.053393979522154
 30
0.0
 10
24.73939179186756
 20
-6.321656295036441
 30
0.0
 10
25.42264801438291
 20
-6.324674580511007
 30
0.0
 10
25.70340550578122
 20
-6.325914827186033
 30
0.0
  0
SPLINE
  5
C5
330
1F
100
AcDbEntity
  8
0
  6
Continuous
 62
     1
370
    15
100
AcDbSpline
210
0.0
220
0.0
230
1.0
 70
    24
 71
     3
 72
    16
 73
    12
 74
     0
 42
0.000000001
 43
0.00000001
 40
0.0
 40
0.0
 40
0.0
 40
0.0
 40
0.2499999999999998
 40
0.2499999999999998
 40
0.5
 40
0.5
 40
0.7500000000000002
 40
0.7500000000000002
 40
0.8750000000000001
 40
0.8750000000000001
 40
1.0
 40
1.0
 40
1.0
 40
1.0
 10
9.999999999999995
 20
4.982660781460119
 30
0.0
 10
9.999999999999995
 20
4.727147965356126
 30
0.0
 10
9.999999999999996
 20
4.432641486982881
 30
0.0
 10
9.999999999999995
 20
3.770910552602301
 30
0.0
 10
9.999999999999995
 20
3.402318707866151
 30
0.0
 10
9.999999999999995
 20
2.651058510312527
 30
0.0
 10
9.999999999999995
 20
2.269143909701113
 30
0.0
 10
9.999999999999995
 20
1.787848929863893
 30
0.0
 10
9.999999999999995
 20
1.643233051994417
 30
0.0
 10
9.999999999999995
 20
1.402946644632605
 30
0.0
 10
9.999999999999995
 20
1.307446840532906
 30
0.0
 10
9.999999999999995
 20
1.242063891692636
 30
0.0
  0
SPLINE
  5
C6
330
1F
100
AcDbEntity
  8
0
  6
Continuous
 62
     1
370
    15
100
AcDbSpline
210
0.0
220
0.0
230
1.0
 70
     8
 71
     3
 72
    38
 73
    34
 74
     0
 42
0.000000001
 43
0.00000001
 40
0.0
 40
0.0
 40
0.0
 40
0.0
 40
0.1249999999999985
 40
0.1249999999999985
 40
0.1874999999999986
 40
0.1874999999999986
 40
0.2499999999999986
 40
0.2499999999999986
 40
0.3124999999999987
 40
0.3124999999999987
 40
0.3749999999999987
 40
0.3749999999999987
 40
0.4999999999999987
 40
0.4999999999999987
 40
0.5624999999999984
 40
0.5624999999999984
 40
0.6249999999999983
 40
0.6249999999999983
 40
0.6562499999999981
 40
0.6562499999999981
 40
0.687499999999998
 40
0.687499999999998
 40
0.7187499999999979
 40
0.7187499999999979
 40
0.7499999999999977
 40
0.7499999999999977
 40
0.8124999999999973
 40
0.8124999999999973
 40
0.8749999999999969
 40
0.8749999999999969
 40
0.9374999999999984
 40
0.9374999999999984
 40
1.0
 40
1.0
 40
1.0
 40
1.0
 10
39.46399999999999
 20
2.767380750136938
 30
0.0
 10
39.7100730522485
 20
2.546419701607786
 30
0.0
 10
39.94039201725501
 20
2.3000741018179
 30
0.0
 10
40.27133798775798
 20
1.901570881146963
 30
0.0
 10
40.37839620092793
 20
1.764733989200622
 30
0.0
 10
40.58098571340835
 20
1.489018383182129
 30
0.0
 10
40.6772639261693
 20
1.349249901758871
 30
0.0
 10
40.85855814168462
 20
1.064758891351528
 30
0.0
 10
40.94376646048373
 20
0.9194810087650931
 30
0.0
 10
41.09690218989651
 20
0.6291575070433185
 30
0.0
 10
41.16539481671385
 20
0.4832844981917707
 30
0.0
 10
41.34478793980556
 20
0.0390357335748556
 30
0.0
 10
41.42902063272063
 20
-0.2675735697258693
 30
0.0
 10
41.49614581078432
 20
-0.7463182579252954
 30
0.0
 10
41.50923818289385
 20
-0.9104015680175983
 30
0.0
 10
41.51371936027645
 20
-1.247585991606044
 30
0.0
 10
41.50546178492555
 20
-1.419922843345179
 30
0.0
 10
41.46749245555574
 20
-1.676731252002775
 30
0.0
 10
41.45061137130671
 20
-1.761251104834426
 30
0.0
 10
41.4040917097118
 20
-1.927086613556493
 30
0.0
 10
41.37437439482098
 20
-2.007880503047121
 30
0.0
 10
41.29905510211642
 20
-2.154155139420098
 30
0.0
 10
41.25297146435842
 20
-2.219777817953534
 30
0.0
 10
41.14708100500446
 20
-2.323450932974071
 30
0.0
 10
41.08643359193242
 20
-2.362161705963253
 30
0.0
 10
40.89555877514498
 20
-2.434414126574644
 30
0.0
 10
40.75703220156608
 20
-2.426772981512825
 30
0.0
 10
40.48773387668776
 20
-2.354388356569037
 30
0.0
 10
40.35345633919119
 20
-2.28936952178873
 30
0.0
 10
40.0921016747967
 20
-2.13034031035979
 30
0.0
 10
39.9650208273196
 20
-2.036349099829213
 30
0.0
 10
39.71197694661044
 20
-1.829404844474653
 30
0.0
 10
39.58679059441763
 20
-1.716386345361653
 30
0.0
 10
39.46400000000002
 20
-1.597822630456694
 30
0.0
  0
SPLINE
  5
C7
330
1F
100
AcDbEntity
  8
0
  6
Continuous
 62
     1
370
    15
100
AcDbSpline
210
0.0
220
0.0
230
1.0
 70
     8
 71
     3
 72
    17
 73
    13
 74
     0
 42
0.000000001
 43
0.00000001
 40
0.0
 40
0.0
 40
0.0
 40
0.0
 40
0.1062493083255408
 40
0.2126517475224733
 40
0.3188849771725136
 40
0.4250530885479246
 40
0.5313277122327774
 40
0.6355507428726519
 40
0.7395789794504273
 40
0.8435838380821643
 40
0.9477671072039661
 40
1.0
 40
1.0
 40
1.0
 40
1.0
 10
39.46399999999936
 20
-1.597822630456052
 30
0.0
 10
39.05363981308418
 20
-1.19460812949085
 30
0.0
 10
38.23232801128129
 20
-0.3875979982442774
 30
0.0
 10
36.99892577594309
 20
0.8514128188694323
 30
0.0
 10
35.76768761680401
 20
2.055704279327965
 30
0.0
 10
34.53721199683267
 20
3.183736997033066
 30
0.0
 10
33.31384890576281
 20
4.185357290988884
 30
0.0
 10
32.09741770787708
 20
5.024958073414552
 30
0.0
 10
30.89174269887727
 20
5.682188666975072
 30
0.0
 10
29.68639057024628
 20
6.122746018478779
 30
0.0
 10
28.67946705719574
 20
6.34321967296922
 30
0.0
 10
28.0750500045364
 20
6.326827660156481
 30
0.0
 10
27.87321375738291
 20
6.321353786884941
 30
0.0
  0
LINE
  5
C8
330
1F
100
AcDbEntity
  8
0
  6
Continuous
 62
     1
370
    15
100
AcDbLine
 10
10.16496721316256
 20
-5.948222207506567
 30
0.0
 11
9.999999999999995
 21
-6.014067544348813
 31
0.0
  0
SPLINE
  5
C9
330
1F
100
AcDbEntity
  8
0
  6
Continuous
 62
     1
370
    15
100
AcDbSpline
210
0.0
220
0.0
230
1.0
 70
     8
 71
     3
 72
    10
 73
     6
 74
     0
 42
0.000000001
 43
0.00000001
 40
0.0
 40
0.0
 40
0.0
 40
0.0
 40
0.4447490665097184
 40
0.8892318993622639
 40
0.9999999999999999
 40
0.9999999999999999
 40
0.9999999999999999
 40
0.9999999999999999
 10
10.00000000000161
 20
-5.900390914204604
 30
0.0
 10
10.35626188703057
 20
-6.013267687423159
 30
0.0
 10
11.068572397223
 20
-6.23895366408125
 30
0.0
 10
11.86848716719566
 20
-6.363214079851862
 30
0.0
 10
12.31370165666652
 20
-6.338172141192143
 30
0.0
 10
12.40251837069722
 20
-6.333176475603274
 30
0.0
  0
SPLINE
  5
CA
330
1F
100
AcDbEntity
  8
0
  6
Continuous
 62
     1
370
    15
100
AcDbSpline
210
0.0
220
0.0
230
1.0
 70
     8
 71
     3
 72
    15
 73
    11
 74
     0
 42
0.000000001
 43
0.00000001
 40
0.0
 40
0.0
 40
0.0
 40
0.0
 40
0.0832101693299287
 40
0.2121646583662651
 40
0.3413606161573513
 40
0.4730997501237628
 40
0.6047068503184599
 40
0.7363946718067983
 40
0.8682922472175079
 40
1.0
 40
1.0
 40
1.0
 40
1.0
 10
30.11401805100244
 20
5.934660208852085
 30
0.0
 10
30.37324813786627
 20
6.025365139474324
 30
0.0
 10
31.03421858487559
 20
6.256639523033126
 30
0.0
 10
32.09739230921114
 20
6.377774635405795
 30
0.0
 10
33.31385586630275
 20
6.317694687995788
 30
0.0
 10
34.53721011860717
 20
6.015232478229694
 30
0.0
 10
35.76768812000543
 20
5.487925035553522
 30
0.0
 10
36.9989256414761
 20
4.751911325736188
 30
0.0
 10
38.23232804486386
 20
3.84642532146409
 30
0.0
 10
39.05363982427301
 20
3.1268895609575
 30
0.0
 10
39.46399999999937
 20
2.767380750143528
 30
0.0
  0
LINE
  5
CB
330
1F
100
AcDbEntity
  8
0
  6
Continuous
 62
     1
370
    15
100
AcDbLine
 10
9.999999999999996
 20
-5.962328037884665
 30
0.0
 11
9.999999999999996
 21
-6.014067544348813
 31
0.0
  0
LINE
  5
CC
330
1F
100
AcDbEntity
  8
0
  6
Continuous
 62
     1
370
    15
100
AcDbLine
 10
9.999999999999938
 20
4.982660781460361
 30
0.0
 11
9.999999999999995
 21
6.014067544348811
 31
0.0
  0
SPLINE
  5
CD
330
1F
100
AcDbEntity
  8
0
  6
Continuous
 62
     1
370
    15
100
AcDbSpline
210
0.0
220
0.0
230
1.0
 70
     8
 71
     3
 72
    16
 73
    12
 74
     0
 42
0.000000001
 43
0.00000001
 40
0.0
 40
0.0
 40
0.0
 40
0.0
 40
0.1180680611233241
 40
0.2360654448825452
 40
0.3543834088553183
 40
0.4723920861759734
 40
0.5904433166415906
 40
0.7087461588294551
 40
0.841895584896298
 40
0.975058693780893
 40
1.0
 40
1.0
 40
1.0
 40
1.0
 10
10.00000000000162
 20
-0.9177301327377974
 30
0.0
 10
10.35625041410404
 20
-1.267751494819149
 30
0.0
 10
11.06853798531125
 20
-1.96758469079094
 30
0.0
 10
12.13653418635056
 20
-2.956709477482154
 30
0.0
 10
13.2076132636193
 20
-3.861033163800625
 30
0.0
 10
14.27580708587927
 20
-4.658633837654388
 30
0.0
 10
15.34448676511396
 20
-5.322677068316949
 30
0.0
 10
16.4609960465107
 20
-5.861792078968699
 30
0.0
 10
17.62083286688436
 20
-6.213839453903129
 30
0.0
 10
18.49915144604638
 20
-6.372704290842998
 30
0.0
 10
18.97660304392451
 20
-6.338053881963975
 30
0.0
 10
19.05192204434376
 20
-6.332587706601939
 30
0.0
  0
SPLINE
  5
CE
330
1F
100
AcDbEntity
  8
0
  6
Continuous
 62
     1
370
    15
100
AcDbSpline
210
0.0
220
0.0
230
1.0
 70
     8
 71
     3
 72
    10
 73
     6
 74
     0
 42
0.000000001
 43
0.00000001
 40
0.0
 40
0.0
 40
0.0
 40
0.0
 40
0.0878539476003599
 40
0.5442553927327024
 40
0.8306068098019913
 40
0.8306068098019913
 40
0.8306068098019913
 40
0.8306068098019913
 10
36.76122517586069
 20
5.941819607890292
 30
0.0
 10
36.8403365831261
 20
5.974457693056388
 30
0.0
 10
37.33043191984029
 20
6.176650700261036
 30
0.0
 10
38.07960567594851
 20
6.314629853076934
 30
0.0
 10
38.74857768269651
 20
6.333331740795806
 30
0.0
 10
39.00643148289103
 20
6.334758723048173
 30
0.0
  0
LINE
  5
CF
330
1F
100
AcDbEntity
  8
0
  6
Continuous
 62
     1
370
    15
100
AcDbLine
 10
9.999999999999993
 20
-0.9177301327384071
 30
0.0
 11
9.999999999999995
 21
1.242063891692635
 31
0.0
  0
SPLINE
  5
D2
330
1F
100
AcDbEntity
  8
0
  6
Continuous
 62
     1
370
    15
100
AcDbSpline
210
0.0
220
0.0
230
1.0
 70
     8
 71
     3
 72
    38
 73
    34
 74
     0
 42
0.000000001
 43
0.00000001
 40
0.0
 40
0.0
 40
0.0
 40
0.0
 40
0.1249999999999998
 40
0.1249999999999998
 40
0.1874999999999997
 40
0.1874999999999997
 40
0.2499999999999996
 40
0.2499999999999996
 40
0.3124999999999994
 40
0.3124999999999994
 40
0.3749999999999993
 40
0.3749999999999993
 40
0.4999999999999991
 40
0.4999999999999991
 40
0.5624999999999991
 40
0.5624999999999991
 40
0.6249999999999991
 40
0.6249999999999991
 40
0.6562499999999991
 40
0.6562499999999991
 40
0.6874999999999992
 40
0.6874999999999992
 40
0.7187499999999992
 40
0.7187499999999992
 40
0.7499999999999993
 40
0.7499999999999993
 40
0.8124999999999996
 40
0.8124999999999996
 40
0.8749999999999998
 40
0.8749999999999998
 40
0.9374999999999999
 40
0.9374999999999999
 40
1.0
 40
1.0
 40
1.0
 40
1.0
 10
39.44509279786137
 20
6.258030631398564
 30
0.0
 10
39.66896917707039
 20
6.192549188406218
 30
0.0
 10
39.8841121732307
 20
6.111433183028174
 30
0.0
 10
40.20616055484287
 20
5.953000759195445
 30
0.0
 10
40.31205392204204
 20
5.890055325551808
 30
0.0
 10
40.52024088352086
 20
5.748283730374164
 30
0.0
 10
40.61929766519577
 20
5.671445855687537
 30
0.0
 10
40.81696411965916
 20
5.496819075129965
 30
0.0
 10
40.91312964599629
 20
5.399906024729509
 30
0.0
 10
41.09690218989653
 20
5.193646336028971
 30
0.0
 10
41.16539481671384
 20
5.069386696434099
 30
0.0
 10
41.34478793980555
 20
4.682571273722244
 30
0.0
 10
41.42902063272063
 20
4.40374371651366
 30
0.0
 10
41.49614581078435
 20
4.008902648541754
 30
0.0
 10
41.50923818289385
 20
3.880153642408662
 30
0.0
 10
41.51371936027647
 20
3.640100917690343
 30
0.0
 10
41.50546178492556
 20
3.529214456619231
 30
0.0
 10
41.46749245555574
 20
3.39313587433648
 30
0.0
 10
41.45061137130676
 20
3.353255578043611
 30
0.0
 10
41.40409170971183
 20
3.288457549254453
 30
0.0
 10
41.37437439482096
 20
3.263984961824048
 30
0.0
 10
41.29905510211643
 20
3.238711300671379
 30
0.0
 10
41.2529714643584
 20
3.238201016719346
 30
0.0
 10
41.14708100500446
 20
3.263411663064438
 30
0.0
 10
41.08643359193242
 20
3.289327405330023
 30
0.0
 10
40.89555877514496
 20
3.394038670241115
 30
0.0
 10
40.75703220156606
 20
3.497162337143091
 30
0.0
 10
40.48773387668776
 20
3.709694884044977
 30
0.0
 10
40.3534563391912
 20
3.822158578992346
 30
0.0
 10
40.09210167479672
 20
4.03921587405113
 30
0.0
 10
39.9650208273196
 20
4.144145307410427
 30
0.0
 10
39.71197694661044
 20
4.343420490856928
 30
0.0
 10
39.58679059441764
 20
4.437431824333119
 30
0.0
 10
39.46400000000002
 20
4.523409337569684
 30
0.0
  0
LINE
  5
D3
330
1F
100
AcDbEntity
  8
0
  6
Continuous
 62
     1
370
    15
100
AcDbLine
 10
41.75
 20
0.0000000000000059
 30
0.0
 11
41.75
 21
3.302000000000007
 31
0.0
  0
LINE
  5
D4
330
1F
100
AcDbEntity
  8
0
  6
Continuous
 62
     1
370
    15
100
AcDbLine
 10
41.75
 20
-3.302000000000004
 30
0.0
 11
41.75
 21
0.0000000000000062
 31
0.0
  0
SPLINE
  5
D5
330
1F
100
AcDbEntity
  8
0
  6
Continuous
 62
     1
370
    15
100
AcDbSpline
210
0.0
220
0.0
230
1.0
 70
     8
 71
     3
 72
    12
 73
     8
 74
     0
 42
0.000000001
 43
0.00000001
 40
0.0
 40
0.0
 40
0.0
 40
0.0
 40
0.249290164079757
 40
0.4989396153930646
 40
0.7481920544681431
 40
0.9972917081216242
 40
1.0
 40
1.0
 40
1.0
 40
1.0
 10
39.46399999999936
 20
4.523409337570153
 30
0.0
 10
39.05363830807727
 20
4.794740075771306
 30
0.0
 10
38.23232349409144
 20
5.337792605188739
 30
0.0
 10
36.99894386309384
 20
5.912697527899956
 30
0.0
 10
35.76761993119115
 20
6.250101365321859
 30
0.0
 10
34.94325090392542
 20
6.388753931880137
 30
0.0
 10
34.52859494926819
 20
6.349146476531806
 30
0.0
 10
34.52413516404599
 20
6.348720483025459
 30
0.0
  0
SPLINE
  5
D6
330
1F
100
AcDbEntity
  8
0
  6
Continuous
 62
     1
370
    15
100
AcDbSpline
210
0.0
220
0.0
230
1.0
 70
     8
 71
     3
 72
    14
 73
    10
 74
     0
 42
0.000000001
 43
0.00000001
 40
0.0
 40
0.0
 40
0.0
 40
0.0
 40
0.0585545344126423
 40
0.2156991946783235
 40
0.3725096327234728
 40
0.5292635463488817
 40
0.6864282932642858
 40
0.8431672053661315
 40
1.0
 40
1.0
 40
1.0
 40
1.0
 10
16.81473329905603
 20
-5.935454355722539
 30
0.0
 10
16.68177959116771
 20
-5.988061862636693
 30
0.0
 10
16.19201380259688
 20
-6.18185380358956
 30
0.0
 10
15.34443230052524
 20
-6.32504935358574
 30
0.0
 10
14.27582165909767
 20
-6.375116320140936
 30
0.0
 10
13.20760934893284
 20
-6.232303844704073
 30
0.0
 10
12.13653522823708
 20
-5.914944579961329
 30
0.0
 10
11.06853772495067
 20
-5.437889702818904
 30
0.0
 10
10.35625032729877
 20
-4.994009968179631
 30
0.0
 10
9.999999999999995
 20
-4.772003652656114
 30
0.0
  0
SPLINE
  5
D7
330
1F
100
AcDbEntity
  8
0
  6
Continuous
 62
     1
370
    15
100
AcDbSpline
210
0.0
220
0.0
230
1.0
 70
    24
 71
     3
 72
    16
 73
    12
 74
     0
 42
0.000000001
 43
0.00000001
 40
0.0
 40
0.0
 40
0.0
 40
0.0
 40
0.2500000000000001
 40
0.2500000000000001
 40
0.5000000000000001
 40
0.5000000000000001
 40
0.7500000000000002
 40
0.7500000000000002
 40
0.8750000000000002
 40
0.8750000000000002
 40
1.0
 40
1.0
 40
1.0
 40
1.0
 10
9.999999999999995
 20
-0.9177301327385754
 30
0.0
 10
9.999999999999995
 20
-0.9976202942537089
 30
0.0
 10
9.999999999999995
 20
-1.117622743055673
 30
0.0
 10
9.999999999999995
 20
-1.486404971765687
 30
0.0
 10
9.999999999999995
 20
-1.736952698727727
 30
0.0
 10
9.999999999999995
 20
-2.400457806786105
 30
0.0
 10
9.999999999999995
 20
-2.815915903222728
 30
0.0
 10
9.999999999999995
 20
-3.521073435929661
 30
0.0
 10
9.999999999999995
 20
-3.768760508320242
 30
0.0
 10
9.999999999999995
 20
-4.270994965729543
 30
0.0
 10
9.999999999999995
 20
-4.525365565203346
 30
0.0
 10
9.999999999999995
 20
-4.77200365265612
 30
0.0
  0
LINE
  5
D8
330
1F
100
AcDbEntity
  8
0
  6
Continuous
 62
     1
370
    15
100
AcDbLine
 10
9.999999999999938
 20
-5.900390914198844
 30
0.0
 11
9.999999999999996
 21
-4.772003652656116
 31
0.0
  0
LINE
  5
D9
330
1F
100
AcDbEntity
  8
0
  6
Continuous
 62
     8
370
    15
100
AcDbLine
 10
39.464
 20
6.333243671872013
 30
0.0
 11
39.464
 21
6.350000000000006
 31
0.0
  0
LINE
  5
DB
330
1F
100
AcDbEntity
  8
중심선
100
AcDbLine
 10
-50.14999999999999
 20
0.0
 30
0.0
 11
44.75000000000001
 21
0.0
 31
0.0
  0
CIRCLE
  5
DC
330
1F
100
AcDbEntity
  8
외형선
100
AcDbCircle
 10
0.0
 20
0.0
 30
0.0
 40
3.000000000000004
  0
INSERT
  5
DD
330
1F
100
AcDbEntity
  8
0
  6
Continuous
 62
     7
100
AcDbBlockReference
 66
     1
  2
블럭10
 10
-16.62936049909349
 20
-51.78679627639981
 30
0.0
  0
ATTRIB
  5
DE
330
DD
100
AcDbEntity
  8
FORMAT
 62
     2
100
AcDbText
 10
-27.68038085127795
 20
-49.71142936356761
 30
0.0
 40
4.233333333333333
  1
GMG23922[ 6 FLUTE ]
 41
0.75
  7
SLDTEXTSTYLE0
 11
-27.68038085127795
 21
-51.82809603023428
 31
0.0
100
AcDbAttribute
  2
AUTOATTR0
 70
     0
 74
     1
  0
SEQEND
  5
DF
330
DD
100
AcDbEntity
  8
0
  6
Continuous
 62
     7
  0
HATCH
  5
E0
330
1F
100
AcDbEntity
  8
중심선
100
AcDbHatch
 10
0.0
 20
0.0
 30
0.0
210
0.0
220
0.0
230
1.0
  2
SOLID
 70
     1
 71
     0
 91
        1
 92
        0
 93
        4
 72
     1
 10
-10.91445119471264
 20
-35.53962197475587
 11
-14.36072643854992
 21
-35.53962197475587
 72
     1
 10
-14.36072643854992
 20
-35.53962197475587
 11
-16.48895629775394
 21
-38.07594755532847
 72
     1
 10
-16.48895629775394
 20
-38.07594755532847
 11
-13.04264796880351
 21
-38.07590812602598
 72
     1
 10
-13.04264796880351
 20
-38.07590812602598
 11
-10.91445119471264
 21
-35.53962197475587
 97
        0
 75
     0
 76
     1
 98
        1
 10
0.0004859200744729
 20
0.2622744311706935
  0
HATCH
  5
E1
330
1F
100
AcDbEntity
  8
중심선
100
AcDbHatch
 10
0.0
 20
0.0
 30
0.0
210
0.0
220
0.0
230
1.0
  2
SOLID
 70
     1
 71
     0
 91
        1
 92
        0
 93
        4
 72
     1
 10
-5.901687203676686
 20
-35.53962197475587
 11
-9.347962447513968
 21
-35.53962197475587
 72
     1
 10
-9.347962447513968
 20
-35.53962197475587
 11
-13.87910045587136
 21
-40.93962197475589
 72
     1
 10
-13.87910045587136
 20
-40.93962197475589
 11
-10.43282521203407
 21
-40.93962197475589
 72
     1
 10
-10.43282521203407
 20
-40.93962197475589
 11
-5.901687203676686
 21
-35.53962197475587
 97
        0
 75
     0
 76
     1
 98
        1
 10
0.0004859200744729
 20
0.2622744311706935
  0
HATCH
  5
E2
330
1F
100
AcDbEntity
  8
중심선
100
AcDbHatch
 10
0.0
 20
0.0
 30
0.0
210
0.0
220
0.0
230
1.0
  2
SOLID
 70
     1
 71
     0
 91
        1
 92
        0
 93
        4
 72
     1
 10
-0.8889232126407902
 20
-35.5396219747559
 11
-4.335198456477906
 21
-35.53962197475587
 72
     1
 10
-4.335198456477906
 20
-35.53962197475587
 11
-11.38363535836715
 21
-43.93962197475589
 72
     1
 10
-11.38363535836715
 20
-43.93962197475589
 11
-7.937360114529873
 21
-43.93962197475589
 72
     1
 10
-7.937360114529873
 20
-43.93962197475589
 11
-0.8889232126407904
 21
-35.5396219747559
 97
        0
 75
     0
 76
     1
 98
        1
 10
0.0004859200744729
 20
0.2622744311706935
  0
HATCH
  5
E3
330
1F
100
AcDbEntity
  8
중심선
100
AcDbHatch
 10
0.0
 20
0.0
 30
0.0
210
0.0
220
0.0
230
1.0
  2
SOLID
 70
     1
 71
     0
 91
        1
 92
        0
 93
        6
 72
     3
 10
3.910967218371409
 20
-39.73962197480715
 11
3.960054785062283
 21
1.540882976769353E-10
 40
0.3939339440162628
 50
17.09539180608436
 51
320.0019657685081
 73
     0
 72
     1
 10
5.593966874072004
 20
-38.32751597939418
 11
7.899268747773043
 21
-36.39318926934625
 72
     3
 10
3.910967218318563
 20
-39.73962197475602
 11
6.600054785286829
 21
-1.278976924368180E-13
 40
0.636358354079598
 50
39.99873849337411
 51
368.4976242363724
 73
     1
 72
     1
 10
10.33629971021917
 20
-38.7796219746859
 11
2.591034525154485
 21
-38.77962197468587
 72
     1
 10
2.591034525154485
 20
-38.77962197468587
 11
2.591009480708551
 21
-40.69962197468579
 72
     1
 10
2.591009480708551
 20
-40.69962197468579
 11
7.032389250180588
 21
-40.69962197468576
 97
        0
 75
     0
 76
     1
 98
        1
 10
0.0004859200744729
 20
0.2622744311706935
  0
POINT
  5
E4
330
1F
100
AcDbEntity
  8
치수문자_일반주서
100
AcDbPoint
 10
0.0
 20
0.0
 30
0.0
  0
DIMENSION
  5
E5
330
1F
100
AcDbEntity
  8
치수문자_일반주서
100
AcDbDimension
  2
_D
 10
57.27597954368468
 20
6.350000000000072
 30
0.0
 11
57.2759795436847
 21
0.0000000000000706
 31
0.0
 70
   160
  1
%%c<>
 71
     2
 42
12.7
 52
-270.0
  3
SLDDIMSTYLE0
100
AcDbAlignedDimension
 13
39.46400000000003
 23
-6.349999999999995
 33
0.0
 14
39.00288985117777
 24
6.350000000000006
 34
0.0
 50
90.0000000000002
100
AcDbRotatedDimension
1001
ACAD
1000
DSTYLE
1002
{
1070
   273
1070
     7
1002
}
  0
DIMENSION
  5
FA
330
1F
100
AcDbEntity
  8
치수문자_일반주서
100
AcDbDimension
  2
_D_1
 10
41.75
 20
39.00555141807179
 30
0.0
 11
-2.699999999999999
 21
39.00555141807179
 31
0.0
 70
   160
  1
<>
 71
     2
 42
88.9
  3
SLDDIMSTYLE1
100
AcDbAlignedDimension
 13
-47.15000000000001
 23
5.849999999999998
 33
0.0
 14
41.75
 24
4.064000000000007
 34
0.0
100
AcDbRotatedDimension
1001
ACAD
1000
DSTYLE
1002
{
1070
   273
1070
     7
1002
}
  0
DIMENSION
  5
10E
330
1F
100
AcDbEntity
  8
치수문자_일반주서
100
AcDbDimension
  2
_D_2
 10
9.999999999999995
 20
21.69099453033795
 30
0.0
 11
25.52575141487685
 21
21.69099453033795
 31
0.0
 70
   160
  1
<>
 71
     2
 42
31.75000000000001
  3
SLDDIMSTYLE2
100
AcDbAlignedDimension
 13
41.75
 23
4.064000000000007
 33
0.0
 14
9.999999999999995
 24
-6.014067544348813
 34
0.0
 50
0.0000000000000064
100
AcDbRotatedDimension
1001
ACAD
1000
DSTYLE
1002
{
1070
   273
1070
     7
1002
}
  0
DIMENSION
  5
122
330
1F
100
AcDbEntity
  8
치수문자_일반주서
100
AcDbDimension
  2
_D_3
 10
-60.15
 20
-6.350000000000048
 30
0.0
 11
-60.15000000000002
 21
0.0000000000000008
 31
0.0
 70
   160
  1
%%c<>
 71
     2
 42
12.7
 52
-270.0
  3
SLDDIMSTYLE3
100
AcDbAlignedDimension
 13
-46.65000000000001
 23
6.350000000000002
 33
0.0
 14
-46.65000000000001
 24
-6.349999999999997
 34
0.0
 50
90.0000000000002
100
AcDbRotatedDimension
1001
ACAD
1000
DSTYLE
1002
{
1070
   273
1070
     7
1002
}
  0
INSERT
  5
13D
330
1F
100
AcDbEntity
  8
외형선
100
AcDbBlockReference
  2
SW_DOWELSYMBOL_0
 10
0.0
 20
0.0
 30
0.0
  0
ARC
  5
164
330
1F
100
AcDbEntity
  8
0
  6
Continuous
 62
     1
370
    15
100
AcDbCircle
 10
38.702
 20
3.302000000000007
 30
0.0
 40
3.047999999999999
100
AcDbArc
 50
0.0
 51
84.26779170000282
  0
ARC
  5
165
330
1F
100
AcDbEntity
  8
0
  6
Continuous
 62
     1
370
    15
100
AcDbCircle
 10
38.70200000000001
 20
-3.302000000000004
 30
0.0
 40
3.047999999999999
100
AcDbArc
 50
275.7322082999974
 51
0.0000000000001753
  0
SPLINE
  5
166
330
1F
100
AcDbEntity
  8
0
  6
Continuous
 62
     1
370
    15
100
AcDbSpline
210
0.0
220
0.0
230
1.0
 70
     8
 71
     3
 72
     8
 73
     4
 74
     0
 42
0.000000001
 43
0.00000001
 40
0.954786321660935
 40
0.954786321660935
 40
0.954786321660935
 40
0.954786321660935
 40
1.0
 40
1.0
 40
1.0
 40
1.0
 10
39.7338470736734
 20
-6.170029919047513
 30
0.0
 10
39.64291184555591
 20
-6.161272530708344
 30
0.0
 10
39.552829031025
 20
-6.144805440674792
 30
0.0
 10
39.46400000000002
 20
-6.121231968026365
 30
0.0
  0
DIMENSION
  5
167
330
1F
100
AcDbEntity
  8
치수문자_일반주서
100
AcDbDimension
  2
*D7
 10
38.702
 20
3.302000000000007
 30
0.0
 11
58.11608477555308
 21
22.5885507606809
 31
0.0
 70
   164
  1
<>
 71
     5
 42
3.047999999999998
  3
SLDDIMSTYLE0
100
AcDbRadialDimension
 15
40.86435217322646
 25
5.450147359689932
 35
0.0
 40
0.0
1001
ACAD
1000
DSTYLE
1002
{
1070
   273
1070
     2
1002
}
1001
ACAD_DSTYLE_DIMRADIAL_EXTENSION
1070
   387
1070
     1
1070
   388
1040
0.0
1070
   390
1040
1.470750418549799
  0
LINE
  5
1D2
330
1F
100
AcDbEntity
  8
0
  6
Continuous
 62
     4
370
    15
100
AcDbLine
 10
-30.11612499999999
 20
4.825999999999993
 30
0.0
 11
-18.94012500000012
 21
4.825999999999993
 31
0.0
  0
LINE
  5
1D3
330
1F
100
AcDbEntity
  8
0
  6
Continuous
 62
     4
370
    15
100
AcDbLine
 10
-30.11612499999999
 20
4.825999999999993
 30
0.0
 11
-31.64012499999999
 21
6.349999999999994
 31
0.0
  0
LINE
  5
1D4
330
1F
100
AcDbEntity
  8
0
  6
Continuous
 62
     4
370
    15
100
AcDbLine
 10
-18.940125
 20
4.825999999999993
 30
0.0
 11
-17.416125
 21
6.349999999999994
 31
0.0
  0
LINE
  5
1D5
330
1F
100
AcDbEntity
  8
0
  6
Continuous
 62
     4
370
    15
100
AcDbLine
 10
-31.640125
 20
6.350000000000003
 30
0.0
 11
-46.65000000000001
 21
6.350000000000002
 31
0.0
  0
ENDSEC
  0
SECTION
  2
OBJECTS
  0
DICTIONARY
  5
C
330
0
100
AcDbDictionary
281
     1
  3
ACAD_GROUP
350
D
  3
ACAD_IMAGE_VARS
350
161
  3
ACAD_LAYOUT
350
1A
  3
ACAD_MLINESTYLE
350
17
  3
ACAD_PLOTSETTINGS
350
19
  3
ACAD_PLOTSTYLENAME
350
E
  3
ACAD_SCALELIST
350
47
  3
APPDATA
350
15F
  3
DWGPROPS
350
1FA
  0
DICTIONARY
  5
1C3
330
2
100
AcDbDictionary
280
     1
281
     1
  3
ACAD_LAYERSTATES
360
1C4
  0
DICTIONARY
  5
1F8
330
1F
100
AcDbDictionary
280
     1
281
     1
  3
DIM_BOUNDING_BOXES_V1
360
1F9
  0
DICTIONARY
  5
D
102
{ACAD_REACTORS
330
C
102
}
330
C
100
AcDbDictionary
281
     1
  0
RASTERVARIABLES
  5
161
102
{ACAD_REACTORS
330
C
102
}
330
C
100
AcDbRasterVariables
 90
        0
 70
     1
 71
     1
 72
     1
  0
DICTIONARY
  5
1A
102
{ACAD_REACTORS
330
C
102
}
330
C
100
AcDbDictionary
281
     1
  3
Layout1
350
1E
  3
Layout2
350
26
  3
Model
350
22
  0
DICTIONARY
  5
17
102
{ACAD_REACTORS
330
C
102
}
330
C
100
AcDbDictionary
281
     1
  3
Standard
350
18
  0
DICTIONARY
  5
19
102
{ACAD_REACTORS
330
C
102
}
330
C
100
AcDbDictionary
281
     1
  0
ACDBDICTIONARYWDFLT
  5
E
102
{ACAD_REACTORS
330
C
102
}
330
C
100
AcDbDictionary
281
     1
  3
Normal
350
F
100
AcDbDictionaryWithDefault
340
F
  0
DICTIONARY
  5
47
102
{ACAD_REACTORS
330
C
102
}
330
C
100
AcDbDictionary
281
     1
  3
A0
350
48
  3
A1
350
49
  3
A2
350
4A
  3
A3
350
4B
  3
A4
350
4C
  3
A5
350
4D
  3
A6
350
4E
  3
A7
350
4F
  3
A8
350
50
  3
A9
350
51
  3
B0
350
52
  3
B1
350
53
  3
B2
350
54
  3
B3
350
55
  3
B4
350
56
  3
B5
350
57
  3
B6
350
58
  3
B7
350
59
  3
B8
350
5A
  3
B9
350
5B
  3
C0
350
5C
  3
C1
350
5D
  3
C2
350
5E
  3
C3
350
5F
  3
C4
350
60
  3
C5
350
61
  3
C6
350
62
  3
C7
350
63
  3
C8
350
64
  3
C9
350
65
  3
D0
350
66
  3
D1
350
67
  3
D2
350
68
  0
DICTIONARY
  5
15F
102
{ACAD_REACTORS
330
C
102
}
330
C
100
AcDbDictionary
281
     1
  0
XRECORD
  5
1FA
102
{ACAD_REACTORS
330
C
102
}
330
C
100
AcDbXrecord
280
     1
  1
DWGPROPS COOKIE
  2

  3

  4

  6

  7

  8
12015018
  9

300
=
301
=
302
=
303
=
304
=
305
=
306
=
307
=
308
=
309
=
 40
0.0
 41
2458236.369607408
 42
2459697.058775567
  1

 90
        0
  0
DICTIONARY
  5
1C4
102
{ACAD_REACTORS
330
1C3
102
}
330
1C3
100
AcDbDictionary
281
     1
  0
DICTIONARY
  5
1F9
102
{ACAD_REACTORS
330
1F8
102
}
330
1F8
100
AcDbDictionary
281
     1
  0
LAYOUT
  5
1E
102
{ACAD_REACTORS
330
1A
102
}
330
1A
100
AcDbPlotSettings
  1

  2
none_device
  4

  6

 40
0.0
 41
0.0
 42
0.0
 43
0.0
 44
0.0
 45
0.0
 46
0.0
 47
0.0
 48
0.0
 49
0.0
140
0.0
141
0.0
142
1.0
143
1.0
 70
   688
 72
     1
 73
     0
 74
     5
  7

 75
    16
147
1.0
148
0.0
149
0.0
100
AcDbLayout
  1
Layout1
 70
     1
 71
     1
 10
0.0
 20
0.0
 11
420.0
 21
297.0
 12
0.0
 22
0.0
 32
0.0
 14
1.000000000000000E+20
 24
1.000000000000000E+20
 34
1.000000000000000E+20
 15
-1.000000000000000E+20
 25
-1.000000000000000E+20
 35
-1.000000000000000E+20
146
0.0
 13
0.0
 23
0.0
 33
0.0
 16
1.0
 26
0.0
 36
0.0
 17
0.0
 27
1.0
 37
0.0
 76
     0
330
1B
  0
LAYOUT
  5
26
102
{ACAD_REACTORS
330
1A
102
}
330
1A
100
AcDbPlotSettings
  1

  2
none_device
  4

  6

 40
0.0
 41
0.0
 42
0.0
 43
0.0
 44
0.0
 45
0.0
 46
0.0
 47
0.0
 48
0.0
 49
0.0
140
0.0
141
0.0
142
1.0
143
1.0
 70
   688
 72
     1
 73
     0
 74
     5
  7

 75
    16
147
1.0
148
0.0
149
0.0
100
AcDbLayout
  1
Layout2
 70
     1
 71
     2
 10
0.0
 20
0.0
 11
0.0
 21
0.0
 12
0.0
 22
0.0
 32
0.0
 14
0.0
 24
0.0
 34
0.0
 15
0.0
 25
0.0
 35
0.0
146
0.0
 13
0.0
 23
0.0
 33
0.0
 16
1.0
 26
0.0
 36
0.0
 17
0.0
 27
1.0
 37
0.0
 76
     0
330
23
  0
LAYOUT
  5
22
102
{ACAD_REACTORS
330
1A
102
}
330
1A
100
AcDbPlotSettings
  1

  2
none_device
  4
ANSI_A_(11.00_x_8.50_Inches)
  6

 40
6.35
 41
19.05
 42
6.35000508
 43
19.05000254
 44
279.4
 45
215.9
 46
136.5397229855028
 47
90.07822858501036
 48
0.0
 49
0.0
140
0.0
141
0.0
142
0.0785215014555152
143
1.0
 70
  1696
 72
     0
 73
     0
 74
     0
  7

 75
     0
147
0.0235690232323232
148
0.0
149
0.0
100
AcDbLayout
  1
Model
 70
     1
 71
     0
 10
0.0
 20
0.0
 11
420.0
 21
297.0
 12
0.0
 22
0.0
 32
0.0
 14
-64.52500000000006
 24
-49.71142936356761
 34
0.0
 15
68.04814856333866
 25
43.38055141807179
 35
0.0
146
0.0
 13
0.0
 23
0.0
 33
0.0
 16
1.0
 26
0.0
 36
0.0
 17
0.0
 27
1.0
 37
0.0
 76
     0
330
1F
331
29
  0
MLINESTYLE
  5
18
102
{ACAD_REACTORS
330
17
102
}
330
17
100
AcDbMlineStyle
  2
Standard
 70
     0
  3

 62
   256
 51
90.0
 52
90.0
 71
     2
 49
0.5
 62
   256
  6
BYLAYER
 49
-0.5
 62
   256
  6
BYLAYER
  0
ACDBPLACEHOLDER
  5
F
102
{ACAD_REACTORS
330
E
102
}
330
E
  0
SCALE
  5
48
102
{ACAD_REACTORS
330
47
102
}
330
47
100
AcDbScale
 70
     0
300
1:1
140
1.0
141
1.0
290
     1
  0
SCALE
  5
49
102
{ACAD_REACTORS
330
47
102
}
330
47
100
AcDbScale
 70
     0
300
1:2
140
1.0
141
2.0
290
     0
  0
SCALE
  5
4A
102
{ACAD_REACTORS
330
47
102
}
330
47
100
AcDbScale
 70
     0
300
1:4
140
1.0
141
4.0
290
     0
  0
SCALE
  5
4B
102
{ACAD_REACTORS
330
47
102
}
330
47
100
AcDbScale
 70
     0
300
1:5
140
1.0
141
5.0
290
     0
  0
SCALE
  5
4C
102
{ACAD_REACTORS
330
47
102
}
330
47
100
AcDbScale
 70
     0
300
1:8
140
1.0
141
8.0
290
     0
  0
SCALE
  5
4D
102
{ACAD_REACTORS
330
47
102
}
330
47
100
AcDbScale
 70
     0
300
1:10
140
1.0
141
10.0
290
     0
  0
SCALE
  5
4E
102
{ACAD_REACTORS
330
47
102
}
330
47
100
AcDbScale
 70
     0
300
1:16
140
1.0
141
16.0
290
     0
  0
SCALE
  5
4F
102
{ACAD_REACTORS
330
47
102
}
330
47
100
AcDbScale
 70
     0
300
1:20
140
1.0
141
20.0
290
     0
  0
SCALE
  5
50
102
{ACAD_REACTORS
330
47
102
}
330
47
100
AcDbScale
 70
     0
300
1:30
140
1.0
141
30.0
290
     0
  0
SCALE
  5
51
102
{ACAD_REACTORS
330
47
102
}
330
47
100
AcDbScale
 70
     0
300
1:40
140
1.0
141
40.0
290
     0
  0
SCALE
  5
52
102
{ACAD_REACTORS
330
47
102
}
330
47
100
AcDbScale
 70
     0
300
1:50
140
1.0
141
50.0
290
     0
  0
SCALE
  5
53
102
{ACAD_REACTORS
330
47
102
}
330
47
100
AcDbScale
 70
     0
300
1:100
140
1.0
141
100.0
290
     0
  0
SCALE
  5
54
102
{ACAD_REACTORS
330
47
102
}
330
47
100
AcDbScale
 70
     0
300
2:1
140
2.0
141
1.0
290
     0
  0
SCALE
  5
55
102
{ACAD_REACTORS
330
47
102
}
330
47
100
AcDbScale
 70
     0
300
4:1
140
4.0
141
1.0
290
     0
  0
SCALE
  5
56
102
{ACAD_REACTORS
330
47
102
}
330
47
100
AcDbScale
 70
     0
300
8:1
140
8.0
141
1.0
290
     0
  0
SCALE
  5
57
102
{ACAD_REACTORS
330
47
102
}
330
47
100
AcDbScale
 70
     0
300
10:1
140
10.0
141
1.0
290
     0
  0
SCALE
  5
58
102
{ACAD_REACTORS
330
47
102
}
330
47
100
AcDbScale
 70
     0
300
100:1
140
100.0
141
1.0
290
     0
  0
SCALE
  5
59
102
{ACAD_REACTORS
330
47
102
}
330
47
100
AcDbScale
 70
     0
300
1/128" = 1'-0"
140
0.0078125
141
12.0
290
     0
  0
SCALE
  5
5A
102
{ACAD_REACTORS
330
47
102
}
330
47
100
AcDbScale
 70
     0
300
1/64" = 1'-0"
140
0.015625
141
12.0
290
     0
  0
SCALE
  5
5B
102
{ACAD_REACTORS
330
47
102
}
330
47
100
AcDbScale
 70
     0
300
1/32" = 1'-0"
140
0.03125
141
12.0
290
     0
  0
SCALE
  5
5C
102
{ACAD_REACTORS
330
47
102
}
330
47
100
AcDbScale
 70
     0
300
1/16" = 1'-0"
140
0.0625
141
12.0
290
     0
  0
SCALE
  5
5D
102
{ACAD_REACTORS
330
47
102
}
330
47
100
AcDbScale
 70
     0
300
3/32" = 1'-0"
140
0.09375
141
12.0
290
     0
  0
SCALE
  5
5E
102
{ACAD_REACTORS
330
47
102
}
330
47
100
AcDbScale
 70
     0
300
1/8" = 1'-0"
140
0.125
141
12.0
290
     0
  0
SCALE
  5
5F
102
{ACAD_REACTORS
330
47
102
}
330
47
100
AcDbScale
 70
     0
300
3/16" = 1'-0"
140
0.1875
141
12.0
290
     0
  0
SCALE
  5
60
102
{ACAD_REACTORS
330
47
102
}
330
47
100
AcDbScale
 70
     0
300
1/4" = 1'-0"
140
0.25
141
12.0
290
     0
  0
SCALE
  5
61
102
{ACAD_REACTORS
330
47
102
}
330
47
100
AcDbScale
 70
     0
300
3/8" = 1'-0"
140
0.375
141
12.0
290
     0
  0
SCALE
  5
62
102
{ACAD_REACTORS
330
47
102
}
330
47
100
AcDbScale
 70
     0
300
1/2" = 1'-0"
140
0.5
141
12.0
290
     0
  0
SCALE
  5
63
102
{ACAD_REACTORS
330
47
102
}
330
47
100
AcDbScale
 70
     0
300
3/4" = 1'-0"
140
0.75
141
12.0
290
     0
  0
SCALE
  5
64
102
{ACAD_REACTORS
330
47
102
}
330
47
100
AcDbScale
 70
     0
300
1" = 1'-0"
140
1.0
141
12.0
290
     0
  0
SCALE
  5
65
102
{ACAD_REACTORS
330
47
102
}
330
47
100
AcDbScale
 70
     0
300
1-1/2" = 1'-0"
140
1.5
141
12.0
290
     0
  0
SCALE
  5
66
102
{ACAD_REACTORS
330
47
102
}
330
47
100
AcDbScale
 70
     0
300
3" = 1'-0"
140
3.0
141
12.0
290
     0
  0
SCALE
  5
67
102
{ACAD_REACTORS
330
47
102
}
330
47
100
AcDbScale
 70
     0
300
6" = 1'-0"
140
6.0
141
12.0
290
     0
  0
SCALE
  5
68
102
{ACAD_REACTORS
330
47
102
}
330
47
100
AcDbScale
 70
     0
300
1'-0" = 1'-0"
140
12.0
141
12.0
290
     0
  0
ENDSEC
  0
EOF
