  0
SECTION
  2
HEADER
  9
$ACADVER
  1
AC1015
  9
$ACADMAINTVER
 70
     6
  9
$DWGCODEPAGE
  3
ANSI_949
  9
$INSBASE
 10
0.0
 20
0.0
 30
0.0
  9
$EXTMIN
 10
-60.17500000000007
 20
-49.71142936356758
 30
0.0
  9
$EXTMAX
 10
81.82080003846158
 20
41.79305141807184
 30
0.0
  9
$LIMMIN
 10
0.0
 20
0.0
  9
$LIMMAX
 10
420.0
 20
297.0
  9
$ORTHOMODE
 70
     0
  9
$REGENMODE
 70
     1
  9
$FILLMODE
 70
     1
  9
$QTEXTMODE
 70
     0
  9
$MIRRTEXT
 70
     1
  9
$LTSCALE
 40
1.0
  9
$ATTMODE
 70
     1
  9
$TEXTSIZE
 40
3.5
  9
$TRACEWID
 40
1.0
  9
$TEXTSTYLE
  7
Standard
  9
$CLAYER
  8
0
  9
$CELTYPE
  6
ByLayer
  9
$CECOLOR
 62
   256
  9
$CELTSCALE
 40
1.0
  9
$DISPSILH
 70
     0
  9
$DIMSCALE
 40
1.0
  9
$DIMASZ
 40
3.302
  9
$DIMEXO
 40
1.0
  9
$DIMDLI
 40
3.75
  9
$DIMRND
 40
0.0
  9
$DIMDLE
 40
0.0
  9
$DIMEXE
 40
1.0
  9
$DIMTP
 40
0.0
  9
$DIMTM
 40
0.0
  9
$DIMTXT
 40
3.5
  9
$DIMCEN
 40
2.5
  9
$DIMTSZ
 40
0.0
  9
$DIMTOL
 70
     0
  9
$DIMLIM
 70
     0
  9
$DIMTIH
 70
     1
  9
$DIMTOH
 70
     1
  9
$DIMSE1
 70
     0
  9
$DIMSE2
 70
     0
  9
$DIMTAD
 70
     1
  9
$DIMZIN
 70
     0
  9
$DIMBLK
  1

  9
$DIMASO
 70
     1
  9
$DIMSHO
 70
     1
  9
$DIMPOST
  1

  9
$DIMAPOST
  1

  9
$DIMALT
 70
     0
  9
$DIMALTD
 70
     3
  9
$DIMALTF
 40
0.0393700787401575
  9
$DIMLFAC
 40
1.0
  9
$DIMTOFL
 70
     1
  9
$DIMTVP
 40
0.0
  9
$DIMTIX
 70
     0
  9
$DIMSOXD
 70
     0
  9
$DIMSAH
 70
     0
  9
$DIMBLK1
  1

  9
$DIMBLK2
  1

  9
$DIMSTYLE
  2
ISO-25
  9
$DIMCLRD
 70
     0
  9
$DIMCLRE
 70
     0
  9
$DIMCLRT
 70
     0
  9
$DIMTFAC
 40
1.0
  9
$DIMGAP
 40
1.524
  9
$DIMJUST
 70
     0
  9
$DIMSD1
 70
     0
  9
$DIMSD2
 70
     0
  9
$DIMTOLJ
 70
     0
  9
$DIMTZIN
 70
     0
  9
$DIMALTZ
 70
     0
  9
$DIMALTTZ
 70
     0
  9
$DIMUPT
 70
     0
  9
$DIMDEC
 70
     2
  9
$DIMTDEC
 70
     2
  9
$DIMALTU
 70
     2
  9
$DIMALTTD
 70
     3
  9
$DIMTXSTY
  7
Standard
  9
$DIMAUNIT
 70
     0
  9
$DIMADEC
 70
     2
  9
$DIMALTRND
 40
0.0
  9
$DIMAZIN
 70
     0
  9
$DIMDSEP
 70
    44
  9
$DIMATFIT
 70
     3
  9
$DIMFRAC
 70
     0
  9
$DIMLDRBLK
  1

  9
$DIMLUNIT
 70
     2
  9
$DIMLWD
 70
    -2
  9
$DIMLWE
 70
    -2
  9
$DIMTMOVE
 70
     0
  9
$LUNITS
 70
     2
  9
$LUPREC
 70
     2
  9
$SKETCHINC
 40
1.0
  9
$FILLETRAD
 40
10.0
  9
$AUNITS
 70
     0
  9
$AUPREC
 70
     2
  9
$MENU
  1
.
  9
$ELEVATION
 40
0.0
  9
$PELEVATION
 40
0.0
  9
$THICKNESS
 40
0.0
  9
$LIMCHECK
 70
     0
  9
$CHAMFERA
 40
0.0
  9
$CHAMFERB
 40
0.0
  9
$CHAMFERC
 40
0.0
  9
$CHAMFERD
 40
0.0
  9
$SKPOLY
 70
     0
  9
$TDCREATE
 40
2458236.743253785
  9
$TDUCREATE
 40
2458236.368253785
  9
$TDUPDATE
 40
2459697.432543623
  9
$TDUUPDATE
 40
2459697.057543623
  9
$TDINDWG
 40
0.002833831
  9
$TDUSRTIMER
 40
0.0001331366
  9
$USRTIMER
 70
     1
  9
$ANGBASE
 50
0.0
  9
$ANGDIR
 70
     0
  9
$PDMODE
 70
     0
  9
$PDSIZE
 40
-1.0
  9
$PLINEWID
 40
0.0
  9
$SPLFRAME
 70
     0
  9
$SPLINETYPE
 70
     6
  9
$SPLINESEGS
 70
     8
  9
$HANDSEED
  5
22A
  9
$SURFTAB1
 70
     6
  9
$SURFTAB2
 70
     6
  9
$SURFTYPE
 70
     6
  9
$SURFU
 70
     6
  9
$SURFV
 70
     6
  9
$UCSBASE
  2

  9
$UCSNAME
  2

  9
$UCSORG
 10
0.0
 20
0.0
 30
0.0
  9
$UCSXDIR
 10
1.0
 20
0.0
 30
0.0
  9
$UCSYDIR
 10
0.0
 20
1.0
 30
0.0
  9
$UCSORTHOREF
  2

  9
$UCSORTHOVIEW
 70
     0
  9
$UCSORGTOP
 10
0.0
 20
0.0
 30
0.0
  9
$UCSORGBOTTOM
 10
0.0
 20
0.0
 30
0.0
  9
$UCSORGLEFT
 10
0.0
 20
0.0
 30
0.0
  9
$UCSORGRIGHT
 10
0.0
 20
0.0
 30
0.0
  9
$UCSORGFRONT
 10
0.0
 20
0.0
 30
0.0
  9
$UCSORGBACK
 10
0.0
 20
0.0
 30
0.0
  9
$PUCSBASE
  2

  9
$PUCSNAME
  2

  9
$PUCSORG
 10
0.0
 20
0.0
 30
0.0
  9
$PUCSXDIR
 10
1.0
 20
0.0
 30
0.0
  9
$PUCSYDIR
 10
0.0
 20
1.0
 30
0.0
  9
$PUCSORTHOREF
  2

  9
$PUCSORTHOVIEW
 70
     0
  9
$PUCSORGTOP
 10
0.0
 20
0.0
 30
0.0
  9
$PUCSORGBOTTOM
 10
0.0
 20
0.0
 30
0.0
  9
$PUCSORGLEFT
 10
0.0
 20
0.0
 30
0.0
  9
$PUCSORGRIGHT
 10
0.0
 20
0.0
 30
0.0
  9
$PUCSORGFRONT
 10
0.0
 20
0.0
 30
0.0
  9
$PUCSORGBACK
 10
0.0
 20
0.0
 30
0.0
  9
$USERI1
 70
     0
  9
$USERI2
 70
     0
  9
$USERI3
 70
     0
  9
$USERI4
 70
     0
  9
$USERI5
 70
     0
  9
$USERR1
 40
0.0
  9
$USERR2
 40
0.0
  9
$USERR3
 40
0.0
  9
$USERR4
 40
0.0
  9
$USERR5
 40
0.0
  9
$WORLDVIEW
 70
     1
  9
$SHADEDGE
 70
     3
  9
$SHADEDIF
 70
    70
  9
$TILEMODE
 70
     1
  9
$MAXACTVP
 70
    64
  9
$PINSBASE
 10
0.0
 20
0.0
 30
0.0
  9
$PLIMCHECK
 70
     0
  9
$PEXTMIN
 10
1.000000000000000E+20
 20
1.000000000000000E+20
 30
1.000000000000000E+20
  9
$PEXTMAX
 10
-1.000000000000000E+20
 20
-1.000000000000000E+20
 30
-1.000000000000000E+20
  9
$PLIMMIN
 10
0.0
 20
0.0
  9
$PLIMMAX
 10
0.0
 20
0.0
  9
$UNITMODE
 70
     0
  9
$VISRETAIN
 70
     1
  9
$PLINEGEN
 70
     0
  9
$PSLTSCALE
 70
     1
  9
$TREEDEPTH
 70
  3020
  9
$CMLSTYLE
  2
Standard
  9
$CMLJUST
 70
     0
  9
$CMLSCALE
 40
20.0
  9
$PROXYGRAPHICS
 70
     1
  9
$MEASUREMENT
 70
     1
  9
$CELWEIGHT
370
    -1
  9
$ENDCAPS
280
     0
  9
$JOINSTYLE
280
     0
  9
$LWDISPLAY
290
     1
  9
$INSUNITS
 70
     4
  9
$HYPERLINKBASE
  1

  9
$STYLESHEET
  1

  9
$XEDIT
290
     1
  9
$CEPSNTYPE
380
     0
  9
$PSTYLEMODE
290
     1
  9
$FINGERPRINTGUID
  2
{24DDE509-D5E6-44CF-8F7D-374F93509B39}
  9
$VERSIONGUID
  2
{FAEB1C32-E019-11D5-929B-00C0DF256EC4}
  9
$EXTNAMES
290
     1
  9
$PSVPSCALE
 40
0.0
  9
$OLESTARTUP
290
     0
  0
ENDSEC
  0
SECTION
  2
CLASSES
  0
CLASS
  1
ACDBDICTIONARYWDFLT
  2
AcDbDictionaryWithDefault
  3
ObjectDBX Classes
 90
        0
280
     0
281
     0
  0
CLASS
  1
VISUALSTYLE
  2
AcDbVisualStyle
  3
ObjectDBX Classes
 90
     4095
280
     0
281
     0
  0
CLASS
  1
MATERIAL
  2
AcDbMaterial
  3
ObjectDBX Classes
 90
     1153
280
     0
281
     0
  0
CLASS
  1
SCALE
  2
AcDbScale
  3
ObjectDBX Classes
 90
     1153
280
     0
281
     0
  0
CLASS
  1
SUN
  2
AcDbSun
  3
SCENEOE
 90
     1153
280
     0
281
     0
  0
CLASS
  1
ACDBPLACEHOLDER
  2
AcDbPlaceHolder
  3
ObjectDBX Classes
 90
        0
280
     0
281
     0
  0
CLASS
  1
LAYOUT
  2
AcDbLayout
  3
ObjectDBX Classes
 90
        0
280
     0
281
     0
  0
CLASS
  1
TABLESTYLE
  2
AcDbTableStyle
  3
ObjectDBX Classes
 90
     4095
280
     0
281
     0
  0
CLASS
  1
MLEADERSTYLE
  2
AcDbMLeaderStyle
  3
ACDB_MLEADERSTYLE_CLASS
 90
     4095
280
     0
281
     0
  0
CLASS
  1
RASTERVARIABLES
  2
AcDbRasterVariables
  3
ISM
 90
        0
280
     0
281
     0
  0
CLASS
  1
DIMASSOC
  2
AcDbDimAssoc
  3
"AcDbDimAssoc|Product Desc:     AcDim ARX App For Dimension|Company:          Autodesk, Inc.|WEB Address:      www.autodesk.com"
 90
        0
280
     0
281
     0
  0
ENDSEC
  0
SECTION
  2
TABLES
  0
TABLE
  2
VPORT
  5
8
330
0
100
AcDbSymbolTable
 70
     1
  0
VPORT
  5
29
330
8
100
AcDbSymbolTableRecord
100
AcDbViewportTableRecord
  2
*Active
 70
     0
 10
0.0
 20
0.0
 11
1.0
 21
1.0
 12
10.82290001923076
 22
-3.959188972747867
 13
0.0
 23
0.0
 14
10.0
 24
10.0
 15
10.0
 25
10.0
 16
0.0
 26
0.0
 36
1.0
 17
0.0
 27
0.0
 37
0.0
 40
93.3345703972722
 41
1.898569570871261
 42
50.0
 43
0.0
 44
0.0
 50
0.0
 51
0.0
 71
    16
 72
  2000
 73
     1
 74
     3
 75
     0
 76
     0
 77
     0
 78
     0
281
     0
 65
     1
110
0.0
120
0.0
130
0.0
111
1.0
121
0.0
131
0.0
112
0.0
122
1.0
132
0.0
 79
     0
146
0.0
  0
ENDTAB
  0
TABLE
  2
LTYPE
  5
5
330
0
100
AcDbSymbolTable
 70
     6
  0
LTYPE
  5
14
330
5
100
AcDbSymbolTableRecord
100
AcDbLinetypeTableRecord
  2
ByBlock
 70
     0
  3

 72
    65
 73
     0
 40
0.0
  0
LTYPE
  5
15
330
5
100
AcDbSymbolTableRecord
100
AcDbLinetypeTableRecord
  2
ByLayer
 70
     0
  3

 72
    65
 73
     0
 40
0.0
  0
LTYPE
  5
16
330
5
100
AcDbSymbolTableRecord
100
AcDbLinetypeTableRecord
  2
Continuous
 70
     0
  3
Solid line
 72
    65
 73
     0
 40
0.0
  0
LTYPE
  5
6A
330
5
100
AcDbSymbolTableRecord
100
AcDbLinetypeTableRecord
  2
HIDDEN
 70
     0
  3
Hidden __ __ __ __ __ __ __ __ __ __ __ __ __ __
 72
    65
 73
     2
 40
1.905
 49
1.27
 74
     0
 49
-0.635
 74
     0
  0
LTYPE
  5
6B
330
5
100
AcDbSymbolTableRecord
100
AcDbLinetypeTableRecord
  2
PHANTOM
 70
     0
  3
Phantom ______  __  __  ______  __  __  ______
 72
    65
 73
     6
 40
12.7
 49
6.35
 74
     0
 49
-1.27
 74
     0
 49
1.27
 74
     0
 49
-1.27
 74
     0
 49
1.27
 74
     0
 49
-1.27
 74
     0
  0
LTYPE
  5
6C
330
5
100
AcDbSymbolTableRecord
100
AcDbLinetypeTableRecord
  2
CENTER
 70
     0
  3
Center ____ _ ____ _ ____ _ ____ _ ____ _ ____
 72
    65
 73
     4
 40
10.16
 49
6.35
 74
     0
 49
-1.27
 74
     0
 49
1.27
 74
     0
 49
-1.27
 74
     0
  0
LTYPE
  5
6D
330
5
100
AcDbSymbolTableRecord
100
AcDbLinetypeTableRecord
  2
CENTERX2
 70
     0
  3
Center (2x) ________  __  ________  __  _____
 72
    65
 73
     4
 40
20.32
 49
12.7
 74
     0
 49
-2.54
 74
     0
 49
2.54
 74
     0
 49
-2.54
 74
     0
  0
LTYPE
  5
6E
330
5
100
AcDbSymbolTableRecord
100
AcDbLinetypeTableRecord
  2
DOT2
 70
     0
  3
Dot (.5x) ........................................
 72
    65
 73
     2
 40
0.635
 49
0.0
 74
     0
 49
-0.635
 74
     0
  0
ENDTAB
  0
TABLE
  2
LAYER
  5
2
102
{ACAD_XDICTIONARY
360
1F2
102
}
330
0
100
AcDbSymbolTable
 70
    17
  0
LAYER
  5
10
330
2
100
AcDbSymbolTableRecord
100
AcDbLayerTableRecord
  2
0
 70
     0
 62
     7
  6
Continuous
370
    -3
390
F
  0
LAYER
  5
6F
330
2
100
AcDbSymbolTableRecord
100
AcDbLayerTableRecord
  2
FORMAT
 70
     0
 62
     2
  6
Continuous
370
    -3
390
F
  0
LAYER
  5
70
330
2
100
AcDbSymbolTableRecord
100
AcDbLayerTableRecord
  2
외형선
 70
     0
 62
   100
  6
Continuous
370
    30
390
F
  0
LAYER
  5
71
330
2
100
AcDbSymbolTableRecord
100
AcDbLayerTableRecord
  2
숨은선
 70
     0
 62
     2
  6
HIDDEN
370
    15
390
F
  0
LAYER
  5
72
330
2
100
AcDbSymbolTableRecord
100
AcDbLayerTableRecord
  2
중심선
 70
     0
 62
     1
  6
CENTERX2
370
    -3
390
F
  0
LAYER
  5
73
330
2
100
AcDbSymbolTableRecord
100
AcDbLayerTableRecord
  2
파단선
 70
     0
 62
     4
  6
Continuous
370
    -3
390
F
  0
LAYER
  5
74
330
2
100
AcDbSymbolTableRecord
100
AcDbLayerTableRecord
  2
해칭선
 70
     0
 62
     4
  6
Continuous
370
    -3
390
F
  0
LAYER
  5
75
330
2
100
AcDbSymbolTableRecord
100
AcDbLayerTableRecord
  2
가는실선
 70
     0
 62
     4
  6
Continuous
370
    -3
390
F
  0
LAYER
  5
76
330
2
100
AcDbSymbolTableRecord
100
AcDbLayerTableRecord
  2
치수_보조선
 70
     0
 62
     4
  6
Continuous
370
    -3
390
F
  0
LAYER
  5
77
330
2
100
AcDbSymbolTableRecord
100
AcDbLayerTableRecord
  2
치수문자_일반주서
 70
     0
 62
     7
  6
Continuous
370
    15
390
F
  0
LAYER
  5
78
330
2
100
AcDbSymbolTableRecord
100
AcDbLayerTableRecord
  2
개별주서
 70
     0
 62
   100
  6
Continuous
370
    30
390
F
  0
LAYER
  5
79
330
2
100
AcDbSymbolTableRecord
100
AcDbLayerTableRecord
  2
중간선
 70
     0
 62
     2
  6
Continuous
370
    15
390
F
  0
LAYER
  5
7A
330
2
100
AcDbSymbolTableRecord
100
AcDbLayerTableRecord
  2
윤곽선
 70
     0
 62
     3
  6
Continuous
370
    40
390
F
  0
LAYER
  5
7B
330
2
100
AcDbSymbolTableRecord
100
AcDbLayerTableRecord
  2
중심마크
 70
     0
 62
   100
  6
Continuous
370
    30
390
F
  0
LAYER
  5
7C
330
2
100
AcDbSymbolTableRecord
100
AcDbLayerTableRecord
  2
가상선
 70
     0
 62
     4
  6
PHANTOM
370
    -3
390
F
  0
LAYER
  5
7D
330
2
100
AcDbSymbolTableRecord
100
AcDbLayerTableRecord
  2
특수지정선
 70
     0
 62
     5
  6
CENTERX2
370
    60
390
F
  0
LAYER
  5
190
330
2
100
AcDbSymbolTableRecord
100
AcDbLayerTableRecord
  2
Defpoints
 70
     0
 62
     7
  6
Continuous
290
     0
370
    -3
390
F
  0
ENDTAB
  0
TABLE
  2
STYLE
  5
3
330
0
100
AcDbSymbolTable
 70
     2
  0
STYLE
  5
11
330
3
100
AcDbSymbolTableRecord
100
AcDbTextStyleTableRecord
  2
Standard
 70
     0
 40
0.0
 41
1.0
 50
0.0
 71
     0
 42
3.5
  3
txt
  4

  0
STYLE
  5
93
330
3
100
AcDbSymbolTableRecord
100
AcDbTextStyleTableRecord
  2
SLDTEXTSTYLE0
 70
     0
 40
0.0
 41
0.75
 50
0.0
 71
     0
 42
3.5
  3
TXT
  4

  0
ENDTAB
  0
TABLE
  2
VIEW
  5
6
330
0
100
AcDbSymbolTable
 70
     0
  0
ENDTAB
  0
TABLE
  2
UCS
  5
7
330
0
100
AcDbSymbolTable
 70
     0
  0
ENDTAB
  0
TABLE
  2
APPID
  5
9
330
0
100
AcDbSymbolTable
 70
     2
  0
APPID
  5
12
330
9
100
AcDbSymbolTableRecord
100
AcDbRegAppTableRecord
  2
ACAD
 70
     0
  0
APPID
  5
195
330
9
100
AcDbSymbolTableRecord
100
AcDbRegAppTableRecord
  2
ACAD_DSTYLE_DIMRADIAL_EXTENSION
 70
     0
  0
ENDTAB
  0
TABLE
  2
DIMSTYLE
  5
A
330
0
100
AcDbSymbolTable
 70
     3
100
AcDbDimStyleTable
  0
DIMSTYLE
105
27
330
A
100
AcDbSymbolTableRecord
100
AcDbDimStyleTableRecord
  2
ISO-25
 70
     0
 41
2.5
 42
0.625
 43
3.75
 44
1.25
 73
     0
 74
     0
 77
     1
 78
     8
140
2.5
141
2.5
143
0.03937007874016
147
0.625
171
     3
172
     1
178
     0
271
     2
272
     2
274
     3
278
    44
283
     0
284
     8
340
11
  0
DIMSTYLE
105
116
102
{ACAD_REACTORS
330
115
330
151
102
}
330
A
100
AcDbSymbolTableRecord
100
AcDbDimStyleTableRecord
  2
SLDDIMSTYLE0
 70
     0
 41
3.302
 44
0.0
 45
0.000000001
 73
     0
 74
     0
 77
     1
 78
    12
 79
     3
140
3.5
143
0.0393700787401575
147
0.875
148
0.000000001
170
     1
172
     1
173
     1
178
     0
271
     2
272
     2
276
     2
284
    12
289
     0
340
93
  0
DIMSTYLE
105
12B
102
{ACAD_REACTORS
330
12A
330
13E
330
196
102
}
330
A
100
AcDbSymbolTableRecord
100
AcDbDimStyleTableRecord
  2
SLDDIMSTYLE1
 70
     0
 41
3.302
 44
0.0
 45
0.000000001
 73
     0
 74
     0
 77
     1
 78
     4
 79
     1
140
3.5
143
0.0393700787401575
147
0.875
148
0.000000001
170
     1
173
     1
178
     0
271
     2
272
     2
276
     2
284
    12
340
93
  0
ENDTAB
  0
TABLE
  2
BLOCK_RECORD
  5
1
330
0
100
AcDbSymbolTable
 70
     8
  0
BLOCK_RECORD
  5
1F
102
{ACAD_XDICTIONARY
360
227
102
}
330
1
100
AcDbSymbolTableRecord
100
AcDbBlockTableRecord
  2
*Model_Space
340
22
  0
BLOCK_RECORD
  5
1B
330
1
100
AcDbSymbolTableRecord
100
AcDbBlockTableRecord
  2
*Paper_Space
340
1E
  0
BLOCK_RECORD
  5
23
330
1
100
AcDbSymbolTableRecord
100
AcDbBlockTableRecord
  2
*Paper_Space0
340
26
  0
BLOCK_RECORD
  5
7E
330
1
100
AcDbSymbolTableRecord
100
AcDbBlockTableRecord
  2
블럭10
340
0
102
{BLKREFS
331
10D
102
}
  0
BLOCK_RECORD
  5
117
330
1
100
AcDbSymbolTableRecord
100
AcDbBlockTableRecord
  2
_D
340
0
  0
BLOCK_RECORD
  5
12C
330
1
100
AcDbSymbolTableRecord
100
AcDbBlockTableRecord
  2
_D_1
340
0
  0
BLOCK_RECORD
  5
13F
330
1
100
AcDbSymbolTableRecord
100
AcDbBlockTableRecord
  2
_D_2
340
0
  0
BLOCK_RECORD
  5
152
330
1
100
AcDbSymbolTableRecord
100
AcDbBlockTableRecord
  2
_D_3
340
0
  0
BLOCK_RECORD
  5
165
330
1
100
AcDbSymbolTableRecord
100
AcDbBlockTableRecord
  2
SW_DOWELSYMBOL_0
340
0
102
{BLKREFS
331
16B
102
}
  0
BLOCK_RECORD
  5
199
330
1
100
AcDbSymbolTableRecord
100
AcDbBlockTableRecord
  2
*D7
340
0
  0
ENDTAB
  0
ENDSEC
  0
SECTION
  2
BLOCKS
  0
BLOCK
  5
20
330
1F
100
AcDbEntity
  8
0
100
AcDbBlockBegin
  2
*Model_Space
 70
     0
 10
0.0
 20
0.0
 30
0.0
  3
*Model_Space
  1
*Model_Space
  0
ENDBLK
  5
21
330
1F
100
AcDbEntity
  8
0
100
AcDbBlockEnd
  0
BLOCK
  5
1C
330
1B
100
AcDbEntity
 67
     1
  8
0
100
AcDbBlockBegin
  2
*Paper_Space
 70
     0
 10
0.0
 20
0.0
 30
0.0
  3
*Paper_Space
  1
*Paper_Space
  0
ENDBLK
  5
1D
330
1B
100
AcDbEntity
 67
     1
  8
0
100
AcDbBlockEnd
  0
BLOCK
  5
24
330
23
100
AcDbEntity
  8
0
100
AcDbBlockBegin
  2
*Paper_Space0
 70
     0
 10
0.0
 20
0.0
 30
0.0
  3
*Paper_Space0
  1
*Paper_Space0
  0
ENDBLK
  5
25
330
23
100
AcDbEntity
  8
0
100
AcDbBlockEnd
  0
BLOCK
  5
7F
330
7E
100
AcDbEntity
  8
0
100
AcDbBlockBegin
  2
블럭10
 70
     2
 10
0.0
 20
0.0
 30
0.0
  3
블럭10
  1
블럭10
  0
ELLIPSE
  5
81
330
7E
100
AcDbEntity
  8
중심선
100
AcDbEllipse
 10
20.54032771741204
 20
12.0471743016438
 30
0.0
 11
6.600054785286829
 21
-1.261213355974178E-13
 31
0.0
210
0.0
220
0.0
230
1.0
 40
0.636358354079598
 41
0.9219305317359503
 42
6.513795318482858
  0
ELLIPSE
  5
82
330
7E
100
AcDbEntity
  8
중심선
100
AcDbEllipse
 10
20.54032771746488
 20
12.04717430159265
 30
0.0
 11
3.960054785062283
 21
1.540847449632565E-10
 31
0.0
210
0.0
220
0.0
230
1.0
 40
0.3939339440162632
 41
1.131841032648279
 42
5.62031148352944
  0
LINE
  5
83
330
7E
100
AcDbEntity
  8
중심선
100
AcDbLine
 10
2.268634060543552
 20
16.24717430164393
 30
0.0
 11
5.714909304380834
 21
16.24717430164393
 31
0.0
  0
LINE
  5
84
330
7E
100
AcDbEntity
  8
중심선
100
AcDbLine
 10
5.245725140726316
 20
7.84717430164391
 30
0.0
 11
8.692000384563599
 21
7.84717430164391
 31
0.0
  0
LINE
  5
85
330
7E
100
AcDbEntity
  8
중심선
100
AcDbLine
 10
15.74043728645272
 20
16.24717430164393
 30
0.0
 11
8.692000384563599
 21
7.84717430164391
 31
0.0
  0
LINE
  5
86
330
7E
100
AcDbEntity
  8
중심선
100
AcDbLine
 10
0.1404042013395286
 20
13.71084872107135
 30
0.0
 11
3.58671253028996
 21
13.71088815037384
 31
0.0
  0
LINE
  5
87
330
7E
100
AcDbEntity
  8
중심선
100
AcDbLine
 10
2.750260043222114
 20
10.84717430164391
 30
0.0
 11
6.196535287059397
 21
10.84717430164391
 31
0.0
  0
LINE
  5
88
330
7E
100
AcDbEntity
  8
중심선
100
AcDbLine
 10
12.29416204261559
 20
16.24717430164393
 30
0.0
 11
5.245725140726316
 21
7.84717430164391
 31
0.0
  0
LINE
  5
89
330
7E
100
AcDbEntity
  8
중심선
100
AcDbLine
 10
10.72767329541681
 20
16.24717430164393
 30
0.0
 11
6.196535287059397
 21
10.84717430164391
 31
0.0
  0
LINE
  5
8A
330
7E
100
AcDbEntity
  8
중심선
100
AcDbLine
 10
7.28139805157953
 20
16.24717430164393
 30
0.0
 11
2.750260043222114
 21
10.84717430164391
 31
0.0
  0
LINE
  5
8B
330
7E
100
AcDbEntity
  8
중심선
100
AcDbLine
 10
5.714909304380834
 20
16.24717430164393
 30
0.0
 11
3.58671253028996
 21
13.71088815037384
 31
0.0
  0
LINE
  5
8C
330
7E
100
AcDbEntity
  8
중심선
100
AcDbLine
 10
2.268634060543552
 20
16.24717430164393
 30
0.0
 11
0.1404042013395286
 21
13.71084872107135
 31
0.0
  0
LINE
  5
8D
330
7E
100
AcDbEntity
  8
중심선
100
AcDbLine
 10
7.28139805157953
 20
16.24717430164393
 30
0.0
 11
10.72767329541681
 21
16.24717430164393
 31
0.0
  0
LINE
  5
8E
330
7E
100
AcDbEntity
  8
중심선
100
AcDbLine
 10
12.29416204261559
 20
16.24717430164393
 30
0.0
 11
15.74043728645272
 21
16.24717430164393
 31
0.0
  0
LINE
  5
8F
330
7E
100
AcDbEntity
  8
중심선
100
AcDbLine
 10
19.22036997980202
 20
11.08717430171403
 30
0.0
 11
23.66174974927406
 21
11.08717430171406
 31
0.0
  0
LINE
  5
90
330
7E
100
AcDbEntity
  8
중심선
100
AcDbLine
 10
19.22039502424796
 20
13.00717430171391
 30
0.0
 11
19.22036997980202
 21
11.08717430171403
 31
0.0
  0
LINE
  5
91
330
7E
100
AcDbEntity
  8
중심선
100
AcDbLine
 10
19.22039502424796
 20
13.00717430171391
 30
0.0
 11
26.96566020931264
 21
13.00717430171391
 31
0.0
  0
LINE
  5
92
330
7E
100
AcDbEntity
  8
중심선
100
AcDbLine
 10
22.22332737316547
 20
13.45928029700563
 30
0.0
 11
24.52862924686651
 21
15.39360700705356
 31
0.0
  0
ATTDEF
  5
94
330
7E
100
AcDbEntity
  8
FORMAT
 62
     2
100
AcDbText
 10
-11.05102035218446
 20
2.075366912832191
 30
0.0
 40
4.233333333333333
  1
GMG22916[ 6 FLUTE ]
 41
0.75
  7
SLDTEXTSTYLE0
 11
-11.05102035218446
 21
-0.0412997538344756
 31
0.0
100
AcDbAttributeDefinition
  3

  2
AUTOATTR0
 70
     0
 74
     1
  0
ENDBLK
  5
80
330
7E
100
AcDbEntity
  8
0
100
AcDbBlockEnd
  0
BLOCK
  5
118
330
117
100
AcDbEntity
  8
0
100
AcDbBlockBegin
  2
_D
 70
     0
 10
0.0
 20
0.0
 30
0.0
  3
_D
  1
_D
  0
LINE
  5
11A
330
117
100
AcDbEntity
  8
치수문자_일반주서
 62
     0
370
    -2
100
AcDbLine
 10
57.33849999999999
 20
-4.76249999999995
 30
0.0
 11
76.62074571577298
 21
-4.762499999999877
 31
0.0
  0
LINE
  5
11B
330
117
100
AcDbEntity
  8
치수문자_일반주서
 62
     0
370
    -2
100
AcDbLine
 10
57.07036424159699
 20
4.762500000000061
 30
0.0
 11
76.62074571577296
 21
4.762500000000134
 31
0.0
  0
LINE
  5
11C
330
117
100
AcDbEntity
  8
치수문자_일반주서
 62
     0
370
    -2
100
AcDbLine
 10
76.62074571577297
 20
-1.460499999999877
 30
0.0
 11
76.62074571577297
 21
1.460500000000135
 31
0.0
  0
SOLID
  5
11D
330
117
100
AcDbEntity
  8
치수문자_일반주서
 62
     0
100
AcDbTrace
 10
76.07041238243964
 20
-1.460499999999879
 30
0.0
 11
77.1710790491063
 21
-1.460499999999876
 31
0.0
 12
76.62074571577298
 22
-4.762499999999877
 32
0.0
 13
76.62074571577298
 23
-4.762499999999877
 33
0.0
  0
SOLID
  5
11E
330
117
100
AcDbEntity
  8
치수문자_일반주서
 62
     0
100
AcDbTrace
 10
77.1710790491063
 20
1.460500000000136
 30
0.0
 11
76.07041238243964
 21
1.460500000000133
 31
0.0
 12
76.62074571577296
 22
4.762500000000134
 32
0.0
 13
76.62074571577296
 23
4.762500000000134
 33
0.0
  0
MTEXT
  5
11F
330
117
100
AcDbEntity
  8
치수문자_일반주서
 62
     0
100
AcDbMText
 10
72.24574571577297
 20
1.090946215346517
 30
0.0
 40
3.5
 41
0.0
 71
     2
 72
     1
  1
\A1;%%c9.53 [3/8]
  7
SLDTEXTSTYLE0
 11
-2.983906501879682E-15
 21
1.0
 31
0.0
 73
     1
 44
1.0
  0
POINT
  5
120
330
117
100
AcDbEntity
  8
Defpoints
 62
     0
100
AcDbPoint
 10
57.27599999999999
 20
-4.76249999999995
 30
0.0
  0
POINT
  5
121
330
117
100
AcDbEntity
  8
Defpoints
 62
     0
100
AcDbPoint
 10
57.00786424159699
 20
4.762500000000061
 30
0.0
  0
POINT
  5
122
330
117
100
AcDbEntity
  8
Defpoints
 62
     0
100
AcDbPoint
 10
76.62074571577296
 20
4.762500000000134
 30
0.0
  0
ENDBLK
  5
119
330
117
100
AcDbEntity
  8
0
100
AcDbBlockEnd
  0
BLOCK
  5
12D
330
12C
100
AcDbEntity
  8
0
100
AcDbBlockBegin
  2
_D_1
 70
     0
 10
0.0
 20
0.0
 30
0.0
  3
_D_1
  1
_D_1
  0
LINE
  5
12F
330
12C
100
AcDbEntity
  8
치수문자_일반주서
 62
     0
370
    -2
100
AcDbLine
 10
-42.8
 20
4.325000000000053
 30
0.0
 11
-42.8
 21
37.41805141807184
 31
0.0
  0
LINE
  5
130
330
12C
100
AcDbEntity
  8
치수문자_일반주서
 62
     0
370
    -2
100
AcDbLine
 10
58.79999999999999
 20
4.063000000000061
 30
0.0
 11
58.79999999999999
 21
37.41805141807184
 31
0.0
  0
LINE
  5
131
330
12C
100
AcDbEntity
  8
치수문자_일반주서
 62
     0
370
    -2
100
AcDbLine
 10
-39.498
 20
37.41805141807184
 30
0.0
 11
55.49799999999999
 21
37.41805141807184
 31
0.0
  0
SOLID
  5
132
330
12C
100
AcDbEntity
  8
치수문자_일반주서
 62
     0
100
AcDbTrace
 10
-39.498
 20
37.96838475140517
 30
0.0
 11
-39.498
 21
36.86771808473851
 31
0.0
 12
-42.8
 22
37.41805141807184
 32
0.0
 13
-42.8
 23
37.41805141807184
 33
0.0
  0
SOLID
  5
133
330
12C
100
AcDbEntity
  8
치수문자_일반주서
 62
     0
100
AcDbTrace
 10
55.49799999999999
 20
36.86771808473851
 30
0.0
 11
55.49799999999999
 21
37.96838475140517
 31
0.0
 12
58.79999999999999
 22
37.41805141807184
 32
0.0
 13
58.79999999999999
 23
37.41805141807184
 33
0.0
  0
MTEXT
  5
134
330
12C
100
AcDbEntity
  8
치수문자_일반주서
 62
     0
100
AcDbMText
 10
7.999999999999998
 20
41.79305141807184
 30
0.0
 40
3.5
 41
0.0
 71
     2
 72
     1
  1
\A1;101.60 [4]
  7
SLDTEXTSTYLE0
 73
     1
 44
1.0
  0
POINT
  5
135
330
12C
100
AcDbEntity
  8
Defpoints
 62
     0
100
AcDbPoint
 10
-42.8
 20
4.262500000000053
 30
0.0
  0
POINT
  5
136
330
12C
100
AcDbEntity
  8
Defpoints
 62
     0
100
AcDbPoint
 10
58.79999999999999
 20
4.000500000000061
 30
0.0
  0
POINT
  5
137
330
12C
100
AcDbEntity
  8
Defpoints
 62
     0
100
AcDbPoint
 10
58.79999999999999
 20
37.41805141807184
 30
0.0
  0
ENDBLK
  5
12E
330
12C
100
AcDbEntity
  8
0
100
AcDbBlockEnd
  0
BLOCK
  5
140
330
13F
100
AcDbEntity
  8
0
100
AcDbBlockBegin
  2
_D_2
 70
     0
 10
0.0
 20
0.0
 30
0.0
  3
_D_2
  1
_D_2
  0
LINE
  5
142
330
13F
100
AcDbEntity
  8
치수문자_일반주서
 62
     0
370
    -2
100
AcDbLine
 10
58.79999999999999
 20
3.301000000000061
 30
0.0
 11
58.79999999999999
 21
21.627494530338
 31
0.0
  0
LINE
  5
143
330
13F
100
AcDbEntity
  8
치수문자_일반주서
 62
     0
370
    -2
100
AcDbLine
 10
7.999999999999986
 20
-4.69999999999994
 30
0.0
 11
7.999999999999986
 21
21.627494530338
 31
0.0
  0
LINE
  5
144
330
13F
100
AcDbEntity
  8
치수문자_일반주서
 62
     0
370
    -2
100
AcDbLine
 10
55.49799999999999
 20
21.627494530338
 30
0.0
 11
11.30199999999999
 21
21.627494530338
 31
0.0
  0
SOLID
  5
145
330
13F
100
AcDbEntity
  8
치수문자_일반주서
 62
     0
100
AcDbTrace
 10
55.49799999999999
 20
21.07716119700466
 30
0.0
 11
55.49799999999999
 21
22.17782786367133
 31
0.0
 12
58.79999999999999
 22
21.627494530338
 32
0.0
 13
58.79999999999999
 23
21.627494530338
 33
0.0
  0
SOLID
  5
146
330
13F
100
AcDbEntity
  8
치수문자_일반주서
 62
     0
100
AcDbTrace
 10
11.30199999999999
 20
22.17782786367133
 30
0.0
 11
11.30199999999999
 21
21.07716119700466
 31
0.0
 12
7.999999999999986
 22
21.627494530338
 32
0.0
 13
7.999999999999986
 23
21.627494530338
 33
0.0
  0
MTEXT
  5
147
330
13F
100
AcDbEntity
  8
치수문자_일반주서
 62
     0
100
AcDbMText
 10
32.84120226380296
 20
26.002494530338
 30
0.0
 40
3.5
 41
0.0
 71
     2
 72
     1
  1
\A1;50.80 [2]
  7
SLDTEXTSTYLE0
 73
     1
 44
1.0
  0
POINT
  5
148
330
13F
100
AcDbEntity
  8
Defpoints
 62
     0
100
AcDbPoint
 10
58.79999999999999
 20
3.238500000000061
 30
0.0
  0
POINT
  5
149
330
13F
100
AcDbEntity
  8
Defpoints
 62
     0
100
AcDbPoint
 10
7.999999999999986
 20
-4.76249999999994
 30
0.0
  0
POINT
  5
14A
330
13F
100
AcDbEntity
  8
Defpoints
 62
     0
100
AcDbPoint
 10
7.999999999999986
 20
21.627494530338
 30
0.0
  0
ENDBLK
  5
141
330
13F
100
AcDbEntity
  8
0
100
AcDbBlockEnd
  0
BLOCK
  5
153
330
152
100
AcDbEntity
  8
0
100
AcDbBlockBegin
  2
_D_3
 70
     0
 10
0.0
 20
0.0
 30
0.0
  3
_D_3
  1
_D_3
  0
LINE
  5
155
330
152
100
AcDbEntity
  8
치수문자_일반주서
 62
     0
370
    -2
100
AcDbLine
 10
-42.3625
 20
4.762500000000058
 30
0.0
 11
-55.80000000000003
 21
4.762500000000009
 31
0.0
  0
LINE
  5
156
330
152
100
AcDbEntity
  8
치수문자_일반주서
 62
     0
370
    -2
100
AcDbLine
 10
-42.3625
 20
-4.762499999999942
 30
0.0
 11
-55.8
 21
-4.762499999999991
 31
0.0
  0
LINE
  5
157
330
152
100
AcDbEntity
  8
치수문자_일반주서
 62
     0
370
    -2
100
AcDbLine
 10
-55.80000000000002
 20
1.460500000000009
 30
0.0
 11
-55.80000000000001
 21
-1.460499999999992
 31
0.0
  0
SOLID
  5
158
330
152
100
AcDbEntity
  8
치수문자_일반주서
 62
     0
100
AcDbTrace
 10
-55.24966666666668
 20
1.460500000000011
 30
0.0
 11
-56.35033333333335
 21
1.460500000000007
 31
0.0
 12
-55.80000000000003
 22
4.762500000000009
 32
0.0
 13
-55.80000000000003
 23
4.762500000000009
 33
0.0
  0
SOLID
  5
159
330
152
100
AcDbEntity
  8
치수문자_일반주서
 62
     0
100
AcDbTrace
 10
-56.35033333333335
 20
-1.460499999999994
 30
0.0
 11
-55.24966666666668
 21
-1.46049999999999
 31
0.0
 12
-55.8
 22
-4.762499999999991
 32
0.0
 13
-55.8
 23
-4.762499999999991
 33
0.0
  0
MTEXT
  5
15A
330
152
100
AcDbEntity
  8
치수문자_일반주서
 62
     0
100
AcDbMText
 10
-60.17500000000002
 20
0.0000000000000409
 30
0.0
 40
3.5
 41
0.0
 71
     2
 72
     1
  1
\A1;%%c9.53 [3/8]
  7
SLDTEXTSTYLE0
 11
-3.729883127349606E-15
 21
1.0
 31
0.0
 73
     1
 44
1.0
  0
POINT
  5
15B
330
152
100
AcDbEntity
  8
Defpoints
 62
     0
100
AcDbPoint
 10
-42.3
 20
4.762500000000058
 30
0.0
  0
POINT
  5
15C
330
152
100
AcDbEntity
  8
Defpoints
 62
     0
100
AcDbPoint
 10
-42.3
 20
-4.762499999999942
 30
0.0
  0
POINT
  5
15D
330
152
100
AcDbEntity
  8
Defpoints
 62
     0
100
AcDbPoint
 10
-55.8
 20
-4.762499999999993
 30
0.0
  0
ENDBLK
  5
154
330
152
100
AcDbEntity
  8
0
100
AcDbBlockEnd
  0
BLOCK
  5
166
330
165
100
AcDbEntity
  8
0
100
AcDbBlockBegin
  2
SW_DOWELSYMBOL_0
 70
     0
 10
0.0
 20
0.0
 30
0.0
  3
SW_DOWELSYMBOL_0
  1
SW_DOWELSYMBOL_0
  0
CIRCLE
  5
168
330
165
100
AcDbEntity
  8
외형선
 62
     0
100
AcDbCircle
 10
0.0
 20
0.0
 30
0.0
 40
3.000000000000004
  0
HATCH
  5
169
330
165
100
AcDbEntity
  8
0
  6
Continuous
 62
     0
370
    30
100
AcDbHatch
 10
0.0
 20
0.0
 30
0.0
210
0.0
220
0.0
230
1.0
  2
SOLID
 70
     1
 71
     0
 91
        1
 92
        0
 93
        3
 72
     2
 10
0.0
 20
0.0
 40
3.000000000000004
 50
0.0
 51
90.0
 73
     1
 72
     1
 10
0.0
 20
3.000000000000004
 11
0.0
 21
0.0
 72
     1
 10
0.0
 20
0.0
 11
3.000000000000006
 21
0.0
 97
        0
 75
     0
 76
     1
 98
        1
 10
0.0
 20
0.0
  0
HATCH
  5
16A
330
165
100
AcDbEntity
  8
0
  6
Continuous
 62
     0
370
    30
100
AcDbHatch
 10
0.0
 20
0.0
 30
0.0
210
0.0
220
0.0
230
1.0
  2
SOLID
 70
     1
 71
     0
 91
        1
 92
        0
 93
        3
 72
     2
 10
0.0
 20
0.0
 40
3.000000000000004
 50
180.0
 51
270.0000000000007
 73
     1
 72
     1
 10
0.0
 20
-3.000000000000004
 11
0.0
 21
0.0
 72
     1
 10
0.0
 20
0.0
 11
-3.000000000000006
 21
0.0
 97
        0
 75
     0
 76
     1
 98
        1
 10
0.0
 20
0.0
  0
ENDBLK
  5
167
330
165
100
AcDbEntity
  8
0
100
AcDbBlockEnd
  0
BLOCK
  5
19A
330
199
100
AcDbEntity
  8
0
100
AcDbBlockBegin
  2
*D7
 70
     1
 10
0.0
 20
0.0
 30
0.0
  3
*D7
  1
*D7
  0
LINE
  5
19C
330
199
100
AcDbEntity
  8
치수문자_일반주서
 62
     0
370
    -2
100
AcDbLine
 10
60.36752183804506
 20
6.944275050497659
 30
0.0
 11
81.8208000384616
 21
32.6600963421759
 31
0.0
  0
MTEXT
  5
19D
330
199
100
AcDbEntity
  8
치수문자_일반주서
 62
     0
100
AcDbMText
 10
70.13610935247965
 20
22.7515183596687
 30
0.0
 40
3.5
 41
0.0
 71
     5
 72
     1
  1
\A1;R1.52 [R0.060]
  7
SLDTEXTSTYLE0
 11
0.6405971483723717
 21
0.767877134375797
 31
0.0
 73
     1
 44
1.0
  0
SOLID
  5
19E
330
199
100
AcDbEntity
  8
치수문자_일반주서
 62
     0
100
AcDbTrace
 10
59.94493345509358
 20
7.296817014485254
 30
0.0
 11
60.79011022099654
 21
6.591733086510064
 31
0.0
 12
58.25227005411949
 22
4.408744752788778
 32
0.0
 13
58.25227005411949
 23
4.408744752788778
 33
0.0
  0
LINE
  5
19F
330
199
100
AcDbEntity
  8
치수문자_일반주서
 62
     0
100
AcDbLine
 10
57.18599999999999
 20
3.238500000000061
 30
0.0
 11
57.36599999999999
 21
3.238500000000061
 31
0.0
  0
LINE
  5
1A0
330
199
100
AcDbEntity
  8
치수문자_일반주서
 62
     0
100
AcDbLine
 10
57.27599999999999
 20
3.148500000000061
 30
0.0
 11
57.27599999999999
 21
3.328500000000061
 31
0.0
  0
POINT
  5
1A1
330
199
100
AcDbEntity
  8
Defpoints
 62
     0
100
AcDbPoint
 10
58.25227005411949
 20
4.408744752788778
 30
0.0
  0
POINT
  5
1A2
330
199
100
AcDbEntity
  8
Defpoints
 62
     0
100
AcDbPoint
 10
57.27599999999999
 20
3.238500000000061
 30
0.0
  0
ENDBLK
  5
19B
330
199
100
AcDbEntity
  8
0
100
AcDbBlockEnd
  0
ENDSEC
  0
SECTION
  2
ENTITIES
  0
LINE
  5
95
330
1F
100
AcDbEntity
  8
0
  6
Continuous
 62
     4
370
    15
100
AcDbLine
 10
7.999999999999986
 20
4.762500000000061
 30
0.0
 11
-18.11754999999988
 21
4.762500000000059
 31
0.0
  0
LINE
  5
96
330
1F
100
AcDbEntity
  8
0
  6
Continuous
 62
     4
370
    15
100
AcDbLine
 10
-42.3
 20
-4.762499999999942
 30
0.0
 11
7.999999999999986
 21
-4.76249999999994
 31
0.0
  0
LINE
  5
97
330
1F
100
AcDbEntity
  8
0
  6
Continuous
 62
     4
370
    15
100
AcDbLine
 10
-42.3
 20
4.762500000000055
 30
0.0
 11
-42.8
 21
4.262500000000053
 31
0.0
  0
LINE
  5
98
330
1F
100
AcDbEntity
  8
0
  6
Continuous
 62
     4
370
    15
100
AcDbLine
 10
-42.8
 20
-4.26249999999994
 30
0.0
 11
-42.3
 21
-4.76249999999994
 31
0.0
  0
LINE
  5
99
330
1F
100
AcDbEntity
  8
0
  6
Continuous
 62
     1
370
    15
100
AcDbLine
 10
46.76377782863485
 20
-4.76249999999994
 30
0.0
 11
48.39313415532498
 21
-4.76249999999994
 31
0.0
  0
LINE
  5
9A
330
1F
100
AcDbEntity
  8
0
  6
Continuous
 62
     1
370
    15
100
AcDbLine
 10
16.84135025569011
 20
-4.76249999999994
 30
0.0
 11
18.46847450891412
 21
-4.76249999999994
 31
0.0
  0
LINE
  5
9B
330
1F
100
AcDbEntity
  8
0
  6
Continuous
 62
     1
370
    15
100
AcDbLine
 10
33.43183942044945
 20
4.762500000000061
 30
0.0
 11
31.8026025048909
 21
4.762500000000061
 31
0.0
  0
LINE
  5
9C
330
1F
100
AcDbEntity
  8
0
  6
Continuous
 62
     1
370
    15
100
AcDbLine
 10
56.73972848319397
 20
-4.76249999999994
 30
0.0
 11
57.27599999999999
 21
-4.76249999999994
 31
0.0
  0
LINE
  5
9D
330
1F
100
AcDbEntity
  8
0
  6
Continuous
 62
     1
370
    15
100
AcDbLine
 10
26.81638381330416
 20
-4.76249999999994
 30
0.0
 11
28.44339107399353
 21
-4.76249999999994
 31
0.0
  0
LINE
  5
9E
330
1F
100
AcDbEntity
  8
0
  6
Continuous
 62
     1
370
    15
100
AcDbLine
 10
13.48092994399125
 20
4.762500000000061
 30
0.0
 11
11.85437637866337
 21
4.762500000000061
 31
0.0
  0
LINE
  5
9F
330
1F
100
AcDbEntity
  8
0
  6
Continuous
 62
     1
370
    15
100
AcDbLine
 10
43.40669177997783
 20
4.762500000000061
 30
0.0
 11
41.77645679236561
 21
4.762500000000061
 31
0.0
  0
LINE
  5
A0
330
1F
100
AcDbEntity
  8
0
  6
Continuous
 62
     1
370
    15
100
AcDbLine
 10
51.75112994564655
 20
-4.76249999999994
 30
0.0
 11
53.38039072757324
 21
-4.76249999999994
 31
0.0
  0
LINE
  5
A1
330
1F
100
AcDbEntity
  8
0
  6
Continuous
 62
     1
370
    15
100
AcDbLine
 10
21.82860445910511
 20
-4.76249999999994
 30
0.0
 11
23.45631505660442
 21
-4.76249999999994
 31
0.0
  0
LINE
  5
A2
330
1F
100
AcDbEntity
  8
0
  6
Continuous
 62
     1
370
    15
100
AcDbLine
 10
8.494620584046372
 20
4.762500000000061
 30
0.0
 11
7.999999999999988
 21
4.762500000000061
 31
0.0
  0
LINE
  5
A3
330
1F
100
AcDbEntity
  8
0
  6
Continuous
 62
     1
370
    15
100
AcDbLine
 10
38.41854664191625
 20
4.762500000000061
 30
0.0
 11
36.79039100181661
 21
4.762500000000061
 31
0.0
  0
LINE
  5
A4
330
1F
100
AcDbEntity
  8
0
  6
Continuous
 62
     1
370
    15
100
AcDbLine
 10
41.77645679236562
 20
-4.76249999999994
 30
0.0
 11
43.4066917799778
 21
-4.76249999999994
 31
0.0
  0
LINE
  5
A5
330
1F
100
AcDbEntity
  8
0
  6
Continuous
 62
     1
370
    15
100
AcDbLine
 10
11.85437637866334
 20
-4.76249999999994
 30
0.0
 11
13.48092994399121
 21
-4.76249999999994
 31
0.0
  0
LINE
  5
A6
330
1F
100
AcDbEntity
  8
0
  6
Continuous
 62
     1
370
    15
100
AcDbLine
 10
28.44339107399349
 20
4.762500000000061
 30
0.0
 11
26.81638381330412
 21
4.762500000000061
 31
0.0
  0
LINE
  5
A7
330
1F
100
AcDbEntity
  8
0
  6
Continuous
 62
     1
370
    15
100
AcDbLine
 10
57.27599999999999
 20
4.762500000000061
 30
0.0
 11
56.739728483194
 21
4.762500000000061
 31
0.0
  0
LINE
  5
A8
330
1F
100
AcDbEntity
  8
0
  6
Continuous
 62
     1
370
    15
100
AcDbLine
 10
36.79039100181662
 20
-4.76249999999994
 30
0.0
 11
38.41854664191624
 21
-4.76249999999994
 31
0.0
  0
LINE
  5
A9
330
1F
100
AcDbEntity
  8
0
  6
Continuous
 62
     1
370
    15
100
AcDbLine
 10
7.999999999999988
 20
-4.76249999999994
 30
0.0
 11
8.494620584046347
 21
-4.76249999999994
 31
0.0
  0
LINE
  5
AA
330
1F
100
AcDbEntity
  8
0
  6
Continuous
 62
     1
370
    15
100
AcDbLine
 10
23.45631505660442
 20
4.762500000000061
 30
0.0
 11
21.82860445910515
 21
4.762500000000061
 31
0.0
  0
LINE
  5
AB
330
1F
100
AcDbEntity
  8
0
  6
Continuous
 62
     1
370
    15
100
AcDbLine
 10
53.38039072757322
 20
4.762500000000061
 30
0.0
 11
51.75112994564657
 21
4.762500000000061
 31
0.0
  0
LINE
  5
AC
330
1F
100
AcDbEntity
  8
0
  6
Continuous
 62
     1
370
    15
100
AcDbLine
 10
31.80260250489093
 20
-4.76249999999994
 30
0.0
 11
33.43183942044947
 21
-4.76249999999994
 31
0.0
  0
LINE
  5
AD
330
1F
100
AcDbEntity
  8
0
  6
Continuous
 62
     1
370
    15
100
AcDbLine
 10
18.46847450891418
 20
4.762500000000061
 30
0.0
 11
16.84135025569014
 21
4.762500000000061
 31
0.0
  0
LINE
  5
AE
330
1F
100
AcDbEntity
  8
0
  6
Continuous
 62
     1
370
    15
100
AcDbLine
 10
48.39313415532499
 20
4.762500000000061
 30
0.0
 11
46.76377782863489
 21
4.762500000000061
 31
0.0
  0
SPLINE
  5
B6
330
1F
100
AcDbEntity
  8
0
  6
Continuous
 62
     4
370
    15
100
AcDbSpline
210
0.0
220
0.0
230
1.0
 70
     8
 71
     3
 72
    12
 73
     8
 74
     0
 42
0.000000001
 43
0.00000001
 40
0.0
 40
0.0
 40
0.0
 40
0.0
 40
0.4999999999999999
 40
0.4999999999999999
 40
0.7499999999999999
 40
0.7499999999999999
 40
1.0
 40
1.0
 40
1.0
 40
1.0
 10
6.796354753932473
 20
-0.7908778796112138
 30
0.0
 10
6.662997641039288
 20
-0.6594396131283113
 30
0.0
 10
6.575522601837319
 20
-0.4902384786692238
 30
0.0
 10
6.506534977515775
 20
-0.2198414953642744
 30
0.0
 10
6.493421806270721
 20
-0.1263146296376412
 30
0.0
 10
6.48020055756376
 20
0.0599043489721022
 30
0.0
 10
6.480079250343106
 20
0.1533687759114206
 30
0.0
 10
6.480079250343117
 20
0.2468244921365602
 30
0.0
  0
SPLINE
  5
B7
330
1F
100
AcDbEntity
  8
0
  6
Continuous
 62
     4
370
    15
100
AcDbSpline
210
0.0
220
0.0
230
1.0
 70
     8
 71
     3
 72
    14
 73
    10
 74
     0
 42
0.000000001
 43
0.00000001
 40
0.0
 40
0.0
 40
0.0
 40
0.0
 40
0.2500000000000001
 40
0.2500000000000001
 40
0.5000000000000001
 40
0.5000000000000001
 40
0.7500000000000002
 40
0.7500000000000002
 40
1.0
 40
1.0
 40
1.0
 40
1.0
 10
6.480079250343119
 20
0.2468244921365605
 30
0.0
 10
6.48007925034314
 20
0.4500871987905086
 30
0.0
 10
6.483900782815734
 20
0.6533136476828014
 30
0.0
 10
6.599090696797651
 20
1.039838474815881
 30
0.0
 10
6.708972192077763
 20
1.214547239526856
 30
0.0
 10
7.026869321566657
 20
1.461518496209392
 30
0.0
 10
7.22924851136052
 20
1.529498851801211
 30
0.0
 10
7.638228454214827
 20
1.528996497982956
 30
0.0
 10
7.840323785950908
 20
1.460937887412208
 30
0.0
 10
7.999999999999888
 20
1.335878185365861
 30
0.0
  0
SPLINE
  5
B8
330
1F
100
AcDbEntity
  8
0
  6
Continuous
 62
     1
370
    15
100
AcDbSpline
210
0.0
220
0.0
230
1.0
 70
    24
 71
     3
 72
     8
 73
     4
 74
     0
 42
0.000000001
 43
0.00000001
 40
0.0
 40
0.0
 40
0.0
 40
0.0
 40
1.0
 40
1.0
 40
1.0
 40
1.0
 10
7.999999999999988
 20
1.33587818536612
 30
0.0
 10
7.999999999999988
 20
1.256441828740423
 30
0.0
 10
7.999999999999988
 20
1.169888047900129
 30
0.0
 10
7.999999999999988
 20
1.075251690295019
 30
0.0
  0
LINE
  5
B9
330
1F
100
AcDbEntity
  8
0
  6
Continuous
 62
     4
370
    15
100
AcDbLine
 10
-42.3
 20
4.762500000000055
 30
0.0
 11
-42.3
 21
-4.762499999999942
 31
0.0
  0
SPLINE
  5
BA
330
1F
100
AcDbEntity
  8
0
  6
Continuous
 62
     4
370
    15
100
AcDbSpline
210
0.0
220
0.0
230
1.0
 70
     8
 71
     3
 72
    10
 73
     6
 74
     0
 42
0.000000001
 43
0.00000001
 40
0.0
 40
0.0
 40
0.0
 40
0.0
 40
0.5
 40
0.5
 40
1.0
 40
1.0
 40
1.0
 40
1.0
 10
7.999999999999767
 20
-1.940316489463634
 30
0.0
 10
7.798586033866956
 20
-1.756830134361064
 30
0.0
 10
7.596347197698316
 20
-1.567895275174167
 30
0.0
 10
7.195055842875494
 20
-1.183681992796046
 30
0.0
 10
6.99717835235549
 20
-0.9888118710791142
 30
0.0
 10
6.796354753932473
 20
-0.7908778796112145
 30
0.0
  0
LINE
  5
BB
330
1F
100
AcDbEntity
  8
0
  6
Continuous
 62
     4
370
    15
100
AcDbLine
 10
7.999999999999989
 20
-1.940316489463832
 30
0.0
 11
7.999999999999986
 21
-3.290927764499295
 31
0.0
  0
SPLINE
  5
BC
330
1F
100
AcDbEntity
  8
0
  6
Continuous
 62
     4
370
    15
100
AcDbSpline
210
0.0
220
0.0
230
1.0
 70
     8
 71
     3
 72
    14
 73
    10
 74
     0
 42
0.000000001
 43
0.00000001
 40
0.0
 40
0.0
 40
0.0
 40
0.0
 40
0.25
 40
0.25
 40
0.5
 40
0.5
 40
0.75
 40
0.75
 40
1.0
 40
1.0
 40
1.0
 40
1.0
 10
6.480079250343119
 20
-3.995490877344632
 30
0.0
 10
6.480079250343142
 20
-3.884724164523226
 30
0.0
 10
6.483900782815732
 20
-3.762336628146354
 30
0.0
 10
6.599090696797653
 20
-3.50860821710998
 30
0.0
 10
6.708972192077766
 20
-3.382353876271192
 30
0.0
 10
7.026869321566661
 20
-3.196255402851628
 30
0.0
 10
7.229248511360524
 20
-3.141211363330561
 30
0.0
 10
7.638228454214829
 20
-3.141610047270182
 30
0.0
 10
7.840323785950909
 20
-3.196747847840288
 30
0.0
 10
7.999999999999888
 20
-3.290927764499472
 30
0.0
  0
SPLINE
  5
BD
330
1F
100
AcDbEntity
  8
0
  6
Continuous
 62
     4
370
    15
100
AcDbSpline
210
0.0
220
0.0
230
1.0
 70
     8
 71
     3
 72
    12
 73
     8
 74
     0
 42
0.000000001
 43
0.00000001
 40
0.0
 40
0.0
 40
0.0
 40
0.0
 40
0.4999999999999998
 40
0.4999999999999998
 40
0.7499999999999999
 40
0.7499999999999999
 40
1.0
 40
1.0
 40
1.0
 40
1.0
 10
6.796354753932473
 20
-4.462617178112332
 30
0.0
 10
6.662997641039286
 20
-4.416067038348355
 30
0.0
 10
6.575522601837317
 20
-4.350637422855664
 30
0.0
 10
6.506534977515775
 20
-4.230712634351154
 30
0.0
 10
6.493421806270717
 20
-4.186940832062812
 30
0.0
 10
6.480200557563757
 20
-4.094955780616616
 30
0.0
 10
6.480079250343108
 20
-4.046418972571923
 30
0.0
 10
6.480079250343119
 20
-3.995490877344631
 30
0.0
  0
SPLINE
  5
BE
330
1F
100
AcDbEntity
  8
0
  6
Continuous
 62
     4
370
    15
100
AcDbSpline
210
0.0
220
0.0
230
1.0
 70
     8
 71
     3
 72
    10
 73
     6
 74
     0
 42
0.000000001
 43
0.00000001
 40
0.0
 40
0.0
 40
0.0
 40
0.0
 40
0.5
 40
0.5
 40
1.0
 40
1.0
 40
1.0
 40
1.0
 10
7.999999999999769
 20
-4.736779227527434
 30
0.0
 10
7.798586033866956
 20
-4.715926166480422
 30
0.0
 10
7.596347197698316
 20
-4.682348828995558
 30
0.0
 10
7.195055842875496
 20
-4.590644098522193
 30
0.0
 10
6.99717835235549
 20
-4.532717425273391
 30
0.0
 10
6.796354753932473
 20
-4.462617178112332
 30
0.0
  0
LINE
  5
BF
330
1F
100
AcDbEntity
  8
0
  6
Continuous
 62
     4
370
    15
100
AcDbLine
 10
7.999999999999989
 20
-4.736779227527453
 30
0.0
 11
7.999999999999986
 21
-4.76249999999994
 31
0.0
  0
LINE
  5
C0
330
1F
100
AcDbEntity
  8
0
  6
Continuous
 62
     1
370
    15
100
AcDbLine
 10
7.999999999999986
 20
4.762500000000061
 30
0.0
 11
7.999999999999986
 21
4.626805949865494
 31
0.0
  0
SPLINE
  5
C1
330
1F
100
AcDbEntity
  8
0
  6
Continuous
 62
     4
370
    15
100
AcDbSpline
210
0.0
220
0.0
230
1.0
 70
     8
 71
     3
 72
    14
 73
    10
 74
     0
 42
0.000000001
 43
0.00000001
 40
0.0
 40
0.0
 40
0.0
 40
0.0
 40
0.2499999999999999
 40
0.2499999999999999
 40
0.4999999999999999
 40
0.4999999999999999
 40
0.7499999999999999
 40
0.7499999999999999
 40
1.0
 40
1.0
 40
1.0
 40
1.0
 10
6.480079250343117
 20
4.242315369481293
 30
0.0
 10
6.48007925034314
 20
4.334811363313836
 30
0.0
 10
6.483900782815734
 20
4.415650275829259
 30
0.0
 10
6.599090696797653
 20
4.548446691925968
 30
0.0
 10
6.708972192077765
 20
4.596901115798154
 30
0.0
 10
7.026869321566659
 20
4.657773899061125
 30
0.0
 10
7.229248511360522
 20
4.670710215131876
 30
0.0
 10
7.638228454214827
 20
4.670606545253242
 30
0.0
 10
7.840323785950909
 20
4.657685735252601
 30
0.0
 10
7.999999999999888
 20
4.626805949865437
 30
0.0
  0
SPLINE
  5
C2
330
1F
100
AcDbEntity
  8
0
  6
Continuous
 62
     4
370
    15
100
AcDbSpline
210
0.0
220
0.0
230
1.0
 70
     8
 71
     3
 72
    12
 73
     8
 74
     0
 42
0.000000001
 43
0.00000001
 40
0.0
 40
0.0
 40
0.0
 40
0.0
 40
0.4999999999999994
 40
0.4999999999999994
 40
0.7499999999999997
 40
0.7499999999999997
 40
1.0
 40
1.0
 40
1.0
 40
1.0
 10
6.796354753932473
 20
3.671739298501205
 30
0.0
 10
6.662997641039286
 20
3.756627425220132
 30
0.0
 10
6.575522601837319
 20
3.860398944186532
 30
0.0
 10
6.506534977515775
 20
4.010871138986976
 30
0.0
 10
6.493421806270719
 20
4.060626202425266
 30
0.0
 10
6.480200557563759
 20
4.154860129588817
 30
0.0
 10
6.480079250343106
 20
4.199787748483443
 30
0.0
 10
6.480079250343117
 20
4.242315369481293
 30
0.0
  0
SPLINE
  5
C3
330
1F
100
AcDbEntity
  8
0
  6
Continuous
 62
     4
370
    15
100
AcDbSpline
210
0.0
220
0.0
230
1.0
 70
     8
 71
     3
 72
    10
 73
     6
 74
     0
 42
0.000000001
 43
0.00000001
 40
0.0
 40
0.0
 40
0.0
 40
0.0
 40
0.5
 40
0.5
 40
1.0
 40
1.0
 40
1.0
 40
1.0
 10
7.999999999999767
 20
2.796462738063874
 30
0.0
 10
7.798586033866956
 20
2.959096032119434
 30
0.0
 10
7.596347197698316
 20
3.114453553821469
 30
0.0
 10
7.195055842875494
 20
3.40696210572623
 30
0.0
 10
6.99717835235549
 20
3.543905554194361
 30
0.0
 10
6.796354753932473
 20
3.671739298501203
 30
0.0
  0
LINE
  5
C4
330
1F
100
AcDbEntity
  8
0
  6
Continuous
 62
     1
370
    15
100
AcDbLine
 10
7.999999999999989
 20
2.796462738063696
 30
0.0
 11
7.999999999999986
 21
1.335878185366095
 31
0.0
  0
LINE
  5
C5
330
1F
100
AcDbEntity
  8
0
  6
Continuous
 62
     4
370
    15
100
AcDbLine
 10
-42.8
 20
4.262500000000053
 30
0.0
 11
-42.8
 21
-4.262499999999943
 31
0.0
  0
SPLINE
  5
C6
330
1F
100
AcDbEntity
  8
0
  6
Continuous
 62
     1
370
    15
100
AcDbSpline
210
0.0
220
0.0
230
1.0
 70
    24
 71
     3
 72
    14
 73
    10
 74
     0
 42
0.000000001
 43
0.00000001
 40
0.0
 40
0.0
 40
0.0
 40
0.0
 40
0.2500000000000001
 40
0.2500000000000001
 40
0.5000000000000001
 40
0.5000000000000001
 40
0.7500000000000001
 40
0.7500000000000001
 40
1.0
 40
1.0
 40
1.0
 40
1.0
 10
7.999999999999986
 20
1.07525169029523
 30
0.0
 10
7.999999999999986
 20
0.9249198296031091
 30
0.0
 10
7.999999999999986
 20
0.7441195409965154
 30
0.0
 10
7.999999999999986
 20
0.3135189008036654
 30
0.0
 10
7.999999999999988
 20
0.0629888893663362
 30
0.0
 10
7.999999999999988
 20
-0.4905853272751565
 30
0.0
 10
7.999999999999988
 20
-0.7937236996816822
 30
0.0
 10
7.999999999999988
 20
-1.39360784776634
 30
0.0
 10
7.999999999999989
 20
-1.68869606433579
 30
0.0
 10
7.999999999999989
 20
-1.940316489463833
 30
0.0
  0
SPLINE
  5
C7
330
1F
100
AcDbEntity
  8
0
  6
Continuous
 62
     1
370
    15
100
AcDbSpline
210
0.0
220
0.0
230
1.0
 70
    24
 71
     3
 72
    11
 73
     7
 74
     0
 42
0.000000001
 43
0.00000001
 40
0.0
 40
0.0
 40
0.0
 40
0.0
 40
0.2376606677575384
 40
0.5457188510161487
 40
0.8537770342747584
 40
1.0
 40
1.0
 40
1.0
 40
1.0
 10
7.999999999999984
 20
4.278476289108164
 30
0.0
 10
7.999999999999984
 20
4.091627157526599
 30
0.0
 10
7.999999999999986
 20
3.662582274491581
 30
0.0
 10
7.999999999999986
 20
3.152908882462324
 30
0.0
 10
7.999999999999989
 20
2.833645100507372
 30
0.0
 10
7.999999999999989
 20
2.814203014846864
 30
0.0
 10
7.999999999999989
 20
2.80794504127362
 30
0.0
  0
SPLINE
  5
C8
330
1F
100
AcDbEntity
  8
0
  6
Continuous
 62
     4
370
    15
100
AcDbSpline
210
0.0
220
0.0
230
1.0
 70
    24
 71
     3
 72
    12
 73
     8
 74
     0
 42
0.000000001
 43
0.00000001
 40
0.0
 40
0.0
 40
0.0
 40
0.0
 40
0.0624622312003925
 40
0.3468814910615579
 40
0.6313007509227225
 40
0.915720010783888
 40
1.0
 40
1.0
 40
1.0
 40
1.0
 10
7.999999999999986
 20
-3.193360803513935
 30
0.0
 10
7.999999999999986
 20
-3.190700365119338
 30
0.0
 10
7.999999999999986
 20
-3.175925727398909
 30
0.0
 10
7.999999999999988
 20
-3.37669665558697
 30
0.0
 10
7.999999999999989
 20
-3.832793102968363
 30
0.0
 10
7.999999999999989
 20
-4.343006270253187
 30
0.0
 10
7.999999999999989
 20
-4.663514985400805
 30
0.0
 10
7.999999999999989
 20
-4.736779227527453
 30
0.0
  0
SPLINE
  5
C9
330
1F
100
AcDbEntity
  8
0
  6
Continuous
 62
     1
370
    15
100
AcDbSpline
210
0.0
220
0.0
230
1.0
 70
    24
 71
     3
 72
     8
 73
     4
 74
     0
 42
0.000000001
 43
0.00000001
 40
0.0
 40
0.0
 40
0.0
 40
0.0
 40
1.0
 40
1.0
 40
1.0
 40
1.0
 10
7.999999999999988
 20
4.626805949865579
 30
0.0
 10
7.999999999999988
 20
4.507745823703213
 30
0.0
 10
7.999999999999988
 20
4.391508348994855
 30
0.0
 10
7.999999999999988
 20
4.278476289107771
 30
0.0
  0
SPLINE
  5
CA
330
1F
100
AcDbEntity
  8
0
  6
Continuous
 62
     1
370
    15
100
AcDbSpline
210
0.0
220
0.0
230
1.0
 70
     8
 71
     3
 72
    24
 73
    20
 74
     0
 42
0.000000001
 43
0.00000001
 40
0.0
 40
0.0
 40
0.0
 40
0.0
 40
0.0305378840487218
 40
0.0908686364073776
 40
0.1513094559960425
 40
0.2116373730441348
 40
0.271917563597142
 40
0.3374037812364117
 40
0.4029736081068871
 40
0.4684952515306631
 40
0.5339519190913629
 40
0.5993959478098938
 40
0.6648798501775205
 40
0.7304479268296101
 40
0.7959727468135843
 40
0.8614307917871663
 40
0.9268743796607913
 40
0.9923560290499605
 40
1.0
 40
1.0
 40
1.0
 40
1.0
 10
8.494620584046361
 20
4.736092932311041
 30
0.0
 10
8.663902105170314
 20
4.741045689917547
 30
0.0
 10
9.167616801609606
 20
4.755783133069849
 30
0.0
 10
10.00654319662419
 20
4.550870172073655
 30
0.0
 10
11.01238182522679
 20
4.145401629733581
 30
0.0
 10
12.01618802629937
 20
3.544783678852066
 30
0.0
 10
13.04759331608898
 20
2.768731105876907
 30
0.0
 10
14.10895143560218
 20
1.83393474842341
 30
0.0
 10
15.20035780545367
 20
0.7791291713916744
 30
0.0
 10
16.29091327479765
 20
-0.3169043709168067
 30
0.0
 10
17.38014509591444
 20
-1.396293718109587
 30
0.0
 10
18.46910962613257
 20
-2.402773751090214
 30
0.0
 10
19.55891615127044
 20
-3.28412257348063
 30
0.0
 10
20.65032994465884
 20
-3.994140048517907
 30
0.0
 10
21.74093788968498
 20
-4.494544868172994
 30
0.0
 10
22.83019092284275
 20
-4.766581231146341
 30
0.0
 10
23.91918664893637
 20
-4.767181458664039
 30
0.0
 10
24.6875962863334
 20
-4.652431125449828
 30
0.0
 10
25.0934913897013
 20
-4.475848787593076
 30
0.0
 10
25.13592043665522
 20
-4.457390273947573
 30
0.0
  0
SPLINE
  5
CB
330
1F
100
AcDbEntity
  8
0
  6
Continuous
 62
     1
370
    15
100
AcDbSpline
210
0.0
220
0.0
230
1.0
 70
     8
 71
     3
 72
    23
 73
    19
 74
     0
 42
0.000000001
 43
0.00000001
 40
0.0
 40
0.0
 40
0.0
 40
0.0
 40
0.0457956616743466
 40
0.1112429282225941
 40
0.1767228185093627
 40
0.2422860085622147
 40
0.3078287805409187
 40
0.3732975870753638
 40
0.4387446646557226
 40
0.5042225513592588
 40
0.5697827325624425
 40
0.635328988875658
 40
0.7007994863085447
 40
0.7662464379085603
 40
0.8317223835033279
 40
0.8897019815183373
 40
0.9475769214216394
 40
0.9999999999999999
 40
0.9999999999999999
 40
0.9999999999999999
 40
0.9999999999999999
 10
38.41854664191625
 20
4.736336903262925
 30
0.0
 10
38.67252530385174
 20
4.734970595924207
 30
0.0
 10
39.2894686785467
 20
4.731651678287598
 30
0.0
 10
40.26928058575938
 20
4.440004184924298
 30
0.0
 10
41.35892511757294
 20
3.917948196558399
 30
0.0
 10
42.4501584025987
 20
3.182788344240927
 30
0.0
 10
43.54101588144108
 20
2.283929500836257
 30
0.0
 10
44.63041071614992
 20
1.265131702992961
 30
0.0
 10
45.71934012499541
 20
0.1807722082808485
 30
0.0
 10
46.80892806820784
 20
-0.9134091286355704
 30
0.0
 10
47.90010851847486
 20
-1.959477690610675
 30
0.0
 10
48.99103338078702
 20
-2.903517284290209
 30
0.0
 10
50.08045272083037
 20
-3.696372937321753
 30
0.0
 10
51.16942335734262
 20
-4.295907143394622
 30
0.0
 10
52.2167930860995
 20
-4.658398797492817
 30
0.0
 10
53.22373013523148
 20
-4.789686508784466
 30
0.0
 10
54.1566805811963
 20
-4.738472699421084
 30
0.0
 10
54.76794204923777
 20
-4.550884521197985
 30
0.0
 10
55.05846592638603
 20
-4.461726529579161
 30
0.0
  0
SPLINE
  5
CC
330
1F
100
AcDbEntity
  8
0
  6
Continuous
 62
     1
370
    15
100
AcDbSpline
210
0.0
220
0.0
230
1.0
 70
     8
 71
     3
 72
    23
 73
    19
 74
     0
 42
0.000000001
 43
0.00000001
 40
0.0
 40
0.0
 40
0.0
 40
0.0
 40
0.0503536380745319
 40
0.1106830274322987
 40
0.1709646891302102
 40
0.2364525049680834
 40
0.3020239320776548
 40
0.3675471745646043
 40
0.4330054396027344
 40
0.4984510654902432
 40
0.5639365659999686
 40
0.62950624284844
 40
0.695032661973112
 40
0.76049230445774
 40
0.8259374894895838
 40
0.8914207369658675
 40
0.9569884117728986
 40
1.0
 40
1.0
 40
1.0
 40
1.0
 10
10.17422068945347
 20
4.455616907680659
 30
0.0
 10
10.4537737305545
 20
4.544295031024826
 30
0.0
 10
11.06826313191948
 20
4.739219638939336
 30
0.0
 10
12.01620317931553
 20
4.791650065789924
 30
0.0
 10
13.047588865316
 20
4.651787350045454
 30
0.0
 10
14.10895267161851
 20
4.274697120953244
 30
0.0
 10
15.20035747364286
 20
3.666491362781969
 30
0.0
 10
16.29091336619943
 20
2.866313186199227
 30
0.0
 10
17.38014506167836
 20
1.916784807190612
 30
0.0
 10
18.46910967174314
 20
0.8674153442343225
 30
0.0
 10
19.55891600289492
 20
-0.2275892338075765
 30
0.0
 10
20.65033049311071
 20
-1.309990821738418
 30
0.0
 10
21.74093584689135
 20
-2.324765790925098
 30
0.0
 10
22.83019853701281
 20
-3.217513638775247
 30
0.0
 10
23.91915823158022
 20
-3.944993880323261
 30
0.0
 10
25.00889866593957
 20
-4.457084508499439
 30
0.0
 10
25.97532726728027
 20
-4.736948558425857
 30
0.0
 10
26.57774686699565
 20
-4.735117136488967
 30
0.0
 10
26.81638381330415
 20
-4.734391653887424
 30
0.0
  0
SPLINE
  5
CD
330
1F
100
AcDbEntity
  8
0
  6
Continuous
 62
     1
370
    15
100
AcDbSpline
210
0.0
220
0.0
230
1.0
 70
     8
 71
     3
 72
    24
 73
    20
 74
     0
 42
0.000000001
 43
0.00000001
 40
0.0
 40
0.0
 40
0.0
 40
0.0
 40
0.0103802378139335
 40
0.0758496693687908
 40
0.1414023873847324
 40
0.2069346905877887
 40
0.2723930401606681
 40
0.3378296642501032
 40
0.4032970925417499
 40
0.4688468021886096
 40
0.5343825891696447
 40
0.599842629370888
 40
0.6652791275001024
 40
0.7307446149930222
 40
0.7887149522553131
 40
0.8465806481223452
 40
0.9043847946882722
 40
0.9622938547295358
 40
1.0
 40
1.0
 40
1.0
 40
1.0
 10
40.09644062956325
 20
4.45385296425082
 30
0.0
 10
40.15400633023592
 20
4.478617865548426
 30
0.0
 10
40.5746459573111
 20
4.659578033229053
 30
0.0
 10
41.35892582129939
 20
4.772442480609938
 30
0.0
 10
42.45015821395619
 20
4.760015821449032
 30
0.0
 10
43.54101593205391
 20
4.477993918789313
 30
0.0
 10
44.63041070209361
 20
3.968040208867395
 30
0.0
 10
45.71934013065261
 20
3.249762743666901
 30
0.0
 10
46.80892805963005
 20
2.362134016869191
 30
0.0
 10
47.90010854715756
 20
1.3516000314925
 30
0.0
 10
48.99103327472564
 20
0.2704712047668278
 30
0.0
 10
50.08045311584785
 20
-0.8250316571953461
 30
0.0
 10
51.16942188343902
 20
-1.877110896774096
 30
0.0
 10
52.21679832324047
 20
-2.795243509607607
 30
0.0
 10
53.2237130765999
 20
-3.545903778009288
 30
0.0
 10
54.18662880099408
 20
-4.123705596560225
 30
0.0
 10
55.14842033011669
 20
-4.525659210101724
 30
0.0
 10
55.99983842983393
 20
-4.743095657611733
 30
0.0
 10
56.53047166337976
 20
-4.741140602454796
 30
0.0
 10
56.73972848319399
 20
-4.740369620543302
 30
0.0
  0
SPLINE
  5
CE
330
1F
100
AcDbEntity
  8
0
  6
Continuous
 62
     1
370
    15
100
AcDbSpline
210
0.0
220
0.0
230
1.0
 70
     8
 71
     3
 72
    20
 73
    16
 74
     0
 42
0.000000001
 43
0.00000001
 40
0.0
 40
0.0
 40
0.0
 40
0.0
 40
0.1250000000000001
 40
0.1250000000000001
 40
0.2500000000000002
 40
0.2500000000000002
 40
0.3750000000000002
 40
0.3750000000000002
 40
0.5000000000000003
 40
0.5000000000000003
 40
0.6250000000000004
 40
0.6250000000000004
 40
0.7500000000000004
 40
0.7500000000000004
 40
1.0
 40
1.0
 40
1.0
 40
1.0
 10
58.79999999999999
 20
2.250919584899867
 30
0.0
 10
58.79999999999998
 20
2.222934465777517
 30
0.0
 10
58.79828212544998
 20
2.197907698322087
 30
0.0
 10
58.78794548140526
 20
2.156593745859801
 30
0.0
 10
58.77920317419711
 20
2.140092150184706
 30
0.0
 10
58.74916414674198
 20
2.123114161549806
 30
0.0
 10
58.7272695267055
 20
2.122942277597131
 30
0.0
 10
58.66747363121961
 20
2.145424868626947
 30
0.0
 10
58.62911484786125
 20
2.168389960364181
 30
0.0
 10
58.54309056517608
 20
2.230247638828032
 30
0.0
 10
58.49716229125808
 20
2.267439015244332
 30
0.0
 10
58.40360850339417
 20
2.34598618414011
 30
0.0
 10
58.35701351045501
 20
2.386482478925149
 30
0.0
 10
58.21624808492884
 20
2.508985683415727
 30
0.0
 10
58.12619975754109
 20
2.587397928189019
 30
0.0
 10
58.03799999999998
 20
2.660316621281766
 30
0.0
  0
SPLINE
  5
CF
330
1F
100
AcDbEntity
  8
0
  6
Continuous
 62
     1
370
    15
100
AcDbSpline
210
0.0
220
0.0
230
1.0
 70
     8
 71
     3
 72
    10
 73
     6
 74
     0
 42
0.000000001
 43
0.00000001
 40
0.0
 40
0.0
 40
0.0
 40
0.0
 40
0.4612114602859346
 40
0.9228119210613246
 40
1.0
 40
1.0
 40
1.0
 40
1.0
 10
7.999999999999769
 20
-4.736779227527431
 30
0.0
 10
8.334155790033519
 20
-4.747868911293549
 30
0.0
 10
9.002749207776512
 20
-4.770057632219586
 30
0.0
 10
9.727306646117123
 20
-4.643739084663873
 30
0.0
 10
10.11821785523665
 20
-4.47919051259896
 30
0.0
 10
10.17422068945347
 20
-4.455616907680539
 30
0.0
  0
SPLINE
  5
D0
330
1F
100
AcDbEntity
  8
0
  6
Continuous
 62
     1
370
    15
100
AcDbSpline
210
0.0
220
0.0
230
1.0
 70
     8
 71
     3
 72
    23
 73
    19
 74
     0
 42
0.000000001
 43
0.00000001
 40
0.0
 40
0.0
 40
0.0
 40
0.0
 40
0.0278149142262092
 40
0.0933053673590228
 40
0.1588802571128121
 40
0.2244171252548841
 40
0.2898854111283594
 40
0.3553374196968899
 40
0.4208256818873378
 40
0.4863983176115238
 40
0.5519384859334215
 40
0.6174082748443777
 40
0.6828599684603434
 40
0.7483461020838297
 40
0.8139162320557796
 40
0.8794597620724066
 40
0.9449311167035306
 40
1.0
 40
1.0
 40
1.0
 40
1.0
 10
23.45631505660442
 20
4.732077907436261
 30
0.0
 10
23.61053311569548
 20
4.739293486622814
 30
0.0
 10
24.12785891220389
 20
4.763498208637564
 30
0.0
 10
25.00891762156291
 20
4.541581817453917
 30
0.0
 10
26.10029119450138
 20
4.085529086521642
 30
0.0
 10
27.19095855580514
 20
3.401453949375394
 30
0.0
 10
28.28025318452938
 20
2.543879671538856
 30
0.0
 10
29.3691992878522
 20
1.552755086476121
 30
0.0
 10
30.45891528898352
 20
0.4805551222800871
 30
0.0
 10
31.55025059634126
 20
-0.6161666298219818
 30
0.0
 10
32.64097933464353
 20
-1.68113639645469
 30
0.0
 10
33.73030631649008
 20
-2.658425715990511
 30
0.0
 10
34.81924542386947
 20
-3.497038356526587
 30
0.0
 10
35.90891784418096
 20
-4.153026275745721
 30
0.0
 10
37.00020590621308
 20
-4.593856997422522
 30
0.0
 10
38.09100019537617
 20
-4.78879372885771
 30
0.0
 10
39.12278390711761
 20
-4.759681633407602
 30
0.0
 10
39.79111373056483
 20
-4.549757113039343
 30
0.0
 10
40.09644062956325
 20
-4.453852964250695
 30
0.0
  0
SPLINE
  5
D1
330
1F
100
AcDbEntity
  8
0
  6
Continuous
 62
     1
370
    15
100
AcDbSpline
210
0.0
220
0.0
230
1.0
 70
     8
 71
     3
 72
    12
 73
     8
 74
     0
 42
0.000000001
 43
0.00000001
 40
0.0
 40
0.0
 40
0.0
 40
0.0
 40
0.1731465615298924
 40
0.3796395571461309
 40
0.5865073337960807
 40
0.7934861910262339
 40
1.0
 40
1.0
 40
1.0
 40
1.0
 10
53.38039072757321
 20
4.749284776578278
 30
0.0
 10
53.64925567539523
 20
4.741443103471759
 30
0.0
 10
54.23876648532053
 20
4.724249523194225
 30
0.0
 10
55.14841880793238
 20
4.46483501827401
 30
0.0
 10
56.11205763158412
 20
4.026885686234889
 30
0.0
 10
57.07617181938068
 20
3.427709374253214
 30
0.0
 10
57.71763108594791
 20
2.915922339511613
 30
0.0
 10
58.03800000000015
 20
2.660316621281644
 30
0.0
  0
SPLINE
  5
D2
330
1F
100
AcDbEntity
  8
0
  6
Continuous
 62
     1
370
    15
100
AcDbSpline
210
0.0
220
0.0
230
1.0
 70
    24
 71
     3
 72
    12
 73
     8
 74
     0
 42
0.000000001
 43
0.00000001
 40
0.0
 40
0.0
 40
0.0
 40
0.0
 40
0.0886804411638725
 40
0.3651459266589703
 40
0.6416114121540686
 40
0.9180768976491676
 40
1.0
 40
1.0
 40
1.0
 40
1.0
 10
7.999999999999984
 20
-3.205110254823218
 30
0.0
 10
7.999999999999984
 20
-3.196799005196701
 30
0.0
 10
7.999999999999986
 20
-3.162577040277061
 30
0.0
 10
7.999999999999986
 20
-3.378278926356767
 30
0.0
 10
7.999999999999988
 20
-3.832355321506985
 30
0.0
 10
7.999999999999989
 20
-4.343032833284227
 30
0.0
 10
7.999999999999989
 20
-4.663519927640492
 30
0.0
 10
7.999999999999989
 20
-4.736779227527453
 30
0.0
  0
SPLINE
  5
D3
330
1F
100
AcDbEntity
  8
0
  6
Continuous
 62
     1
370
    15
100
AcDbSpline
210
0.0
220
0.0
230
1.0
 70
     8
 71
     3
 72
    11
 73
     7
 74
     0
 42
0.000000001
 43
0.00000001
 40
0.0
 40
0.0
 40
0.0
 40
0.0
 40
0.2602297316557173
 40
0.5206789493860469
 40
0.7816033298291386
 40
1.0
 40
1.0
 40
1.0
 40
1.0
 10
8.000000000001025
 20
-3.286247121116266
 30
0.0
 10
8.334148951140996
 20
-3.514594712084185
 30
0.0
 10
9.002728685328282
 20
-3.971482489677979
 30
0.0
 10
10.00652791035058
 20
-4.436704756751372
 30
0.0
 10
10.95833790302207
 20
-4.721055898009429
 30
0.0
 10
11.57390217886101
 20
-4.739707535293224
 30
0.0
 10
11.85437637866334
 20
-4.748205921647834
 30
0.0
  0
SPLINE
  5
D4
330
1F
100
AcDbEntity
  8
0
  6
Continuous
 62
     1
370
    15
100
AcDbSpline
210
0.0
220
0.0
230
1.0
 70
     8
 71
     3
 72
    23
 73
    19
 74
     0
 42
0.000000001
 43
0.00000001
 40
0.0
 40
0.0
 40
0.0
 40
0.0
 40
0.057929133313715
 40
0.1234651441588892
 40
0.1889325736326009
 40
0.2543837260142935
 40
0.319871131543665
 40
0.3854429095030722
 40
0.4509822204849024
 40
0.5164511529764335
 40
0.5819019904096815
 40
0.6473872673999354
 40
0.7129565396398851
 40
0.7784992122724694
 40
0.843969710463687
 40
0.9094202959318758
 40
0.9749035067929793
 40
1.0
 40
1.0
 40
1.0
 40
1.0
 10
25.13592043665522
 20
4.457390273947696
 30
0.0
 10
25.45742824519827
 20
4.555577853079132
 30
0.0
 10
26.14266217947808
 20
4.764846366495763
 30
0.0
 10
27.19097124144616
 20
4.785714356371926
 30
0.0
 10
28.28024978794254
 20
4.579846904979484
 30
0.0
 10
29.36920019838182
 20
4.129308564325497
 30
0.0
 10
30.45891504463632
 20
3.464756132964772
 30
0.0
 10
31.5502506616653
 20
2.61950629830678
 30
0.0
 10
32.64097931772546
 20
1.637467618830124
 30
0.0
 10
33.73030631892885
 20
0.5699291826856472
 30
0.0
 10
34.81924543101858
 20
-0.5271364649304437
 30
0.0
 10
35.90891781310837
 20
-1.596995839390114
 30
0.0
 10
37.00020602349199
 20
-2.583324986603805
 30
0.0
 10
38.09099975779273
 20
-3.434098037996512
 30
0.0
 10
39.18035399078911
 20
-4.1100426203004
 30
0.0
 10
40.26931050845231
 20
-4.555703025325746
 30
0.0
 10
41.13445851049509
 20
-4.767934962604652
 30
0.0
 10
41.63717225588004
 20
-4.7406102779034
 30
0.0
 10
41.77645679236562
 20
-4.733039555841057
 30
0.0
  0
SPLINE
  5
D5
330
1F
100
AcDbEntity
  8
0
  6
Continuous
 62
     1
370
    15
100
AcDbSpline
210
0.0
220
0.0
230
1.0
 70
     8
 71
     3
 72
    11
 73
     7
 74
     0
 42
0.000000001
 43
0.00000001
 40
0.0
 40
0.0
 40
0.0
 40
0.0
 40
0.0301004327695158
 40
0.3535268687358414
 40
0.6771269731039958
 40
0.9704059681651008
 40
0.9704059681651008
 40
0.9704059681651008
 40
0.9704059681651008
 10
55.05846592638603
 20
4.461726529579286
 30
0.0
 10
55.08833926595388
 20
4.474527578419566
 30
0.0
 10
55.4391989455129
 20
4.624874742783983
 30
0.0
 10
56.11209223666017
 20
4.739550426252336
 30
0.0
 10
57.04674700246424
 20
4.792845418075486
 30
0.0
 10
57.65889631305742
 20
4.668046534833445
 30
0.0
 10
57.94990546738757
 20
4.605404320362362
 30
0.0
  0
SPLINE
  5
D7
330
1F
100
AcDbEntity
  8
0
  6
Continuous
 62
     1
370
    15
100
AcDbSpline
210
0.0
220
0.0
230
1.0
 70
     8
 71
     3
 72
    16
 73
    12
 74
     0
 42
0.000000001
 43
0.00000001
 40
0.0353257402892797
 40
0.0353257402892797
 40
0.0353257402892797
 40
0.0353257402892797
 40
0.2499999999999981
 40
0.2499999999999981
 40
0.4999999999999962
 40
0.4999999999999962
 40
0.7499999999999943
 40
0.7499999999999943
 40
0.8749999999999971
 40
0.8749999999999971
 40
1.0
 40
1.0
 40
1.0
 40
1.0
 10
58.18079113003208
 20
4.464847834431729
 30
0.0
 10
58.16560575070461
 20
4.338239284704664
 30
0.0
 10
58.14276557023902
 20
4.214389861786575
 30
0.0
 10
58.07159547663054
 20
3.954143867185406
 30
0.0
 10
58.01838363457165
 20
3.816363929298288
 30
0.0
 10
57.87622209978225
 20
3.573202416005731
 30
0.0
 10
57.78542222429068
 20
3.46646362909458
 30
0.0
 10
57.62768304965574
 20
3.353672514874217
 30
0.0
 10
57.57032975221281
 20
3.323063063234505
 30
0.0
 10
57.45284744639805
 20
3.280016768054057
 30
0.0
 10
57.39259762145538
 20
3.267174594047221
 30
0.0
 10
57.33093485845446
 20
3.262462535579618
 30
0.0
  0
SPLINE
  5
D8
330
1F
100
AcDbEntity
  8
0
  6
Continuous
 62
     1
370
    15
100
AcDbSpline
210
0.0
220
0.0
230
1.0
 70
     8
 71
     3
 72
     8
 73
     4
 74
     0
 42
0.000000001
 43
0.00000001
 40
0.0
 40
0.0
 40
0.0
 40
0.0
 40
1.0
 40
1.0
 40
1.0
 40
1.0
 10
58.79999999999999
 20
2.585374663495521
 30
0.0
 10
58.3123252683926
 20
2.84660363306933
 30
0.0
 10
57.82256731793489
 20
3.071071953573116
 30
0.0
 10
57.33093485845446
 20
3.262462535579619
 30
0.0
  0
LINE
  5
D9
330
1F
100
AcDbEntity
  8
0
  6
Continuous
 62
     1
370
    15
100
AcDbLine
 10
58.79999999999999
 20
2.250919584899863
 30
0.0
 11
58.79999999999999
 21
2.585374663495521
 31
0.0
  0
SPLINE
  5
DB
330
1F
100
AcDbEntity
  8
0
  6
Continuous
 62
     1
370
    15
100
AcDbSpline
210
0.0
220
0.0
230
1.0
 70
     8
 71
     3
 72
    14
 73
    10
 74
     0
 42
0.000000001
 43
0.00000001
 40
0.0
 40
0.0
 40
0.0
 40
0.0
 40
0.1400664751767088
 40
0.2802510868961787
 40
0.4206914509691108
 40
0.5608694745574051
 40
0.7009366008019624
 40
0.8531004581025192
 40
1.0
 40
1.0
 40
1.0
 40
1.0
 10
7.999999999999767
 20
-1.94031648946363
 30
0.0
 10
8.334147932349206
 20
-2.237510202734844
 30
0.0
 10
9.002725628096147
 20
-2.832148291955632
 30
0.0
 10
10.00654016061458
 20
-3.576096625025261
 30
0.0
 10
11.01238219365351
 20
-4.16664323901676
 30
0.0
 10
12.01618958034441
 20
-4.572991241690236
 30
0.0
 10
13.047586503091
 20
-4.778363737700155
 30
0.0
 10
14.09594798322743
 20
-4.774094021627064
 30
0.0
 10
14.81043643865276
 20
-4.567077085891659
 30
0.0
 10
15.16139221282798
 20
-4.465390643799111
 30
0.0
  0
SPLINE
  5
DC
330
1F
100
AcDbEntity
  8
0
  6
Continuous
 62
     1
370
    15
100
AcDbSpline
210
0.0
220
0.0
230
1.0
 70
     8
 71
     3
 72
    23
 73
    19
 74
     0
 42
0.000000001
 43
0.00000001
 40
0.0
 40
0.0
 40
0.0
 40
0.0
 40
0.0556426995155528
 40
0.12112368036547
 40
0.186689025368018
 40
0.2522219065781797
 40
0.3176844162025648
 40
0.3831288325438926
 40
0.448607685063514
 40
0.5141705245924291
 40
0.5797067671235487
 40
0.6451708422940164
 40
0.7106150066950041
 40
0.7760917932881742
 40
0.8416518756990866
 40
0.9071915410036508
 40
0.9726572443698583
 40
1.0
 40
1.0
 40
1.0
 40
1.0
 10
28.44339107399349
 20
4.746671070124894
 30
0.0
 10
28.75193000869093
 20
4.735689684317476
 30
0.0
 10
29.42356117741505
 20
4.711785275004343
 30
0.0
 10
30.45891500579097
 20
4.375801291811523
 30
0.0
 10
31.5502506716271
 20
3.819302720106285
 30
0.0
 10
32.64097931672659
 20
3.056708793172326
 30
0.0
 10
33.73030631298476
 20
2.136410830016723
 30
0.0
 10
34.81924545579265
 20
1.104411189522536
 30
0.0
 10
35.90891771984936
 20
0.0145674201015979
 30
0.0
 10
37.00020637215762
 20
-1.075490152820479
 30
0.0
 10
38.09099845775501
 20
-2.109797646068746
 30
0.0
 10
39.18035883608923
 20
-3.034068567295681
 30
0.0
 10
40.2692924271799
 20
-3.800210422208765
 30
0.0
 10
41.3589219725231
 20
-4.367347374191798
 30
0.0
 10
42.45015912197483
 20
-4.710222717314133
 30
0.0
 10
43.54101614955308
 20
-4.793590111640542
 30
0.0
 10
44.41912192210204
 20
-4.701224443269211
 30
0.0
 10
44.93375137742306
 20
-4.500223463935364
 30
0.0
 10
45.08536888717472
 20
-4.44100557885486
 30
0.0
  0
SPLINE
  5
DD
330
1F
100
AcDbEntity
  8
0
  6
Continuous
 62
     1
370
    15
100
AcDbSpline
210
0.0
220
0.0
230
1.0
 70
    24
 71
     3
 72
    14
 73
    10
 74
     0
 42
0.000000001
 43
0.00000001
 40
0.0
 40
0.0
 40
0.0
 40
0.0
 40
0.2500000000000002
 40
0.2500000000000002
 40
0.5000000000000001
 40
0.5000000000000001
 40
0.75
 40
0.75
 40
1.0
 40
1.0
 40
1.0
 40
1.0
 10
7.999999999999991
 20
1.342088254662905
 30
0.0
 10
7.999999999999991
 20
1.209698723291757
 30
0.0
 10
7.999999999999991
 20
1.043125173530977
 30
0.0
 10
7.999999999999993
 20
0.6192041815161735
 30
0.0
 10
7.999999999999993
 20
0.3604770857018963
 30
0.0
 10
7.999999999999995
 20
-0.2433878861137
 30
0.0
 10
7.999999999999995
 20
-0.589505370762063
 30
0.0
 10
7.999999999999995
 20
-1.292316136283596
 30
0.0
 10
7.999999999999995
 20
-1.646043595585818
 30
0.0
 10
7.999999999999995
 20
-1.940316489463837
 30
0.0
  0
SPLINE
  5
DE
330
1F
100
AcDbEntity
  8
0
  6
Continuous
 62
     1
370
    15
100
AcDbSpline
210
0.0
220
0.0
230
1.0
 70
     8
 71
     3
 72
    16
 73
    12
 74
     0
 42
0.000000001
 43
0.00000001
 40
0.0
 40
0.0
 40
0.0
 40
0.0
 40
0.1134561122637111
 40
0.227007917039431
 40
0.3407668853615284
 40
0.4543133536443494
 40
0.567769993283558
 40
0.6910251808978346
 40
0.8144377340135864
 40
0.9377595984321292
 40
0.9999999999999999
 40
0.9999999999999999
 40
0.9999999999999999
 40
0.9999999999999999
 10
8.000000000001025
 20
1.342088254665806
 30
0.0
 10
8.334147941822437
 20
1.015348088248831
 30
0.0
 10
9.002725656521314
 20
0.3615921723134087
 30
0.0
 10
10.00654004672026
 20
-0.6515402226484167
 30
0.0
 10
11.01238262128108
 20
-1.630055383467556
 30
0.0
 10
12.0161879878229
 20
-2.539162589782503
 30
0.0
 10
13.04759265846751
 20
-3.356966392715534
 30
0.0
 10
14.10895438169708
 20
-4.038124008213903
 30
0.0
 10
15.20034676487439
 20
-4.513763187832753
 30
0.0
 10
16.11123984075508
 20
-4.754724176489462
 30
0.0
 10
16.65796899566196
 20
-4.73723725101376
 30
0.0
 10
16.84135025569011
 20
-4.731371870689755
 30
0.0
  0
SPLINE
  5
DF
330
1F
100
AcDbEntity
  8
0
  6
Continuous
 62
     1
370
    15
100
AcDbSpline
210
0.0
220
0.0
230
1.0
 70
     8
 71
     3
 72
    23
 73
    19
 74
     0
 42
0.000000001
 43
0.00000001
 40
0.0
 40
0.0
 40
0.0
 40
0.0
 40
0.0202542989640972
 40
0.0858189653656257
 40
0.1513511683107687
 40
0.2168130003984802
 40
0.2822567393904001
 40
0.3477349142041992
 40
0.413297075158027
 40
0.4788326393893377
 40
0.5442960370069285
 40
0.609739524061116
 40
0.6752156329698457
 40
0.7407750368342069
 40
0.8063140238035367
 40
0.8717790496000157
 40
0.9372223476972266
 40
0.9999999999999999
 40
0.9999999999999999
 40
0.9999999999999999
 40
0.9999999999999999
 10
30.12159995794502
 20
4.44445967666915
 30
0.0
 10
30.2339352057873
 20
4.490281953789937
 30
0.0
 10
30.70990797388977
 20
4.684434336954304
 30
0.0
 10
31.55028389549694
 20
4.787009858914887
 30
0.0
 10
32.64097042684475
 20
4.733032894339432
 30
0.0
 10
33.73030869318429
 20
4.415428570877665
 30
0.0
 10
34.81924481765019
 20
3.872128489398832
 30
0.0
 10
35.90891789148793
 20
3.12542864593566
 30
0.0
 10
37.00020632480175
 20
2.216478116502301
 30
0.0
 10
38.0909984754953
 20
1.191596034114298
 30
0.0
 10
39.18035881244893
 20
0.104463335854554
 30
0.0
 10
40.26929250401164
 20
-0.9878675097018134
 30
0.0
 10
41.35892168852197
 20
-2.029123931570823
 30
0.0
 10
42.45016018240581
 20
-2.963690483121021
 30
0.0
 10
43.54101219562102
 20
-3.745348739984026
 30
0.0
 10
44.63042366362379
 20
-4.326453547108054
 30
0.0
 10
45.7043411811478
 20
-4.696351849057535
 30
0.0
 10
46.41556090687934
 20
-4.737465574337105
 30
0.0
 10
46.76377782863486
 20
-4.757595070666847
 30
0.0
  0
SPLINE
  5
E1
330
1F
100
AcDbEntity
  8
0
  6
Continuous
 62
     1
370
    15
100
AcDbSpline
210
0.0
220
0.0
230
1.0
 70
     8
 71
     3
 72
    23
 73
    19
 74
     0
 42
0.000000001
 43
0.00000001
 40
0.0
 40
0.0
 40
0.0
 40
0.0
 40
0.0377246055991564
 40
0.1033013084002831
 40
0.1688298227019896
 40
0.2342933543269745
 40
0.299744245784428
 40
0.3652350150722976
 40
0.4308099674715031
 40
0.4963416586665152
 40
0.5618065678488238
 40
0.6272570184151424
 40
0.6927455344882976
 40
0.7583184846849839
 40
0.8238534143945463
 40
0.8893197638640206
 40
0.9547698365099959
 40
1.0
 40
1.0
 40
1.0
 40
1.0
 10
13.48092994399125
 20
4.732076516580934
 30
0.0
 10
13.6901405260323
 20
4.73595933980516
 30
0.0
 10
14.2630219786752
 20
4.746591676789982
 30
0.0
 10
15.20038550391381
 20
4.487970408604021
 30
0.0
 10
16.2909058664849
 20
3.995015811598192
 30
0.0
 10
17.38014706845625
 20
3.28233168520577
 30
0.0
 10
18.46910913911701
 20
2.401643658648678
 30
0.0
 10
19.55891612572647
 20
1.394520366554594
 30
0.0
 10
20.65033053542375
 20
0.3155451831164826
 30
0.0
 10
21.74093555520596
 20
-0.7804416782618518
 30
0.0
 10
22.83019966012406
 20
-1.835665452540081
 30
0.0
 10
23.91915403031529
 20
-2.794977424622402
 30
0.0
 10
25.0089143667104
 20
-3.608965174837006
 30
0.0
 10
26.10029326119083
 20
-4.233679447346928
 30
0.0
 10
27.19095354983969
 20
-4.640198631498677
 30
0.0
 10
28.28027112176398
 20
-4.795957443519318
 30
0.0
 10
29.25683190564374
 20
-4.740405419144266
 30
0.0
 10
29.87072765898134
 20
-4.530314593008394
 30
0.0
 10
30.12159995794504
 20
-4.444459676669031
 30
0.0
  0
SPLINE
  5
E2
330
1F
100
AcDbEntity
  8
0
  6
Continuous
 62
     1
370
    15
100
AcDbSpline
210
0.0
220
0.0
230
1.0
 70
     8
 71
     3
 72
    22
 73
    18
 74
     0
 42
0.000000001
 43
0.00000001
 40
0.0
 40
0.0
 40
0.0
 40
0.0
 40
0.0091951049024221
 40
0.0836478214147813
 40
0.1580758272329285
 40
0.2325388699340638
 40
0.3070954999384832
 40
0.3816362942199048
 40
0.4560909336630304
 40
0.5305187962132722
 40
0.6049796314383817
 40
0.6709154381685818
 40
0.7367322251528277
 40
0.802479005595562
 40
0.8683451152497491
 40
0.9342465926436335
 40
0.9762573798321258
 40
0.9762573798321258
 40
0.9762573798321258
 40
0.9762573798321258
 10
43.40669177997783
 20
4.749041396699765
 30
0.0
 10
43.4515592157325
 20
4.753395919920846
 30
0.0
 10
43.85971804515022
 20
4.793008994987304
 30
0.0
 10
44.63037126125556
 20
4.630881717869827
 30
0.0
 10
45.71935070224877
 20
4.252179804395817
 30
0.0
 10
46.80892522303938
 20
3.626914802418205
 30
0.0
 10
47.90010930517185
 20
2.81938305009148
 30
0.0
 10
48.99103308047594
 20
1.862954277921336
 30
0.0
 10
50.08045313586912
 20
0.8095862306727721
 30
0.0
 10
51.16942199740566
 20
-0.2857625106290659
 30
0.0
 10
52.21679786960945
 20
-1.325186780018794
 30
0.0
 10
53.22371456449759
 20
-2.258931174610946
 30
0.0
 10
54.18662323623076
 20
-3.062450066661943
 30
0.0
 10
55.14844109749829
 20
-3.742277790320236
 30
0.0
 10
56.11205167913687
 20
-4.265205759881496
 30
0.0
 10
56.9602829723574
 20
-4.584624239728155
 30
0.0
 10
57.48623277651558
 20
-4.675449018717442
 30
0.0
 10
57.69094489596392
 20
-4.704923108558141
 30
0.0
  0
SPLINE
  5
E3
330
1F
100
AcDbEntity
  8
0
  6
Continuous
 62
     1
370
    15
100
AcDbSpline
210
0.0
220
0.0
230
1.0
 70
     8
 71
     3
 72
    24
 73
    20
 74
     0
 42
0.000000001
 43
0.00000001
 40
0.0
 40
0.0
 40
0.0
 40
0.0
 40
0.0023493702556598
 40
0.0678759320761395
 40
0.1333375131561154
 40
0.198786454445185
 40
0.2642752723764745
 40
0.3298482709107886
 40
0.3953780095299156
 40
0.4608409681261694
 40
0.5262894685372408
 40
0.5917760333209525
 40
0.6573470297124049
 40
0.7228800067495876
 40
0.7883444055900923
 40
0.853792528092081
 40
0.9192769020635093
 40
0.9848456445591857
 40
1.0
 40
1.0
 40
1.0
 40
1.0
 10
15.16139221282802
 20
4.465390643799236
 30
0.0
 10
15.17443177572004
 20
4.47119192863635
 30
0.0
 10
15.55115931920954
 20
4.638797530439513
 30
0.0
 10
16.29090459627745
 20
4.755695553943568
 30
0.0
 10
17.38014740854798
 20
4.777900258019697
 30
0.0
 10
18.46910904807175
 20
4.524760032446443
 30
0.0
 10
19.55891614966795
 20
4.042473191894593
 30
0.0
 10
20.65033053086244
 20
3.34785198914361
 30
0.0
 10
21.74093554952071
 20
2.478821917850314
 30
0.0
 10
22.83019968738631
 20
1.480370387736084
 30
0.0
 10
23.9191539269401
 20
0.4049287812593194
 30
0.0
 10
25.00891475341257
 20
-0.6920573365000031
 30
0.0
 10
26.10029181619103
 20
-1.752194584633883
 30
0.0
 10
27.19095893658093
 20
-2.721788748430095
 30
0.0
 10
28.2802510433683
 20
-3.547921659446217
 30
0.0
 10
29.36920747224313
 20
-4.194402325012005
 30
0.0
 10
30.45888465666971
 20
-4.60180770556379
 30
0.0
 10
31.27064051482977
 20
-4.783039042724823
 30
0.0
 10
31.71852078604652
 20
-4.747105118566378
 30
0.0
 10
31.80260250489094
 20
-4.740359150274765
 30
0.0
  0
SPLINE
  5
E4
330
1F
100
AcDbEntity
  8
0
  6
Continuous
 62
     1
370
    15
100
AcDbSpline
210
0.0
220
0.0
230
1.0
 70
     8
 71
     3
 72
    20
 73
    16
 74
     0
 42
0.000000001
 43
0.00000001
 40
0.0
 40
0.0
 40
0.0
 40
0.0
 40
0.0489482060972056
 40
0.1330629193113707
 40
0.2172833503271546
 40
0.301485893042243
 40
0.3855911137939473
 40
0.4696660869142895
 40
0.5537783065261769
 40
0.6282605096764754
 40
0.7026082661075093
 40
0.7768769419644915
 40
0.851280414118205
 40
0.9257238382692277
 40
1.0
 40
1.0
 40
1.0
 40
1.0
 10
45.08536888717475
 20
4.441005578854985
 30
0.0
 10
45.29664112675835
 20
4.517521237430389
 30
0.0
 10
45.87097271538934
 20
4.725524711201349
 30
0.0
 10
46.80892838903722
 20
4.797406912703169
 30
0.0
 10
47.90010845656101
 20
4.670147818506725
 30
0.0
 10
48.99103330755479
 20
4.288782560398472
 30
0.0
 10
50.08045307506083
 20
3.686396998582148
 30
0.0
 10
51.16942201377074
 20
2.89129090491564
 30
0.0
 10
52.21679786577868
 20
1.981387696127142
 30
0.0
 10
53.22371456546891
 20
1.021906853187484
 30
0.0
 10
54.18662323597103
 20
0.0600104264135955
 30
0.0
 10
55.14844109756796
 20
-0.905422674785367
 30
0.0
 10
56.11205167911829
 20
-1.830332476248608
 30
0.0
 10
57.076173303929
 20
-2.690323866681779
 30
0.0
 10
57.71763158042617
 20
-3.166595804258114
 30
0.0
 10
58.03800000000015
 20
-3.404463945522071
 30
0.0
  0
SPLINE
  5
E5
330
1F
100
AcDbEntity
  8
0
  6
Continuous
 62
     1
370
    15
100
AcDbSpline
210
0.0
220
0.0
230
1.0
 70
     8
 71
     3
 72
     8
 73
     4
 74
     0
 42
0.000000001
 43
0.00000001
 40
0.0
 40
0.0
 40
0.0
 40
0.0
 40
1.0
 40
1.0
 40
1.0
 40
1.0
 10
58.03799999999999
 20
-3.404463945520052
 30
0.0
 10
58.08965520043893
 20
-3.440468035682311
 30
0.0
 10
58.13941567855722
 20
-3.472595934007655
 30
0.0
 10
58.18767641168729
 20
-3.501122098161724
 30
0.0
  0
SPLINE
  5
E6
330
1F
100
AcDbEntity
  8
0
  6
Continuous
 62
     1
370
    15
100
AcDbSpline
210
0.0
220
0.0
230
1.0
 70
     8
 71
     3
 72
     9
 73
     5
 74
     0
 42
0.000000001
 43
0.00000001
 40
0.0
 40
0.0
 40
0.0
 40
0.0
 40
0.5168111898685704
 40
1.0
 40
1.0
 40
1.0
 40
1.0
 10
57.80413365119031
 20
-3.224992264098677
 30
0.0
 10
57.73186529589515
 20
-3.234088733171555
 30
0.0
 10
57.59203017484538
 20
-3.251689878911435
 30
0.0
 10
57.41599370895013
 20
-3.343656757586952
 30
0.0
 10
57.33093485845446
 20
-3.388094124265677
 30
0.0
  0
SPLINE
  5
E7
330
1F
100
AcDbEntity
  8
0
  6
Continuous
 62
     1
370
    15
100
AcDbSpline
210
0.0
220
0.0
230
1.0
 70
     8
 71
     3
 72
     8
 73
     4
 74
     0
 42
0.000000001
 43
0.00000001
 40
0.0521834034766327
 40
0.0521834034766327
 40
0.0521834034766327
 40
0.0521834034766327
 40
1.0
 40
1.0
 40
1.0
 40
1.0
 10
58.72363742931613
 20
-3.714863173684597
 30
0.0
 10
58.26120569043358
 20
-3.642464771350704
 30
0.0
 10
57.79691226293961
 20
-3.532341380702133
 30
0.0
 10
57.33093485845446
 20
-3.388094124265676
 30
0.0
  0
SPLINE
  5
E9
330
1F
100
AcDbEntity
  8
0
  6
Continuous
 62
     1
370
    15
100
AcDbSpline
210
0.0
220
0.0
230
1.0
 70
     8
 71
     3
 72
    19
 73
    15
 74
     0
 42
0.000000001
 43
0.00000001
 40
0.0
 40
0.0
 40
0.0
 40
0.0
 40
0.082571947748172
 40
0.1652135393167067
 40
0.2480059019383425
 40
0.3306436096737008
 40
0.4132159412392018
 40
0.5029195341819848
 40
0.5927376557799978
 40
0.6824897752718407
 40
0.7721528902588792
 40
0.8617986924495149
 40
0.9514991139129773
 40
1.0
 40
1.0
 40
1.0
 40
1.0
 10
7.999999999999767
 20
2.796462738063874
 30
0.0
 10
8.3341479429228
 20
2.513672105548449
 30
0.0
 10
9.002725659825849
 20
1.947852325857979
 30
0.0
 10
10.00654003347428
 20
0.9791363208765114
 30
0.0
 10
11.01238267101074
 20
-0.0225910070813974
 30
0.0
 10
12.0161878026231
 20
-1.027169600308901
 30
0.0
 10
13.04759337429626
 20
-2.012545760600892
 30
0.0
 10
14.10895145038592
 20
-2.928521918223359
 30
0.0
 10
15.20035768669749
 20
-3.716114141815011
 30
0.0
 10
16.29091373440888
 20
-4.309497451425068
 30
0.0
 10
17.38014337807653
 20
-4.681051089259149
 30
0.0
 10
18.46911603890292
 20
-4.797134917092944
 30
0.0
 10
19.39161770764482
 20
-4.719463591296524
 30
0.0
 10
19.95167856523015
 20
-4.512853994107771
 30
0.0
 10
20.1482284267112
 20
-4.440345645848645
 30
0.0
  0
SPLINE
  5
EA
330
1F
100
AcDbEntity
  8
0
  6
Continuous
 62
     1
370
    15
100
AcDbSpline
210
0.0
220
0.0
230
1.0
 70
     8
 71
     3
 72
    23
 73
    19
 74
     0
 42
0.000000001
 43
0.00000001
 40
0.0
 40
0.0
 40
0.0
 40
0.0
 40
0.0179457229467435
 40
0.0833950968183813
 40
0.1488789094769142
 40
0.2144467155069051
 40
0.2799879225243311
 40
0.3454569567142999
 40
0.4109060786265127
 40
0.4763878252020967
 40
0.5419528739052284
 40
0.6074975039553802
 40
0.6729681664644274
 40
0.7384170994033944
 40
0.8038968423389463
 40
0.869458882107112
 40
0.9350069965905528
 40
1.0
 40
1.0
 40
1.0
 40
1.0
 10
33.43183942044944
 20
4.737737034220564
 30
0.0
 10
33.53135886558552
 20
4.745021146253274
 30
0.0
 10
33.99383305996952
 20
4.778870951580512
 30
0.0
 10
34.81922864649975
 20
4.58944875176384
 30
0.0
 10
35.90892223143942
 20
4.171086065224245
 30
0.0
 10
37.00020516295471
 20
3.516416661790454
 30
0.0
 10
38.09099878195195
 20
2.683299438645651
 30
0.0
 10
39.18035874690048
 20
1.708743756017312
 30
0.0
 10
40.26929246001339
 20
0.6456602787344988
 30
0.0
 10
41.3589219303611
 20
-0.4515568002628609
 30
0.0
 10
42.45015925791111
 20
-1.52467686320841
 30
0.0
 10
43.54101564845197
 20
-2.518524133892198
 30
0.0
 10
44.63041079389598
 20
-3.381214231745271
 30
0.0
 10
45.71934004679898
 20
-4.067071303648826
 30
0.0
 10
46.80892830348242
 20
-4.54220221512651
 30
0.0
 10
47.90010765454952
 20
-4.775686941489226
 30
0.0
 10
48.98837645921754
 20
-4.777274876425981
 30
0.0
 10
49.71221717919901
 20
-4.571183710683096
 30
0.0
 10
50.07259851452856
 20
-4.468576317288665
 30
0.0
  0
SPLINE
  5
EB
330
1F
100
AcDbEntity
  8
0
  6
Continuous
 62
     1
370
    15
100
AcDbSpline
210
0.0
220
0.0
230
1.0
 70
    24
 71
     3
 72
    12
 73
     8
 74
     0
 42
0.000000001
 43
0.00000001
 40
0.0
 40
0.0
 40
0.0
 40
0.0
 40
0.0573344300683942
 40
0.3104155476223486
 40
0.5634966651763033
 40
0.8165777827302583
 40
1.0
 40
1.0
 40
1.0
 40
1.0
 10
7.999999999999984
 20
4.628335375776824
 30
0.0
 10
7.999999999999982
 20
4.569715972137941
 30
0.0
 10
7.999999999999979
 20
4.25234342199394
 30
0.0
 10
7.999999999999986
 20
3.70880712311347
 30
0.0
 10
7.999999999999986
 20
3.148706940000403
 30
0.0
 10
7.999999999999988
 20
2.812444766966917
 30
0.0
 10
7.999999999999988
 20
2.795745864971244
 30
0.0
 10
7.999999999999988
 20
2.788728851845206
 30
0.0
  0
SPLINE
  5
EC
330
1F
100
AcDbEntity
  8
0
  6
Continuous
 62
     1
370
    15
100
AcDbSpline
210
0.0
220
0.0
230
1.0
 70
     8
 71
     3
 72
    21
 73
    17
 74
     0
 42
0.000000001
 43
0.00000001
 40
0.0
 40
0.0
 40
0.0
 40
0.0
 40
0.0725417670616612
 40
0.1451447181686523
 40
0.217880125865466
 40
0.2904796649163142
 40
0.3630217691722414
 40
0.4418288861327969
 40
0.5207366197223183
 40
0.5995863686143494
 40
0.6783579245579152
 40
0.7571142707253028
 40
0.8359186014525138
 40
0.9148242288024326
 40
0.9936778004156421
 40
0.9999999999999999
 40
0.9999999999999999
 40
0.9999999999999999
 40
0.9999999999999999
 10
8.000000000001025
 20
4.628335375782175
 30
0.0
 10
8.334147942940527
 20
4.529638221570919
 30
0.0
 10
9.002725659876532
 20
4.33216066881343
 30
0.0
 10
10.00654003327597
 20
3.788826886708918
 30
0.0
 10
11.01238267175862
 20
3.093409306653002
 30
0.0
 10
12.01618779984
 20
2.2559925035122
 30
0.0
 10
13.04759338505447
 20
1.293300804307908
 30
0.0
 10
14.10895140633149
 20
0.239022253042648
 30
0.0
 10
15.20035785084063
 20
-0.8554473689428247
 30
0.0
 10
16.29091312272296
 20
-1.905739377030828
 30
0.0
 10
17.38014565822981
 20
-2.857031971075588
 30
0.0
 10
18.46910752860765
 20
-3.65733287228192
 30
0.0
 10
19.55892398864647
 20
-4.274200525723867
 30
0.0
 10
20.65030066214717
 20
-4.641282835499211
 30
0.0
 10
21.40694618681986
 20
-4.79689706215637
 30
0.0
 10
21.79946930199724
 20
-4.756339237517525
 30
0.0
 10
21.82860445910511
 20
-4.753328819666661
 30
0.0
  0
SPLINE
  5
ED
330
1F
100
AcDbEntity
  8
0
  6
Continuous
 62
     1
370
    15
100
AcDbSpline
210
0.0
220
0.0
230
1.0
 70
     8
 71
     3
 72
    23
 73
    19
 74
     0
 42
0.000000001
 43
0.00000001
 40
0.0
 40
0.0
 40
0.0
 40
0.0
 40
0.0479608350028465
 40
0.1135297763661119
 40
0.179072118256239
 40
0.2445422860692071
 40
0.3099925412596303
 40
0.3754754216783335
 40
0.4410416056669952
 40
0.5065873706491193
 40
0.5720591668093612
 40
0.6375092330232661
 40
0.7029901097672442
 40
0.7685532847688388
 40
0.8341025342445862
 40
0.8995760213804845
 40
0.9650259616082935
 40
1.0
 40
1.0
 40
1.0
 40
1.0
 10
35.11065378886151
 20
4.446527864945503
 30
0.0
 10
35.37660782421896
 20
4.535507137614339
 30
0.0
 10
36.00615695854919
 20
4.746133097873633
 30
0.0
 10
37.0002171240599
 20
4.794541548998719
 30
0.0
 10
38.09099558141452
 20
4.62776391490919
 30
0.0
 10
39.18035960384523
 20
4.211484791856336
 30
0.0
 10
40.26929223004711
 20
3.577851545256045
 30
0.0
 10
41.35892199305377
 20
2.756774204026926
 30
0.0
 10
42.45015923747503
 20
1.792497425667309
 30
0.0
 10
43.54101566746942
 20
0.7344959320980413
 30
0.0
 10
44.63041073831278
 20
-0.3619887532023608
 30
0.0
 10
45.71934025011165
 20
-1.439287389980807
 30
0.0
 10
46.80892754499774
 20
-2.442080137117126
 30
0.0
 10
47.90011048862226
 20
-3.316211267682873
 30
0.0
 10
48.9910260297365
 20
-4.020845545940035
 30
0.0
 10
50.08048011704273
 20
-4.503636678218032
 30
0.0
 10
51.00020410672011
 20
-4.751463940838825
 30
0.0
 10
51.55716174951143
 20
-4.736662038287627
 30
0.0
 10
51.75112994564654
 20
-4.731507071165112
 30
0.0
  0
SPLINE
  5
EE
330
1F
100
AcDbEntity
  8
0
  6
Continuous
 62
     1
370
    15
100
AcDbSpline
210
0.0
220
0.0
230
1.0
 70
     8
 71
     3
 72
    20
 73
    16
 74
     0
 42
0.000000001
 43
0.00000001
 40
0.0
 40
0.0
 40
0.0
 40
0.0
 40
0.1250000000000002
 40
0.1250000000000002
 40
0.2500000000000003
 40
0.2500000000000003
 40
0.3750000000000005
 40
0.3750000000000005
 40
0.5000000000000007
 40
0.5000000000000007
 40
0.6250000000000009
 40
0.6250000000000009
 40
0.750000000000001
 40
0.750000000000001
 40
1.0
 40
1.0
 40
1.0
 40
1.0
 10
58.79999999999999
 20
-1.738631853122136
 30
0.0
 10
58.79999999999998
 20
-1.800768796350225
 30
0.0
 10
58.79828212544999
 20
-1.862286716867151
 30
0.0
 10
58.78794548140525
 20
-1.983373584254957
 30
0.0
 10
58.77920317419713
 20
-2.043833870163759
 30
0.0
 10
58.74916414674199
 20
-2.155621224619932
 30
0.0
 10
58.72726952670548
 20
-2.20762838267677
 30
0.0
 10
58.66747363121957
 20
-2.287890066511574
 30
0.0
 10
58.62911484786126
 20
-2.316141914039194
 30
0.0
 10
58.54309056517608
 20
-2.343695523501523
 30
0.0
 10
58.49716229125809
 20
-2.343598681325919
 30
0.0
 10
58.40360850339418
 20
-2.325454458146691
 30
0.0
 10
58.35701351045501
 20
-2.307770626754657
 30
0.0
 10
58.21624808492884
 20
-2.237131821693672
 30
0.0
 10
58.12619975754109
 20
-2.169807959449359
 30
0.0
 10
58.03799999999998
 20
-2.090819808756997
 30
0.0
  0
SPLINE
  5
EF
330
1F
100
AcDbEntity
  8
0
  6
Continuous
 62
     1
370
    15
100
AcDbSpline
210
0.0
220
0.0
230
1.0
 70
     8
 71
     3
 72
    24
 73
    20
 74
     0
 42
0.000000001
 43
0.00000001
 40
0.0
 40
0.0
 40
0.0
 40
0.0
 40
0.0000271311189503
 40
0.0655120397346691
 40
0.1310811239283018
 40
0.1966069507891224
 40
0.2620660016134629
 40
0.3275105951156937
 40
0.392993250718335
 40
0.4585603328886226
 40
0.5240893979741834
 40
0.5895498889568005
 40
0.6549941045725075
 40
0.7204745694936446
 40
0.7860393979027018
 40
0.851571762775157
 40
0.9170337566162977
 40
0.9824776573169394
 40
0.9999999999999999
 40
0.9999999999999999
 40
0.9999999999999999
 40
0.9999999999999999
 10
18.46847450891417
 20
4.762448575703632
 30
0.0
 10
18.46862495679471
 20
4.762465716422864
 30
0.0
 10
18.83190328476734
 20
4.803854480425631
 30
0.0
 10
19.558926035006
 20
4.659529933109908
 30
0.0
 10
20.65032788231194
 20
4.314549392958748
 30
0.0
 10
21.74093625894182
 20
3.713757138546506
 30
0.0
 10
22.83019949466141
 20
2.92744710934186
 30
0.0
 10
23.91915398894142
 20
1.986425498685985
 30
0.0
 10
25.00891469815646
 20
0.9420186921573069
 30
0.0
 10
26.10029197529579
 20
-0.1510343039601956
 30
0.0
 10
27.19095835612372
 20
-1.236613066164456
 30
0.0
 10
28.28025320356188
 20
-2.257717244766759
 30
0.0
 10
29.36919941125286
 20
-3.16083357782019
 30
0.0
 10
30.45891477572277
 20
-3.899696539514159
 30
0.0
 10
31.55025252817703
 20
-4.433530883334338
 30
0.0
 10
32.64097212875156
 20
-4.741144733079143
 30
0.0
 10
33.7303331753203
 20
-4.783588995247462
 30
0.0
 10
34.55326303611247
 20
-4.677438655504885
 30
0.0
 10
35.01346074276226
 20
-4.48679211942212
 30
0.0
 10
35.11065378886154
 20
-4.446527864945378
 30
0.0
  0
SPLINE
  5
F0
330
1F
100
AcDbEntity
  8
0
  6
Continuous
 62
     1
370
    15
100
AcDbSpline
210
0.0
220
0.0
230
1.0
 70
     8
 71
     3
 72
    17
 73
    13
 74
     0
 42
0.000000001
 43
0.00000001
 40
0.0
 40
0.0
 40
0.0
 40
0.0
 40
0.0619867133184614
 40
0.1749290487109136
 40
0.2878307654818874
 40
0.4007824994301862
 40
0.5008023780273114
 40
0.6006417122263119
 40
0.7003748515347026
 40
0.8002890046781316
 40
0.9002568081400473
 40
1.0
 40
1.0
 40
1.0
 40
1.0
 10
48.39313415532501
 20
4.731618774515284
 30
0.0
 10
48.59254585028135
 20
4.73638935997512
 30
0.0
 10
49.15529383663336
 20
4.749852147911557
 30
0.0
 10
50.08043719299843
 20
4.498399139615297
 30
0.0
 10
51.16942628804212
 20
4.012400404428154
 30
0.0
 10
52.21679686524531
 20
3.331892803123359
 30
0.0
 10
53.22371481916432
 20
2.533633875730084
 30
0.0
 10
54.18662316813175
 20
1.66403776264715
 30
0.0
 10
55.14844111576751
 20
0.7259396869228915
 30
0.0
 10
56.11205167425806
 20
-0.2392233621461959
 30
0.0
 10
57.07617330514114
 20
-1.200330409948902
 30
0.0
 10
57.71763158082992
 20
-1.794212652281959
 30
0.0
 10
58.03800000000015
 20
-2.090819808757128
 30
0.0
  0
SPLINE
  5
F1
330
1F
100
AcDbEntity
  8
0
  6
Continuous
 62
     1
370
    15
100
AcDbSpline
210
0.0
220
0.0
230
1.0
 70
     8
 71
     3
 72
    23
 73
    19
 74
     0
 42
0.000000001
 43
0.00000001
 40
0.0
 40
0.0
 40
0.0
 40
0.0
 40
0.0301617056760856
 40
0.0956880003911022
 40
0.1611475185928582
 40
0.2265925793692791
 40
0.2920757025178739
 40
0.3576432528369207
 40
0.4231727857997985
 40
0.4886337441701136
 40
0.5540784270573128
 40
0.6195593595087621
 40
0.6851246560504859
 40
0.7506574888238191
 40
0.8161199500633883
 40
0.8815643180332737
 40
0.9470431221560001
 40
1.0
 40
1.0
 40
1.0
 40
1.0
 10
20.14822842671123
 20
4.440345645848768
 30
0.0
 10
20.31564470042138
 20
4.50442554557674
 30
0.0
 10
20.84677276845219
 20
4.70771900437783
 30
0.0
 10
21.74094295884754
 20
4.795279753486306
 30
0.0
 10
22.83019770063443
 20
4.700519820918806
 30
0.0
 10
23.91915447007377
 20
4.347681211378283
 30
0.0
 10
25.00891456835339
 20
3.771363729170771
 30
0.0
 10
26.10029201255707
 20
2.997830551752093
 30
0.0
 10
27.19095833689829
 20
2.067894397784027
 30
0.0
 10
28.28025324320533
 20
1.030009222107103
 30
0.0
 10
29.36919927188572
 20
-0.061395288316369
 30
0.0
 10
30.45891529415411
 20
-1.149944111233452
 30
0.0
 10
31.55025059164785
 20
-2.178058643399614
 30
0.0
 10
32.64097934823094
 20
-3.092433356946654
 30
0.0
 10
33.73030626689294
 20
-3.847484498111428
 30
0.0
 10
34.81924560867909
 20
-4.394453950538544
 30
0.0
 10
35.83900730003487
 20
-4.717552767384054
 30
0.0
 10
36.49643243947489
 20
-4.735243516989486
 30
0.0
 10
36.79039100181663
 20
-4.743153691104809
 30
0.0
  0
SPLINE
  5
F2
330
1F
100
AcDbEntity
  8
0
  6
Continuous
 62
     1
370
    15
100
AcDbSpline
210
0.0
220
0.0
230
1.0
 70
     8
 71
     3
 72
    16
 73
    12
 74
     0
 42
0.000000001
 43
0.00000001
 40
0.0
 40
0.0
 40
0.0
 40
0.0
 40
0.0010012101644951
 40
0.1377030032022127
 40
0.2744653572129476
 40
0.395569775592855
 40
0.516455590184864
 40
0.6372128236323767
 40
0.7581892292636454
 40
0.8792305948879404
 40
1.0
 40
1.0
 40
1.0
 40
1.0
 10
50.07259851452859
 20
4.468576317288794
 30
0.0
 10
50.07525683815201
 20
4.469769102429943
 30
0.0
 10
50.44087352824462
 20
4.633820669159967
 30
0.0
 10
51.16939640166948
 20
4.751106060950598
 30
0.0
 10
52.21680386113064
 20
4.780567587593252
 30
0.0
 10
53.22371304528654
 20
4.56717347369134
 30
0.0
 10
54.18662364247463
 20
4.18252793805326
 30
0.0
 10
55.14844098851346
 20
3.625622860389451
 30
0.0
 10
56.11205170824137
 20
2.921035443739579
 30
0.0
 10
57.07617329666571
 20
2.101251603544866
 30
0.0
 10
57.71763157800689
 20
1.488127194168039
 30
0.0
 10
58.03800000000016
 20
1.18190977484202
 30
0.0
  0
SPLINE
  5
F3
330
1F
100
AcDbEntity
  8
0
  6
Continuous
 62
     1
370
    15
100
AcDbSpline
210
0.0
220
0.0
230
1.0
 70
     8
 71
     3
 72
     8
 73
     4
 74
     0
 42
0.000000001
 43
0.00000001
 40
0.0
 40
0.0
 40
0.0
 40
0.0
 40
1.0
 40
1.0
 40
1.0
 40
1.0
 10
58.03799999999999
 20
1.181909774838458
 30
0.0
 10
58.08965520043499
 20
1.132033093151114
 30
0.0
 10
58.13941567854962
 20
1.080081208795517
 30
0.0
 10
58.18767641167624
 20
1.026448284709677
 30
0.0
  0
SPLINE
  5
F4
330
1F
100
AcDbEntity
  8
0
  6
Continuous
 62
     1
370
    15
100
AcDbSpline
210
0.0
220
0.0
230
1.0
 70
     8
 71
     3
 72
    16
 73
    12
 74
     0
 42
0.000000001
 43
0.00000001
 40
0.0
 40
0.0
 40
0.0
 40
0.0
 40
0.250000000000002
 40
0.250000000000002
 40
0.500000000000004
 40
0.500000000000004
 40
0.750000000000006
 40
0.750000000000006
 40
0.875000000000003
 40
0.875000000000003
 40
1.0
 40
1.0
 40
1.0
 40
1.0
 10
58.18767641168779
 20
1.02644828470041
 30
0.0
 10
58.17285083019498
 20
0.943221586136887
 30
0.0
 10
58.14817610501913
 20
0.8557974234680952
 30
0.0
 10
58.07159547663171
 20
0.6693438361882418
 30
0.0
 10
58.01838363457291
 20
0.5681863383975927
 30
0.0
 10
57.87622209978353
 20
0.3603991801821667
 30
0.0
 10
57.78542222429185
 20
0.2519689677740541
 30
0.0
 10
57.62768304965657
 20
0.0999207669871185
 30
0.0
 10
57.57032975221355
 20
0.0498371440626991
 30
0.0
 10
57.45284744639844
 20
-0.0429269819491666
 30
0.0
 10
57.39259762145554
 20
-0.0858834131380834
 30
0.0
 10
57.33093485845446
 20
-0.1256315886861208
 30
0.0
  0
SPLINE
  5
F5
330
1F
100
AcDbEntity
  8
0
  6
Continuous
 62
     1
370
    15
100
AcDbSpline
210
0.0
220
0.0
230
1.0
 70
     8
 71
     3
 72
     8
 73
     4
 74
     0
 42
0.000000001
 43
0.00000001
 40
0.0
 40
0.0
 40
0.0
 40
0.0
 40
1.0
 40
1.0
 40
1.0
 40
1.0
 10
58.79999999999999
 20
-1.141102845938009
 30
0.0
 10
58.3123252683926
 20
-0.8078837043871295
 30
0.0
 10
57.82256731793488
 20
-0.4692111669241424
 30
0.0
 10
57.33093485845445
 20
-0.1256315886861259
 30
0.0
  0
LINE
  5
F6
330
1F
100
AcDbEntity
  8
0
  6
Continuous
 62
     1
370
    15
100
AcDbLine
 10
58.79999999999999
 20
-1.738631853122141
 30
0.0
 11
58.79999999999999
 21
-1.141102845938009
 31
0.0
  0
LINE
  5
F7
330
1F
100
AcDbEntity
  8
0
  6
Continuous
 62
     1
370
    15
100
AcDbLine
 10
58.79999999999999
 20
-0.8660254037843779
 30
0.0
 11
58.79999999999999
 21
1.070724467133385
 31
0.0
  0
LINE
  5
F8
330
1F
100
AcDbEntity
  8
0
  6
Continuous
 62
     1
370
    15
100
AcDbLine
 10
57.33093485845446
 20
-0.1256315886861228
 30
0.0
 11
58.79999999999999
 21
-0.8660254037843779
 31
0.0
  0
SPLINE
  5
F9
330
1F
100
AcDbEntity
  8
0
  6
Continuous
 62
     1
370
    15
100
AcDbSpline
210
0.0
220
0.0
230
1.0
 70
     8
 71
     3
 72
    14
 73
    10
 74
     0
 42
0.000000001
 43
0.00000001
 40
0.0
 40
0.0
 40
0.0
 40
0.0
 40
0.25
 40
0.25
 40
0.5
 40
0.5
 40
0.75
 40
0.75
 40
1.0
 40
1.0
 40
1.0
 40
1.0
 10
58.79999999999999
 20
1.070724467133513
 30
0.0
 10
58.79999999999995
 20
1.117391287396793
 30
0.0
 10
58.78377157645386
 20
1.15321796202426
 30
0.0
 10
58.71849687992055
 20
1.197280667808018
 30
0.0
 10
58.66984704382193
 20
1.204731666895472
 30
0.0
 10
58.55281799962226
 20
1.192178569065927
 30
0.0
 10
58.48412305567895
 20
1.172333725589812
 30
0.0
 10
58.33953102376775
 20
1.112612424258319
 30
0.0
 10
58.26363746788346
 20
1.072924728719284
 30
0.0
 10
58.18767641168501
 20
1.026448284696041
 30
0.0
  0
LINE
  5
FA
330
1F
100
AcDbEntity
  8
0
  6
Continuous
 62
     1
370
    15
100
AcDbLine
 10
7.999999999999984
 20
1.342088254662931
 30
0.0
 11
7.999999999999989
 21
2.796462738063696
 31
0.0
  0
LINE
  5
FB
330
1F
100
AcDbEntity
  8
0
  6
Continuous
 62
     1
370
    15
100
AcDbLine
 10
7.999999999999982
 20
4.628335375776823
 30
0.0
 11
7.999999999999988
 21
4.762500000000061
 31
0.0
  0
LINE
  5
FC
330
1F
100
AcDbEntity
  8
0
  6
Continuous
 62
     1
370
    15
100
AcDbLine
 10
7.999999999999984
 20
-3.286247121113789
 30
0.0
 11
7.999999999999989
 21
-1.940316489463832
 31
0.0
  0
LINE
  5
FF
330
1F
100
AcDbEntity
  8
0
  6
Continuous
 62
     1
370
    15
100
AcDbLine
 10
58.79999999999999
 20
1.070724467133385
 30
0.0
 11
58.79999999999999
 21
2.250919584899863
 31
0.0
  0
LINE
  5
100
330
1F
100
AcDbEntity
  8
0
  6
Continuous
 62
     1
370
    15
100
AcDbLine
 10
58.79999999999999
 20
-2.802775274702157
 30
0.0
 11
58.79999999999999
 21
-1.738631853122141
 31
0.0
  0
SPLINE
  5
101
330
1F
100
AcDbEntity
  8
0
  6
Continuous
 62
     1
370
    15
100
AcDbSpline
210
0.0
220
0.0
230
1.0
 70
     8
 71
     3
 72
    14
 73
    10
 74
     0
 42
0.000000001
 43
0.00000001
 40
0.0
 40
0.0
 40
0.0
 40
0.0
 40
0.25
 40
0.25
 40
0.5
 40
0.5
 40
0.75
 40
0.75
 40
1.0
 40
1.0
 40
1.0
 40
1.0
 10
58.79999999999999
 20
-2.802775274702285
 30
0.0
 10
58.79999999999995
 20
-2.849442094965485
 30
0.0
 10
58.78377157645395
 20
-2.904950521047042
 30
0.0
 10
58.71849687992093
 20
-3.028178054502788
 30
0.0
 10
58.66984704382256
 20
-3.094631333119152
 30
0.0
 10
58.55281799962338
 20
-3.224010478696953
 30
0.0
 10
58.48412305568031
 20
-3.287478521960217
 30
0.0
 10
58.33953102376961
 20
-3.403117718600421
 30
0.0
 10
58.26363746788552
 20
-3.455473350600328
 30
0.0
 10
58.18767641168728
 20
-3.501122098161714
 30
0.0
  0
LINE
  5
102
330
1F
100
AcDbEntity
  8
0
  6
Continuous
 62
     1
370
    15
100
AcDbLine
 10
58.79999999999999
 20
-0.8660254037843779
 30
0.0
 11
58.79999999999999
 21
-1.141102845938009
 31
0.0
  0
LINE
  5
104
330
1F
100
AcDbEntity
  8
0
  6
Continuous
 62
     1
370
    15
100
AcDbLine
 10
58.79999999999999
 20
2.585374663495521
 30
0.0
 11
58.79999999999999
 21
3.238500000000061
 31
0.0
  0
LINE
  5
105
330
1F
100
AcDbEntity
  8
0
  6
Continuous
 62
     1
370
    15
100
AcDbLine
 10
58.79999999999999
 20
-2.802775274702158
 30
0.0
 11
58.79999999999999
 21
-3.23849999999995
 31
0.0
  0
LINE
  5
10B
330
1F
100
AcDbEntity
  8
중심선
100
AcDbLine
 10
-45.8
 20
0.0000000000000551
 30
0.0
 11
61.8
 21
0.0000000000000551
 31
0.0
  0
CIRCLE
  5
10C
330
1F
100
AcDbEntity
  8
외형선
100
AcDbCircle
 10
0.0
 20
0.0
 30
0.0
 40
3.000000000000004
  0
INSERT
  5
10D
330
1F
100
AcDbEntity
  8
0
  6
Continuous
 62
     7
100
AcDbBlockReference
 66
     1
  2
블럭10
 10
-18.62936049909349
 20
-51.78679627639976
 30
0.0
  0
ATTRIB
  5
10E
330
10D
100
AcDbEntity
  8
FORMAT
 62
     2
100
AcDbText
 10
-29.68038085127796
 20
-49.71142936356758
 30
0.0
 40
4.233333333333333
  1
GMG23916[ 6 FLUTE ]
 41
0.75
  7
SLDTEXTSTYLE0
 11
-29.68038085127796
 21
-51.82809603023424
 31
0.0
100
AcDbAttribute
  2
AUTOATTR0
 70
     0
 74
     1
  0
SEQEND
  5
10F
330
10D
100
AcDbEntity
  8
0
  6
Continuous
 62
     7
  0
HATCH
  5
110
330
1F
100
AcDbEntity
  8
중심선
100
AcDbHatch
 10
0.0
 20
0.0
 30
0.0
210
0.0
220
0.0
230
1.0
  2
SOLID
 70
     1
 71
     0
 91
        1
 92
        0
 93
        4
 72
     1
 10
-12.91445119471264
 20
-35.53962197475582
 11
-16.36072643854992
 21
-35.53962197475582
 72
     1
 10
-16.36072643854992
 20
-35.53962197475582
 11
-18.48895629775395
 21
-38.07594755532842
 72
     1
 10
-18.48895629775395
 20
-38.07594755532842
 11
-15.04264796880352
 21
-38.07590812602593
 72
     1
 10
-15.04264796880352
 20
-38.07590812602593
 11
-12.91445119471264
 21
-35.53962197475582
 97
        0
 75
     0
 76
     1
 98
        1
 10
-1.999514079925532
 20
0.262274431170748
  0
HATCH
  5
111
330
1F
100
AcDbEntity
  8
중심선
100
AcDbHatch
 10
0.0
 20
0.0
 30
0.0
210
0.0
220
0.0
230
1.0
  2
SOLID
 70
     1
 71
     0
 91
        1
 92
        0
 93
        4
 72
     1
 10
-7.901687203676691
 20
-35.53962197475582
 11
-11.34796244751397
 21
-35.53962197475582
 72
     1
 10
-11.34796244751397
 20
-35.53962197475582
 11
-15.87910045587136
 21
-40.93962197475584
 72
     1
 10
-15.87910045587136
 20
-40.93962197475584
 11
-12.43282521203408
 21
-40.93962197475584
 72
     1
 10
-12.43282521203408
 20
-40.93962197475584
 11
-7.901687203676691
 21
-35.53962197475582
 97
        0
 75
     0
 76
     1
 98
        1
 10
-1.999514079925532
 20
0.262274431170748
  0
HATCH
  5
112
330
1F
100
AcDbEntity
  8
중심선
100
AcDbHatch
 10
0.0
 20
0.0
 30
0.0
210
0.0
220
0.0
230
1.0
  2
SOLID
 70
     1
 71
     0
 91
        1
 92
        0
 93
        4
 72
     1
 10
-2.888923212640796
 20
-35.53962197475585
 11
-6.335198456477912
 21
-35.53962197475582
 72
     1
 10
-6.335198456477912
 20
-35.53962197475582
 11
-13.38363535836716
 21
-43.93962197475584
 72
     1
 10
-13.38363535836716
 20
-43.93962197475584
 11
-9.937360114529877
 21
-43.93962197475584
 72
     1
 10
-9.937360114529877
 20
-43.93962197475584
 11
-2.888923212640795
 21
-35.53962197475585
 97
        0
 75
     0
 76
     1
 98
        1
 10
-1.999514079925532
 20
0.262274431170748
  0
HATCH
  5
113
330
1F
100
AcDbEntity
  8
중심선
100
AcDbHatch
 10
0.0
 20
0.0
 30
0.0
210
0.0
220
0.0
230
1.0
  2
SOLID
 70
     1
 71
     0
 91
        1
 92
        0
 93
        6
 72
     3
 10
1.910967218371404
 20
-39.7396219748071
 11
3.960054785062283
 21
1.540882976769353E-10
 40
0.3939339440162628
 50
17.09539180608436
 51
320.0019657685081
 73
     0
 72
     1
 10
3.593966874071999
 20
-38.32751597939413
 11
5.899268747773037
 21
-36.3931892693462
 72
     3
 10
1.910967218318557
 20
-39.73962197475597
 11
6.600054785286829
 21
-1.278976924368180E-13
 40
0.636358354079598
 50
39.99873849337411
 51
368.4976242363724
 73
     1
 72
     1
 10
8.336299710219166
 20
-38.77962197468585
 11
0.5910345251544795
 21
-38.77962197468582
 72
     1
 10
0.5910345251544795
 20
-38.77962197468582
 11
0.5910094807085455
 21
-40.69962197468574
 72
     1
 10
0.5910094807085455
 20
-40.69962197468574
 11
5.032389250180582
 21
-40.69962197468571
 97
        0
 75
     0
 76
     1
 98
        1
 10
-1.999514079925532
 20
0.262274431170748
  0
POINT
  5
114
330
1F
100
AcDbEntity
  8
치수문자_일반주서
100
AcDbPoint
 10
0.0
 20
0.0
 30
0.0
  0
DIMENSION
  5
115
330
1F
100
AcDbEntity
  8
치수문자_일반주서
100
AcDbDimension
  2
_D
 10
76.62074571577296
 20
4.762500000000134
 30
0.0
 11
76.62074571577297
 21
1.090946215346531
 31
0.0
 70
   160
  1
%%c<>
 71
     2
 42
9.525000000000011
 52
-270.0
  3
SLDDIMSTYLE0
100
AcDbAlignedDimension
 13
57.27599999999999
 23
-4.76249999999995
 33
0.0
 14
57.00786424159699
 24
4.762500000000061
 34
0.0
 50
90.0000000000002
100
AcDbRotatedDimension
1001
ACAD
1000
DSTYLE
1002
{
1070
   171
1070
     3
1070
   273
1070
     7
1002
}
  0
DIMENSION
  5
12A
330
1F
100
AcDbEntity
  8
치수문자_일반주서
100
AcDbDimension
  2
_D_1
 10
58.79999999999999
 20
37.41805141807184
 30
0.0
 11
7.999999999999998
 21
37.41805141807184
 31
0.0
 70
   160
  1
<>
 71
     2
 42
101.6
  3
SLDDIMSTYLE1
100
AcDbAlignedDimension
 13
-42.8
 23
4.262500000000053
 33
0.0
 14
58.79999999999999
 24
4.000500000000061
 34
0.0
100
AcDbRotatedDimension
1001
ACAD
1000
DSTYLE
1002
{
1070
   171
1070
     3
1070
   273
1070
     7
1002
}
  0
DIMENSION
  5
13E
330
1F
100
AcDbEntity
  8
치수문자_일반주서
100
AcDbDimension
  2
_D_2
 10
7.999999999999986
 20
21.627494530338
 30
0.0
 11
32.84120226380296
 21
21.627494530338
 31
0.0
 70
   160
  1
<>
 71
     2
 42
50.8
  3
SLDDIMSTYLE1
100
AcDbAlignedDimension
 13
58.79999999999999
 23
3.238500000000061
 33
0.0
 14
7.999999999999986
 24
-4.76249999999994
 34
0.0
 50
-0.000000000000004
100
AcDbRotatedDimension
1001
ACAD
1000
DSTYLE
1002
{
1070
   171
1070
     3
1070
   273
1070
     7
1002
}
  0
DIMENSION
  5
151
330
1F
100
AcDbEntity
  8
치수문자_일반주서
100
AcDbDimension
  2
_D_3
 10
-55.8
 20
-4.762499999999991
 30
0.0
 11
-55.80000000000002
 21
0.0000000000000572
 31
0.0
 70
   160
  1
%%c<>
 71
     2
 42
9.525
 52
-270.0
  3
SLDDIMSTYLE0
100
AcDbAlignedDimension
 13
-42.3
 23
4.762500000000058
 33
0.0
 14
-42.3
 24
-4.762499999999942
 34
0.0
 50
90.0000000000002
100
AcDbRotatedDimension
1001
ACAD
1000
DSTYLE
1002
{
1070
   171
1070
     3
1070
   273
1070
     7
1002
}
  0
INSERT
  5
16B
330
1F
100
AcDbEntity
  8
외형선
100
AcDbBlockReference
  2
SW_DOWELSYMBOL_0
 10
0.0
 20
0.0
 30
0.0
  0
ARC
  5
193
330
1F
100
AcDbEntity
  8
0
  6
Continuous
 62
     1
370
    15
100
AcDbCircle
 10
57.27599999999999
 20
3.238500000000061
 30
0.0
 40
1.524
100
AcDbArc
 50
0.0
 51
90.0
  0
ARC
  5
194
330
1F
100
AcDbEntity
  8
0
  6
Continuous
 62
     1
370
    15
100
AcDbCircle
 10
57.27599999999999
 20
-3.23849999999995
 30
0.0
 40
1.524
100
AcDbArc
 50
270.0
 51
0.0
  0
DIMENSION
  5
196
330
1F
100
AcDbEntity
  8
치수문자_일반주서
100
AcDbDimension
  2
*D7
 10
57.27599999999999
 20
3.238500000000061
 30
0.0
 11
72.15178683021611
 21
21.06995084519122
 31
0.0
 70
   164
  1
<>
 71
     5
 42
1.524000000000002
  3
SLDDIMSTYLE1
100
AcDbRadialDimension
 15
58.25227005411949
 25
4.408744752788778
 35
0.0
 40
0.0
1001
ACAD
1000
DSTYLE
1002
{
1070
   171
1070
     3
1070
   273
1070
     2
1002
}
1001
ACAD_DSTYLE_DIMRADIAL_EXTENSION
1070
   387
1070
     1
1070
   388
1040
0.0
1070
   390
1040
1.570796326794897
  0
LINE
  5
201
330
1F
100
AcDbEntity
  8
0
  6
Continuous
 62
     4
370
    15
100
AcDbLine
 10
-26.52495000000012
 20
3.492500000000064
 30
0.0
 11
-19.38754999999999
 21
3.492500000000064
 31
0.0
  0
LINE
  5
202
330
1F
100
AcDbEntity
  8
0
  6
Continuous
 62
     4
370
    15
100
AcDbLine
 10
-26.52495000000012
 20
3.492500000000064
 30
0.0
 11
-27.7949500000001
 21
4.762500000000045
 31
0.0
  0
LINE
  5
203
330
1F
100
AcDbEntity
  8
0
  6
Continuous
 62
     4
370
    15
100
AcDbLine
 10
-19.38754999999999
 20
3.492500000000064
 30
0.0
 11
-18.11754999999989
 21
4.762500000000045
 31
0.0
  0
LINE
  5
204
330
1F
100
AcDbEntity
  8
0
  6
Continuous
 62
     4
370
    15
100
AcDbLine
 10
-27.79495000000012
 20
4.762500000000059
 30
0.0
 11
-42.3
 21
4.762500000000058
 31
0.0
  0
ENDSEC
  0
SECTION
  2
OBJECTS
  0
DICTIONARY
  5
C
330
0
100
AcDbDictionary
281
     1
  3
ACAD_GROUP
350
D
  3
ACAD_IMAGE_VARS
350
18F
  3
ACAD_LAYOUT
350
1A
  3
ACAD_MLINESTYLE
350
17
  3
ACAD_PLOTSETTINGS
350
19
  3
ACAD_PLOTSTYLENAME
350
E
  3
ACAD_SCALELIST
350
47
  3
APPDATA
350
18D
  3
DWGPROPS
350
229
  0
DICTIONARY
  5
1F2
330
2
100
AcDbDictionary
280
     1
281
     1
  3
ACAD_LAYERSTATES
360
1F3
  0
DICTIONARY
  5
227
330
1F
100
AcDbDictionary
280
     1
281
     1
  3
DIM_BOUNDING_BOXES_V1
360
228
  0
DICTIONARY
  5
D
102
{ACAD_REACTORS
330
C
102
}
330
C
100
AcDbDictionary
281
     1
  0
RASTERVARIABLES
  5
18F
102
{ACAD_REACTORS
330
C
102
}
330
C
100
AcDbRasterVariables
 90
        0
 70
     1
 71
     1
 72
     1
  0
DICTIONARY
  5
1A
102
{ACAD_REACTORS
330
C
102
}
330
C
100
AcDbDictionary
281
     1
  3
Layout1
350
1E
  3
Layout2
350
26
  3
Model
350
22
  0
DICTIONARY
  5
17
102
{ACAD_REACTORS
330
C
102
}
330
C
100
AcDbDictionary
281
     1
  3
Standard
350
18
  0
DICTIONARY
  5
19
102
{ACAD_REACTORS
330
C
102
}
330
C
100
AcDbDictionary
281
     1
  0
ACDBDICTIONARYWDFLT
  5
E
102
{ACAD_REACTORS
330
C
102
}
330
C
100
AcDbDictionary
281
     1
  3
Normal
350
F
100
AcDbDictionaryWithDefault
340
F
  0
DICTIONARY
  5
47
102
{ACAD_REACTORS
330
C
102
}
330
C
100
AcDbDictionary
281
     1
  3
A0
350
48
  3
A1
350
49
  3
A2
350
4A
  3
A3
350
4B
  3
A4
350
4C
  3
A5
350
4D
  3
A6
350
4E
  3
A7
350
4F
  3
A8
350
50
  3
A9
350
51
  3
B0
350
52
  3
B1
350
53
  3
B2
350
54
  3
B3
350
55
  3
B4
350
56
  3
B5
350
57
  3
B6
350
58
  3
B7
350
59
  3
B8
350
5A
  3
B9
350
5B
  3
C0
350
5C
  3
C1
350
5D
  3
C2
350
5E
  3
C3
350
5F
  3
C4
350
60
  3
C5
350
61
  3
C6
350
62
  3
C7
350
63
  3
C8
350
64
  3
C9
350
65
  3
D0
350
66
  3
D1
350
67
  3
D2
350
68
  0
DICTIONARY
  5
18D
102
{ACAD_REACTORS
330
C
102
}
330
C
100
AcDbDictionary
281
     1
  0
XRECORD
  5
229
102
{ACAD_REACTORS
330
C
102
}
330
C
100
AcDbXrecord
280
     1
  1
DWGPROPS COOKIE
  2

  3

  4

  6

  7

  8
12015018
  9

300
=
301
=
302
=
303
=
304
=
305
=
306
=
307
=
308
=
309
=
 40
0.0
 41
2458236.368253785
 42
2459697.057543623
  1

 90
        0
  0
DICTIONARY
  5
1F3
102
{ACAD_REACTORS
330
1F2
102
}
330
1F2
100
AcDbDictionary
281
     1
  0
DICTIONARY
  5
228
102
{ACAD_REACTORS
330
227
102
}
330
227
100
AcDbDictionary
281
     1
  0
LAYOUT
  5
1E
102
{ACAD_REACTORS
330
1A
102
}
330
1A
100
AcDbPlotSettings
  1

  2
none_device
  4

  6

 40
0.0
 41
0.0
 42
0.0
 43
0.0
 44
0.0
 45
0.0
 46
0.0
 47
0.0
 48
0.0
 49
0.0
140
0.0
141
0.0
142
1.0
143
1.0
 70
   688
 72
     1
 73
     0
 74
     5
  7

 75
    16
147
1.0
148
0.0
149
0.0
100
AcDbLayout
  1
Layout1
 70
     1
 71
     1
 10
0.0
 20
0.0
 11
420.0
 21
297.0
 12
0.0
 22
0.0
 32
0.0
 14
1.000000000000000E+20
 24
1.000000000000000E+20
 34
1.000000000000000E+20
 15
-1.000000000000000E+20
 25
-1.000000000000000E+20
 35
-1.000000000000000E+20
146
0.0
 13
0.0
 23
0.0
 33
0.0
 16
1.0
 26
0.0
 36
0.0
 17
0.0
 27
1.0
 37
0.0
 76
     0
330
1B
  0
LAYOUT
  5
26
102
{ACAD_REACTORS
330
1A
102
}
330
1A
100
AcDbPlotSettings
  1

  2
none_device
  4

  6

 40
0.0
 41
0.0
 42
0.0
 43
0.0
 44
0.0
 45
0.0
 46
0.0
 47
0.0
 48
0.0
 49
0.0
140
0.0
141
0.0
142
1.0
143
1.0
 70
   688
 72
     1
 73
     0
 74
     5
  7

 75
    16
147
1.0
148
0.0
149
0.0
100
AcDbLayout
  1
Layout2
 70
     1
 71
     2
 10
0.0
 20
0.0
 11
0.0
 21
0.0
 12
0.0
 22
0.0
 32
0.0
 14
0.0
 24
0.0
 34
0.0
 15
0.0
 25
0.0
 35
0.0
146
0.0
 13
0.0
 23
0.0
 33
0.0
 16
1.0
 26
0.0
 36
0.0
 17
0.0
 27
1.0
 37
0.0
 76
     0
330
23
  0
LAYOUT
  5
22
102
{ACAD_REACTORS
330
1A
102
}
330
1A
100
AcDbPlotSettings
  1

  2
none_device
  4
ANSI_A_(11.00_x_8.50_Inches)
  6

 40
6.35
 41
19.05
 42
6.35000508
 43
19.05000254
 44
279.4
 45
215.9
 46
130.0565626932801
 47
91.79381710424715
 48
0.0
 49
0.0
140
0.0
141
0.0
142
0.0822892103079729
143
1.0
 70
  1696
 72
     0
 73
     0
 74
     0
  7

 75
     0
147
0.0235690232323232
148
0.0
149
0.0
100
AcDbLayout
  1
Model
 70
     1
 71
     0
 10
0.0
 20
0.0
 11
420.0
 21
297.0
 12
0.0
 22
0.0
 32
0.0
 14
-60.17500000000007
 24
-49.71142936356758
 34
0.0
 15
81.82080003846158
 25
41.79305141807184
 35
0.0
146
0.0
 13
0.0
 23
0.0
 33
0.0
 16
1.0
 26
0.0
 36
0.0
 17
0.0
 27
1.0
 37
0.0
 76
     0
330
1F
331
29
  0
MLINESTYLE
  5
18
102
{ACAD_REACTORS
330
17
102
}
330
17
100
AcDbMlineStyle
  2
Standard
 70
     0
  3

 62
   256
 51
90.0
 52
90.0
 71
     2
 49
0.5
 62
   256
  6
BYLAYER
 49
-0.5
 62
   256
  6
BYLAYER
  0
ACDBPLACEHOLDER
  5
F
102
{ACAD_REACTORS
330
E
102
}
330
E
  0
SCALE
  5
48
102
{ACAD_REACTORS
330
47
102
}
330
47
100
AcDbScale
 70
     0
300
1:1
140
1.0
141
1.0
290
     1
  0
SCALE
  5
49
102
{ACAD_REACTORS
330
47
102
}
330
47
100
AcDbScale
 70
     0
300
1:2
140
1.0
141
2.0
290
     0
  0
SCALE
  5
4A
102
{ACAD_REACTORS
330
47
102
}
330
47
100
AcDbScale
 70
     0
300
1:4
140
1.0
141
4.0
290
     0
  0
SCALE
  5
4B
102
{ACAD_REACTORS
330
47
102
}
330
47
100
AcDbScale
 70
     0
300
1:5
140
1.0
141
5.0
290
     0
  0
SCALE
  5
4C
102
{ACAD_REACTORS
330
47
102
}
330
47
100
AcDbScale
 70
     0
300
1:8
140
1.0
141
8.0
290
     0
  0
SCALE
  5
4D
102
{ACAD_REACTORS
330
47
102
}
330
47
100
AcDbScale
 70
     0
300
1:10
140
1.0
141
10.0
290
     0
  0
SCALE
  5
4E
102
{ACAD_REACTORS
330
47
102
}
330
47
100
AcDbScale
 70
     0
300
1:16
140
1.0
141
16.0
290
     0
  0
SCALE
  5
4F
102
{ACAD_REACTORS
330
47
102
}
330
47
100
AcDbScale
 70
     0
300
1:20
140
1.0
141
20.0
290
     0
  0
SCALE
  5
50
102
{ACAD_REACTORS
330
47
102
}
330
47
100
AcDbScale
 70
     0
300
1:30
140
1.0
141
30.0
290
     0
  0
SCALE
  5
51
102
{ACAD_REACTORS
330
47
102
}
330
47
100
AcDbScale
 70
     0
300
1:40
140
1.0
141
40.0
290
     0
  0
SCALE
  5
52
102
{ACAD_REACTORS
330
47
102
}
330
47
100
AcDbScale
 70
     0
300
1:50
140
1.0
141
50.0
290
     0
  0
SCALE
  5
53
102
{ACAD_REACTORS
330
47
102
}
330
47
100
AcDbScale
 70
     0
300
1:100
140
1.0
141
100.0
290
     0
  0
SCALE
  5
54
102
{ACAD_REACTORS
330
47
102
}
330
47
100
AcDbScale
 70
     0
300
2:1
140
2.0
141
1.0
290
     0
  0
SCALE
  5
55
102
{ACAD_REACTORS
330
47
102
}
330
47
100
AcDbScale
 70
     0
300
4:1
140
4.0
141
1.0
290
     0
  0
SCALE
  5
56
102
{ACAD_REACTORS
330
47
102
}
330
47
100
AcDbScale
 70
     0
300
8:1
140
8.0
141
1.0
290
     0
  0
SCALE
  5
57
102
{ACAD_REACTORS
330
47
102
}
330
47
100
AcDbScale
 70
     0
300
10:1
140
10.0
141
1.0
290
     0
  0
SCALE
  5
58
102
{ACAD_REACTORS
330
47
102
}
330
47
100
AcDbScale
 70
     0
300
100:1
140
100.0
141
1.0
290
     0
  0
SCALE
  5
59
102
{ACAD_REACTORS
330
47
102
}
330
47
100
AcDbScale
 70
     0
300
1/128" = 1'-0"
140
0.0078125
141
12.0
290
     0
  0
SCALE
  5
5A
102
{ACAD_REACTORS
330
47
102
}
330
47
100
AcDbScale
 70
     0
300
1/64" = 1'-0"
140
0.015625
141
12.0
290
     0
  0
SCALE
  5
5B
102
{ACAD_REACTORS
330
47
102
}
330
47
100
AcDbScale
 70
     0
300
1/32" = 1'-0"
140
0.03125
141
12.0
290
     0
  0
SCALE
  5
5C
102
{ACAD_REACTORS
330
47
102
}
330
47
100
AcDbScale
 70
     0
300
1/16" = 1'-0"
140
0.0625
141
12.0
290
     0
  0
SCALE
  5
5D
102
{ACAD_REACTORS
330
47
102
}
330
47
100
AcDbScale
 70
     0
300
3/32" = 1'-0"
140
0.09375
141
12.0
290
     0
  0
SCALE
  5
5E
102
{ACAD_REACTORS
330
47
102
}
330
47
100
AcDbScale
 70
     0
300
1/8" = 1'-0"
140
0.125
141
12.0
290
     0
  0
SCALE
  5
5F
102
{ACAD_REACTORS
330
47
102
}
330
47
100
AcDbScale
 70
     0
300
3/16" = 1'-0"
140
0.1875
141
12.0
290
     0
  0
SCALE
  5
60
102
{ACAD_REACTORS
330
47
102
}
330
47
100
AcDbScale
 70
     0
300
1/4" = 1'-0"
140
0.25
141
12.0
290
     0
  0
SCALE
  5
61
102
{ACAD_REACTORS
330
47
102
}
330
47
100
AcDbScale
 70
     0
300
3/8" = 1'-0"
140
0.375
141
12.0
290
     0
  0
SCALE
  5
62
102
{ACAD_REACTORS
330
47
102
}
330
47
100
AcDbScale
 70
     0
300
1/2" = 1'-0"
140
0.5
141
12.0
290
     0
  0
SCALE
  5
63
102
{ACAD_REACTORS
330
47
102
}
330
47
100
AcDbScale
 70
     0
300
3/4" = 1'-0"
140
0.75
141
12.0
290
     0
  0
SCALE
  5
64
102
{ACAD_REACTORS
330
47
102
}
330
47
100
AcDbScale
 70
     0
300
1" = 1'-0"
140
1.0
141
12.0
290
     0
  0
SCALE
  5
65
102
{ACAD_REACTORS
330
47
102
}
330
47
100
AcDbScale
 70
     0
300
1-1/2" = 1'-0"
140
1.5
141
12.0
290
     0
  0
SCALE
  5
66
102
{ACAD_REACTORS
330
47
102
}
330
47
100
AcDbScale
 70
     0
300
3" = 1'-0"
140
3.0
141
12.0
290
     0
  0
SCALE
  5
67
102
{ACAD_REACTORS
330
47
102
}
330
47
100
AcDbScale
 70
     0
300
6" = 1'-0"
140
6.0
141
12.0
290
     0
  0
SCALE
  5
68
102
{ACAD_REACTORS
330
47
102
}
330
47
100
AcDbScale
 70
     0
300
1'-0" = 1'-0"
140
12.0
141
12.0
290
     0
  0
ENDSEC
  0
EOF
