  0
SECTION
  2
HEADER
  9
$ACADVER
  1
AC1015
  9
$ACADMAINTVER
 70
     6
  9
$DWGCODEPAGE
  3
ANSI_949
  9
$INSBASE
 10
0.0
 20
0.0
 30
0.0
  9
$EXTMIN
 10
-60.17500000000007
 20
-49.71142936356761
 30
0.0
  9
$EXTMAX
 10
80.85321675921895
 20
41.79305141807179
 30
0.0
  9
$LIMMIN
 10
0.0
 20
0.0
  9
$LIMMAX
 10
420.0
 20
297.0
  9
$ORTHOMODE
 70
     0
  9
$REGENMODE
 70
     1
  9
$FILLMODE
 70
     1
  9
$QTEXTMODE
 70
     0
  9
$MIRRTEXT
 70
     1
  9
$LTSCALE
 40
1.0
  9
$ATTMODE
 70
     1
  9
$TEXTSIZE
 40
3.5
  9
$TRACEWID
 40
1.0
  9
$TEXTSTYLE
  7
Standard
  9
$CLAYER
  8
0
  9
$CELTYPE
  6
ByLayer
  9
$CECOLOR
 62
   256
  9
$CELTSCALE
 40
1.0
  9
$DISPSILH
 70
     0
  9
$DIMSCALE
 40
1.0
  9
$DIMASZ
 40
3.302
  9
$DIMEXO
 40
1.0
  9
$DIMDLI
 40
3.75
  9
$DIMRND
 40
0.0
  9
$DIMDLE
 40
0.0
  9
$DIMEXE
 40
1.0
  9
$DIMTP
 40
0.0
  9
$DIMTM
 40
0.0
  9
$DIMTXT
 40
3.5
  9
$DIMCEN
 40
2.5
  9
$DIMTSZ
 40
0.0
  9
$DIMTOL
 70
     0
  9
$DIMLIM
 70
     0
  9
$DIMTIH
 70
     1
  9
$DIMTOH
 70
     1
  9
$DIMSE1
 70
     0
  9
$DIMSE2
 70
     0
  9
$DIMTAD
 70
     1
  9
$DIMZIN
 70
     0
  9
$DIMBLK
  1

  9
$DIMASO
 70
     1
  9
$DIMSHO
 70
     1
  9
$DIMPOST
  1

  9
$DIMAPOST
  1

  9
$DIMALT
 70
     0
  9
$DIMALTD
 70
     3
  9
$DIMALTF
 40
0.0393700787401575
  9
$DIMLFAC
 40
1.0
  9
$DIMTOFL
 70
     1
  9
$DIMTVP
 40
0.0
  9
$DIMTIX
 70
     0
  9
$DIMSOXD
 70
     0
  9
$DIMSAH
 70
     0
  9
$DIMBLK1
  1

  9
$DIMBLK2
  1

  9
$DIMSTYLE
  2
ISO-25
  9
$DIMCLRD
 70
     0
  9
$DIMCLRE
 70
     0
  9
$DIMCLRT
 70
     0
  9
$DIMTFAC
 40
1.0
  9
$DIMGAP
 40
1.524
  9
$DIMJUST
 70
     0
  9
$DIMSD1
 70
     0
  9
$DIMSD2
 70
     0
  9
$DIMTOLJ
 70
     0
  9
$DIMTZIN
 70
     0
  9
$DIMALTZ
 70
     0
  9
$DIMALTTZ
 70
     0
  9
$DIMUPT
 70
     0
  9
$DIMDEC
 70
     2
  9
$DIMTDEC
 70
     2
  9
$DIMALTU
 70
     2
  9
$DIMALTTD
 70
     3
  9
$DIMTXSTY
  7
Standard
  9
$DIMAUNIT
 70
     0
  9
$DIMADEC
 70
     2
  9
$DIMALTRND
 40
0.0
  9
$DIMAZIN
 70
     0
  9
$DIMDSEP
 70
    44
  9
$DIMATFIT
 70
     3
  9
$DIMFRAC
 70
     0
  9
$DIMLDRBLK
  1

  9
$DIMLUNIT
 70
     2
  9
$DIMLWD
 70
    -2
  9
$DIMLWE
 70
    -2
  9
$DIMTMOVE
 70
     0
  9
$LUNITS
 70
     2
  9
$LUPREC
 70
     2
  9
$SKETCHINC
 40
1.0
  9
$FILLETRAD
 40
10.0
  9
$AUNITS
 70
     0
  9
$AUPREC
 70
     2
  9
$MENU
  1
.
  9
$ELEVATION
 40
0.0
  9
$PELEVATION
 40
0.0
  9
$THICKNESS
 40
0.0
  9
$LIMCHECK
 70
     0
  9
$CHAMFERA
 40
0.0
  9
$CHAMFERB
 40
0.0
  9
$CHAMFERC
 40
0.0
  9
$CHAMFERD
 40
0.0
  9
$SKPOLY
 70
     0
  9
$TDCREATE
 40
2458236.742983368
  9
$TDUCREATE
 40
2458236.367983368
  9
$TDUPDATE
 40
2459697.432333357
  9
$TDUUPDATE
 40
2459697.057333357
  9
$TDINDWG
 40
0.0036519097
  9
$TDUSRTIMER
 40
0.0001497454
  9
$USRTIMER
 70
     1
  9
$ANGBASE
 50
0.0
  9
$ANGDIR
 70
     0
  9
$PDMODE
 70
     0
  9
$PDSIZE
 40
-1.0
  9
$PLINEWID
 40
0.0
  9
$SPLFRAME
 70
     0
  9
$SPLINETYPE
 70
     6
  9
$SPLINESEGS
 70
     8
  9
$HANDSEED
  5
211
  9
$SURFTAB1
 70
     6
  9
$SURFTAB2
 70
     6
  9
$SURFTYPE
 70
     6
  9
$SURFU
 70
     6
  9
$SURFV
 70
     6
  9
$UCSBASE
  2

  9
$UCSNAME
  2

  9
$UCSORG
 10
0.0
 20
0.0
 30
0.0
  9
$UCSXDIR
 10
1.0
 20
0.0
 30
0.0
  9
$UCSYDIR
 10
0.0
 20
1.0
 30
0.0
  9
$UCSORTHOREF
  2

  9
$UCSORTHOVIEW
 70
     0
  9
$UCSORGTOP
 10
0.0
 20
0.0
 30
0.0
  9
$UCSORGBOTTOM
 10
0.0
 20
0.0
 30
0.0
  9
$UCSORGLEFT
 10
0.0
 20
0.0
 30
0.0
  9
$UCSORGRIGHT
 10
0.0
 20
0.0
 30
0.0
  9
$UCSORGFRONT
 10
0.0
 20
0.0
 30
0.0
  9
$UCSORGBACK
 10
0.0
 20
0.0
 30
0.0
  9
$PUCSBASE
  2

  9
$PUCSNAME
  2

  9
$PUCSORG
 10
0.0
 20
0.0
 30
0.0
  9
$PUCSXDIR
 10
1.0
 20
0.0
 30
0.0
  9
$PUCSYDIR
 10
0.0
 20
1.0
 30
0.0
  9
$PUCSORTHOREF
  2

  9
$PUCSORTHOVIEW
 70
     0
  9
$PUCSORGTOP
 10
0.0
 20
0.0
 30
0.0
  9
$PUCSORGBOTTOM
 10
0.0
 20
0.0
 30
0.0
  9
$PUCSORGLEFT
 10
0.0
 20
0.0
 30
0.0
  9
$PUCSORGRIGHT
 10
0.0
 20
0.0
 30
0.0
  9
$PUCSORGFRONT
 10
0.0
 20
0.0
 30
0.0
  9
$PUCSORGBACK
 10
0.0
 20
0.0
 30
0.0
  9
$USERI1
 70
     0
  9
$USERI2
 70
     0
  9
$USERI3
 70
     0
  9
$USERI4
 70
     0
  9
$USERI5
 70
     0
  9
$USERR1
 40
0.0
  9
$USERR2
 40
0.0
  9
$USERR3
 40
0.0
  9
$USERR4
 40
0.0
  9
$USERR5
 40
0.0
  9
$WORLDVIEW
 70
     1
  9
$SHADEDGE
 70
     3
  9
$SHADEDIF
 70
    70
  9
$TILEMODE
 70
     1
  9
$MAXACTVP
 70
    64
  9
$PINSBASE
 10
0.0
 20
0.0
 30
0.0
  9
$PLIMCHECK
 70
     0
  9
$PEXTMIN
 10
1.000000000000000E+20
 20
1.000000000000000E+20
 30
1.000000000000000E+20
  9
$PEXTMAX
 10
-1.000000000000000E+20
 20
-1.000000000000000E+20
 30
-1.000000000000000E+20
  9
$PLIMMIN
 10
0.0
 20
0.0
  9
$PLIMMAX
 10
0.0
 20
0.0
  9
$UNITMODE
 70
     0
  9
$VISRETAIN
 70
     1
  9
$PLINEGEN
 70
     0
  9
$PSLTSCALE
 70
     1
  9
$TREEDEPTH
 70
  3020
  9
$CMLSTYLE
  2
Standard
  9
$CMLJUST
 70
     0
  9
$CMLSCALE
 40
20.0
  9
$PROXYGRAPHICS
 70
     1
  9
$MEASUREMENT
 70
     1
  9
$CELWEIGHT
370
    -1
  9
$ENDCAPS
280
     0
  9
$JOINSTYLE
280
     0
  9
$LWDISPLAY
290
     1
  9
$INSUNITS
 70
     4
  9
$HYPERLINKBASE
  1

  9
$STYLESHEET
  1

  9
$XEDIT
290
     1
  9
$CEPSNTYPE
380
     0
  9
$PSTYLEMODE
290
     1
  9
$FINGERPRINTGUID
  2
{43A3CFD6-B97F-45E7-A89E-9FE6FD8E50A3}
  9
$VERSIONGUID
  2
{FAEB1C32-E019-11D5-929B-00C0DF256EC4}
  9
$EXTNAMES
290
     1
  9
$PSVPSCALE
 40
0.0
  9
$OLESTARTUP
290
     0
  0
ENDSEC
  0
SECTION
  2
CLASSES
  0
CLASS
  1
ACDBDICTIONARYWDFLT
  2
AcDbDictionaryWithDefault
  3
ObjectDBX Classes
 90
        0
280
     0
281
     0
  0
CLASS
  1
VISUALSTYLE
  2
AcDbVisualStyle
  3
ObjectDBX Classes
 90
     4095
280
     0
281
     0
  0
CLASS
  1
MATERIAL
  2
AcDbMaterial
  3
ObjectDBX Classes
 90
     1153
280
     0
281
     0
  0
CLASS
  1
SCALE
  2
AcDbScale
  3
ObjectDBX Classes
 90
     1153
280
     0
281
     0
  0
CLASS
  1
SUN
  2
AcDbSun
  3
SCENEOE
 90
     1153
280
     0
281
     0
  0
CLASS
  1
ACDBPLACEHOLDER
  2
AcDbPlaceHolder
  3
ObjectDBX Classes
 90
        0
280
     0
281
     0
  0
CLASS
  1
LAYOUT
  2
AcDbLayout
  3
ObjectDBX Classes
 90
        0
280
     0
281
     0
  0
CLASS
  1
TABLESTYLE
  2
AcDbTableStyle
  3
ObjectDBX Classes
 90
     4095
280
     0
281
     0
  0
CLASS
  1
MLEADERSTYLE
  2
AcDbMLeaderStyle
  3
ACDB_MLEADERSTYLE_CLASS
 90
     4095
280
     0
281
     0
  0
CLASS
  1
RASTERVARIABLES
  2
AcDbRasterVariables
  3
ISM
 90
        0
280
     0
281
     0
  0
CLASS
  1
DIMASSOC
  2
AcDbDimAssoc
  3
"AcDbDimAssoc|Product Desc:     AcDim ARX App For Dimension|Company:          Autodesk, Inc.|WEB Address:      www.autodesk.com"
 90
        0
280
     0
281
     0
  0
ENDSEC
  0
SECTION
  2
TABLES
  0
TABLE
  2
VPORT
  5
8
330
0
100
AcDbSymbolTable
 70
     1
  0
VPORT
  5
29
330
8
100
AcDbSymbolTableRecord
100
AcDbViewportTableRecord
  2
*Active
 70
     0
 10
0.0
 20
0.0
 11
1.0
 21
1.0
 12
10.33910837960944
 22
-3.959188972747917
 13
0.0
 23
0.0
 14
10.0
 24
10.0
 15
10.0
 25
10.0
 16
0.0
 26
0.0
 36
1.0
 17
0.0
 27
0.0
 37
0.0
 40
93.33457039727217
 41
1.89119170984456
 42
50.0
 43
0.0
 44
0.0
 50
0.0
 51
0.0
 71
    16
 72
  2000
 73
     1
 74
     3
 75
     0
 76
     0
 77
     0
 78
     0
281
     0
 65
     1
110
0.0
120
0.0
130
0.0
111
1.0
121
0.0
131
0.0
112
0.0
122
1.0
132
0.0
 79
     0
146
0.0
  0
ENDTAB
  0
TABLE
  2
LTYPE
  5
5
330
0
100
AcDbSymbolTable
 70
     6
  0
LTYPE
  5
14
330
5
100
AcDbSymbolTableRecord
100
AcDbLinetypeTableRecord
  2
ByBlock
 70
     0
  3

 72
    65
 73
     0
 40
0.0
  0
LTYPE
  5
15
330
5
100
AcDbSymbolTableRecord
100
AcDbLinetypeTableRecord
  2
ByLayer
 70
     0
  3

 72
    65
 73
     0
 40
0.0
  0
LTYPE
  5
16
330
5
100
AcDbSymbolTableRecord
100
AcDbLinetypeTableRecord
  2
Continuous
 70
     0
  3
Solid line
 72
    65
 73
     0
 40
0.0
  0
LTYPE
  5
6A
330
5
100
AcDbSymbolTableRecord
100
AcDbLinetypeTableRecord
  2
HIDDEN
 70
     0
  3
Hidden __ __ __ __ __ __ __ __ __ __ __ __ __ __
 72
    65
 73
     2
 40
1.905
 49
1.27
 74
     0
 49
-0.635
 74
     0
  0
LTYPE
  5
6B
330
5
100
AcDbSymbolTableRecord
100
AcDbLinetypeTableRecord
  2
PHANTOM
 70
     0
  3
Phantom ______  __  __  ______  __  __  ______
 72
    65
 73
     6
 40
12.7
 49
6.35
 74
     0
 49
-1.27
 74
     0
 49
1.27
 74
     0
 49
-1.27
 74
     0
 49
1.27
 74
     0
 49
-1.27
 74
     0
  0
LTYPE
  5
6C
330
5
100
AcDbSymbolTableRecord
100
AcDbLinetypeTableRecord
  2
CENTER
 70
     0
  3
Center ____ _ ____ _ ____ _ ____ _ ____ _ ____
 72
    65
 73
     4
 40
10.16
 49
6.35
 74
     0
 49
-1.27
 74
     0
 49
1.27
 74
     0
 49
-1.27
 74
     0
  0
LTYPE
  5
6D
330
5
100
AcDbSymbolTableRecord
100
AcDbLinetypeTableRecord
  2
CENTERX2
 70
     0
  3
Center (2x) ________  __  ________  __  _____
 72
    65
 73
     4
 40
20.32
 49
12.7
 74
     0
 49
-2.54
 74
     0
 49
2.54
 74
     0
 49
-2.54
 74
     0
  0
LTYPE
  5
6E
330
5
100
AcDbSymbolTableRecord
100
AcDbLinetypeTableRecord
  2
DOT2
 70
     0
  3
Dot (.5x) ........................................
 72
    65
 73
     2
 40
0.635
 49
0.0
 74
     0
 49
-0.635
 74
     0
  0
ENDTAB
  0
TABLE
  2
LAYER
  5
2
102
{ACAD_XDICTIONARY
360
1D6
102
}
330
0
100
AcDbSymbolTable
 70
    17
  0
LAYER
  5
10
330
2
100
AcDbSymbolTableRecord
100
AcDbLayerTableRecord
  2
0
 70
     0
 62
     7
  6
Continuous
370
    -3
390
F
  0
LAYER
  5
6F
330
2
100
AcDbSymbolTableRecord
100
AcDbLayerTableRecord
  2
FORMAT
 70
     0
 62
     2
  6
Continuous
370
    -3
390
F
  0
LAYER
  5
70
330
2
100
AcDbSymbolTableRecord
100
AcDbLayerTableRecord
  2
외형선
 70
     0
 62
   100
  6
Continuous
370
    30
390
F
  0
LAYER
  5
71
330
2
100
AcDbSymbolTableRecord
100
AcDbLayerTableRecord
  2
숨은선
 70
     0
 62
     2
  6
HIDDEN
370
    15
390
F
  0
LAYER
  5
72
330
2
100
AcDbSymbolTableRecord
100
AcDbLayerTableRecord
  2
중심선
 70
     0
 62
     1
  6
CENTERX2
370
    -3
390
F
  0
LAYER
  5
73
330
2
100
AcDbSymbolTableRecord
100
AcDbLayerTableRecord
  2
파단선
 70
     0
 62
     4
  6
Continuous
370
    -3
390
F
  0
LAYER
  5
74
330
2
100
AcDbSymbolTableRecord
100
AcDbLayerTableRecord
  2
해칭선
 70
     0
 62
     4
  6
Continuous
370
    -3
390
F
  0
LAYER
  5
75
330
2
100
AcDbSymbolTableRecord
100
AcDbLayerTableRecord
  2
가는실선
 70
     0
 62
     4
  6
Continuous
370
    -3
390
F
  0
LAYER
  5
76
330
2
100
AcDbSymbolTableRecord
100
AcDbLayerTableRecord
  2
치수_보조선
 70
     0
 62
     4
  6
Continuous
370
    -3
390
F
  0
LAYER
  5
77
330
2
100
AcDbSymbolTableRecord
100
AcDbLayerTableRecord
  2
치수문자_일반주서
 70
     0
 62
     7
  6
Continuous
370
    15
390
F
  0
LAYER
  5
78
330
2
100
AcDbSymbolTableRecord
100
AcDbLayerTableRecord
  2
개별주서
 70
     0
 62
   100
  6
Continuous
370
    30
390
F
  0
LAYER
  5
79
330
2
100
AcDbSymbolTableRecord
100
AcDbLayerTableRecord
  2
중간선
 70
     0
 62
     2
  6
Continuous
370
    15
390
F
  0
LAYER
  5
7A
330
2
100
AcDbSymbolTableRecord
100
AcDbLayerTableRecord
  2
윤곽선
 70
     0
 62
     3
  6
Continuous
370
    40
390
F
  0
LAYER
  5
7B
330
2
100
AcDbSymbolTableRecord
100
AcDbLayerTableRecord
  2
중심마크
 70
     0
 62
   100
  6
Continuous
370
    30
390
F
  0
LAYER
  5
7C
330
2
100
AcDbSymbolTableRecord
100
AcDbLayerTableRecord
  2
가상선
 70
     0
 62
     4
  6
PHANTOM
370
    -3
390
F
  0
LAYER
  5
7D
330
2
100
AcDbSymbolTableRecord
100
AcDbLayerTableRecord
  2
특수지정선
 70
     0
 62
     5
  6
CENTERX2
370
    60
390
F
  0
LAYER
  5
175
330
2
100
AcDbSymbolTableRecord
100
AcDbLayerTableRecord
  2
Defpoints
 70
     0
 62
     7
  6
Continuous
290
     0
370
    -3
390
F
  0
ENDTAB
  0
TABLE
  2
STYLE
  5
3
330
0
100
AcDbSymbolTable
 70
     2
  0
STYLE
  5
11
330
3
100
AcDbSymbolTableRecord
100
AcDbTextStyleTableRecord
  2
Standard
 70
     0
 40
0.0
 41
1.0
 50
0.0
 71
     0
 42
3.5
  3
txt
  4

  0
STYLE
  5
93
330
3
100
AcDbSymbolTableRecord
100
AcDbTextStyleTableRecord
  2
SLDTEXTSTYLE0
 70
     0
 40
0.0
 41
0.75
 50
0.0
 71
     0
 42
3.5
  3
TXT
  4

  0
ENDTAB
  0
TABLE
  2
VIEW
  5
6
330
0
100
AcDbSymbolTable
 70
     0
  0
ENDTAB
  0
TABLE
  2
UCS
  5
7
330
0
100
AcDbSymbolTable
 70
     0
  0
ENDTAB
  0
TABLE
  2
APPID
  5
9
330
0
100
AcDbSymbolTable
 70
     2
  0
APPID
  5
12
330
9
100
AcDbSymbolTableRecord
100
AcDbRegAppTableRecord
  2
ACAD
 70
     0
  0
APPID
  5
179
330
9
100
AcDbSymbolTableRecord
100
AcDbRegAppTableRecord
  2
ACAD_DSTYLE_DIMRADIAL_EXTENSION
 70
     0
  0
ENDTAB
  0
TABLE
  2
DIMSTYLE
  5
A
330
0
100
AcDbSymbolTable
 70
     3
100
AcDbDimStyleTable
  0
DIMSTYLE
105
27
330
A
100
AcDbSymbolTableRecord
100
AcDbDimStyleTableRecord
  2
ISO-25
 70
     0
 41
2.5
 42
0.625
 43
3.75
 44
1.25
 73
     0
 74
     0
 77
     1
 78
     8
140
2.5
141
2.5
143
0.03937007874016
147
0.625
171
     3
172
     1
178
     0
271
     2
272
     2
274
     3
278
    44
283
     0
284
     8
340
11
  0
DIMSTYLE
105
FB
102
{ACAD_REACTORS
330
FA
330
136
102
}
330
A
100
AcDbSymbolTableRecord
100
AcDbDimStyleTableRecord
  2
SLDDIMSTYLE0
 70
     0
 41
3.302
 44
0.0
 45
0.000000001
 73
     0
 74
     0
 77
     1
 78
    12
 79
     3
140
3.5
143
0.0393700787401575
147
0.875
148
0.000000001
170
     1
172
     1
173
     1
178
     0
271
     2
272
     2
276
     2
284
    12
289
     0
340
93
  0
DIMSTYLE
105
110
102
{ACAD_REACTORS
330
10F
330
123
330
17A
102
}
330
A
100
AcDbSymbolTableRecord
100
AcDbDimStyleTableRecord
  2
SLDDIMSTYLE1
 70
     0
 41
3.302
 44
0.0
 45
0.000000001
 73
     0
 74
     0
 77
     1
 78
     4
 79
     1
140
3.5
143
0.0393700787401575
147
0.875
148
0.000000001
170
     1
173
     1
178
     0
271
     2
272
     2
276
     2
284
    12
340
93
  0
ENDTAB
  0
TABLE
  2
BLOCK_RECORD
  5
1
330
0
100
AcDbSymbolTable
 70
     8
  0
BLOCK_RECORD
  5
1F
102
{ACAD_XDICTIONARY
360
20E
102
}
330
1
100
AcDbSymbolTableRecord
100
AcDbBlockTableRecord
  2
*Model_Space
340
22
  0
BLOCK_RECORD
  5
1B
330
1
100
AcDbSymbolTableRecord
100
AcDbBlockTableRecord
  2
*Paper_Space
340
1E
  0
BLOCK_RECORD
  5
23
330
1
100
AcDbSymbolTableRecord
100
AcDbBlockTableRecord
  2
*Paper_Space0
340
26
  0
BLOCK_RECORD
  5
7E
330
1
100
AcDbSymbolTableRecord
100
AcDbBlockTableRecord
  2
블럭10
340
0
102
{BLKREFS
331
F2
102
}
  0
BLOCK_RECORD
  5
FC
330
1
100
AcDbSymbolTableRecord
100
AcDbBlockTableRecord
  2
_D
340
0
  0
BLOCK_RECORD
  5
111
330
1
100
AcDbSymbolTableRecord
100
AcDbBlockTableRecord
  2
_D_1
340
0
  0
BLOCK_RECORD
  5
124
330
1
100
AcDbSymbolTableRecord
100
AcDbBlockTableRecord
  2
_D_2
340
0
  0
BLOCK_RECORD
  5
137
330
1
100
AcDbSymbolTableRecord
100
AcDbBlockTableRecord
  2
_D_3
340
0
  0
BLOCK_RECORD
  5
14A
330
1
100
AcDbSymbolTableRecord
100
AcDbBlockTableRecord
  2
SW_DOWELSYMBOL_0
340
0
102
{BLKREFS
331
150
102
}
  0
BLOCK_RECORD
  5
17D
330
1
100
AcDbSymbolTableRecord
100
AcDbBlockTableRecord
  2
*D7
340
0
  0
ENDTAB
  0
ENDSEC
  0
SECTION
  2
BLOCKS
  0
BLOCK
  5
20
330
1F
100
AcDbEntity
  8
0
100
AcDbBlockBegin
  2
*Model_Space
 70
     0
 10
0.0
 20
0.0
 30
0.0
  3
*Model_Space
  1
*Model_Space
  0
ENDBLK
  5
21
330
1F
100
AcDbEntity
  8
0
100
AcDbBlockEnd
  0
BLOCK
  5
1C
330
1B
100
AcDbEntity
 67
     1
  8
0
100
AcDbBlockBegin
  2
*Paper_Space
 70
     0
 10
0.0
 20
0.0
 30
0.0
  3
*Paper_Space
  1
*Paper_Space
  0
ENDBLK
  5
1D
330
1B
100
AcDbEntity
 67
     1
  8
0
100
AcDbBlockEnd
  0
BLOCK
  5
24
330
23
100
AcDbEntity
  8
0
100
AcDbBlockBegin
  2
*Paper_Space0
 70
     0
 10
0.0
 20
0.0
 30
0.0
  3
*Paper_Space0
  1
*Paper_Space0
  0
ENDBLK
  5
25
330
23
100
AcDbEntity
  8
0
100
AcDbBlockEnd
  0
BLOCK
  5
7F
330
7E
100
AcDbEntity
  8
0
100
AcDbBlockBegin
  2
블럭10
 70
     2
 10
0.0
 20
0.0
 30
0.0
  3
블럭10
  1
블럭10
  0
ELLIPSE
  5
81
330
7E
100
AcDbEntity
  8
중심선
100
AcDbEllipse
 10
20.54032771741204
 20
12.0471743016438
 30
0.0
 11
6.600054785286829
 21
-1.261213355974178E-13
 31
0.0
210
0.0
220
0.0
230
1.0
 40
0.636358354079598
 41
0.9219305317359503
 42
6.513795318482858
  0
ELLIPSE
  5
82
330
7E
100
AcDbEntity
  8
중심선
100
AcDbEllipse
 10
20.54032771746488
 20
12.04717430159265
 30
0.0
 11
3.960054785062283
 21
1.540847449632565E-10
 31
0.0
210
0.0
220
0.0
230
1.0
 40
0.3939339440162632
 41
1.131841032648279
 42
5.62031148352944
  0
LINE
  5
83
330
7E
100
AcDbEntity
  8
중심선
100
AcDbLine
 10
2.268634060543552
 20
16.24717430164393
 30
0.0
 11
5.714909304380834
 21
16.24717430164393
 31
0.0
  0
LINE
  5
84
330
7E
100
AcDbEntity
  8
중심선
100
AcDbLine
 10
5.245725140726316
 20
7.84717430164391
 30
0.0
 11
8.692000384563599
 21
7.84717430164391
 31
0.0
  0
LINE
  5
85
330
7E
100
AcDbEntity
  8
중심선
100
AcDbLine
 10
15.74043728645272
 20
16.24717430164393
 30
0.0
 11
8.692000384563599
 21
7.84717430164391
 31
0.0
  0
LINE
  5
86
330
7E
100
AcDbEntity
  8
중심선
100
AcDbLine
 10
0.1404042013395286
 20
13.71084872107135
 30
0.0
 11
3.58671253028996
 21
13.71088815037384
 31
0.0
  0
LINE
  5
87
330
7E
100
AcDbEntity
  8
중심선
100
AcDbLine
 10
2.750260043222114
 20
10.84717430164391
 30
0.0
 11
6.196535287059397
 21
10.84717430164391
 31
0.0
  0
LINE
  5
88
330
7E
100
AcDbEntity
  8
중심선
100
AcDbLine
 10
12.29416204261559
 20
16.24717430164393
 30
0.0
 11
5.245725140726316
 21
7.84717430164391
 31
0.0
  0
LINE
  5
89
330
7E
100
AcDbEntity
  8
중심선
100
AcDbLine
 10
10.72767329541681
 20
16.24717430164393
 30
0.0
 11
6.196535287059397
 21
10.84717430164391
 31
0.0
  0
LINE
  5
8A
330
7E
100
AcDbEntity
  8
중심선
100
AcDbLine
 10
7.28139805157953
 20
16.24717430164393
 30
0.0
 11
2.750260043222114
 21
10.84717430164391
 31
0.0
  0
LINE
  5
8B
330
7E
100
AcDbEntity
  8
중심선
100
AcDbLine
 10
5.714909304380834
 20
16.24717430164393
 30
0.0
 11
3.58671253028996
 21
13.71088815037384
 31
0.0
  0
LINE
  5
8C
330
7E
100
AcDbEntity
  8
중심선
100
AcDbLine
 10
2.268634060543552
 20
16.24717430164393
 30
0.0
 11
0.1404042013395286
 21
13.71084872107135
 31
0.0
  0
LINE
  5
8D
330
7E
100
AcDbEntity
  8
중심선
100
AcDbLine
 10
7.28139805157953
 20
16.24717430164393
 30
0.0
 11
10.72767329541681
 21
16.24717430164393
 31
0.0
  0
LINE
  5
8E
330
7E
100
AcDbEntity
  8
중심선
100
AcDbLine
 10
12.29416204261559
 20
16.24717430164393
 30
0.0
 11
15.74043728645272
 21
16.24717430164393
 31
0.0
  0
LINE
  5
8F
330
7E
100
AcDbEntity
  8
중심선
100
AcDbLine
 10
19.22036997980202
 20
11.08717430171403
 30
0.0
 11
23.66174974927406
 21
11.08717430171406
 31
0.0
  0
LINE
  5
90
330
7E
100
AcDbEntity
  8
중심선
100
AcDbLine
 10
19.22039502424796
 20
13.00717430171391
 30
0.0
 11
19.22036997980202
 21
11.08717430171403
 31
0.0
  0
LINE
  5
91
330
7E
100
AcDbEntity
  8
중심선
100
AcDbLine
 10
19.22039502424796
 20
13.00717430171391
 30
0.0
 11
26.96566020931264
 21
13.00717430171391
 31
0.0
  0
LINE
  5
92
330
7E
100
AcDbEntity
  8
중심선
100
AcDbLine
 10
22.22332737316547
 20
13.45928029700563
 30
0.0
 11
24.52862924686651
 21
15.39360700705356
 31
0.0
  0
ATTDEF
  5
94
330
7E
100
AcDbEntity
  8
FORMAT
 62
     2
100
AcDbText
 10
-11.05102035218446
 20
2.075366912832191
 30
0.0
 40
4.233333333333333
  1
GMG22915[ 6 FLUTE ]
 41
0.75
  7
SLDTEXTSTYLE0
 11
-11.05102035218446
 21
-0.0412997538344756
 31
0.0
100
AcDbAttributeDefinition
  3

  2
AUTOATTR0
 70
     0
 74
     1
  0
ENDBLK
  5
80
330
7E
100
AcDbEntity
  8
0
100
AcDbBlockEnd
  0
BLOCK
  5
FD
330
FC
100
AcDbEntity
  8
0
100
AcDbBlockBegin
  2
_D
 70
     0
 10
0.0
 20
0.0
 30
0.0
  3
_D
  1
_D
  0
LINE
  5
FF
330
FC
100
AcDbEntity
  8
치수문자_일반주서
 62
     0
370
    -2
100
AcDbLine
 10
57.33850000000001
 20
-4.762499999999994
 30
0.0
 11
75.858745715773
 21
-4.762499999999925
 31
0.0
  0
LINE
  5
100
330
FC
100
AcDbEntity
  8
치수문자_일반주서
 62
     0
370
    -2
100
AcDbLine
 10
57.27600000000001
 20
4.762500000000005
 30
0.0
 11
75.85874571577297
 21
4.762500000000074
 31
0.0
  0
LINE
  5
101
330
FC
100
AcDbEntity
  8
치수문자_일반주서
 62
     0
370
    -2
100
AcDbLine
 10
75.85874571577298
 20
-1.460499999999925
 30
0.0
 11
75.85874571577298
 21
1.460500000000074
 31
0.0
  0
SOLID
  5
102
330
FC
100
AcDbEntity
  8
치수문자_일반주서
 62
     0
100
AcDbTrace
 10
75.30841238243966
 20
-1.460499999999927
 30
0.0
 11
76.40907904910631
 21
-1.460499999999924
 31
0.0
 12
75.858745715773
 22
-4.762499999999925
 32
0.0
 13
75.858745715773
 23
-4.762499999999925
 33
0.0
  0
SOLID
  5
103
330
FC
100
AcDbEntity
  8
치수문자_일반주서
 62
     0
100
AcDbTrace
 10
76.40907904910631
 20
1.460500000000076
 30
0.0
 11
75.30841238243966
 21
1.460500000000073
 31
0.0
 12
75.85874571577297
 22
4.762500000000074
 32
0.0
 13
75.85874571577297
 23
4.762500000000074
 33
0.0
  0
MTEXT
  5
104
330
FC
100
AcDbEntity
  8
치수문자_일반주서
 62
     0
100
AcDbMText
 10
71.48374571577298
 20
1.090946215346462
 30
0.0
 40
3.5
 41
0.0
 71
     2
 72
     1
  1
\A1;%%c9.53 [3/8]
  7
SLDTEXTSTYLE0
 11
-2.983906501879686E-15
 21
1.0
 31
0.0
 73
     1
 44
1.0
  0
POINT
  5
105
330
FC
100
AcDbEntity
  8
Defpoints
 62
     0
100
AcDbPoint
 10
57.27600000000001
 20
-4.762499999999994
 30
0.0
  0
POINT
  5
106
330
FC
100
AcDbEntity
  8
Defpoints
 62
     0
100
AcDbPoint
 10
57.21350000000001
 20
4.762500000000005
 30
0.0
  0
POINT
  5
107
330
FC
100
AcDbEntity
  8
Defpoints
 62
     0
100
AcDbPoint
 10
75.85874571577297
 20
4.762500000000074
 30
0.0
  0
ENDBLK
  5
FE
330
FC
100
AcDbEntity
  8
0
100
AcDbBlockEnd
  0
BLOCK
  5
112
330
111
100
AcDbEntity
  8
0
100
AcDbBlockBegin
  2
_D_1
 70
     0
 10
0.0
 20
0.0
 30
0.0
  3
_D_1
  1
_D_1
  0
LINE
  5
114
330
111
100
AcDbEntity
  8
치수문자_일반주서
 62
     0
370
    -2
100
AcDbLine
 10
-42.8
 20
4.324999999999999
 30
0.0
 11
-42.8
 21
37.41805141807179
 31
0.0
  0
LINE
  5
115
330
111
100
AcDbEntity
  8
치수문자_일반주서
 62
     0
370
    -2
100
AcDbLine
 10
58.79999999999999
 20
3.301000000000006
 30
0.0
 11
58.79999999999999
 21
37.41805141807179
 31
0.0
  0
LINE
  5
116
330
111
100
AcDbEntity
  8
치수문자_일반주서
 62
     0
370
    -2
100
AcDbLine
 10
-39.498
 20
37.41805141807179
 30
0.0
 11
55.49799999999999
 21
37.41805141807179
 31
0.0
  0
SOLID
  5
117
330
111
100
AcDbEntity
  8
치수문자_일반주서
 62
     0
100
AcDbTrace
 10
-39.498
 20
37.96838475140513
 30
0.0
 11
-39.498
 21
36.86771808473846
 31
0.0
 12
-42.8
 22
37.41805141807179
 32
0.0
 13
-42.8
 23
37.41805141807179
 33
0.0
  0
SOLID
  5
118
330
111
100
AcDbEntity
  8
치수문자_일반주서
 62
     0
100
AcDbTrace
 10
55.49799999999999
 20
36.86771808473846
 30
0.0
 11
55.49799999999999
 21
37.96838475140513
 31
0.0
 12
58.79999999999999
 22
37.41805141807179
 32
0.0
 13
58.79999999999999
 23
37.41805141807179
 33
0.0
  0
MTEXT
  5
119
330
111
100
AcDbEntity
  8
치수문자_일반주서
 62
     0
100
AcDbMText
 10
7.999999999999991
 20
41.79305141807179
 30
0.0
 40
3.5
 41
0.0
 71
     2
 72
     1
  1
\A1;101.60 [4]
  7
SLDTEXTSTYLE0
 73
     1
 44
1.0
  0
POINT
  5
11A
330
111
100
AcDbEntity
  8
Defpoints
 62
     0
100
AcDbPoint
 10
-42.8
 20
4.262499999999999
 30
0.0
  0
POINT
  5
11B
330
111
100
AcDbEntity
  8
Defpoints
 62
     0
100
AcDbPoint
 10
58.79999999999999
 20
3.238500000000006
 30
0.0
  0
POINT
  5
11C
330
111
100
AcDbEntity
  8
Defpoints
 62
     0
100
AcDbPoint
 10
58.79999999999999
 20
37.41805141807179
 30
0.0
  0
ENDBLK
  5
113
330
111
100
AcDbEntity
  8
0
100
AcDbBlockEnd
  0
BLOCK
  5
125
330
124
100
AcDbEntity
  8
0
100
AcDbBlockBegin
  2
_D_2
 70
     0
 10
0.0
 20
0.0
 30
0.0
  3
_D_2
  1
_D_2
  0
LINE
  5
127
330
124
100
AcDbEntity
  8
치수문자_일반주서
 62
     0
370
    -2
100
AcDbLine
 10
58.79999999999999
 20
3.301000000000006
 30
0.0
 11
58.79999999999999
 21
20.86549453033794
 31
0.0
  0
LINE
  5
128
330
124
100
AcDbEntity
  8
치수문자_일반주서
 62
     0
370
    -2
100
AcDbLine
 10
8.000000000000002
 20
-4.699999999999994
 30
0.0
 11
8.0
 21
20.86549453033794
 31
0.0
  0
LINE
  5
129
330
124
100
AcDbEntity
  8
치수문자_일반주서
 62
     0
370
    -2
100
AcDbLine
 10
55.49799999999999
 20
20.86549453033794
 30
0.0
 11
11.302
 21
20.86549453033794
 31
0.0
  0
SOLID
  5
12A
330
124
100
AcDbEntity
  8
치수문자_일반주서
 62
     0
100
AcDbTrace
 10
55.49799999999999
 20
20.31516119700461
 30
0.0
 11
55.49799999999999
 21
21.41582786367128
 31
0.0
 12
58.79999999999999
 22
20.86549453033794
 32
0.0
 13
58.79999999999999
 23
20.86549453033794
 33
0.0
  0
SOLID
  5
12B
330
124
100
AcDbEntity
  8
치수문자_일반주서
 62
     0
100
AcDbTrace
 10
11.302
 20
21.41582786367128
 30
0.0
 11
11.302
 21
20.31516119700461
 31
0.0
 12
8.0
 22
20.86549453033794
 32
0.0
 13
8.0
 23
20.86549453033794
 33
0.0
  0
MTEXT
  5
12C
330
124
100
AcDbEntity
  8
치수문자_일반주서
 62
     0
100
AcDbMText
 10
32.84120226380296
 20
25.24049453033794
 30
0.0
 40
3.5
 41
0.0
 71
     2
 72
     1
  1
\A1;50.80 [2]
  7
SLDTEXTSTYLE0
 73
     1
 44
1.0
  0
POINT
  5
12D
330
124
100
AcDbEntity
  8
Defpoints
 62
     0
100
AcDbPoint
 10
58.79999999999999
 20
3.238500000000006
 30
0.0
  0
POINT
  5
12E
330
124
100
AcDbEntity
  8
Defpoints
 62
     0
100
AcDbPoint
 10
8.000000000000002
 20
-4.762499999999994
 30
0.0
  0
POINT
  5
12F
330
124
100
AcDbEntity
  8
Defpoints
 62
     0
100
AcDbPoint
 10
8.000000000000002
 20
20.86549453033794
 30
0.0
  0
ENDBLK
  5
126
330
124
100
AcDbEntity
  8
0
100
AcDbBlockEnd
  0
BLOCK
  5
138
330
137
100
AcDbEntity
  8
0
100
AcDbBlockBegin
  2
_D_3
 70
     0
 10
0.0
 20
0.0
 30
0.0
  3
_D_3
  1
_D_3
  0
LINE
  5
13A
330
137
100
AcDbEntity
  8
치수문자_일반주서
 62
     0
370
    -2
100
AcDbLine
 10
-42.3625
 20
4.762500000000003
 30
0.0
 11
-55.80000000000003
 21
4.762499999999954
 31
0.0
  0
LINE
  5
13B
330
137
100
AcDbEntity
  8
치수문자_일반주서
 62
     0
370
    -2
100
AcDbLine
 10
-42.3625
 20
-4.762499999999998
 30
0.0
 11
-55.8
 21
-4.762500000000046
 31
0.0
  0
LINE
  5
13C
330
137
100
AcDbEntity
  8
치수문자_일반주서
 62
     0
370
    -2
100
AcDbLine
 10
-55.80000000000002
 20
1.460499999999954
 30
0.0
 11
-55.80000000000001
 21
-1.460500000000047
 31
0.0
  0
SOLID
  5
13D
330
137
100
AcDbEntity
  8
치수문자_일반주서
 62
     0
100
AcDbTrace
 10
-55.24966666666668
 20
1.460499999999956
 30
0.0
 11
-56.35033333333335
 21
1.460499999999952
 31
0.0
 12
-55.80000000000003
 22
4.762499999999954
 32
0.0
 13
-55.80000000000003
 23
4.762499999999954
 33
0.0
  0
SOLID
  5
13E
330
137
100
AcDbEntity
  8
치수문자_일반주서
 62
     0
100
AcDbTrace
 10
-56.35033333333335
 20
-1.460500000000049
 30
0.0
 11
-55.24966666666668
 21
-1.460500000000045
 31
0.0
 12
-55.8
 22
-4.762500000000046
 32
0.0
 13
-55.8
 23
-4.762500000000046
 33
0.0
  0
MTEXT
  5
13F
330
137
100
AcDbEntity
  8
치수문자_일반주서
 62
     0
100
AcDbMText
 10
-60.17500000000002
 20
-0.000000000000014
 30
0.0
 40
3.5
 41
0.0
 71
     2
 72
     1
  1
\A1;%%c9.53 [3/8]
  7
SLDTEXTSTYLE0
 11
-3.729883127349606E-15
 21
1.0
 31
0.0
 73
     1
 44
1.0
  0
POINT
  5
140
330
137
100
AcDbEntity
  8
Defpoints
 62
     0
100
AcDbPoint
 10
-42.3
 20
4.762500000000003
 30
0.0
  0
POINT
  5
141
330
137
100
AcDbEntity
  8
Defpoints
 62
     0
100
AcDbPoint
 10
-42.3
 20
-4.762499999999998
 30
0.0
  0
POINT
  5
142
330
137
100
AcDbEntity
  8
Defpoints
 62
     0
100
AcDbPoint
 10
-55.8
 20
-4.762500000000048
 30
0.0
  0
ENDBLK
  5
139
330
137
100
AcDbEntity
  8
0
100
AcDbBlockEnd
  0
BLOCK
  5
14B
330
14A
100
AcDbEntity
  8
0
100
AcDbBlockBegin
  2
SW_DOWELSYMBOL_0
 70
     0
 10
0.0
 20
0.0
 30
0.0
  3
SW_DOWELSYMBOL_0
  1
SW_DOWELSYMBOL_0
  0
CIRCLE
  5
14D
330
14A
100
AcDbEntity
  8
외형선
 62
     0
100
AcDbCircle
 10
0.0
 20
0.0
 30
0.0
 40
3.000000000000004
  0
HATCH
  5
14E
330
14A
100
AcDbEntity
  8
0
  6
Continuous
 62
     0
370
    30
100
AcDbHatch
 10
0.0
 20
0.0
 30
0.0
210
0.0
220
0.0
230
1.0
  2
SOLID
 70
     1
 71
     0
 91
        1
 92
        0
 93
        3
 72
     2
 10
0.0
 20
0.0
 40
3.000000000000004
 50
0.0
 51
90.0
 73
     1
 72
     1
 10
0.0
 20
3.000000000000004
 11
0.0
 21
0.0
 72
     1
 10
0.0
 20
0.0
 11
3.000000000000006
 21
0.0
 97
        0
 75
     0
 76
     1
 98
        1
 10
0.0
 20
0.0
  0
HATCH
  5
14F
330
14A
100
AcDbEntity
  8
0
  6
Continuous
 62
     0
370
    30
100
AcDbHatch
 10
0.0
 20
0.0
 30
0.0
210
0.0
220
0.0
230
1.0
  2
SOLID
 70
     1
 71
     0
 91
        1
 92
        0
 93
        3
 72
     2
 10
0.0
 20
0.0
 40
3.000000000000004
 50
180.0
 51
270.0000000000007
 73
     1
 72
     1
 10
0.0
 20
-3.000000000000004
 11
0.0
 21
0.0
 72
     1
 10
0.0
 20
0.0
 11
-3.000000000000006
 21
0.0
 97
        0
 75
     0
 76
     1
 98
        1
 10
0.0
 20
0.0
  0
ENDBLK
  5
14C
330
14A
100
AcDbEntity
  8
0
100
AcDbBlockEnd
  0
BLOCK
  5
17E
330
17D
100
AcDbEntity
  8
0
100
AcDbBlockBegin
  2
*D7
 70
     1
 10
0.0
 20
0.0
 30
0.0
  3
*D7
  1
*D7
  0
LINE
  5
180
330
17D
100
AcDbEntity
  8
치수문자_일반주서
 62
     0
370
    -2
100
AcDbLine
 10
60.39685505722121
 20
7.309865319668091
 30
0.0
 11
80.85321675921894
 21
36.0092013708313
 31
0.0
  0
MTEXT
  5
181
330
17D
100
AcDbEntity
  8
치수문자_일반주서
 62
     0
100
AcDbMText
 10
70.46270142728169
 20
25.95431859183895
 30
0.0
 40
3.5
 41
0.0
 71
     5
 72
     1
  1
\A1;R.76 [R0.030]
  7
SLDTEXTSTYLE0
 11
0.580426933371364
 21
0.8143123325954938
 31
0.0
 73
     1
 44
1.0
  0
SOLID
  5
182
330
17D
100
AcDbEntity
  8
치수문자_일반주서
 62
     0
100
AcDbTrace
 10
59.94871183684949
 20
7.629293608666798
 30
0.0
 11
60.84499827759293
 21
6.990437030669384
 31
0.0
 12
58.48028532322897
 22
4.621005997437771
 32
0.0
 13
58.48028532322897
 23
4.621005997437771
 33
0.0
  0
LINE
  5
183
330
17D
100
AcDbEntity
  8
치수문자_일반주서
 62
     0
100
AcDbLine
 10
57.94799999999999
 20
4.000500000000004
 30
0.0
 11
58.12799999999999
 21
4.000500000000004
 31
0.0
  0
LINE
  5
184
330
17D
100
AcDbEntity
  8
치수문자_일반주서
 62
     0
100
AcDbLine
 10
58.03799999999999
 20
3.910500000000004
 30
0.0
 11
58.03799999999999
 21
4.090500000000004
 31
0.0
  0
POINT
  5
185
330
17D
100
AcDbEntity
  8
Defpoints
 62
     0
100
AcDbPoint
 10
58.48028532322897
 20
4.621005997437771
 30
0.0
  0
POINT
  5
186
330
17D
100
AcDbEntity
  8
Defpoints
 62
     0
100
AcDbPoint
 10
58.03799999999999
 20
4.000500000000004
 30
0.0
  0
ENDBLK
  5
17F
330
17D
100
AcDbEntity
  8
0
100
AcDbBlockEnd
  0
ENDSEC
  0
SECTION
  2
ENTITIES
  0
LINE
  5
95
330
1F
100
AcDbEntity
  8
0
  6
Continuous
 62
     4
370
    15
100
AcDbLine
 10
8.0
 20
4.762500000000006
 30
0.0
 11
-18.11754999999988
 21
4.762500000000005
 31
0.0
  0
LINE
  5
96
330
1F
100
AcDbEntity
  8
0
  6
Continuous
 62
     4
370
    15
100
AcDbLine
 10
-42.3
 20
-4.762499999999998
 30
0.0
 11
8.0
 21
-4.762499999999994
 31
0.0
  0
LINE
  5
97
330
1F
100
AcDbEntity
  8
0
  6
Continuous
 62
     4
370
    15
100
AcDbLine
 10
-42.3
 20
4.762500000000001
 30
0.0
 11
-42.8
 21
4.262499999999999
 31
0.0
  0
LINE
  5
98
330
1F
100
AcDbEntity
  8
0
  6
Continuous
 62
     4
370
    15
100
AcDbLine
 10
-42.8
 20
-4.262499999999994
 30
0.0
 11
-42.3
 21
-4.762499999999994
 31
0.0
  0
LINE
  5
99
330
1F
100
AcDbEntity
  8
0
  6
Continuous
 62
     1
370
    15
100
AcDbLine
 10
41.77645679236564
 20
-4.762499999999994
 30
0.0
 11
43.40669177997781
 21
-4.762499999999994
 31
0.0
  0
LINE
  5
9A
330
1F
100
AcDbEntity
  8
0
  6
Continuous
 62
     1
370
    15
100
AcDbLine
 10
11.85437637866336
 20
-4.762499999999994
 30
0.0
 11
13.48092994399123
 21
-4.762499999999994
 31
0.0
  0
LINE
  5
9B
330
1F
100
AcDbEntity
  8
0
  6
Continuous
 62
     1
370
    15
100
AcDbLine
 10
28.4433910739935
 20
4.762500000000005
 30
0.0
 11
26.81638381330416
 21
4.762500000000005
 31
0.0
  0
LINE
  5
9C
330
1F
100
AcDbEntity
  8
0
  6
Continuous
 62
     1
370
    15
100
AcDbLine
 10
58.03799999999999
 20
4.762500000000005
 30
0.0
 11
56.7388797868123
 21
4.762500000000005
 31
0.0
  0
LINE
  5
9D
330
1F
100
AcDbEntity
  8
0
  6
Continuous
 62
     1
370
    15
100
AcDbLine
 10
36.79039100181665
 20
-4.762499999999994
 30
0.0
 11
38.41854664191625
 21
-4.762499999999994
 31
0.0
  0
LINE
  5
9E
330
1F
100
AcDbEntity
  8
0
  6
Continuous
 62
     1
370
    15
100
AcDbLine
 10
8.000000000000002
 20
-4.762499999999994
 30
0.0
 11
8.494620584046361
 21
-4.762499999999994
 31
0.0
  0
LINE
  5
9F
330
1F
100
AcDbEntity
  8
0
  6
Continuous
 62
     1
370
    15
100
AcDbLine
 10
23.45631505660444
 20
4.762500000000005
 30
0.0
 11
21.82860445910514
 21
4.762500000000005
 31
0.0
  0
LINE
  5
A0
330
1F
100
AcDbEntity
  8
0
  6
Continuous
 62
     1
370
    15
100
AcDbLine
 10
53.380305008091
 20
4.762500000000005
 30
0.0
 11
51.7511299456466
 21
4.762500000000005
 31
0.0
  0
LINE
  5
A1
330
1F
100
AcDbEntity
  8
0
  6
Continuous
 62
     1
370
    15
100
AcDbLine
 10
56.7388797868123
 20
-4.762499999999994
 30
0.0
 11
58.03799999999999
 21
-4.762499999999994
 31
0.0
  0
LINE
  5
A2
330
1F
100
AcDbEntity
  8
0
  6
Continuous
 62
     1
370
    15
100
AcDbLine
 10
26.81638381330416
 20
-4.762499999999994
 30
0.0
 11
28.44339107399355
 21
-4.762499999999994
 31
0.0
  0
LINE
  5
A3
330
1F
100
AcDbEntity
  8
0
  6
Continuous
 62
     1
370
    15
100
AcDbLine
 10
13.48092994399127
 20
4.762500000000005
 30
0.0
 11
11.85437637866335
 21
4.762500000000005
 31
0.0
  0
LINE
  5
A4
330
1F
100
AcDbEntity
  8
0
  6
Continuous
 62
     1
370
    15
100
AcDbLine
 10
43.40669177997786
 20
4.762500000000005
 30
0.0
 11
41.77645679236564
 21
4.762500000000005
 31
0.0
  0
LINE
  5
A5
330
1F
100
AcDbEntity
  8
0
  6
Continuous
 62
     1
370
    15
100
AcDbLine
 10
51.75112994564655
 20
-4.762499999999994
 30
0.0
 11
53.380305008091
 21
-4.762499999999994
 31
0.0
  0
LINE
  5
A6
330
1F
100
AcDbEntity
  8
0
  6
Continuous
 62
     1
370
    15
100
AcDbLine
 10
21.82860445910512
 20
-4.762499999999994
 30
0.0
 11
23.45631505660443
 21
-4.762499999999994
 31
0.0
  0
LINE
  5
A7
330
1F
100
AcDbEntity
  8
0
  6
Continuous
 62
     1
370
    15
100
AcDbLine
 10
8.494620584046386
 20
4.762500000000005
 30
0.0
 11
8.000000000000002
 21
4.762500000000005
 31
0.0
  0
LINE
  5
A8
330
1F
100
AcDbEntity
  8
0
  6
Continuous
 62
     1
370
    15
100
AcDbLine
 10
38.41854664191627
 20
4.762500000000005
 30
0.0
 11
36.79039100181659
 21
4.762500000000005
 31
0.0
  0
LINE
  5
A9
330
1F
100
AcDbEntity
  8
0
  6
Continuous
 62
     1
370
    15
100
AcDbLine
 10
31.80260250489096
 20
-4.762499999999994
 30
0.0
 11
33.43183942044949
 21
-4.762499999999994
 31
0.0
  0
LINE
  5
AA
330
1F
100
AcDbEntity
  8
0
  6
Continuous
 62
     1
370
    15
100
AcDbLine
 10
18.46847450891418
 20
4.762500000000005
 30
0.0
 11
16.84135025569015
 21
4.762500000000005
 31
0.0
  0
LINE
  5
AB
330
1F
100
AcDbEntity
  8
0
  6
Continuous
 62
     1
370
    15
100
AcDbLine
 10
48.39313415532502
 20
4.762500000000005
 30
0.0
 11
46.7637778286349
 21
4.762500000000005
 31
0.0
  0
LINE
  5
AC
330
1F
100
AcDbEntity
  8
0
  6
Continuous
 62
     1
370
    15
100
AcDbLine
 10
46.76377782863486
 20
-4.762499999999994
 30
0.0
 11
48.39313415532499
 21
-4.762499999999994
 31
0.0
  0
LINE
  5
AD
330
1F
100
AcDbEntity
  8
0
  6
Continuous
 62
     1
370
    15
100
AcDbLine
 10
16.84135025569012
 20
-4.762499999999994
 30
0.0
 11
18.46847450891413
 21
-4.762499999999994
 31
0.0
  0
LINE
  5
AE
330
1F
100
AcDbEntity
  8
0
  6
Continuous
 62
     1
370
    15
100
AcDbLine
 10
33.43183942044946
 20
4.762500000000005
 30
0.0
 11
31.80260250489092
 21
4.762500000000005
 31
0.0
  0
SPLINE
  5
B2
330
1F
100
AcDbEntity
  8
0
  6
Continuous
 62
     4
370
    15
100
AcDbSpline
210
0.0
220
0.0
230
1.0
 70
     8
 71
     3
 72
    12
 73
     8
 74
     0
 42
0.000000001
 43
0.00000001
 40
0.0
 40
0.0
 40
0.0
 40
0.0
 40
0.4999999999999999
 40
0.4999999999999999
 40
0.7499999999999999
 40
0.7499999999999999
 40
1.0
 40
1.0
 40
1.0
 40
1.0
 10
6.796354753932487
 20
-0.7908778796112688
 30
0.0
 10
6.662997641039302
 20
-0.6594396131283663
 30
0.0
 10
6.575522601837333
 20
-0.4902384786692787
 30
0.0
 10
6.506534977515789
 20
-0.2198414953643294
 30
0.0
 10
6.493421806270735
 20
-0.1263146296376962
 30
0.0
 10
6.480200557563775
 20
0.0599043489720472
 30
0.0
 10
6.48007925034312
 20
0.1533687759113657
 30
0.0
 10
6.480079250343131
 20
0.2468244921365053
 30
0.0
  0
SPLINE
  5
B3
330
1F
100
AcDbEntity
  8
0
  6
Continuous
 62
     4
370
    15
100
AcDbSpline
210
0.0
220
0.0
230
1.0
 70
     8
 71
     3
 72
    14
 73
    10
 74
     0
 42
0.000000001
 43
0.00000001
 40
0.0
 40
0.0
 40
0.0
 40
0.0
 40
0.2500000000000001
 40
0.2500000000000001
 40
0.5000000000000001
 40
0.5000000000000001
 40
0.7500000000000002
 40
0.7500000000000002
 40
1.0
 40
1.0
 40
1.0
 40
1.0
 10
6.480079250343133
 20
0.2468244921365055
 30
0.0
 10
6.480079250343154
 20
0.4500871987904537
 30
0.0
 10
6.483900782815748
 20
0.6533136476827465
 30
0.0
 10
6.599090696797665
 20
1.039838474815826
 30
0.0
 10
6.708972192077777
 20
1.214547239526801
 30
0.0
 10
7.026869321566672
 20
1.461518496209337
 30
0.0
 10
7.229248511360534
 20
1.529498851801156
 30
0.0
 10
7.638228454214842
 20
1.528996497982902
 30
0.0
 10
7.840323785950922
 20
1.460937887412153
 30
0.0
 10
7.999999999999902
 20
1.335878185365806
 30
0.0
  0
SPLINE
  5
B4
330
1F
100
AcDbEntity
  8
0
  6
Continuous
 62
     1
370
    15
100
AcDbSpline
210
0.0
220
0.0
230
1.0
 70
    24
 71
     3
 72
     8
 73
     4
 74
     0
 42
0.000000001
 43
0.00000001
 40
0.0
 40
0.0
 40
0.0
 40
0.0
 40
1.0
 40
1.0
 40
1.0
 40
1.0
 10
8.000000000000002
 20
1.335878185366066
 30
0.0
 10
8.000000000000002
 20
1.256441828740368
 30
0.0
 10
8.000000000000002
 20
1.169888047900074
 30
0.0
 10
8.000000000000002
 20
1.075251690294964
 30
0.0
  0
LINE
  5
B5
330
1F
100
AcDbEntity
  8
0
  6
Continuous
 62
     4
370
    15
100
AcDbLine
 10
-42.3
 20
4.762500000000001
 30
0.0
 11
-42.3
 21
-4.762499999999998
 31
0.0
  0
SPLINE
  5
B6
330
1F
100
AcDbEntity
  8
0
  6
Continuous
 62
     4
370
    15
100
AcDbSpline
210
0.0
220
0.0
230
1.0
 70
     8
 71
     3
 72
    10
 73
     6
 74
     0
 42
0.000000001
 43
0.00000001
 40
0.0
 40
0.0
 40
0.0
 40
0.0
 40
0.5
 40
0.5
 40
1.0
 40
1.0
 40
1.0
 40
1.0
 10
7.999999999999782
 20
-1.940316489463689
 30
0.0
 10
7.79858603386697
 20
-1.756830134361119
 30
0.0
 10
7.59634719769833
 20
-1.567895275174222
 30
0.0
 10
7.195055842875508
 20
-1.183681992796101
 30
0.0
 10
6.997178352355505
 20
-0.9888118710791691
 30
0.0
 10
6.796354753932487
 20
-0.7908778796112694
 30
0.0
  0
LINE
  5
B7
330
1F
100
AcDbEntity
  8
0
  6
Continuous
 62
     4
370
    15
100
AcDbLine
 10
8.000000000000004
 20
-1.940316489463887
 30
0.0
 11
8.0
 21
-3.29092776449935
 31
0.0
  0
SPLINE
  5
B8
330
1F
100
AcDbEntity
  8
0
  6
Continuous
 62
     4
370
    15
100
AcDbSpline
210
0.0
220
0.0
230
1.0
 70
     8
 71
     3
 72
    14
 73
    10
 74
     0
 42
0.000000001
 43
0.00000001
 40
0.0
 40
0.0
 40
0.0
 40
0.0
 40
0.25
 40
0.25
 40
0.5
 40
0.5
 40
0.75
 40
0.75
 40
1.0
 40
1.0
 40
1.0
 40
1.0
 10
6.480079250343133
 20
-3.995490877344687
 30
0.0
 10
6.480079250343156
 20
-3.884724164523281
 30
0.0
 10
6.483900782815747
 20
-3.762336628146409
 30
0.0
 10
6.599090696797667
 20
-3.508608217110035
 30
0.0
 10
6.708972192077781
 20
-3.382353876271247
 30
0.0
 10
7.026869321566675
 20
-3.196255402851683
 30
0.0
 10
7.229248511360538
 20
-3.141211363330616
 30
0.0
 10
7.638228454214843
 20
-3.141610047270238
 30
0.0
 10
7.840323785950924
 20
-3.196747847840343
 30
0.0
 10
7.999999999999902
 20
-3.290927764499527
 30
0.0
  0
SPLINE
  5
B9
330
1F
100
AcDbEntity
  8
0
  6
Continuous
 62
     4
370
    15
100
AcDbSpline
210
0.0
220
0.0
230
1.0
 70
     8
 71
     3
 72
    12
 73
     8
 74
     0
 42
0.000000001
 43
0.00000001
 40
0.0
 40
0.0
 40
0.0
 40
0.0
 40
0.4999999999999998
 40
0.4999999999999998
 40
0.7499999999999999
 40
0.7499999999999999
 40
1.0
 40
1.0
 40
1.0
 40
1.0
 10
6.796354753932487
 20
-4.462617178112387
 30
0.0
 10
6.662997641039301
 20
-4.416067038348409
 30
0.0
 10
6.575522601837331
 20
-4.350637422855719
 30
0.0
 10
6.506534977515789
 20
-4.230712634351208
 30
0.0
 10
6.493421806270732
 20
-4.186940832062866
 30
0.0
 10
6.480200557563771
 20
-4.094955780616671
 30
0.0
 10
6.480079250343122
 20
-4.046418972571978
 30
0.0
 10
6.480079250343133
 20
-3.995490877344686
 30
0.0
  0
SPLINE
  5
BA
330
1F
100
AcDbEntity
  8
0
  6
Continuous
 62
     4
370
    15
100
AcDbSpline
210
0.0
220
0.0
230
1.0
 70
     8
 71
     3
 72
    10
 73
     6
 74
     0
 42
0.000000001
 43
0.00000001
 40
0.0
 40
0.0
 40
0.0
 40
0.0
 40
0.5
 40
0.5
 40
1.0
 40
1.0
 40
1.0
 40
1.0
 10
7.999999999999783
 20
-4.736779227527489
 30
0.0
 10
7.79858603386697
 20
-4.715926166480477
 30
0.0
 10
7.59634719769833
 20
-4.682348828995613
 30
0.0
 10
7.19505584287551
 20
-4.590644098522247
 30
0.0
 10
6.997178352355505
 20
-4.532717425273445
 30
0.0
 10
6.796354753932487
 20
-4.462617178112387
 30
0.0
  0
LINE
  5
BB
330
1F
100
AcDbEntity
  8
0
  6
Continuous
 62
     4
370
    15
100
AcDbLine
 10
8.000000000000004
 20
-4.736779227527508
 30
0.0
 11
8.0
 21
-4.762499999999994
 31
0.0
  0
LINE
  5
BC
330
1F
100
AcDbEntity
  8
0
  6
Continuous
 62
     1
370
    15
100
AcDbLine
 10
8.0
 20
4.762500000000006
 30
0.0
 11
8.0
 21
4.626805949865439
 31
0.0
  0
SPLINE
  5
BD
330
1F
100
AcDbEntity
  8
0
  6
Continuous
 62
     4
370
    15
100
AcDbSpline
210
0.0
220
0.0
230
1.0
 70
     8
 71
     3
 72
    14
 73
    10
 74
     0
 42
0.000000001
 43
0.00000001
 40
0.0
 40
0.0
 40
0.0
 40
0.0
 40
0.2499999999999999
 40
0.2499999999999999
 40
0.4999999999999999
 40
0.4999999999999999
 40
0.7499999999999999
 40
0.7499999999999999
 40
1.0
 40
1.0
 40
1.0
 40
1.0
 10
6.480079250343131
 20
4.242315369481238
 30
0.0
 10
6.480079250343154
 20
4.334811363313781
 30
0.0
 10
6.483900782815748
 20
4.415650275829204
 30
0.0
 10
6.599090696797667
 20
4.548446691925914
 30
0.0
 10
6.708972192077779
 20
4.596901115798099
 30
0.0
 10
7.026869321566673
 20
4.65777389906107
 30
0.0
 10
7.229248511360536
 20
4.670710215131821
 30
0.0
 10
7.638228454214842
 20
4.670606545253188
 30
0.0
 10
7.840323785950924
 20
4.657685735252546
 30
0.0
 10
7.999999999999902
 20
4.626805949865382
 30
0.0
  0
SPLINE
  5
BE
330
1F
100
AcDbEntity
  8
0
  6
Continuous
 62
     4
370
    15
100
AcDbSpline
210
0.0
220
0.0
230
1.0
 70
     8
 71
     3
 72
    12
 73
     8
 74
     0
 42
0.000000001
 43
0.00000001
 40
0.0
 40
0.0
 40
0.0
 40
0.0
 40
0.4999999999999994
 40
0.4999999999999994
 40
0.7499999999999997
 40
0.7499999999999997
 40
1.0
 40
1.0
 40
1.0
 40
1.0
 10
6.796354753932487
 20
3.67173929850115
 30
0.0
 10
6.662997641039301
 20
3.756627425220077
 30
0.0
 10
6.575522601837333
 20
3.860398944186477
 30
0.0
 10
6.506534977515789
 20
4.01087113898692
 30
0.0
 10
6.493421806270733
 20
4.060626202425211
 30
0.0
 10
6.480200557563773
 20
4.154860129588762
 30
0.0
 10
6.48007925034312
 20
4.199787748483388
 30
0.0
 10
6.480079250343131
 20
4.242315369481238
 30
0.0
  0
SPLINE
  5
BF
330
1F
100
AcDbEntity
  8
0
  6
Continuous
 62
     4
370
    15
100
AcDbSpline
210
0.0
220
0.0
230
1.0
 70
     8
 71
     3
 72
    10
 73
     6
 74
     0
 42
0.000000001
 43
0.00000001
 40
0.0
 40
0.0
 40
0.0
 40
0.0
 40
0.5
 40
0.5
 40
1.0
 40
1.0
 40
1.0
 40
1.0
 10
7.999999999999782
 20
2.796462738063819
 30
0.0
 10
7.79858603386697
 20
2.959096032119379
 30
0.0
 10
7.59634719769833
 20
3.114453553821414
 30
0.0
 10
7.195055842875508
 20
3.406962105726175
 30
0.0
 10
6.997178352355505
 20
3.543905554194306
 30
0.0
 10
6.796354753932487
 20
3.671739298501148
 30
0.0
  0
LINE
  5
C0
330
1F
100
AcDbEntity
  8
0
  6
Continuous
 62
     1
370
    15
100
AcDbLine
 10
8.000000000000004
 20
2.796462738063641
 30
0.0
 11
8.0
 21
1.335878185366041
 31
0.0
  0
LINE
  5
C1
330
1F
100
AcDbEntity
  8
0
  6
Continuous
 62
     4
370
    15
100
AcDbLine
 10
-42.8
 20
4.262499999999999
 30
0.0
 11
-42.8
 21
-4.262499999999994
 31
0.0
  0
SPLINE
  5
C2
330
1F
100
AcDbEntity
  8
0
  6
Continuous
 62
     1
370
    15
100
AcDbSpline
210
0.0
220
0.0
230
1.0
 70
    24
 71
     3
 72
    14
 73
    10
 74
     0
 42
0.000000001
 43
0.00000001
 40
0.0
 40
0.0
 40
0.0
 40
0.0
 40
0.2500000000000001
 40
0.2500000000000001
 40
0.5000000000000001
 40
0.5000000000000001
 40
0.7500000000000001
 40
0.7500000000000001
 40
1.0
 40
1.0
 40
1.0
 40
1.0
 10
8.0
 20
1.075251690295175
 30
0.0
 10
8.0
 20
0.9249198296030542
 30
0.0
 10
8.0
 20
0.7441195409964605
 30
0.0
 10
8.0
 20
0.3135189008036104
 30
0.0
 10
8.000000000000002
 20
0.0629888893662812
 30
0.0
 10
8.000000000000002
 20
-0.4905853272752114
 30
0.0
 10
8.000000000000002
 20
-0.7937236996817372
 30
0.0
 10
8.000000000000002
 20
-1.393607847766395
 30
0.0
 10
8.000000000000004
 20
-1.688696064335845
 30
0.0
 10
8.000000000000004
 20
-1.940316489463888
 30
0.0
  0
SPLINE
  5
C3
330
1F
100
AcDbEntity
  8
0
  6
Continuous
 62
     1
370
    15
100
AcDbSpline
210
0.0
220
0.0
230
1.0
 70
    24
 71
     3
 72
    11
 73
     7
 74
     0
 42
0.000000001
 43
0.00000001
 40
0.0
 40
0.0
 40
0.0
 40
0.0
 40
0.2376606677575384
 40
0.5457188510161487
 40
0.8537770342747584
 40
1.0
 40
1.0
 40
1.0
 40
1.0
 10
7.999999999999998
 20
4.278476289108109
 30
0.0
 10
7.999999999999998
 20
4.091627157526544
 30
0.0
 10
8.0
 20
3.662582274491526
 30
0.0
 10
8.0
 20
3.152908882462269
 30
0.0
 10
8.000000000000004
 20
2.833645100507317
 30
0.0
 10
8.000000000000004
 20
2.814203014846809
 30
0.0
 10
8.000000000000004
 20
2.807945041273565
 30
0.0
  0
SPLINE
  5
C4
330
1F
100
AcDbEntity
  8
0
  6
Continuous
 62
     4
370
    15
100
AcDbSpline
210
0.0
220
0.0
230
1.0
 70
    24
 71
     3
 72
    12
 73
     8
 74
     0
 42
0.000000001
 43
0.00000001
 40
0.0
 40
0.0
 40
0.0
 40
0.0
 40
0.0624583706899935
 40
0.3468788017077213
 40
0.6312992327254484
 40
0.915719663743176
 40
1.0
 40
1.0
 40
1.0
 40
1.0
 10
8.0
 20
-3.193360544749238
 30
0.0
 10
8.0
 20
-3.190700352828827
 30
0.0
 10
8.0
 20
-3.175926285310404
 30
0.0
 10
8.000000000000002
 20
-3.37669695688607
 30
0.0
 10
8.000000000000004
 20
-3.83279301960523
 30
0.0
 10
8.000000000000004
 20
-4.343006275311422
 30
0.0
 10
8.000000000000004
 20
-4.663514986341971
 30
0.0
 10
8.000000000000004
 20
-4.736779227527508
 30
0.0
  0
SPLINE
  5
C5
330
1F
100
AcDbEntity
  8
0
  6
Continuous
 62
     1
370
    15
100
AcDbSpline
210
0.0
220
0.0
230
1.0
 70
    24
 71
     3
 72
     8
 73
     4
 74
     0
 42
0.000000001
 43
0.00000001
 40
0.0
 40
0.0
 40
0.0
 40
0.0
 40
1.0
 40
1.0
 40
1.0
 40
1.0
 10
8.000000000000002
 20
4.626805949865524
 30
0.0
 10
8.000000000000002
 20
4.507745823703159
 30
0.0
 10
8.000000000000002
 20
4.391508348994801
 30
0.0
 10
8.000000000000002
 20
4.278476289107717
 30
0.0
  0
SPLINE
  5
C6
330
1F
100
AcDbEntity
  8
0
  6
Continuous
 62
     1
370
    15
100
AcDbSpline
210
0.0
220
0.0
230
1.0
 70
     8
 71
     3
 72
    30
 73
    26
 74
     0
 42
0.000000001
 43
0.00000001
 40
0.0
 40
0.0
 40
0.0
 40
0.0
 40
0.1249999999999999
 40
0.1249999999999999
 40
0.2499999999999999
 40
0.2499999999999999
 40
0.3749999999999998
 40
0.3749999999999998
 40
0.4999999999999998
 40
0.4999999999999998
 40
0.5624999999999996
 40
0.5624999999999996
 40
0.6249999999999993
 40
0.6249999999999993
 40
0.687499999999999
 40
0.687499999999999
 40
0.7187499999999989
 40
0.7187499999999989
 40
0.7499999999999988
 40
0.7499999999999988
 40
0.8124999999999984
 40
0.8124999999999984
 40
0.8749999999999981
 40
0.8749999999999981
 40
1.0
 40
1.0
 40
1.0
 40
1.0
 10
57.27600000000001
 20
4.732343960708485
 30
0.0
 10
57.45260169984233
 20
4.712452663288992
 30
0.0
 10
57.61720957679248
 20
4.653401443200751
 30
0.0
 10
57.93258728688415
 20
4.463704656779564
 30
0.0
 10
58.07674461354216
 20
4.335525148376361
 30
0.0
 10
58.3286527191912
 20
4.023384602472184
 30
0.0
 10
58.43371916360683
 20
3.841130316228178
 30
0.0
 10
58.58986296000589
 20
3.45436809519384
 30
0.0
 10
58.64082730582995
 20
3.248962794254726
 30
0.0
 10
58.68001976903034
 20
2.962460236991115
 30
0.0
 10
58.6872992999965
 20
2.870042920552911
 30
0.0
 10
58.68987516646998
 20
2.696109083941601
 30
0.0
 10
58.68520270028393
 20
2.613923758012341
 30
0.0
 10
58.65741047329244
 20
2.476494560980071
 30
0.0
 10
58.63415132463702
 20
2.4184865327583
 30
0.0
 10
58.56972931907121
 20
2.372257783032097
 30
0.0
 10
58.54292721386479
 20
2.36399545635904
 30
0.0
 10
58.47855453602642
 20
2.36599363597546
 30
0.0
 10
58.43989097514006
 20
2.376552798850747
 30
0.0
 10
58.31374626701068
 20
2.432638462826429
 30
0.0
 10
58.21456667289444
 20
2.50208348392867
 30
0.0
 10
58.02053997112951
 20
2.651811723922198
 30
0.0
 10
57.92258945986166
 20
2.733975940270169
 30
0.0
 10
57.6374476567474
 20
2.972754117701501
 30
0.0
 10
57.45374474621767
 20
3.12640008930245
 30
0.0
 10
57.27600000000002
 20
3.256421745820592
 30
0.0
  0
SPLINE
  5
C7
330
1F
100
AcDbEntity
  8
0
  6
Continuous
 62
     1
370
    15
100
AcDbSpline
210
0.0
220
0.0
230
1.0
 70
     8
 71
     3
 72
    10
 73
     6
 74
     0
 42
0.000000001
 43
0.00000001
 40
0.0
 40
0.0
 40
0.0
 40
0.0
 40
0.4612114602859346
 40
0.9228119210613246
 40
1.0
 40
1.0
 40
1.0
 40
1.0
 10
7.999999999999783
 20
-4.736779227527485
 30
0.0
 10
8.334155790033533
 20
-4.747868911293603
 30
0.0
 10
9.002749207776526
 20
-4.77005763221964
 30
0.0
 10
9.727306646117137
 20
-4.643739084663927
 30
0.0
 10
10.11821785523667
 20
-4.479190512599015
 30
0.0
 10
10.17422068945349
 20
-4.455616907680593
 30
0.0
  0
SPLINE
  5
C8
330
1F
100
AcDbEntity
  8
0
  6
Continuous
 62
     1
370
    15
100
AcDbSpline
210
0.0
220
0.0
230
1.0
 70
     8
 71
     3
 72
    23
 73
    19
 74
     0
 42
0.000000001
 43
0.00000001
 40
0.0
 40
0.0
 40
0.0
 40
0.0
 40
0.0278149142262092
 40
0.0933053673590228
 40
0.1588802571128121
 40
0.224417125254884
 40
0.2898854111283593
 40
0.3553374196968898
 40
0.4208256818873375
 40
0.4863983176115236
 40
0.5519384859334213
 40
0.6174082748443773
 40
0.682859968460343
 40
0.7483461020838292
 40
0.8139162320557791
 40
0.8794597620724063
 40
0.9449311167035301
 40
0.9999999999999999
 40
0.9999999999999999
 40
0.9999999999999999
 40
0.9999999999999999
 10
23.45631505660444
 20
4.732077907436206
 30
0.0
 10
23.6105331156955
 20
4.73929348662276
 30
0.0
 10
24.12785891220391
 20
4.763498208637511
 30
0.0
 10
25.00891762156293
 20
4.541581817453862
 30
0.0
 10
26.10029119450139
 20
4.085529086521586
 30
0.0
 10
27.19095855580515
 20
3.40145394937534
 30
0.0
 10
28.28025318452941
 20
2.543879671538802
 30
0.0
 10
29.36919928785221
 20
1.552755086476066
 30
0.0
 10
30.45891528898355
 20
0.4805551222800317
 30
0.0
 10
31.55025059634127
 20
-0.6161666298220366
 30
0.0
 10
32.64097933464355
 20
-1.681136396454745
 30
0.0
 10
33.7303063164901
 20
-2.658425715990567
 30
0.0
 10
34.81924542386947
 20
-3.497038356526641
 30
0.0
 10
35.90891784418098
 20
-4.153026275745775
 30
0.0
 10
37.0002059062131
 20
-4.593856997422577
 30
0.0
 10
38.09100019537617
 20
-4.788793728857764
 30
0.0
 10
39.12278390711764
 20
-4.759681633407657
 30
0.0
 10
39.79111373056485
 20
-4.549757113039396
 30
0.0
 10
40.09644062956328
 20
-4.453852964250748
 30
0.0
  0
SPLINE
  5
C9
330
1F
100
AcDbEntity
  8
0
  6
Continuous
 62
     1
370
    15
100
AcDbSpline
210
0.0
220
0.0
230
1.0
 70
     8
 71
     3
 72
    11
 73
     7
 74
     0
 42
0.000000001
 43
0.00000001
 40
0.0
 40
0.0
 40
0.0
 40
0.0
 40
0.2275885094571476
 40
0.4847675840024901
 40
0.7421362335448729
 40
1.0
 40
1.0
 40
1.0
 40
1.0
 10
53.380305008091
 20
4.751680748644223
 30
0.0
 10
53.67591027177368
 20
4.740288257863348
 30
0.0
 10
54.30555475530084
 20
4.716022049324135
 30
0.0
 10
55.26843657831766
 20
4.420339333486346
 30
0.0
 10
56.27111576863783
 20
3.947223434760172
 30
0.0
 10
56.94082406894269
 20
3.486836446380104
 30
0.0
 10
57.27600000000001
 20
3.2564217458206
 30
0.0
  0
SPLINE
  5
CA
330
1F
100
AcDbEntity
  8
0
  6
Continuous
 62
     1
370
    15
100
AcDbSpline
210
0.0
220
0.0
230
1.0
 70
    24
 71
     3
 72
    12
 73
     8
 74
     0
 42
0.000000001
 43
0.00000001
 40
0.0
 40
0.0
 40
0.0
 40
0.0
 40
0.0886804411638722
 40
0.3651459266589702
 40
0.6416114121540685
 40
0.9180768976491676
 40
1.0
 40
1.0
 40
1.0
 40
1.0
 10
7.999999999999998
 20
-3.205110254823273
 30
0.0
 10
7.999999999999998
 20
-3.196799005196756
 30
0.0
 10
8.0
 20
-3.162577040277115
 30
0.0
 10
8.0
 20
-3.378278926356823
 30
0.0
 10
8.000000000000002
 20
-3.832355321507039
 30
0.0
 10
8.000000000000002
 20
-4.343032833284282
 30
0.0
 10
8.000000000000004
 20
-4.663519927640547
 30
0.0
 10
8.000000000000004
 20
-4.736779227527508
 30
0.0
  0
SPLINE
  5
CB
330
1F
100
AcDbEntity
  8
0
  6
Continuous
 62
     1
370
    15
100
AcDbSpline
210
0.0
220
0.0
230
1.0
 70
     8
 71
     3
 72
    11
 73
     7
 74
     0
 42
0.000000001
 43
0.00000001
 40
0.0
 40
0.0
 40
0.0
 40
0.0
 40
0.2602297316557174
 40
0.5206789493860471
 40
0.7816033298291387
 40
0.9999999999999999
 40
0.9999999999999999
 40
0.9999999999999999
 40
0.9999999999999999
 10
8.00000000000104
 20
-3.28624712111632
 30
0.0
 10
8.33414895114101
 20
-3.514594712084238
 30
0.0
 10
9.002728685328297
 20
-3.971482489678034
 30
0.0
 10
10.0065279103506
 20
-4.436704756751427
 30
0.0
 10
10.95833790302208
 20
-4.72105589800948
 30
0.0
 10
11.57390217886102
 20
-4.739707535293276
 30
0.0
 10
11.85437637866336
 20
-4.748205921647886
 30
0.0
  0
SPLINE
  5
CC
330
1F
100
AcDbEntity
  8
0
  6
Continuous
 62
     1
370
    15
100
AcDbSpline
210
0.0
220
0.0
230
1.0
 70
     8
 71
     3
 72
    23
 73
    19
 74
     0
 42
0.000000001
 43
0.00000001
 40
0.0
 40
0.0
 40
0.0
 40
0.0
 40
0.057929133313715
 40
0.1234651441588892
 40
0.1889325736326009
 40
0.2543837260142935
 40
0.3198711315436651
 40
0.3854429095030723
 40
0.4509822204849026
 40
0.5164511529764336
 40
0.5819019904096816
 40
0.6473872673999356
 40
0.7129565396398853
 40
0.7784992122724694
 40
0.8439697104636871
 40
0.9094202959318761
 40
0.9749035067929794
 40
1.0
 40
1.0
 40
1.0
 40
1.0
 10
25.13592043665524
 20
4.45739027394764
 30
0.0
 10
25.45742824519829
 20
4.555577853079075
 30
0.0
 10
26.14266217947809
 20
4.764846366495709
 30
0.0
 10
27.19097124144616
 20
4.785714356371868
 30
0.0
 10
28.28024978794255
 20
4.579846904979428
 30
0.0
 10
29.36920019838185
 20
4.129308564325441
 30
0.0
 10
30.45891504463634
 20
3.464756132964717
 30
0.0
 10
31.5502506616653
 20
2.619506298306718
 30
0.0
 10
32.64097931772549
 20
1.637467618830072
 30
0.0
 10
33.73030631892886
 20
0.56992918268559
 30
0.0
 10
34.81924543101859
 20
-0.5271364649305007
 30
0.0
 10
35.9089178131084
 20
-1.596995839390167
 30
0.0
 10
37.00020602349202
 20
-2.583324986603861
 30
0.0
 10
38.09099975779274
 20
-3.434098037996568
 30
0.0
 10
39.18035399078913
 20
-4.110042620300456
 30
0.0
 10
40.26931050845233
 20
-4.555703025325796
 30
0.0
 10
41.13445851049512
 20
-4.767934962604707
 30
0.0
 10
41.63717225588007
 20
-4.740610277903453
 30
0.0
 10
41.77645679236565
 20
-4.733039555841112
 30
0.0
  0
SPLINE
  5
CD
330
1F
100
AcDbEntity
  8
0
  6
Continuous
 62
     1
370
    15
100
AcDbSpline
210
0.0
220
0.0
230
1.0
 70
     8
 71
     3
 72
    10
 73
     6
 74
     0
 42
0.000000001
 43
0.00000001
 40
0.0
 40
0.0
 40
0.0
 40
0.0
 40
0.0946194668610836
 40
0.5468747169209959
 40
1.0
 40
1.0
 40
1.0
 40
1.0
 10
55.05863185934395
 20
4.453064916133998
 30
0.0
 10
55.12851257355626
 20
4.482151223408158
 30
0.0
 10
55.53240404611334
 20
4.650262147983399
 30
0.0
 10
56.27110921485227
 20
4.774920277364494
 30
0.0
 10
56.94082188294843
 20
4.746545155367931
 30
0.0
 10
57.27600000000002
 20
4.732343960713882
 30
0.0
  0
SPLINE
  5
CE
330
1F
100
AcDbEntity
  8
0
  6
Continuous
 62
     1
370
    15
100
AcDbSpline
210
0.0
220
0.0
230
1.0
 70
     8
 71
     3
 72
    24
 73
    20
 74
     0
 42
0.000000001
 43
0.00000001
 40
0.0
 40
0.0
 40
0.0
 40
0.0
 40
0.0305378840487218
 40
0.0908686364073776
 40
0.1513094559960425
 40
0.2116373730441348
 40
0.271917563597142
 40
0.3374037812364117
 40
0.4029736081068871
 40
0.4684952515306631
 40
0.5339519190913629
 40
0.5993959478098938
 40
0.6648798501775205
 40
0.7304479268296101
 40
0.7959727468135843
 40
0.8614307917871663
 40
0.9268743796607913
 40
0.9923560290499605
 40
1.0
 40
1.0
 40
1.0
 40
1.0
 10
8.494620584046375
 20
4.736092932310987
 30
0.0
 10
8.663902105170328
 20
4.741045689917492
 30
0.0
 10
9.16761680160962
 20
4.755783133069794
 30
0.0
 10
10.00654319662421
 20
4.5508701720736
 30
0.0
 10
11.01238182522681
 20
4.145401629733525
 30
0.0
 10
12.01618802629938
 20
3.544783678852011
 30
0.0
 10
13.047593316089
 20
2.768731105876852
 30
0.0
 10
14.10895143560219
 20
1.833934748423355
 30
0.0
 10
15.20035780545369
 20
0.7791291713916194
 30
0.0
 10
16.29091327479767
 20
-0.3169043709168616
 30
0.0
 10
17.38014509591445
 20
-1.396293718109642
 30
0.0
 10
18.46910962613258
 20
-2.402773751090269
 30
0.0
 10
19.55891615127045
 20
-3.284122573480685
 30
0.0
 10
20.65032994465885
 20
-3.994140048517962
 30
0.0
 10
21.74093788968499
 20
-4.494544868173049
 30
0.0
 10
22.83019092284276
 20
-4.766581231146395
 30
0.0
 10
23.91918664893639
 20
-4.767181458664094
 30
0.0
 10
24.68759628633342
 20
-4.652431125449883
 30
0.0
 10
25.09349138970131
 20
-4.475848787593131
 30
0.0
 10
25.13592043665524
 20
-4.457390273947627
 30
0.0
  0
SPLINE
  5
CF
330
1F
100
AcDbEntity
  8
0
  6
Continuous
 62
     1
370
    15
100
AcDbSpline
210
0.0
220
0.0
230
1.0
 70
     8
 71
     3
 72
    23
 73
    19
 74
     0
 42
0.000000001
 43
0.00000001
 40
0.0
 40
0.0
 40
0.0
 40
0.0
 40
0.0457963505464151
 40
0.1112446015720612
 40
0.1767254768269647
 40
0.2422896531009715
 40
0.3078334109936955
 40
0.3733032023295503
 40
0.4387512643844654
 40
0.5042301360259979
 40
0.5697913034050763
 40
0.6353385456847244
 40
0.7008100279444557
 40
0.7662579640171324
 40
0.8317348945206977
 40
0.8921010941245572
 40
0.9523925843269025
 40
1.0
 40
1.0
 40
1.0
 40
1.0
 10
38.41854664191627
 20
4.73633690326287
 30
0.0
 10
38.67252530385284
 20
4.734970595917467
 30
0.0
 10
39.28946867855045
 20
4.731651678264621
 30
0.0
 10
40.26928058573673
 20
4.440004185063518
 30
0.0
 10
41.358925117657
 20
3.91794819604165
 30
0.0
 10
42.45015840228488
 20
3.182788346170664
 30
0.0
 10
43.54101588261136
 20
2.283929493640621
 30
0.0
 10
44.63041071178856
 20
1.265131729809807
 30
0.0
 10
45.71934014127022
 20
0.1807721082120293
 30
0.0
 10
46.80892800740456
 20
-0.913408754774544
 30
0.0
 10
47.90010874568958
 20
-1.959479087685637
 30
0.0
 10
48.99103253346115
 20
-2.903512074338476
 30
0.0
 10
50.0804558785576
 20
-3.696392353236107
 30
0.0
 10
51.16941157459948
 20
-4.295834694853131
 30
0.0
 10
52.23006310671827
 20
-4.663238383268776
 30
0.0
 10
53.26350545231849
 20
-4.792551469021541
 30
0.0
 10
54.19675044820814
 20
-4.733749276463298
 30
0.0
 10
54.79477154683538
 20
-4.538994908445991
 30
0.0
 10
55.05863185934395
 20
-4.453064916133979
 30
0.0
  0
SPLINE
  5
D0
330
1F
100
AcDbEntity
  8
0
  6
Continuous
 62
     1
370
    15
100
AcDbSpline
210
0.0
220
0.0
230
1.0
 70
     8
 71
     3
 72
    23
 73
    19
 74
     0
 42
0.000000001
 43
0.00000001
 40
0.0
 40
0.0
 40
0.0
 40
0.0
 40
0.0503536380745315
 40
0.1106830274322983
 40
0.1709646891302098
 40
0.236452504968083
 40
0.3020239320776544
 40
0.367547174564604
 40
0.4330054396027341
 40
0.4984510654902428
 40
0.5639365659999683
 40
0.6295062428484398
 40
0.6950326619731119
 40
0.7604923044577401
 40
0.8259374894895839
 40
0.8914207369658678
 40
0.9569884117728986
 40
1.0
 40
1.0
 40
1.0
 40
1.0
 10
10.17422068945349
 20
4.455616907680605
 30
0.0
 10
10.45377373055452
 20
4.54429503102477
 30
0.0
 10
11.0682631319195
 20
4.739219638939284
 30
0.0
 10
12.01620317931554
 20
4.791650065789867
 30
0.0
 10
13.04758886531602
 20
4.651787350045396
 30
0.0
 10
14.10895267161852
 20
4.274697120953187
 30
0.0
 10
15.20035747364288
 20
3.666491362781912
 30
0.0
 10
16.29091336619944
 20
2.86631318619917
 30
0.0
 10
17.38014506167838
 20
1.916784807190559
 30
0.0
 10
18.46910967174315
 20
0.8674153442342633
 30
0.0
 10
19.55891600289494
 20
-0.2275892338076306
 30
0.0
 10
20.65033049311072
 20
-1.309990821738474
 30
0.0
 10
21.74093584689136
 20
-2.324765790925156
 30
0.0
 10
22.83019853701283
 20
-3.217513638775297
 30
0.0
 10
23.91915823158024
 20
-3.944993880323315
 30
0.0
 10
25.00889866593958
 20
-4.45708450849949
 30
0.0
 10
25.97532726728029
 20
-4.736948558425912
 30
0.0
 10
26.57774686699567
 20
-4.735117136489022
 30
0.0
 10
26.81638381330417
 20
-4.734391653887476
 30
0.0
  0
SPLINE
  5
D1
330
1F
100
AcDbEntity
  8
0
  6
Continuous
 62
     1
370
    15
100
AcDbSpline
210
0.0
220
0.0
230
1.0
 70
     8
 71
     3
 72
    24
 73
    20
 74
     0
 42
0.000000001
 43
0.00000001
 40
0.0
 40
0.0
 40
0.0
 40
0.0
 40
0.0103807938098816
 40
0.0758537320992971
 40
0.1414099613108639
 40
0.2069457746160684
 40
0.2724076303299222
 40
0.3378477593966522
 40
0.4033186943155563
 40
0.4688719149969041
 40
0.5344112122666882
 40
0.5998747586994612
 40
0.6653147617992237
 40
0.7307837558154463
 40
0.7911426384058879
 40
0.851426820650375
 40
0.9116341439370212
 40
0.9718858479850272
 40
1.0
 40
1.0
 40
1.0
 40
1.0
 10
40.09644062956328
 20
4.453852964250764
 30
0.0
 10
40.15400633023567
 20
4.478617865548268
 30
0.0
 10
40.57464595730877
 20
4.659578033228133
 30
0.0
 10
41.3589258213762
 20
4.772442480638482
 30
0.0
 10
42.45015821368188
 20
4.760015821346796
 30
0.0
 10
43.54101593307348
 20
4.477993919169009
 30
0.0
 10
44.63041069829477
 20
3.96804020745239
 30
0.0
 10
45.7193401448281
 20
3.249762748946698
 30
0.0
 10
46.80892800667008
 20
2.362133997143426
 30
0.0
 10
47.90010874506276
 20
1.351600105205074
 30
0.0
 10
48.99103253670055
 20
0.2704709298786905
 30
0.0
 10
50.08045586624426
 20
-0.8250306327706822
 30
0.0
 10
51.16941162061006
 20
-1.877114719312515
 30
0.0
 10
52.23006294056816
 20
-2.806825017687109
 30
0.0
 10
53.26350601847628
 20
-3.574830422315413
 30
0.0
 10
54.26667140004071
 20
-4.167221111750196
 30
0.0
 10
55.26847622266349
 20
-4.563793412042882
 30
0.0
 10
56.09220137591299
 20
-4.759616837470618
 30
0.0
 10
56.5827945027466
 20
-4.74185562017335
 30
0.0
 10
56.7388797868123
 20
-4.736204777355614
 30
0.0
  0
SPLINE
  5
D2
330
1F
100
AcDbEntity
  8
0
  6
Continuous
 62
     1
370
    15
100
AcDbSpline
210
0.0
220
0.0
230
1.0
 70
     8
 71
     3
 72
    14
 73
    10
 74
     0
 42
0.000000001
 43
0.00000001
 40
0.0
 40
0.0
 40
0.0
 40
0.0
 40
0.1400664751767088
 40
0.2802510868961787
 40
0.4206914509691108
 40
0.5608694745574051
 40
0.7009366008019624
 40
0.8531004581025192
 40
1.0
 40
1.0
 40
1.0
 40
1.0
 10
7.999999999999782
 20
-1.940316489463685
 30
0.0
 10
8.33414793234922
 20
-2.237510202734899
 30
0.0
 10
9.002725628096162
 20
-2.832148291955687
 30
0.0
 10
10.00654016061459
 20
-3.576096625025317
 30
0.0
 10
11.01238219365353
 20
-4.166643239016814
 30
0.0
 10
12.01618958034443
 20
-4.572991241690291
 30
0.0
 10
13.04758650309101
 20
-4.778363737700209
 30
0.0
 10
14.09594798322744
 20
-4.774094021627119
 30
0.0
 10
14.81043643865278
 20
-4.567077085891713
 30
0.0
 10
15.16139221282799
 20
-4.465390643799166
 30
0.0
  0
SPLINE
  5
D3
330
1F
100
AcDbEntity
  8
0
  6
Continuous
 62
     1
370
    15
100
AcDbSpline
210
0.0
220
0.0
230
1.0
 70
     8
 71
     3
 72
    23
 73
    19
 74
     0
 42
0.000000001
 43
0.00000001
 40
0.0
 40
0.0
 40
0.0
 40
0.0
 40
0.0556426995155527
 40
0.12112368036547
 40
0.1866890253680179
 40
0.2522219065781796
 40
0.3176844162025646
 40
0.3831288325438924
 40
0.4486076850635138
 40
0.5141705245924287
 40
0.5797067671235484
 40
0.6451708422940161
 40
0.7106150066950038
 40
0.7760917932881738
 40
0.8416518756990862
 40
0.9071915410036504
 40
0.9726572443698578
 40
1.0
 40
1.0
 40
1.0
 40
1.0
 10
28.4433910739935
 20
4.746671070124838
 30
0.0
 10
28.75193000869094
 20
4.735689684317423
 30
0.0
 10
29.42356117741507
 20
4.711785275004289
 30
0.0
 10
30.45891500579097
 20
4.375801291811468
 30
0.0
 10
31.55025067162713
 20
3.819302720106231
 30
0.0
 10
32.6409793167266
 20
3.056708793172271
 30
0.0
 10
33.73030631298477
 20
2.136410830016668
 30
0.0
 10
34.81924545579268
 20
1.10441118952248
 30
0.0
 10
35.90891771984936
 20
0.0145674201015444
 30
0.0
 10
37.00020637215764
 20
-1.075490152820536
 30
0.0
 10
38.09099845775502
 20
-2.109797646068801
 30
0.0
 10
39.18035883608923
 20
-3.034068567295735
 30
0.0
 10
40.26929242717993
 20
-3.800210422208821
 30
0.0
 10
41.35892197252311
 20
-4.367347374191853
 30
0.0
 10
42.45015912197485
 20
-4.710222717314188
 30
0.0
 10
43.54101614955309
 20
-4.793590111640595
 30
0.0
 10
44.41912192210205
 20
-4.701224443269265
 30
0.0
 10
44.93375137742309
 20
-4.500223463935418
 30
0.0
 10
45.08536888717475
 20
-4.441005578854913
 30
0.0
  0
SPLINE
  5
D5
330
1F
100
AcDbEntity
  8
0
  6
Continuous
 62
     1
370
    15
100
AcDbSpline
210
0.0
220
0.0
230
1.0
 70
     8
 71
     3
 72
    16
 73
    12
 74
     0
 42
0.000000001
 43
0.00000001
 40
0.0
 40
0.0
 40
0.0
 40
0.0
 40
0.1134561122637111
 40
0.2270079170394311
 40
0.3407668853615284
 40
0.4543133536443495
 40
0.5677699932835581
 40
0.6910251808978345
 40
0.8144377340135861
 40
0.9377595984321292
 40
1.0
 40
1.0
 40
1.0
 40
1.0
 10
8.00000000000104
 20
1.34208825466575
 30
0.0
 10
8.334147941822451
 20
1.015348088248775
 30
0.0
 10
9.00272565652133
 20
0.3615921723133529
 30
0.0
 10
10.00654004672027
 20
-0.6515402226484721
 30
0.0
 10
11.0123826212811
 20
-1.630055383467613
 30
0.0
 10
12.01618798782292
 20
-2.539162589782556
 30
0.0
 10
13.04759265846752
 20
-3.356966392715589
 30
0.0
 10
14.1089543816971
 20
-4.038124008213956
 30
0.0
 10
15.2003467648744
 20
-4.513763187832804
 30
0.0
 10
16.11123984075509
 20
-4.754724176489511
 30
0.0
 10
16.65796899566197
 20
-4.737237251013815
 30
0.0
 10
16.84135025569013
 20
-4.731371870689809
 30
0.0
  0
SPLINE
  5
D6
330
1F
100
AcDbEntity
  8
0
  6
Continuous
 62
     1
370
    15
100
AcDbSpline
210
0.0
220
0.0
230
1.0
 70
     8
 71
     3
 72
    23
 73
    19
 74
     0
 42
0.000000001
 43
0.00000001
 40
0.0
 40
0.0
 40
0.0
 40
0.0
 40
0.0202542989640973
 40
0.0858189653656257
 40
0.1513511683107688
 40
0.2168130003984803
 40
0.2822567393904002
 40
0.3477349142041994
 40
0.413297075158027
 40
0.4788326393893378
 40
0.5442960370069286
 40
0.6097395240611163
 40
0.6752156329698461
 40
0.7407750368342073
 40
0.8063140238035372
 40
0.8717790496000158
 40
0.9372223476972272
 40
1.0
 40
1.0
 40
1.0
 40
1.0
 10
30.12159995794503
 20
4.444459676669096
 30
0.0
 10
30.23393520578732
 20
4.490281953789882
 30
0.0
 10
30.70990797388978
 20
4.684434336954247
 30
0.0
 10
31.55028389549695
 20
4.78700985891483
 30
0.0
 10
32.64097042684476
 20
4.733032894339377
 30
0.0
 10
33.73030869318431
 20
4.415428570877609
 30
0.0
 10
34.81924481765021
 20
3.872128489398774
 30
0.0
 10
35.90891789148794
 20
3.125428645935606
 30
0.0
 10
37.00020632480177
 20
2.216478116502243
 30
0.0
 10
38.09099847549531
 20
1.191596034114242
 30
0.0
 10
39.18035881244894
 20
0.1044633358544958
 30
0.0
 10
40.26929250401167
 20
-0.987867509701867
 30
0.0
 10
41.358921688522
 20
-2.029123931570878
 30
0.0
 10
42.45016018240582
 20
-2.963690483121076
 30
0.0
 10
43.54101219562104
 20
-3.745348739984076
 30
0.0
 10
44.63042366362384
 20
-4.326453547108114
 30
0.0
 10
45.7043411811478
 20
-4.696351849057583
 30
0.0
 10
46.41556090687936
 20
-4.737465574337154
 30
0.0
 10
46.76377782863488
 20
-4.757595070666898
 30
0.0
  0
SPLINE
  5
D7
330
1F
100
AcDbEntity
  8
0
  6
Continuous
 62
     1
370
    15
100
AcDbSpline
210
0.0
220
0.0
230
1.0
 70
     8
 71
     3
 72
    30
 73
    26
 74
     0
 42
0.000000001
 43
0.00000001
 40
0.0
 40
0.0
 40
0.0
 40
0.0
 40
0.1249999999999998
 40
0.1249999999999998
 40
0.2499999999999996
 40
0.2499999999999996
 40
0.3749999999999993
 40
0.3749999999999993
 40
0.4999999999999991
 40
0.4999999999999991
 40
0.5624999999999992
 40
0.5624999999999992
 40
0.6249999999999993
 40
0.6249999999999993
 40
0.6874999999999994
 40
0.6874999999999994
 40
0.7187499999999994
 40
0.7187499999999994
 40
0.7499999999999996
 40
0.7499999999999996
 40
0.8124999999999997
 40
0.8124999999999997
 40
0.8749999999999998
 40
0.8749999999999998
 40
1.0
 40
1.0
 40
1.0
 40
1.0
 10
57.27600000000001
 20
-2.829578028717298
 30
0.0
 10
57.45260169984241
 20
-2.971981159570861
 30
0.0
 10
57.61720957679088
 20
-3.092949521463535
 30
0.0
 10
57.9325872868828
 20
-3.288955726083115
 30
0.0
 10
58.076744613541
 20
-3.360053979824397
 30
0.0
 10
58.32865271919033
 20
-3.45771100349522
 30
0.0
 10
58.43371916360613
 20
-3.482862286654081
 30
0.0
 10
58.58986296000553
 20
-3.520650761752738
 30
0.0
 10
58.64082730582973
 20
-3.534418581772569
 30
0.0
 10
58.68001976903027
 20
-3.588833390777368
 30
0.0
 10
58.68729929999644
 20
-3.612571509478327
 30
0.0
 10
58.68987516647002
 20
-3.678606196886017
 30
0.0
 10
58.68520270028403
 20
-3.721384899482076
 30
0.0
 10
58.65741047329264
 20
-3.830470126395169
 30
0.0
 10
58.6341513246372
 20
-3.898723655441243
 30
0.0
 10
58.56972931907151
 20
-4.023944568763076
 30
0.0
 10
58.54292721386514
 20
-4.06971632929424
 30
0.0
 10
58.47855453602681
 20
-4.163480709941275
 30
0.0
 10
58.43989097514049
 20
-4.212769065410736
 30
0.0
 10
58.31374626701115
 20
-4.351415617176453
 30
0.0
 10
58.21456667289489
 20
-4.432806274743511
 30
0.0
 10
58.02053997112988
 20
-4.552989042752278
 30
0.0
 10
57.92258945986197
 20
-4.5953203169384
 30
0.0
 10
57.63744765674755
 20
-4.678317876522955
 30
0.0
 10
57.45374474621774
 20
-4.6783378789259
 30
0.0
 10
57.27600000000002
 20
-4.637835890667496
 30
0.0
  0
SPLINE
  5
D8
330
1F
100
AcDbEntity
  8
0
  6
Continuous
 62
     1
370
    15
100
AcDbSpline
210
0.0
220
0.0
230
1.0
 70
     8
 71
     3
 72
    23
 73
    19
 74
     0
 42
0.000000001
 43
0.00000001
 40
0.0
 40
0.0
 40
0.0
 40
0.0
 40
0.037724605599156
 40
0.1033013084002827
 40
0.1688298227019892
 40
0.2342933543269741
 40
0.2997442457844277
 40
0.3652350150722972
 40
0.4308099674715027
 40
0.4963416586665149
 40
0.5618065678488234
 40
0.627257018415142
 40
0.6927455344882972
 40
0.7583184846849834
 40
0.8238534143945458
 40
0.8893197638640201
 40
0.9547698365099955
 40
1.0
 40
1.0
 40
1.0
 40
1.0
 10
13.48092994399127
 20
4.732076516580879
 30
0.0
 10
13.69014052603232
 20
4.735959339805104
 30
0.0
 10
14.26302197867521
 20
4.746591676789922
 30
0.0
 10
15.20038550391383
 20
4.487970408603969
 30
0.0
 10
16.29090586648491
 20
3.995015811598135
 30
0.0
 10
17.38014706845626
 20
3.282331685205714
 30
0.0
 10
18.46910913911702
 20
2.401643658648623
 30
0.0
 10
19.55891612572649
 20
1.394520366554538
 30
0.0
 10
20.65033053542376
 20
0.3155451831164269
 30
0.0
 10
21.74093555520598
 20
-0.7804416782619061
 30
0.0
 10
22.83019966012407
 20
-1.835665452540136
 30
0.0
 10
23.9191540303153
 20
-2.794977424622457
 30
0.0
 10
25.00891436671041
 20
-3.608965174837058
 30
0.0
 10
26.10029326119085
 20
-4.233679447346985
 30
0.0
 10
27.1909535498397
 20
-4.640198631498732
 30
0.0
 10
28.280271121764
 20
-4.79595744351937
 30
0.0
 10
29.25683190564375
 20
-4.74040541914432
 30
0.0
 10
29.87072765898136
 20
-4.530314593008447
 30
0.0
 10
30.12159995794507
 20
-4.444459676669084
 30
0.0
  0
SPLINE
  5
D9
330
1F
100
AcDbEntity
  8
0
  6
Continuous
 62
     1
370
    15
100
AcDbSpline
210
0.0
220
0.0
230
1.0
 70
     8
 71
     3
 72
    21
 73
    17
 74
     0
 42
0.000000001
 43
0.00000001
 40
0.0
 40
0.0
 40
0.0
 40
0.0
 40
0.0097009645625711
 40
0.0882496241089452
 40
0.1667722135265487
 40
0.2453317673468268
 40
0.3239900570839108
 40
0.4026316399112581
 40
0.481182328176545
 40
0.5597047664445
 40
0.6382619913466281
 40
0.7106875171355767
 40
0.783023408862392
 40
0.8552670763763948
 40
0.927563997029594
 40
1.0
 40
1.0
 40
1.0
 40
1.0
 10
43.40669177997784
 20
4.74904139669971
 30
0.0
 10
43.45155921574182
 20
4.753395919923552
 30
0.0
 10
43.85971804524412
 20
4.79300899501513
 30
0.0
 10
44.6303712571473
 20
4.630881716649661
 30
0.0
 10
45.7193507168513
 20
4.252179808732534
 30
0.0
 10
46.80892516867907
 20
3.62691478627379
 30
0.0
 10
47.90010950825761
 20
2.819383110405432
 30
0.0
 10
48.99103232314549
 20
1.862954053003309
 30
0.0
 10
50.08045595820693
 20
0.8095870688728528
 30
0.0
 10
51.16941146613557
 20
-0.2857656382887634
 30
0.0
 10
52.23006344904518
 20
-1.338302617685704
 30
0.0
 10
53.26350429713972
 20
-2.295551015535302
 30
0.0
 10
54.26667782602188
 20
-3.12647934987949
 30
0.0
 10
55.26845226237072
 20
-3.815377326503053
 30
0.0
 10
56.27111183761681
 20
-4.350294777443539
 30
0.0
 10
56.94082275776317
 20
-4.541927469245209
 30
0.0
 10
57.27600000000001
 20
-4.637835890667498
 30
0.0
  0
SPLINE
  5
DA
330
1F
100
AcDbEntity
  8
0
  6
Continuous
 62
     1
370
    15
100
AcDbSpline
210
0.0
220
0.0
230
1.0
 70
     8
 71
     3
 72
    24
 73
    20
 74
     0
 42
0.000000001
 43
0.00000001
 40
0.0
 40
0.0
 40
0.0
 40
0.0
 40
0.0023493702556594
 40
0.0678759320761392
 40
0.1333375131561151
 40
0.1987864544451846
 40
0.2642752723764743
 40
0.3298482709107882
 40
0.3953780095299153
 40
0.4608409681261691
 40
0.5262894685372405
 40
0.5917760333209522
 40
0.6573470297124046
 40
0.7228800067495873
 40
0.788344405590092
 40
0.8537925280920806
 40
0.9192769020635092
 40
0.9848456445591854
 40
1.0
 40
1.0
 40
1.0
 40
1.0
 10
15.16139221282804
 20
4.465390643799184
 30
0.0
 10
15.17443177572006
 20
4.471191928636296
 30
0.0
 10
15.55115931920954
 20
4.638797530439456
 30
0.0
 10
16.29090459627747
 20
4.755695553943509
 30
0.0
 10
17.380147408548
 20
4.777900258019642
 30
0.0
 10
18.46910904807177
 20
4.524760032446382
 30
0.0
 10
19.55891614966797
 20
4.04247319189454
 30
0.0
 10
20.65033053086245
 20
3.347851989143554
 30
0.0
 10
21.74093554952072
 20
2.478821917850258
 30
0.0
 10
22.83019968738633
 20
1.48037038773603
 30
0.0
 10
23.91915392694013
 20
0.4049287812592623
 30
0.0
 10
25.00891475341259
 20
-0.6920573365000587
 30
0.0
 10
26.10029181619104
 20
-1.752194584633939
 30
0.0
 10
27.19095893658094
 20
-2.721788748430149
 30
0.0
 10
28.28025104336832
 20
-3.547921659446273
 30
0.0
 10
29.36920747224314
 20
-4.194402325012057
 30
0.0
 10
30.45888465666974
 20
-4.601807705563846
 30
0.0
 10
31.27064051482979
 20
-4.783039042724871
 30
0.0
 10
31.71852078604653
 20
-4.747105118566429
 30
0.0
 10
31.80260250489096
 20
-4.740359150274816
 30
0.0
  0
SPLINE
  5
DB
330
1F
100
AcDbEntity
  8
0
  6
Continuous
 62
     1
370
    15
100
AcDbSpline
210
0.0
220
0.0
230
1.0
 70
     8
 71
     3
 72
    19
 73
    15
 74
     0
 42
0.000000001
 43
0.00000001
 40
0.0
 40
0.0
 40
0.0
 40
0.0
 40
0.0520119274850257
 40
0.1413914719657916
 40
0.2308833512402118
 40
0.3203562225657654
 40
0.409725680440534
 40
0.4990629974518392
 40
0.5884398922530524
 40
0.6708405703247102
 40
0.753139269053897
 40
0.8353330415490299
 40
0.9175874017269094
 40
1.0
 40
1.0
 40
1.0
 40
1.0
 10
45.08536888717478
 20
4.441005578854927
 30
0.0
 10
45.2966411287235
 20
4.517521239674293
 30
0.0
 10
45.87097272269655
 20
4.72552471954533
 30
0.0
 10
46.80892833392657
 20
4.797406849772585
 30
0.0
 10
47.90010865984836
 20
4.670148050639098
 30
0.0
 10
48.99103255016883
 20
4.288781695544358
 30
0.0
 10
50.08045589741936
 20
3.686400221414723
 30
0.0
 10
51.16941148247324
 20
2.89127887929618
 30
0.0
 10
52.2300634450454
 20
1.969939738453541
 30
0.0
 10
53.26350429817332
 20
0.9831551247477691
 30
0.0
 10
54.26667782574616
 20
-0.0208938070668586
 30
0.0
 10
55.26845226244516
 20
-1.021806168062174
 30
0.0
 10
56.27111183759936
 20
-1.986542234088157
 30
0.0
 10
56.94082275775821
 20
-2.54838612764124
 30
0.0
 10
57.27600000000127
 20
-2.829578028719353
 30
0.0
  0
SPLINE
  5
DC
330
1F
100
AcDbEntity
  8
0
  6
Continuous
 62
     1
370
    15
100
AcDbSpline
210
0.0
220
0.0
230
1.0
 70
     8
 71
     3
 72
    19
 73
    15
 74
     0
 42
0.000000001
 43
0.00000001
 40
0.0
 40
0.0
 40
0.0
 40
0.0
 40
0.082571947748172
 40
0.1652135393167067
 40
0.2480059019383425
 40
0.3306436096737008
 40
0.4132159412392018
 40
0.5029195341819848
 40
0.5927376557799978
 40
0.6824897752718407
 40
0.7721528902588792
 40
0.8617986924495149
 40
0.9514991139129773
 40
1.0
 40
1.0
 40
1.0
 40
1.0
 10
7.999999999999782
 20
2.796462738063819
 30
0.0
 10
8.334147942922813
 20
2.513672105548394
 30
0.0
 10
9.002725659825863
 20
1.947852325857924
 30
0.0
 10
10.0065400334743
 20
0.9791363208764564
 30
0.0
 10
11.01238267101075
 20
-0.0225910070814523
 30
0.0
 10
12.01618780262312
 20
-1.027169600308956
 30
0.0
 10
13.04759337429628
 20
-2.012545760600947
 30
0.0
 10
14.10895145038593
 20
-2.928521918223414
 30
0.0
 10
15.2003576866975
 20
-3.716114141815066
 30
0.0
 10
16.29091373440889
 20
-4.309497451425123
 30
0.0
 10
17.38014337807654
 20
-4.681051089259205
 30
0.0
 10
18.46911603890294
 20
-4.797134917092999
 30
0.0
 10
19.39161770764484
 20
-4.719463591296579
 30
0.0
 10
19.95167856523017
 20
-4.512853994107825
 30
0.0
 10
20.14822842671121
 20
-4.4403456458487
 30
0.0
  0
SPLINE
  5
DD
330
1F
100
AcDbEntity
  8
0
  6
Continuous
 62
     1
370
    15
100
AcDbSpline
210
0.0
220
0.0
230
1.0
 70
     8
 71
     3
 72
    23
 73
    19
 74
     0
 42
0.000000001
 43
0.00000001
 40
0.0
 40
0.0
 40
0.0
 40
0.0
 40
0.0179457229467435
 40
0.0833950968183813
 40
0.1488789094769142
 40
0.2144467155069052
 40
0.2799879225243312
 40
0.3454569567143
 40
0.4109060786265128
 40
0.4763878252020968
 40
0.5419528739052286
 40
0.6074975039553804
 40
0.6729681664644276
 40
0.7384170994033946
 40
0.8038968423389466
 40
0.8694588821071122
 40
0.9350069965905531
 40
1.0
 40
1.0
 40
1.0
 40
1.0
 10
33.43183942044946
 20
4.73773703422051
 30
0.0
 10
33.53135886558553
 20
4.745021146253221
 30
0.0
 10
33.99383305996956
 20
4.77887095158046
 30
0.0
 10
34.81922864649977
 20
4.589448751763786
 30
0.0
 10
35.90892223143943
 20
4.171086065224191
 30
0.0
 10
37.00020516295474
 20
3.516416661790401
 30
0.0
 10
38.09099878195197
 20
2.683299438645597
 30
0.0
 10
39.18035874690048
 20
1.708743756017256
 30
0.0
 10
40.2692924600134
 20
0.6456602787344435
 30
0.0
 10
41.35892193036113
 20
-0.451556800262916
 30
0.0
 10
42.45015925791112
 20
-1.524676863208464
 30
0.0
 10
43.54101564845199
 20
-2.518524133892253
 30
0.0
 10
44.630410793896
 20
-3.381214231745326
 30
0.0
 10
45.719340046799
 20
-4.067071303648882
 30
0.0
 10
46.80892830348243
 20
-4.542202215126563
 30
0.0
 10
47.90010765454955
 20
-4.775686941489282
 30
0.0
 10
48.98837645921754
 20
-4.777274876426036
 30
0.0
 10
49.71221717919901
 20
-4.571183710683151
 30
0.0
 10
50.07259851452857
 20
-4.46857631728872
 30
0.0
  0
SPLINE
  5
DE
330
1F
100
AcDbEntity
  8
0
  6
Continuous
 62
     1
370
    15
100
AcDbSpline
210
0.0
220
0.0
230
1.0
 70
    24
 71
     3
 72
    12
 73
     8
 74
     0
 42
0.000000001
 43
0.00000001
 40
0.0
 40
0.0
 40
0.0
 40
0.0
 40
0.0573346475061622
 40
0.3104167248567528
 40
0.5634988022073437
 40
0.8165808795579349
 40
1.0
 40
1.0
 40
1.0
 40
1.0
 10
8.000000000000002
 20
4.628335375776771
 30
0.0
 10
8.0
 20
4.569715972461973
 30
0.0
 10
7.999999999999988
 20
4.252343424072608
 30
0.0
 10
8.000000000000004
 20
3.708807076642437
 30
0.0
 10
8.0
 20
3.148707106940417
 30
0.0
 10
8.000000000000002
 20
2.812446067304143
 30
0.0
 10
8.000000000000002
 20
2.795747001192264
 30
0.0
 10
8.000000000000002
 20
2.788730003223109
 30
0.0
  0
SPLINE
  5
DF
330
1F
100
AcDbEntity
  8
0
  6
Continuous
 62
     1
370
    15
100
AcDbSpline
210
0.0
220
0.0
230
1.0
 70
     8
 71
     3
 72
    21
 73
    17
 74
     0
 42
0.000000001
 43
0.00000001
 40
0.0
 40
0.0
 40
0.0
 40
0.0
 40
0.0725417670616612
 40
0.1451447181686523
 40
0.217880125865466
 40
0.2904796649163142
 40
0.3630217691722413
 40
0.4418288861327969
 40
0.5207366197223182
 40
0.5995863686143494
 40
0.6783579245579153
 40
0.7571142707253028
 40
0.8359186014525141
 40
0.9148242288024326
 40
0.9936778004156421
 40
0.9999999999999999
 40
0.9999999999999999
 40
0.9999999999999999
 40
0.9999999999999999
 10
8.00000000000104
 20
4.628335375782118
 30
0.0
 10
8.334147942940541
 20
4.529638221570863
 30
0.0
 10
9.002725659876548
 20
4.332160668813374
 30
0.0
 10
10.00654003327598
 20
3.788826886708861
 30
0.0
 10
11.01238267175864
 20
3.093409306652947
 30
0.0
 10
12.01618779984002
 20
2.255992503512143
 30
0.0
 10
13.04759338505449
 20
1.293300804307851
 30
0.0
 10
14.10895140633151
 20
0.239022253042593
 30
0.0
 10
15.20035785084064
 20
-0.8554473689428812
 30
0.0
 10
16.29091312272297
 20
-1.905739377030883
 30
0.0
 10
17.38014565822983
 20
-2.857031971075643
 30
0.0
 10
18.46910752860767
 20
-3.657332872281974
 30
0.0
 10
19.55892398864649
 20
-4.274200525723924
 30
0.0
 10
20.65030066214719
 20
-4.641282835499261
 30
0.0
 10
21.40694618681987
 20
-4.796897062156425
 30
0.0
 10
21.79946930199725
 20
-4.756339237517579
 30
0.0
 10
21.82860445910512
 20
-4.753328819666716
 30
0.0
  0
SPLINE
  5
E0
330
1F
100
AcDbEntity
  8
0
  6
Continuous
 62
     1
370
    15
100
AcDbSpline
210
0.0
220
0.0
230
1.0
 70
     8
 71
     3
 72
    23
 73
    19
 74
     0
 42
0.000000001
 43
0.00000001
 40
0.0
 40
0.0
 40
0.0
 40
0.0
 40
0.0479608350028467
 40
0.1135297763661119
 40
0.1790721182562389
 40
0.2445422860692072
 40
0.3099925412596306
 40
0.3754754216783338
 40
0.4410416056669956
 40
0.5065873706491199
 40
0.5720591668093614
 40
0.6375092330232667
 40
0.7029901097672445
 40
0.7685532847688391
 40
0.8341025342445864
 40
0.8995760213804843
 40
0.9650259616082938
 40
1.0
 40
1.0
 40
1.0
 40
1.0
 10
35.11065378886153
 20
4.446527864945448
 30
0.0
 10
35.37660782421898
 20
4.535507137614283
 30
0.0
 10
36.00615695854923
 20
4.74613309787358
 30
0.0
 10
37.0002171240599
 20
4.794541548998662
 30
0.0
 10
38.09099558141455
 20
4.627763914909133
 30
0.0
 10
39.18035960384523
 20
4.211484791856279
 30
0.0
 10
40.26929223004714
 20
3.57785154525599
 30
0.0
 10
41.35892199305378
 20
2.756774204026871
 30
0.0
 10
42.45015923747506
 20
1.792497425667249
 30
0.0
 10
43.54101566746943
 20
0.7344959320979916
 30
0.0
 10
44.63041073831278
 20
-0.361988753202425
 30
0.0
 10
45.71934025011168
 20
-1.439287389980854
 30
0.0
 10
46.80892754499777
 20
-2.442080137117183
 30
0.0
 10
47.90011048862227
 20
-3.316211267682927
 30
0.0
 10
48.99102602973651
 20
-4.020845545940087
 30
0.0
 10
50.08048011704275
 20
-4.50363667821809
 30
0.0
 10
51.00020410672013
 20
-4.751463940838876
 30
0.0
 10
51.55716174951146
 20
-4.736662038287681
 30
0.0
 10
51.75112994564655
 20
-4.731507071165165
 30
0.0
  0
SPLINE
  5
E1
330
1F
100
AcDbEntity
  8
0
  6
Continuous
 62
     1
370
    15
100
AcDbSpline
210
0.0
220
0.0
230
1.0
 70
     8
 71
     3
 72
    30
 73
    26
 74
     0
 42
0.000000001
 43
0.00000001
 40
0.0
 40
0.0
 40
0.0
 40
0.0
 40
0.1249999999999998
 40
0.1249999999999998
 40
0.2499999999999997
 40
0.2499999999999997
 40
0.3749999999999995
 40
0.3749999999999995
 40
0.4999999999999993
 40
0.4999999999999993
 40
0.5624999999999994
 40
0.5624999999999994
 40
0.6249999999999996
 40
0.6249999999999996
 40
0.6874999999999998
 40
0.6874999999999998
 40
0.7187499999999997
 40
0.7187499999999997
 40
0.7499999999999997
 40
0.7499999999999997
 40
0.8124999999999997
 40
0.8124999999999997
 40
0.8749999999999997
 40
0.8749999999999997
 40
1.0
 40
1.0
 40
1.0
 40
1.0
 10
57.27600000000001
 20
1.902765931991188
 30
0.0
 10
57.45260169984241
 20
1.740471503718123
 30
0.0
 10
57.61720957679087
 20
1.560451921737923
 30
0.0
 10
57.93258728688279
 20
1.174748930697531
 30
0.0
 10
58.07674461354102
 20
0.9754711685531203
 30
0.0
 10
58.32865271919034
 20
0.5656735989782871
 30
0.0
 10
58.43371916360616
 20
0.35826802957542
 30
0.0
 10
58.58986296000555
 20
-0.0662826665576418
 30
0.0
 10
58.64082730582972
 20
-0.2854557875166976
 30
0.0
 10
58.68001976903026
 20
-0.6263731537853039
 30
0.0
 10
58.68729929999647
 20
-0.7425285889245365
 30
0.0
 10
58.68987516647005
 20
-0.9824971129436848
 30
0.0
 10
58.68520270028403
 20
-1.107461141469096
 30
0.0
 10
58.65741047329264
 20
-1.353975565414656
 30
0.0
 10
58.63415132463722
 20
-1.480237122682616
 30
0.0
 10
58.56972931907152
 20
-1.651686785730857
 30
0.0
 10
58.54292721386518
 20
-1.705720872935158
 30
0.0
 10
58.47855453602686
 20
-1.79748707396592
 30
0.0
 10
58.43989097514048
 20
-1.83621626656014
 30
0.0
 10
58.31374626701112
 20
-1.918777154350319
 30
0.0
 10
58.21456667289489
 20
-1.930722790815185
 30
0.0
 10
58.02053997112985
 20
-1.90117731883039
 30
0.0
 10
57.92258945986197
 20
-1.861344376668506
 30
0.0
 10
57.63744765674754
 20
-1.705563758821611
 30
0.0
 10
57.45374474621776
 20
-1.551937789623524
 30
0.0
 10
57.27600000000002
 20
-1.381414144846916
 30
0.0
  0
SPLINE
  5
E2
330
1F
100
AcDbEntity
  8
0
  6
Continuous
 62
     1
370
    15
100
AcDbSpline
210
0.0
220
0.0
230
1.0
 70
     8
 71
     3
 72
    24
 73
    20
 74
     0
 42
0.000000001
 43
0.00000001
 40
0.0
 40
0.0
 40
0.0
 40
0.0
 40
0.0000271311189507
 40
0.0655120397346695
 40
0.1310811239283022
 40
0.1966069507891227
 40
0.2620660016134632
 40
0.327510595115694
 40
0.3929932507183352
 40
0.4585603328886228
 40
0.5240893979741836
 40
0.5895498889568007
 40
0.6549941045725077
 40
0.7204745694936446
 40
0.7860393979027018
 40
0.851571762775157
 40
0.9170337566162977
 40
0.9824776573169393
 40
1.0
 40
1.0
 40
1.0
 40
1.0
 10
18.46847450891417
 20
4.762448575703576
 30
0.0
 10
18.46862495679472
 20
4.762465716422808
 30
0.0
 10
18.83190328476584
 20
4.803854480426832
 30
0.0
 10
19.55892603500672
 20
4.659529933109269
 30
0.0
 10
20.65032788231177
 20
4.314549392958849
 30
0.0
 10
21.74093625894188
 20
3.713757138546409
 30
0.0
 10
22.83019949466142
 20
2.927447109341817
 30
0.0
 10
23.91915398894144
 20
1.986425498685926
 30
0.0
 10
25.00891469815647
 20
0.9420186921572529
 30
0.0
 10
26.10029197529581
 20
-0.1510343039602507
 30
0.0
 10
27.19095835612373
 20
-1.236613066164511
 30
0.0
 10
28.28025320356191
 20
-2.257717244766815
 30
0.0
 10
29.36919941125287
 20
-3.160833577820242
 30
0.0
 10
30.4589147757228
 20
-3.899696539514216
 30
0.0
 10
31.55025252817704
 20
-4.433530883334392
 30
0.0
 10
32.64097212875157
 20
-4.741144733079196
 30
0.0
 10
33.73033317532032
 20
-4.783588995247518
 30
0.0
 10
34.5532630361125
 20
-4.677438655504941
 30
0.0
 10
35.01346074276228
 20
-4.486792119422173
 30
0.0
 10
35.11065378886155
 20
-4.446527864945432
 30
0.0
  0
SPLINE
  5
E3
330
1F
100
AcDbEntity
  8
0
  6
Continuous
 62
     1
370
    15
100
AcDbSpline
210
0.0
220
0.0
230
1.0
 70
     8
 71
     3
 72
    16
 73
    12
 74
     0
 42
0.000000001
 43
0.00000001
 40
0.0
 40
0.0
 40
0.0
 40
0.0
 40
0.0673110630984335
 40
0.1899545822834021
 40
0.3125539939097192
 40
0.4352077189396465
 40
0.5482878402949132
 40
0.6612280133306723
 40
0.7740241939678514
 40
0.8869035203105998
 40
0.9999999999999999
 40
0.9999999999999999
 40
0.9999999999999999
 40
0.9999999999999999
 10
48.39313415532502
 20
4.731618774515228
 30
0.0
 10
48.5925457572537
 20
4.73638920633306
 30
0.0
 10
49.15529348107782
 20
4.749851560685455
 30
0.0
 10
50.08044006256279
 20
4.498403878911049
 30
0.0
 10
51.16941573835129
 20
4.012382980840567
 30
0.0
 10
52.23006240309513
 20
3.323361358637341
 30
0.0
 10
53.26350456734954
 20
2.500812067746669
 30
0.0
 10
54.26667775378695
 20
1.589069634790852
 30
0.0
 10
55.2684522816376
 20
0.6082676338579575
 30
0.0
 10
56.2711118327878
 20
-0.4038998586709306
 30
0.0
 10
56.94082275615246
 20
-1.055367371730841
 30
0.0
 10
57.27600000000001
 20
-1.381414144846907
 30
0.0
  0
SPLINE
  5
E4
330
1F
100
AcDbEntity
  8
0
  6
Continuous
 62
     1
370
    15
100
AcDbSpline
210
0.0
220
0.0
230
1.0
 70
     8
 71
     3
 72
    23
 73
    19
 74
     0
 42
0.000000001
 43
0.00000001
 40
0.0
 40
0.0
 40
0.0
 40
0.0
 40
0.0301617056760856
 40
0.0956880003911022
 40
0.1611475185928582
 40
0.2265925793692792
 40
0.292075702517874
 40
0.3576432528369207
 40
0.4231727857997984
 40
0.4886337441701136
 40
0.5540784270573127
 40
0.6195593595087621
 40
0.6851246560504859
 40
0.7506574888238191
 40
0.8161199500633883
 40
0.8815643180332736
 40
0.9470431221560001
 40
1.0
 40
1.0
 40
1.0
 40
1.0
 10
20.14822842671125
 20
4.440345645848712
 30
0.0
 10
20.31564470042139
 20
4.504425545576684
 30
0.0
 10
20.84677276845221
 20
4.707719004377777
 30
0.0
 10
21.74094295884755
 20
4.79527975348625
 30
0.0
 10
22.83019770063445
 20
4.700519820918748
 30
0.0
 10
23.9191544700738
 20
4.347681211378227
 30
0.0
 10
25.00891456835339
 20
3.771363729170712
 30
0.0
 10
26.10029201255709
 20
2.997830551752038
 30
0.0
 10
27.1909583368983
 20
2.067894397783967
 30
0.0
 10
28.28025324320534
 20
1.030009222107049
 30
0.0
 10
29.36919927188575
 20
-0.0613952883164269
 30
0.0
 10
30.45891529415413
 20
-1.149944111233507
 30
0.0
 10
31.55025059164785
 20
-2.178058643399666
 30
0.0
 10
32.64097934823097
 20
-3.092433356946712
 30
0.0
 10
33.73030626689295
 20
-3.847484498111478
 30
0.0
 10
34.81924560867911
 20
-4.394453950538599
 30
0.0
 10
35.83900730003487
 20
-4.717552767384106
 30
0.0
 10
36.49643243947492
 20
-4.735243516989541
 30
0.0
 10
36.79039100181665
 20
-4.743153691104864
 30
0.0
  0
SPLINE
  5
E5
330
1F
100
AcDbEntity
  8
0
  6
Continuous
 62
     1
370
    15
100
AcDbSpline
210
0.0
220
0.0
230
1.0
 70
     8
 71
     3
 72
    15
 73
    11
 74
     0
 42
0.000000001
 43
0.00000001
 40
0.0
 40
0.0
 40
0.0
 40
0.0
 40
0.0011072582192458
 40
0.1522884879894306
 40
0.3035366933432802
 40
0.4429793838283084
 40
0.5822494995940416
 40
0.721342053758081
 40
0.8605371375334061
 40
1.0
 40
1.0
 40
1.0
 40
1.0
 10
50.07259851452861
 20
4.468576317288742
 30
0.0
 10
50.07525683825176
 20
4.469769102326808
 30
0.0
 10
50.44087354205872
 20
4.633820654879001
 30
0.0
 10
51.16938516369275
 20
4.751117678217106
 30
0.0
 10
52.23006988857071
 20
4.780900304031706
 30
0.0
 10
53.26350263355869
 20
4.557234889685569
 30
0.0
 10
54.26667827074609
 20
4.145335860567531
 30
0.0
 10
55.26845214375241
 20
3.546697047576186
 30
0.0
 10
56.27111186734829
 20
2.797706354542587
 30
0.0
 10
56.94082276768085
 20
2.201270456203912
 30
0.0
 10
57.27600000000127
 20
1.902765931994394
 30
0.0
  0
LINE
  5
E6
330
1F
100
AcDbEntity
  8
0
  6
Continuous
 62
     1
370
    15
100
AcDbLine
 10
8.000000000000002
 20
-3.286247121113846
 30
0.0
 11
8.000000000000004
 21
-1.940316489463887
 31
0.0
  0
LINE
  5
E8
330
1F
100
AcDbEntity
  8
0
  6
Continuous
 62
     1
370
    15
100
AcDbLine
 10
8.000000000000002
 20
4.628335375776771
 30
0.0
 11
8.000000000000002
 21
4.762500000000005
 31
0.0
  0
LINE
  5
EA
330
1F
100
AcDbEntity
  8
0
  6
Continuous
 62
     1
370
    15
100
AcDbLine
 10
8.000000000000002
 20
1.342088254662877
 30
0.0
 11
8.000000000000004
 21
2.796462738063641
 31
0.0
  0
LINE
  5
EB
330
1F
100
AcDbEntity
  8
0
  6
Continuous
 62
     1
370
    15
100
AcDbLine
 10
58.79999999999999
 20
0.0000000000000055
 30
0.0
 11
58.79999999999999
 21
4.000500000000004
 31
0.0
  0
LINE
  5
EC
330
1F
100
AcDbEntity
  8
0
  6
Continuous
 62
     1
370
    15
100
AcDbLine
 10
58.79999999999999
 20
-4.000499999999994
 30
0.0
 11
58.79999999999999
 21
0.0000000000000055
 31
0.0
  0
LINE
  5
EE
330
1F
100
AcDbEntity
  8
0
  6
Continuous
 62
     8
370
    15
100
AcDbLine
 10
57.27600000000002
 20
4.732343960713882
 30
0.0
 11
57.27600000000001
 21
4.762500000000005
 31
0.0
  0
LINE
  5
EF
330
1F
100
AcDbEntity
  8
0
  6
Continuous
 62
     8
370
    15
100
AcDbLine
 10
57.27600000000001
 20
-4.762499999999994
 30
0.0
 11
57.27600000000001
 21
-4.637835890667498
 31
0.0
  0
LINE
  5
F0
330
1F
100
AcDbEntity
  8
중심선
100
AcDbLine
 10
-45.79999999999998
 20
0.0000000000000001
 30
0.0
 11
61.80000000000002
 21
0.0000000000000001
 31
0.0
  0
CIRCLE
  5
F1
330
1F
100
AcDbEntity
  8
외형선
100
AcDbCircle
 10
0.0
 20
0.0
 30
0.0
 40
3.000000000000004
  0
INSERT
  5
F2
330
1F
100
AcDbEntity
  8
0
  6
Continuous
 62
     7
100
AcDbBlockReference
 66
     1
  2
블럭10
 10
-18.62936049909348
 20
-51.78679627639981
 30
0.0
  0
ATTRIB
  5
F3
330
F2
100
AcDbEntity
  8
FORMAT
 62
     2
100
AcDbText
 10
-29.68038085127794
 20
-49.71142936356761
 30
0.0
 40
4.233333333333333
  1
GMG23915[ 6 FLUTE ]
 41
0.75
  7
SLDTEXTSTYLE0
 11
-29.68038085127794
 21
-51.82809603023428
 31
0.0
100
AcDbAttribute
  2
AUTOATTR0
 70
     0
 74
     1
  0
SEQEND
  5
F4
330
F2
100
AcDbEntity
  8
0
  6
Continuous
 62
     7
  0
HATCH
  5
F5
330
1F
100
AcDbEntity
  8
중심선
100
AcDbHatch
 10
0.0
 20
0.0
 30
0.0
210
0.0
220
0.0
230
1.0
  2
SOLID
 70
     1
 71
     0
 91
        1
 92
        0
 93
        4
 72
     1
 10
-12.91445119471263
 20
-35.53962197475587
 11
-16.36072643854991
 21
-35.53962197475587
 72
     1
 10
-16.36072643854991
 20
-35.53962197475587
 11
-18.48895629775393
 21
-38.07594755532847
 72
     1
 10
-18.48895629775393
 20
-38.07594755532847
 11
-15.0426479688035
 21
-38.07590812602598
 72
     1
 10
-15.0426479688035
 20
-38.07590812602598
 11
-12.91445119471263
 21
-35.53962197475587
 97
        0
 75
     0
 76
     1
 98
        1
 10
-1.999514079925518
 20
0.262274431170693
  0
HATCH
  5
F6
330
1F
100
AcDbEntity
  8
중심선
100
AcDbHatch
 10
0.0
 20
0.0
 30
0.0
210
0.0
220
0.0
230
1.0
  2
SOLID
 70
     1
 71
     0
 91
        1
 92
        0
 93
        4
 72
     1
 10
-7.901687203676677
 20
-35.53962197475587
 11
-11.34796244751396
 21
-35.53962197475587
 72
     1
 10
-11.34796244751396
 20
-35.53962197475587
 11
-15.87910045587135
 21
-40.93962197475589
 72
     1
 10
-15.87910045587135
 20
-40.93962197475589
 11
-12.43282521203406
 21
-40.93962197475589
 72
     1
 10
-12.43282521203406
 20
-40.93962197475589
 11
-7.901687203676677
 21
-35.53962197475587
 97
        0
 75
     0
 76
     1
 98
        1
 10
-1.999514079925518
 20
0.262274431170693
  0
HATCH
  5
F7
330
1F
100
AcDbEntity
  8
중심선
100
AcDbHatch
 10
0.0
 20
0.0
 30
0.0
210
0.0
220
0.0
230
1.0
  2
SOLID
 70
     1
 71
     0
 91
        1
 92
        0
 93
        4
 72
     1
 10
-2.888923212640782
 20
-35.5396219747559
 11
-6.335198456477897
 21
-35.53962197475587
 72
     1
 10
-6.335198456477897
 20
-35.53962197475587
 11
-13.38363535836715
 21
-43.93962197475589
 72
     1
 10
-13.38363535836715
 20
-43.93962197475589
 11
-9.937360114529863
 21
-43.93962197475589
 72
     1
 10
-9.937360114529863
 20
-43.93962197475589
 11
-2.888923212640782
 21
-35.5396219747559
 97
        0
 75
     0
 76
     1
 98
        1
 10
-1.999514079925518
 20
0.262274431170693
  0
HATCH
  5
F8
330
1F
100
AcDbEntity
  8
중심선
100
AcDbHatch
 10
0.0
 20
0.0
 30
0.0
210
0.0
220
0.0
230
1.0
  2
SOLID
 70
     1
 71
     0
 91
        1
 92
        0
 93
        6
 72
     3
 10
1.910967218371418
 20
-39.73962197480715
 11
3.960054785062283
 21
1.540882976769353E-10
 40
0.3939339440162628
 50
17.09539180608436
 51
320.0019657685081
 73
     0
 72
     1
 10
3.593966874072013
 20
-38.32751597939418
 11
5.899268747773052
 21
-36.39318926934625
 72
     3
 10
1.910967218318572
 20
-39.73962197475602
 11
6.600054785286829
 21
-1.278976924368180E-13
 40
0.636358354079598
 50
39.99873849337411
 51
368.4976242363724
 73
     1
 72
     1
 10
8.33629971021918
 20
-38.7796219746859
 11
0.5910345251544937
 21
-38.77962197468587
 72
     1
 10
0.5910345251544937
 20
-38.77962197468587
 11
0.5910094807085597
 21
-40.69962197468579
 72
     1
 10
0.5910094807085597
 20
-40.69962197468579
 11
5.032389250180596
 21
-40.69962197468576
 97
        0
 75
     0
 76
     1
 98
        1
 10
-1.999514079925518
 20
0.262274431170693
  0
POINT
  5
F9
330
1F
100
AcDbEntity
  8
치수문자_일반주서
100
AcDbPoint
 10
0.0
 20
0.0
 30
0.0
  0
DIMENSION
  5
FA
330
1F
100
AcDbEntity
  8
치수문자_일반주서
100
AcDbDimension
  2
_D
 10
75.85874571577297
 20
4.762500000000074
 30
0.0
 11
75.85874571577298
 21
1.090946215346475
 31
0.0
 70
   160
  1
%%c<>
 71
     2
 42
9.524999999999999
 52
-270.0
  3
SLDDIMSTYLE0
100
AcDbAlignedDimension
 13
57.27600000000001
 23
-4.762499999999994
 33
0.0
 14
57.21350000000001
 24
4.762500000000005
 34
0.0
 50
90.0000000000002
100
AcDbRotatedDimension
1001
ACAD
1000
DSTYLE
1002
{
1070
   171
1070
     3
1070
   273
1070
     7
1002
}
  0
DIMENSION
  5
10F
330
1F
100
AcDbEntity
  8
치수문자_일반주서
100
AcDbDimension
  2
_D_1
 10
58.79999999999999
 20
37.41805141807179
 30
0.0
 11
7.999999999999991
 21
37.41805141807179
 31
0.0
 70
   160
  1
<>
 71
     2
 42
101.6
  3
SLDDIMSTYLE1
100
AcDbAlignedDimension
 13
-42.8
 23
4.262499999999999
 33
0.0
 14
58.79999999999999
 24
3.238500000000006
 34
0.0
100
AcDbRotatedDimension
1001
ACAD
1000
DSTYLE
1002
{
1070
   171
1070
     3
1070
   273
1070
     7
1002
}
  0
DIMENSION
  5
123
330
1F
100
AcDbEntity
  8
치수문자_일반주서
100
AcDbDimension
  2
_D_2
 10
8.0
 20
20.86549453033794
 30
0.0
 11
32.84120226380296
 21
20.86549453033794
 31
0.0
 70
   160
  1
<>
 71
     2
 42
50.79999999999999
  3
SLDDIMSTYLE1
100
AcDbAlignedDimension
 13
58.79999999999999
 23
3.238500000000006
 33
0.0
 14
8.000000000000002
 24
-4.762499999999994
 34
0.0
 50
-0.000000000000004
100
AcDbRotatedDimension
1001
ACAD
1000
DSTYLE
1002
{
1070
   171
1070
     3
1070
   273
1070
     7
1002
}
  0
DIMENSION
  5
136
330
1F
100
AcDbEntity
  8
치수문자_일반주서
100
AcDbDimension
  2
_D_3
 10
-55.8
 20
-4.762500000000046
 30
0.0
 11
-55.80000000000002
 21
0.0000000000000023
 31
0.0
 70
   160
  1
%%c<>
 71
     2
 42
9.525
 52
-270.0
  3
SLDDIMSTYLE0
100
AcDbAlignedDimension
 13
-42.3
 23
4.762500000000003
 33
0.0
 14
-42.3
 24
-4.762499999999998
 34
0.0
 50
90.0000000000002
100
AcDbRotatedDimension
1001
ACAD
1000
DSTYLE
1002
{
1070
   171
1070
     3
1070
   273
1070
     7
1002
}
  0
INSERT
  5
150
330
1F
100
AcDbEntity
  8
외형선
100
AcDbBlockReference
  2
SW_DOWELSYMBOL_0
 10
0.0
 20
0.0
 30
0.0
  0
ARC
  5
177
330
1F
100
AcDbEntity
  8
0
  6
Continuous
 62
     1
370
    15
100
AcDbCircle
 10
58.03799999999999
 20
4.000500000000004
 30
0.0
 40
0.7620000000000002
100
AcDbArc
 50
0.0
 51
90.0
  0
ARC
  5
178
330
1F
100
AcDbEntity
  8
0
  6
Continuous
 62
     1
370
    15
100
AcDbCircle
 10
58.03799999999999
 20
-4.000499999999994
 30
0.0
 40
0.7620000000000002
100
AcDbArc
 50
270.0
 51
0.0
  0
DIMENSION
  5
17A
330
1F
100
AcDbEntity
  8
치수문자_일반주서
100
AcDbDimension
  2
*D7
 10
58.03799999999999
 20
4.000500000000004
 30
0.0
 11
72.60027130034486
 21
24.43069789173912
 31
0.0
 70
   164
  1
<>
 71
     5
 42
0.7620000000000005
  3
SLDDIMSTYLE1
100
AcDbRadialDimension
 15
58.48028532322897
 25
4.621005997437771
 35
0.0
 40
0.0
1001
ACAD
1000
DSTYLE
1002
{
1070
   171
1070
     3
1070
   273
1070
     2
1002
}
1001
ACAD_DSTYLE_DIMRADIAL_EXTENSION
1070
   387
1070
     1
1070
   388
1040
0.0
1070
   390
1040
1.570796326794897
  0
LINE
  5
1E5
330
1F
100
AcDbEntity
  8
0
  6
Continuous
 62
     4
370
    15
100
AcDbLine
 10
-26.52495000000012
 20
3.492500000000007
 30
0.0
 11
-19.38754999999999
 21
3.492500000000007
 31
0.0
  0
LINE
  5
1E6
330
1F
100
AcDbEntity
  8
0
  6
Continuous
 62
     4
370
    15
100
AcDbLine
 10
-26.52495000000012
 20
3.492500000000007
 30
0.0
 11
-27.7949500000001
 21
4.762499999999989
 31
0.0
  0
LINE
  5
1E7
330
1F
100
AcDbEntity
  8
0
  6
Continuous
 62
     4
370
    15
100
AcDbLine
 10
-19.38754999999999
 20
3.492500000000007
 30
0.0
 11
-18.11754999999989
 21
4.762499999999989
 31
0.0
  0
LINE
  5
1E8
330
1F
100
AcDbEntity
  8
0
  6
Continuous
 62
     4
370
    15
100
AcDbLine
 10
-27.79495000000011
 20
4.762500000000004
 30
0.0
 11
-42.3
 21
4.762500000000003
 31
0.0
  0
ENDSEC
  0
SECTION
  2
OBJECTS
  0
DICTIONARY
  5
C
330
0
100
AcDbDictionary
281
     1
  3
ACAD_GROUP
350
D
  3
ACAD_IMAGE_VARS
350
174
  3
ACAD_LAYOUT
350
1A
  3
ACAD_MLINESTYLE
350
17
  3
ACAD_PLOTSETTINGS
350
19
  3
ACAD_PLOTSTYLENAME
350
E
  3
ACAD_SCALELIST
350
47
  3
APPDATA
350
172
  3
DWGPROPS
350
210
  0
DICTIONARY
  5
1D6
330
2
100
AcDbDictionary
280
     1
281
     1
  3
ACAD_LAYERSTATES
360
1D7
  0
DICTIONARY
  5
20E
330
1F
100
AcDbDictionary
280
     1
281
     1
  3
DIM_BOUNDING_BOXES_V1
360
20F
  0
DICTIONARY
  5
D
102
{ACAD_REACTORS
330
C
102
}
330
C
100
AcDbDictionary
281
     1
  0
RASTERVARIABLES
  5
174
102
{ACAD_REACTORS
330
C
102
}
330
C
100
AcDbRasterVariables
 90
        0
 70
     1
 71
     1
 72
     1
  0
DICTIONARY
  5
1A
102
{ACAD_REACTORS
330
C
102
}
330
C
100
AcDbDictionary
281
     1
  3
Layout1
350
1E
  3
Layout2
350
26
  3
Model
350
22
  0
DICTIONARY
  5
17
102
{ACAD_REACTORS
330
C
102
}
330
C
100
AcDbDictionary
281
     1
  3
Standard
350
18
  0
DICTIONARY
  5
19
102
{ACAD_REACTORS
330
C
102
}
330
C
100
AcDbDictionary
281
     1
  0
ACDBDICTIONARYWDFLT
  5
E
102
{ACAD_REACTORS
330
C
102
}
330
C
100
AcDbDictionary
281
     1
  3
Normal
350
F
100
AcDbDictionaryWithDefault
340
F
  0
DICTIONARY
  5
47
102
{ACAD_REACTORS
330
C
102
}
330
C
100
AcDbDictionary
281
     1
  3
A0
350
48
  3
A1
350
49
  3
A2
350
4A
  3
A3
350
4B
  3
A4
350
4C
  3
A5
350
4D
  3
A6
350
4E
  3
A7
350
4F
  3
A8
350
50
  3
A9
350
51
  3
B0
350
52
  3
B1
350
53
  3
B2
350
54
  3
B3
350
55
  3
B4
350
56
  3
B5
350
57
  3
B6
350
58
  3
B7
350
59
  3
B8
350
5A
  3
B9
350
5B
  3
C0
350
5C
  3
C1
350
5D
  3
C2
350
5E
  3
C3
350
5F
  3
C4
350
60
  3
C5
350
61
  3
C6
350
62
  3
C7
350
63
  3
C8
350
64
  3
C9
350
65
  3
D0
350
66
  3
D1
350
67
  3
D2
350
68
  0
DICTIONARY
  5
172
102
{ACAD_REACTORS
330
C
102
}
330
C
100
AcDbDictionary
281
     1
  0
XRECORD
  5
210
102
{ACAD_REACTORS
330
C
102
}
330
C
100
AcDbXrecord
280
     1
  1
DWGPROPS COOKIE
  2

  3

  4

  6

  7

  8
12015018
  9

300
=
301
=
302
=
303
=
304
=
305
=
306
=
307
=
308
=
309
=
 40
0.0
 41
2458236.367983368
 42
2459697.057333357
  1

 90
        0
  0
DICTIONARY
  5
1D7
102
{ACAD_REACTORS
330
1D6
102
}
330
1D6
100
AcDbDictionary
281
     1
  0
DICTIONARY
  5
20F
102
{ACAD_REACTORS
330
20E
102
}
330
20E
100
AcDbDictionary
281
     1
  0
LAYOUT
  5
1E
102
{ACAD_REACTORS
330
1A
102
}
330
1A
100
AcDbPlotSettings
  1

  2
none_device
  4

  6

 40
0.0
 41
0.0
 42
0.0
 43
0.0
 44
0.0
 45
0.0
 46
0.0
 47
0.0
 48
0.0
 49
0.0
140
0.0
141
0.0
142
1.0
143
1.0
 70
   688
 72
     1
 73
     0
 74
     5
  7

 75
    16
147
1.0
148
0.0
149
0.0
100
AcDbLayout
  1
Layout1
 70
     1
 71
     1
 10
0.0
 20
0.0
 11
420.0
 21
297.0
 12
0.0
 22
0.0
 32
0.0
 14
1.000000000000000E+20
 24
1.000000000000000E+20
 34
1.000000000000000E+20
 15
-1.000000000000000E+20
 25
-1.000000000000000E+20
 35
-1.000000000000000E+20
146
0.0
 13
0.0
 23
0.0
 33
0.0
 16
1.0
 26
0.0
 36
0.0
 17
0.0
 27
1.0
 37
0.0
 76
     0
330
1B
  0
LAYOUT
  5
26
102
{ACAD_REACTORS
330
1A
102
}
330
1A
100
AcDbPlotSettings
  1

  2
none_device
  4

  6

 40
0.0
 41
0.0
 42
0.0
 43
0.0
 44
0.0
 45
0.0
 46
0.0
 47
0.0
 48
0.0
 49
0.0
140
0.0
141
0.0
142
1.0
143
1.0
 70
   688
 72
     1
 73
     0
 74
     5
  7

 75
    16
147
1.0
148
0.0
149
0.0
100
AcDbLayout
  1
Layout2
 70
     1
 71
     2
 10
0.0
 20
0.0
 11
0.0
 21
0.0
 12
0.0
 22
0.0
 32
0.0
 14
0.0
 24
0.0
 34
0.0
 15
0.0
 25
0.0
 35
0.0
146
0.0
 13
0.0
 23
0.0
 33
0.0
 16
1.0
 26
0.0
 36
0.0
 17
0.0
 27
1.0
 37
0.0
 76
     0
330
23
  0
LAYOUT
  5
22
102
{ACAD_REACTORS
330
1A
102
}
330
1A
100
AcDbPlotSettings
  1

  2
none_device
  4
ANSI_A_(11.00_x_8.50_Inches)
  6

 40
6.35
 41
19.05
 42
6.35000508
 43
19.05000254
 44
279.4
 45
215.9
 46
130.0565626932801
 47
91.79381710424715
 48
0.0
 49
0.0
140
0.0
141
0.0
142
0.0822892103079729
143
1.0
 70
  1696
 72
     0
 73
     0
 74
     0
  7

 75
     0
147
0.0235690232323232
148
0.0
149
0.0
100
AcDbLayout
  1
Model
 70
     1
 71
     0
 10
0.0
 20
0.0
 11
420.0
 21
297.0
 12
0.0
 22
0.0
 32
0.0
 14
-60.17500000000007
 24
-49.71142936356761
 34
0.0
 15
80.85321675921895
 25
41.79305141807179
 35
0.0
146
0.0
 13
0.0
 23
0.0
 33
0.0
 16
1.0
 26
0.0
 36
0.0
 17
0.0
 27
1.0
 37
0.0
 76
     0
330
1F
331
29
  0
MLINESTYLE
  5
18
102
{ACAD_REACTORS
330
17
102
}
330
17
100
AcDbMlineStyle
  2
Standard
 70
     0
  3

 62
   256
 51
90.0
 52
90.0
 71
     2
 49
0.5
 62
   256
  6
BYLAYER
 49
-0.5
 62
   256
  6
BYLAYER
  0
ACDBPLACEHOLDER
  5
F
102
{ACAD_REACTORS
330
E
102
}
330
E
  0
SCALE
  5
48
102
{ACAD_REACTORS
330
47
102
}
330
47
100
AcDbScale
 70
     0
300
1:1
140
1.0
141
1.0
290
     1
  0
SCALE
  5
49
102
{ACAD_REACTORS
330
47
102
}
330
47
100
AcDbScale
 70
     0
300
1:2
140
1.0
141
2.0
290
     0
  0
SCALE
  5
4A
102
{ACAD_REACTORS
330
47
102
}
330
47
100
AcDbScale
 70
     0
300
1:4
140
1.0
141
4.0
290
     0
  0
SCALE
  5
4B
102
{ACAD_REACTORS
330
47
102
}
330
47
100
AcDbScale
 70
     0
300
1:5
140
1.0
141
5.0
290
     0
  0
SCALE
  5
4C
102
{ACAD_REACTORS
330
47
102
}
330
47
100
AcDbScale
 70
     0
300
1:8
140
1.0
141
8.0
290
     0
  0
SCALE
  5
4D
102
{ACAD_REACTORS
330
47
102
}
330
47
100
AcDbScale
 70
     0
300
1:10
140
1.0
141
10.0
290
     0
  0
SCALE
  5
4E
102
{ACAD_REACTORS
330
47
102
}
330
47
100
AcDbScale
 70
     0
300
1:16
140
1.0
141
16.0
290
     0
  0
SCALE
  5
4F
102
{ACAD_REACTORS
330
47
102
}
330
47
100
AcDbScale
 70
     0
300
1:20
140
1.0
141
20.0
290
     0
  0
SCALE
  5
50
102
{ACAD_REACTORS
330
47
102
}
330
47
100
AcDbScale
 70
     0
300
1:30
140
1.0
141
30.0
290
     0
  0
SCALE
  5
51
102
{ACAD_REACTORS
330
47
102
}
330
47
100
AcDbScale
 70
     0
300
1:40
140
1.0
141
40.0
290
     0
  0
SCALE
  5
52
102
{ACAD_REACTORS
330
47
102
}
330
47
100
AcDbScale
 70
     0
300
1:50
140
1.0
141
50.0
290
     0
  0
SCALE
  5
53
102
{ACAD_REACTORS
330
47
102
}
330
47
100
AcDbScale
 70
     0
300
1:100
140
1.0
141
100.0
290
     0
  0
SCALE
  5
54
102
{ACAD_REACTORS
330
47
102
}
330
47
100
AcDbScale
 70
     0
300
2:1
140
2.0
141
1.0
290
     0
  0
SCALE
  5
55
102
{ACAD_REACTORS
330
47
102
}
330
47
100
AcDbScale
 70
     0
300
4:1
140
4.0
141
1.0
290
     0
  0
SCALE
  5
56
102
{ACAD_REACTORS
330
47
102
}
330
47
100
AcDbScale
 70
     0
300
8:1
140
8.0
141
1.0
290
     0
  0
SCALE
  5
57
102
{ACAD_REACTORS
330
47
102
}
330
47
100
AcDbScale
 70
     0
300
10:1
140
10.0
141
1.0
290
     0
  0
SCALE
  5
58
102
{ACAD_REACTORS
330
47
102
}
330
47
100
AcDbScale
 70
     0
300
100:1
140
100.0
141
1.0
290
     0
  0
SCALE
  5
59
102
{ACAD_REACTORS
330
47
102
}
330
47
100
AcDbScale
 70
     0
300
1/128" = 1'-0"
140
0.0078125
141
12.0
290
     0
  0
SCALE
  5
5A
102
{ACAD_REACTORS
330
47
102
}
330
47
100
AcDbScale
 70
     0
300
1/64" = 1'-0"
140
0.015625
141
12.0
290
     0
  0
SCALE
  5
5B
102
{ACAD_REACTORS
330
47
102
}
330
47
100
AcDbScale
 70
     0
300
1/32" = 1'-0"
140
0.03125
141
12.0
290
     0
  0
SCALE
  5
5C
102
{ACAD_REACTORS
330
47
102
}
330
47
100
AcDbScale
 70
     0
300
1/16" = 1'-0"
140
0.0625
141
12.0
290
     0
  0
SCALE
  5
5D
102
{ACAD_REACTORS
330
47
102
}
330
47
100
AcDbScale
 70
     0
300
3/32" = 1'-0"
140
0.09375
141
12.0
290
     0
  0
SCALE
  5
5E
102
{ACAD_REACTORS
330
47
102
}
330
47
100
AcDbScale
 70
     0
300
1/8" = 1'-0"
140
0.125
141
12.0
290
     0
  0
SCALE
  5
5F
102
{ACAD_REACTORS
330
47
102
}
330
47
100
AcDbScale
 70
     0
300
3/16" = 1'-0"
140
0.1875
141
12.0
290
     0
  0
SCALE
  5
60
102
{ACAD_REACTORS
330
47
102
}
330
47
100
AcDbScale
 70
     0
300
1/4" = 1'-0"
140
0.25
141
12.0
290
     0
  0
SCALE
  5
61
102
{ACAD_REACTORS
330
47
102
}
330
47
100
AcDbScale
 70
     0
300
3/8" = 1'-0"
140
0.375
141
12.0
290
     0
  0
SCALE
  5
62
102
{ACAD_REACTORS
330
47
102
}
330
47
100
AcDbScale
 70
     0
300
1/2" = 1'-0"
140
0.5
141
12.0
290
     0
  0
SCALE
  5
63
102
{ACAD_REACTORS
330
47
102
}
330
47
100
AcDbScale
 70
     0
300
3/4" = 1'-0"
140
0.75
141
12.0
290
     0
  0
SCALE
  5
64
102
{ACAD_REACTORS
330
47
102
}
330
47
100
AcDbScale
 70
     0
300
1" = 1'-0"
140
1.0
141
12.0
290
     0
  0
SCALE
  5
65
102
{ACAD_REACTORS
330
47
102
}
330
47
100
AcDbScale
 70
     0
300
1-1/2" = 1'-0"
140
1.5
141
12.0
290
     0
  0
SCALE
  5
66
102
{ACAD_REACTORS
330
47
102
}
330
47
100
AcDbScale
 70
     0
300
3" = 1'-0"
140
3.0
141
12.0
290
     0
  0
SCALE
  5
67
102
{ACAD_REACTORS
330
47
102
}
330
47
100
AcDbScale
 70
     0
300
6" = 1'-0"
140
6.0
141
12.0
290
     0
  0
SCALE
  5
68
102
{ACAD_REACTORS
330
47
102
}
330
47
100
AcDbScale
 70
     0
300
1'-0" = 1'-0"
140
12.0
141
12.0
290
     0
  0
ENDSEC
  0
EOF
