  0
SECTION
  2
HEADER
  9
$ACADVER
  1
AC1015
  9
$ACADMAINTVER
 70
     6
  9
$DWGCODEPAGE
  3
ANSI_949
  9
$INSBASE
 10
0.0
 20
0.0
 30
0.0
  9
$EXTMIN
 10
-70.87500000000003
 20
-49.71142936356761
 30
0.0
  9
$EXTMAX
 10
70.83612769310176
 20
41.7930514180718
 30
0.0
  9
$LIMMIN
 10
0.0
 20
0.0
  9
$LIMMAX
 10
420.0
 20
297.0
  9
$ORTHOMODE
 70
     0
  9
$REGENMODE
 70
     1
  9
$FILLMODE
 70
     1
  9
$QTEXTMODE
 70
     0
  9
$MIRRTEXT
 70
     1
  9
$LTSCALE
 40
1.0
  9
$ATTMODE
 70
     1
  9
$TEXTSIZE
 40
3.5
  9
$TRACEWID
 40
1.0
  9
$TEXTSTYLE
  7
Standard
  9
$CLAYER
  8
0
  9
$CELTYPE
  6
ByLayer
  9
$CECOLOR
 62
   256
  9
$CELTSCALE
 40
1.0
  9
$DISPSILH
 70
     0
  9
$DIMSCALE
 40
1.0
  9
$DIMASZ
 40
3.302
  9
$DIMEXO
 40
1.0
  9
$DIMDLI
 40
3.75
  9
$DIMRND
 40
0.0
  9
$DIMDLE
 40
0.0
  9
$DIMEXE
 40
1.0
  9
$DIMTP
 40
0.0
  9
$DIMTM
 40
0.0
  9
$DIMTXT
 40
3.5
  9
$DIMCEN
 40
2.5
  9
$DIMTSZ
 40
0.0
  9
$DIMTOL
 70
     0
  9
$DIMLIM
 70
     0
  9
$DIMTIH
 70
     1
  9
$DIMTOH
 70
     1
  9
$DIMSE1
 70
     0
  9
$DIMSE2
 70
     0
  9
$DIMTAD
 70
     1
  9
$DIMZIN
 70
     0
  9
$DIMBLK
  1

  9
$DIMASO
 70
     1
  9
$DIMSHO
 70
     1
  9
$DIMPOST
  1

  9
$DIMAPOST
  1

  9
$DIMALT
 70
     0
  9
$DIMALTD
 70
     3
  9
$DIMALTF
 40
0.0393700787401575
  9
$DIMLFAC
 40
1.0
  9
$DIMTOFL
 70
     1
  9
$DIMTVP
 40
0.0
  9
$DIMTIX
 70
     0
  9
$DIMSOXD
 70
     0
  9
$DIMSAH
 70
     0
  9
$DIMBLK1
  1

  9
$DIMBLK2
  1

  9
$DIMSTYLE
  2
ISO-25
  9
$DIMCLRD
 70
     0
  9
$DIMCLRE
 70
     0
  9
$DIMCLRT
 70
     0
  9
$DIMTFAC
 40
1.0
  9
$DIMGAP
 40
1.524
  9
$DIMJUST
 70
     0
  9
$DIMSD1
 70
     0
  9
$DIMSD2
 70
     0
  9
$DIMTOLJ
 70
     0
  9
$DIMTZIN
 70
     0
  9
$DIMALTZ
 70
     0
  9
$DIMALTTZ
 70
     0
  9
$DIMUPT
 70
     0
  9
$DIMDEC
 70
     2
  9
$DIMTDEC
 70
     2
  9
$DIMALTU
 70
     2
  9
$DIMALTTD
 70
     3
  9
$DIMTXSTY
  7
Standard
  9
$DIMAUNIT
 70
     0
  9
$DIMADEC
 70
     2
  9
$DIMALTRND
 40
0.0
  9
$DIMAZIN
 70
     0
  9
$DIMDSEP
 70
    44
  9
$DIMATFIT
 70
     3
  9
$DIMFRAC
 70
     0
  9
$DIMLDRBLK
  1

  9
$DIMLUNIT
 70
     2
  9
$DIMLWD
 70
    -2
  9
$DIMLWE
 70
    -2
  9
$DIMTMOVE
 70
     0
  9
$LUNITS
 70
     2
  9
$LUPREC
 70
     2
  9
$SKETCHINC
 40
1.0
  9
$FILLETRAD
 40
10.0
  9
$AUNITS
 70
     0
  9
$AUPREC
 70
     2
  9
$MENU
  1
.
  9
$ELEVATION
 40
0.0
  9
$PELEVATION
 40
0.0
  9
$THICKNESS
 40
0.0
  9
$LIMCHECK
 70
     0
  9
$CHAMFERA
 40
0.0
  9
$CHAMFERB
 40
0.0
  9
$CHAMFERC
 40
0.0
  9
$CHAMFERD
 40
0.0
  9
$SKPOLY
 70
     0
  9
$TDCREATE
 40
2458236.742628565
  9
$TDUCREATE
 40
2458236.367628565
  9
$TDUPDATE
 40
2459697.431911076
  9
$TDUUPDATE
 40
2459697.056911076
  9
$TDINDWG
 40
0.0044455093
  9
$TDUSRTIMER
 40
0.0004142361
  9
$USRTIMER
 70
     1
  9
$ANGBASE
 50
0.0
  9
$ANGDIR
 70
     0
  9
$PDMODE
 70
     0
  9
$PDSIZE
 40
-1.0
  9
$PLINEWID
 40
0.0
  9
$SPLFRAME
 70
     0
  9
$SPLINETYPE
 70
     6
  9
$SPLINESEGS
 70
     8
  9
$HANDSEED
  5
21A
  9
$SURFTAB1
 70
     6
  9
$SURFTAB2
 70
     6
  9
$SURFTYPE
 70
     6
  9
$SURFU
 70
     6
  9
$SURFV
 70
     6
  9
$UCSBASE
  2

  9
$UCSNAME
  2

  9
$UCSORG
 10
0.0
 20
0.0
 30
0.0
  9
$UCSXDIR
 10
1.0
 20
0.0
 30
0.0
  9
$UCSYDIR
 10
0.0
 20
1.0
 30
0.0
  9
$UCSORTHOREF
  2

  9
$UCSORTHOVIEW
 70
     0
  9
$UCSORGTOP
 10
0.0
 20
0.0
 30
0.0
  9
$UCSORGBOTTOM
 10
0.0
 20
0.0
 30
0.0
  9
$UCSORGLEFT
 10
0.0
 20
0.0
 30
0.0
  9
$UCSORGRIGHT
 10
0.0
 20
0.0
 30
0.0
  9
$UCSORGFRONT
 10
0.0
 20
0.0
 30
0.0
  9
$UCSORGBACK
 10
0.0
 20
0.0
 30
0.0
  9
$PUCSBASE
  2

  9
$PUCSNAME
  2

  9
$PUCSORG
 10
0.0
 20
0.0
 30
0.0
  9
$PUCSXDIR
 10
1.0
 20
0.0
 30
0.0
  9
$PUCSYDIR
 10
0.0
 20
1.0
 30
0.0
  9
$PUCSORTHOREF
  2

  9
$PUCSORTHOVIEW
 70
     0
  9
$PUCSORGTOP
 10
0.0
 20
0.0
 30
0.0
  9
$PUCSORGBOTTOM
 10
0.0
 20
0.0
 30
0.0
  9
$PUCSORGLEFT
 10
0.0
 20
0.0
 30
0.0
  9
$PUCSORGRIGHT
 10
0.0
 20
0.0
 30
0.0
  9
$PUCSORGFRONT
 10
0.0
 20
0.0
 30
0.0
  9
$PUCSORGBACK
 10
0.0
 20
0.0
 30
0.0
  9
$USERI1
 70
     0
  9
$USERI2
 70
     0
  9
$USERI3
 70
     0
  9
$USERI4
 70
     0
  9
$USERI5
 70
     0
  9
$USERR1
 40
0.0
  9
$USERR2
 40
0.0
  9
$USERR3
 40
0.0
  9
$USERR4
 40
0.0
  9
$USERR5
 40
0.0
  9
$WORLDVIEW
 70
     1
  9
$SHADEDGE
 70
     3
  9
$SHADEDIF
 70
    70
  9
$TILEMODE
 70
     1
  9
$MAXACTVP
 70
    64
  9
$PINSBASE
 10
0.0
 20
0.0
 30
0.0
  9
$PLIMCHECK
 70
     0
  9
$PEXTMIN
 10
1.000000000000000E+20
 20
1.000000000000000E+20
 30
1.000000000000000E+20
  9
$PEXTMAX
 10
-1.000000000000000E+20
 20
-1.000000000000000E+20
 30
-1.000000000000000E+20
  9
$PLIMMIN
 10
0.0
 20
0.0
  9
$PLIMMAX
 10
0.0
 20
0.0
  9
$UNITMODE
 70
     0
  9
$VISRETAIN
 70
     1
  9
$PLINEGEN
 70
     0
  9
$PSLTSCALE
 70
     1
  9
$TREEDEPTH
 70
  3020
  9
$CMLSTYLE
  2
Standard
  9
$CMLJUST
 70
     0
  9
$CMLSCALE
 40
20.0
  9
$PROXYGRAPHICS
 70
     1
  9
$MEASUREMENT
 70
     1
  9
$CELWEIGHT
370
    -1
  9
$ENDCAPS
280
     0
  9
$JOINSTYLE
280
     0
  9
$LWDISPLAY
290
     1
  9
$INSUNITS
 70
     4
  9
$HYPERLINKBASE
  1

  9
$STYLESHEET
  1

  9
$XEDIT
290
     1
  9
$CEPSNTYPE
380
     0
  9
$PSTYLEMODE
290
     1
  9
$FINGERPRINTGUID
  2
{6F7CA631-721D-44F1-983E-14C889676DFD}
  9
$VERSIONGUID
  2
{FAEB1C32-E019-11D5-929B-00C0DF256EC4}
  9
$EXTNAMES
290
     1
  9
$PSVPSCALE
 40
0.0
  9
$OLESTARTUP
290
     0
  0
ENDSEC
  0
SECTION
  2
CLASSES
  0
CLASS
  1
ACDBDICTIONARYWDFLT
  2
AcDbDictionaryWithDefault
  3
ObjectDBX Classes
 90
        0
280
     0
281
     0
  0
CLASS
  1
VISUALSTYLE
  2
AcDbVisualStyle
  3
ObjectDBX Classes
 90
     4095
280
     0
281
     0
  0
CLASS
  1
MATERIAL
  2
AcDbMaterial
  3
ObjectDBX Classes
 90
     1153
280
     0
281
     0
  0
CLASS
  1
SCALE
  2
AcDbScale
  3
ObjectDBX Classes
 90
     1153
280
     0
281
     0
  0
CLASS
  1
SUN
  2
AcDbSun
  3
SCENEOE
 90
     1153
280
     0
281
     0
  0
CLASS
  1
ACDBPLACEHOLDER
  2
AcDbPlaceHolder
  3
ObjectDBX Classes
 90
        0
280
     0
281
     0
  0
CLASS
  1
LAYOUT
  2
AcDbLayout
  3
ObjectDBX Classes
 90
        0
280
     0
281
     0
  0
CLASS
  1
TABLESTYLE
  2
AcDbTableStyle
  3
ObjectDBX Classes
 90
     4095
280
     0
281
     0
  0
CLASS
  1
MLEADERSTYLE
  2
AcDbMLeaderStyle
  3
ACDB_MLEADERSTYLE_CLASS
 90
     4095
280
     0
281
     0
  0
CLASS
  1
RASTERVARIABLES
  2
AcDbRasterVariables
  3
ISM
 90
        0
280
     0
281
     0
  0
CLASS
  1
DIMASSOC
  2
AcDbDimAssoc
  3
"AcDbDimAssoc|Product Desc:     AcDim ARX App For Dimension|Company:          Autodesk, Inc.|WEB Address:      www.autodesk.com"
 90
        0
280
     0
281
     0
  0
ENDSEC
  0
SECTION
  2
TABLES
  0
TABLE
  2
VPORT
  5
8
330
0
100
AcDbSymbolTable
 70
     1
  0
VPORT
  5
29
330
8
100
AcDbSymbolTableRecord
100
AcDbViewportTableRecord
  2
*Active
 70
     0
 10
0.0
 20
0.0
 11
1.0
 21
1.0
 12
-0.019436153449135
 22
-3.959188972747903
 13
0.0
 23
0.0
 14
10.0
 24
10.0
 15
10.0
 25
10.0
 16
0.0
 26
0.0
 36
1.0
 17
0.0
 27
0.0
 37
0.0
 40
93.3345703972722
 41
1.89119170984456
 42
50.0
 43
0.0
 44
0.0
 50
0.0
 51
0.0
 71
    16
 72
  2000
 73
     1
 74
     3
 75
     0
 76
     0
 77
     0
 78
     0
281
     0
 65
     1
110
0.0
120
0.0
130
0.0
111
1.0
121
0.0
131
0.0
112
0.0
122
1.0
132
0.0
 79
     0
146
0.0
  0
ENDTAB
  0
TABLE
  2
LTYPE
  5
5
330
0
100
AcDbSymbolTable
 70
     6
  0
LTYPE
  5
14
330
5
100
AcDbSymbolTableRecord
100
AcDbLinetypeTableRecord
  2
ByBlock
 70
     0
  3

 72
    65
 73
     0
 40
0.0
  0
LTYPE
  5
15
330
5
100
AcDbSymbolTableRecord
100
AcDbLinetypeTableRecord
  2
ByLayer
 70
     0
  3

 72
    65
 73
     0
 40
0.0
  0
LTYPE
  5
16
330
5
100
AcDbSymbolTableRecord
100
AcDbLinetypeTableRecord
  2
Continuous
 70
     0
  3
Solid line
 72
    65
 73
     0
 40
0.0
  0
LTYPE
  5
6A
330
5
100
AcDbSymbolTableRecord
100
AcDbLinetypeTableRecord
  2
HIDDEN
 70
     0
  3
Hidden __ __ __ __ __ __ __ __ __ __ __ __ __ __
 72
    65
 73
     2
 40
1.905
 49
1.27
 74
     0
 49
-0.635
 74
     0
  0
LTYPE
  5
6B
330
5
100
AcDbSymbolTableRecord
100
AcDbLinetypeTableRecord
  2
PHANTOM
 70
     0
  3
Phantom ______  __  __  ______  __  __  ______
 72
    65
 73
     6
 40
12.7
 49
6.35
 74
     0
 49
-1.27
 74
     0
 49
1.27
 74
     0
 49
-1.27
 74
     0
 49
1.27
 74
     0
 49
-1.27
 74
     0
  0
LTYPE
  5
6C
330
5
100
AcDbSymbolTableRecord
100
AcDbLinetypeTableRecord
  2
CENTER
 70
     0
  3
Center ____ _ ____ _ ____ _ ____ _ ____ _ ____
 72
    65
 73
     4
 40
10.16
 49
6.35
 74
     0
 49
-1.27
 74
     0
 49
1.27
 74
     0
 49
-1.27
 74
     0
  0
LTYPE
  5
6D
330
5
100
AcDbSymbolTableRecord
100
AcDbLinetypeTableRecord
  2
CENTERX2
 70
     0
  3
Center (2x) ________  __  ________  __  _____
 72
    65
 73
     4
 40
20.32
 49
12.7
 74
     0
 49
-2.54
 74
     0
 49
2.54
 74
     0
 49
-2.54
 74
     0
  0
LTYPE
  5
6E
330
5
100
AcDbSymbolTableRecord
100
AcDbLinetypeTableRecord
  2
DOT2
 70
     0
  3
Dot (.5x) ........................................
 72
    65
 73
     2
 40
0.635
 49
0.0
 74
     0
 49
-0.635
 74
     0
  0
ENDTAB
  0
TABLE
  2
LAYER
  5
2
102
{ACAD_XDICTIONARY
360
1E2
102
}
330
0
100
AcDbSymbolTable
 70
    17
  0
LAYER
  5
10
330
2
100
AcDbSymbolTableRecord
100
AcDbLayerTableRecord
  2
0
 70
     0
 62
     7
  6
Continuous
370
    -3
390
F
  0
LAYER
  5
6F
330
2
100
AcDbSymbolTableRecord
100
AcDbLayerTableRecord
  2
FORMAT
 70
     0
 62
     2
  6
Continuous
370
    -3
390
F
  0
LAYER
  5
70
330
2
100
AcDbSymbolTableRecord
100
AcDbLayerTableRecord
  2
외형선
 70
     0
 62
   100
  6
Continuous
370
    30
390
F
  0
LAYER
  5
71
330
2
100
AcDbSymbolTableRecord
100
AcDbLayerTableRecord
  2
숨은선
 70
     0
 62
     2
  6
HIDDEN
370
    15
390
F
  0
LAYER
  5
72
330
2
100
AcDbSymbolTableRecord
100
AcDbLayerTableRecord
  2
중심선
 70
     0
 62
     1
  6
CENTERX2
370
    -3
390
F
  0
LAYER
  5
73
330
2
100
AcDbSymbolTableRecord
100
AcDbLayerTableRecord
  2
파단선
 70
     0
 62
     4
  6
Continuous
370
    -3
390
F
  0
LAYER
  5
74
330
2
100
AcDbSymbolTableRecord
100
AcDbLayerTableRecord
  2
해칭선
 70
     0
 62
     4
  6
Continuous
370
    -3
390
F
  0
LAYER
  5
75
330
2
100
AcDbSymbolTableRecord
100
AcDbLayerTableRecord
  2
가는실선
 70
     0
 62
     4
  6
Continuous
370
    -3
390
F
  0
LAYER
  5
76
330
2
100
AcDbSymbolTableRecord
100
AcDbLayerTableRecord
  2
치수_보조선
 70
     0
 62
     4
  6
Continuous
370
    -3
390
F
  0
LAYER
  5
77
330
2
100
AcDbSymbolTableRecord
100
AcDbLayerTableRecord
  2
치수문자_일반주서
 70
     0
 62
     7
  6
Continuous
370
    15
390
F
  0
LAYER
  5
78
330
2
100
AcDbSymbolTableRecord
100
AcDbLayerTableRecord
  2
개별주서
 70
     0
 62
   100
  6
Continuous
370
    30
390
F
  0
LAYER
  5
79
330
2
100
AcDbSymbolTableRecord
100
AcDbLayerTableRecord
  2
중간선
 70
     0
 62
     2
  6
Continuous
370
    15
390
F
  0
LAYER
  5
7A
330
2
100
AcDbSymbolTableRecord
100
AcDbLayerTableRecord
  2
윤곽선
 70
     0
 62
     3
  6
Continuous
370
    40
390
F
  0
LAYER
  5
7B
330
2
100
AcDbSymbolTableRecord
100
AcDbLayerTableRecord
  2
중심마크
 70
     0
 62
   100
  6
Continuous
370
    30
390
F
  0
LAYER
  5
7C
330
2
100
AcDbSymbolTableRecord
100
AcDbLayerTableRecord
  2
가상선
 70
     0
 62
     4
  6
PHANTOM
370
    -3
390
F
  0
LAYER
  5
7D
330
2
100
AcDbSymbolTableRecord
100
AcDbLayerTableRecord
  2
특수지정선
 70
     0
 62
     5
  6
CENTERX2
370
    60
390
F
  0
LAYER
  5
181
330
2
100
AcDbSymbolTableRecord
100
AcDbLayerTableRecord
  2
Defpoints
 70
     0
 62
     7
  6
Continuous
290
     0
370
    -3
390
F
  0
ENDTAB
  0
TABLE
  2
STYLE
  5
3
330
0
100
AcDbSymbolTable
 70
     2
  0
STYLE
  5
11
330
3
100
AcDbSymbolTableRecord
100
AcDbTextStyleTableRecord
  2
Standard
 70
     0
 40
0.0
 41
1.0
 50
0.0
 71
     0
 42
3.5
  3
txt
  4

  0
STYLE
  5
93
330
3
100
AcDbSymbolTableRecord
100
AcDbTextStyleTableRecord
  2
SLDTEXTSTYLE0
 70
     0
 40
0.0
 41
0.75
 50
0.0
 71
     0
 42
3.5
  3
TXT
  4

  0
ENDTAB
  0
TABLE
  2
VIEW
  5
6
330
0
100
AcDbSymbolTable
 70
     0
  0
ENDTAB
  0
TABLE
  2
UCS
  5
7
330
0
100
AcDbSymbolTable
 70
     0
  0
ENDTAB
  0
TABLE
  2
APPID
  5
9
330
0
100
AcDbSymbolTable
 70
     2
  0
APPID
  5
12
330
9
100
AcDbSymbolTableRecord
100
AcDbRegAppTableRecord
  2
ACAD
 70
     0
  0
APPID
  5
184
330
9
100
AcDbSymbolTableRecord
100
AcDbRegAppTableRecord
  2
ACAD_DSTYLE_DIMRADIAL_EXTENSION
 70
     0
  0
ENDTAB
  0
TABLE
  2
DIMSTYLE
  5
A
330
0
100
AcDbSymbolTable
 70
     3
100
AcDbDimStyleTable
  0
DIMSTYLE
105
27
330
A
100
AcDbSymbolTableRecord
100
AcDbDimStyleTableRecord
  2
ISO-25
 70
     0
 41
2.5
 42
0.625
 43
3.75
 44
1.25
 73
     0
 74
     0
 77
     1
 78
     8
140
2.5
141
2.5
143
0.03937007874016
147
0.625
171
     3
172
     1
178
     0
271
     2
272
     2
274
     3
278
    44
283
     0
284
     8
340
11
  0
DIMSTYLE
105
107
102
{ACAD_REACTORS
330
106
330
142
102
}
330
A
100
AcDbSymbolTableRecord
100
AcDbDimStyleTableRecord
  2
SLDDIMSTYLE0
 70
     0
 41
3.302
 44
0.0
 45
0.000000001
 73
     0
 74
     0
 77
     1
 78
    12
 79
     3
140
3.5
143
0.0393700787401575
147
0.875
148
0.000000001
170
     1
172
     1
173
     1
178
     0
271
     2
272
     2
276
     2
284
    12
289
     0
340
93
  0
DIMSTYLE
105
11C
102
{ACAD_REACTORS
330
11B
330
12F
330
185
102
}
330
A
100
AcDbSymbolTableRecord
100
AcDbDimStyleTableRecord
  2
SLDDIMSTYLE1
 70
     0
 41
3.302
 44
0.0
 45
0.000000001
 73
     0
 74
     0
 77
     1
 78
     4
 79
     1
140
3.5
143
0.0393700787401575
147
0.875
148
0.000000001
170
     1
173
     1
178
     0
271
     2
272
     2
276
     2
284
    12
340
93
  0
ENDTAB
  0
TABLE
  2
BLOCK_RECORD
  5
1
330
0
100
AcDbSymbolTable
 70
     8
  0
BLOCK_RECORD
  5
1F
102
{ACAD_XDICTIONARY
360
217
102
}
330
1
100
AcDbSymbolTableRecord
100
AcDbBlockTableRecord
  2
*Model_Space
340
22
  0
BLOCK_RECORD
  5
1B
330
1
100
AcDbSymbolTableRecord
100
AcDbBlockTableRecord
  2
*Paper_Space
340
1E
  0
BLOCK_RECORD
  5
23
330
1
100
AcDbSymbolTableRecord
100
AcDbBlockTableRecord
  2
*Paper_Space0
340
26
  0
BLOCK_RECORD
  5
7E
330
1
100
AcDbSymbolTableRecord
100
AcDbBlockTableRecord
  2
블럭10
340
0
102
{BLKREFS
331
FE
102
}
  0
BLOCK_RECORD
  5
108
330
1
100
AcDbSymbolTableRecord
100
AcDbBlockTableRecord
  2
_D
340
0
  0
BLOCK_RECORD
  5
11D
330
1
100
AcDbSymbolTableRecord
100
AcDbBlockTableRecord
  2
_D_1
340
0
  0
BLOCK_RECORD
  5
130
330
1
100
AcDbSymbolTableRecord
100
AcDbBlockTableRecord
  2
_D_2
340
0
  0
BLOCK_RECORD
  5
143
330
1
100
AcDbSymbolTableRecord
100
AcDbBlockTableRecord
  2
_D_3
340
0
  0
BLOCK_RECORD
  5
156
330
1
100
AcDbSymbolTableRecord
100
AcDbBlockTableRecord
  2
SW_DOWELSYMBOL_0
340
0
102
{BLKREFS
331
15C
102
}
  0
BLOCK_RECORD
  5
188
330
1
100
AcDbSymbolTableRecord
100
AcDbBlockTableRecord
  2
*D7
340
0
  0
ENDTAB
  0
ENDSEC
  0
SECTION
  2
BLOCKS
  0
BLOCK
  5
20
330
1F
100
AcDbEntity
  8
0
100
AcDbBlockBegin
  2
*Model_Space
 70
     0
 10
0.0
 20
0.0
 30
0.0
  3
*Model_Space
  1
*Model_Space
  0
ENDBLK
  5
21
330
1F
100
AcDbEntity
  8
0
100
AcDbBlockEnd
  0
BLOCK
  5
1C
330
1B
100
AcDbEntity
 67
     1
  8
0
100
AcDbBlockBegin
  2
*Paper_Space
 70
     0
 10
0.0
 20
0.0
 30
0.0
  3
*Paper_Space
  1
*Paper_Space
  0
ENDBLK
  5
1D
330
1B
100
AcDbEntity
 67
     1
  8
0
100
AcDbBlockEnd
  0
BLOCK
  5
24
330
23
100
AcDbEntity
  8
0
100
AcDbBlockBegin
  2
*Paper_Space0
 70
     0
 10
0.0
 20
0.0
 30
0.0
  3
*Paper_Space0
  1
*Paper_Space0
  0
ENDBLK
  5
25
330
23
100
AcDbEntity
  8
0
100
AcDbBlockEnd
  0
BLOCK
  5
7F
330
7E
100
AcDbEntity
  8
0
100
AcDbBlockBegin
  2
블럭10
 70
     2
 10
0.0
 20
0.0
 30
0.0
  3
블럭10
  1
블럭10
  0
ELLIPSE
  5
81
330
7E
100
AcDbEntity
  8
중심선
100
AcDbEllipse
 10
20.54032771741204
 20
12.0471743016438
 30
0.0
 11
6.600054785286829
 21
-1.261213355974178E-13
 31
0.0
210
0.0
220
0.0
230
1.0
 40
0.636358354079598
 41
0.9219305317359503
 42
6.513795318482858
  0
ELLIPSE
  5
82
330
7E
100
AcDbEntity
  8
중심선
100
AcDbEllipse
 10
20.54032771746488
 20
12.04717430159265
 30
0.0
 11
3.960054785062283
 21
1.540847449632565E-10
 31
0.0
210
0.0
220
0.0
230
1.0
 40
0.3939339440162632
 41
1.131841032648279
 42
5.62031148352944
  0
LINE
  5
83
330
7E
100
AcDbEntity
  8
중심선
100
AcDbLine
 10
2.268634060543552
 20
16.24717430164393
 30
0.0
 11
5.714909304380834
 21
16.24717430164393
 31
0.0
  0
LINE
  5
84
330
7E
100
AcDbEntity
  8
중심선
100
AcDbLine
 10
5.245725140726316
 20
7.84717430164391
 30
0.0
 11
8.692000384563599
 21
7.84717430164391
 31
0.0
  0
LINE
  5
85
330
7E
100
AcDbEntity
  8
중심선
100
AcDbLine
 10
15.74043728645272
 20
16.24717430164393
 30
0.0
 11
8.692000384563599
 21
7.84717430164391
 31
0.0
  0
LINE
  5
86
330
7E
100
AcDbEntity
  8
중심선
100
AcDbLine
 10
0.1404042013395286
 20
13.71084872107135
 30
0.0
 11
3.58671253028996
 21
13.71088815037384
 31
0.0
  0
LINE
  5
87
330
7E
100
AcDbEntity
  8
중심선
100
AcDbLine
 10
2.750260043222114
 20
10.84717430164391
 30
0.0
 11
6.196535287059397
 21
10.84717430164391
 31
0.0
  0
LINE
  5
88
330
7E
100
AcDbEntity
  8
중심선
100
AcDbLine
 10
12.29416204261559
 20
16.24717430164393
 30
0.0
 11
5.245725140726316
 21
7.84717430164391
 31
0.0
  0
LINE
  5
89
330
7E
100
AcDbEntity
  8
중심선
100
AcDbLine
 10
10.72767329541681
 20
16.24717430164393
 30
0.0
 11
6.196535287059397
 21
10.84717430164391
 31
0.0
  0
LINE
  5
8A
330
7E
100
AcDbEntity
  8
중심선
100
AcDbLine
 10
7.28139805157953
 20
16.24717430164393
 30
0.0
 11
2.750260043222114
 21
10.84717430164391
 31
0.0
  0
LINE
  5
8B
330
7E
100
AcDbEntity
  8
중심선
100
AcDbLine
 10
5.714909304380834
 20
16.24717430164393
 30
0.0
 11
3.58671253028996
 21
13.71088815037384
 31
0.0
  0
LINE
  5
8C
330
7E
100
AcDbEntity
  8
중심선
100
AcDbLine
 10
2.268634060543552
 20
16.24717430164393
 30
0.0
 11
0.1404042013395286
 21
13.71084872107135
 31
0.0
  0
LINE
  5
8D
330
7E
100
AcDbEntity
  8
중심선
100
AcDbLine
 10
7.28139805157953
 20
16.24717430164393
 30
0.0
 11
10.72767329541681
 21
16.24717430164393
 31
0.0
  0
LINE
  5
8E
330
7E
100
AcDbEntity
  8
중심선
100
AcDbLine
 10
12.29416204261559
 20
16.24717430164393
 30
0.0
 11
15.74043728645272
 21
16.24717430164393
 31
0.0
  0
LINE
  5
8F
330
7E
100
AcDbEntity
  8
중심선
100
AcDbLine
 10
19.22036997980202
 20
11.08717430171403
 30
0.0
 11
23.66174974927406
 21
11.08717430171406
 31
0.0
  0
LINE
  5
90
330
7E
100
AcDbEntity
  8
중심선
100
AcDbLine
 10
19.22039502424796
 20
13.00717430171391
 30
0.0
 11
19.22036997980202
 21
11.08717430171403
 31
0.0
  0
LINE
  5
91
330
7E
100
AcDbEntity
  8
중심선
100
AcDbLine
 10
19.22039502424796
 20
13.00717430171391
 30
0.0
 11
26.96566020931264
 21
13.00717430171391
 31
0.0
  0
LINE
  5
92
330
7E
100
AcDbEntity
  8
중심선
100
AcDbLine
 10
22.22332737316547
 20
13.45928029700563
 30
0.0
 11
24.52862924686651
 21
15.39360700705356
 31
0.0
  0
ATTDEF
  5
94
330
7E
100
AcDbEntity
  8
FORMAT
 62
     2
100
AcDbText
 10
-11.05102035218446
 20
2.075366912832191
 30
0.0
 40
4.233333333333333
  1
GMG22913[ 6 FLUTE ]
 41
0.75
  7
SLDTEXTSTYLE0
 11
-11.05102035218446
 21
-0.0412997538344756
 31
0.0
100
AcDbAttributeDefinition
  3

  2
AUTOATTR0
 70
     0
 74
     1
  0
ENDBLK
  5
80
330
7E
100
AcDbEntity
  8
0
100
AcDbBlockEnd
  0
BLOCK
  5
109
330
108
100
AcDbEntity
  8
0
100
AcDbBlockBegin
  2
_D
 70
     0
 10
0.0
 20
0.0
 30
0.0
  3
_D
  1
_D
  0
LINE
  5
10B
330
108
100
AcDbEntity
  8
치수문자_일반주서
 62
     0
370
    -2
100
AcDbLine
 10
46.63850000000001
 20
-4.762500000000006
 30
0.0
 11
66.74524571577297
 21
-4.762499999999932
 31
0.0
  0
LINE
  5
10C
330
108
100
AcDbEntity
  8
치수문자_일반주서
 62
     0
370
    -2
100
AcDbLine
 10
46.63850000000001
 20
4.762500000000006
 30
0.0
 11
66.74524571577294
 21
4.762500000000079
 31
0.0
  0
LINE
  5
10D
330
108
100
AcDbEntity
  8
치수문자_일반주서
 62
     0
370
    -2
100
AcDbLine
 10
66.74524571577295
 20
-1.460499999999932
 30
0.0
 11
66.74524571577295
 21
1.46050000000008
 31
0.0
  0
SOLID
  5
10E
330
108
100
AcDbEntity
  8
치수문자_일반주서
 62
     0
100
AcDbTrace
 10
66.19491238243963
 20
-1.460499999999934
 30
0.0
 11
67.29557904910628
 21
-1.460499999999931
 31
0.0
 12
66.74524571577297
 22
-4.762499999999932
 32
0.0
 13
66.74524571577297
 23
-4.762499999999932
 33
0.0
  0
SOLID
  5
10F
330
108
100
AcDbEntity
  8
치수문자_일반주서
 62
     0
100
AcDbTrace
 10
67.29557904910628
 20
1.460500000000081
 30
0.0
 11
66.19491238243963
 21
1.460500000000078
 31
0.0
 12
66.74524571577294
 22
4.762500000000079
 32
0.0
 13
66.74524571577294
 23
4.762500000000079
 33
0.0
  0
MTEXT
  5
110
330
108
100
AcDbEntity
  8
치수문자_일반주서
 62
     0
100
AcDbMText
 10
62.37024571577295
 20
-0.4965537846535287
 30
0.0
 40
3.5
 41
0.0
 71
     2
 72
     1
  1
\A1;%%c9.53 [3/8]
  7
SLDTEXTSTYLE0
 11
-2.983906501879682E-15
 21
1.0
 31
0.0
 73
     1
 44
1.0
  0
POINT
  5
111
330
108
100
AcDbEntity
  8
Defpoints
 62
     0
100
AcDbPoint
 10
46.57600000000001
 20
-4.762500000000006
 30
0.0
  0
POINT
  5
112
330
108
100
AcDbEntity
  8
Defpoints
 62
     0
100
AcDbPoint
 10
46.57600000000001
 20
4.762500000000006
 30
0.0
  0
POINT
  5
113
330
108
100
AcDbEntity
  8
Defpoints
 62
     0
100
AcDbPoint
 10
66.74524571577294
 20
4.762500000000081
 30
0.0
  0
ENDBLK
  5
10A
330
108
100
AcDbEntity
  8
0
100
AcDbBlockEnd
  0
BLOCK
  5
11E
330
11D
100
AcDbEntity
  8
0
100
AcDbBlockBegin
  2
_D_1
 70
     0
 10
0.0
 20
0.0
 30
0.0
  3
_D_1
  1
_D_1
  0
LINE
  5
120
330
11D
100
AcDbEntity
  8
치수문자_일반주서
 62
     0
370
    -2
100
AcDbLine
 10
-53.49999999999999
 20
4.324999999999998
 30
0.0
 11
-53.49999999999999
 21
37.41805141807179
 31
0.0
  0
LINE
  5
121
330
11D
100
AcDbEntity
  8
치수문자_일반주서
 62
     0
370
    -2
100
AcDbLine
 10
48.10000000000001
 20
4.444000000000005
 30
0.0
 11
48.10000000000001
 21
37.41805141807179
 31
0.0
  0
LINE
  5
122
330
11D
100
AcDbEntity
  8
치수문자_일반주서
 62
     0
370
    -2
100
AcDbLine
 10
-50.19799999999999
 20
37.41805141807179
 30
0.0
 11
44.79800000000001
 21
37.41805141807179
 31
0.0
  0
SOLID
  5
123
330
11D
100
AcDbEntity
  8
치수문자_일반주서
 62
     0
100
AcDbTrace
 10
-50.19799999999999
 20
37.96838475140513
 30
0.0
 11
-50.19799999999999
 21
36.86771808473846
 31
0.0
 12
-53.49999999999999
 22
37.41805141807179
 32
0.0
 13
-53.49999999999999
 23
37.41805141807179
 33
0.0
  0
SOLID
  5
124
330
11D
100
AcDbEntity
  8
치수문자_일반주서
 62
     0
100
AcDbTrace
 10
44.79800000000001
 20
36.86771808473846
 30
0.0
 11
44.79800000000001
 21
37.96838475140513
 31
0.0
 12
48.10000000000001
 22
37.41805141807179
 32
0.0
 13
48.10000000000001
 23
37.41805141807179
 33
0.0
  0
MTEXT
  5
125
330
11D
100
AcDbEntity
  8
치수문자_일반주서
 62
     0
100
AcDbMText
 10
-2.699999999999982
 20
41.79305141807179
 30
0.0
 40
3.5
 41
0.0
 71
     2
 72
     1
  1
\A1;101.60 [4]
  7
SLDTEXTSTYLE0
 73
     1
 44
1.0
  0
POINT
  5
126
330
11D
100
AcDbEntity
  8
Defpoints
 62
     0
100
AcDbPoint
 10
-53.49999999999999
 20
4.262499999999998
 30
0.0
  0
POINT
  5
127
330
11D
100
AcDbEntity
  8
Defpoints
 62
     0
100
AcDbPoint
 10
48.10000000000001
 20
4.381500000000005
 30
0.0
  0
POINT
  5
128
330
11D
100
AcDbEntity
  8
Defpoints
 62
     0
100
AcDbPoint
 10
48.10000000000001
 20
37.41805141807179
 30
0.0
  0
ENDBLK
  5
11F
330
11D
100
AcDbEntity
  8
0
100
AcDbBlockEnd
  0
BLOCK
  5
131
330
130
100
AcDbEntity
  8
0
100
AcDbBlockBegin
  2
_D_2
 70
     0
 10
0.0
 20
0.0
 30
0.0
  3
_D_2
  1
_D_2
  0
LINE
  5
133
330
130
100
AcDbEntity
  8
치수문자_일반주서
 62
     0
370
    -2
100
AcDbLine
 10
48.10000000000001
 20
3.301000000000006
 30
0.0
 11
48.10000000000001
 21
22.00849453033794
 31
0.0
  0
LINE
  5
134
330
130
100
AcDbEntity
  8
치수문자_일반주서
 62
     0
370
    -2
100
AcDbLine
 10
9.999999999999858
 20
-4.568667405098601
 30
0.0
 11
9.999999999999858
 21
22.00849453033794
 31
0.0
  0
LINE
  5
135
330
130
100
AcDbEntity
  8
치수문자_일반주서
 62
     0
370
    -2
100
AcDbLine
 10
44.79800000000001
 20
22.00849453033794
 30
0.0
 11
13.30199999999986
 21
22.00849453033794
 31
0.0
  0
SOLID
  5
136
330
130
100
AcDbEntity
  8
치수문자_일반주서
 62
     0
100
AcDbTrace
 10
44.79800000000001
 20
21.4581611970046
 30
0.0
 11
44.79800000000001
 21
22.55882786367127
 31
0.0
 12
48.10000000000001
 22
22.00849453033794
 32
0.0
 13
48.10000000000001
 23
22.00849453033794
 33
0.0
  0
SOLID
  5
137
330
130
100
AcDbEntity
  8
치수문자_일반주서
 62
     0
100
AcDbTrace
 10
13.30199999999986
 20
22.55882786367127
 30
0.0
 11
13.30199999999986
 21
21.4581611970046
 31
0.0
 12
9.999999999999858
 22
22.00849453033794
 32
0.0
 13
9.999999999999858
 23
22.00849453033794
 33
0.0
  0
MTEXT
  5
138
330
130
100
AcDbEntity
  8
치수문자_일반주서
 62
     0
100
AcDbMText
 10
28.63090169785223
 20
26.38349453033794
 30
0.0
 40
3.5
 41
0.0
 71
     2
 72
     1
  1
\A1;38.10 [1 1/2]
  7
SLDTEXTSTYLE0
 73
     1
 44
1.0
  0
POINT
  5
139
330
130
100
AcDbEntity
  8
Defpoints
 62
     0
100
AcDbPoint
 10
48.10000000000001
 20
3.238500000000006
 30
0.0
  0
POINT
  5
13A
330
130
100
AcDbEntity
  8
Defpoints
 62
     0
100
AcDbPoint
 10
9.999999999999858
 20
-4.631167405098601
 30
0.0
  0
POINT
  5
13B
330
130
100
AcDbEntity
  8
Defpoints
 62
     0
100
AcDbPoint
 10
9.999999999999858
 20
22.00849453033794
 30
0.0
  0
ENDBLK
  5
132
330
130
100
AcDbEntity
  8
0
100
AcDbBlockEnd
  0
BLOCK
  5
144
330
143
100
AcDbEntity
  8
0
100
AcDbBlockBegin
  2
_D_3
 70
     0
 10
0.0
 20
0.0
 30
0.0
  3
_D_3
  1
_D_3
  0
LINE
  5
146
330
143
100
AcDbEntity
  8
치수문자_일반주서
 62
     0
370
    -2
100
AcDbLine
 10
-53.06249999999999
 20
4.762500000000002
 30
0.0
 11
-66.5
 21
4.762499999999953
 31
0.0
  0
LINE
  5
147
330
143
100
AcDbEntity
  8
치수문자_일반주서
 62
     0
370
    -2
100
AcDbLine
 10
-53.06249999999999
 20
-4.762499999999998
 30
0.0
 11
-66.49999999999997
 21
-4.762500000000047
 31
0.0
  0
LINE
  5
148
330
143
100
AcDbEntity
  8
치수문자_일반주서
 62
     0
370
    -2
100
AcDbLine
 10
-66.49999999999999
 20
1.460499999999954
 30
0.0
 11
-66.49999999999999
 21
-1.460500000000048
 31
0.0
  0
SOLID
  5
149
330
143
100
AcDbEntity
  8
치수문자_일반주서
 62
     0
100
AcDbTrace
 10
-65.94966666666666
 20
1.460499999999955
 30
0.0
 11
-67.05033333333331
 21
1.460499999999952
 31
0.0
 12
-66.5
 22
4.762499999999953
 32
0.0
 13
-66.5
 23
4.762499999999953
 33
0.0
  0
SOLID
  5
14A
330
143
100
AcDbEntity
  8
치수문자_일반주서
 62
     0
100
AcDbTrace
 10
-67.05033333333331
 20
-1.460500000000049
 30
0.0
 11
-65.94966666666666
 21
-1.460500000000046
 31
0.0
 12
-66.49999999999997
 22
-4.762500000000047
 32
0.0
 13
-66.49999999999997
 23
-4.762500000000047
 33
0.0
  0
MTEXT
  5
14B
330
143
100
AcDbEntity
  8
치수문자_일반주서
 62
     0
100
AcDbMText
 10
-70.87499999999999
 20
-0.0000000000000128
 30
0.0
 40
3.5
 41
0.0
 71
     2
 72
     1
  1
\A1;%%c9.53 [3/8]
  7
SLDTEXTSTYLE0
 11
-2.983906501879685E-15
 21
1.0
 31
0.0
 73
     1
 44
1.0
  0
POINT
  5
14C
330
143
100
AcDbEntity
  8
Defpoints
 62
     0
100
AcDbPoint
 10
-52.99999999999999
 20
4.762500000000002
 30
0.0
  0
POINT
  5
14D
330
143
100
AcDbEntity
  8
Defpoints
 62
     0
100
AcDbPoint
 10
-52.99999999999999
 20
-4.762499999999998
 30
0.0
  0
POINT
  5
14E
330
143
100
AcDbEntity
  8
Defpoints
 62
     0
100
AcDbPoint
 10
-66.49999999999997
 20
-4.762500000000049
 30
0.0
  0
ENDBLK
  5
145
330
143
100
AcDbEntity
  8
0
100
AcDbBlockEnd
  0
BLOCK
  5
157
330
156
100
AcDbEntity
  8
0
100
AcDbBlockBegin
  2
SW_DOWELSYMBOL_0
 70
     0
 10
0.0
 20
0.0
 30
0.0
  3
SW_DOWELSYMBOL_0
  1
SW_DOWELSYMBOL_0
  0
CIRCLE
  5
159
330
156
100
AcDbEntity
  8
외형선
 62
     0
100
AcDbCircle
 10
0.0
 20
0.0
 30
0.0
 40
3.000000000000001
  0
HATCH
  5
15A
330
156
100
AcDbEntity
  8
0
  6
Continuous
 62
     0
370
    30
100
AcDbHatch
 10
0.0
 20
0.0
 30
0.0
210
0.0
220
0.0
230
1.0
  2
SOLID
 70
     1
 71
     0
 91
        1
 92
        0
 93
        3
 72
     2
 10
0.0
 20
0.0
 40
3.000000000000001
 50
0.0
 51
90.0
 73
     1
 72
     1
 10
0.0
 20
3.000000000000001
 11
0.0
 21
0.0
 72
     1
 10
0.0
 20
0.0
 11
3.000000000000001
 21
0.0
 97
        0
 75
     0
 76
     1
 98
        1
 10
0.0
 20
0.0
  0
HATCH
  5
15B
330
156
100
AcDbEntity
  8
0
  6
Continuous
 62
     0
370
    30
100
AcDbHatch
 10
0.0
 20
0.0
 30
0.0
210
0.0
220
0.0
230
1.0
  2
SOLID
 70
     1
 71
     0
 91
        1
 92
        0
 93
        3
 72
     2
 10
0.0
 20
0.0
 40
3.000000000000001
 50
180.0
 51
270.0000000000007
 73
     1
 72
     1
 10
0.0
 20
-3.000000000000001
 11
0.0
 21
0.0
 72
     1
 10
0.0
 20
0.0
 11
-3.000000000000001
 21
0.0
 97
        0
 75
     0
 76
     1
 98
        1
 10
0.0
 20
0.0
  0
ENDBLK
  5
158
330
156
100
AcDbEntity
  8
0
100
AcDbBlockEnd
  0
BLOCK
  5
189
330
188
100
AcDbEntity
  8
0
100
AcDbBlockBegin
  2
*D7
 70
     1
 10
0.0
 20
0.0
 30
0.0
  3
*D7
  1
*D7
  0
LINE
  5
18B
330
188
100
AcDbEntity
  8
치수문자_일반주서
 62
     0
370
    -2
100
AcDbLine
 10
49.61359381859173
 20
6.988606637584242
 30
0.0
 11
70.83612769310176
 21
33.18920154992643
 31
0.0
  0
MTEXT
  5
18C
330
188
100
AcDbEntity
  8
치수문자_일반주서
 62
     0
100
AcDbMText
 10
59.29598852546243
 20
23.11263953433717
 30
0.0
 40
3.5
 41
0.0
 71
     5
 72
     1
  1
\A1;R1.52 [R0.060]
  7
SLDTEXTSTYLE0
 11
0.6294226727293252
 21
0.7770631242404138
 31
0.0
 73
     1
 44
1.0
  0
SOLID
  5
18D
330
188
100
AcDbEntity
  8
치수문자_일반주서
 62
     0
100
AcDbTrace
 10
49.18595007921809
 20
7.334998915142948
 30
0.0
 11
50.04123755796537
 21
6.642214360025537
 31
0.0
 12
47.5352401532395
 22
4.422744201342397
 32
0.0
 13
47.5352401532395
 23
4.422744201342397
 33
0.0
  0
LINE
  5
18E
330
188
100
AcDbEntity
  8
치수문자_일반주서
 62
     0
100
AcDbLine
 10
46.486
 20
3.238500000000006
 30
0.0
 11
46.66600000000001
 21
3.238500000000006
 31
0.0
  0
LINE
  5
18F
330
188
100
AcDbEntity
  8
치수문자_일반주서
 62
     0
100
AcDbLine
 10
46.57600000000001
 20
3.148500000000006
 30
0.0
 11
46.57600000000001
 21
3.328500000000006
 31
0.0
  0
POINT
  5
190
330
188
100
AcDbEntity
  8
Defpoints
 62
     0
100
AcDbPoint
 10
47.5352401532395
 20
4.422744201342397
 30
0.0
  0
POINT
  5
191
330
188
100
AcDbEntity
  8
Defpoints
 62
     0
100
AcDbPoint
 10
46.57600000000001
 20
3.238500000000006
 30
0.0
  0
ENDBLK
  5
18A
330
188
100
AcDbEntity
  8
0
100
AcDbBlockEnd
  0
ENDSEC
  0
SECTION
  2
ENTITIES
  0
LINE
  5
95
330
1F
100
AcDbEntity
  8
0
  6
Continuous
 62
     4
370
    15
100
AcDbLine
 10
8.480002758622215
 20
4.762500000000006
 30
0.0
 11
-28.81754999999987
 21
4.762500000000004
 31
0.0
  0
LINE
  5
96
330
1F
100
AcDbEntity
  8
0
  6
Continuous
 62
     4
370
    15
100
AcDbLine
 10
-52.99999999999999
 20
-4.762499999999998
 30
0.0
 11
8.480624873632753
 21
-4.762499999999995
 31
0.0
  0
LINE
  5
97
330
1F
100
AcDbEntity
  8
0
  6
Continuous
 62
     4
370
    15
100
AcDbLine
 10
-52.99999999999999
 20
4.762499999999999
 30
0.0
 11
-53.49999999999999
 21
4.262499999999998
 31
0.0
  0
LINE
  5
98
330
1F
100
AcDbEntity
  8
0
  6
Continuous
 62
     4
370
    15
100
AcDbLine
 10
-53.49999999999999
 20
-4.262499999999996
 30
0.0
 11
-52.99999999999999
 21
-4.762499999999996
 31
0.0
  0
LINE
  5
99
330
1F
100
AcDbEntity
  8
0
  6
Continuous
 62
     1
370
    15
100
AcDbLine
 10
8.480390585945015
 20
4.762474687273943
 30
0.0
 11
8.480390593174612
 21
4.762590356321716
 31
0.0
  0
LINE
  5
9A
330
1F
100
AcDbEntity
  8
0
  6
Continuous
 62
     1
370
    15
100
AcDbLine
 10
41.05250887498583
 20
-4.762499999999995
 30
0.0
 11
42.68005480447488
 21
-4.762499999999995
 31
0.0
  0
LINE
  5
9B
330
1F
100
AcDbEntity
  8
0
  6
Continuous
 62
     1
370
    15
100
AcDbLine
 10
11.12797709092145
 20
-4.762499999999995
 30
0.0
 11
12.75675721681125
 21
-4.762499999999995
 31
0.0
  0
LINE
  5
9C
330
1F
100
AcDbEntity
  8
0
  6
Continuous
 62
     1
370
    15
100
AcDbLine
 10
27.71842181383787
 20
4.762500000000006
 30
0.0
 11
26.09020769502068
 21
4.762500000000006
 31
0.0
  0
LINE
  5
9D
330
1F
100
AcDbEntity
  8
0
  6
Continuous
 62
     1
370
    15
100
AcDbLine
 10
26.09020769502073
 20
-4.762499999999995
 30
0.0
 11
27.71842181383789
 21
-4.762499999999995
 31
0.0
  0
LINE
  5
9E
330
1F
100
AcDbEntity
  8
0
  6
Continuous
 62
     1
370
    15
100
AcDbLine
 10
12.75675721681126
 20
4.762500000000006
 30
0.0
 11
11.12797709092149
 21
4.762500000000006
 31
0.0
  0
LINE
  5
9F
330
1F
100
AcDbEntity
  8
0
  6
Continuous
 62
     1
370
    15
100
AcDbLine
 10
42.68005480447488
 20
4.762500000000006
 30
0.0
 11
41.05250887498587
 21
4.762500000000006
 31
0.0
  0
LINE
  5
A0
330
1F
100
AcDbEntity
  8
0
  6
Continuous
 62
     1
370
    15
100
AcDbLine
 10
36.06408462514874
 20
-4.762499999999995
 30
0.0
 11
37.69321677605606
 21
-4.762499999999995
 31
0.0
  0
LINE
  5
A1
330
1F
100
AcDbEntity
  8
0
  6
Continuous
 62
     1
370
    15
100
AcDbLine
 10
22.73079614615877
 20
4.762500000000006
 30
0.0
 11
21.10258780746024
 21
4.762500000000006
 31
0.0
  0
LINE
  5
A2
330
1F
100
AcDbEntity
  8
0
  6
Continuous
 62
     1
370
    15
100
AcDbLine
 10
21.10258780746029
 20
-4.762499999999995
 30
0.0
 11
22.73079614615879
 21
-4.762499999999995
 31
0.0
  0
LINE
  5
A3
330
1F
100
AcDbEntity
  8
0
  6
Continuous
 62
     1
370
    15
100
AcDbLine
 10
37.69321677605609
 20
4.762500000000006
 30
0.0
 11
36.06408462514878
 21
4.762500000000006
 31
0.0
  0
LINE
  5
A4
330
1F
100
AcDbEntity
  8
0
  6
Continuous
 62
     1
370
    15
100
AcDbLine
 10
46.04007110210683
 20
-4.762499999999995
 30
0.0
 11
46.57600000000001
 21
-4.762499999999995
 31
0.0
  0
LINE
  5
A5
330
1F
100
AcDbEntity
  8
0
  6
Continuous
 62
     1
370
    15
100
AcDbLine
 10
16.11628790972398
 20
-4.762499999999995
 30
0.0
 11
17.74291089664515
 21
-4.762499999999995
 31
0.0
  0
LINE
  5
A6
330
1F
100
AcDbEntity
  8
0
  6
Continuous
 62
     1
370
    15
100
AcDbLine
 10
32.70482660386587
 20
4.762500000000006
 30
0.0
 11
31.07808779872967
 21
4.762500000000006
 31
0.0
  0
LINE
  5
A7
330
1F
100
AcDbEntity
  8
0
  6
Continuous
 62
     1
370
    15
100
AcDbLine
 10
31.07808779872966
 20
-4.762499999999995
 30
0.0
 11
32.70482660386585
 21
-4.762499999999995
 31
0.0
  0
LINE
  5
A8
330
1F
100
AcDbEntity
  8
0
  6
Continuous
 62
     1
370
    15
100
AcDbLine
 10
17.74291089664515
 20
4.762500000000006
 30
0.0
 11
16.11628790972396
 21
4.762500000000006
 31
0.0
  0
LINE
  5
A9
330
1F
100
AcDbEntity
  8
0
  6
Continuous
 62
     1
370
    15
100
AcDbLine
 10
46.57600000000001
 20
4.762500000000006
 30
0.0
 11
46.04007110210681
 21
4.762500000000006
 31
0.0
  0
SPLINE
  5
AA
330
1F
100
AcDbEntity
  8
0
  6
Continuous
 62
     4
370
    15
100
AcDbSpline
210
0.0
220
0.0
230
1.0
 70
     8
 71
     3
 72
    12
 73
     8
 74
     0
 42
0.000000001
 43
0.00000001
 40
0.0
 40
0.0
 40
0.0
 40
0.0
 40
0.0435096475459333
 40
0.2990903994539402
 40
0.5445777468473445
 40
0.7887659181755483
 40
1.0
 40
1.0
 40
1.0
 40
1.0
 10
8.86618534379418
 20
4.632760248518099
 30
0.0
 10
8.878088838118808
 20
4.629941185484741
 30
0.0
 10
8.959914848515504
 20
4.610562616907678
 30
0.0
 10
9.180428309100613
 20
4.585548468924777
 30
0.0
 10
9.48319396683343
 20
4.575393908139827
 30
0.0
 10
9.773214932986406
 20
4.593271865497426
 30
0.0
 10
9.92814178327155
 20
4.619159974743694
 30
0.0
 10
9.999999999999856
 20
4.631167405098604
 30
0.0
  0
SPLINE
  5
AB
330
1F
100
AcDbEntity
  8
0
  6
Continuous
 62
     4
370
    15
100
AcDbSpline
210
0.0
220
0.0
230
1.0
 70
     8
 71
     3
 72
    12
 73
     8
 74
     0
 42
0.000000001
 43
0.00000001
 40
0.0
 40
0.0
 40
0.0
 40
0.0
 40
0.5000000000000001
 40
0.5000000000000001
 40
0.75
 40
0.75
 40
1.0
 40
1.0
 40
1.0
 40
1.0
 10
8.79542242231468
 20
4.652196580385566
 30
0.0
 10
8.662179642488816
 20
4.680793427423082
 30
0.0
 10
8.57496231672788
 20
4.711194861422265
 30
0.0
 10
8.506399893419836
 20
4.741991922708319
 30
0.0
 10
8.493435429109866
 20
4.749991711902947
 30
0.0
 10
8.480446281944984
 20
4.760335135098487
 30
0.0
 10
8.480390585943503
 20
4.762788244827738
 30
0.0
 10
8.480390585943503
 20
4.76247303222376
 30
0.0
  0
SPLINE
  5
AC
330
1F
100
AcDbEntity
  8
0
  6
Continuous
 62
     4
370
    15
100
AcDbSpline
210
0.0
220
0.0
230
1.0
 70
     8
 71
     3
 72
     8
 73
     4
 74
     0
 42
0.000000001
 43
0.00000001
 40
0.0
 40
0.0
 40
0.0
 40
0.0
 40
1.0
 40
1.0
 40
1.0
 40
1.0
 10
9.999999999994746
 20
4.249523640043219
 30
0.0
 10
9.602674941405168
 20
4.43004847288108
 30
0.0
 10
9.194745608221053
 20
4.566492994188834
 30
0.0
 10
8.79542242231468
 20
4.652196580385568
 30
0.0
  0
SPLINE
  5
AD
330
1F
100
AcDbEntity
  8
0
  6
Continuous
 62
     4
370
    15
100
AcDbSpline
210
0.0
220
0.0
230
1.0
 70
     8
 71
     3
 72
    14
 73
    10
 74
     0
 42
0.000000001
 43
0.00000001
 40
0.0
 40
0.0
 40
0.0
 40
0.0
 40
0.2500000000000001
 40
0.2500000000000001
 40
0.5
 40
0.5
 40
0.75
 40
0.75
 40
1.0
 40
1.0
 40
1.0
 40
1.0
 10
8.480390585943502
 20
2.395116375841202
 30
0.0
 10
8.480390585943502
 20
2.570834829039335
 30
0.0
 10
8.484329383428063
 20
2.740378428730827
 30
0.0
 10
8.599946199681135
 20
3.051723217938624
 30
0.0
 10
8.71000082493891
 20
3.186277817664246
 30
0.0
 10
9.027838593888008
 20
3.372403232855494
 30
0.0
 10
9.230043311919443
 20
3.421595882870225
 30
0.0
 10
9.638519239561528
 20
3.421153887701449
 30
0.0
 10
9.840417310879324
 20
3.371841855482967
 30
0.0
 10
9.999999999999858
 20
3.277493800720758
 30
0.0
  0
SPLINE
  5
AE
330
1F
100
AcDbEntity
  8
0
  6
Continuous
 62
     4
370
    15
100
AcDbSpline
210
0.0
220
0.0
230
1.0
 70
     8
 71
     3
 72
    12
 73
     8
 74
     0
 42
0.000000001
 43
0.00000001
 40
0.0
 40
0.0
 40
0.0
 40
0.0
 40
0.4999999999999992
 40
0.4999999999999992
 40
0.7499999999999996
 40
0.7499999999999996
 40
1.0
 40
1.0
 40
1.0
 40
1.0
 10
8.79542242231468
 20
1.443570715220376
 30
0.0
 10
8.662179642488818
 20
1.570929192983248
 30
0.0
 10
8.574962316727882
 20
1.731834744645734
 30
0.0
 10
8.506399893419838
 20
1.98070775609499
 30
0.0
 10
8.493435429109867
 20
2.065553349734676
 30
0.0
 10
8.480446281944985
 20
2.231918914355028
 30
0.0
 10
8.480390585943503
 20
2.314156905576619
 30
0.0
 10
8.480390585943503
 20
2.395116375841194
 30
0.0
  0
SPLINE
  5
AF
330
1F
100
AcDbEntity
  8
0
  6
Continuous
 62
     4
370
    15
100
AcDbSpline
210
0.0
220
0.0
230
1.0
 70
     8
 71
     3
 72
     8
 73
     4
 74
     0
 42
0.000000001
 43
0.00000001
 40
0.0
 40
0.0
 40
0.0
 40
0.0
 40
1.0
 40
1.0
 40
1.0
 40
1.0
 10
9.999999999994747
 20
0.2627155499102927
 30
0.0
 10
9.602674941405168
 20
0.6619705073873562
 30
0.0
 10
9.194745608221053
 20
1.061882543006292
 30
0.0
 10
8.79542242231468
 20
1.443570715220375
 30
0.0
  0
SPLINE
  5
B0
330
1F
100
AcDbEntity
  8
0
  6
Continuous
 62
     4
370
    15
100
AcDbSpline
210
0.0
220
0.0
230
1.0
 70
     8
 71
     3
 72
    14
 73
    10
 74
     0
 42
0.000000001
 43
0.00000001
 40
0.0
 40
0.0
 40
0.0
 40
0.0
 40
0.25
 40
0.25
 40
0.5
 40
0.5
 40
0.75
 40
0.75
 40
1.0
 40
1.0
 40
1.0
 40
1.0
 10
8.480390585943502
 20
-2.367356656382545
 30
0.0
 10
8.480390585943503
 20
-2.190954050101166
 30
0.0
 10
8.484329383428069
 20
-2.007330437818314
 30
0.0
 10
8.599946199681142
 20
-1.645121440685474
 30
0.0
 10
8.710000824938911
 20
-1.474291937398348
 30
0.0
 10
9.02783859388801
 20
-1.228172942749572
 30
0.0
 10
9.230043311919445
 20
-1.158098357482244
 30
0.0
 10
9.63851923956153
 20
-1.158714662224985
 30
0.0
 10
9.840417310879324
 20
-1.228997476914972
 30
0.0
 10
9.999999999999858
 20
-1.353673604377823
 30
0.0
  0
SPLINE
  5
B1
330
1F
100
AcDbEntity
  8
0
  6
Continuous
 62
     4
370
    15
100
AcDbSpline
210
0.0
220
0.0
230
1.0
 70
     8
 71
     3
 72
    12
 73
     8
 74
     0
 42
0.000000001
 43
0.00000001
 40
0.0
 40
0.0
 40
0.0
 40
0.0
 40
0.5000000000000011
 40
0.5000000000000011
 40
0.7500000000000006
 40
0.7500000000000006
 40
1.0
 40
1.0
 40
1.0
 40
1.0
 10
8.79542242231468
 20
-3.208625865165166
 30
0.0
 10
8.662179642488818
 20
-3.109864234439812
 30
0.0
 10
8.574962316727879
 20
-2.979360116776506
 30
0.0
 10
8.506399893419838
 20
-2.761284166613306
 30
0.0
 10
8.493435429109866
 20
-2.684438362168247
 30
0.0
 10
8.480446281944984
 20
-2.528416220743433
 30
0.0
 10
8.480390585943502
 20
-2.448631339251091
 30
0.0
 10
8.480390585943502
 20
-2.367356656382537
 30
0.0
  0
SPLINE
  5
B2
330
1F
100
AcDbEntity
  8
0
  6
Continuous
 62
     4
370
    15
100
AcDbSpline
210
0.0
220
0.0
230
1.0
 70
     8
 71
     3
 72
     8
 73
     4
 74
     0
 42
0.000000001
 43
0.00000001
 40
0.0
 40
0.0
 40
0.0
 40
0.0
 40
1.0
 40
1.0
 40
1.0
 40
1.0
 10
9.999999999994747
 20
-3.986808090132904
 30
0.0
 10
9.602674941405168
 20
-3.768077965493702
 30
0.0
 10
9.194745608221053
 20
-3.504610451182518
 30
0.0
 10
8.79542242231468
 20
-3.20862586516517
 30
0.0
  0
SPLINE
  5
B3
330
1F
100
AcDbEntity
  8
0
  6
Continuous
 62
     4
370
    15
100
AcDbSpline
210
0.0
220
0.0
230
1.0
 70
     8
 71
     3
 72
    14
 73
    10
 74
     0
 42
0.000000001
 43
0.00000001
 40
0.0
 40
0.0
 40
0.0
 40
0.0
 40
0.2500000000000001
 40
0.2500000000000001
 40
0.5
 40
0.5
 40
0.75
 40
0.75
 40
1.0
 40
1.0
 40
1.0
 40
1.0
 10
8.480390585943502
 20
-4.762473032223764
 30
0.0
 10
8.480390585943502
 20
-4.761788879140518
 30
0.0
 10
8.484329383428063
 20
-4.74770886654916
 30
0.0
 10
8.599946199681137
 20
-4.696844658624117
 30
0.0
 10
8.710000824938911
 20
-4.660569755062618
 30
0.0
 10
9.02783859388801
 20
-4.600576175605088
 30
0.0
 10
9.230043311919443
 20
-4.579694240352493
 30
0.0
 10
9.638519239561528
 20
-4.579868549926455
 30
0.0
 10
9.840417310879326
 20
-4.600839332397958
 30
0.0
 10
9.999999999999858
 20
-4.631167405098601
 30
0.0
  0
SPLINE
  5
B4
330
1F
100
AcDbEntity
  8
0
  6
Continuous
 62
     4
370
    15
100
AcDbSpline
210
0.0
220
0.0
230
1.0
 70
     8
 71
     3
 72
    12
 73
     8
 74
     0
 42
0.000000001
 43
0.00000001
 40
0.0
 40
0.0
 40
0.0
 40
0.0
 40
0.5
 40
0.5
 40
0.75
 40
0.75
 40
1.0
 40
1.0
 40
1.0
 40
1.0
 10
8.79542242231468
 20
-4.652196580385549
 30
0.0
 10
8.662179642488818
 20
-4.680793427423064
 30
0.0
 10
8.57496231672788
 20
-4.711194861422248
 30
0.0
 10
8.506399893419838
 20
-4.741991922708307
 30
0.0
 10
8.493435429109867
 20
-4.749991711902936
 30
0.0
 10
8.480446281944985
 20
-4.760335135098478
 30
0.0
 10
8.480390585943505
 20
-4.762788244827727
 30
0.0
 10
8.480390585943505
 20
-4.76247303222375
 30
0.0
  0
LINE
  5
B5
330
1F
100
AcDbEntity
  8
0
  6
Continuous
 62
     4
370
    15
100
AcDbLine
 10
8.86618534379383
 20
-4.632760248518177
 30
0.0
 11
8.79542242231468
 21
-4.65219658038555
 31
0.0
  0
LINE
  5
B6
330
1F
100
AcDbEntity
  8
0
  6
Continuous
 62
     4
370
    15
100
AcDbLine
 10
-52.99999999999999
 20
4.762499999999999
 30
0.0
 11
-52.99999999999999
 21
-4.762499999999998
 31
0.0
  0
LINE
  5
B7
330
1F
100
AcDbEntity
  8
0
  6
Continuous
 62
     1
370
    15
100
AcDbLine
 10
10.0
 20
-3.98680809013593
 30
0.0
 11
9.999999999999996
 21
-4.631167405098523
 31
0.0
  0
LINE
  5
B8
330
1F
100
AcDbEntity
  8
0
  6
Continuous
 62
     1
370
    15
100
AcDbLine
 10
10.0
 20
0.2627155499049622
 30
0.0
 11
9.999999999999996
 21
-1.353673604377498
 31
0.0
  0
LINE
  5
B9
330
1F
100
AcDbEntity
  8
0
  6
Continuous
 62
     1
370
    15
100
AcDbLine
 10
9.999999999999998
 20
4.249523640040915
 30
0.0
 11
9.999999999999996
 21
3.277493800721003
 31
0.0
  0
LINE
  5
BA
330
1F
100
AcDbEntity
  8
0
  6
Continuous
 62
     4
370
    15
100
AcDbLine
 10
-53.49999999999999
 20
4.262499999999998
 30
0.0
 11
-53.49999999999999
 21
-4.262499999999996
 31
0.0
  0
SPLINE
  5
BB
330
1F
100
AcDbEntity
  8
0
  6
Continuous
 62
     1
370
    15
100
AcDbSpline
210
0.0
220
0.0
230
1.0
 70
    24
 71
     3
 72
    14
 73
    10
 74
     0
 42
0.000000001
 43
0.00000001
 40
0.0
 40
0.0
 40
0.0
 40
0.0
 40
0.25
 40
0.25
 40
0.5
 40
0.5
 40
0.75
 40
0.75
 40
1.0
 40
1.0
 40
1.0
 40
1.0
 10
9.999999999999998
 20
2.915431542507068
 30
0.0
 10
9.999999999999998
 20
2.726618102562853
 30
0.0
 10
9.999999999999998
 20
2.513434176596727
 30
0.0
 10
9.999999999999998
 20
2.04718490557535
 30
0.0
 10
9.999999999999998
 20
1.793692128976811
 30
0.0
 10
9.999999999999998
 20
1.283482530742829
 30
0.0
 10
9.999999999999998
 20
1.027312806944664
 30
0.0
 10
9.999999999999998
 20
0.5794372031587813
 30
0.0
 10
9.999999999999998
 20
0.3895962906238788
 30
0.0
 10
9.999999999999998
 20
0.2627155499049617
 30
0.0
  0
SPLINE
  5
BD
330
1F
100
AcDbEntity
  8
0
  6
Continuous
 62
     1
370
    15
100
AcDbSpline
210
0.0
220
0.0
230
1.0
 70
    24
 71
     3
 72
     8
 73
     4
 74
     0
 42
0.000000001
 43
0.00000001
 40
0.0
 40
0.0
 40
0.0
 40
0.0
 40
1.0
 40
1.0
 40
1.0
 40
1.0
 10
9.999999999999996
 20
-1.353673604377534
 30
0.0
 10
9.999999999999996
 20
-1.371417745934594
 30
0.0
 10
9.999999999999996
 20
-1.399955332109774
 30
0.0
 10
9.999999999999996
 20
-1.440880697708307
 30
0.0
  0
SPLINE
  5
BE
330
1F
100
AcDbEntity
  8
0
  6
Continuous
 62
     1
370
    15
100
AcDbSpline
210
0.0
220
0.0
230
1.0
 70
    24
 71
     3
 72
     8
 73
     4
 74
     0
 42
0.000000001
 43
0.00000001
 40
0.0
 40
0.0
 40
0.0
 40
0.0
 40
1.0
 40
1.0
 40
1.0
 40
1.0
 10
9.999999999999996
 20
3.277493800721091
 30
0.0
 10
9.999999999999996
 20
3.160142910681376
 30
0.0
 10
9.999999999999996
 20
3.039612065132772
 30
0.0
 10
9.999999999999996
 20
2.915431542506686
 30
0.0
  0
SPLINE
  5
BF
330
1F
100
AcDbEntity
  8
0
  6
Continuous
 62
     1
370
    15
100
AcDbSpline
210
0.0
220
0.0
230
1.0
 70
    24
 71
     3
 72
    14
 73
    10
 74
     0
 42
0.000000001
 43
0.00000001
 40
0.0
 40
0.0
 40
0.0
 40
0.0
 40
0.25
 40
0.25
 40
0.5
 40
0.5
 40
0.75
 40
0.75
 40
1.0
 40
1.0
 40
1.0
 40
1.0
 10
9.999999999999998
 20
-1.440880697708181
 30
0.0
 10
9.999999999999998
 20
-1.503106712675339
 30
0.0
 10
9.999999999999998
 20
-1.593759254206424
 30
0.0
 10
9.999999999999998
 20
-1.856690822835716
 30
0.0
 10
9.999999999999998
 20
-2.02979970890008
 30
0.0
 10
9.999999999999998
 20
-2.469284639646119
 30
0.0
 10
9.999999999999998
 20
-2.736447668688609
 30
0.0
 10
9.999999999999998
 20
-3.334111646871577
 30
0.0
 10
9.999999999999998
 20
-3.663767314170651
 30
0.0
 10
9.999999999999998
 20
-3.98680809013593
 30
0.0
  0
LINE
  5
C0
330
1F
100
AcDbEntity
  8
0
  6
Continuous
 62
     4
370
    15
100
AcDbLine
 10
9.999999999999998
 20
4.356312240215301
 30
0.0
 11
9.999999999999998
 21
4.319507785644516
 31
0.0
  0
SPLINE
  5
C1
330
1F
100
AcDbEntity
  8
0
  6
Continuous
 62
     1
370
    15
100
AcDbSpline
210
0.0
220
0.0
230
1.0
 70
    24
 71
     3
 72
     8
 73
     4
 74
     0
 42
0.000000001
 43
0.00000001
 40
0.0
 40
0.0
 40
0.0
 40
0.0
 40
1.0
 40
1.0
 40
1.0
 40
1.0
 10
9.999999999999996
 20
4.63116740509865
 30
0.0
 10
9.999999999999996
 20
4.531560656616002
 30
0.0
 10
9.999999999999996
 20
4.439567397242587
 30
0.0
 10
9.999999999999996
 20
4.356312240215042
 30
0.0
  0
SPLINE
  5
C2
330
1F
100
AcDbEntity
  8
0
  6
Continuous
 62
     1
370
    15
100
AcDbSpline
210
0.0
220
0.0
230
1.0
 70
     8
 71
     3
 72
    25
 73
    21
 74
     0
 42
0.000000001
 43
0.00000001
 40
0.0
 40
0.0
 40
0.0
 40
0.0
 40
0.0173835957825722
 40
0.0723695567919909
 40
0.1318537025348049
 40
0.191402459169912
 40
0.2510483044026812
 40
0.3105653113586561
 40
0.3700555304605516
 40
0.4296532470764431
 40
0.4892645280583752
 40
0.5487583065536257
 40
0.6082684078121782
 40
0.6679092413050518
 40
0.7274686343340744
 40
0.7869529838671612
 40
0.846496724162982
 40
0.9061442615951023
 40
0.9656650252558528
 40
1.0
 40
1.0
 40
1.0
 40
1.0
 10
44.35034251354622
 20
-4.454965560470509
 30
0.0
 10
44.25392193192263
 20
-4.493012931296812
 30
0.0
 10
43.8525139122584
 20
-4.651407742027549
 30
0.0
 10
43.12141028866453
 20
-4.765733598275347
 30
0.0
 10
42.15748804619424
 20
-4.770249435817824
 30
0.0
 10
41.16706416198735
 20
-4.555947281200138
 30
0.0
 10
40.17493607169611
 20
-4.149406707595109
 30
0.0
 10
39.18507301934406
 20
-3.562396586541771
 30
0.0
 10
38.19566049265522
 20
-2.821948822118701
 30
0.0
 10
37.20439255726755
 20
-1.960448479320102
 30
0.0
 10
36.21288175318983
 20
-1.014731409434788
 30
0.0
 10
35.22340659661862
 20
-0.024253396662359
 30
0.0
 10
34.23365826281055
 20
0.9673298571680059
 30
0.0
 10
33.24161541082952
 20
1.915692093521182
 30
0.0
 10
32.2510276776268
 20
2.782787053558144
 30
0.0
 10
31.26171626088213
 20
3.529369191432935
 30
0.0
 10
30.27140664977072
 20
4.12618161478152
 30
0.0
 10
29.27922154178505
 20
4.535200247375315
 30
0.0
 10
28.42873782798613
 20
4.749300673987345
 30
0.0
 10
27.90867492817843
 20
4.740597621477519
 30
0.0
 10
27.71842181383787
 20
4.737413808817788
 30
0.0
  0
SPLINE
  5
C3
330
1F
100
AcDbEntity
  8
0
  6
Continuous
 62
     1
370
    15
100
AcDbSpline
210
0.0
220
0.0
230
1.0
 70
     8
 71
     3
 72
    13
 73
     9
 74
     0
 42
0.000000001
 43
0.00000001
 40
0.0
 40
0.0
 40
0.0
 40
0.0
 40
0.0031710678101262
 40
0.2262336783563386
 40
0.4195236485787521
 40
0.6133302131567617
 40
0.8064610201835176
 40
1.0
 40
1.0
 40
1.0
 40
1.0
 10
14.43510550022599
 20
-4.468074303228295
 30
0.0
 10
14.43041342911004
 20
-4.470130766062233
 30
0.0
 10
14.09566672193462
 20
-4.61684511567002
 30
0.0
 10
13.47585269174163
 20
-4.725727631135298
 30
0.0
 10
12.57461630806813
 20
-4.788225530111668
 30
0.0
 10
11.71495725981385
 20
-4.672374863713742
 30
0.0
 10
10.85839369569989
 20
-4.418602711095698
 30
0.0
 10
10.28633252320723
 20
-4.130840885280928
 30
0.0
 10
9.999999999994774
 20
-3.986808090132914
 30
0.0
  0
SPLINE
  5
C4
330
1F
100
AcDbEntity
  8
0
  6
Continuous
 62
     1
370
    15
100
AcDbSpline
210
0.0
220
0.0
230
1.0
 70
    24
 71
     3
 72
    14
 73
    10
 74
     0
 42
0.000000001
 43
0.00000001
 40
0.0
 40
0.0
 40
0.0
 40
0.0
 40
0.25
 40
0.25
 40
0.5
 40
0.5
 40
0.75
 40
0.75
 40
1.0
 40
1.0
 40
1.0
 40
1.0
 10
9.999999999999998
 20
-1.346829467246894
 30
0.0
 10
9.999999999999998
 20
-1.379785586267151
 30
0.0
 10
9.999999999999998
 20
-1.440208674427051
 30
0.0
 10
9.999999999999998
 20
-1.65565155706112
 30
0.0
 10
9.999999999999998
 20
-1.811924910773843
 30
0.0
 10
9.999999999999998
 20
-2.253267323442067
 30
0.0
 10
9.999999999999998
 20
-2.540438203503721
 30
0.0
 10
9.999999999999998
 20
-3.21754321966531
 30
0.0
 10
9.999999999999998
 20
-3.60638811532276
 30
0.0
 10
9.999999999999998
 20
-3.986808090135929
 30
0.0
  0
SPLINE
  5
C5
330
1F
100
AcDbEntity
  8
0
  6
Continuous
 62
     1
370
    15
100
AcDbSpline
210
0.0
220
0.0
230
1.0
 70
     8
 71
     3
 72
    14
 73
    10
 74
     0
 42
0.000000001
 43
0.00000001
 40
0.0
 40
0.0
 40
0.0
 40
0.0
 40
0.1403689312379497
 40
0.2804418250662276
 40
0.4210048287697125
 40
0.5611931596416725
 40
0.7229748341716852
 40
0.8850961256084179
 40
1.0
 40
1.0
 40
1.0
 40
1.0
 10
9.999999999997288
 20
-1.346829467242329
 30
0.0
 10
10.2863327960822
 20
-1.616894382945617
 30
0.0
 10
10.85839451374427
 20
-2.156454648726931
 30
0.0
 10
11.71495399093701
 20
-2.886887060426837
 30
0.0
 10
12.57462860127995
 20
-3.523588662138105
 30
0.0
 10
13.47580396069845
 20
-4.076056169774672
 30
0.0
 10
14.42144497121607
 20
-4.492603417835578
 30
0.0
 10
15.3170669927672
 20
-4.735941429415923
 30
0.0
 10
15.88197615828652
 20
-4.739711610314101
 30
0.0
 10
16.11628790972398
 20
-4.741275397456192
 30
0.0
  0
SPLINE
  5
C6
330
1F
100
AcDbEntity
  8
0
  6
Continuous
 62
     1
370
    15
100
AcDbSpline
210
0.0
220
0.0
230
1.0
 70
     8
 71
     3
 72
    24
 73
    20
 74
     0
 42
0.000000001
 43
0.00000001
 40
0.0
 40
0.0
 40
0.0
 40
0.0
 40
0.0524844659666433
 40
0.1119958669165596
 40
0.1714479093600028
 40
0.230974954541822
 40
0.290583395955616
 40
0.3500611761382694
 40
0.4095226424228267
 40
0.4691015473762135
 40
0.528666895330627
 40
0.5881248041550038
 40
0.6476094862844631
 40
0.707222936716181
 40
0.7667393512809134
 40
0.8261911900447665
 40
0.8913866590823031
 40
0.9566686715427287
 40
1.0
 40
1.0
 40
1.0
 40
1.0
 10
29.39761338020535
 20
4.459252837862303
 30
0.0
 10
29.68902874775114
 20
4.549406684784269
 30
0.0
 10
30.31087591948078
 20
4.741784716187036
 30
0.0
 10
31.26173709963501
 20
4.79031580984086
 30
0.0
 10
32.25102208862572
 20
4.652604061678168
 30
0.0
 10
33.24161691164132
 20
4.309364486148757
 30
0.0
 10
34.23365786121327
 20
3.78237943465287
 30
0.0
 10
35.22340670484455
 20
3.091165030281719
 30
0.0
 10
36.21288172129997
 20
2.266663800668
 30
0.0
 10
37.2043925764046
 20
1.345381067396032
 30
0.0
 10
38.1956604480721
 20
0.3659871799583566
 30
0.0
 10
39.18507317828002
 20
-0.6299995343740962
 30
0.0
 10
40.1749354795839
 20
-1.598827027333054
 30
0.0
 10
41.16706637504186
 20
-2.497450663813911
 30
0.0
 10
42.15747980644461
 20
-3.289075064783711
 30
0.0
 10
43.17819082936185
 20
-3.961820738216669
 30
0.0
 10
44.23181638757212
 20
-4.456580565489633
 30
0.0
 10
45.19695221700478
 20
-4.736212977232676
 30
0.0
 10
45.79963185873508
 20
-4.735303759744826
 30
0.0
 10
46.04007110210681
 20
-4.734941027125865
 30
0.0
  0
SPLINE
  5
C7
330
1F
100
AcDbEntity
  8
0
  6
Continuous
 62
     1
370
    15
100
AcDbSpline
210
0.0
220
0.0
230
1.0
 70
     8
 71
     3
 72
    14
 73
    10
 74
     0
 42
0.000000001
 43
0.00000001
 40
0.0
 40
0.0
 40
0.0
 40
0.0
 40
0.25
 40
0.25
 40
0.5
 40
0.5
 40
0.75
 40
0.75
 40
1.0
 40
1.0
 40
1.0
 40
1.0
 10
48.10000000000001
 20
2.051022574929937
 30
0.0
 10
48.10000000000001
 20
2.038679555177731
 30
0.0
 10
48.09229221219363
 20
2.033710642990874
 30
0.0
 10
48.04926496129323
 20
2.054099241335072
 30
0.0
 10
48.01376457563788
 20
2.080515535643952
 30
0.0
 10
47.93196101090435
 20
2.148669224299047
 30
0.0
 10
47.88806528013984
 20
2.187701978588303
 30
0.0
 10
47.80251575233534
 20
2.263637782480014
 30
0.0
 10
47.75997466328157
 20
2.301432049001572
 30
0.0
 10
47.71899999999999
 20
2.337082522585323
 30
0.0
  0
SPLINE
  5
C8
330
1F
100
AcDbEntity
  8
0
  6
Continuous
 62
     1
370
    15
100
AcDbSpline
210
0.0
220
0.0
230
1.0
 70
     8
 71
     3
 72
    13
 73
     9
 74
     0
 42
0.000000001
 43
0.00000001
 40
0.0
 40
0.0
 40
0.0
 40
0.0
 40
0.1816567322782666
 40
0.3631098752304717
 40
0.5442658064003849
 40
0.7258927545883456
 40
0.9073804452408405
 40
1.0
 40
1.0
 40
1.0
 40
1.0
 10
47.71899999999999
 20
2.337082522585328
 30
0.0
 10
47.41369173952627
 20
2.594434299276283
 30
0.0
 10
46.80341738868295
 20
3.108849429134771
 30
0.0
 10
45.88903345370087
 20
3.742455252050601
 30
0.0
 10
44.97634097737667
 20
4.248256782927964
 30
0.0
 10
44.06116999989503
 20
4.585142444827466
 30
0.0
 10
43.29563508567821
 20
4.758673369438403
 30
0.0
 10
42.83552413896861
 20
4.742387304795974
 30
0.0
 10
42.68005480447488
 20
4.736884319810314
 30
0.0
  0
SPLINE
  5
C9
330
1F
100
AcDbEntity
  8
0
  6
Continuous
 62
     1
370
    15
100
AcDbSpline
210
0.0
220
0.0
230
1.0
 70
     8
 71
     3
 72
    25
 73
    21
 74
     0
 42
0.000000001
 43
0.00000001
 40
0.0
 40
0.0
 40
0.0
 40
0.0
 40
0.0071305100152714
 40
0.0666175641879117
 40
0.1260726175409776
 40
0.1856299167643667
 40
0.2452135895065615
 40
0.3046757574775957
 40
0.3641490083429558
 40
0.423752746924023
 40
0.4832840250510463
 40
0.5427350930609695
 40
0.60224029874128
 40
0.6618552038724617
 40
0.721346214888324
 40
0.7807999981795569
 40
0.8403508326515112
 40
0.8999401170808138
 40
0.9594045719564399
 40
1.0
 40
1.0
 40
1.0
 40
1.0
 10
29.39761338020535
 20
-4.459252837862292
 30
0.0
 10
29.35802574617641
 20
-4.476135653048233
 30
0.0
 10
28.98817397606149
 20
-4.633865187389149
 30
0.0
 10
28.28935368461382
 20
-4.750673655643204
 30
0.0
 10
27.29991602099695
 20
-4.781532341973786
 30
0.0
 10
26.30878086838256
 20
-4.587461199417951
 30
0.0
 10
25.31715593314553
 20
-4.20103252616107
 30
0.0
 10
24.32764594844946
 20
-3.631655952857932
 30
0.0
 10
23.33794909959742
 20
-2.905870307785425
 30
0.0
 10
22.3459665139594
 20
-2.055992623394583
 30
0.0
 10
21.35527953444639
 20
-1.116684162145229
 30
0.0
 10
20.36596242840919
 20
-0.1289332763366394
 30
0.0
 10
19.37573050287147
 20
0.8643814692805699
 30
0.0
 10
18.38354473913407
 20
1.818993142480034
 30
0.0
 10
17.39355489650768
 20
2.696843755838605
 30
0.0
 10
16.4041892163955
 20
3.45784640243064
 30
0.0
 10
15.4131591033808
 20
4.070934734856169
 30
0.0
 10
14.42142433904449
 20
4.502596039435412
 30
0.0
 10
13.5365390584915
 20
4.734975683673249
 30
0.0
 10
12.98181503671817
 20
4.745385766731864
 30
0.0
 10
12.75675721681126
 20
4.749609255360917
 30
0.0
  0
SPLINE
  5
CA
330
1F
100
AcDbEntity
  8
0
  6
Continuous
 62
     1
370
    15
100
AcDbSpline
210
0.0
220
0.0
230
1.0
 70
     8
 71
     3
 72
    24
 73
    20
 74
     0
 42
0.000000001
 43
0.00000001
 40
0.0
 40
0.0
 40
0.0
 40
0.0
 40
0.0587416965254758
 40
0.1182902616308853
 40
0.1777417792540052
 40
0.2372305231830788
 40
0.2968431565061068
 40
0.356346094558697
 40
0.4157948970039813
 40
0.4753239065097141
 40
0.5349253737081637
 40
0.5943963581635401
 40
0.6538562601469375
 40
0.7134376622711851
 40
0.77299269188167
 40
0.832445479518223
 40
0.8919302667548611
 40
0.9515417511363836
 40
1.0
 40
1.0
 40
1.0
 40
1.0
 10
14.43510550022599
 20
4.468074303228306
 30
0.0
 10
14.76116770060775
 20
4.562949080408064
 30
0.0
 10
15.41777085088234
 20
4.754001822813935
 30
0.0
 10
16.40421050887333
 20
4.785799053400742
 30
0.0
 10
17.39354919155067
 20
4.625774108048339
 30
0.0
 10
18.38354627175563
 20
4.262273296511366
 30
0.0
 10
19.37573009291438
 20
3.716961729628641
 30
0.0
 10
20.36596253716965
 20
3.0103722600712
 30
0.0
 10
21.35527950857507
 20
2.173981446506805
 30
0.0
 10
22.3459665085537
 20
1.244076268749146
 30
0.0
 10
23.33794914716625
 20
0.2615955780304574
 30
0.0
 10
24.32764576407385
 20
-0.7336523649058609
 30
0.0
 10
25.31715662370445
 20
-1.697171405619267
 30
0.0
 10
26.30877828524531
 20
-2.586584277938294
 30
0.0
 10
27.29992564914879
 20
-3.364513638822638
 30
0.0
 10
28.28931781197877
 20
-3.99950114868197
 30
0.0
 10
29.27922260172123
 20
-4.455949880042533
 30
0.0
 10
30.21007283023761
 20
-4.724554267848469
 30
0.0
 10
30.8093659715275
 20
-4.740022534079412
 30
0.0
 10
31.07808779872966
 20
-4.74695847323647
 30
0.0
  0
SPLINE
  5
CB
330
1F
100
AcDbEntity
  8
0
  6
Continuous
 62
     1
370
    15
100
AcDbSpline
210
0.0
220
0.0
230
1.0
 70
     8
 71
     3
 72
    10
 73
     6
 74
     0
 42
0.000000001
 43
0.00000001
 40
0.0
 40
0.0
 40
0.0
 40
0.0
 40
0.3083744820506716
 40
0.654370029727134
 40
0.9312171468501611
 40
0.9312171468501611
 40
0.9312171468501611
 40
0.9312171468501611
 10
44.35034251354622
 20
4.454965560470523
 30
0.0
 10
44.67313824537095
 20
4.552982117021872
 30
0.0
 10
45.35811013806871
 20
4.760973052580925
 30
0.0
 10
46.33258405116537
 20
4.794599909944647
 30
0.0
 10
46.98393973963531
 20
4.659696768486175
 30
0.0
 10
47.27344411947523
 20
4.593545276073616
 30
0.0
  0
SPLINE
  5
CC
330
1F
100
AcDbEntity
  8
0
  6
Continuous
 62
     1
370
    15
100
AcDbSpline
210
0.0
220
0.0
230
1.0
 70
     8
 71
     3
 72
    16
 73
    12
 74
     0
 42
0.000000001
 43
0.00000001
 40
0.0438546029699834
 40
0.0438546029699834
 40
0.0438546029699834
 40
0.0438546029699834
 40
0.2499999999999999
 40
0.2499999999999999
 40
0.4999999999999999
 40
0.4999999999999999
 40
0.7499999999999998
 40
0.7499999999999998
 40
0.8749999999999999
 40
0.8749999999999999
 40
1.0
 40
1.0
 40
1.0
 40
1.0
 10
47.48079568572951
 20
4.464844473255897
 30
0.0
 10
47.46608659701533
 20
4.342180530558822
 30
0.0
 10
47.44416875340566
 20
4.222114939998216
 30
0.0
 10
47.37504484726943
 20
3.963875789235447
 30
0.0
 10
47.32217309044523
 20
3.824549811691186
 30
0.0
 10
47.18000680453842
 20
3.578059969607402
 30
0.0
 10
47.08889085399854
 20
3.469675983123851
 30
0.0
 10
46.93016383861608
 20
3.35509471568383
 30
0.0
 10
46.87239777649276
 20
3.323989985265927
 30
0.0
 10
46.75392219876798
 20
3.280245807769819
 30
0.0
 10
46.69314759618692
 20
3.267216621244202
 30
0.0
 10
46.63093485845451
 20
3.26246253557956
 30
0.0
  0
SPLINE
  5
CD
330
1F
100
AcDbEntity
  8
0
  6
Continuous
 62
     1
370
    15
100
AcDbSpline
210
0.0
220
0.0
230
1.0
 70
     8
 71
     3
 72
     8
 73
     4
 74
     0
 42
0.000000001
 43
0.00000001
 40
0.0
 40
0.0
 40
0.0
 40
0.0
 40
1.0
 40
1.0
 40
1.0
 40
1.0
 10
48.10000000000001
 20
2.585374663495466
 30
0.0
 10
47.61232526839262
 20
2.846603633069276
 30
0.0
 10
47.12256731793492
 20
3.071071953573062
 30
0.0
 10
46.63093485845448
 20
3.262462535579565
 30
0.0
  0
LINE
  5
CE
330
1F
100
AcDbEntity
  8
0
  6
Continuous
 62
     1
370
    15
100
AcDbLine
 10
48.10000000000001
 20
2.051022574929939
 30
0.0
 11
48.10000000000001
 21
2.585374663495466
 31
0.0
  0
SPLINE
  5
CF
330
1F
100
AcDbEntity
  8
0
  6
Continuous
 62
     1
370
    15
100
AcDbSpline
210
0.0
220
0.0
230
1.0
 70
     8
 71
     3
 72
     9
 73
     5
 74
     0
 42
0.000000001
 43
0.00000001
 40
0.0
 40
0.0
 40
0.0
 40
0.0
 40
0.7610164565696691
 40
1.0
 40
1.0
 40
1.0
 40
1.0
 10
9.999999999997288
 20
-4.629497705092137
 30
0.0
 10
10.28632384141878
 20
-4.690805951481404
 30
0.0
 10
10.66256254026652
 20
-4.77136695099726
 30
0.0
 10
11.03820477790783
 20
-4.750792050594097
 30
0.0
 10
11.12797709092145
 20
-4.745874987990023
 30
0.0
  0
SPLINE
  5
D0
330
1F
100
AcDbEntity
  8
0
  6
Continuous
 62
     1
370
    15
100
AcDbSpline
210
0.0
220
0.0
230
1.0
 70
     8
 71
     3
 72
    24
 73
    20
 74
     0
 42
0.000000001
 43
0.00000001
 40
0.0
 40
0.0
 40
0.0
 40
0.0
 40
0.0544603490626068
 40
0.1140449693429047
 40
0.1736032156849877
 40
0.2330592145307674
 40
0.2925472147050189
 40
0.3521619188674175
 40
0.4116728830291421
 40
0.4711244891200597
 40
0.5306510973988653
 40
0.5902591013122321
 40
0.649736444953456
 40
0.7091974748163206
 40
0.7687759424860652
 40
0.8283408532563391
 40
0.8877983256851335
 40
0.9472825712225059
 40
1.0
 40
1.0
 40
1.0
 40
1.0
 10
24.41090677025147
 20
4.462002410312487
 30
0.0
 10
24.71277764224856
 20
4.553808741184588
 30
0.0
 10
25.34492295411293
 20
4.74605962407476
 30
0.0
 10
26.30878053125416
 20
4.789043556278455
 30
0.0
 10
27.29992604809859
 20
4.644030755538583
 30
0.0
 10
28.28931398186661
 20
4.294097988343625
 30
0.0
 10
29.27923754808883
 20
3.760043215149683
 30
0.0
 10
30.27140236531483
 20
3.064704826006553
 30
0.0
 10
31.26171740639089
 20
2.23639253074779
 30
0.0
 10
32.25102737165739
 20
1.311542142681582
 30
0.0
 10
33.24161548828393
 20
0.3303433499078293
 30
0.0
 10
34.23365825966559
 20
-0.6639527396269318
 30
0.0
 10
35.22340653207654
 20
-1.631141993942071
 30
0.0
 10
36.21288201467786
 20
-2.527984994885655
 30
0.0
 10
37.2043915738094
 20
-3.314617142680112
 30
0.0
 10
38.19566416047814
 20
-3.960053017916646
 30
0.0
 10
39.18505935529335
 20
-4.430090597550601
 30
0.0
 10
40.13675723748015
 20
-4.716717611955483
 30
0.0
 10
40.7597831032416
 20
-4.740703698342888
 30
0.0
 10
41.05250887498583
 20
-4.751973448179513
 30
0.0
  0
LINE
  5
D1
330
1F
100
AcDbEntity
  8
0
  6
Continuous
 62
     1
370
    15
100
AcDbLine
 10
9.999999999999998
 20
-4.62949770508388
 30
0.0
 11
9.999999999999998
 21
-3.98680809013593
 31
0.0
  0
SPLINE
  5
D2
330
1F
100
AcDbEntity
  8
0
  6
Continuous
 62
     1
370
    15
100
AcDbSpline
210
0.0
220
0.0
230
1.0
 70
     8
 71
     3
 72
    24
 73
    20
 74
     0
 42
0.000000001
 43
0.00000001
 40
0.0
 40
0.0
 40
0.0
 40
0.0
 40
0.053359367153811
 40
0.106606199655583
 40
0.1600393408550579
 40
0.2133300552012143
 40
0.2748291896170175
 40
0.3364574248463518
 40
0.3980458944863068
 40
0.4595339921709337
 40
0.5210605913914074
 40
0.5827153239794067
 40
0.6442566035594108
 40
0.7057418930546647
 40
0.7673101371954019
 40
0.8289533211503926
 40
0.8904615525259871
 40
0.9519583217867886
 40
1.0
 40
1.0
 40
1.0
 40
1.0
 10
9.999999999997288
 20
4.629497705092141
 30
0.0
 10
10.28633282291036
 20
4.682142904988094
 30
0.0
 10
10.85839459417216
 20
4.78732227630332
 30
0.0
 10
11.71495366954906
 20
4.74997317280199
 30
0.0
 10
12.57462980991786
 20
4.570068649451558
 30
0.0
 10
13.47579916958364
 20
4.221897028049336
 30
0.0
 10
14.42146596534253
 20
3.69409672376949
 30
0.0
 10
15.41314794717087
 20
2.983116063613056
 30
0.0
 10
16.40419219947234
 20
2.143313049902883
 30
0.0
 10
17.3935540968952
 20
1.210568632308963
 30
0.0
 10
18.38354495524807
 20
0.2255262738531024
 30
0.0
 10
19.37573044020218
 20
-0.7676536685764271
 30
0.0
 10
20.36596246313896
 20
-1.729195826504146
 30
0.0
 10
21.35527945810142
 20
-2.6162657144429
 30
0.0
 10
22.34596678515561
 20
-3.389807412703981
 30
0.0
 10
23.33794809092547
 20
-4.018379741859921
 30
0.0
 10
24.32764970220916
 20
-4.46824495724182
 30
0.0
 10
25.2443572282501
 20
-4.728507490667966
 30
0.0
 10
25.83233205388977
 20
-4.739842666851741
 30
0.0
 10
26.09020769502072
 20
-4.744814080079415
 30
0.0
  0
SPLINE
  5
D3
330
1F
100
AcDbEntity
  8
0
  6
Continuous
 62
     1
370
    15
100
AcDbSpline
210
0.0
220
0.0
230
1.0
 70
     8
 71
     3
 72
    15
 73
    11
 74
     0
 42
0.000000001
 43
0.00000001
 40
0.0
 40
0.0
 40
0.0
 40
0.0
 40
0.0988492264834893
 40
0.2210887484462465
 40
0.3431292948773468
 40
0.4650374263085993
 40
0.5987230779790143
 40
0.7325861900474828
 40
0.8663637694304761
 40
1.0
 40
1.0
 40
1.0
 40
1.0
 10
39.37257903389734
 20
4.454608326177638
 30
0.0
 10
39.63982026334533
 20
4.540767666020075
 30
0.0
 10
40.23753894111124
 20
4.733473884271575
 30
0.0
 10
41.16707835522857
 20
4.791989590168869
 30
0.0
 10
42.15747754872368
 20
4.669393003110999
 30
0.0
 10
43.17818788524634
 20
4.329183793733067
 30
0.0
 10
44.23183231183815
 20
3.771671563702589
 30
0.0
 10
45.31854939537911
 20
3.001271439635727
 30
0.0
 10
46.40455216419762
 20
2.079319345545348
 30
0.0
 10
47.12779465829507
 20
1.38321018158435
 30
0.0
 10
47.48922476063736
 20
1.035339573281928
 30
0.0
  0
ELLIPSE
  5
D5
330
1F
100
AcDbEntity
  8
0
  6
Continuous
 62
     1
370
    15
100
AcDbEllipse
 10
49.52814800674211
 20
0.0000000000000067
 30
0.0
 11
6.70993587483075
 21
4.458418716618108
 31
0.0
210
0.0
220
0.0
230
1.0
 40
0.2495534463455922
 41
1.675706723330211
 42
1.710930395344141
  0
SPLINE
  5
D6
330
1F
100
AcDbEntity
  8
0
  6
Continuous
 62
     1
370
    15
100
AcDbSpline
210
0.0
220
0.0
230
1.0
 70
     8
 71
     3
 72
    24
 73
    20
 74
     0
 42
0.000000001
 43
0.00000001
 40
0.0
 40
0.0
 40
0.0
 40
0.0
 40
0.056616580575484
 40
0.1160712643795842
 40
0.1756061631791372
 40
0.2352135268397547
 40
0.2946903948484463
 40
0.3541561792887534
 40
0.413743475890101
 40
0.473304397368614
 40
0.5327630667582438
 40
0.592253738913727
 40
0.6518711207484322
 40
0.711384757922846
 40
0.7708390343603073
 40
0.8303683163544778
 40
0.889978997639201
 40
0.9494590127830043
 40
1.0
 40
1.0
 40
1.0
 40
1.0
 10
19.42417308809441
 20
4.464968238274458
 30
0.0
 10
19.73822510745382
 20
4.558396983424747
 30
0.0
 10
20.38207209710745
 20
4.749937914875628
 30
0.0
 10
21.35525774588481
 20
4.78755998185285
 30
0.0
 10
22.3459723501259
 20
4.634873682653047
 30
0.0
 10
23.33794759007959
 20
4.278707813730608
 30
0.0
 10
24.32764616163273
 20
3.73866347621012
 30
0.0
 10
25.31715658850184
 20
3.036970452372641
 30
0.0
 10
26.3087780269944
 20
2.205389149613487
 30
0.0
 10
27.29992671587518
 20
1.278483263151037
 30
0.0
 10
28.28931380973193
 20
0.2958068094683946
 30
0.0
 10
29.27923756906312
 20
-0.6997192818930678
 30
0.0
 10
30.27140245419588
 20
-1.66350165376025
 30
0.0
 10
31.26171703090143
 20
-2.557077086225853
 30
0.0
 10
32.25102878421378
 20
-3.339983961295103
 30
0.0
 10
33.24161020268765
 20
-3.980178645748069
 30
0.0
 10
34.23367799758818
 20
-4.442780535943879
 30
0.0
 10
35.17387805622107
 20
-4.720703136645128
 30
0.0
 10
35.78386937034923
 20
-4.740370616454306
 30
0.0
 10
36.06408462514874
 20
-4.74940538094742
 30
0.0
  0
SPLINE
  5
D7
330
1F
100
AcDbEntity
  8
0
  6
Continuous
 62
     1
370
    15
100
AcDbSpline
210
0.0
220
0.0
230
1.0
 70
     8
 71
     3
 72
    25
 73
    21
 74
     0
 42
0.000000001
 43
0.00000001
 40
0.0
 40
0.0
 40
0.0
 40
0.0
 40
0.011277651061182
 40
0.0707329303732902
 40
0.1302956440639649
 40
0.1898719141540579
 40
0.2493307507690185
 40
0.3088059005605975
 40
0.3684117058048542
 40
0.4279361184168651
 40
0.4873855316074793
 40
0.5468943006794503
 40
0.6065068059255967
 40
0.6659926118571328
 40
0.7254464176405805
 40
0.7850024671488846
 40
0.8445848896225882
 40
0.9040458098747153
 40
0.9635178127886115
 40
1.0
 40
1.0
 40
1.0
 40
1.0
 10
39.3725790338973
 20
-4.454608326177626
 30
0.0
 10
39.31003528650664
 20
-4.480791020662707
 30
0.0
 10
38.91776365959878
 20
-4.64500772642451
 30
0.0
 10
38.19570782974598
 20
-4.759848567629637
 30
0.0
 10
37.20437986001358
 20
-4.774552331456531
 30
0.0
 10
36.21288514674508
 20
-4.566883952512765
 30
0.0
 10
35.22340569336278
 20
-4.166583981546692
 30
0.0
 10
34.23365848491435
 20
-3.585222385829627
 30
0.0
 10
33.24161542822612
 20
-2.850765971816649
 30
0.0
 10
32.25102738673463
 20
-1.992549460603459
 30
0.0
 10
31.26171740601268
 20
-1.048224139194267
 30
0.0
 10
30.27140235171591
 20
-0.0587213297130441
 30
0.0
 10
29.27923760292198
 20
0.93191106275395
 30
0.0
 10
28.28931377669554
 20
1.883924623993436
 30
0.0
 10
27.29992681424413
 20
2.754739589042662
 30
0.0
 10
26.30877766580659
 20
3.505605368198123
 30
0.0
 10
25.31715793410434
 20
4.107622959121345
 30
0.0
 10
24.32764115135335
 20
4.524435365683797
 30
0.0
 10
23.46612900855749
 20
4.745877299633349
 30
0.0
 10
22.93335794744181
 20
4.740194615530184
 30
0.0
 10
22.73079614615877
 20
4.738034035100667
 30
0.0
  0
SPLINE
  5
D8
330
1F
100
AcDbEntity
  8
0
  6
Continuous
 62
     1
370
    15
100
AcDbSpline
210
0.0
220
0.0
230
1.0
 70
     8
 71
     3
 72
    19
 73
    15
 74
     0
 42
0.000000001
 43
0.00000001
 40
0.0
 40
0.0
 40
0.0
 40
0.0
 40
0.0773270407360187
 40
0.1544909991101842
 40
0.2319249513209561
 40
0.3091525021503789
 40
0.3982754870331006
 40
0.4875855615384972
 40
0.5768380087609287
 40
0.6659449994929176
 40
0.7551077856735717
 40
0.8444562594787011
 40
0.9336403200638314
 40
1.0
 40
1.0
 40
1.0
 40
1.0
 10
9.999999999997288
 20
3.282668237849788
 30
0.0
 10
10.28633282289577
 20
3.06524259462882
 30
0.0
 10
10.85839459412843
 20
2.630849857836351
 30
0.0
 10
11.71495366972381
 20
1.86315711983031
 30
0.0
 10
12.57462980926067
 20
1.046212950851838
 30
0.0
 10
13.47579917218876
 20
0.1468994071922173
 30
0.0
 10
14.42146595392717
 20
-0.8031451364156147
 30
0.0
 10
15.41314798965911
 20
-1.761687133336811
 30
0.0
 10
16.40419204119222
 20
-2.644982194639896
 30
0.0
 10
17.39355468668432
 20
-3.414249532172783
 30
0.0
 10
18.38354275053324
 20
-4.038077216703624
 30
0.0
 10
19.37573868083274
 20
-4.480246266393473
 30
0.0
 10
20.28178672867177
 20
-4.732267181681778
 30
0.0
 10
20.85712923468399
 20
-4.739770795419769
 30
0.0
 10
21.10258780746028
 20
-4.742972064749855
 30
0.0
  0
SPLINE
  5
D9
330
1F
100
AcDbEntity
  8
0
  6
Continuous
 62
     1
370
    15
100
AcDbSpline
210
0.0
220
0.0
230
1.0
 70
     8
 71
     3
 72
    20
 73
    16
 74
     0
 42
0.000000001
 43
0.00000001
 40
0.0
 40
0.0
 40
0.0
 40
0.0
 40
0.063911426550007
 40
0.1394334780032363
 40
0.2151046883949201
 40
0.2907586800323754
 40
0.3662762131528495
 40
0.4418277510675266
 40
0.5175428376962932
 40
0.593134679000025
 40
0.6686445025322256
 40
0.7514493150406756
 40
0.8343640464133024
 40
0.917225798891818
 40
1.0
 40
1.0
 40
1.0
 40
1.0
 10
34.38640232366841
 20
4.456867882673257
 30
0.0
 10
34.66545493552356
 20
4.545090507039943
 30
0.0
 10
35.27425493134913
 20
4.737562933616043
 30
0.0
 10
36.21285613530433
 20
4.791274402699064
 30
0.0
 10
37.20439943523683
 20
4.661119423110321
 30
0.0
 10
38.19565861898772
 20
4.324933432509581
 30
0.0
 10
39.18507365022562
 20
3.803393139980964
 30
0.0
 10
40.17493542004683
 20
3.117283355443997
 30
0.0
 10
41.16706613947439
 20
2.29823649344612
 30
0.0
 10
42.15748080566355
 20
1.37893862453325
 30
0.0
 10
43.17818691872032
 20
0.3692910122295473
 30
0.0
 10
44.2318325811435
 20
-0.6917927939672203
 30
0.0
 10
45.31854932357287
 20
-1.744820091571856
 30
0.0
 10
46.40455218212228
 20
-2.721138047466626
 30
0.0
 10
47.12779466426784
 20
-3.245895511967925
 30
0.0
 10
47.48922476063736
 20
-3.508135556831823
 30
0.0
  0
LINE
  5
DA
330
1F
100
AcDbEntity
  8
0
  6
Continuous
 62
     1
370
    15
100
AcDbLine
 10
9.999999999999998
 20
3.28266823783697
 30
0.0
 11
9.999999999999998
 21
4.249523640040915
 31
0.0
  0
SPLINE
  5
DB
330
1F
100
AcDbEntity
  8
0
  6
Continuous
 62
     1
370
    15
100
AcDbSpline
210
0.0
220
0.0
230
1.0
 70
     8
 71
     3
 72
    18
 73
    14
 74
     0
 42
0.000000001
 43
0.00000001
 40
0.0
 40
0.0
 40
0.0
 40
0.0
 40
0.0912997130040188
 40
0.1824971030893818
 40
0.2735451161046835
 40
0.3648298597824196
 40
0.4560446133592532
 40
0.5547212863872978
 40
0.6535051407123629
 40
0.7524500527392177
 40
0.8511812383629448
 40
0.9498679863254245
 40
1.0
 40
1.0
 40
1.0
 40
1.0
 10
47.71899999999999
 20
-2.425146072000217
 30
0.0
 10
47.4136917660995
 20
-2.154133671431852
 30
0.0
 10
46.80341746837286
 20
-1.612412603778017
 30
0.0
 10
45.88903313557525
 20
-0.7170505867864039
 30
0.0
 10
44.97634216951757
 20
0.1998146723660079
 30
0.0
 10
44.06116553753884
 20
1.108767144254903
 30
0.0
 10
43.12143364307374
 20
2.001579429415806
 30
0.0
 10
42.15748202340458
 20
2.839779188730649
 30
0.0
 10
41.16706411198867
 20
3.576425081976691
 30
0.0
 10
40.17494231542894
 20
4.161076315506295
 30
0.0
 10
39.18504816515016
 20
4.556678260203289
 30
0.0
 10
38.35847430131946
 20
4.755914223593618
 30
0.0
 10
37.86084969581415
 20
4.741585192096681
 30
0.0
 10
37.69321677605609
 20
4.736758225422276
 30
0.0
  0
SPLINE
  5
DC
330
1F
100
AcDbEntity
  8
0
  6
Continuous
 62
     1
370
    15
100
AcDbSpline
210
0.0
220
0.0
230
1.0
 70
     8
 71
     3
 72
    23
 73
    19
 74
     0
 42
0.000000001
 43
0.00000001
 40
0.0
 40
0.0
 40
0.0
 40
0.0
 40
0.0057767484764666
 40
0.0744522725574566
 40
0.1432784746681814
 40
0.2120210045466976
 40
0.2806709134275667
 40
0.3493833366797253
 40
0.4182224331365658
 40
0.4869184653893095
 40
0.5555715096859206
 40
0.6243366218550918
 40
0.6931461333287127
 40
0.7618115004198627
 40
0.8213119551480648
 40
0.880971433125288
 40
0.9404228926443402
 40
1.0
 40
1.0
 40
1.0
 40
1.0
 10
24.4109067702515
 20
-4.462002410312473
 30
0.0
 10
24.38316915968177
 20
-4.47397418183415
 30
0.0
 10
24.02567944887943
 20
-4.628269560966299
 30
0.0
 10
23.3379846042108
 20
-4.745660956525933
 30
0.0
 10
22.34595700522489
 20
-4.784722060741447
 30
0.0
 10
21.35528207326007
 20
-4.59760486671581
 30
0.0
 10
20.36596176213808
 20
-4.217507190130415
 30
0.0
 10
19.37573062850599
 20
-3.654024631347985
 30
0.0
 10
18.3835449048689
 20
-2.934522762170131
 30
0.0
 10
17.39355411037227
 20
-2.087276033768514
 30
0.0
 10
16.40419219585555
 20
-1.150047848149276
 30
0.0
 10
15.41314794814176
 20
-0.1638112356796478
 30
0.0
 10
14.42146596508168
 20
0.8289755863164081
 30
0.0
 10
13.47579916964296
 20
1.744457736828067
 30
0.0
 10
12.57462980990221
 20
2.552429260311353
 30
0.0
 10
11.71495366955178
 20
3.233597821227978
 30
0.0
 10
10.85839459416926
 20
3.822709875779406
 30
0.0
 10
10.28633282290771
 20
4.107152298460745
 30
0.0
 10
9.999999999994774
 20
4.249523640043204
 30
0.0
  0
ELLIPSE
  5
DE
330
1F
100
AcDbEntity
  8
0
  6
Continuous
 62
     1
370
    15
100
AcDbEllipse
 10
49.52814800674211
 20
0.0000000000000092
 30
0.0
 11
6.709935874830742
 21
4.458418716618098
 31
0.0
210
0.0
220
0.0
230
1.0
 40
0.2495534463455958
 41
4.243613418047562
 42
4.278837090061492
  0
SPLINE
  5
E1
330
1F
100
AcDbEntity
  8
0
  6
Continuous
 62
     1
370
    15
100
AcDbSpline
210
0.0
220
0.0
230
1.0
 70
     8
 71
     3
 72
    25
 73
    21
 74
     0
 42
0.000000001
 43
0.00000001
 40
0.0
 40
0.0
 40
0.0
 40
0.0
 40
0.009156935070813
 40
0.0687596606685445
 40
0.1282809978393344
 40
0.1877273394637143
 40
0.2472330339027173
 40
0.3068424591561702
 40
0.3663251916411722
 40
0.4257759256314341
 40
0.4853288980639371
 40
0.5449082420992306
 40
0.6043660901905895
 40
0.6638350203711106
 40
0.723434428787509
 40
0.7829613820140586
 40
0.8424081309507097
 40
0.9019090136246891
 40
0.9615195877799609
 40
1.0
 40
1.0
 40
1.0
 40
1.0
 10
34.38640232366838
 20
-4.456867882673246
 30
0.0
 10
34.33562672701446
 20
-4.478358631339792
 30
0.0
 10
33.95435146742521
 20
-4.639733215127642
 30
0.0
 10
33.24154164265485
 20
-4.75527551840384
 30
0.0
 10
32.2510471177651
 20
-4.778221845665291
 30
0.0
 10
31.26171211590253
 20
-4.577211186848444
 30
0.0
 10
30.27140377421759
 20
-4.183542050116412
 30
0.0
 10
29.27923721651745
 20
-3.609122104992736
 30
0.0
 10
28.28931390188762
 20
-2.87854899954993
 30
0.0
 10
27.29992669920955
 20
-2.023724208882461
 30
0.0
 10
26.30877800128303
 20
-1.08231046252681
 30
0.0
 10
25.31715670797928
 20
-0.0946632933240871
 30
0.0
 10
24.32764571043488
 20
0.8982351594387247
 30
0.0
 10
23.33794927768578
 20
1.852352690928184
 30
0.0
 10
22.34596603930776
 20
2.725457472313675
 30
0.0
 10
21.35528125131701
 20
3.481450324338545
 30
0.0
 10
20.36595604153687
 20
4.089719101186272
 30
0.0
 10
19.37575437922457
 20
4.513285611946839
 30
0.0
 10
18.50016729239293
 20
4.742340890072795
 30
0.0
 10
17.95627576340596
 20
4.739947749996119
 30
0.0
 10
17.74291089664514
 20
4.739008937776427
 30
0.0
  0
SPLINE
  5
E3
330
1F
100
AcDbEntity
  8
0
  6
Continuous
 62
     1
370
    15
100
AcDbSpline
210
0.0
220
0.0
230
1.0
 70
     8
 71
     3
 72
    23
 73
    19
 74
     0
 42
0.000000001
 43
0.00000001
 40
0.0461901974314618
 40
0.0461901974314618
 40
0.0461901974314618
 40
0.0461901974314618
 40
0.0577837583796541
 40
0.1188907896188129
 40
0.1798977303918068
 40
0.2410632931162738
 40
0.3021819588047813
 40
0.3683005016233519
 40
0.4344908615285644
 40
0.5007891385354106
 40
0.5669442076502291
 40
0.6330695012029235
 40
0.6993142817028251
 40
0.7655741394322245
 40
0.8317033893652117
 40
0.8978507825750471
 40
0.9641434888716689
 40
1.0
 40
1.0
 40
1.0
 40
1.0
 10
46.97668724918887
 20
-4.70888285093967
 30
0.0
 10
46.91883453295035
 20
-4.701891864750846
 30
0.0
 10
46.55606431101383
 20
-4.651232439207023
 30
0.0
 10
45.88903362008761
 20
-4.459657818686623
 30
0.0
 10
44.97634204701689
 20
-4.046827029663857
 30
0.0
 10
44.06116554187247
 20
-3.482701261398124
 30
0.0
 10
43.1214337508923
 20
-2.772106019530259
 30
0.0
 10
42.15748154520237
 20
-1.928386066169986
 30
0.0
 10
41.16706590517749
 20
-0.9796385877573835
 30
0.0
 10
40.17493561599834
 20
0.0100442185086387
 30
0.0
 10
39.18507310185635
 20
1.000880604220224
 30
0.0
 10
38.19566061763647
 20
1.948404303947588
 30
0.0
 10
37.20439197336764
 20
2.811398010178348
 30
0.0
 10
36.21288396209896
 20
3.55245871554642
 30
0.0
 10
35.22339836177183
 20
4.143802458192003
 30
0.0
 10
34.23368903784031
 20
4.54635011350806
 30
0.0
 10
33.39307246418076
 20
4.752640255493449
 30
0.0
 10
32.88364595874418
 20
4.741025418984399
 30
0.0
 10
32.70482660386587
 20
4.73694836851804
 30
0.0
  0
SPLINE
  5
E4
330
1F
100
AcDbEntity
  8
0
  6
Continuous
 62
     1
370
    15
100
AcDbSpline
210
0.0
220
0.0
230
1.0
 70
     8
 71
     3
 72
    18
 73
    14
 74
     0
 42
0.000000001
 43
0.00000001
 40
0.0
 40
0.0
 40
0.0
 40
0.0
 40
0.0051066979839843
 40
0.1103723018992518
 40
0.2154191385642498
 40
0.3204002400090561
 40
0.4255527105288754
 40
0.5307730744383073
 40
0.6357730193380082
 40
0.7267583986147992
 40
0.8179869489848551
 40
0.9088974070243613
 40
1.0
 40
1.0
 40
1.0
 40
1.0
 10
19.42417308809445
 20
-4.464968238274444
 30
0.0
 10
19.40813272587177
 20
-4.471950131699273
 30
0.0
 10
19.06144848737409
 20
-4.622851487395343
 30
0.0
 10
18.3834536117222
 20
-4.740153440112366
 30
0.0
 10
17.39357853244434
 20
-4.787628565248837
 30
0.0
 10
16.4041856417698
 20
-4.607198380464348
 30
0.0
 10
15.41314970750075
 20
-4.234013470479085
 30
0.0
 10
14.42146549239283
 20
-3.677246513314964
 30
0.0
 10
13.47579927751631
 20
-2.993463537943256
 30
0.0
 10
12.57462978268937
 20
-2.23272022164006
 30
0.0
 10
11.71495367678792
 20
-1.439594992029335
 30
0.0
 10
10.8583945923584
 20
-0.5956881420105734
 30
0.0
 10
10.28633282230367
 20
-0.0236203077181913
 30
0.0
 10
9.999999999994774
 20
0.2627155499102679
 30
0.0
  0
SPLINE
  5
E5
330
1F
100
AcDbEntity
  8
0
  6
Continuous
 62
     1
370
    15
100
AcDbSpline
210
0.0
220
0.0
230
1.0
 70
    24
 71
     3
 72
    14
 73
    10
 74
     0
 42
0.000000001
 43
0.00000001
 40
0.0
 40
0.0
 40
0.0
 40
0.0
 40
0.25
 40
0.25
 40
0.5
 40
0.5
 40
0.75
 40
0.75
 40
1.0
 40
1.0
 40
1.0
 40
1.0
 10
9.999999999999998
 20
3.28266823783694
 30
0.0
 10
9.999999999999998
 20
3.098807155142975
 30
0.0
 10
9.999999999999998
 20
2.883472847847081
 30
0.0
 10
9.999999999999998
 20
2.387510634880607
 30
0.0
 10
9.999999999999998
 20
2.105734873094165
 30
0.0
 10
9.999999999999998
 20
1.51273183341446
 30
0.0
 10
9.999999999999998
 20
1.201712313168124
 30
0.0
 10
9.999999999999998
 20
0.6495016180722927
 30
0.0
 10
9.999999999999998
 20
0.4121331212451048
 30
0.0
 10
9.999999999999998
 20
0.2627155499049617
 30
0.0
  0
SPLINE
  5
E6
330
1F
100
AcDbEntity
  8
0
  6
Continuous
 62
     1
370
    15
100
AcDbSpline
210
0.0
220
0.0
230
1.0
 70
     8
 71
     3
 72
     9
 73
     5
 74
     0
 42
0.000000001
 43
0.00000001
 40
0.0
 40
0.0
 40
0.0
 40
0.0
 40
0.5251367020916237
 40
1.0
 40
1.0
 40
1.0
 40
1.0
 10
47.11181662272823
 20
-3.223392665995513
 30
0.0
 10
47.03715029936606
 20
-3.232687449538754
 30
0.0
 10
46.89496575377103
 20
-3.250387190399029
 30
0.0
 10
46.71594516542838
 20
-3.343756476936975
 30
0.0
 10
46.63093485845448
 20
-3.388094124265735
 30
0.0
  0
SPLINE
  5
E7
330
1F
100
AcDbEntity
  8
0
  6
Continuous
 62
     1
370
    15
100
AcDbSpline
210
0.0
220
0.0
230
1.0
 70
     8
 71
     3
 72
     8
 73
     4
 74
     0
 42
0.000000001
 43
0.00000001
 40
0.0521834034766352
 40
0.0521834034766352
 40
0.0521834034766352
 40
0.0521834034766352
 40
1.0
 40
1.0
 40
1.0
 40
1.0
 10
48.02363742931617
 20
-3.714863173684654
 30
0.0
 10
47.56120569043362
 20
-3.642464771350759
 30
0.0
 10
47.09691226293965
 20
-3.532341380702186
 30
0.0
 10
46.63093485845448
 20
-3.388094124265728
 30
0.0
  0
LINE
  5
E9
330
1F
100
AcDbEntity
  8
0
  6
Continuous
 62
     1
370
    15
100
AcDbLine
 10
48.10000000000001
 20
-0.8660254037844334
 30
0.0
 11
48.10000000000001
 21
1.26690346575153
 31
0.0
  0
LINE
  5
EA
330
1F
100
AcDbEntity
  8
0
  6
Continuous
 62
     1
370
    15
100
AcDbLine
 10
46.63093485845448
 20
-0.1256315886861757
 30
0.0
 11
48.10000000000001
 21
-0.8660254037844334
 31
0.0
  0
SPLINE
  5
EB
330
1F
100
AcDbEntity
  8
0
  6
Continuous
 62
     1
370
    15
100
AcDbSpline
210
0.0
220
0.0
230
1.0
 70
     8
 71
     3
 72
    16
 73
    12
 74
     0
 42
0.000000001
 43
0.00000001
 40
0.0
 40
0.0
 40
0.0
 40
0.0
 40
0.2500000000000021
 40
0.2500000000000021
 40
0.5000000000000041
 40
0.5000000000000041
 40
0.7500000000000062
 40
0.7500000000000062
 40
0.8750000000000031
 40
0.8750000000000031
 40
1.0
 40
1.0
 40
1.0
 40
1.0
 10
47.48922476063736
 20
1.035339573281904
 30
0.0
 10
47.47499018779864
 20
0.95167879647138
 30
0.0
 10
47.45081444462402
 20
0.8637813360473345
 30
0.0
 10
47.37504484726944
 20
0.6763014869981148
 30
0.0
 10
47.32217309044523
 20
0.5745771962206435
 30
0.0
 10
47.18000680453842
 20
0.3651229925443513
 30
0.0
 10
47.08889085399858
 20
0.2556785132262316
 30
0.0
 10
46.93016383861607
 20
0.1021362116544455
 30
0.0
 10
46.87239777649276
 20
0.051554649864181
 30
0.0
 10
46.75392219876795
 20
-0.0421607349241633
 30
0.0
 10
46.69314759618692
 20
-0.0855288962286815
 30
0.0
 10
46.63093485845448
 20
-0.1256315886861888
 30
0.0
  0
SPLINE
  5
EC
330
1F
100
AcDbEntity
  8
0
  6
Continuous
 62
     1
370
    15
100
AcDbSpline
210
0.0
220
0.0
230
1.0
 70
     8
 71
     3
 72
    12
 73
     8
 74
     0
 42
0.000000001
 43
0.00000001
 40
0.0
 40
0.0
 40
0.0
 40
0.0
 40
0.2500000000000049
 40
0.2500000000000049
 40
0.5000000000000098
 40
0.5000000000000098
 40
1.0
 40
1.0
 40
1.0
 40
1.0
 10
48.10000000000001
 20
1.266903465751528
 30
0.0
 10
48.10000000000001
 20
1.293823620090906
 30
0.0
 10
48.08864517428426
 20
1.313874570290799
 30
0.0
 10
48.04493734766573
 20
1.333976114207666
 30
0.0
 10
48.0126223860832
 20
1.334151657195746
 30
0.0
 10
47.89973885126195
 20
1.30887721985244
 30
0.0
 10
47.80688188347743
 20
1.260185380094318
 30
0.0
 10
47.71899999999981
 20
1.198404253718491
 30
0.0
  0
SPLINE
  5
ED
330
1F
100
AcDbEntity
  8
0
  6
Continuous
 62
     1
370
    15
100
AcDbSpline
210
0.0
220
0.0
230
1.0
 70
     8
 71
     3
 72
    14
 73
    10
 74
     0
 42
0.000000001
 43
0.00000001
 40
0.0
 40
0.0
 40
0.0
 40
0.0
 40
0.25
 40
0.25
 40
0.5
 40
0.5
 40
0.75
 40
0.75
 40
1.0
 40
1.0
 40
1.0
 40
1.0
 10
48.10000000000001
 20
-2.327567370327877
 30
0.0
 10
48.10000000000001
 20
-2.382887077440289
 30
0.0
 10
48.09229221219363
 20
-2.436384814155554
 30
0.0
 10
48.04926496129324
 20
-2.517647398951524
 30
0.0
 10
48.01376457563786
 20
-2.540942404094808
 30
0.0
 10
47.93196101090435
 20
-2.547871321159732
 30
0.0
 10
47.88806528013984
 20
-2.534125702376608
 30
0.0
 10
47.80251575233534
 20
-2.490672979688281
 30
0.0
 10
47.75997466328157
 20
-2.460359736959444
 30
0.0
 10
47.71899999999999
 20
-2.425146072000225
 30
0.0
  0
LINE
  5
EE
330
1F
100
AcDbEntity
  8
0
  6
Continuous
 62
     1
370
    15
100
AcDbLine
 10
9.999999999999998
 20
4.629497705083883
 30
0.0
 11
9.999999999999998
 21
4.319507785644516
 31
0.0
  0
SPLINE
  5
EF
330
1F
100
AcDbEntity
  8
0
  6
Continuous
 62
     1
370
    15
100
AcDbSpline
210
0.0
220
0.0
230
1.0
 70
     8
 71
     3
 72
     8
 73
     4
 74
     0
 42
0.000000001
 43
0.00000001
 40
0.0
 40
0.0
 40
0.0
 40
0.0
 40
1.0
 40
1.0
 40
1.0
 40
1.0
 10
48.10000000000001
 20
-1.141102845938064
 30
0.0
 10
47.61232526839262
 20
-0.8078837043871839
 30
0.0
 10
47.12256731793491
 20
-0.4692111669241925
 30
0.0
 10
46.63093485845447
 20
-0.1256315886861753
 30
0.0
  0
LINE
  5
F0
330
1F
100
AcDbEntity
  8
0
  6
Continuous
 62
     1
370
    15
100
AcDbLine
 10
48.10000000000001
 20
-2.327567370327879
 30
0.0
 11
48.10000000000001
 21
-1.141102845938064
 31
0.0
  0
LINE
  5
F1
330
1F
100
AcDbEntity
  8
0
  6
Continuous
 62
     1
370
    15
100
AcDbLine
 10
9.999999999999998
 20
-1.346829467246889
 30
0.0
 11
9.999999999999998
 21
0.2627155499049622
 31
0.0
  0
LINE
  5
F4
330
1F
100
AcDbEntity
  8
0
  6
Continuous
 62
     1
370
    15
100
AcDbLine
 10
48.10000000000001
 20
1.26690346575153
 30
0.0
 11
48.10000000000001
 21
2.051022574929939
 31
0.0
  0
SPLINE
  5
F5
330
1F
100
AcDbEntity
  8
0
  6
Continuous
 62
     1
370
    15
100
AcDbSpline
210
0.0
220
0.0
230
1.0
 70
     8
 71
     3
 72
    12
 73
     8
 74
     0
 42
0.000000001
 43
0.00000001
 40
0.0
 40
0.0
 40
0.0
 40
0.0
 40
0.2499999999999948
 40
0.2499999999999948
 40
0.4999999999999896
 40
0.4999999999999896
 40
1.0
 40
1.0
 40
1.0
 40
1.0
 10
48.10000000000001
 20
-2.998954273320418
 30
0.0
 10
48.10000000000001
 20
-3.025874427659796
 30
0.0
 10
48.08864517428425
 20
-3.059696454077225
 30
0.0
 10
48.04493734766573
 20
-3.132806632977506
 30
0.0
 10
48.0126223860832
 20
-3.172173600832863
 30
0.0
 10
47.89973885126197
 20
-3.283803753717831
 30
0.0
 10
47.80688188347743
 20
-3.347728383177413
 30
0.0
 10
47.71899999999981
 20
-3.392529968487977
 30
0.0
  0
LINE
  5
F6
330
1F
100
AcDbEntity
  8
0
  6
Continuous
 62
     1
370
    15
100
AcDbLine
 10
48.10000000000001
 20
-2.998954273320417
 30
0.0
 11
48.10000000000001
 21
-2.32756737032788
 31
0.0
  0
LINE
  5
F7
330
1F
100
AcDbEntity
  8
0
  6
Continuous
 62
     1
370
    15
100
AcDbLine
 10
48.10000000000001
 20
-0.8660254037844334
 30
0.0
 11
48.10000000000001
 21
-1.141102845938064
 31
0.0
  0
LINE
  5
F9
330
1F
100
AcDbEntity
  8
0
  6
Continuous
 62
     1
370
    15
100
AcDbLine
 10
48.10000000000001
 20
2.585374663495466
 30
0.0
 11
48.10000000000001
 21
3.238500000000006
 31
0.0
  0
LINE
  5
FA
330
1F
100
AcDbEntity
  8
0
  6
Continuous
 62
     1
370
    15
100
AcDbLine
 10
48.10000000000001
 20
-2.998954273320417
 30
0.0
 11
48.10000000000001
 21
-3.238500000000006
 31
0.0
  0
LINE
  5
FC
330
1F
100
AcDbEntity
  8
중심선
100
AcDbLine
 10
-56.5
 20
0.0
 30
0.0
 11
51.1
 21
0.0
 31
0.0
  0
CIRCLE
  5
FD
330
1F
100
AcDbEntity
  8
외형선
100
AcDbCircle
 10
0.0
 20
0.0
 30
0.0
 40
3.000000000000001
  0
INSERT
  5
FE
330
1F
100
AcDbEntity
  8
0
  6
Continuous
 62
     7
100
AcDbBlockReference
 66
     1
  2
블럭10
 10
-16.62936049909349
 20
-51.78679627639981
 30
0.0
  0
ATTRIB
  5
FF
330
FE
100
AcDbEntity
  8
FORMAT
 62
     2
100
AcDbText
 10
-27.68038085127795
 20
-49.71142936356761
 30
0.0
 40
4.233333333333333
  1
GMG23913[ 6 FLUTE ]
 41
0.75
  7
SLDTEXTSTYLE0
 11
-27.68038085127795
 21
-51.82809603023428
 31
0.0
100
AcDbAttribute
  2
AUTOATTR0
 70
     0
 74
     1
  0
SEQEND
  5
100
330
FE
100
AcDbEntity
  8
0
  6
Continuous
 62
     7
  0
HATCH
  5
101
330
1F
100
AcDbEntity
  8
중심선
100
AcDbHatch
 10
0.0
 20
0.0
 30
0.0
210
0.0
220
0.0
230
1.0
  2
SOLID
 70
     1
 71
     0
 91
        1
 92
        0
 93
        4
 72
     1
 10
-10.91445119471263
 20
-35.53962197475587
 11
-14.36072643854992
 21
-35.53962197475587
 72
     1
 10
-14.36072643854992
 20
-35.53962197475587
 11
-16.48895629775394
 21
-38.07594755532847
 72
     1
 10
-16.48895629775394
 20
-38.07594755532847
 11
-13.04264796880351
 21
-38.07590812602598
 72
     1
 10
-13.04264796880351
 20
-38.07590812602598
 11
-10.91445119471263
 21
-35.53962197475587
 97
        0
 75
     0
 76
     1
 98
        1
 10
0.0004859200744764
 20
0.2622744311706929
  0
HATCH
  5
102
330
1F
100
AcDbEntity
  8
중심선
100
AcDbHatch
 10
0.0
 20
0.0
 30
0.0
210
0.0
220
0.0
230
1.0
  2
SOLID
 70
     1
 71
     0
 91
        1
 92
        0
 93
        4
 72
     1
 10
-5.901687203676683
 20
-35.53962197475587
 11
-9.347962447513964
 21
-35.53962197475587
 72
     1
 10
-9.347962447513964
 20
-35.53962197475587
 11
-13.87910045587135
 21
-40.93962197475589
 72
     1
 10
-13.87910045587135
 20
-40.93962197475589
 11
-10.43282521203407
 21
-40.93962197475589
 72
     1
 10
-10.43282521203407
 20
-40.93962197475589
 11
-5.901687203676683
 21
-35.53962197475587
 97
        0
 75
     0
 76
     1
 98
        1
 10
0.0004859200744764
 20
0.2622744311706929
  0
HATCH
  5
103
330
1F
100
AcDbEntity
  8
중심선
100
AcDbHatch
 10
0.0
 20
0.0
 30
0.0
210
0.0
220
0.0
230
1.0
  2
SOLID
 70
     1
 71
     0
 91
        1
 92
        0
 93
        4
 72
     1
 10
-0.8889232126407867
 20
-35.5396219747559
 11
-4.335198456477903
 21
-35.53962197475587
 72
     1
 10
-4.335198456477903
 20
-35.53962197475587
 11
-11.38363535836715
 21
-43.93962197475589
 72
     1
 10
-11.38363535836715
 20
-43.93962197475589
 11
-7.937360114529869
 21
-43.93962197475589
 72
     1
 10
-7.937360114529869
 20
-43.93962197475589
 11
-0.8889232126407869
 21
-35.5396219747559
 97
        0
 75
     0
 76
     1
 98
        1
 10
0.0004859200744764
 20
0.2622744311706929
  0
HATCH
  5
104
330
1F
100
AcDbEntity
  8
중심선
100
AcDbHatch
 10
0.0
 20
0.0
 30
0.0
210
0.0
220
0.0
230
1.0
  2
SOLID
 70
     1
 71
     0
 91
        1
 92
        0
 93
        6
 72
     3
 10
3.910967218371413
 20
-39.73962197480715
 11
3.960054785062283
 21
1.540882976769353E-10
 40
0.3939339440162628
 50
17.09539180608436
 51
320.0019657685081
 73
     0
 72
     1
 10
5.593966874072008
 20
-38.32751597939418
 11
7.899268747773046
 21
-36.39318926934625
 72
     3
 10
3.910967218318566
 20
-39.73962197475602
 11
6.600054785286829
 21
-1.278976924368180E-13
 40
0.636358354079598
 50
39.99873849337411
 51
368.4976242363724
 73
     1
 72
     1
 10
10.33629971021917
 20
-38.7796219746859
 11
2.591034525154488
 21
-38.77962197468587
 72
     1
 10
2.591034525154488
 20
-38.77962197468587
 11
2.591009480708554
 21
-40.69962197468579
 72
     1
 10
2.591009480708554
 20
-40.69962197468579
 11
7.032389250180591
 21
-40.69962197468576
 97
        0
 75
     0
 76
     1
 98
        1
 10
0.0004859200744764
 20
0.2622744311706929
  0
POINT
  5
105
330
1F
100
AcDbEntity
  8
치수문자_일반주서
100
AcDbPoint
 10
0.0
 20
0.0
 30
0.0
  0
DIMENSION
  5
106
330
1F
100
AcDbEntity
  8
치수문자_일반주서
100
AcDbDimension
  2
_D
 10
66.74524571577294
 20
4.762500000000079
 30
0.0
 11
66.74524571577295
 21
-0.4965537846535155
 31
0.0
 70
   160
  1
%%c<>
 71
     2
 42
9.525000000000011
 52
-270.0
  3
SLDDIMSTYLE0
100
AcDbAlignedDimension
 13
46.57600000000001
 23
-4.762500000000006
 33
0.0
 14
46.57600000000001
 24
4.762500000000006
 34
0.0
 50
90.0000000000002
100
AcDbRotatedDimension
1001
ACAD
1000
DSTYLE
1002
{
1070
   171
1070
     3
1070
   273
1070
     7
1002
}
  0
DIMENSION
  5
11B
330
1F
100
AcDbEntity
  8
치수문자_일반주서
100
AcDbDimension
  2
_D_1
 10
48.10000000000001
 20
37.41805141807179
 30
0.0
 11
-2.699999999999982
 21
37.41805141807179
 31
0.0
 70
   160
  1
<>
 71
     2
 42
101.6
  3
SLDDIMSTYLE1
100
AcDbAlignedDimension
 13
-53.49999999999999
 23
4.262499999999998
 33
0.0
 14
48.10000000000001
 24
4.381500000000005
 34
0.0
100
AcDbRotatedDimension
1001
ACAD
1000
DSTYLE
1002
{
1070
   171
1070
     3
1070
   273
1070
     7
1002
}
  0
DIMENSION
  5
12F
330
1F
100
AcDbEntity
  8
치수문자_일반주서
100
AcDbDimension
  2
_D_2
 10
9.999999999999858
 20
22.00849453033794
 30
0.0
 11
28.63090169785223
 21
22.00849453033794
 31
0.0
 70
   160
  1
<>
 71
     2
 42
38.10000000000015
  3
SLDDIMSTYLE1
100
AcDbAlignedDimension
 13
48.10000000000001
 23
3.238500000000006
 33
0.0
 14
9.999999999999858
 24
-4.631167405098601
 34
0.0
100
AcDbRotatedDimension
1001
ACAD
1000
DSTYLE
1002
{
1070
   171
1070
     3
1070
   273
1070
     7
1002
}
  0
DIMENSION
  5
142
330
1F
100
AcDbEntity
  8
치수문자_일반주서
100
AcDbDimension
  2
_D_3
 10
-66.49999999999997
 20
-4.762500000000047
 30
0.0
 11
-66.49999999999999
 21
0.0000000000000003
 31
0.0
 70
   160
  1
%%c<>
 71
     2
 42
9.525
 52
-270.0
  3
SLDDIMSTYLE0
100
AcDbAlignedDimension
 13
-52.99999999999999
 23
4.762500000000002
 33
0.0
 14
-52.99999999999999
 24
-4.762499999999998
 34
0.0
 50
90.0000000000002
100
AcDbRotatedDimension
1001
ACAD
1000
DSTYLE
1002
{
1070
   171
1070
     3
1070
   273
1070
     7
1002
}
  0
INSERT
  5
15C
330
1F
100
AcDbEntity
  8
외형선
100
AcDbBlockReference
  2
SW_DOWELSYMBOL_0
 10
0.0
 20
0.0
 30
0.0
  0
ARC
  5
182
330
1F
100
AcDbEntity
  8
0
  6
Continuous
 62
     1
370
    15
100
AcDbCircle
 10
46.57600000000001
 20
3.238500000000006
 30
0.0
 40
1.524
100
AcDbArc
 50
0.0
 51
90.0
  0
ARC
  5
183
330
1F
100
AcDbEntity
  8
0
  6
Continuous
 62
     1
370
    15
100
AcDbCircle
 10
46.57600000000001
 20
-3.238500000000006
 30
0.0
 40
1.524
100
AcDbArc
 50
270.0
 51
0.0
  0
DIMENSION
  5
185
330
1F
100
AcDbEntity
  8
치수문자_일반주서
100
AcDbDimension
  2
*D7
 10
46.57600000000001
 20
3.238500000000006
 30
0.0
 11
61.33577922659352
 21
21.46040501842269
 31
0.0
 70
   164
  1
<>
 71
     5
 42
1.524
  3
SLDDIMSTYLE1
100
AcDbRadialDimension
 15
47.5352401532395
 25
4.422744201342397
 35
0.0
 40
0.0
1001
ACAD
1000
DSTYLE
1002
{
1070
   171
1070
     3
1070
   273
1070
     2
1002
}
1001
ACAD_DSTYLE_DIMRADIAL_EXTENSION
1070
   387
1070
     1
1070
   388
1040
0.0
1070
   390
1040
1.570796326794897
  0
LINE
  5
1F1
330
1F
100
AcDbEntity
  8
0
  6
Continuous
 62
     4
370
    15
100
AcDbLine
 10
-37.22495000000011
 20
3.492500000000007
 30
0.0
 11
-30.08754999999999
 21
3.492500000000007
 31
0.0
  0
LINE
  5
1F2
330
1F
100
AcDbEntity
  8
0
  6
Continuous
 62
     4
370
    15
100
AcDbLine
 10
-37.22495000000011
 20
3.492500000000007
 30
0.0
 11
-38.4949500000001
 21
4.762499999999989
 31
0.0
  0
LINE
  5
1F3
330
1F
100
AcDbEntity
  8
0
  6
Continuous
 62
     4
370
    15
100
AcDbLine
 10
-30.08754999999999
 20
3.492500000000007
 30
0.0
 11
-28.81754999999989
 21
4.762499999999989
 31
0.0
  0
LINE
  5
1F4
330
1F
100
AcDbEntity
  8
0
  6
Continuous
 62
     4
370
    15
100
AcDbLine
 10
-38.49495000000011
 20
4.762500000000003
 30
0.0
 11
-52.99999999999999
 21
4.762500000000002
 31
0.0
  0
ENDSEC
  0
SECTION
  2
OBJECTS
  0
DICTIONARY
  5
C
330
0
100
AcDbDictionary
281
     1
  3
ACAD_GROUP
350
D
  3
ACAD_IMAGE_VARS
350
180
  3
ACAD_LAYOUT
350
1A
  3
ACAD_MLINESTYLE
350
17
  3
ACAD_PLOTSETTINGS
350
19
  3
ACAD_PLOTSTYLENAME
350
E
  3
ACAD_SCALELIST
350
47
  3
APPDATA
350
17E
  3
DWGPROPS
350
219
  0
DICTIONARY
  5
1E2
330
2
100
AcDbDictionary
280
     1
281
     1
  3
ACAD_LAYERSTATES
360
1E3
  0
DICTIONARY
  5
217
330
1F
100
AcDbDictionary
280
     1
281
     1
  3
DIM_BOUNDING_BOXES_V1
360
218
  0
DICTIONARY
  5
D
102
{ACAD_REACTORS
330
C
102
}
330
C
100
AcDbDictionary
281
     1
  0
RASTERVARIABLES
  5
180
102
{ACAD_REACTORS
330
C
102
}
330
C
100
AcDbRasterVariables
 90
        0
 70
     1
 71
     1
 72
     1
  0
DICTIONARY
  5
1A
102
{ACAD_REACTORS
330
C
102
}
330
C
100
AcDbDictionary
281
     1
  3
Layout1
350
1E
  3
Layout2
350
26
  3
Model
350
22
  0
DICTIONARY
  5
17
102
{ACAD_REACTORS
330
C
102
}
330
C
100
AcDbDictionary
281
     1
  3
Standard
350
18
  0
DICTIONARY
  5
19
102
{ACAD_REACTORS
330
C
102
}
330
C
100
AcDbDictionary
281
     1
  0
ACDBDICTIONARYWDFLT
  5
E
102
{ACAD_REACTORS
330
C
102
}
330
C
100
AcDbDictionary
281
     1
  3
Normal
350
F
100
AcDbDictionaryWithDefault
340
F
  0
DICTIONARY
  5
47
102
{ACAD_REACTORS
330
C
102
}
330
C
100
AcDbDictionary
281
     1
  3
A0
350
48
  3
A1
350
49
  3
A2
350
4A
  3
A3
350
4B
  3
A4
350
4C
  3
A5
350
4D
  3
A6
350
4E
  3
A7
350
4F
  3
A8
350
50
  3
A9
350
51
  3
B0
350
52
  3
B1
350
53
  3
B2
350
54
  3
B3
350
55
  3
B4
350
56
  3
B5
350
57
  3
B6
350
58
  3
B7
350
59
  3
B8
350
5A
  3
B9
350
5B
  3
C0
350
5C
  3
C1
350
5D
  3
C2
350
5E
  3
C3
350
5F
  3
C4
350
60
  3
C5
350
61
  3
C6
350
62
  3
C7
350
63
  3
C8
350
64
  3
C9
350
65
  3
D0
350
66
  3
D1
350
67
  3
D2
350
68
  0
DICTIONARY
  5
17E
102
{ACAD_REACTORS
330
C
102
}
330
C
100
AcDbDictionary
281
     1
  0
XRECORD
  5
219
102
{ACAD_REACTORS
330
C
102
}
330
C
100
AcDbXrecord
280
     1
  1
DWGPROPS COOKIE
  2

  3

  4

  6

  7

  8
12015018
  9

300
=
301
=
302
=
303
=
304
=
305
=
306
=
307
=
308
=
309
=
 40
0.0
 41
2458236.367628565
 42
2459697.056911076
  1

 90
        0
  0
DICTIONARY
  5
1E3
102
{ACAD_REACTORS
330
1E2
102
}
330
1E2
100
AcDbDictionary
281
     1
  0
DICTIONARY
  5
218
102
{ACAD_REACTORS
330
217
102
}
330
217
100
AcDbDictionary
281
     1
  0
LAYOUT
  5
1E
102
{ACAD_REACTORS
330
1A
102
}
330
1A
100
AcDbPlotSettings
  1

  2
none_device
  4

  6

 40
0.0
 41
0.0
 42
0.0
 43
0.0
 44
0.0
 45
0.0
 46
0.0
 47
0.0
 48
0.0
 49
0.0
140
0.0
141
0.0
142
1.0
143
1.0
 70
   688
 72
     1
 73
     0
 74
     5
  7

 75
    16
147
1.0
148
0.0
149
0.0
100
AcDbLayout
  1
Layout1
 70
     1
 71
     1
 10
0.0
 20
0.0
 11
420.0
 21
297.0
 12
0.0
 22
0.0
 32
0.0
 14
1.000000000000000E+20
 24
1.000000000000000E+20
 34
1.000000000000000E+20
 15
-1.000000000000000E+20
 25
-1.000000000000000E+20
 35
-1.000000000000000E+20
146
0.0
 13
0.0
 23
0.0
 33
0.0
 16
1.0
 26
0.0
 36
0.0
 17
0.0
 27
1.0
 37
0.0
 76
     0
330
1B
  0
LAYOUT
  5
26
102
{ACAD_REACTORS
330
1A
102
}
330
1A
100
AcDbPlotSettings
  1

  2
none_device
  4

  6

 40
0.0
 41
0.0
 42
0.0
 43
0.0
 44
0.0
 45
0.0
 46
0.0
 47
0.0
 48
0.0
 49
0.0
140
0.0
141
0.0
142
1.0
143
1.0
 70
   688
 72
     1
 73
     0
 74
     5
  7

 75
    16
147
1.0
148
0.0
149
0.0
100
AcDbLayout
  1
Layout2
 70
     1
 71
     2
 10
0.0
 20
0.0
 11
0.0
 21
0.0
 12
0.0
 22
0.0
 32
0.0
 14
0.0
 24
0.0
 34
0.0
 15
0.0
 25
0.0
 35
0.0
146
0.0
 13
0.0
 23
0.0
 33
0.0
 16
1.0
 26
0.0
 36
0.0
 17
0.0
 27
1.0
 37
0.0
 76
     0
330
23
  0
LAYOUT
  5
22
102
{ACAD_REACTORS
330
1A
102
}
330
1A
100
AcDbPlotSettings
  1

  2
none_device
  4
ANSI_A_(11.00_x_8.50_Inches)
  6

 40
6.35
 41
19.05
 42
6.35000508
 43
19.05000254
 44
279.4
 45
215.9
 46
142.455197130854
 47
91.54042515825547
 48
0.0
 49
0.0
140
0.0
141
0.0
142
0.0750837051803466
143
1.0
 70
  1696
 72
     0
 73
     0
 74
     0
  7

 75
     0
147
0.0235690232323232
148
0.0
149
0.0
100
AcDbLayout
  1
Model
 70
     1
 71
     0
 10
0.0
 20
0.0
 11
420.0
 21
297.0
 12
0.0
 22
0.0
 32
0.0
 14
-70.87500000000003
 24
-49.71142936356761
 34
0.0
 15
70.83612769310176
 25
41.7930514180718
 35
0.0
146
0.0
 13
0.0
 23
0.0
 33
0.0
 16
1.0
 26
0.0
 36
0.0
 17
0.0
 27
1.0
 37
0.0
 76
     0
330
1F
331
29
  0
MLINESTYLE
  5
18
102
{ACAD_REACTORS
330
17
102
}
330
17
100
AcDbMlineStyle
  2
Standard
 70
     0
  3

 62
   256
 51
90.0
 52
90.0
 71
     2
 49
0.5
 62
   256
  6
BYLAYER
 49
-0.5
 62
   256
  6
BYLAYER
  0
ACDBPLACEHOLDER
  5
F
102
{ACAD_REACTORS
330
E
102
}
330
E
  0
SCALE
  5
48
102
{ACAD_REACTORS
330
47
102
}
330
47
100
AcDbScale
 70
     0
300
1:1
140
1.0
141
1.0
290
     1
  0
SCALE
  5
49
102
{ACAD_REACTORS
330
47
102
}
330
47
100
AcDbScale
 70
     0
300
1:2
140
1.0
141
2.0
290
     0
  0
SCALE
  5
4A
102
{ACAD_REACTORS
330
47
102
}
330
47
100
AcDbScale
 70
     0
300
1:4
140
1.0
141
4.0
290
     0
  0
SCALE
  5
4B
102
{ACAD_REACTORS
330
47
102
}
330
47
100
AcDbScale
 70
     0
300
1:5
140
1.0
141
5.0
290
     0
  0
SCALE
  5
4C
102
{ACAD_REACTORS
330
47
102
}
330
47
100
AcDbScale
 70
     0
300
1:8
140
1.0
141
8.0
290
     0
  0
SCALE
  5
4D
102
{ACAD_REACTORS
330
47
102
}
330
47
100
AcDbScale
 70
     0
300
1:10
140
1.0
141
10.0
290
     0
  0
SCALE
  5
4E
102
{ACAD_REACTORS
330
47
102
}
330
47
100
AcDbScale
 70
     0
300
1:16
140
1.0
141
16.0
290
     0
  0
SCALE
  5
4F
102
{ACAD_REACTORS
330
47
102
}
330
47
100
AcDbScale
 70
     0
300
1:20
140
1.0
141
20.0
290
     0
  0
SCALE
  5
50
102
{ACAD_REACTORS
330
47
102
}
330
47
100
AcDbScale
 70
     0
300
1:30
140
1.0
141
30.0
290
     0
  0
SCALE
  5
51
102
{ACAD_REACTORS
330
47
102
}
330
47
100
AcDbScale
 70
     0
300
1:40
140
1.0
141
40.0
290
     0
  0
SCALE
  5
52
102
{ACAD_REACTORS
330
47
102
}
330
47
100
AcDbScale
 70
     0
300
1:50
140
1.0
141
50.0
290
     0
  0
SCALE
  5
53
102
{ACAD_REACTORS
330
47
102
}
330
47
100
AcDbScale
 70
     0
300
1:100
140
1.0
141
100.0
290
     0
  0
SCALE
  5
54
102
{ACAD_REACTORS
330
47
102
}
330
47
100
AcDbScale
 70
     0
300
2:1
140
2.0
141
1.0
290
     0
  0
SCALE
  5
55
102
{ACAD_REACTORS
330
47
102
}
330
47
100
AcDbScale
 70
     0
300
4:1
140
4.0
141
1.0
290
     0
  0
SCALE
  5
56
102
{ACAD_REACTORS
330
47
102
}
330
47
100
AcDbScale
 70
     0
300
8:1
140
8.0
141
1.0
290
     0
  0
SCALE
  5
57
102
{ACAD_REACTORS
330
47
102
}
330
47
100
AcDbScale
 70
     0
300
10:1
140
10.0
141
1.0
290
     0
  0
SCALE
  5
58
102
{ACAD_REACTORS
330
47
102
}
330
47
100
AcDbScale
 70
     0
300
100:1
140
100.0
141
1.0
290
     0
  0
SCALE
  5
59
102
{ACAD_REACTORS
330
47
102
}
330
47
100
AcDbScale
 70
     0
300
1/128" = 1'-0"
140
0.0078125
141
12.0
290
     0
  0
SCALE
  5
5A
102
{ACAD_REACTORS
330
47
102
}
330
47
100
AcDbScale
 70
     0
300
1/64" = 1'-0"
140
0.015625
141
12.0
290
     0
  0
SCALE
  5
5B
102
{ACAD_REACTORS
330
47
102
}
330
47
100
AcDbScale
 70
     0
300
1/32" = 1'-0"
140
0.03125
141
12.0
290
     0
  0
SCALE
  5
5C
102
{ACAD_REACTORS
330
47
102
}
330
47
100
AcDbScale
 70
     0
300
1/16" = 1'-0"
140
0.0625
141
12.0
290
     0
  0
SCALE
  5
5D
102
{ACAD_REACTORS
330
47
102
}
330
47
100
AcDbScale
 70
     0
300
3/32" = 1'-0"
140
0.09375
141
12.0
290
     0
  0
SCALE
  5
5E
102
{ACAD_REACTORS
330
47
102
}
330
47
100
AcDbScale
 70
     0
300
1/8" = 1'-0"
140
0.125
141
12.0
290
     0
  0
SCALE
  5
5F
102
{ACAD_REACTORS
330
47
102
}
330
47
100
AcDbScale
 70
     0
300
3/16" = 1'-0"
140
0.1875
141
12.0
290
     0
  0
SCALE
  5
60
102
{ACAD_REACTORS
330
47
102
}
330
47
100
AcDbScale
 70
     0
300
1/4" = 1'-0"
140
0.25
141
12.0
290
     0
  0
SCALE
  5
61
102
{ACAD_REACTORS
330
47
102
}
330
47
100
AcDbScale
 70
     0
300
3/8" = 1'-0"
140
0.375
141
12.0
290
     0
  0
SCALE
  5
62
102
{ACAD_REACTORS
330
47
102
}
330
47
100
AcDbScale
 70
     0
300
1/2" = 1'-0"
140
0.5
141
12.0
290
     0
  0
SCALE
  5
63
102
{ACAD_REACTORS
330
47
102
}
330
47
100
AcDbScale
 70
     0
300
3/4" = 1'-0"
140
0.75
141
12.0
290
     0
  0
SCALE
  5
64
102
{ACAD_REACTORS
330
47
102
}
330
47
100
AcDbScale
 70
     0
300
1" = 1'-0"
140
1.0
141
12.0
290
     0
  0
SCALE
  5
65
102
{ACAD_REACTORS
330
47
102
}
330
47
100
AcDbScale
 70
     0
300
1-1/2" = 1'-0"
140
1.5
141
12.0
290
     0
  0
SCALE
  5
66
102
{ACAD_REACTORS
330
47
102
}
330
47
100
AcDbScale
 70
     0
300
3" = 1'-0"
140
3.0
141
12.0
290
     0
  0
SCALE
  5
67
102
{ACAD_REACTORS
330
47
102
}
330
47
100
AcDbScale
 70
     0
300
6" = 1'-0"
140
6.0
141
12.0
290
     0
  0
SCALE
  5
68
102
{ACAD_REACTORS
330
47
102
}
330
47
100
AcDbScale
 70
     0
300
1'-0" = 1'-0"
140
12.0
141
12.0
290
     0
  0
ENDSEC
  0
EOF
