  0
SECTION
  2
HEADER
  9
$ACADVER
  1
AC1015
  9
$ACADMAINTVER
 70
     6
  9
$DWGCODEPAGE
  3
ANSI_949
  9
$INSBASE
 10
0.0
 20
0.0
 30
0.0
  9
$EXTMIN
 10
-70.87499999999626
 20
-49.71142936356761
 30
0.0
  9
$EXTMAX
 10
69.08318426393451
 20
41.79305141807178
 30
0.0
  9
$LIMMIN
 10
0.0
 20
0.0
  9
$LIMMAX
 10
420.0
 20
297.0
  9
$ORTHOMODE
 70
     0
  9
$REGENMODE
 70
     1
  9
$FILLMODE
 70
     1
  9
$QTEXTMODE
 70
     0
  9
$MIRRTEXT
 70
     1
  9
$LTSCALE
 40
1.0
  9
$ATTMODE
 70
     1
  9
$TEXTSIZE
 40
3.5
  9
$TRACEWID
 40
1.0
  9
$TEXTSTYLE
  7
Standard
  9
$CLAYER
  8
0
  9
$CELTYPE
  6
ByLayer
  9
$CECOLOR
 62
   256
  9
$CELTSCALE
 40
1.0
  9
$DISPSILH
 70
     0
  9
$DIMSCALE
 40
1.0
  9
$DIMASZ
 40
3.302
  9
$DIMEXO
 40
1.0
  9
$DIMDLI
 40
3.75
  9
$DIMRND
 40
0.0
  9
$DIMDLE
 40
0.0
  9
$DIMEXE
 40
1.0
  9
$DIMTP
 40
0.0
  9
$DIMTM
 40
0.0
  9
$DIMTXT
 40
3.5
  9
$DIMCEN
 40
2.5
  9
$DIMTSZ
 40
0.0
  9
$DIMTOL
 70
     0
  9
$DIMLIM
 70
     0
  9
$DIMTIH
 70
     1
  9
$DIMTOH
 70
     1
  9
$DIMSE1
 70
     0
  9
$DIMSE2
 70
     0
  9
$DIMTAD
 70
     1
  9
$DIMZIN
 70
     0
  9
$DIMBLK
  1

  9
$DIMASO
 70
     1
  9
$DIMSHO
 70
     1
  9
$DIMPOST
  1

  9
$DIMAPOST
  1

  9
$DIMALT
 70
     0
  9
$DIMALTD
 70
     3
  9
$DIMALTF
 40
0.0393700787401575
  9
$DIMLFAC
 40
1.0
  9
$DIMTOFL
 70
     1
  9
$DIMTVP
 40
0.0
  9
$DIMTIX
 70
     0
  9
$DIMSOXD
 70
     0
  9
$DIMSAH
 70
     0
  9
$DIMBLK1
  1

  9
$DIMBLK2
  1

  9
$DIMSTYLE
  2
ISO-25
  9
$DIMCLRD
 70
     0
  9
$DIMCLRE
 70
     0
  9
$DIMCLRT
 70
     0
  9
$DIMTFAC
 40
1.0
  9
$DIMGAP
 40
1.524
  9
$DIMJUST
 70
     0
  9
$DIMSD1
 70
     0
  9
$DIMSD2
 70
     0
  9
$DIMTOLJ
 70
     0
  9
$DIMTZIN
 70
     0
  9
$DIMALTZ
 70
     0
  9
$DIMALTTZ
 70
     0
  9
$DIMUPT
 70
     0
  9
$DIMDEC
 70
     2
  9
$DIMTDEC
 70
     2
  9
$DIMALTU
 70
     2
  9
$DIMALTTD
 70
     3
  9
$DIMTXSTY
  7
Standard
  9
$DIMAUNIT
 70
     0
  9
$DIMADEC
 70
     2
  9
$DIMALTRND
 40
0.0
  9
$DIMAZIN
 70
     0
  9
$DIMDSEP
 70
    44
  9
$DIMATFIT
 70
     3
  9
$DIMFRAC
 70
     0
  9
$DIMLDRBLK
  1

  9
$DIMLUNIT
 70
     2
  9
$DIMLWD
 70
    -2
  9
$DIMLWE
 70
    -2
  9
$DIMTMOVE
 70
     0
  9
$LUNITS
 70
     2
  9
$LUPREC
 70
     2
  9
$SKETCHINC
 40
1.0
  9
$FILLETRAD
 40
10.0
  9
$AUNITS
 70
     0
  9
$AUPREC
 70
     2
  9
$MENU
  1
.
  9
$ELEVATION
 40
0.0
  9
$PELEVATION
 40
0.0
  9
$THICKNESS
 40
0.0
  9
$LIMCHECK
 70
     0
  9
$CHAMFERA
 40
0.0
  9
$CHAMFERB
 40
0.0
  9
$CHAMFERC
 40
0.0
  9
$CHAMFERD
 40
0.0
  9
$SKPOLY
 70
     0
  9
$TDCREATE
 40
2458236.742384306
  9
$TDUCREATE
 40
2458236.367384306
  9
$TDUPDATE
 40
2459697.431419155
  9
$TDUUPDATE
 40
2459697.056419155
  9
$TDINDWG
 40
0.0241569213
  9
$TDUSRTIMER
 40
0.0000848032
  9
$USRTIMER
 70
     1
  9
$ANGBASE
 50
0.0
  9
$ANGDIR
 70
     0
  9
$PDMODE
 70
     0
  9
$PDSIZE
 40
-1.0
  9
$PLINEWID
 40
0.0
  9
$SPLFRAME
 70
     0
  9
$SPLINETYPE
 70
     6
  9
$SPLINESEGS
 70
     8
  9
$HANDSEED
  5
244
  9
$SURFTAB1
 70
     6
  9
$SURFTAB2
 70
     6
  9
$SURFTYPE
 70
     6
  9
$SURFU
 70
     6
  9
$SURFV
 70
     6
  9
$UCSBASE
  2

  9
$UCSNAME
  2

  9
$UCSORG
 10
0.0
 20
0.0
 30
0.0
  9
$UCSXDIR
 10
1.0
 20
0.0
 30
0.0
  9
$UCSYDIR
 10
0.0
 20
1.0
 30
0.0
  9
$UCSORTHOREF
  2

  9
$UCSORTHOVIEW
 70
     0
  9
$UCSORGTOP
 10
0.0
 20
0.0
 30
0.0
  9
$UCSORGBOTTOM
 10
0.0
 20
0.0
 30
0.0
  9
$UCSORGLEFT
 10
0.0
 20
0.0
 30
0.0
  9
$UCSORGRIGHT
 10
0.0
 20
0.0
 30
0.0
  9
$UCSORGFRONT
 10
0.0
 20
0.0
 30
0.0
  9
$UCSORGBACK
 10
0.0
 20
0.0
 30
0.0
  9
$PUCSBASE
  2

  9
$PUCSNAME
  2

  9
$PUCSORG
 10
0.0
 20
0.0
 30
0.0
  9
$PUCSXDIR
 10
1.0
 20
0.0
 30
0.0
  9
$PUCSYDIR
 10
0.0
 20
1.0
 30
0.0
  9
$PUCSORTHOREF
  2

  9
$PUCSORTHOVIEW
 70
     0
  9
$PUCSORGTOP
 10
0.0
 20
0.0
 30
0.0
  9
$PUCSORGBOTTOM
 10
0.0
 20
0.0
 30
0.0
  9
$PUCSORGLEFT
 10
0.0
 20
0.0
 30
0.0
  9
$PUCSORGRIGHT
 10
0.0
 20
0.0
 30
0.0
  9
$PUCSORGFRONT
 10
0.0
 20
0.0
 30
0.0
  9
$PUCSORGBACK
 10
0.0
 20
0.0
 30
0.0
  9
$USERI1
 70
     0
  9
$USERI2
 70
     0
  9
$USERI3
 70
     0
  9
$USERI4
 70
     0
  9
$USERI5
 70
     0
  9
$USERR1
 40
0.0
  9
$USERR2
 40
0.0
  9
$USERR3
 40
0.0
  9
$USERR4
 40
0.0
  9
$USERR5
 40
0.0
  9
$WORLDVIEW
 70
     1
  9
$SHADEDGE
 70
     3
  9
$SHADEDIF
 70
    70
  9
$TILEMODE
 70
     1
  9
$MAXACTVP
 70
    64
  9
$PINSBASE
 10
0.0
 20
0.0
 30
0.0
  9
$PLIMCHECK
 70
     0
  9
$PEXTMIN
 10
1.000000000000000E+20
 20
1.000000000000000E+20
 30
1.000000000000000E+20
  9
$PEXTMAX
 10
-1.000000000000000E+20
 20
-1.000000000000000E+20
 30
-1.000000000000000E+20
  9
$PLIMMIN
 10
0.0
 20
0.0
  9
$PLIMMAX
 10
0.0
 20
0.0
  9
$UNITMODE
 70
     0
  9
$VISRETAIN
 70
     1
  9
$PLINEGEN
 70
     0
  9
$PSLTSCALE
 70
     1
  9
$TREEDEPTH
 70
  3020
  9
$CMLSTYLE
  2
Standard
  9
$CMLJUST
 70
     0
  9
$CMLSCALE
 40
20.0
  9
$PROXYGRAPHICS
 70
     1
  9
$MEASUREMENT
 70
     1
  9
$CELWEIGHT
370
    -1
  9
$ENDCAPS
280
     0
  9
$JOINSTYLE
280
     0
  9
$LWDISPLAY
290
     1
  9
$INSUNITS
 70
     4
  9
$HYPERLINKBASE
  1

  9
$STYLESHEET
  1

  9
$XEDIT
290
     1
  9
$CEPSNTYPE
380
     0
  9
$PSTYLEMODE
290
     1
  9
$FINGERPRINTGUID
  2
{37AF0D31-4B8A-4B81-AD92-0FBE03565468}
  9
$VERSIONGUID
  2
{FAEB1C32-E019-11D5-929B-00C0DF256EC4}
  9
$EXTNAMES
290
     1
  9
$PSVPSCALE
 40
0.0
  9
$OLESTARTUP
290
     0
  0
ENDSEC
  0
SECTION
  2
CLASSES
  0
CLASS
  1
ACDBDICTIONARYWDFLT
  2
AcDbDictionaryWithDefault
  3
ObjectDBX Classes
 90
        0
280
     0
281
     0
  0
CLASS
  1
VISUALSTYLE
  2
AcDbVisualStyle
  3
ObjectDBX Classes
 90
     4095
280
     0
281
     0
  0
CLASS
  1
MATERIAL
  2
AcDbMaterial
  3
ObjectDBX Classes
 90
     1153
280
     0
281
     0
  0
CLASS
  1
SCALE
  2
AcDbScale
  3
ObjectDBX Classes
 90
     1153
280
     0
281
     0
  0
CLASS
  1
SUN
  2
AcDbSun
  3
SCENEOE
 90
     1153
280
     0
281
     0
  0
CLASS
  1
ACDBPLACEHOLDER
  2
AcDbPlaceHolder
  3
ObjectDBX Classes
 90
        0
280
     0
281
     0
  0
CLASS
  1
LAYOUT
  2
AcDbLayout
  3
ObjectDBX Classes
 90
        0
280
     0
281
     0
  0
CLASS
  1
TABLESTYLE
  2
AcDbTableStyle
  3
ObjectDBX Classes
 90
     4095
280
     0
281
     0
  0
CLASS
  1
MLEADERSTYLE
  2
AcDbMLeaderStyle
  3
ACDB_MLEADERSTYLE_CLASS
 90
     4095
280
     0
281
     0
  0
CLASS
  1
RASTERVARIABLES
  2
AcDbRasterVariables
  3
ISM
 90
        0
280
     0
281
     0
  0
CLASS
  1
DIMASSOC
  2
AcDbDimAssoc
  3
"AcDbDimAssoc|Product Desc:     AcDim ARX App For Dimension|Company:          Autodesk, Inc.|WEB Address:      www.autodesk.com"
 90
        0
280
     0
281
     0
  0
ENDSEC
  0
SECTION
  2
TABLES
  0
TABLE
  2
VPORT
  5
8
330
0
100
AcDbSymbolTable
 70
     1
  0
VPORT
  5
29
330
8
100
AcDbSymbolTableRecord
100
AcDbViewportTableRecord
  2
*Active
 70
     0
 10
0.0
 20
0.0
 11
1.0
 21
1.0
 12
-0.895907868030875
 22
-3.95918897274791
 13
0.0
 23
0.0
 14
10.0
 24
10.0
 15
10.0
 25
10.0
 16
0.0
 26
0.0
 36
1.0
 17
0.0
 27
0.0
 37
0.0
 40
93.33457039727219
 41
1.898569570871261
 42
50.0
 43
0.0
 44
0.0
 50
0.0
 51
0.0
 71
    16
 72
  2000
 73
     1
 74
     3
 75
     0
 76
     0
 77
     0
 78
     0
281
     0
 65
     1
110
0.0
120
0.0
130
0.0
111
1.0
121
0.0
131
0.0
112
0.0
122
1.0
132
0.0
 79
     0
146
0.0
  0
ENDTAB
  0
TABLE
  2
LTYPE
  5
5
330
0
100
AcDbSymbolTable
 70
     6
  0
LTYPE
  5
14
330
5
100
AcDbSymbolTableRecord
100
AcDbLinetypeTableRecord
  2
ByBlock
 70
     0
  3

 72
    65
 73
     0
 40
0.0
  0
LTYPE
  5
15
330
5
100
AcDbSymbolTableRecord
100
AcDbLinetypeTableRecord
  2
ByLayer
 70
     0
  3

 72
    65
 73
     0
 40
0.0
  0
LTYPE
  5
16
330
5
100
AcDbSymbolTableRecord
100
AcDbLinetypeTableRecord
  2
Continuous
 70
     0
  3
Solid line
 72
    65
 73
     0
 40
0.0
  0
LTYPE
  5
6A
330
5
100
AcDbSymbolTableRecord
100
AcDbLinetypeTableRecord
  2
HIDDEN
 70
     0
  3
Hidden __ __ __ __ __ __ __ __ __ __ __ __ __ __
 72
    65
 73
     2
 40
1.905
 49
1.27
 74
     0
 49
-0.635
 74
     0
  0
LTYPE
  5
6B
330
5
100
AcDbSymbolTableRecord
100
AcDbLinetypeTableRecord
  2
PHANTOM
 70
     0
  3
Phantom ______  __  __  ______  __  __  ______
 72
    65
 73
     6
 40
12.7
 49
6.35
 74
     0
 49
-1.27
 74
     0
 49
1.27
 74
     0
 49
-1.27
 74
     0
 49
1.27
 74
     0
 49
-1.27
 74
     0
  0
LTYPE
  5
6C
330
5
100
AcDbSymbolTableRecord
100
AcDbLinetypeTableRecord
  2
CENTER
 70
     0
  3
Center ____ _ ____ _ ____ _ ____ _ ____ _ ____
 72
    65
 73
     4
 40
10.16
 49
6.35
 74
     0
 49
-1.27
 74
     0
 49
1.27
 74
     0
 49
-1.27
 74
     0
  0
LTYPE
  5
6D
330
5
100
AcDbSymbolTableRecord
100
AcDbLinetypeTableRecord
  2
CENTERX2
 70
     0
  3
Center (2x) ________  __  ________  __  _____
 72
    65
 73
     4
 40
20.32
 49
12.7
 74
     0
 49
-2.54
 74
     0
 49
2.54
 74
     0
 49
-2.54
 74
     0
  0
LTYPE
  5
6E
330
5
100
AcDbSymbolTableRecord
100
AcDbLinetypeTableRecord
  2
DOT2
 70
     0
  3
Dot (.5x) ........................................
 72
    65
 73
     2
 40
0.635
 49
0.0
 74
     0
 49
-0.635
 74
     0
  0
ENDTAB
  0
TABLE
  2
LAYER
  5
2
102
{ACAD_XDICTIONARY
360
1D0
102
}
330
0
100
AcDbSymbolTable
 70
    17
  0
LAYER
  5
10
330
2
100
AcDbSymbolTableRecord
100
AcDbLayerTableRecord
  2
0
 70
     0
 62
     7
  6
Continuous
370
    -3
390
F
  0
LAYER
  5
6F
330
2
100
AcDbSymbolTableRecord
100
AcDbLayerTableRecord
  2
FORMAT
 70
     0
 62
     2
  6
Continuous
370
    -3
390
F
  0
LAYER
  5
70
330
2
100
AcDbSymbolTableRecord
100
AcDbLayerTableRecord
  2
외형선
 70
     0
 62
   100
  6
Continuous
370
    30
390
F
  0
LAYER
  5
71
330
2
100
AcDbSymbolTableRecord
100
AcDbLayerTableRecord
  2
숨은선
 70
     0
 62
     2
  6
HIDDEN
370
    15
390
F
  0
LAYER
  5
72
330
2
100
AcDbSymbolTableRecord
100
AcDbLayerTableRecord
  2
중심선
 70
     0
 62
     1
  6
CENTERX2
370
    -3
390
F
  0
LAYER
  5
73
330
2
100
AcDbSymbolTableRecord
100
AcDbLayerTableRecord
  2
파단선
 70
     0
 62
     4
  6
Continuous
370
    -3
390
F
  0
LAYER
  5
74
330
2
100
AcDbSymbolTableRecord
100
AcDbLayerTableRecord
  2
해칭선
 70
     0
 62
     4
  6
Continuous
370
    -3
390
F
  0
LAYER
  5
75
330
2
100
AcDbSymbolTableRecord
100
AcDbLayerTableRecord
  2
가는실선
 70
     0
 62
     4
  6
Continuous
370
    -3
390
F
  0
LAYER
  5
76
330
2
100
AcDbSymbolTableRecord
100
AcDbLayerTableRecord
  2
치수_보조선
 70
     0
 62
     4
  6
Continuous
370
    -3
390
F
  0
LAYER
  5
77
330
2
100
AcDbSymbolTableRecord
100
AcDbLayerTableRecord
  2
치수문자_일반주서
 70
     0
 62
     7
  6
Continuous
370
    15
390
F
  0
LAYER
  5
78
330
2
100
AcDbSymbolTableRecord
100
AcDbLayerTableRecord
  2
개별주서
 70
     0
 62
   100
  6
Continuous
370
    30
390
F
  0
LAYER
  5
79
330
2
100
AcDbSymbolTableRecord
100
AcDbLayerTableRecord
  2
중간선
 70
     0
 62
     2
  6
Continuous
370
    15
390
F
  0
LAYER
  5
7A
330
2
100
AcDbSymbolTableRecord
100
AcDbLayerTableRecord
  2
윤곽선
 70
     0
 62
     3
  6
Continuous
370
    40
390
F
  0
LAYER
  5
7B
330
2
100
AcDbSymbolTableRecord
100
AcDbLayerTableRecord
  2
중심마크
 70
     0
 62
   100
  6
Continuous
370
    30
390
F
  0
LAYER
  5
7C
330
2
100
AcDbSymbolTableRecord
100
AcDbLayerTableRecord
  2
가상선
 70
     0
 62
     4
  6
PHANTOM
370
    -3
390
F
  0
LAYER
  5
7D
330
2
100
AcDbSymbolTableRecord
100
AcDbLayerTableRecord
  2
특수지정선
 70
     0
 62
     5
  6
CENTERX2
370
    60
390
F
  0
LAYER
  5
16D
330
2
100
AcDbSymbolTableRecord
100
AcDbLayerTableRecord
  2
Defpoints
 70
     0
 62
     7
  6
Continuous
290
     0
370
    -3
390
F
  0
ENDTAB
  0
TABLE
  2
STYLE
  5
3
330
0
100
AcDbSymbolTable
 70
     2
  0
STYLE
  5
11
330
3
100
AcDbSymbolTableRecord
100
AcDbTextStyleTableRecord
  2
Standard
 70
     0
 40
0.0
 41
1.0
 50
0.0
 71
     0
 42
3.5
  3
txt
  4

  0
STYLE
  5
93
330
3
100
AcDbSymbolTableRecord
100
AcDbTextStyleTableRecord
  2
SLDTEXTSTYLE0
 70
     0
 40
0.0
 41
0.75
 50
0.0
 71
     0
 42
3.5
  3
TXT
  4

  0
ENDTAB
  0
TABLE
  2
VIEW
  5
6
330
0
100
AcDbSymbolTable
 70
     0
  0
ENDTAB
  0
TABLE
  2
UCS
  5
7
330
0
100
AcDbSymbolTable
 70
     0
  0
ENDTAB
  0
TABLE
  2
APPID
  5
9
330
0
100
AcDbSymbolTable
 70
     2
  0
APPID
  5
12
330
9
100
AcDbSymbolTableRecord
100
AcDbRegAppTableRecord
  2
ACAD
 70
     0
  0
APPID
  5
16E
330
9
100
AcDbSymbolTableRecord
100
AcDbRegAppTableRecord
  2
ACAD_DSTYLE_DIMRADIAL_EXTENSION
 70
     0
  0
ENDTAB
  0
TABLE
  2
DIMSTYLE
  5
A
330
0
100
AcDbSymbolTable
 70
     3
100
AcDbDimStyleTable
  0
DIMSTYLE
105
27
330
A
100
AcDbSymbolTableRecord
100
AcDbDimStyleTableRecord
  2
ISO-25
 70
     0
 41
2.5
 42
0.625
 43
3.75
 44
1.25
 73
     0
 74
     0
 77
     1
 78
     8
140
2.5
141
2.5
143
0.03937007874016
147
0.625
171
     3
172
     1
178
     0
271
     2
272
     2
274
     3
278
    44
283
     0
284
     8
340
11
  0
DIMSTYLE
105
F3
102
{ACAD_REACTORS
330
F2
330
12E
102
}
330
A
100
AcDbSymbolTableRecord
100
AcDbDimStyleTableRecord
  2
SLDDIMSTYLE0
 70
     0
 41
3.302
 44
0.0
 45
0.000000001
 73
     0
 74
     0
 77
     1
 78
    12
 79
     3
140
3.5
143
0.0393700787401575
147
0.875
148
0.000000001
170
     1
172
     1
173
     1
178
     0
271
     2
272
     2
276
     2
284
    12
289
     0
340
93
  0
DIMSTYLE
105
108
102
{ACAD_REACTORS
330
107
330
11B
330
172
102
}
330
A
100
AcDbSymbolTableRecord
100
AcDbDimStyleTableRecord
  2
SLDDIMSTYLE1
 70
     0
 41
3.302
 44
0.0
 45
0.000000001
 73
     0
 74
     0
 77
     1
 78
     4
 79
     1
140
3.5
143
0.0393700787401575
147
0.875
148
0.000000001
170
     1
173
     1
178
     0
271
     2
272
     2
276
     2
284
    12
340
93
  0
ENDTAB
  0
TABLE
  2
BLOCK_RECORD
  5
1
330
0
100
AcDbSymbolTable
 70
     8
  0
BLOCK_RECORD
  5
1F
102
{ACAD_XDICTIONARY
360
241
102
}
330
1
100
AcDbSymbolTableRecord
100
AcDbBlockTableRecord
  2
*Model_Space
340
22
  0
BLOCK_RECORD
  5
1B
330
1
100
AcDbSymbolTableRecord
100
AcDbBlockTableRecord
  2
*Paper_Space
340
1E
  0
BLOCK_RECORD
  5
23
330
1
100
AcDbSymbolTableRecord
100
AcDbBlockTableRecord
  2
*Paper_Space0
340
26
  0
BLOCK_RECORD
  5
7E
330
1
100
AcDbSymbolTableRecord
100
AcDbBlockTableRecord
  2
블럭10
340
0
102
{BLKREFS
331
EA
102
}
  0
BLOCK_RECORD
  5
F4
330
1
100
AcDbSymbolTableRecord
100
AcDbBlockTableRecord
  2
_D
340
0
  0
BLOCK_RECORD
  5
109
330
1
100
AcDbSymbolTableRecord
100
AcDbBlockTableRecord
  2
_D_1
340
0
  0
BLOCK_RECORD
  5
11C
330
1
100
AcDbSymbolTableRecord
100
AcDbBlockTableRecord
  2
_D_2
340
0
  0
BLOCK_RECORD
  5
12F
330
1
100
AcDbSymbolTableRecord
100
AcDbBlockTableRecord
  2
_D_3
340
0
  0
BLOCK_RECORD
  5
142
330
1
100
AcDbSymbolTableRecord
100
AcDbBlockTableRecord
  2
SW_DOWELSYMBOL_0
340
0
102
{BLKREFS
331
148
102
}
  0
BLOCK_RECORD
  5
175
330
1
100
AcDbSymbolTableRecord
100
AcDbBlockTableRecord
  2
*D7
340
0
  0
ENDTAB
  0
ENDSEC
  0
SECTION
  2
BLOCKS
  0
BLOCK
  5
20
330
1F
100
AcDbEntity
  8
0
100
AcDbBlockBegin
  2
*Model_Space
 70
     0
 10
0.0
 20
0.0
 30
0.0
  3
*Model_Space
  1
*Model_Space
  0
ENDBLK
  5
21
330
1F
100
AcDbEntity
  8
0
100
AcDbBlockEnd
  0
BLOCK
  5
1C
330
1B
100
AcDbEntity
 67
     1
  8
0
100
AcDbBlockBegin
  2
*Paper_Space
 70
     0
 10
0.0
 20
0.0
 30
0.0
  3
*Paper_Space
  1
*Paper_Space
  0
ENDBLK
  5
1D
330
1B
100
AcDbEntity
 67
     1
  8
0
100
AcDbBlockEnd
  0
BLOCK
  5
24
330
23
100
AcDbEntity
  8
0
100
AcDbBlockBegin
  2
*Paper_Space0
 70
     0
 10
0.0
 20
0.0
 30
0.0
  3
*Paper_Space0
  1
*Paper_Space0
  0
ENDBLK
  5
25
330
23
100
AcDbEntity
  8
0
100
AcDbBlockEnd
  0
BLOCK
  5
7F
330
7E
100
AcDbEntity
  8
0
100
AcDbBlockBegin
  2
블럭10
 70
     2
 10
0.0
 20
0.0
 30
0.0
  3
블럭10
  1
블럭10
  0
ELLIPSE
  5
81
330
7E
100
AcDbEntity
  8
중심선
100
AcDbEllipse
 10
20.54032771741204
 20
12.0471743016438
 30
0.0
 11
6.600054785286829
 21
-1.261213355974178E-13
 31
0.0
210
0.0
220
0.0
230
1.0
 40
0.636358354079598
 41
0.9219305317359503
 42
6.513795318482858
  0
ELLIPSE
  5
82
330
7E
100
AcDbEntity
  8
중심선
100
AcDbEllipse
 10
20.54032771746488
 20
12.04717430159265
 30
0.0
 11
3.960054785062283
 21
1.540847449632565E-10
 31
0.0
210
0.0
220
0.0
230
1.0
 40
0.3939339440162632
 41
1.131841032648279
 42
5.62031148352944
  0
LINE
  5
83
330
7E
100
AcDbEntity
  8
중심선
100
AcDbLine
 10
2.268634060543552
 20
16.24717430164393
 30
0.0
 11
5.714909304380834
 21
16.24717430164393
 31
0.0
  0
LINE
  5
84
330
7E
100
AcDbEntity
  8
중심선
100
AcDbLine
 10
5.245725140726316
 20
7.84717430164391
 30
0.0
 11
8.692000384563599
 21
7.84717430164391
 31
0.0
  0
LINE
  5
85
330
7E
100
AcDbEntity
  8
중심선
100
AcDbLine
 10
15.74043728645272
 20
16.24717430164393
 30
0.0
 11
8.692000384563599
 21
7.84717430164391
 31
0.0
  0
LINE
  5
86
330
7E
100
AcDbEntity
  8
중심선
100
AcDbLine
 10
0.1404042013395286
 20
13.71084872107135
 30
0.0
 11
3.58671253028996
 21
13.71088815037384
 31
0.0
  0
LINE
  5
87
330
7E
100
AcDbEntity
  8
중심선
100
AcDbLine
 10
2.750260043222114
 20
10.84717430164391
 30
0.0
 11
6.196535287059397
 21
10.84717430164391
 31
0.0
  0
LINE
  5
88
330
7E
100
AcDbEntity
  8
중심선
100
AcDbLine
 10
12.29416204261559
 20
16.24717430164393
 30
0.0
 11
5.245725140726316
 21
7.84717430164391
 31
0.0
  0
LINE
  5
89
330
7E
100
AcDbEntity
  8
중심선
100
AcDbLine
 10
10.72767329541681
 20
16.24717430164393
 30
0.0
 11
6.196535287059397
 21
10.84717430164391
 31
0.0
  0
LINE
  5
8A
330
7E
100
AcDbEntity
  8
중심선
100
AcDbLine
 10
7.28139805157953
 20
16.24717430164393
 30
0.0
 11
2.750260043222114
 21
10.84717430164391
 31
0.0
  0
LINE
  5
8B
330
7E
100
AcDbEntity
  8
중심선
100
AcDbLine
 10
5.714909304380834
 20
16.24717430164393
 30
0.0
 11
3.58671253028996
 21
13.71088815037384
 31
0.0
  0
LINE
  5
8C
330
7E
100
AcDbEntity
  8
중심선
100
AcDbLine
 10
2.268634060543552
 20
16.24717430164393
 30
0.0
 11
0.1404042013395286
 21
13.71084872107135
 31
0.0
  0
LINE
  5
8D
330
7E
100
AcDbEntity
  8
중심선
100
AcDbLine
 10
7.28139805157953
 20
16.24717430164393
 30
0.0
 11
10.72767329541681
 21
16.24717430164393
 31
0.0
  0
LINE
  5
8E
330
7E
100
AcDbEntity
  8
중심선
100
AcDbLine
 10
12.29416204261559
 20
16.24717430164393
 30
0.0
 11
15.74043728645272
 21
16.24717430164393
 31
0.0
  0
LINE
  5
8F
330
7E
100
AcDbEntity
  8
중심선
100
AcDbLine
 10
19.22036997980202
 20
11.08717430171403
 30
0.0
 11
23.66174974927406
 21
11.08717430171406
 31
0.0
  0
LINE
  5
90
330
7E
100
AcDbEntity
  8
중심선
100
AcDbLine
 10
19.22039502424796
 20
13.00717430171391
 30
0.0
 11
19.22036997980202
 21
11.08717430171403
 31
0.0
  0
LINE
  5
91
330
7E
100
AcDbEntity
  8
중심선
100
AcDbLine
 10
19.22039502424796
 20
13.00717430171391
 30
0.0
 11
26.96566020931264
 21
13.00717430171391
 31
0.0
  0
LINE
  5
92
330
7E
100
AcDbEntity
  8
중심선
100
AcDbLine
 10
22.22332737316547
 20
13.45928029700563
 30
0.0
 11
24.52862924686651
 21
15.39360700705356
 31
0.0
  0
ATTDEF
  5
94
330
7E
100
AcDbEntity
  8
FORMAT
 62
     2
100
AcDbText
 10
-11.05102035218446
 20
2.075366912832191
 30
0.0
 40
4.233333333333333
  1
GMG22912[ 6 FLUTE ]
 41
0.75
  7
SLDTEXTSTYLE0
 11
-11.05102035218446
 21
-0.0412997538344756
 31
0.0
100
AcDbAttributeDefinition
  3

  2
AUTOATTR0
 70
     0
 74
     1
  0
ENDBLK
  5
80
330
7E
100
AcDbEntity
  8
0
100
AcDbBlockEnd
  0
BLOCK
  5
F5
330
F4
100
AcDbEntity
  8
0
100
AcDbBlockBegin
  2
_D
 70
     0
 10
0.0
 20
0.0
 30
0.0
  3
_D
  1
_D
  0
LINE
  5
F7
330
F4
100
AcDbEntity
  8
치수문자_일반주서
 62
     0
370
    -2
100
AcDbLine
 10
46.63850000000377
 20
-4.762499999999994
 30
0.0
 11
66.74524571577673
 21
-4.76249999999992
 31
0.0
  0
LINE
  5
F8
330
F4
100
AcDbEntity
  8
치수문자_일반주서
 62
     0
370
    -2
100
AcDbLine
 10
46.63850000000377
 20
4.762500000000014
 30
0.0
 11
66.7452457157767
 21
4.762500000000087
 31
0.0
  0
LINE
  5
F9
330
F4
100
AcDbEntity
  8
치수문자_일반주서
 62
     0
370
    -2
100
AcDbLine
 10
66.74524571577672
 20
-1.460499999999921
 30
0.0
 11
66.74524571577672
 21
1.460500000000088
 31
0.0
  0
SOLID
  5
FA
330
F4
100
AcDbEntity
  8
치수문자_일반주서
 62
     0
100
AcDbTrace
 10
66.19491238244339
 20
-1.460499999999922
 30
0.0
 11
67.29557904911005
 21
-1.460499999999919
 31
0.0
 12
66.74524571577673
 22
-4.76249999999992
 32
0.0
 13
66.74524571577673
 23
-4.76249999999992
 33
0.0
  0
SOLID
  5
FB
330
F4
100
AcDbEntity
  8
치수문자_일반주서
 62
     0
100
AcDbTrace
 10
67.29557904911005
 20
1.460500000000089
 30
0.0
 11
66.19491238244339
 21
1.460500000000086
 31
0.0
 12
66.7452457157767
 22
4.762500000000087
 32
0.0
 13
66.7452457157767
 23
4.762500000000087
 33
0.0
  0
MTEXT
  5
FC
330
F4
100
AcDbEntity
  8
치수문자_일반주서
 62
     0
100
AcDbMText
 10
62.37024571577672
 20
-0.496553784653529
 30
0.0
 40
3.5
 41
0.0
 71
     2
 72
     1
  1
\A1;%%c9.53 [3/8]
  7
SLDTEXTSTYLE0
 11
-2.983906501879683E-15
 21
1.0
 31
0.0
 73
     1
 44
1.0
  0
POINT
  5
FD
330
F4
100
AcDbEntity
  8
Defpoints
 62
     0
100
AcDbPoint
 10
46.57600000000377
 20
-4.762499999999994
 30
0.0
  0
POINT
  5
FE
330
F4
100
AcDbEntity
  8
Defpoints
 62
     0
100
AcDbPoint
 10
46.57600000000377
 20
4.762500000000014
 30
0.0
  0
POINT
  5
FF
330
F4
100
AcDbEntity
  8
Defpoints
 62
     0
100
AcDbPoint
 10
66.7452457157767
 20
4.762500000000089
 30
0.0
  0
ENDBLK
  5
F6
330
F4
100
AcDbEntity
  8
0
100
AcDbBlockEnd
  0
BLOCK
  5
10A
330
109
100
AcDbEntity
  8
0
100
AcDbBlockBegin
  2
_D_1
 70
     0
 10
0.0
 20
0.0
 30
0.0
  3
_D_1
  1
_D_1
  0
LINE
  5
10C
330
109
100
AcDbEntity
  8
치수문자_일반주서
 62
     0
370
    -2
100
AcDbLine
 10
-53.49999999999621
 20
4.324999999999998
 30
0.0
 11
-53.49999999999621
 21
37.41805141807179
 31
0.0
  0
LINE
  5
10D
330
109
100
AcDbEntity
  8
치수문자_일반주서
 62
     0
370
    -2
100
AcDbLine
 10
48.10000000000378
 20
3.301000000000006
 30
0.0
 11
48.10000000000378
 21
37.41805141807179
 31
0.0
  0
LINE
  5
10E
330
109
100
AcDbEntity
  8
치수문자_일반주서
 62
     0
370
    -2
100
AcDbLine
 10
-50.19799999999621
 20
37.41805141807179
 30
0.0
 11
44.79800000000378
 21
37.41805141807179
 31
0.0
  0
SOLID
  5
10F
330
109
100
AcDbEntity
  8
치수문자_일반주서
 62
     0
100
AcDbTrace
 10
-50.19799999999621
 20
37.96838475140513
 30
0.0
 11
-50.19799999999621
 21
36.86771808473846
 31
0.0
 12
-53.49999999999621
 22
37.41805141807179
 32
0.0
 13
-53.49999999999621
 23
37.41805141807179
 33
0.0
  0
SOLID
  5
110
330
109
100
AcDbEntity
  8
치수문자_일반주서
 62
     0
100
AcDbTrace
 10
44.79800000000378
 20
36.86771808473846
 30
0.0
 11
44.79800000000378
 21
37.96838475140513
 31
0.0
 12
48.10000000000378
 22
37.41805141807179
 32
0.0
 13
48.10000000000378
 23
37.41805141807179
 33
0.0
  0
MTEXT
  5
111
330
109
100
AcDbEntity
  8
치수문자_일반주서
 62
     0
100
AcDbMText
 10
-2.699999999996214
 20
41.79305141807179
 30
0.0
 40
3.5
 41
0.0
 71
     2
 72
     1
  1
\A1;101.60 [4]
  7
SLDTEXTSTYLE0
 73
     1
 44
1.0
  0
POINT
  5
112
330
109
100
AcDbEntity
  8
Defpoints
 62
     0
100
AcDbPoint
 10
-53.49999999999621
 20
4.262499999999998
 30
0.0
  0
POINT
  5
113
330
109
100
AcDbEntity
  8
Defpoints
 62
     0
100
AcDbPoint
 10
48.10000000000378
 20
3.238500000000006
 30
0.0
  0
POINT
  5
114
330
109
100
AcDbEntity
  8
Defpoints
 62
     0
100
AcDbPoint
 10
48.10000000000378
 20
37.41805141807179
 30
0.0
  0
ENDBLK
  5
10B
330
109
100
AcDbEntity
  8
0
100
AcDbBlockEnd
  0
BLOCK
  5
11D
330
11C
100
AcDbEntity
  8
0
100
AcDbBlockBegin
  2
_D_2
 70
     0
 10
0.0
 20
0.0
 30
0.0
  3
_D_2
  1
_D_2
  0
LINE
  5
11F
330
11C
100
AcDbEntity
  8
치수문자_일반주서
 62
     0
370
    -2
100
AcDbLine
 10
48.10000000000378
 20
3.301000000000006
 30
0.0
 11
48.10000000000378
 21
20.86549453033001
 31
0.0
  0
LINE
  5
120
330
11C
100
AcDbEntity
  8
치수문자_일반주서
 62
     0
370
    -2
100
AcDbLine
 10
9.999999999999993
 20
4.691997705087139
 30
0.0
 11
9.999999999999993
 21
20.86549453033001
 31
0.0
  0
LINE
  5
121
330
11C
100
AcDbEntity
  8
치수문자_일반주서
 62
     0
370
    -2
100
AcDbLine
 10
44.79800000000378
 20
20.86549453033001
 30
0.0
 11
13.30199999999999
 21
20.86549453033001
 31
0.0
  0
SOLID
  5
122
330
11C
100
AcDbEntity
  8
치수문자_일반주서
 62
     0
100
AcDbTrace
 10
44.79800000000378
 20
20.31516119699668
 30
0.0
 11
44.79800000000378
 21
21.41582786366335
 31
0.0
 12
48.10000000000378
 22
20.86549453033001
 32
0.0
 13
48.10000000000378
 23
20.86549453033001
 33
0.0
  0
SOLID
  5
123
330
11C
100
AcDbEntity
  8
치수문자_일반주서
 62
     0
100
AcDbTrace
 10
13.30199999999999
 20
21.41582786366335
 30
0.0
 11
13.30199999999999
 21
20.31516119699668
 31
0.0
 12
9.999999999999993
 22
20.86549453033001
 32
0.0
 13
9.999999999999993
 23
20.86549453033001
 33
0.0
  0
MTEXT
  5
124
330
11C
100
AcDbEntity
  8
치수문자_일반주서
 62
     0
100
AcDbMText
 10
28.63090169784718
 20
25.24049453033001
 30
0.0
 40
3.5
 41
0.0
 71
     2
 72
     1
  1
\A1;38.10 [1 1/2]
  7
SLDTEXTSTYLE0
 73
     1
 44
1.0
  0
POINT
  5
125
330
11C
100
AcDbEntity
  8
Defpoints
 62
     0
100
AcDbPoint
 10
48.10000000000378
 20
3.238500000000006
 30
0.0
  0
POINT
  5
126
330
11C
100
AcDbEntity
  8
Defpoints
 62
     0
100
AcDbPoint
 10
9.999999999999993
 20
4.629497705087139
 30
0.0
  0
POINT
  5
127
330
11C
100
AcDbEntity
  8
Defpoints
 62
     0
100
AcDbPoint
 10
9.999999999999993
 20
20.86549453033001
 30
0.0
  0
ENDBLK
  5
11E
330
11C
100
AcDbEntity
  8
0
100
AcDbBlockEnd
  0
BLOCK
  5
130
330
12F
100
AcDbEntity
  8
0
100
AcDbBlockBegin
  2
_D_3
 70
     0
 10
0.0
 20
0.0
 30
0.0
  3
_D_3
  1
_D_3
  0
LINE
  5
132
330
12F
100
AcDbEntity
  8
치수문자_일반주서
 62
     0
370
    -2
100
AcDbLine
 10
-53.06249999999621
 20
4.762500000000002
 30
0.0
 11
-66.49999999999623
 21
4.762499999999953
 31
0.0
  0
LINE
  5
133
330
12F
100
AcDbEntity
  8
치수문자_일반주서
 62
     0
370
    -2
100
AcDbLine
 10
-53.06249999999621
 20
-4.762499999999998
 30
0.0
 11
-66.4999999999962
 21
-4.762500000000047
 31
0.0
  0
LINE
  5
134
330
12F
100
AcDbEntity
  8
치수문자_일반주서
 62
     0
370
    -2
100
AcDbLine
 10
-66.49999999999622
 20
1.460499999999954
 30
0.0
 11
-66.49999999999622
 21
-1.460500000000048
 31
0.0
  0
SOLID
  5
135
330
12F
100
AcDbEntity
  8
치수문자_일반주서
 62
     0
100
AcDbTrace
 10
-65.94966666666289
 20
1.460499999999955
 30
0.0
 11
-67.05033333332955
 21
1.460499999999952
 31
0.0
 12
-66.49999999999623
 22
4.762499999999953
 32
0.0
 13
-66.49999999999623
 23
4.762499999999953
 33
0.0
  0
SOLID
  5
136
330
12F
100
AcDbEntity
  8
치수문자_일반주서
 62
     0
100
AcDbTrace
 10
-67.05033333332955
 20
-1.460500000000049
 30
0.0
 11
-65.94966666666289
 21
-1.460500000000046
 31
0.0
 12
-66.4999999999962
 22
-4.762500000000047
 32
0.0
 13
-66.4999999999962
 23
-4.762500000000047
 33
0.0
  0
MTEXT
  5
137
330
12F
100
AcDbEntity
  8
치수문자_일반주서
 62
     0
100
AcDbMText
 10
-70.87499999999622
 20
-0.0000000000000132
 30
0.0
 40
3.5
 41
0.0
 71
     2
 72
     1
  1
\A1;%%c9.53 [3/8]
  7
SLDTEXTSTYLE0
 11
-2.983906501879685E-15
 21
1.0
 31
0.0
 73
     1
 44
1.0
  0
POINT
  5
138
330
12F
100
AcDbEntity
  8
Defpoints
 62
     0
100
AcDbPoint
 10
-52.99999999999621
 20
4.762500000000002
 30
0.0
  0
POINT
  5
139
330
12F
100
AcDbEntity
  8
Defpoints
 62
     0
100
AcDbPoint
 10
-52.99999999999621
 20
-4.762499999999998
 30
0.0
  0
POINT
  5
13A
330
12F
100
AcDbEntity
  8
Defpoints
 62
     0
100
AcDbPoint
 10
-66.4999999999962
 20
-4.762500000000049
 30
0.0
  0
ENDBLK
  5
131
330
12F
100
AcDbEntity
  8
0
100
AcDbBlockEnd
  0
BLOCK
  5
143
330
142
100
AcDbEntity
  8
0
100
AcDbBlockBegin
  2
SW_DOWELSYMBOL_0
 70
     0
 10
0.0
 20
0.0
 30
0.0
  3
SW_DOWELSYMBOL_0
  1
SW_DOWELSYMBOL_0
  0
CIRCLE
  5
145
330
142
100
AcDbEntity
  8
외형선
 62
     0
100
AcDbCircle
 10
0.0
 20
0.0
 30
0.0
 40
3.000000000003604
  0
HATCH
  5
146
330
142
100
AcDbEntity
  8
0
  6
Continuous
 62
     0
370
    30
100
AcDbHatch
 10
0.0
 20
0.0
 30
0.0
210
0.0
220
0.0
230
1.0
  2
SOLID
 70
     1
 71
     0
 91
        1
 92
        0
 93
        3
 72
     2
 10
0.0
 20
0.0
 40
3.000000000003604
 50
0.0
 51
90.0
 73
     1
 72
     1
 10
0.0
 20
3.000000000003604
 11
0.0
 21
0.0
 72
     1
 10
0.0
 20
0.0
 11
3.000000000003604
 21
0.0
 97
        0
 75
     0
 76
     1
 98
        1
 10
0.0
 20
0.0
  0
HATCH
  5
147
330
142
100
AcDbEntity
  8
0
  6
Continuous
 62
     0
370
    30
100
AcDbHatch
 10
0.0
 20
0.0
 30
0.0
210
0.0
220
0.0
230
1.0
  2
SOLID
 70
     1
 71
     0
 91
        1
 92
        0
 93
        3
 72
     2
 10
0.0
 20
0.0
 40
3.000000000003604
 50
180.0
 51
270.0000000000007
 73
     1
 72
     1
 10
0.0
 20
-3.000000000003604
 11
0.0
 21
0.0
 72
     1
 10
0.0
 20
0.0
 11
-3.000000000003604
 21
0.0
 97
        0
 75
     0
 76
     1
 98
        1
 10
0.0
 20
0.0
  0
ENDBLK
  5
144
330
142
100
AcDbEntity
  8
0
100
AcDbBlockEnd
  0
BLOCK
  5
176
330
175
100
AcDbEntity
  8
0
100
AcDbBlockBegin
  2
*D7
 70
     1
 10
0.0
 20
0.0
 30
0.0
  3
*D7
  1
*D7
  0
LINE
  5
178
330
175
100
AcDbEntity
  8
치수문자_일반주서
 62
     0
370
    -2
100
AcDbLine
 10
49.78205165045535
 20
7.247453576804718
 30
0.0
 11
69.08318426393451
 21
32.88925274424012
 31
0.0
  0
MTEXT
  5
179
330
175
100
AcDbEntity
  8
치수문자_일반주서
 62
     0
100
AcDbMText
 10
58.43490361827244
 20
23.10776022756772
 30
0.0
 40
3.5
 41
0.0
 71
     5
 72
     1
  1
\A1;R.76 [R0.030]
  7
SLDTEXTSTYLE0
 11
0.6013906620205646
 21
0.798955112402735
 31
0.0
 73
     1
 44
1.0
  0
SOLID
  5
17A
330
175
100
AcDbEntity
  8
치수문자_일반주서
 62
     0
100
AcDbTrace
 10
49.34236002026304
 20
7.578418904470035
 30
0.0
 11
50.22174328064766
 21
6.916488249139401
 31
0.0
 12
47.79625968446345
 22
4.609303795650887
 32
0.0
 13
47.79625968446345
 23
4.609303795650887
 33
0.0
  0
LINE
  5
17B
330
175
100
AcDbEntity
  8
치수문자_일반주서
 62
     0
100
AcDbLine
 10
47.24800000000378
 20
4.000500000000004
 30
0.0
 11
47.42800000000378
 21
4.000500000000004
 31
0.0
  0
LINE
  5
17C
330
175
100
AcDbEntity
  8
치수문자_일반주서
 62
     0
100
AcDbLine
 10
47.33800000000378
 20
3.910500000000004
 30
0.0
 11
47.33800000000378
 21
4.090500000000004
 31
0.0
  0
POINT
  5
17D
330
175
100
AcDbEntity
  8
Defpoints
 62
     0
100
AcDbPoint
 10
47.79625968446345
 20
4.609303795650887
 30
0.0
  0
POINT
  5
17E
330
175
100
AcDbEntity
  8
Defpoints
 62
     0
100
AcDbPoint
 10
47.33800000000378
 20
4.000500000000004
 30
0.0
  0
ENDBLK
  5
177
330
175
100
AcDbEntity
  8
0
100
AcDbBlockEnd
  0
ENDSEC
  0
SECTION
  2
ENTITIES
  0
LINE
  5
95
330
1F
100
AcDbEntity
  8
0
  6
Continuous
 62
     4
370
    15
100
AcDbLine
 10
8.480002758625982
 20
4.762500000000006
 30
0.0
 11
-28.81754999999609
 21
4.762500000000004
 31
0.0
  0
LINE
  5
96
330
1F
100
AcDbEntity
  8
0
  6
Continuous
 62
     4
370
    15
100
AcDbLine
 10
-52.99999999999621
 20
-4.762499999999998
 30
0.0
 11
8.48062487363652
 21
-4.762499999999995
 31
0.0
  0
LINE
  5
97
330
1F
100
AcDbEntity
  8
0
  6
Continuous
 62
     4
370
    15
100
AcDbLine
 10
-52.99999999999621
 20
4.762499999999999
 30
0.0
 11
-53.49999999999621
 21
4.262499999999998
 31
0.0
  0
LINE
  5
98
330
1F
100
AcDbEntity
  8
0
  6
Continuous
 62
     4
370
    15
100
AcDbLine
 10
-53.49999999999621
 20
-4.262499999999996
 30
0.0
 11
-52.99999999999621
 21
-4.762499999999996
 31
0.0
  0
LINE
  5
99
330
1F
100
AcDbEntity
  8
0
  6
Continuous
 62
     1
370
    15
100
AcDbLine
 10
8.480390585948783
 20
4.762474687273943
 30
0.0
 11
8.48039059317838
 21
4.762590356321716
 31
0.0
  0
LINE
  5
9A
330
1F
100
AcDbEntity
  8
0
  6
Continuous
 62
     1
370
    15
100
AcDbLine
 10
31.07808779873343
 20
-4.762499999999994
 30
0.0
 11
32.70482660386962
 21
-4.762499999999994
 31
0.0
  0
LINE
  5
9B
330
1F
100
AcDbEntity
  8
0
  6
Continuous
 62
     1
370
    15
100
AcDbLine
 10
17.74291089664891
 20
4.762500000000005
 30
0.0
 11
16.11628790972775
 21
4.762500000000005
 31
0.0
  0
LINE
  5
9C
330
1F
100
AcDbEntity
  8
0
  6
Continuous
 62
     1
370
    15
100
AcDbLine
 10
47.33800000000378
 20
4.762500000000005
 30
0.0
 11
46.03935789127117
 21
4.762500000000005
 31
0.0
  0
LINE
  5
9D
330
1F
100
AcDbEntity
  8
0
  6
Continuous
 62
     1
370
    15
100
AcDbLine
 10
41.0525088749896
 20
-4.762499999999994
 30
0.0
 11
42.68005480447865
 21
-4.762499999999994
 31
0.0
  0
LINE
  5
9E
330
1F
100
AcDbEntity
  8
0
  6
Continuous
 62
     1
370
    15
100
AcDbLine
 10
11.12797709092521
 20
-4.762499999999994
 30
0.0
 11
12.75675721681502
 21
-4.762499999999994
 31
0.0
  0
LINE
  5
9F
330
1F
100
AcDbEntity
  8
0
  6
Continuous
 62
     1
370
    15
100
AcDbLine
 10
27.71842181384164
 20
4.762500000000005
 30
0.0
 11
26.09020769502445
 21
4.762500000000005
 31
0.0
  0
LINE
  5
A0
330
1F
100
AcDbEntity
  8
0
  6
Continuous
 62
     1
370
    15
100
AcDbLine
 10
36.06408462515251
 20
-4.762499999999994
 30
0.0
 11
37.69321677605983
 21
-4.762499999999994
 31
0.0
  0
LINE
  5
A1
330
1F
100
AcDbEntity
  8
0
  6
Continuous
 62
     1
370
    15
100
AcDbLine
 10
22.73079614616255
 20
4.762500000000005
 30
0.0
 11
21.10258780746402
 21
4.762500000000005
 31
0.0
  0
LINE
  5
A2
330
1F
100
AcDbEntity
  8
0
  6
Continuous
 62
     1
370
    15
100
AcDbLine
 10
26.0902076950245
 20
-4.762499999999994
 30
0.0
 11
27.71842181384165
 21
-4.762499999999994
 31
0.0
  0
LINE
  5
A3
330
1F
100
AcDbEntity
  8
0
  6
Continuous
 62
     1
370
    15
100
AcDbLine
 10
12.75675721681502
 20
4.762500000000005
 30
0.0
 11
11.12797709092524
 21
4.762500000000005
 31
0.0
  0
LINE
  5
A4
330
1F
100
AcDbEntity
  8
0
  6
Continuous
 62
     1
370
    15
100
AcDbLine
 10
42.68005480447865
 20
4.762500000000005
 30
0.0
 11
41.05250887498964
 21
4.762500000000005
 31
0.0
  0
LINE
  5
A5
330
1F
100
AcDbEntity
  8
0
  6
Continuous
 62
     1
370
    15
100
AcDbLine
 10
46.03935789127114
 20
-4.762499999999994
 30
0.0
 11
47.33800000000378
 21
-4.762499999999995
 31
0.0
  0
LINE
  5
A6
330
1F
100
AcDbEntity
  8
0
  6
Continuous
 62
     1
370
    15
100
AcDbLine
 10
16.11628790972775
 20
-4.762499999999994
 30
0.0
 11
17.74291089664893
 21
-4.762499999999994
 31
0.0
  0
LINE
  5
A7
330
1F
100
AcDbEntity
  8
0
  6
Continuous
 62
     1
370
    15
100
AcDbLine
 10
32.70482660386964
 20
4.762500000000005
 30
0.0
 11
31.07808779873344
 21
4.762500000000005
 31
0.0
  0
LINE
  5
A8
330
1F
100
AcDbEntity
  8
0
  6
Continuous
 62
     1
370
    15
100
AcDbLine
 10
21.10258780746405
 20
-4.762499999999994
 30
0.0
 11
22.73079614616256
 21
-4.762499999999994
 31
0.0
  0
LINE
  5
A9
330
1F
100
AcDbEntity
  8
0
  6
Continuous
 62
     1
370
    15
100
AcDbLine
 10
37.69321677605986
 20
4.762500000000005
 30
0.0
 11
36.06408462515255
 21
4.762500000000005
 31
0.0
  0
SPLINE
  5
AC
330
1F
100
AcDbEntity
  8
0
  6
Continuous
 62
     4
370
    15
100
AcDbSpline
210
0.0
220
0.0
230
1.0
 70
     8
 71
     3
 72
    12
 73
     8
 74
     0
 42
0.000000001
 43
0.00000001
 40
0.0
 40
0.0
 40
0.0
 40
0.0
 40
0.0435096475459333
 40
0.2990903994539402
 40
0.5445777468473445
 40
0.7887659181755483
 40
1.0
 40
1.0
 40
1.0
 40
1.0
 10
8.866185343797948
 20
4.632760248518099
 30
0.0
 10
8.878088838122576
 20
4.629941185484741
 30
0.0
 10
8.959914848519272
 20
4.610562616907678
 30
0.0
 10
9.18042830910438
 20
4.585548468924777
 30
0.0
 10
9.483193966837197
 20
4.575393908139827
 30
0.0
 10
9.773214932990173
 20
4.593271865497426
 30
0.0
 10
9.928141783275318
 20
4.619159974743694
 30
0.0
 10
10.00000000000362
 20
4.631167405098604
 30
0.0
  0
SPLINE
  5
AD
330
1F
100
AcDbEntity
  8
0
  6
Continuous
 62
     4
370
    15
100
AcDbSpline
210
0.0
220
0.0
230
1.0
 70
     8
 71
     3
 72
    12
 73
     8
 74
     0
 42
0.000000001
 43
0.00000001
 40
0.0
 40
0.0
 40
0.0
 40
0.0
 40
0.5000000000000001
 40
0.5000000000000001
 40
0.75
 40
0.75
 40
1.0
 40
1.0
 40
1.0
 40
1.0
 10
8.795422422318447
 20
4.652196580385566
 30
0.0
 10
8.662179642492584
 20
4.680793427423082
 30
0.0
 10
8.574962316731648
 20
4.711194861422265
 30
0.0
 10
8.506399893423604
 20
4.741991922708319
 30
0.0
 10
8.493435429113633
 20
4.749991711902947
 30
0.0
 10
8.480446281948751
 20
4.760335135098487
 30
0.0
 10
8.480390585947271
 20
4.762788244827738
 30
0.0
 10
8.480390585947271
 20
4.76247303222376
 30
0.0
  0
SPLINE
  5
AE
330
1F
100
AcDbEntity
  8
0
  6
Continuous
 62
     4
370
    15
100
AcDbSpline
210
0.0
220
0.0
230
1.0
 70
     8
 71
     3
 72
     8
 73
     4
 74
     0
 42
0.000000001
 43
0.00000001
 40
0.0
 40
0.0
 40
0.0
 40
0.0
 40
1.0
 40
1.0
 40
1.0
 40
1.0
 10
9.999999999998513
 20
4.249523640043218
 30
0.0
 10
9.602674941408935
 20
4.43004847288108
 30
0.0
 10
9.194745608224821
 20
4.566492994188834
 30
0.0
 10
8.795422422318447
 20
4.652196580385568
 30
0.0
  0
SPLINE
  5
AF
330
1F
100
AcDbEntity
  8
0
  6
Continuous
 62
     4
370
    15
100
AcDbSpline
210
0.0
220
0.0
230
1.0
 70
     8
 71
     3
 72
    14
 73
    10
 74
     0
 42
0.000000001
 43
0.00000001
 40
0.0
 40
0.0
 40
0.0
 40
0.0
 40
0.2500000000000001
 40
0.2500000000000001
 40
0.5
 40
0.5
 40
0.75
 40
0.75
 40
1.0
 40
1.0
 40
1.0
 40
1.0
 10
8.48039058594727
 20
2.395116375841201
 30
0.0
 10
8.48039058594727
 20
2.570834829039334
 30
0.0
 10
8.484329383431831
 20
2.740378428730826
 30
0.0
 10
8.599946199684902
 20
3.051723217938624
 30
0.0
 10
8.710000824942677
 20
3.186277817664246
 30
0.0
 10
9.027838593891776
 20
3.372403232855493
 30
0.0
 10
9.230043311923211
 20
3.421595882870225
 30
0.0
 10
9.638519239565296
 20
3.421153887701448
 30
0.0
 10
9.840417310883092
 20
3.371841855482967
 30
0.0
 10
10.00000000000363
 20
3.277493800720757
 30
0.0
  0
SPLINE
  5
B0
330
1F
100
AcDbEntity
  8
0
  6
Continuous
 62
     4
370
    15
100
AcDbSpline
210
0.0
220
0.0
230
1.0
 70
     8
 71
     3
 72
    12
 73
     8
 74
     0
 42
0.000000001
 43
0.00000001
 40
0.0
 40
0.0
 40
0.0
 40
0.0
 40
0.4999999999999992
 40
0.4999999999999992
 40
0.7499999999999996
 40
0.7499999999999996
 40
1.0
 40
1.0
 40
1.0
 40
1.0
 10
8.795422422318447
 20
1.443570715220376
 30
0.0
 10
8.662179642492585
 20
1.570929192983247
 30
0.0
 10
8.57496231673165
 20
1.731834744645734
 30
0.0
 10
8.506399893423605
 20
1.980707756094989
 30
0.0
 10
8.493435429113635
 20
2.065553349734675
 30
0.0
 10
8.480446281948753
 20
2.231918914355028
 30
0.0
 10
8.480390585947271
 20
2.314156905576618
 30
0.0
 10
8.480390585947271
 20
2.395116375841194
 30
0.0
  0
SPLINE
  5
B1
330
1F
100
AcDbEntity
  8
0
  6
Continuous
 62
     4
370
    15
100
AcDbSpline
210
0.0
220
0.0
230
1.0
 70
     8
 71
     3
 72
     8
 73
     4
 74
     0
 42
0.000000001
 43
0.00000001
 40
0.0
 40
0.0
 40
0.0
 40
0.0
 40
1.0
 40
1.0
 40
1.0
 40
1.0
 10
9.999999999998515
 20
0.2627155499102923
 30
0.0
 10
9.602674941408935
 20
0.6619705073873559
 30
0.0
 10
9.194745608224821
 20
1.061882543006292
 30
0.0
 10
8.795422422318447
 20
1.443570715220375
 30
0.0
  0
SPLINE
  5
B2
330
1F
100
AcDbEntity
  8
0
  6
Continuous
 62
     4
370
    15
100
AcDbSpline
210
0.0
220
0.0
230
1.0
 70
     8
 71
     3
 72
    14
 73
    10
 74
     0
 42
0.000000001
 43
0.00000001
 40
0.0
 40
0.0
 40
0.0
 40
0.0
 40
0.25
 40
0.25
 40
0.5
 40
0.5
 40
0.75
 40
0.75
 40
1.0
 40
1.0
 40
1.0
 40
1.0
 10
8.48039058594727
 20
-2.367356656382546
 30
0.0
 10
8.480390585947271
 20
-2.190954050101166
 30
0.0
 10
8.484329383431836
 20
-2.007330437818315
 30
0.0
 10
8.59994619968491
 20
-1.645121440685474
 30
0.0
 10
8.710000824942679
 20
-1.474291937398349
 30
0.0
 10
9.027838593891778
 20
-1.228172942749572
 30
0.0
 10
9.230043311923213
 20
-1.158098357482244
 30
0.0
 10
9.638519239565298
 20
-1.158714662224986
 30
0.0
 10
9.840417310883092
 20
-1.228997476914972
 30
0.0
 10
10.00000000000363
 20
-1.353673604377823
 30
0.0
  0
SPLINE
  5
B3
330
1F
100
AcDbEntity
  8
0
  6
Continuous
 62
     4
370
    15
100
AcDbSpline
210
0.0
220
0.0
230
1.0
 70
     8
 71
     3
 72
    12
 73
     8
 74
     0
 42
0.000000001
 43
0.00000001
 40
0.0
 40
0.0
 40
0.0
 40
0.0
 40
0.5000000000000011
 40
0.5000000000000011
 40
0.7500000000000006
 40
0.7500000000000006
 40
1.0
 40
1.0
 40
1.0
 40
1.0
 10
8.795422422318447
 20
-3.208625865165167
 30
0.0
 10
8.662179642492585
 20
-3.109864234439812
 30
0.0
 10
8.574962316731646
 20
-2.979360116776507
 30
0.0
 10
8.506399893423605
 20
-2.761284166613306
 30
0.0
 10
8.493435429113633
 20
-2.684438362168247
 30
0.0
 10
8.480446281948751
 20
-2.528416220743433
 30
0.0
 10
8.48039058594727
 20
-2.448631339251092
 30
0.0
 10
8.48039058594727
 20
-2.367356656382538
 30
0.0
  0
SPLINE
  5
B4
330
1F
100
AcDbEntity
  8
0
  6
Continuous
 62
     4
370
    15
100
AcDbSpline
210
0.0
220
0.0
230
1.0
 70
     8
 71
     3
 72
     8
 73
     4
 74
     0
 42
0.000000001
 43
0.00000001
 40
0.0
 40
0.0
 40
0.0
 40
0.0
 40
1.0
 40
1.0
 40
1.0
 40
1.0
 10
9.999999999998515
 20
-3.986808090132905
 30
0.0
 10
9.602674941408935
 20
-3.768077965493703
 30
0.0
 10
9.194745608224821
 20
-3.504610451182518
 30
0.0
 10
8.795422422318447
 20
-3.208625865165171
 30
0.0
  0
SPLINE
  5
B5
330
1F
100
AcDbEntity
  8
0
  6
Continuous
 62
     4
370
    15
100
AcDbSpline
210
0.0
220
0.0
230
1.0
 70
     8
 71
     3
 72
    14
 73
    10
 74
     0
 42
0.000000001
 43
0.00000001
 40
0.0
 40
0.0
 40
0.0
 40
0.0
 40
0.2500000000000001
 40
0.2500000000000001
 40
0.5
 40
0.5
 40
0.75
 40
0.75
 40
1.0
 40
1.0
 40
1.0
 40
1.0
 10
8.48039058594727
 20
-4.762473032223764
 30
0.0
 10
8.48039058594727
 20
-4.761788879140518
 30
0.0
 10
8.484329383431831
 20
-4.74770886654916
 30
0.0
 10
8.599946199684904
 20
-4.696844658624117
 30
0.0
 10
8.710000824942679
 20
-4.660569755062618
 30
0.0
 10
9.027838593891778
 20
-4.600576175605088
 30
0.0
 10
9.230043311923211
 20
-4.579694240352493
 30
0.0
 10
9.638519239565296
 20
-4.579868549926455
 30
0.0
 10
9.840417310883094
 20
-4.600839332397958
 30
0.0
 10
10.00000000000363
 20
-4.631167405098601
 30
0.0
  0
SPLINE
  5
B6
330
1F
100
AcDbEntity
  8
0
  6
Continuous
 62
     4
370
    15
100
AcDbSpline
210
0.0
220
0.0
230
1.0
 70
     8
 71
     3
 72
    12
 73
     8
 74
     0
 42
0.000000001
 43
0.00000001
 40
0.0
 40
0.0
 40
0.0
 40
0.0
 40
0.5
 40
0.5
 40
0.75
 40
0.75
 40
1.0
 40
1.0
 40
1.0
 40
1.0
 10
8.795422422318447
 20
-4.652196580385549
 30
0.0
 10
8.662179642492585
 20
-4.680793427423064
 30
0.0
 10
8.574962316731648
 20
-4.711194861422248
 30
0.0
 10
8.506399893423605
 20
-4.741991922708307
 30
0.0
 10
8.493435429113635
 20
-4.749991711902936
 30
0.0
 10
8.480446281948753
 20
-4.760335135098478
 30
0.0
 10
8.480390585947273
 20
-4.762788244827727
 30
0.0
 10
8.480390585947273
 20
-4.76247303222375
 30
0.0
  0
LINE
  5
B7
330
1F
100
AcDbEntity
  8
0
  6
Continuous
 62
     4
370
    15
100
AcDbLine
 10
8.866185343797598
 20
-4.632760248518177
 30
0.0
 11
8.795422422318447
 21
-4.65219658038555
 31
0.0
  0
LINE
  5
B8
330
1F
100
AcDbEntity
  8
0
  6
Continuous
 62
     4
370
    15
100
AcDbLine
 10
-52.99999999999621
 20
4.762499999999999
 30
0.0
 11
-52.99999999999621
 21
-4.762499999999998
 31
0.0
  0
LINE
  5
B9
330
1F
100
AcDbEntity
  8
0
  6
Continuous
 62
     1
370
    15
100
AcDbLine
 10
10.00000000000377
 20
-3.986808090135931
 30
0.0
 11
10.00000000000376
 21
-4.631167405098523
 31
0.0
  0
LINE
  5
BA
330
1F
100
AcDbEntity
  8
0
  6
Continuous
 62
     1
370
    15
100
AcDbLine
 10
10.00000000000377
 20
0.2627155499049619
 30
0.0
 11
10.00000000000376
 21
-1.353673604377499
 31
0.0
  0
LINE
  5
BB
330
1F
100
AcDbEntity
  8
0
  6
Continuous
 62
     1
370
    15
100
AcDbLine
 10
10.00000000000377
 20
4.249523640040914
 30
0.0
 11
10.00000000000376
 21
3.277493800721003
 31
0.0
  0
LINE
  5
BC
330
1F
100
AcDbEntity
  8
0
  6
Continuous
 62
     4
370
    15
100
AcDbLine
 10
-53.49999999999621
 20
4.262499999999998
 30
0.0
 11
-53.49999999999621
 21
-4.262499999999996
 31
0.0
  0
SPLINE
  5
BD
330
1F
100
AcDbEntity
  8
0
  6
Continuous
 62
     1
370
    15
100
AcDbSpline
210
0.0
220
0.0
230
1.0
 70
    24
 71
     3
 72
    14
 73
    10
 74
     0
 42
0.000000001
 43
0.00000001
 40
0.0
 40
0.0
 40
0.0
 40
0.0
 40
0.25
 40
0.25
 40
0.5
 40
0.5
 40
0.75
 40
0.75
 40
1.0
 40
1.0
 40
1.0
 40
1.0
 10
10.00000000000377
 20
2.915431542507067
 30
0.0
 10
10.00000000000377
 20
2.726618102562853
 30
0.0
 10
10.00000000000377
 20
2.513434176596727
 30
0.0
 10
10.00000000000377
 20
2.04718490557535
 30
0.0
 10
10.00000000000377
 20
1.793692128976811
 30
0.0
 10
10.00000000000377
 20
1.283482530742828
 30
0.0
 10
10.00000000000377
 20
1.027312806944663
 30
0.0
 10
10.00000000000377
 20
0.5794372031587811
 30
0.0
 10
10.00000000000377
 20
0.3895962906238785
 30
0.0
 10
10.00000000000377
 20
0.2627155499049613
 30
0.0
  0
SPLINE
  5
BF
330
1F
100
AcDbEntity
  8
0
  6
Continuous
 62
     1
370
    15
100
AcDbSpline
210
0.0
220
0.0
230
1.0
 70
    24
 71
     3
 72
     8
 73
     4
 74
     0
 42
0.000000001
 43
0.00000001
 40
0.0
 40
0.0
 40
0.0
 40
0.0
 40
1.0
 40
1.0
 40
1.0
 40
1.0
 10
10.00000000000376
 20
-1.353673604377535
 30
0.0
 10
10.00000000000376
 20
-1.371417745934594
 30
0.0
 10
10.00000000000376
 20
-1.399955332109774
 30
0.0
 10
10.00000000000376
 20
-1.440880697708307
 30
0.0
  0
SPLINE
  5
C0
330
1F
100
AcDbEntity
  8
0
  6
Continuous
 62
     1
370
    15
100
AcDbSpline
210
0.0
220
0.0
230
1.0
 70
    24
 71
     3
 72
     8
 73
     4
 74
     0
 42
0.000000001
 43
0.00000001
 40
0.0
 40
0.0
 40
0.0
 40
0.0
 40
1.0
 40
1.0
 40
1.0
 40
1.0
 10
10.00000000000376
 20
3.277493800721091
 30
0.0
 10
10.00000000000376
 20
3.160142910681375
 30
0.0
 10
10.00000000000376
 20
3.039612065132772
 30
0.0
 10
10.00000000000376
 20
2.915431542506686
 30
0.0
  0
SPLINE
  5
C1
330
1F
100
AcDbEntity
  8
0
  6
Continuous
 62
     1
370
    15
100
AcDbSpline
210
0.0
220
0.0
230
1.0
 70
    24
 71
     3
 72
    14
 73
    10
 74
     0
 42
0.000000001
 43
0.00000001
 40
0.0
 40
0.0
 40
0.0
 40
0.0
 40
0.25
 40
0.25
 40
0.5
 40
0.5
 40
0.75
 40
0.75
 40
1.0
 40
1.0
 40
1.0
 40
1.0
 10
10.00000000000377
 20
-1.440880697708181
 30
0.0
 10
10.00000000000377
 20
-1.503106712675339
 30
0.0
 10
10.00000000000377
 20
-1.593759254206424
 30
0.0
 10
10.00000000000377
 20
-1.856690822835716
 30
0.0
 10
10.00000000000377
 20
-2.029799708900081
 30
0.0
 10
10.00000000000377
 20
-2.469284639646119
 30
0.0
 10
10.00000000000377
 20
-2.736447668688609
 30
0.0
 10
10.00000000000377
 20
-3.334111646871578
 30
0.0
 10
10.00000000000377
 20
-3.663767314170652
 30
0.0
 10
10.00000000000377
 20
-3.986808090135931
 30
0.0
  0
LINE
  5
C2
330
1F
100
AcDbEntity
  8
0
  6
Continuous
 62
     4
370
    15
100
AcDbLine
 10
10.00000000000377
 20
4.356312240215301
 30
0.0
 11
10.00000000000377
 21
4.319494995023129
 31
0.0
  0
SPLINE
  5
C3
330
1F
100
AcDbEntity
  8
0
  6
Continuous
 62
     1
370
    15
100
AcDbSpline
210
0.0
220
0.0
230
1.0
 70
    24
 71
     3
 72
     8
 73
     4
 74
     0
 42
0.000000001
 43
0.00000001
 40
0.0
 40
0.0
 40
0.0
 40
0.0
 40
1.0
 40
1.0
 40
1.0
 40
1.0
 10
10.00000000000376
 20
4.63116740509865
 30
0.0
 10
10.00000000000376
 20
4.531560656616002
 30
0.0
 10
10.00000000000376
 20
4.439567397242587
 30
0.0
 10
10.00000000000376
 20
4.356312240215042
 30
0.0
  0
SPLINE
  5
C4
330
1F
100
AcDbEntity
  8
0
  6
Continuous
 62
     1
370
    15
100
AcDbSpline
210
0.0
220
0.0
230
1.0
 70
     8
 71
     3
 72
    30
 73
    26
 74
     0
 42
0.000000001
 43
0.00000001
 40
0.0
 40
0.0
 40
0.0
 40
0.0
 40
0.124999999999998
 40
0.124999999999998
 40
0.249999999999996
 40
0.249999999999996
 40
0.374999999999994
 40
0.374999999999994
 40
0.499999999999992
 40
0.499999999999992
 40
0.5624999999999909
 40
0.5624999999999909
 40
0.6249999999999898
 40
0.6249999999999898
 40
0.6874999999999887
 40
0.6874999999999887
 40
0.7187499999999887
 40
0.7187499999999887
 40
0.7499999999999888
 40
0.7499999999999888
 40
0.812499999999991
 40
0.812499999999991
 40
0.8749999999999932
 40
0.8749999999999932
 40
1.0
 40
1.0
 40
1.0
 40
1.0
 10
46.57600000000377
 20
4.732343960708493
 30
0.0
 10
46.75260169984609
 20
4.712452663289004
 30
0.0
 10
46.91720957679625
 20
4.653401443200766
 30
0.0
 10
47.23258728688794
 20
4.463704656779576
 30
0.0
 10
47.37674461354594
 20
4.335525148376368
 30
0.0
 10
47.62865271919497
 20
4.02338460247219
 30
0.0
 10
47.73371916361061
 20
3.841130316228188
 30
0.0
 10
47.88986296000971
 20
3.454368095193845
 30
0.0
 10
47.94082730583376
 20
3.248962794254731
 30
0.0
 10
47.98001976903412
 20
2.962460236991116
 30
0.0
 10
47.98729930000027
 20
2.870042920552911
 30
0.0
 10
47.98987516647376
 20
2.6961090839416
 30
0.0
 10
47.98520270028769
 20
2.613923758012334
 30
0.0
 10
47.9574104732962
 20
2.476494560980068
 30
0.0
 10
47.93415132464079
 20
2.418486532758295
 30
0.0
 10
47.86972931907496
 20
2.372257783032094
 30
0.0
 10
47.84292721386854
 20
2.363995456359036
 30
0.0
 10
47.77855453603016
 20
2.365993635975458
 30
0.0
 10
47.73989097514381
 20
2.376552798850748
 30
0.0
 10
47.61374626701444
 20
2.432638462826433
 30
0.0
 10
47.51456667289821
 20
2.50208348392867
 30
0.0
 10
47.32053997113327
 20
2.651811723922199
 30
0.0
 10
47.22258945986542
 20
2.733975940270172
 30
0.0
 10
46.93744765675115
 20
2.972754117701504
 30
0.0
 10
46.75374474622138
 20
3.126400089302456
 30
0.0
 10
46.57600000000376
 20
3.256421745820601
 30
0.0
  0
SPLINE
  5
C5
330
1F
100
AcDbEntity
  8
0
  6
Continuous
 62
     1
370
    15
100
AcDbSpline
210
0.0
220
0.0
230
1.0
 70
     8
 71
     3
 72
    11
 73
     7
 74
     0
 42
0.000000001
 43
0.00000001
 40
0.0
 40
0.0
 40
0.0
 40
0.0
 40
0.2935443360978962
 40
0.5869620302124828
 40
0.8801597366144609
 40
0.9999999999999999
 40
0.9999999999999999
 40
0.9999999999999999
 40
0.9999999999999999
 10
46.57600000000379
 20
3.256421745820598
 30
0.0
 10
46.19461818664833
 20
3.517009980628641
 30
0.0
 10
45.43201909709009
 20
4.038074026304543
 30
0.0
 10
44.28883195202242
 20
4.525524109376771
 30
0.0
 10
43.37134107123436
 20
4.76033254661987
 30
0.0
 10
42.8355198303055
 20
4.742157647752514
 30
0.0
 10
42.68005480447865
 20
4.736884319810314
 30
0.0
  0
SPLINE
  5
C6
330
1F
100
AcDbEntity
  8
0
  6
Continuous
 62
     1
370
    15
100
AcDbSpline
210
0.0
220
0.0
230
1.0
 70
     8
 71
     3
 72
    25
 73
    21
 74
     0
 42
0.000000001
 43
0.00000001
 40
0.0
 40
0.0
 40
0.0
 40
0.0
 40
0.0071305100152714
 40
0.0666175641879117
 40
0.1260726175409776
 40
0.1856299167643665
 40
0.2452135895065614
 40
0.3046757574775956
 40
0.3641490083429556
 40
0.4237527469240228
 40
0.4832840250510461
 40
0.5427350930609692
 40
0.6022402987412797
 40
0.6618552038724613
 40
0.7213462148883236
 40
0.7807999981795565
 40
0.8403508326515108
 40
0.8999401170808133
 40
0.9594045719564395
 40
1.0
 40
1.0
 40
1.0
 40
1.0
 10
29.39761338020912
 20
-4.459252837862292
 30
0.0
 10
29.35802574618018
 20
-4.476135653048231
 30
0.0
 10
28.98817397606528
 20
-4.633865187389156
 30
0.0
 10
28.28935368461758
 20
-4.750673655643203
 30
0.0
 10
27.29991602100072
 20
-4.781532341973784
 30
0.0
 10
26.30878086838633
 20
-4.587461199417952
 30
0.0
 10
25.31715593314931
 20
-4.20103252616107
 30
0.0
 10
24.32764594845322
 20
-3.631655952857932
 30
0.0
 10
23.33794909960119
 20
-2.905870307785426
 30
0.0
 10
22.34596651396317
 20
-2.055992623394584
 30
0.0
 10
21.35527953445017
 20
-1.116684162145229
 30
0.0
 10
20.36596242841296
 20
-0.1289332763366411
 30
0.0
 10
19.37573050287524
 20
0.8643814692805712
 30
0.0
 10
18.38354473913784
 20
1.818993142480034
 30
0.0
 10
17.39355489651145
 20
2.696843755838604
 30
0.0
 10
16.40418921639927
 20
3.457846402430639
 30
0.0
 10
15.41315910338457
 20
4.070934734856168
 30
0.0
 10
14.42142433904826
 20
4.502596039435413
 30
0.0
 10
13.53653905849526
 20
4.734975683673249
 30
0.0
 10
12.98181503672193
 20
4.745385766731864
 30
0.0
 10
12.75675721681502
 20
4.749609255360917
 30
0.0
  0
SPLINE
  5
C7
330
1F
100
AcDbEntity
  8
0
  6
Continuous
 62
     1
370
    15
100
AcDbSpline
210
0.0
220
0.0
230
1.0
 70
     8
 71
     3
 72
    24
 73
    20
 74
     0
 42
0.000000001
 43
0.00000001
 40
0.0
 40
0.0
 40
0.0
 40
0.0
 40
0.0587416965254755
 40
0.118290261630885
 40
0.177741779254005
 40
0.2372305231830786
 40
0.2968431565061065
 40
0.3563460945586969
 40
0.4157948970039811
 40
0.475323906509714
 40
0.5349253737081637
 40
0.59439635816354
 40
0.6538562601469375
 40
0.7134376622711848
 40
0.7729926918816701
 40
0.8324454795182231
 40
0.8919302667548612
 40
0.9515417511363836
 40
1.0
 40
1.0
 40
1.0
 40
1.0
 10
14.43510550022976
 20
4.468074303228306
 30
0.0
 10
14.76116770061152
 20
4.562949080408064
 30
0.0
 10
15.41777085088611
 20
4.754001822813934
 30
0.0
 10
16.4042105088771
 20
4.785799053400738
 30
0.0
 10
17.39354919155444
 20
4.625774108048339
 30
0.0
 10
18.3835462717594
 20
4.262273296511363
 30
0.0
 10
19.37573009291815
 20
3.716961729628639
 30
0.0
 10
20.36596253717342
 20
3.010372260071198
 30
0.0
 10
21.35527950857884
 20
2.173981446506801
 30
0.0
 10
22.34596650855747
 20
1.244076268749145
 30
0.0
 10
23.33794914717003
 20
0.261595578030458
 30
0.0
 10
24.32764576407762
 20
-0.7336523649058652
 30
0.0
 10
25.31715662370821
 20
-1.697171405619263
 30
0.0
 10
26.30877828524909
 20
-2.586584277938304
 30
0.0
 10
27.29992564915256
 20
-3.364513638822633
 30
0.0
 10
28.28931781198254
 20
-3.999501148681971
 30
0.0
 10
29.27922260172501
 20
-4.455949880042532
 30
0.0
 10
30.21007283024137
 20
-4.724554267848467
 30
0.0
 10
30.80936597153127
 20
-4.740022534079411
 30
0.0
 10
31.07808779873343
 20
-4.746958473236467
 30
0.0
  0
SPLINE
  5
C8
330
1F
100
AcDbEntity
  8
0
  6
Continuous
 62
     1
370
    15
100
AcDbSpline
210
0.0
220
0.0
230
1.0
 70
     8
 71
     3
 72
     9
 73
     5
 74
     0
 42
0.000000001
 43
0.00000001
 40
0.0
 40
0.0
 40
0.0
 40
0.0
 40
0.4839443761354792
 40
1.0
 40
1.0
 40
1.0
 40
1.0
 10
44.35924472781991
 20
4.46199008102746
 30
0.0
 10
44.71678181027401
 20
4.569777653666536
 30
0.0
 10
45.45557969714938
 20
4.792504847026668
 30
0.0
 10
46.19461610532441
 20
4.752822341077822
 30
0.0
 10
46.57600000000377
 20
4.732343960713883
 30
0.0
  0
SPLINE
  5
C9
330
1F
100
AcDbEntity
  8
0
  6
Continuous
 62
     1
370
    15
100
AcDbSpline
210
0.0
220
0.0
230
1.0
 70
     8
 71
     3
 72
    25
 73
    21
 74
     0
 42
0.000000001
 43
0.00000001
 40
0.0
 40
0.0
 40
0.0
 40
0.0
 40
0.0042450861035542
 40
0.0728624935808116
 40
0.1323150298351672
 40
0.1918321426480077
 40
0.2514462924662604
 40
0.3109316724715419
 40
0.3703902788576355
 40
0.4299563256342449
 40
0.4895359295688788
 40
0.5489980934568889
 40
0.6084765714343906
 40
0.6680857121759538
 40
0.7276134557305991
 40
0.7870661956669348
 40
0.8465782948061391
 40
0.9061941359245193
 40
0.9656832706382878
 40
1.0
 40
1.0
 40
1.0
 40
1.0
 10
44.3592447278199
 20
-4.461990081027445
 30
0.0
 10
44.33568415462139
 20
-4.4725135497556
 30
0.0
 10
43.9312913881239
 20
-4.65313795970835
 30
0.0
 10
43.19710746877264
 20
-4.759327883472966
 30
0.0
 10
42.15749106121324
 20
-4.771773404999857
 30
0.0
 10
41.16706335222364
 20
-4.555537976229149
 30
0.0
 10
40.17493628830609
 20
-4.14951619334227
 30
0.0
 10
39.18507296139398
 20
-3.562367293195889
 30
0.0
 10
38.19566050821591
 20
-2.821956685518743
 30
0.0
 10
37.20439255309836
 20
-1.960446370050182
 30
0.0
 10
36.21288175430939
 20
-1.014731973418148
 30
0.0
 10
35.22340659632362
 20
-0.0242532456339088
 30
0.0
 10
34.23365826289459
 20
0.9673298165944124
 30
0.0
 10
33.24161541081179
 20
1.915692104386816
 30
0.0
 10
32.2510276776363
 20
2.782787050652562
 30
0.0
 10
31.26171626088438
 20
3.529369192211944
 30
0.0
 10
30.2714066497749
 20
4.126181614572075
 30
0.0
 10
29.27922154178872
 20
4.535200247432091
 30
0.0
 10
28.42873782798991
 20
4.749300673979898
 30
0.0
 10
27.90867492818221
 20
4.740597621475524
 30
0.0
 10
27.71842181384164
 20
4.737413808817788
 30
0.0
  0
SPLINE
  5
CA
330
1F
100
AcDbEntity
  8
0
  6
Continuous
 62
     1
370
    15
100
AcDbSpline
210
0.0
220
0.0
230
1.0
 70
     8
 71
     3
 72
    13
 73
     9
 74
     0
 42
0.000000001
 43
0.00000001
 40
0.0
 40
0.0
 40
0.0
 40
0.0
 40
0.0031710678101262
 40
0.2262336783563386
 40
0.4195236485787521
 40
0.6133302131567617
 40
0.8064610201835176
 40
1.0
 40
1.0
 40
1.0
 40
1.0
 10
14.43510550022976
 20
-4.468074303228295
 30
0.0
 10
14.43041342911381
 20
-4.470130766062233
 30
0.0
 10
14.09566672193838
 20
-4.61684511567002
 30
0.0
 10
13.47585269174539
 20
-4.725727631135298
 30
0.0
 10
12.5746163080719
 20
-4.788225530111668
 30
0.0
 10
11.71495725981761
 20
-4.672374863713742
 30
0.0
 10
10.85839369570366
 20
-4.418602711095698
 30
0.0
 10
10.286332523211
 20
-4.130840885280928
 30
0.0
 10
9.999999999998542
 20
-3.986808090132914
 30
0.0
  0
SPLINE
  5
CB
330
1F
100
AcDbEntity
  8
0
  6
Continuous
 62
     1
370
    15
100
AcDbSpline
210
0.0
220
0.0
230
1.0
 70
    24
 71
     3
 72
    14
 73
    10
 74
     0
 42
0.000000001
 43
0.00000001
 40
0.0
 40
0.0
 40
0.0
 40
0.0
 40
0.2500000000000003
 40
0.2500000000000003
 40
0.5000000000000002
 40
0.5000000000000002
 40
0.7500000000000001
 40
0.7500000000000001
 40
1.0
 40
1.0
 40
1.0
 40
1.0
 10
10.00000000000377
 20
-1.346829467245476
 30
0.0
 10
10.00000000000377
 20
-1.379785586265051
 30
0.0
 10
10.00000000000377
 20
-1.44020867442421
 30
0.0
 10
10.00000000000377
 20
-1.655651557057005
 30
0.0
 10
10.00000000000377
 20
-1.811924910769203
 30
0.0
 10
10.00000000000377
 20
-2.253267323437205
 30
0.0
 10
10.00000000000377
 20
-2.540438203499202
 30
0.0
 10
10.00000000000377
 20
-3.21754321966254
 30
0.0
 10
10.00000000000377
 20
-3.606388115321395
 30
0.0
 10
10.00000000000377
 20
-3.98680809013593
 30
0.0
  0
SPLINE
  5
CC
330
1F
100
AcDbEntity
  8
0
  6
Continuous
 62
     1
370
    15
100
AcDbSpline
210
0.0
220
0.0
230
1.0
 70
     8
 71
     3
 72
    14
 73
    10
 74
     0
 42
0.000000001
 43
0.00000001
 40
0.0
 40
0.0
 40
0.0
 40
0.0
 40
0.1403689312380473
 40
0.2804418250664327
 40
0.4210048287700242
 40
0.5611931596420883
 40
0.7229748341719476
 40
0.8850961256085269
 40
1.0
 40
1.0
 40
1.0
 40
1.0
 10
9.99999999999527
 20
-1.346829467236745
 30
0.0
 10
10.28633279608064
 20
-1.616894382940597
 30
0.0
 10
10.85839451374365
 20
-2.156454648723057
 30
0.0
 10
11.71495399093786
 20
-2.886887060424546
 30
0.0
 10
12.57462860128226
 20
-3.523588662137176
 30
0.0
 10
13.47580396070173
 20
-4.076056169774457
 30
0.0
 10
14.42144497121984
 20
-4.492603417835576
 30
0.0
 10
15.31706699277097
 20
-4.735941429415921
 30
0.0
 10
15.88197615829029
 20
-4.739711610314099
 30
0.0
 10
16.11628790972775
 20
-4.741275397456191
 30
0.0
  0
SPLINE
  5
CD
330
1F
100
AcDbEntity
  8
0
  6
Continuous
 62
     1
370
    15
100
AcDbSpline
210
0.0
220
0.0
230
1.0
 70
     8
 71
     3
 72
    24
 73
    20
 74
     0
 42
0.000000001
 43
0.00000001
 40
0.0
 40
0.0
 40
0.0
 40
0.0
 40
0.0524870650719348
 40
0.1120014131109427
 40
0.17145639970396
 40
0.2309863927495954
 40
0.2905977860580625
 40
0.3500785116648597
 40
0.4095429225656727
 40
0.4691247779510452
 40
0.5286930756660828
 40
0.5881539289305455
 40
0.6476415568259424
 40
0.7072579594003872
 40
0.7667773213024928
 40
0.826232104205833
 40
0.8948521046629448
 40
0.9635235910512577
 40
1.0
 40
1.0
 40
1.0
 40
1.0
 10
29.39761338020912
 20
4.459252837862303
 30
0.0
 10
29.68902874775543
 20
4.549406684788217
 30
0.0
 10
30.3108759194862
 20
4.741784716199409
 30
0.0
 10
31.26173709963119
 20
4.790315809783555
 30
0.0
 10
32.25102208865786
 20
4.652604061892021
 30
0.0
 10
33.24161691153908
 20
4.309364485348996
 30
0.0
 10
34.23365786161295
 20
3.782379437639283
 30
0.0
 10
35.22340670337458
 20
3.091165019165256
 30
0.0
 10
36.21288172680712
 20
2.266663842180058
 30
0.0
 10
37.20439255582603
 20
1.345380912142957
 30
0.0
 10
38.19566052480725
 20
0.3659877587448863
 30
0.0
 10
39.18507289243819
 20
-0.6300016905144445
 30
0.0
 10
40.17493654795391
 20
-1.598818968621073
 30
0.0
 10
41.16706238103162
 20
-2.497480790757014
 30
0.0
 10
42.15749467739962
 20
-3.288962892843255
 30
0.0
 10
43.19709311040813
 20
-3.974763443497092
 30
0.0
 10
44.28882629845846
 20
-4.479200882455116
 30
0.0
 10
45.25316903587061
 20
-4.750756305986747
 30
0.0
 10
45.83686901519052
 20
-4.734144176259207
 30
0.0
 10
46.03935789127116
 20
-4.728381333022936
 30
0.0
  0
SPLINE
  5
CE
330
1F
100
AcDbEntity
  8
0
  6
Continuous
 62
     1
370
    15
100
AcDbSpline
210
0.0
220
0.0
230
1.0
 70
     8
 71
     3
 72
    25
 73
    21
 74
     0
 42
0.000000001
 43
0.00000001
 40
0.0
 40
0.0
 40
0.0
 40
0.0
 40
0.009156935070813
 40
0.0687596606685445
 40
0.1282809978393344
 40
0.1877273394637143
 40
0.2472330339027173
 40
0.3068424591561702
 40
0.3663251916411722
 40
0.4257759256314341
 40
0.4853288980639371
 40
0.5449082420992306
 40
0.6043660901905895
 40
0.6638350203711106
 40
0.723434428787509
 40
0.7829613820140586
 40
0.8424081309507097
 40
0.9019090136246891
 40
0.9615195877799609
 40
1.0
 40
1.0
 40
1.0
 40
1.0
 10
34.38640232367215
 20
-4.456867882673246
 30
0.0
 10
34.33562672701824
 20
-4.478358631339792
 30
0.0
 10
33.95435146742898
 20
-4.639733215127642
 30
0.0
 10
33.24154164265862
 20
-4.75527551840384
 30
0.0
 10
32.25104711776887
 20
-4.778221845665291
 30
0.0
 10
31.2617121159063
 20
-4.577211186848444
 30
0.0
 10
30.27140377422135
 20
-4.183542050116412
 30
0.0
 10
29.27923721652122
 20
-3.609122104992737
 30
0.0
 10
28.28931390189139
 20
-2.87854899954993
 30
0.0
 10
27.29992669921332
 20
-2.023724208882461
 30
0.0
 10
26.3087780012868
 20
-1.082310462526811
 30
0.0
 10
25.31715670798305
 20
-0.0946632933240874
 30
0.0
 10
24.32764571043865
 20
0.8982351594387243
 30
0.0
 10
23.33794927768955
 20
1.852352690928184
 30
0.0
 10
22.34596603931153
 20
2.725457472313674
 30
0.0
 10
21.35528125132078
 20
3.481450324338545
 30
0.0
 10
20.36595604154064
 20
4.089719101186272
 30
0.0
 10
19.37575437922834
 20
4.513285611946839
 30
0.0
 10
18.5001672923967
 20
4.742340890072795
 30
0.0
 10
17.95627576340973
 20
4.739947749996119
 30
0.0
 10
17.7429108966489
 20
4.739008937776427
 30
0.0
  0
SPLINE
  5
CF
330
1F
100
AcDbEntity
  8
0
  6
Continuous
 62
     1
370
    15
100
AcDbSpline
210
0.0
220
0.0
230
1.0
 70
     8
 71
     3
 72
    24
 73
    20
 74
     0
 42
0.000000001
 43
0.00000001
 40
0.0
 40
0.0
 40
0.0
 40
0.0
 40
0.056616580575484
 40
0.1160712643795841
 40
0.1756061631791372
 40
0.2352135268397548
 40
0.2946903948484462
 40
0.3541561792887535
 40
0.4137434758901009
 40
0.4733043973686141
 40
0.5327630667582439
 40
0.5922537389137271
 40
0.6518711207484322
 40
0.711384757922846
 40
0.7708390343603072
 40
0.8303683163544778
 40
0.8899789976392009
 40
0.9494590127830045
 40
0.9999999999999999
 40
0.9999999999999999
 40
0.9999999999999999
 40
0.9999999999999999
 10
19.42417308809818
 20
4.464968238274458
 30
0.0
 10
19.73822510745759
 20
4.558396983424746
 30
0.0
 10
20.38207209711122
 20
4.749937914875628
 30
0.0
 10
21.35525774588859
 20
4.787559981852847
 30
0.0
 10
22.34597235012967
 20
4.634873682653044
 30
0.0
 10
23.33794759008337
 20
4.278707813730612
 30
0.0
 10
24.32764616163648
 20
3.738663476210112
 30
0.0
 10
25.31715658850563
 20
3.036970452372647
 30
0.0
 10
26.30877802699816
 20
2.205389149613479
 30
0.0
 10
27.29992671587896
 20
1.278483263151039
 30
0.0
 10
28.2893138097357
 20
0.2958068094683923
 30
0.0
 10
29.27923756906689
 20
-0.6997192818930675
 30
0.0
 10
30.27140245419965
 20
-1.663501653760252
 30
0.0
 10
31.26171703090519
 20
-2.557077086225851
 30
0.0
 10
32.25102878421757
 20
-3.339983961295104
 30
0.0
 10
33.24161020269143
 20
-3.980178645748069
 30
0.0
 10
34.23367799759195
 20
-4.44278053594388
 30
0.0
 10
35.17387805622485
 20
-4.720703136645127
 30
0.0
 10
35.783869370353
 20
-4.740370616454304
 30
0.0
 10
36.06408462515251
 20
-4.749405380947419
 30
0.0
  0
SPLINE
  5
D0
330
1F
100
AcDbEntity
  8
0
  6
Continuous
 62
     1
370
    15
100
AcDbSpline
210
0.0
220
0.0
230
1.0
 70
     8
 71
     3
 72
    30
 73
    26
 74
     0
 42
0.000000001
 43
0.00000001
 40
0.0
 40
0.0
 40
0.0
 40
0.0
 40
0.1250000000000001
 40
0.1250000000000001
 40
0.2500000000000003
 40
0.2500000000000003
 40
0.3750000000000004
 40
0.3750000000000004
 40
0.5000000000000006
 40
0.5000000000000006
 40
0.5625000000000004
 40
0.5625000000000004
 40
0.6250000000000002
 40
0.6250000000000002
 40
0.6875000000000001
 40
0.6875000000000001
 40
0.7187500000000008
 40
0.7187500000000008
 40
0.7500000000000016
 40
0.7500000000000016
 40
0.8125000000000004
 40
0.8125000000000004
 40
0.8749999999999994
 40
0.8749999999999994
 40
1.0
 40
1.0
 40
1.0
 40
1.0
 10
46.57600000000377
 20
-2.829578028717291
 30
0.0
 10
46.75260169984609
 20
-2.971981159570793
 30
0.0
 10
46.91720957679624
 20
-3.09294952146463
 30
0.0
 10
47.23258728688793
 20
-3.288955726083839
 30
0.0
 10
47.37674461354597
 20
-3.36005397982494
 30
0.0
 10
47.62865271919499
 20
-3.45771100349549
 30
0.0
 10
47.73371916361061
 20
-3.482862286654242
 30
0.0
 10
47.88986296000969
 20
-3.520650761752838
 30
0.0
 10
47.94082730583371
 20
-3.534418581772695
 30
0.0
 10
47.9800197690341
 20
-3.58883339077759
 30
0.0
 10
47.98729930000026
 20
-3.612571509478592
 30
0.0
 10
47.98987516647374
 20
-3.678606196886373
 30
0.0
 10
47.98520270028774
 20
-3.721384899482478
 30
0.0
 10
47.95741047329624
 20
-3.830470126395655
 30
0.0
 10
47.93415132464077
 20
-3.89872365544178
 30
0.0
 10
47.86972931907496
 20
-4.023944568763665
 30
0.0
 10
47.84292721386857
 20
-4.069716329294818
 30
0.0
 10
47.7785545360302
 20
-4.163480709941846
 30
0.0
 10
47.73989097514384
 20
-4.212769065411276
 30
0.0
 10
47.61374626701443
 20
-4.35141561717689
 30
0.0
 10
47.51456667289821
 20
-4.432806274743838
 30
0.0
 10
47.32053997113327
 20
-4.552989042752448
 30
0.0
 10
47.22258945986544
 20
-4.595320316938529
 30
0.0
 10
46.93744765675114
 20
-4.678317876522967
 30
0.0
 10
46.75374474622141
 20
-4.678337878925888
 30
0.0
 10
46.57600000000376
 20
-4.637835890667496
 30
0.0
  0
SPLINE
  5
D1
330
1F
100
AcDbEntity
  8
0
  6
Continuous
 62
     1
370
    15
100
AcDbSpline
210
0.0
220
0.0
230
1.0
 70
     8
 71
     3
 72
    21
 73
    17
 74
     0
 42
0.000000001
 43
0.00000001
 40
0.0
 40
0.0
 40
0.0
 40
0.0
 40
0.0824267413142412
 40
0.1648179217788461
 40
0.2471473300746516
 40
0.3184804263174424
 40
0.3898910036258303
 40
0.4614180091050296
 40
0.5327905123537008
 40
0.6041308917389572
 40
0.6756001816165134
 40
0.7470857378153919
 40
0.818430385607727
 40
0.8897946075778708
 40
0.9613156030031329
 40
1.0
 40
1.0
 40
1.0
 40
1.0
 10
46.57600000000379
 20
-4.637835890667501
 30
0.0
 10
46.19461906975327
 20
-4.525411096336789
 30
0.0
 10
45.43202174602393
 20
-4.300610010396002
 30
0.0
 10
44.28882136492826
 20
-3.645828604750705
 30
0.0
 10
43.19709423665626
 20
-2.83891318149836
 30
0.0
 10
42.15749439450881
 20
-1.928250308671552
 30
0.0
 10
41.16706245413811
 20
-0.9796750492683011
 30
0.0
 10
40.17493653912807
 20
0.0100539716659596
 30
0.0
 10
39.18507285487412
 20
1.000877994724223
 30
0.0
 10
38.19566068394031
 20
1.948405004431561
 30
0.0
 10
37.20439195558706
 20
2.811397822280218
 30
0.0
 10
36.21288396685835
 20
3.552458765791205
 30
0.0
 10
35.22339836050069
 20
4.143802444722183
 30
0.0
 10
34.23368903819185
 20
4.546350117182113
 30
0.0
 10
33.39307246414214
 20
4.752640255045551
 30
0.0
 10
32.88364595873693
 20
4.741025418868025
 30
0.0
 10
32.70482660386964
 20
4.73694836851804
 30
0.0
  0
SPLINE
  5
D2
330
1F
100
AcDbEntity
  8
0
  6
Continuous
 62
     1
370
    15
100
AcDbSpline
210
0.0
220
0.0
230
1.0
 70
     8
 71
     3
 72
    18
 73
    14
 74
     0
 42
0.000000001
 43
0.00000001
 40
0.0
 40
0.0
 40
0.0
 40
0.0
 40
0.005106697983984
 40
0.1103723018992515
 40
0.2154191385642495
 40
0.3204002400090559
 40
0.4255527105288753
 40
0.5307730744383073
 40
0.6357730193380082
 40
0.7267583986147992
 40
0.8179869489848552
 40
0.9088974070243614
 40
1.0
 40
1.0
 40
1.0
 40
1.0
 10
19.42417308809822
 20
-4.464968238274446
 30
0.0
 10
19.40813272587554
 20
-4.471950131699274
 30
0.0
 10
19.06144848737789
 20
-4.622851487395358
 30
0.0
 10
18.38345361172595
 20
-4.740153440112359
 30
0.0
 10
17.39357853244811
 20
-4.787628565248839
 30
0.0
 10
16.40418564177357
 20
-4.607198380464348
 30
0.0
 10
15.41314970750452
 20
-4.234013470479084
 30
0.0
 10
14.4214654923966
 20
-3.677246513314964
 30
0.0
 10
13.47579927752007
 20
-2.993463537943257
 30
0.0
 10
12.57462978269314
 20
-2.232720221640059
 30
0.0
 10
11.71495367679169
 20
-1.439594992029336
 30
0.0
 10
10.85839459236217
 20
-0.5956881420105742
 30
0.0
 10
10.28633282230744
 20
-0.0236203077181917
 30
0.0
 10
9.999999999998542
 20
0.2627155499102675
 30
0.0
  0
SPLINE
  5
D3
330
1F
100
AcDbEntity
  8
0
  6
Continuous
 62
     1
370
    15
100
AcDbSpline
210
0.0
220
0.0
230
1.0
 70
    24
 71
     3
 72
    14
 73
    10
 74
     0
 42
0.000000001
 43
0.00000001
 40
0.0
 40
0.0
 40
0.0
 40
0.0
 40
0.25
 40
0.25
 40
0.5
 40
0.5
 40
0.75
 40
0.75
 40
1.0
 40
1.0
 40
1.0
 40
1.0
 10
10.00000000000377
 20
3.282668237844855
 30
0.0
 10
10.00000000000377
 20
3.098807155151108
 30
0.0
 10
10.00000000000377
 20
2.8834728478553
 30
0.0
 10
10.00000000000377
 20
2.387510634888404
 30
0.0
 10
10.00000000000377
 20
2.105734873101436
 30
0.0
 10
10.00000000000377
 20
1.512731833419954
 30
0.0
 10
10.00000000000377
 20
1.201712313172349
 30
0.0
 10
10.00000000000377
 20
0.6495016180740101
 30
0.0
 10
10.00000000000377
 20
0.4121331212456406
 30
0.0
 10
10.00000000000377
 20
0.2627155499049613
 30
0.0
  0
SPLINE
  5
D4
330
1F
100
AcDbEntity
  8
0
  6
Continuous
 62
     1
370
    15
100
AcDbSpline
210
0.0
220
0.0
230
1.0
 70
     8
 71
     3
 72
    19
 73
    15
 74
     0
 42
0.000000001
 43
0.00000001
 40
0.0
 40
0.0
 40
0.0
 40
0.0
 40
0.0773270407361054
 40
0.154490999110363
 40
0.2319249513212266
 40
0.3091525021507396
 40
0.3982754870334148
 40
0.4875855615387649
 40
0.5768380087611497
 40
0.6659449994930922
 40
0.7551077856736995
 40
0.8444562594787821
 40
0.9336403200638661
 40
1.0
 40
1.0
 40
1.0
 40
1.0
 10
9.99999999999527
 20
3.282668237854006
 30
0.0
 10
10.28633282289422
 20
3.065242594632882
 30
0.0
 10
10.85839459412781
 20
2.630849857840085
 30
0.0
 10
11.71495366972466
 20
1.863157119833042
 30
0.0
 10
12.57462980926299
 20
1.04621295085329
 30
0.0
 10
13.47579917219205
 20
0.1468994071926994
 30
0.0
 10
14.42146595393094
 20
-0.8031451364156166
 30
0.0
 10
15.41314798966287
 20
-1.761687133336809
 30
0.0
 10
16.40419204119599
 20
-2.644982194639899
 30
0.0
 10
17.39355468668808
 20
-3.414249532172782
 30
0.0
 10
18.38354275053701
 20
-4.038077216703623
 30
0.0
 10
19.37573868083651
 20
-4.480246266393475
 30
0.0
 10
20.28178672867554
 20
-4.732267181681776
 30
0.0
 10
20.85712923468776
 20
-4.739770795419767
 30
0.0
 10
21.10258780746405
 20
-4.742972064749853
 30
0.0
  0
SPLINE
  5
D5
330
1F
100
AcDbEntity
  8
0
  6
Continuous
 62
     1
370
    15
100
AcDbSpline
210
0.0
220
0.0
230
1.0
 70
     8
 71
     3
 72
    19
 73
    15
 74
     0
 42
0.000000001
 43
0.00000001
 40
0.0
 40
0.0
 40
0.0
 40
0.0
 40
0.0687025416474036
 40
0.1498860977866658
 40
0.2312299945525491
 40
0.312555381761639
 40
0.3937340808516848
 40
0.4749493339026734
 40
0.556340396084324
 40
0.637598973864779
 40
0.718769385417868
 40
0.8124525746565257
 40
0.9062060548628843
 40
0.9999999999999999
 40
0.9999999999999999
 40
0.9999999999999999
 40
0.9999999999999999
 10
34.38640232367219
 20
4.456867882673257
 30
0.0
 10
34.66545493520248
 20
4.545090503519228
 30
0.0
 10
35.27425493031928
 20
4.737562922414298
 30
0.0
 10
36.21285614033744
 20
4.791274457203152
 30
0.0
 10
37.2043994164458
 20
4.661119219427486
 30
0.0
 10
38.19565868905497
 20
4.324934191800508
 30
0.0
 10
39.18507338922464
 20
3.803390311423087
 30
0.0
 10
40.17493639557228
 20
3.117293927356275
 30
0.0
 10
41.16706249255731
 20
2.298196971076569
 30
0.0
 10
42.15749438428327
 20
1.379085778556214
 30
0.0
 10
43.19709423986754
 20
0.3499509198873939
 30
0.0
 10
44.28882136401997
 20
-0.7465834056098266
 30
0.0
 10
45.43202174625117
 20
-1.863092629335619
 30
0.0
 10
46.19461906982902
 20
-2.507369892848809
 30
0.0
 10
46.57600000000376
 20
-2.82957802871832
 30
0.0
  0
SPLINE
  5
D6
330
1F
100
AcDbEntity
  8
0
  6
Continuous
 62
     1
370
    15
100
AcDbSpline
210
0.0
220
0.0
230
1.0
 70
     8
 71
     3
 72
    30
 73
    26
 74
     0
 42
0.000000001
 43
0.00000001
 40
0.0
 40
0.0
 40
0.0
 40
0.0
 40
0.1249999999999993
 40
0.1249999999999993
 40
0.2499999999999987
 40
0.2499999999999987
 40
0.374999999999998
 40
0.374999999999998
 40
0.4999999999999973
 40
0.4999999999999973
 40
0.5624999999999968
 40
0.5624999999999968
 40
0.6249999999999962
 40
0.6249999999999962
 40
0.6874999999999957
 40
0.6874999999999957
 40
0.7187499999999949
 40
0.7187499999999949
 40
0.749999999999994
 40
0.749999999999994
 40
0.8124999999999948
 40
0.8124999999999948
 40
0.8749999999999956
 40
0.8749999999999956
 40
1.0
 40
1.0
 40
1.0
 40
1.0
 10
46.57600000000377
 20
1.902765931991203
 30
0.0
 10
46.75260169984607
 20
1.740471503718212
 30
0.0
 10
46.91720957679624
 20
1.560451921736121
 30
0.0
 10
47.23258728688794
 20
1.174748930695722
 30
0.0
 10
47.37674461354595
 20
0.9754711685514252
 30
0.0
 10
47.62865271919499
 20
0.5656735989766966
 30
0.0
 10
47.73371916361061
 20
0.3582680295739381
 30
0.0
 10
47.88986296000971
 20
-0.0662826665590019
 30
0.0
 10
47.94082730583374
 20
-0.2854557875179774
 30
0.0
 10
47.98001976903412
 20
-0.6263731537864894
 30
0.0
 10
47.98729930000029
 20
-0.7425285889256927
 30
0.0
 10
47.98987516647377
 20
-0.9824971129447839
 30
0.0
 10
47.98520270028775
 20
-1.107461141470153
 30
0.0
 10
47.95741047329624
 20
-1.3539755654156
 30
0.0
 10
47.93415132464077
 20
-1.480237122683502
 30
0.0
 10
47.86972931907496
 20
-1.651686785731584
 30
0.0
 10
47.84292721386856
 20
-1.705720872935804
 30
0.0
 10
47.77855453603017
 20
-1.797487073966408
 30
0.0
 10
47.73989097514382
 20
-1.836216266560545
 30
0.0
 10
47.61374626701446
 20
-1.918777154350477
 30
0.0
 10
47.51456667289822
 20
-1.93072279081519
 30
0.0
 10
47.3205399711333
 20
-1.90117731883027
 30
0.0
 10
47.22258945986542
 20
-1.861344376668375
 30
0.0
 10
46.93744765675115
 20
-1.705563758821482
 30
0.0
 10
46.75374474622139
 20
-1.551937789623443
 30
0.0
 10
46.57600000000376
 20
-1.381414144846908
 30
0.0
  0
SPLINE
  5
D7
330
1F
100
AcDbEntity
  8
0
  6
Continuous
 62
     1
370
    15
100
AcDbSpline
210
0.0
220
0.0
230
1.0
 70
     8
 71
     3
 72
    16
 73
    12
 74
     0
 42
0.000000001
 43
0.00000001
 40
0.0
 40
0.0
 40
0.0
 40
0.0
 40
0.1287171300022756
 40
0.2573787283841974
 40
0.3859438636989746
 40
0.4973372207109149
 40
0.6088515717138119
 40
0.7205477362854525
 40
0.8320026310534416
 40
0.943407361379195
 40
0.9999999999999999
 40
0.9999999999999999
 40
0.9999999999999999
 40
0.9999999999999999
 10
46.57600000000379
 20
-1.381414144846916
 30
0.0
 10
46.19461906621702
 20
-1.009115192719548
 30
0.0
 10
45.43202173541669
 20
-0.2646779070558817
 30
0.0
 10
44.28882140732257
 20
0.8882562092828507
 30
0.0
 10
43.19709408676576
 20
1.935755527930759
 30
0.0
 10
42.15749487179646
 20
2.839776505431368
 30
0.0
 10
41.16706066088528
 20
3.576425802717167
 30
0.0
 10
40.17494323973253
 20
4.161076122472506
 30
0.0
 10
39.18504791354949
 20
4.55667831274918
 30
0.0
 10
38.35847432979567
 20
4.755914217647344
 30
0.0
 10
37.86084970299246
 20
4.741585190598326
 30
0.0
 10
37.69321677605986
 20
4.736758225422276
 30
0.0
  0
SPLINE
  5
D8
330
1F
100
AcDbEntity
  8
0
  6
Continuous
 62
     1
370
    15
100
AcDbSpline
210
0.0
220
0.0
230
1.0
 70
     8
 71
     3
 72
    23
 73
    19
 74
     0
 42
0.000000001
 43
0.00000001
 40
0.0
 40
0.0
 40
0.0
 40
0.0
 40
0.0057767484764669
 40
0.0744522725574568
 40
0.1432784746681815
 40
0.2120210045466977
 40
0.2806709134275669
 40
0.3493833366797254
 40
0.4182224331365658
 40
0.4869184653893096
 40
0.5555715096859206
 40
0.6243366218550918
 40
0.6931461333287127
 40
0.7618115004198626
 40
0.8213119551480647
 40
0.8809714331252879
 40
0.9404228926443401
 40
1.0
 40
1.0
 40
1.0
 40
1.0
 10
24.41090677025527
 20
-4.462002410312472
 30
0.0
 10
24.38316915968554
 20
-4.473974181834149
 30
0.0
 10
24.02567944888321
 20
-4.628269560966298
 30
0.0
 10
23.33798460421456
 20
-4.745660956525933
 30
0.0
 10
22.34595700522866
 20
-4.784722060741446
 30
0.0
 10
21.35528207326384
 20
-4.597604866715809
 30
0.0
 10
20.36596176214185
 20
-4.217507190130415
 30
0.0
 10
19.37573062850976
 20
-3.654024631347985
 30
0.0
 10
18.38354490487266
 20
-2.934522762170131
 30
0.0
 10
17.39355411037604
 20
-2.087276033768516
 30
0.0
 10
16.40419219585931
 20
-1.150047848149276
 30
0.0
 10
15.41314794814553
 20
-0.1638112356796479
 30
0.0
 10
14.42146596508545
 20
0.8289755863164062
 30
0.0
 10
13.47579916964673
 20
1.744457736828068
 30
0.0
 10
12.57462980990598
 20
2.552429260311352
 30
0.0
 10
11.71495366955555
 20
3.233597821227978
 30
0.0
 10
10.85839459417302
 20
3.822709875779405
 30
0.0
 10
10.28633282291148
 20
4.107152298460745
 30
0.0
 10
9.999999999998542
 20
4.249523640043204
 30
0.0
  0
LINE
  5
D9
330
1F
100
AcDbEntity
  8
0
  6
Continuous
 62
     1
370
    15
100
AcDbLine
 10
9.999999999999993
 20
4.629497705087139
 30
0.0
 11
10.00000000000308
 21
4.319494995023129
 31
0.0
  0
SPLINE
  5
DA
330
1F
100
AcDbEntity
  8
0
  6
Continuous
 62
     1
370
    15
100
AcDbSpline
210
0.0
220
0.0
230
1.0
 70
     8
 71
     3
 72
    24
 73
    20
 74
     0
 42
0.000000001
 43
0.00000001
 40
0.0
 40
0.0
 40
0.0
 40
0.0
 40
0.0533593671538795
 40
0.1066061996557237
 40
0.1600393408552704
 40
0.2133300552014978
 40
0.2748291896172788
 40
0.3364574248465909
 40
0.3980458944865238
 40
0.4595339921711286
 40
0.52106059139158
 40
0.582715323979557
 40
0.6442566035595392
 40
0.7057418930547709
 40
0.7673101371954859
 40
0.8289533211504544
 40
0.8904615525260268
 40
0.9519583217868062
 40
1.0
 40
1.0
 40
1.0
 40
1.0
 10
9.99999999999527
 20
4.629497705090774
 30
0.0
 10
10.2863328229088
 20
4.682142904987134
 30
0.0
 10
10.85839459417155
 20
4.787322276303176
 30
0.0
 10
11.7149536695499
 20
4.749973172802433
 30
0.0
 10
12.57462980992017
 20
4.570068649452081
 30
0.0
 10
13.47579916958692
 20
4.221897028049602
 30
0.0
 10
14.42146596534629
 20
3.694096723769487
 30
0.0
 10
15.41314794717464
 20
2.983116063613053
 30
0.0
 10
16.40419219947611
 20
2.14331304990288
 30
0.0
 10
17.39355409689897
 20
1.210568632308963
 30
0.0
 10
18.38354495525184
 20
0.2255262738531015
 30
0.0
 10
19.37573044020595
 20
-0.7676536685764315
 30
0.0
 10
20.36596246314273
 20
-1.729195826504143
 30
0.0
 10
21.35527945810519
 20
-2.616265714442902
 30
0.0
 10
22.34596678515938
 20
-3.389807412703981
 30
0.0
 10
23.33794809092924
 20
-4.018379741859919
 30
0.0
 10
24.32764970221292
 20
-4.468244957241819
 30
0.0
 10
25.24435722825388
 20
-4.728507490667967
 30
0.0
 10
25.83233205389354
 20
-4.73984266685174
 30
0.0
 10
26.09020769502449
 20
-4.744814080079413
 30
0.0
  0
SPLINE
  5
DB
330
1F
100
AcDbEntity
  8
0
  6
Continuous
 62
     1
370
    15
100
AcDbSpline
210
0.0
220
0.0
230
1.0
 70
     8
 71
     3
 72
    14
 73
    10
 74
     0
 42
0.000000001
 43
0.00000001
 40
0.0
 40
0.0
 40
0.0
 40
0.0
 40
0.1113904848051205
 40
0.2491388526798242
 40
0.3866630004799354
 40
0.524037933444955
 40
0.6825898194754024
 40
0.8412606677827581
 40
1.0
 40
1.0
 40
1.0
 40
1.0
 10
39.37257903390111
 20
4.454608326177635
 30
0.0
 10
39.63982048387998
 20
4.540766199070558
 30
0.0
 10
40.23753965489096
 20
4.733469136304656
 30
0.0
 10
41.16707469800896
 20
4.792013917656682
 30
0.0
 10
42.15749113571096
 20
4.669302623842424
 30
0.0
 10
43.19709526007
 20
4.323222668892434
 30
0.0
 10
44.28882107547075
 20
3.737923453499244
 30
0.0
 10
45.43202181844736
 20
2.918588264902212
 30
0.0
 10
46.19461909389788
 20
2.24142207772681
 30
0.0
 10
46.57600000000377
 20
1.902765931995564
 30
0.0
  0
SPLINE
  5
DC
330
1F
100
AcDbEntity
  8
0
  6
Continuous
 62
     1
370
    15
100
AcDbSpline
210
0.0
220
0.0
230
1.0
 70
     8
 71
     3
 72
    25
 73
    21
 74
     0
 42
0.000000001
 43
0.00000001
 40
0.0
 40
0.0
 40
0.0
 40
0.0
 40
0.0112776510611823
 40
0.0707329303732906
 40
0.1302956440639652
 40
0.1898719141540582
 40
0.2493307507690188
 40
0.3088059005605977
 40
0.3684117058048544
 40
0.4279361184168653
 40
0.4873855316074795
 40
0.5468943006794504
 40
0.6065068059255968
 40
0.6659926118571328
 40
0.7254464176405805
 40
0.7850024671488846
 40
0.8445848896225882
 40
0.9040458098747153
 40
0.9635178127886115
 40
0.9999999999999999
 40
0.9999999999999999
 40
0.9999999999999999
 40
0.9999999999999999
 10
39.37257903390108
 20
-4.454608326177623
 30
0.0
 10
39.31003528651041
 20
-4.480791020662704
 30
0.0
 10
38.91776365960255
 20
-4.64500772642451
 30
0.0
 10
38.19570782974976
 20
-4.759848567629636
 30
0.0
 10
37.20437986001736
 20
-4.774552331456535
 30
0.0
 10
36.21288514674885
 20
-4.566883952512764
 30
0.0
 10
35.22340569336655
 20
-4.166583981546691
 30
0.0
 10
34.23365848491812
 20
-3.585222385829628
 30
0.0
 10
33.24161542822989
 20
-2.85076597181665
 30
0.0
 10
32.25102738673841
 20
-1.99254946060346
 30
0.0
 10
31.26171740601645
 20
-1.048224139194269
 30
0.0
 10
30.27140235171966
 20
-0.0587213297130431
 30
0.0
 10
29.27923760292576
 20
0.9319110627539485
 30
0.0
 10
28.2893137766993
 20
1.883924623993437
 30
0.0
 10
27.2999268142479
 20
2.754739589042662
 30
0.0
 10
26.30877766581036
 20
3.505605368198123
 30
0.0
 10
25.31715793410811
 20
4.107622959121345
 30
0.0
 10
24.32764115135712
 20
4.524435365683797
 30
0.0
 10
23.46612900856127
 20
4.745877299633348
 30
0.0
 10
22.93335794744558
 20
4.740194615530184
 30
0.0
 10
22.73079614616254
 20
4.738034035100667
 30
0.0
  0
SPLINE
  5
DD
330
1F
100
AcDbEntity
  8
0
  6
Continuous
 62
     1
370
    15
100
AcDbSpline
210
0.0
220
0.0
230
1.0
 70
     8
 71
     3
 72
     9
 73
     5
 74
     0
 42
0.000000001
 43
0.00000001
 40
0.0
 40
0.0
 40
0.0
 40
0.0
 40
0.7610164565670121
 40
1.0
 40
1.0
 40
1.0
 40
1.0
 10
9.99999999999527
 20
-4.629497705090771
 30
0.0
 10
10.28632384141722
 20
-4.690805951480407
 30
0.0
 10
10.66256254026688
 20
-4.771366950997027
 30
0.0
 10
11.03820477791013
 20
-4.750792050593943
 30
0.0
 10
11.1279770909252
 20
-4.745874987989833
 30
0.0
  0
SPLINE
  5
DE
330
1F
100
AcDbEntity
  8
0
  6
Continuous
 62
     1
370
    15
100
AcDbSpline
210
0.0
220
0.0
230
1.0
 70
     8
 71
     3
 72
    24
 73
    20
 74
     0
 42
0.000000001
 43
0.00000001
 40
0.0
 40
0.0
 40
0.0
 40
0.0
 40
0.0544603490626067
 40
0.1140449693429043
 40
0.1736032156849875
 40
0.2330592145307673
 40
0.2925472147050189
 40
0.3521619188674174
 40
0.411672883029142
 40
0.4711244891200596
 40
0.5306510973988652
 40
0.5902591013122319
 40
0.6497364449534561
 40
0.7091974748163205
 40
0.7687759424860651
 40
0.8283408532563392
 40
0.887798325685134
 40
0.9472825712225064
 40
0.9999999999999999
 40
0.9999999999999999
 40
0.9999999999999999
 40
0.9999999999999999
 10
24.41090677025524
 20
4.462002410312486
 30
0.0
 10
24.71277764225233
 20
4.553808741184587
 30
0.0
 10
25.34492295411671
 20
4.746059624074759
 30
0.0
 10
26.30878053125792
 20
4.789043556278452
 30
0.0
 10
27.29992604810237
 20
4.644030755538582
 30
0.0
 10
28.28931398187037
 20
4.29409798834362
 30
0.0
 10
29.27923754809261
 20
3.760043215149682
 30
0.0
 10
30.2714023653186
 20
3.064704826006551
 30
0.0
 10
31.26171740639466
 20
2.236392530747787
 30
0.0
 10
32.25102737166117
 20
1.311542142681581
 30
0.0
 10
33.24161548828771
 20
0.3303433499078287
 30
0.0
 10
34.23365825966935
 20
-0.6639527396269368
 30
0.0
 10
35.22340653208033
 20
-1.631141993942066
 30
0.0
 10
36.21288201468162
 20
-2.527984994885659
 30
0.0
 10
37.20439157381318
 20
-3.314617142680111
 30
0.0
 10
38.19566416048192
 20
-3.960053017916646
 30
0.0
 10
39.18505935529713
 20
-4.4300905975506
 30
0.0
 10
40.13675723748395
 20
-4.716717611955482
 30
0.0
 10
40.75978310324537
 20
-4.740703698342887
 30
0.0
 10
41.0525088749896
 20
-4.751973448179512
 30
0.0
  0
LINE
  5
DF
330
1F
100
AcDbEntity
  8
0
  6
Continuous
 62
     1
370
    15
100
AcDbLine
 10
9.999999999999995
 20
-4.629497705087136
 30
0.0
 11
10.00000000000377
 21
-3.986808090135931
 31
0.0
  0
LINE
  5
E1
330
1F
100
AcDbEntity
  8
0
  6
Continuous
 62
     1
370
    15
100
AcDbLine
 10
9.999999999999995
 20
-1.346829467240866
 30
0.0
 11
10.00000000000377
 21
0.2627155499049619
 31
0.0
  0
LINE
  5
E3
330
1F
100
AcDbEntity
  8
0
  6
Continuous
 62
     1
370
    15
100
AcDbLine
 10
9.999999999999995
 20
3.282668237846249
 30
0.0
 11
10.00000000000377
 21
4.249523640040914
 31
0.0
  0
LINE
  5
E4
330
1F
100
AcDbEntity
  8
0
  6
Continuous
 62
     1
370
    15
100
AcDbLine
 10
48.10000000000378
 20
0.0000000000000051
 30
0.0
 11
48.10000000000378
 21
4.000500000000004
 31
0.0
  0
LINE
  5
E5
330
1F
100
AcDbEntity
  8
0
  6
Continuous
 62
     1
370
    15
100
AcDbLine
 10
48.10000000000378
 20
-4.000499999999994
 30
0.0
 11
48.10000000000378
 21
0.0000000000000051
 31
0.0
  0
LINE
  5
E7
330
1F
100
AcDbEntity
  8
0
  6
Continuous
 62
     8
370
    15
100
AcDbLine
 10
46.57600000000377
 20
-4.762499999999994
 30
0.0
 11
46.57600000000379
 21
-4.6378358906675
 31
0.0
  0
LINE
  5
E8
330
1F
100
AcDbEntity
  8
중심선
100
AcDbLine
 10
-56.49999999999623
 20
0.0
 30
0.0
 11
51.10000000000377
 21
0.0
 31
0.0
  0
CIRCLE
  5
E9
330
1F
100
AcDbEntity
  8
외형선
100
AcDbCircle
 10
0.0
 20
0.0
 30
0.0
 40
3.000000000003604
  0
INSERT
  5
EA
330
1F
100
AcDbEntity
  8
0
  6
Continuous
 62
     7
100
AcDbBlockReference
 66
     1
  2
블럭10
 10
-16.62936049908972
 20
-51.78679627639981
 30
0.0
  0
ATTRIB
  5
EB
330
EA
100
AcDbEntity
  8
FORMAT
 62
     2
100
AcDbText
 10
-27.68038085127418
 20
-49.71142936356761
 30
0.0
 40
4.233333333333333
  1
GMG23912[ 6 FLUTE ]
 41
0.75
  7
SLDTEXTSTYLE0
 11
-27.68038085127418
 21
-51.82809603023428
 31
0.0
100
AcDbAttribute
  2
AUTOATTR0
 70
     0
 74
     1
  0
SEQEND
  5
EC
330
EA
100
AcDbEntity
  8
0
  6
Continuous
 62
     7
  0
HATCH
  5
ED
330
1F
100
AcDbEntity
  8
중심선
100
AcDbHatch
 10
0.0
 20
0.0
 30
0.0
210
0.0
220
0.0
230
1.0
  2
SOLID
 70
     1
 71
     0
 91
        1
 92
        0
 93
        4
 72
     1
 10
-10.91445119470887
 20
-35.53962197475587
 11
-14.36072643854615
 21
-35.53962197475587
 72
     1
 10
-14.36072643854615
 20
-35.53962197475587
 11
-16.48895629775017
 21
-38.07594755532847
 72
     1
 10
-16.48895629775017
 20
-38.07594755532847
 11
-13.04264796879974
 21
-38.07590812602598
 72
     1
 10
-13.04264796879974
 20
-38.07590812602598
 11
-10.91445119470887
 21
-35.53962197475587
 97
        0
 75
     0
 76
     1
 98
        1
 10
0.0004859200782442
 20
0.2622744311706926
  0
HATCH
  5
EE
330
1F
100
AcDbEntity
  8
중심선
100
AcDbHatch
 10
0.0
 20
0.0
 30
0.0
210
0.0
220
0.0
230
1.0
  2
SOLID
 70
     1
 71
     0
 91
        1
 92
        0
 93
        4
 72
     1
 10
-5.901687203672915
 20
-35.53962197475587
 11
-9.347962447510197
 21
-35.53962197475587
 72
     1
 10
-9.347962447510197
 20
-35.53962197475587
 11
-13.87910045586758
 21
-40.93962197475589
 72
     1
 10
-13.87910045586758
 20
-40.93962197475589
 11
-10.4328252120303
 21
-40.93962197475589
 72
     1
 10
-10.4328252120303
 20
-40.93962197475589
 11
-5.901687203672915
 21
-35.53962197475587
 97
        0
 75
     0
 76
     1
 98
        1
 10
0.0004859200782442
 20
0.2622744311706926
  0
HATCH
  5
EF
330
1F
100
AcDbEntity
  8
중심선
100
AcDbHatch
 10
0.0
 20
0.0
 30
0.0
210
0.0
220
0.0
230
1.0
  2
SOLID
 70
     1
 71
     0
 91
        1
 92
        0
 93
        4
 72
     1
 10
-0.8889232126370189
 20
-35.5396219747559
 11
-4.335198456474135
 21
-35.53962197475587
 72
     1
 10
-4.335198456474135
 20
-35.53962197475587
 11
-11.38363535836338
 21
-43.93962197475589
 72
     1
 10
-11.38363535836338
 20
-43.93962197475589
 11
-7.937360114526101
 21
-43.93962197475589
 72
     1
 10
-7.937360114526101
 20
-43.93962197475589
 11
-0.8889232126370192
 21
-35.5396219747559
 97
        0
 75
     0
 76
     1
 98
        1
 10
0.0004859200782442
 20
0.2622744311706926
  0
HATCH
  5
F0
330
1F
100
AcDbEntity
  8
중심선
100
AcDbHatch
 10
0.0
 20
0.0
 30
0.0
210
0.0
220
0.0
230
1.0
  2
SOLID
 70
     1
 71
     0
 91
        1
 92
        0
 93
        6
 72
     3
 10
3.91096721837518
 20
-39.73962197480715
 11
3.960054785062283
 21
1.540882976769353E-10
 40
0.3939339440162628
 50
17.09539180608436
 51
320.0019657685081
 73
     0
 72
     1
 10
5.593966874075775
 20
-38.32751597939418
 11
7.899268747776814
 21
-36.39318926934625
 72
     3
 10
3.910967218322334
 20
-39.73962197475602
 11
6.600054785286829
 21
-1.278976924368180E-13
 40
0.636358354079598
 50
39.99873849337411
 51
368.4976242363724
 73
     1
 72
     1
 10
10.33629971022294
 20
-38.7796219746859
 11
2.591034525158256
 21
-38.77962197468587
 72
     1
 10
2.591034525158256
 20
-38.77962197468587
 11
2.591009480712322
 21
-40.69962197468579
 72
     1
 10
2.591009480712322
 20
-40.69962197468579
 11
7.032389250184359
 21
-40.69962197468576
 97
        0
 75
     0
 76
     1
 98
        1
 10
0.0004859200782442
 20
0.2622744311706926
  0
POINT
  5
F1
330
1F
100
AcDbEntity
  8
치수문자_일반주서
100
AcDbPoint
 10
0.0
 20
0.0
 30
0.0
  0
DIMENSION
  5
F2
330
1F
100
AcDbEntity
  8
치수문자_일반주서
100
AcDbDimension
  2
_D
 10
66.7452457157767
 20
4.762500000000087
 30
0.0
 11
66.74524571577672
 21
-0.4965537846535159
 31
0.0
 70
   160
  1
%%c<>
 71
     2
 42
9.525000000000007
 52
-270.0
  3
SLDDIMSTYLE0
100
AcDbAlignedDimension
 13
46.57600000000377
 23
-4.762499999999994
 33
0.0
 14
46.57600000000377
 24
4.762500000000014
 34
0.0
 50
90.0000000000002
100
AcDbRotatedDimension
1001
ACAD
1000
DSTYLE
1002
{
1070
   171
1070
     3
1070
   273
1070
     7
1002
}
  0
DIMENSION
  5
107
330
1F
100
AcDbEntity
  8
치수문자_일반주서
100
AcDbDimension
  2
_D_1
 10
48.10000000000378
 20
37.41805141807179
 30
0.0
 11
-2.699999999996214
 21
37.41805141807179
 31
0.0
 70
   160
  1
<>
 71
     2
 42
101.6
  3
SLDDIMSTYLE1
100
AcDbAlignedDimension
 13
-53.49999999999621
 23
4.262499999999998
 33
0.0
 14
48.10000000000378
 24
3.238500000000006
 34
0.0
100
AcDbRotatedDimension
1001
ACAD
1000
DSTYLE
1002
{
1070
   171
1070
     3
1070
   273
1070
     7
1002
}
  0
DIMENSION
  5
11B
330
1F
100
AcDbEntity
  8
치수문자_일반주서
100
AcDbDimension
  2
_D_2
 10
9.999999999999993
 20
20.86549453033001
 30
0.0
 11
28.63090169784718
 21
20.86549453033001
 31
0.0
 70
   160
  1
<>
 71
     2
 42
38.10000000000322
  3
SLDDIMSTYLE1
100
AcDbAlignedDimension
 13
48.10000000000378
 23
3.238500000000006
 33
0.0
 14
9.999999999999993
 24
4.629497705087139
 34
0.0
 50
0.0000000000233421
100
AcDbRotatedDimension
1001
ACAD
1000
DSTYLE
1002
{
1070
   171
1070
     3
1070
   273
1070
     7
1002
}
  0
DIMENSION
  5
12E
330
1F
100
AcDbEntity
  8
치수문자_일반주서
100
AcDbDimension
  2
_D_3
 10
-66.4999999999962
 20
-4.762500000000047
 30
0.0
 11
-66.49999999999622
 21
0.0
 31
0.0
 70
   160
  1
%%c<>
 71
     2
 42
9.525
 52
-270.0
  3
SLDDIMSTYLE0
100
AcDbAlignedDimension
 13
-52.99999999999621
 23
4.762500000000002
 33
0.0
 14
-52.99999999999621
 24
-4.762499999999998
 34
0.0
 50
90.0000000000002
100
AcDbRotatedDimension
1001
ACAD
1000
DSTYLE
1002
{
1070
   171
1070
     3
1070
   273
1070
     7
1002
}
  0
INSERT
  5
148
330
1F
100
AcDbEntity
  8
외형선
100
AcDbBlockReference
  2
SW_DOWELSYMBOL_0
 10
0.0
 20
0.0
 30
0.0
  0
ARC
  5
16F
330
1F
100
AcDbEntity
  8
0
  6
Continuous
 62
     1
370
    15
100
AcDbCircle
 10
47.33800000000378
 20
4.000500000000004
 30
0.0
 40
0.7620000000000002
100
AcDbArc
 50
0.0
 51
90.0
  0
ARC
  5
170
330
1F
100
AcDbEntity
  8
0
  6
Continuous
 62
     1
370
    15
100
AcDbCircle
 10
47.33800000000378
 20
-4.000499999999994
 30
0.0
 40
0.7620000000000002
100
AcDbArc
 50
270.0
 51
0.0
  0
DIMENSION
  5
172
330
1F
100
AcDbEntity
  8
치수문자_일반주서
100
AcDbDimension
  2
*D7
 10
47.33800000000378
 20
4.000500000000004
 30
0.0
 11
60.53216078832961
 21
21.52910973976374
 31
0.0
 70
   164
  1
<>
 71
     5
 42
0.7619999999999985
  3
SLDDIMSTYLE1
100
AcDbRadialDimension
 15
47.79625968446345
 25
4.609303795650887
 35
0.0
 40
0.0
1001
ACAD
1000
DSTYLE
1002
{
1070
   171
1070
     3
1070
   273
1070
     2
1002
}
1001
ACAD_DSTYLE_DIMRADIAL_EXTENSION
1070
   387
1070
     1
1070
   388
1040
0.0
1070
   390
1040
1.570796326794897
  0
LINE
  5
1DF
330
1F
100
AcDbEntity
  8
0
  6
Continuous
 62
     4
370
    15
100
AcDbLine
 10
-37.22494999999633
 20
3.492500000000007
 30
0.0
 11
-30.0875499999962
 21
3.492500000000007
 31
0.0
  0
LINE
  5
1E0
330
1F
100
AcDbEntity
  8
0
  6
Continuous
 62
     4
370
    15
100
AcDbLine
 10
-37.22494999999633
 20
3.492500000000007
 30
0.0
 11
-38.49494999999631
 21
4.762499999999989
 31
0.0
  0
LINE
  5
1E1
330
1F
100
AcDbEntity
  8
0
  6
Continuous
 62
     4
370
    15
100
AcDbLine
 10
-30.0875499999962
 20
3.492500000000007
 30
0.0
 11
-28.8175499999961
 21
4.762499999999989
 31
0.0
  0
LINE
  5
1E2
330
1F
100
AcDbEntity
  8
0
  6
Continuous
 62
     4
370
    15
100
AcDbLine
 10
-38.49494999999632
 20
4.762500000000003
 30
0.0
 11
-52.99999999999621
 21
4.762500000000002
 31
0.0
  0
ENDSEC
  0
SECTION
  2
OBJECTS
  0
DICTIONARY
  5
C
330
0
100
AcDbDictionary
281
     1
  3
ACAD_GROUP
350
D
  3
ACAD_IMAGE_VARS
350
16C
  3
ACAD_LAYOUT
350
1A
  3
ACAD_MLINESTYLE
350
17
  3
ACAD_PLOTSETTINGS
350
19
  3
ACAD_PLOTSTYLENAME
350
E
  3
ACAD_SCALELIST
350
47
  3
APPDATA
350
16A
  3
DWGPROPS
350
243
  0
DICTIONARY
  5
1D0
330
2
100
AcDbDictionary
280
     1
281
     1
  3
ACAD_LAYERSTATES
360
1D1
  0
DICTIONARY
  5
241
330
1F
100
AcDbDictionary
280
     1
281
     1
  3
DIM_BOUNDING_BOXES_V1
360
242
  0
DICTIONARY
  5
D
102
{ACAD_REACTORS
330
C
102
}
330
C
100
AcDbDictionary
281
     1
  0
RASTERVARIABLES
  5
16C
102
{ACAD_REACTORS
330
C
102
}
330
C
100
AcDbRasterVariables
 90
        0
 70
     1
 71
     1
 72
     1
  0
DICTIONARY
  5
1A
102
{ACAD_REACTORS
330
C
102
}
330
C
100
AcDbDictionary
281
     1
  3
Layout1
350
1E
  3
Layout2
350
26
  3
Model
350
22
  0
DICTIONARY
  5
17
102
{ACAD_REACTORS
330
C
102
}
330
C
100
AcDbDictionary
281
     1
  3
Standard
350
18
  0
DICTIONARY
  5
19
102
{ACAD_REACTORS
330
C
102
}
330
C
100
AcDbDictionary
281
     1
  0
ACDBDICTIONARYWDFLT
  5
E
102
{ACAD_REACTORS
330
C
102
}
330
C
100
AcDbDictionary
281
     1
  3
Normal
350
F
100
AcDbDictionaryWithDefault
340
F
  0
DICTIONARY
  5
47
102
{ACAD_REACTORS
330
C
102
}
330
C
100
AcDbDictionary
281
     1
  3
A0
350
48
  3
A1
350
49
  3
A2
350
4A
  3
A3
350
4B
  3
A4
350
4C
  3
A5
350
4D
  3
A6
350
4E
  3
A7
350
4F
  3
A8
350
50
  3
A9
350
51
  3
B0
350
52
  3
B1
350
53
  3
B2
350
54
  3
B3
350
55
  3
B4
350
56
  3
B5
350
57
  3
B6
350
58
  3
B7
350
59
  3
B8
350
5A
  3
B9
350
5B
  3
C0
350
5C
  3
C1
350
5D
  3
C2
350
5E
  3
C3
350
5F
  3
C4
350
60
  3
C5
350
61
  3
C6
350
62
  3
C7
350
63
  3
C8
350
64
  3
C9
350
65
  3
D0
350
66
  3
D1
350
67
  3
D2
350
68
  0
DICTIONARY
  5
16A
102
{ACAD_REACTORS
330
C
102
}
330
C
100
AcDbDictionary
281
     1
  0
XRECORD
  5
243
102
{ACAD_REACTORS
330
C
102
}
330
C
100
AcDbXrecord
280
     1
  1
DWGPROPS COOKIE
  2

  3

  4

  6

  7

  8
12015018
  9

300
=
301
=
302
=
303
=
304
=
305
=
306
=
307
=
308
=
309
=
 40
0.0
 41
2458236.367384306
 42
2459697.056419155
  1

 90
        0
  0
DICTIONARY
  5
1D1
102
{ACAD_REACTORS
330
1D0
102
}
330
1D0
100
AcDbDictionary
281
     1
  0
DICTIONARY
  5
242
102
{ACAD_REACTORS
330
241
102
}
330
241
100
AcDbDictionary
281
     1
  0
LAYOUT
  5
1E
102
{ACAD_REACTORS
330
1A
102
}
330
1A
100
AcDbPlotSettings
  1

  2
none_device
  4

  6

 40
0.0
 41
0.0
 42
0.0
 43
0.0
 44
0.0
 45
0.0
 46
0.0
 47
0.0
 48
0.0
 49
0.0
140
0.0
141
0.0
142
1.0
143
1.0
 70
   688
 72
     1
 73
     0
 74
     5
  7

 75
    16
147
1.0
148
0.0
149
0.0
100
AcDbLayout
  1
Layout1
 70
     1
 71
     1
 10
0.0
 20
0.0
 11
420.0
 21
297.0
 12
0.0
 22
0.0
 32
0.0
 14
1.000000000000000E+20
 24
1.000000000000000E+20
 34
1.000000000000000E+20
 15
-1.000000000000000E+20
 25
-1.000000000000000E+20
 35
-1.000000000000000E+20
146
0.0
 13
0.0
 23
0.0
 33
0.0
 16
1.0
 26
0.0
 36
0.0
 17
0.0
 27
1.0
 37
0.0
 76
     0
330
1B
  0
LAYOUT
  5
26
102
{ACAD_REACTORS
330
1A
102
}
330
1A
100
AcDbPlotSettings
  1

  2
none_device
  4

  6

 40
0.0
 41
0.0
 42
0.0
 43
0.0
 44
0.0
 45
0.0
 46
0.0
 47
0.0
 48
0.0
 49
0.0
140
0.0
141
0.0
142
1.0
143
1.0
 70
   688
 72
     1
 73
     0
 74
     5
  7

 75
    16
147
1.0
148
0.0
149
0.0
100
AcDbLayout
  1
Layout2
 70
     1
 71
     2
 10
0.0
 20
0.0
 11
0.0
 21
0.0
 12
0.0
 22
0.0
 32
0.0
 14
0.0
 24
0.0
 34
0.0
 15
0.0
 25
0.0
 35
0.0
146
0.0
 13
0.0
 23
0.0
 33
0.0
 16
1.0
 26
0.0
 36
0.0
 17
0.0
 27
1.0
 37
0.0
 76
     0
330
23
  0
LAYOUT
  5
22
102
{ACAD_REACTORS
330
1A
102
}
330
1A
100
AcDbPlotSettings
  1

  2
none_device
  4
ANSI_A_(11.00_x_8.50_Inches)
  6

 40
6.35
 41
19.05
 42
6.35000508
 43
19.05000254
 44
279.4
 45
215.9
 46
142.455197130854
 47
91.54042515825547
 48
0.0
 49
0.0
140
0.0
141
0.0
142
0.0750837051803466
143
1.0
 70
  1696
 72
     0
 73
     0
 74
     0
  7

 75
     0
147
0.0235690232323232
148
0.0
149
0.0
100
AcDbLayout
  1
Model
 70
     1
 71
     0
 10
0.0
 20
0.0
 11
420.0
 21
297.0
 12
0.0
 22
0.0
 32
0.0
 14
-70.87499999999626
 24
-49.71142936356761
 34
0.0
 15
69.08318426393451
 25
41.79305141807178
 35
0.0
146
0.0
 13
0.0
 23
0.0
 33
0.0
 16
1.0
 26
0.0
 36
0.0
 17
0.0
 27
1.0
 37
0.0
 76
     0
330
1F
331
29
  0
MLINESTYLE
  5
18
102
{ACAD_REACTORS
330
17
102
}
330
17
100
AcDbMlineStyle
  2
Standard
 70
     0
  3

 62
   256
 51
90.0
 52
90.0
 71
     2
 49
0.5
 62
   256
  6
BYLAYER
 49
-0.5
 62
   256
  6
BYLAYER
  0
ACDBPLACEHOLDER
  5
F
102
{ACAD_REACTORS
330
E
102
}
330
E
  0
SCALE
  5
48
102
{ACAD_REACTORS
330
47
102
}
330
47
100
AcDbScale
 70
     0
300
1:1
140
1.0
141
1.0
290
     1
  0
SCALE
  5
49
102
{ACAD_REACTORS
330
47
102
}
330
47
100
AcDbScale
 70
     0
300
1:2
140
1.0
141
2.0
290
     0
  0
SCALE
  5
4A
102
{ACAD_REACTORS
330
47
102
}
330
47
100
AcDbScale
 70
     0
300
1:4
140
1.0
141
4.0
290
     0
  0
SCALE
  5
4B
102
{ACAD_REACTORS
330
47
102
}
330
47
100
AcDbScale
 70
     0
300
1:5
140
1.0
141
5.0
290
     0
  0
SCALE
  5
4C
102
{ACAD_REACTORS
330
47
102
}
330
47
100
AcDbScale
 70
     0
300
1:8
140
1.0
141
8.0
290
     0
  0
SCALE
  5
4D
102
{ACAD_REACTORS
330
47
102
}
330
47
100
AcDbScale
 70
     0
300
1:10
140
1.0
141
10.0
290
     0
  0
SCALE
  5
4E
102
{ACAD_REACTORS
330
47
102
}
330
47
100
AcDbScale
 70
     0
300
1:16
140
1.0
141
16.0
290
     0
  0
SCALE
  5
4F
102
{ACAD_REACTORS
330
47
102
}
330
47
100
AcDbScale
 70
     0
300
1:20
140
1.0
141
20.0
290
     0
  0
SCALE
  5
50
102
{ACAD_REACTORS
330
47
102
}
330
47
100
AcDbScale
 70
     0
300
1:30
140
1.0
141
30.0
290
     0
  0
SCALE
  5
51
102
{ACAD_REACTORS
330
47
102
}
330
47
100
AcDbScale
 70
     0
300
1:40
140
1.0
141
40.0
290
     0
  0
SCALE
  5
52
102
{ACAD_REACTORS
330
47
102
}
330
47
100
AcDbScale
 70
     0
300
1:50
140
1.0
141
50.0
290
     0
  0
SCALE
  5
53
102
{ACAD_REACTORS
330
47
102
}
330
47
100
AcDbScale
 70
     0
300
1:100
140
1.0
141
100.0
290
     0
  0
SCALE
  5
54
102
{ACAD_REACTORS
330
47
102
}
330
47
100
AcDbScale
 70
     0
300
2:1
140
2.0
141
1.0
290
     0
  0
SCALE
  5
55
102
{ACAD_REACTORS
330
47
102
}
330
47
100
AcDbScale
 70
     0
300
4:1
140
4.0
141
1.0
290
     0
  0
SCALE
  5
56
102
{ACAD_REACTORS
330
47
102
}
330
47
100
AcDbScale
 70
     0
300
8:1
140
8.0
141
1.0
290
     0
  0
SCALE
  5
57
102
{ACAD_REACTORS
330
47
102
}
330
47
100
AcDbScale
 70
     0
300
10:1
140
10.0
141
1.0
290
     0
  0
SCALE
  5
58
102
{ACAD_REACTORS
330
47
102
}
330
47
100
AcDbScale
 70
     0
300
100:1
140
100.0
141
1.0
290
     0
  0
SCALE
  5
59
102
{ACAD_REACTORS
330
47
102
}
330
47
100
AcDbScale
 70
     0
300
1/128" = 1'-0"
140
0.0078125
141
12.0
290
     0
  0
SCALE
  5
5A
102
{ACAD_REACTORS
330
47
102
}
330
47
100
AcDbScale
 70
     0
300
1/64" = 1'-0"
140
0.015625
141
12.0
290
     0
  0
SCALE
  5
5B
102
{ACAD_REACTORS
330
47
102
}
330
47
100
AcDbScale
 70
     0
300
1/32" = 1'-0"
140
0.03125
141
12.0
290
     0
  0
SCALE
  5
5C
102
{ACAD_REACTORS
330
47
102
}
330
47
100
AcDbScale
 70
     0
300
1/16" = 1'-0"
140
0.0625
141
12.0
290
     0
  0
SCALE
  5
5D
102
{ACAD_REACTORS
330
47
102
}
330
47
100
AcDbScale
 70
     0
300
3/32" = 1'-0"
140
0.09375
141
12.0
290
     0
  0
SCALE
  5
5E
102
{ACAD_REACTORS
330
47
102
}
330
47
100
AcDbScale
 70
     0
300
1/8" = 1'-0"
140
0.125
141
12.0
290
     0
  0
SCALE
  5
5F
102
{ACAD_REACTORS
330
47
102
}
330
47
100
AcDbScale
 70
     0
300
3/16" = 1'-0"
140
0.1875
141
12.0
290
     0
  0
SCALE
  5
60
102
{ACAD_REACTORS
330
47
102
}
330
47
100
AcDbScale
 70
     0
300
1/4" = 1'-0"
140
0.25
141
12.0
290
     0
  0
SCALE
  5
61
102
{ACAD_REACTORS
330
47
102
}
330
47
100
AcDbScale
 70
     0
300
3/8" = 1'-0"
140
0.375
141
12.0
290
     0
  0
SCALE
  5
62
102
{ACAD_REACTORS
330
47
102
}
330
47
100
AcDbScale
 70
     0
300
1/2" = 1'-0"
140
0.5
141
12.0
290
     0
  0
SCALE
  5
63
102
{ACAD_REACTORS
330
47
102
}
330
47
100
AcDbScale
 70
     0
300
3/4" = 1'-0"
140
0.75
141
12.0
290
     0
  0
SCALE
  5
64
102
{ACAD_REACTORS
330
47
102
}
330
47
100
AcDbScale
 70
     0
300
1" = 1'-0"
140
1.0
141
12.0
290
     0
  0
SCALE
  5
65
102
{ACAD_REACTORS
330
47
102
}
330
47
100
AcDbScale
 70
     0
300
1-1/2" = 1'-0"
140
1.5
141
12.0
290
     0
  0
SCALE
  5
66
102
{ACAD_REACTORS
330
47
102
}
330
47
100
AcDbScale
 70
     0
300
3" = 1'-0"
140
3.0
141
12.0
290
     0
  0
SCALE
  5
67
102
{ACAD_REACTORS
330
47
102
}
330
47
100
AcDbScale
 70
     0
300
6" = 1'-0"
140
6.0
141
12.0
290
     0
  0
SCALE
  5
68
102
{ACAD_REACTORS
330
47
102
}
330
47
100
AcDbScale
 70
     0
300
1'-0" = 1'-0"
140
12.0
141
12.0
290
     0
  0
ENDSEC
  0
EOF
