  0
SECTION
  2
HEADER
  9
$ACADVER
  1
AC1015
  9
$ACADMAINTVER
 70
     6
  9
$DWGCODEPAGE
  3
ANSI_949
  9
$INSBASE
 10
0.0
 20
0.0
 30
0.0
  9
$EXTMIN
 10
-69.92500000000003
 20
-49.97180738881174
 30
0.0
  9
$EXTMAX
 10
70.8452987517475
 20
51.00599845446575
 30
0.0
  9
$LIMMIN
 10
0.0
 20
0.0
  9
$LIMMAX
 10
420.0
 20
297.0
  9
$ORTHOMODE
 70
     1
  9
$REGENMODE
 70
     1
  9
$FILLMODE
 70
     1
  9
$QTEXTMODE
 70
     0
  9
$MIRRTEXT
 70
     1
  9
$LTSCALE
 40
1.0
  9
$ATTMODE
 70
     1
  9
$TEXTSIZE
 40
3.5
  9
$TRACEWID
 40
1.0
  9
$TEXTSTYLE
  7
Standard
  9
$CLAYER
  8
0
  9
$CELTYPE
  6
ByLayer
  9
$CECOLOR
 62
   256
  9
$CELTSCALE
 40
1.0
  9
$DISPSILH
 70
     0
  9
$DIMSCALE
 40
1.0
  9
$DIMASZ
 40
3.302
  9
$DIMEXO
 40
1.0
  9
$DIMDLI
 40
3.75
  9
$DIMRND
 40
0.0
  9
$DIMDLE
 40
0.0
  9
$DIMEXE
 40
1.0
  9
$DIMTP
 40
0.0
  9
$DIMTM
 40
0.0
  9
$DIMTXT
 40
3.5
  9
$DIMCEN
 40
2.5
  9
$DIMTSZ
 40
0.0
  9
$DIMTOL
 70
     0
  9
$DIMLIM
 70
     0
  9
$DIMTIH
 70
     1
  9
$DIMTOH
 70
     1
  9
$DIMSE1
 70
     0
  9
$DIMSE2
 70
     0
  9
$DIMTAD
 70
     1
  9
$DIMZIN
 70
     0
  9
$DIMBLK
  1

  9
$DIMASO
 70
     1
  9
$DIMSHO
 70
     1
  9
$DIMPOST
  1

  9
$DIMAPOST
  1

  9
$DIMALT
 70
     0
  9
$DIMALTD
 70
     3
  9
$DIMALTF
 40
0.0393700787401575
  9
$DIMLFAC
 40
1.0
  9
$DIMTOFL
 70
     1
  9
$DIMTVP
 40
0.0
  9
$DIMTIX
 70
     0
  9
$DIMSOXD
 70
     0
  9
$DIMSAH
 70
     0
  9
$DIMBLK1
  1

  9
$DIMBLK2
  1

  9
$DIMSTYLE
  2
ISO-25
  9
$DIMCLRD
 70
     0
  9
$DIMCLRE
 70
     0
  9
$DIMCLRT
 70
     0
  9
$DIMTFAC
 40
1.0
  9
$DIMGAP
 40
1.524
  9
$DIMJUST
 70
     0
  9
$DIMSD1
 70
     0
  9
$DIMSD2
 70
     0
  9
$DIMTOLJ
 70
     0
  9
$DIMTZIN
 70
     0
  9
$DIMALTZ
 70
     0
  9
$DIMALTTZ
 70
     0
  9
$DIMUPT
 70
     0
  9
$DIMDEC
 70
     2
  9
$DIMTDEC
 70
     2
  9
$DIMALTU
 70
     2
  9
$DIMALTTD
 70
     3
  9
$DIMTXSTY
  7
Standard
  9
$DIMAUNIT
 70
     0
  9
$DIMADEC
 70
     2
  9
$DIMALTRND
 40
0.0
  9
$DIMAZIN
 70
     0
  9
$DIMDSEP
 70
    44
  9
$DIMATFIT
 70
     3
  9
$DIMFRAC
 70
     0
  9
$DIMLDRBLK
  1

  9
$DIMLUNIT
 70
     2
  9
$DIMLWD
 70
    -2
  9
$DIMLWE
 70
    -2
  9
$DIMTMOVE
 70
     0
  9
$LUNITS
 70
     2
  9
$LUPREC
 70
     2
  9
$SKETCHINC
 40
1.0
  9
$FILLETRAD
 40
10.0
  9
$AUNITS
 70
     0
  9
$AUPREC
 70
     2
  9
$MENU
  1
.
  9
$ELEVATION
 40
0.0
  9
$PELEVATION
 40
0.0
  9
$THICKNESS
 40
0.0
  9
$LIMCHECK
 70
     0
  9
$CHAMFERA
 40
0.0
  9
$CHAMFERB
 40
0.0
  9
$CHAMFERC
 40
0.0
  9
$CHAMFERD
 40
0.0
  9
$SKPOLY
 70
     0
  9
$TDCREATE
 40
2458236.72733257
  9
$TDUCREATE
 40
2458236.35233257
  9
$TDUPDATE
 40
2459697.430429734
  9
$TDUUPDATE
 40
2459697.055429734
  9
$TDINDWG
 40
0.005897037
  9
$TDUSRTIMER
 40
0.0001164699
  9
$USRTIMER
 70
     1
  9
$ANGBASE
 50
0.0
  9
$ANGDIR
 70
     0
  9
$PDMODE
 70
     0
  9
$PDSIZE
 40
-1.0
  9
$PLINEWID
 40
0.0
  9
$SPLFRAME
 70
     0
  9
$SPLINETYPE
 70
     6
  9
$SPLINESEGS
 70
     8
  9
$HANDSEED
  5
261
  9
$SURFTAB1
 70
     6
  9
$SURFTAB2
 70
     6
  9
$SURFTYPE
 70
     6
  9
$SURFU
 70
     6
  9
$SURFV
 70
     6
  9
$UCSBASE
  2

  9
$UCSNAME
  2

  9
$UCSORG
 10
0.0
 20
0.0
 30
0.0
  9
$UCSXDIR
 10
1.0
 20
0.0
 30
0.0
  9
$UCSYDIR
 10
0.0
 20
1.0
 30
0.0
  9
$UCSORTHOREF
  2

  9
$UCSORTHOVIEW
 70
     0
  9
$UCSORGTOP
 10
0.0
 20
0.0
 30
0.0
  9
$UCSORGBOTTOM
 10
0.0
 20
0.0
 30
0.0
  9
$UCSORGLEFT
 10
0.0
 20
0.0
 30
0.0
  9
$UCSORGRIGHT
 10
0.0
 20
0.0
 30
0.0
  9
$UCSORGFRONT
 10
0.0
 20
0.0
 30
0.0
  9
$UCSORGBACK
 10
0.0
 20
0.0
 30
0.0
  9
$PUCSBASE
  2

  9
$PUCSNAME
  2

  9
$PUCSORG
 10
0.0
 20
0.0
 30
0.0
  9
$PUCSXDIR
 10
1.0
 20
0.0
 30
0.0
  9
$PUCSYDIR
 10
0.0
 20
1.0
 30
0.0
  9
$PUCSORTHOREF
  2

  9
$PUCSORTHOVIEW
 70
     0
  9
$PUCSORGTOP
 10
0.0
 20
0.0
 30
0.0
  9
$PUCSORGBOTTOM
 10
0.0
 20
0.0
 30
0.0
  9
$PUCSORGLEFT
 10
0.0
 20
0.0
 30
0.0
  9
$PUCSORGRIGHT
 10
0.0
 20
0.0
 30
0.0
  9
$PUCSORGFRONT
 10
0.0
 20
0.0
 30
0.0
  9
$PUCSORGBACK
 10
0.0
 20
0.0
 30
0.0
  9
$USERI1
 70
     0
  9
$USERI2
 70
     0
  9
$USERI3
 70
     0
  9
$USERI4
 70
     0
  9
$USERI5
 70
     0
  9
$USERR1
 40
0.0
  9
$USERR2
 40
0.0
  9
$USERR3
 40
0.0
  9
$USERR4
 40
0.0
  9
$USERR5
 40
0.0
  9
$WORLDVIEW
 70
     1
  9
$SHADEDGE
 70
     3
  9
$SHADEDIF
 70
    70
  9
$TILEMODE
 70
     1
  9
$MAXACTVP
 70
    64
  9
$PINSBASE
 10
0.0
 20
0.0
 30
0.0
  9
$PLIMCHECK
 70
     0
  9
$PEXTMIN
 10
1.000000000000000E+20
 20
1.000000000000000E+20
 30
1.000000000000000E+20
  9
$PEXTMAX
 10
-1.000000000000000E+20
 20
-1.000000000000000E+20
 30
-1.000000000000000E+20
  9
$PLIMMIN
 10
0.0
 20
0.0
  9
$PLIMMAX
 10
0.0
 20
0.0
  9
$UNITMODE
 70
     0
  9
$VISRETAIN
 70
     1
  9
$PLINEGEN
 70
     0
  9
$PSLTSCALE
 70
     1
  9
$TREEDEPTH
 70
  3020
  9
$CMLSTYLE
  2
Standard
  9
$CMLJUST
 70
     0
  9
$CMLSCALE
 40
20.0
  9
$PROXYGRAPHICS
 70
     1
  9
$MEASUREMENT
 70
     1
  9
$CELWEIGHT
370
    -1
  9
$ENDCAPS
280
     0
  9
$JOINSTYLE
280
     0
  9
$LWDISPLAY
290
     1
  9
$INSUNITS
 70
     4
  9
$HYPERLINKBASE
  1

  9
$STYLESHEET
  1

  9
$XEDIT
290
     1
  9
$CEPSNTYPE
380
     0
  9
$PSTYLEMODE
290
     1
  9
$FINGERPRINTGUID
  2
{B20F5B8A-EB04-496D-9625-CDF3D85D30F5}
  9
$VERSIONGUID
  2
{FAEB1C32-E019-11D5-929B-00C0DF256EC4}
  9
$EXTNAMES
290
     1
  9
$PSVPSCALE
 40
0.0
  9
$OLESTARTUP
290
     0
  0
ENDSEC
  0
SECTION
  2
CLASSES
  0
CLASS
  1
ACDBDICTIONARYWDFLT
  2
AcDbDictionaryWithDefault
  3
ObjectDBX Classes
 90
        0
280
     0
281
     0
  0
CLASS
  1
VISUALSTYLE
  2
AcDbVisualStyle
  3
ObjectDBX Classes
 90
     4095
280
     0
281
     0
  0
CLASS
  1
MATERIAL
  2
AcDbMaterial
  3
ObjectDBX Classes
 90
     1153
280
     0
281
     0
  0
CLASS
  1
SCALE
  2
AcDbScale
  3
ObjectDBX Classes
 90
     1153
280
     0
281
     0
  0
CLASS
  1
SUN
  2
AcDbSun
  3
SCENEOE
 90
     1153
280
     0
281
     0
  0
CLASS
  1
ACDBPLACEHOLDER
  2
AcDbPlaceHolder
  3
ObjectDBX Classes
 90
        0
280
     0
281
     0
  0
CLASS
  1
LAYOUT
  2
AcDbLayout
  3
ObjectDBX Classes
 90
        0
280
     0
281
     0
  0
CLASS
  1
TABLESTYLE
  2
AcDbTableStyle
  3
ObjectDBX Classes
 90
     4095
280
     0
281
     0
  0
CLASS
  1
MLEADERSTYLE
  2
AcDbMLeaderStyle
  3
ACDB_MLEADERSTYLE_CLASS
 90
     4095
280
     0
281
     0
  0
CLASS
  1
RASTERVARIABLES
  2
AcDbRasterVariables
  3
ISM
 90
        0
280
     0
281
     0
  0
CLASS
  1
DIMASSOC
  2
AcDbDimAssoc
  3
"AcDbDimAssoc|Product Desc:     AcDim ARX App For Dimension|Company:          Autodesk, Inc.|WEB Address:      www.autodesk.com"
 90
        0
280
     0
281
     0
  0
ENDSEC
  0
SECTION
  2
TABLES
  0
TABLE
  2
VPORT
  5
8
330
0
100
AcDbSymbolTable
 70
     1
  0
VPORT
  5
29
330
8
100
AcDbSymbolTableRecord
100
AcDbViewportTableRecord
  2
*Active
 70
     0
 10
0.0
 20
0.0
 11
1.0
 21
1.0
 12
0.4601493758737405
 22
0.5170955328270068
 13
0.0
 23
0.0
 14
10.0
 24
10.0
 15
10.0
 25
10.0
 16
0.0
 26
0.0
 36
1.0
 17
0.0
 27
0.0
 37
0.0
 40
102.9973619601431
 41
1.898569570871261
 42
50.0
 43
0.0
 44
0.0
 50
0.0
 51
0.0
 71
    16
 72
  2000
 73
     1
 74
     3
 75
     0
 76
     0
 77
     0
 78
     0
281
     0
 65
     1
110
0.0
120
0.0
130
0.0
111
1.0
121
0.0
131
0.0
112
0.0
122
1.0
132
0.0
 79
     0
146
0.0
  0
ENDTAB
  0
TABLE
  2
LTYPE
  5
5
330
0
100
AcDbSymbolTable
 70
     6
  0
LTYPE
  5
14
330
5
100
AcDbSymbolTableRecord
100
AcDbLinetypeTableRecord
  2
ByBlock
 70
     0
  3

 72
    65
 73
     0
 40
0.0
  0
LTYPE
  5
15
330
5
100
AcDbSymbolTableRecord
100
AcDbLinetypeTableRecord
  2
ByLayer
 70
     0
  3

 72
    65
 73
     0
 40
0.0
  0
LTYPE
  5
16
330
5
100
AcDbSymbolTableRecord
100
AcDbLinetypeTableRecord
  2
Continuous
 70
     0
  3
Solid line
 72
    65
 73
     0
 40
0.0
  0
LTYPE
  5
6A
330
5
100
AcDbSymbolTableRecord
100
AcDbLinetypeTableRecord
  2
HIDDEN
 70
     0
  3
Hidden __ __ __ __ __ __ __ __ __ __ __ __ __ __
 72
    65
 73
     2
 40
1.905
 49
1.27
 74
     0
 49
-0.635
 74
     0
  0
LTYPE
  5
6B
330
5
100
AcDbSymbolTableRecord
100
AcDbLinetypeTableRecord
  2
PHANTOM
 70
     0
  3
Phantom ______  __  __  ______  __  __  ______
 72
    65
 73
     6
 40
12.7
 49
6.35
 74
     0
 49
-1.27
 74
     0
 49
1.27
 74
     0
 49
-1.27
 74
     0
 49
1.27
 74
     0
 49
-1.27
 74
     0
  0
LTYPE
  5
6C
330
5
100
AcDbSymbolTableRecord
100
AcDbLinetypeTableRecord
  2
CENTER
 70
     0
  3
Center ____ _ ____ _ ____ _ ____ _ ____ _ ____
 72
    65
 73
     4
 40
10.16
 49
6.35
 74
     0
 49
-1.27
 74
     0
 49
1.27
 74
     0
 49
-1.27
 74
     0
  0
LTYPE
  5
6D
330
5
100
AcDbSymbolTableRecord
100
AcDbLinetypeTableRecord
  2
CENTERX2
 70
     0
  3
Center (2x) ________  __  ________  __  _____
 72
    65
 73
     4
 40
20.32
 49
12.7
 74
     0
 49
-2.54
 74
     0
 49
2.54
 74
     0
 49
-2.54
 74
     0
  0
LTYPE
  5
6E
330
5
100
AcDbSymbolTableRecord
100
AcDbLinetypeTableRecord
  2
DOT2
 70
     0
  3
Dot (.5x) ........................................
 72
    65
 73
     2
 40
0.635
 49
0.0
 74
     0
 49
-0.635
 74
     0
  0
ENDTAB
  0
TABLE
  2
LAYER
  5
2
102
{ACAD_XDICTIONARY
360
1F6
102
}
330
0
100
AcDbSymbolTable
 70
    17
  0
LAYER
  5
10
330
2
100
AcDbSymbolTableRecord
100
AcDbLayerTableRecord
  2
0
 70
     0
 62
     7
  6
Continuous
370
    -3
390
F
  0
LAYER
  5
6F
330
2
100
AcDbSymbolTableRecord
100
AcDbLayerTableRecord
  2
FORMAT
 70
     0
 62
     2
  6
Continuous
370
    -3
390
F
  0
LAYER
  5
70
330
2
100
AcDbSymbolTableRecord
100
AcDbLayerTableRecord
  2
외형선
 70
     0
 62
   100
  6
Continuous
370
    30
390
F
  0
LAYER
  5
71
330
2
100
AcDbSymbolTableRecord
100
AcDbLayerTableRecord
  2
숨은선
 70
     0
 62
     2
  6
HIDDEN
370
    15
390
F
  0
LAYER
  5
72
330
2
100
AcDbSymbolTableRecord
100
AcDbLayerTableRecord
  2
중심선
 70
     0
 62
     1
  6
CENTERX2
370
    -3
390
F
  0
LAYER
  5
73
330
2
100
AcDbSymbolTableRecord
100
AcDbLayerTableRecord
  2
파단선
 70
     0
 62
     4
  6
Continuous
370
    -3
390
F
  0
LAYER
  5
74
330
2
100
AcDbSymbolTableRecord
100
AcDbLayerTableRecord
  2
해칭선
 70
     0
 62
     4
  6
Continuous
370
    -3
390
F
  0
LAYER
  5
75
330
2
100
AcDbSymbolTableRecord
100
AcDbLayerTableRecord
  2
가는실선
 70
     0
 62
     4
  6
Continuous
370
    -3
390
F
  0
LAYER
  5
76
330
2
100
AcDbSymbolTableRecord
100
AcDbLayerTableRecord
  2
치수_보조선
 70
     0
 62
     4
  6
Continuous
370
    -3
390
F
  0
LAYER
  5
77
330
2
100
AcDbSymbolTableRecord
100
AcDbLayerTableRecord
  2
치수문자_일반주서
 70
     0
 62
     7
  6
Continuous
370
    15
390
F
  0
LAYER
  5
78
330
2
100
AcDbSymbolTableRecord
100
AcDbLayerTableRecord
  2
개별주서
 70
     0
 62
   100
  6
Continuous
370
    30
390
F
  0
LAYER
  5
79
330
2
100
AcDbSymbolTableRecord
100
AcDbLayerTableRecord
  2
중간선
 70
     0
 62
     2
  6
Continuous
370
    15
390
F
  0
LAYER
  5
7A
330
2
100
AcDbSymbolTableRecord
100
AcDbLayerTableRecord
  2
윤곽선
 70
     0
 62
     3
  6
Continuous
370
    40
390
F
  0
LAYER
  5
7B
330
2
100
AcDbSymbolTableRecord
100
AcDbLayerTableRecord
  2
중심마크
 70
     0
 62
   100
  6
Continuous
370
    30
390
F
  0
LAYER
  5
7C
330
2
100
AcDbSymbolTableRecord
100
AcDbLayerTableRecord
  2
가상선
 70
     0
 62
     4
  6
PHANTOM
370
    -3
390
F
  0
LAYER
  5
7D
330
2
100
AcDbSymbolTableRecord
100
AcDbLayerTableRecord
  2
특수지정선
 70
     0
 62
     5
  6
CENTERX2
370
    60
390
F
  0
LAYER
  5
16F
330
2
100
AcDbSymbolTableRecord
100
AcDbLayerTableRecord
  2
Defpoints
 70
     0
 62
     7
  6
Continuous
290
     0
370
    -3
390
F
  0
ENDTAB
  0
TABLE
  2
STYLE
  5
3
330
0
100
AcDbSymbolTable
 70
     2
  0
STYLE
  5
11
330
3
100
AcDbSymbolTableRecord
100
AcDbTextStyleTableRecord
  2
Standard
 70
     0
 40
0.0
 41
1.0
 50
0.0
 71
     0
 42
3.5
  3
txt
  4

  0
STYLE
  5
93
330
3
100
AcDbSymbolTableRecord
100
AcDbTextStyleTableRecord
  2
SLDTEXTSTYLE0
 70
     0
 40
0.0
 41
0.75
 50
0.0
 71
     0
 42
3.5
  3
TXT
  4

  0
ENDTAB
  0
TABLE
  2
VIEW
  5
6
330
0
100
AcDbSymbolTable
 70
     0
  0
ENDTAB
  0
TABLE
  2
UCS
  5
7
330
0
100
AcDbSymbolTable
 70
     0
  0
ENDTAB
  0
TABLE
  2
APPID
  5
9
330
0
100
AcDbSymbolTable
 70
     2
  0
APPID
  5
12
330
9
100
AcDbSymbolTableRecord
100
AcDbRegAppTableRecord
  2
ACAD
 70
     0
  0
APPID
  5
171
330
9
100
AcDbSymbolTableRecord
100
AcDbRegAppTableRecord
  2
ACAD_DSTYLE_DIMRADIAL_EXTENSION
 70
     0
  0
ENDTAB
  0
TABLE
  2
DIMSTYLE
  5
A
330
0
100
AcDbSymbolTable
 70
     3
100
AcDbDimStyleTable
  0
DIMSTYLE
105
27
330
A
100
AcDbSymbolTableRecord
100
AcDbDimStyleTableRecord
  2
ISO-25
 70
     0
 41
2.5
 42
0.625
 43
3.75
 44
1.25
 73
     0
 74
     0
 77
     1
 78
     8
140
2.5
141
2.5
143
0.03937007874016
147
0.625
171
     3
172
     1
178
     0
271
     2
272
     2
274
     3
278
    44
283
     0
284
     8
340
11
  0
DIMSTYLE
105
F5
102
{ACAD_REACTORS
330
F4
330
11D
330
173
102
}
330
A
100
AcDbSymbolTableRecord
100
AcDbDimStyleTableRecord
  2
SLDDIMSTYLE0
 70
     0
 41
3.302
 44
0.0
 45
0.000000001
 73
     0
 74
     0
 77
     1
 78
     4
 79
     1
140
3.5
143
0.0393700787401575
147
0.875
148
0.000000001
170
     1
173
     1
178
     0
271
     2
272
     2
276
     2
284
    12
340
93
  0
DIMSTYLE
105
109
102
{ACAD_REACTORS
330
108
330
130
102
}
330
A
100
AcDbSymbolTableRecord
100
AcDbDimStyleTableRecord
  2
SLDDIMSTYLE1
 70
     0
 41
3.302
 44
0.0
 45
0.000000001
 73
     0
 74
     0
 77
     1
 78
     4
 79
     1
140
3.5
143
0.0393700787401575
147
0.875
148
0.000000001
170
     1
172
     1
173
     1
178
     0
271
     2
272
     2
276
     2
284
    12
289
     0
340
93
  0
ENDTAB
  0
TABLE
  2
BLOCK_RECORD
  5
1
330
0
100
AcDbSymbolTable
 70
     8
  0
BLOCK_RECORD
  5
1F
102
{ACAD_XDICTIONARY
360
25E
102
}
330
1
100
AcDbSymbolTableRecord
100
AcDbBlockTableRecord
  2
*Model_Space
340
22
  0
BLOCK_RECORD
  5
1B
330
1
100
AcDbSymbolTableRecord
100
AcDbBlockTableRecord
  2
*Paper_Space
340
1E
  0
BLOCK_RECORD
  5
23
330
1
100
AcDbSymbolTableRecord
100
AcDbBlockTableRecord
  2
*Paper_Space0
340
26
  0
BLOCK_RECORD
  5
7E
330
1
100
AcDbSymbolTableRecord
100
AcDbBlockTableRecord
  2
블럭10
340
0
102
{BLKREFS
331
EC
102
}
  0
BLOCK_RECORD
  5
F6
330
1
100
AcDbSymbolTableRecord
100
AcDbBlockTableRecord
  2
_D
340
0
  0
BLOCK_RECORD
  5
10A
330
1
100
AcDbSymbolTableRecord
100
AcDbBlockTableRecord
  2
_D_1
340
0
  0
BLOCK_RECORD
  5
11E
330
1
100
AcDbSymbolTableRecord
100
AcDbBlockTableRecord
  2
_D_2
340
0
  0
BLOCK_RECORD
  5
131
330
1
100
AcDbSymbolTableRecord
100
AcDbBlockTableRecord
  2
_D_3
340
0
  0
BLOCK_RECORD
  5
144
330
1
100
AcDbSymbolTableRecord
100
AcDbBlockTableRecord
  2
SW_DOWELSYMBOL_0
340
0
102
{BLKREFS
331
14A
102
}
  0
BLOCK_RECORD
  5
176
330
1
100
AcDbSymbolTableRecord
100
AcDbBlockTableRecord
  2
*D7
340
0
  0
ENDTAB
  0
ENDSEC
  0
SECTION
  2
BLOCKS
  0
BLOCK
  5
20
330
1F
100
AcDbEntity
  8
0
100
AcDbBlockBegin
  2
*Model_Space
 70
     0
 10
0.0
 20
0.0
 30
0.0
  3
*Model_Space
  1
*Model_Space
  0
ENDBLK
  5
21
330
1F
100
AcDbEntity
  8
0
100
AcDbBlockEnd
  0
BLOCK
  5
1C
330
1B
100
AcDbEntity
 67
     1
  8
0
100
AcDbBlockBegin
  2
*Paper_Space
 70
     0
 10
0.0
 20
0.0
 30
0.0
  3
*Paper_Space
  1
*Paper_Space
  0
ENDBLK
  5
1D
330
1B
100
AcDbEntity
 67
     1
  8
0
100
AcDbBlockEnd
  0
BLOCK
  5
24
330
23
100
AcDbEntity
  8
0
100
AcDbBlockBegin
  2
*Paper_Space0
 70
     0
 10
0.0
 20
0.0
 30
0.0
  3
*Paper_Space0
  1
*Paper_Space0
  0
ENDBLK
  5
25
330
23
100
AcDbEntity
  8
0
100
AcDbBlockEnd
  0
BLOCK
  5
7F
330
7E
100
AcDbEntity
  8
0
100
AcDbBlockBegin
  2
블럭10
 70
     2
 10
0.0
 20
0.0
 30
0.0
  3
블럭10
  1
블럭10
  0
ELLIPSE
  5
81
330
7E
100
AcDbEntity
  8
중심선
100
AcDbEllipse
 10
20.54032771741204
 20
12.0471743016438
 30
0.0
 11
6.600054785286829
 21
-1.261213355974178E-13
 31
0.0
210
0.0
220
0.0
230
1.0
 40
0.636358354079598
 41
0.9219305317359503
 42
6.513795318482858
  0
ELLIPSE
  5
82
330
7E
100
AcDbEntity
  8
중심선
100
AcDbEllipse
 10
20.54032771746488
 20
12.04717430159265
 30
0.0
 11
3.960054785062283
 21
1.540847449632565E-10
 31
0.0
210
0.0
220
0.0
230
1.0
 40
0.3939339440162632
 41
1.131841032648279
 42
5.62031148352944
  0
LINE
  5
83
330
7E
100
AcDbEntity
  8
중심선
100
AcDbLine
 10
2.268634060543552
 20
16.24717430164393
 30
0.0
 11
5.714909304380834
 21
16.24717430164393
 31
0.0
  0
LINE
  5
84
330
7E
100
AcDbEntity
  8
중심선
100
AcDbLine
 10
5.245725140726316
 20
7.84717430164391
 30
0.0
 11
8.692000384563599
 21
7.84717430164391
 31
0.0
  0
LINE
  5
85
330
7E
100
AcDbEntity
  8
중심선
100
AcDbLine
 10
15.74043728645272
 20
16.24717430164393
 30
0.0
 11
8.692000384563599
 21
7.84717430164391
 31
0.0
  0
LINE
  5
86
330
7E
100
AcDbEntity
  8
중심선
100
AcDbLine
 10
0.1404042013395286
 20
13.71084872107135
 30
0.0
 11
3.58671253028996
 21
13.71088815037384
 31
0.0
  0
LINE
  5
87
330
7E
100
AcDbEntity
  8
중심선
100
AcDbLine
 10
2.750260043222114
 20
10.84717430164391
 30
0.0
 11
6.196535287059397
 21
10.84717430164391
 31
0.0
  0
LINE
  5
88
330
7E
100
AcDbEntity
  8
중심선
100
AcDbLine
 10
12.29416204261559
 20
16.24717430164393
 30
0.0
 11
5.245725140726316
 21
7.84717430164391
 31
0.0
  0
LINE
  5
89
330
7E
100
AcDbEntity
  8
중심선
100
AcDbLine
 10
10.72767329541681
 20
16.24717430164393
 30
0.0
 11
6.196535287059397
 21
10.84717430164391
 31
0.0
  0
LINE
  5
8A
330
7E
100
AcDbEntity
  8
중심선
100
AcDbLine
 10
7.28139805157953
 20
16.24717430164393
 30
0.0
 11
2.750260043222114
 21
10.84717430164391
 31
0.0
  0
LINE
  5
8B
330
7E
100
AcDbEntity
  8
중심선
100
AcDbLine
 10
5.714909304380834
 20
16.24717430164393
 30
0.0
 11
3.58671253028996
 21
13.71088815037384
 31
0.0
  0
LINE
  5
8C
330
7E
100
AcDbEntity
  8
중심선
100
AcDbLine
 10
2.268634060543552
 20
16.24717430164393
 30
0.0
 11
0.1404042013395286
 21
13.71084872107135
 31
0.0
  0
LINE
  5
8D
330
7E
100
AcDbEntity
  8
중심선
100
AcDbLine
 10
7.28139805157953
 20
16.24717430164393
 30
0.0
 11
10.72767329541681
 21
16.24717430164393
 31
0.0
  0
LINE
  5
8E
330
7E
100
AcDbEntity
  8
중심선
100
AcDbLine
 10
12.29416204261559
 20
16.24717430164393
 30
0.0
 11
15.74043728645272
 21
16.24717430164393
 31
0.0
  0
LINE
  5
8F
330
7E
100
AcDbEntity
  8
중심선
100
AcDbLine
 10
19.22036997980202
 20
11.08717430171403
 30
0.0
 11
23.66174974927406
 21
11.08717430171406
 31
0.0
  0
LINE
  5
90
330
7E
100
AcDbEntity
  8
중심선
100
AcDbLine
 10
19.22039502424796
 20
13.00717430171391
 30
0.0
 11
19.22036997980202
 21
11.08717430171403
 31
0.0
  0
LINE
  5
91
330
7E
100
AcDbEntity
  8
중심선
100
AcDbLine
 10
19.22039502424796
 20
13.00717430171391
 30
0.0
 11
26.96566020931264
 21
13.00717430171391
 31
0.0
  0
LINE
  5
92
330
7E
100
AcDbEntity
  8
중심선
100
AcDbLine
 10
22.22332737316547
 20
13.45928029700563
 30
0.0
 11
24.52862924686651
 21
15.39360700705356
 31
0.0
  0
ATTDEF
  5
94
330
7E
100
AcDbEntity
  8
FORMAT
 62
     2
100
AcDbText
 10
-11.05102035218446
 20
2.075366912832191
 30
0.0
 40
4.233333333333333
  1
GMG22064[ 6 FLUTE ]
 41
0.75
  7
SLDTEXTSTYLE0
 11
-11.05102035218446
 21
-0.0412997538344756
 31
0.0
100
AcDbAttributeDefinition
  3

  2
AUTOATTR0
 70
     0
 74
     1
  0
ENDBLK
  5
80
330
7E
100
AcDbEntity
  8
0
100
AcDbBlockEnd
  0
BLOCK
  5
F7
330
F6
100
AcDbEntity
  8
0
100
AcDbBlockBegin
  2
_D
 70
     0
 10
0.0
 20
0.0
 30
0.0
  3
_D
  1
_D
  0
LINE
  5
F9
330
F6
100
AcDbEntity
  8
치수문자_일반주서
 62
     0
370
    -2
100
AcDbLine
 10
-52.54999999999998
 20
12.00212197475588
 30
0.0
 11
-52.54999999999998
 21
46.63099845446576
 31
0.0
  0
LINE
  5
FA
330
F6
100
AcDbEntity
  8
치수문자_일반주서
 62
     0
370
    -2
100
AcDbLine
 10
49.05000000000001
 20
12.08046718084942
 30
0.0
 11
49.05000000000001
 21
46.63099845446576
 31
0.0
  0
LINE
  5
FB
330
F6
100
AcDbEntity
  8
치수문자_일반주서
 62
     0
370
    -2
100
AcDbLine
 10
-49.24799999999998
 20
46.63099845446576
 30
0.0
 11
45.74800000000001
 21
46.63099845446576
 31
0.0
  0
SOLID
  5
FC
330
F6
100
AcDbEntity
  8
치수문자_일반주서
 62
     0
100
AcDbTrace
 10
-49.24799999999998
 20
47.1813317877991
 30
0.0
 11
-49.24799999999998
 21
46.08066512113243
 31
0.0
 12
-52.54999999999998
 22
46.63099845446576
 32
0.0
 13
-52.54999999999998
 23
46.63099845446576
 33
0.0
  0
SOLID
  5
FD
330
F6
100
AcDbEntity
  8
치수문자_일반주서
 62
     0
100
AcDbTrace
 10
45.74800000000001
 20
46.08066512113243
 30
0.0
 11
45.74800000000001
 21
47.1813317877991
 31
0.0
 12
49.05000000000001
 22
46.63099845446576
 32
0.0
 13
49.05000000000001
 23
46.63099845446576
 33
0.0
  0
MTEXT
  5
FE
330
F6
100
AcDbEntity
  8
치수문자_일반주서
 62
     0
100
AcDbMText
 10
1.257940153509092
 20
51.00599845446576
 30
0.0
 40
3.5
 41
0.0
 71
     2
 72
     1
  1
\A1;101.60 [4]
  7
SLDTEXTSTYLE0
 73
     1
 44
1.0
  0
POINT
  5
FF
330
F6
100
AcDbEntity
  8
Defpoints
 62
     0
100
AcDbPoint
 10
-52.54999999999998
 20
11.93962197475588
 30
0.0
  0
POINT
  5
100
330
F6
100
AcDbEntity
  8
Defpoints
 62
     0
100
AcDbPoint
 10
49.05000000000001
 20
12.01796718084942
 30
0.0
  0
POINT
  5
101
330
F6
100
AcDbEntity
  8
Defpoints
 62
     0
100
AcDbPoint
 10
49.05000000000001
 20
46.63099845446576
 30
0.0
  0
ENDBLK
  5
F8
330
F6
100
AcDbEntity
  8
0
100
AcDbBlockEnd
  0
BLOCK
  5
10B
330
10A
100
AcDbEntity
  8
0
100
AcDbBlockBegin
  2
_D_1
 70
     0
 10
0.0
 20
0.0
 30
0.0
  3
_D_1
  1
_D_1
  0
LINE
  5
10D
330
10A
100
AcDbEntity
  8
치수문자_일반주서
 62
     0
370
    -2
100
AcDbLine
 10
47.95887552142949
 20
12.43962197475588
 30
0.0
 11
62.99533187637051
 21
12.43962197475594
 31
0.0
  0
LINE
  5
10E
330
10A
100
AcDbEntity
  8
치수문자_일반주서
 62
     0
370
    -2
100
AcDbLine
 10
47.95887552142958
 20
-12.96037199912063
 30
0.0
 11
62.99533187637059
 21
-12.96037199912058
 31
0.0
  0
LINE
  5
10F
330
10A
100
AcDbEntity
  8
치수문자_일반주서
 62
     0
370
    -2
100
AcDbLine
 10
62.99533187637052
 20
9.137621974755938
 30
0.0
 11
62.99533187637058
 21
-9.658371999120579
 31
0.0
  0
SOLID
  5
110
330
10A
100
AcDbEntity
  8
치수문자_일반주서
 62
     0
100
AcDbTrace
 10
63.54566520970386
 20
9.13762197475594
 30
0.0
 11
62.44499854303719
 21
9.137621974755936
 31
0.0
 12
62.99533187637051
 22
12.43962197475594
 32
0.0
 13
62.99533187637051
 23
12.43962197475594
 33
0.0
  0
SOLID
  5
111
330
10A
100
AcDbEntity
  8
치수문자_일반주서
 62
     0
100
AcDbTrace
 10
62.44499854303724
 20
-9.65837199912058
 30
0.0
 11
63.54566520970391
 21
-9.658371999120577
 31
0.0
 12
62.99533187637059
 22
-12.96037199912058
 32
0.0
 13
62.99533187637059
 23
-12.96037199912058
 33
0.0
  0
MTEXT
  5
112
330
10A
100
AcDbEntity
  8
치수문자_일반주서
 62
     0
100
AcDbMText
 10
58.62033187637055
 20
-0.2603780252441316
 30
0.0
 40
3.5
 41
0.0
 71
     2
 72
     1
  1
\A1;%%c25.40 [1]
  7
SLDTEXTSTYLE0
 11
-3.356895611034626E-15
 21
1.0
 31
0.0
 73
     1
 44
1.0
  0
POINT
  5
113
330
10A
100
AcDbEntity
  8
Defpoints
 62
     0
100
AcDbPoint
 10
47.89637552142949
 20
12.43962197475588
 30
0.0
  0
POINT
  5
114
330
10A
100
AcDbEntity
  8
Defpoints
 62
     0
100
AcDbPoint
 10
47.89637552142958
 20
-12.96037199912063
 30
0.0
  0
POINT
  5
115
330
10A
100
AcDbEntity
  8
Defpoints
 62
     0
100
AcDbPoint
 10
62.99533187637059
 20
-12.96037199912058
 30
0.0
  0
ENDBLK
  5
10C
330
10A
100
AcDbEntity
  8
0
100
AcDbBlockEnd
  0
BLOCK
  5
11F
330
11E
100
AcDbEntity
  8
0
100
AcDbBlockBegin
  2
_D_2
 70
     0
 10
0.0
 20
0.0
 30
0.0
  3
_D_2
  1
_D_2
  0
LINE
  5
121
330
11E
100
AcDbEntity
  8
치수문자_일반주서
 62
     0
370
    -2
100
AcDbLine
 10
49.05000000000001
 20
11.74012197475588
 30
0.0
 11
49.05000000000001
 21
31.87497242533448
 31
0.0
  0
LINE
  5
122
330
11E
100
AcDbEntity
  8
치수문자_일반주서
 62
     0
370
    -2
100
AcDbLine
 10
10.95
 20
-12.55650128490718
 30
0.0
 11
10.95
 21
31.87497242533448
 31
0.0
  0
LINE
  5
123
330
11E
100
AcDbEntity
  8
치수문자_일반주서
 62
     0
370
    -2
100
AcDbLine
 10
45.74800000000001
 20
31.87497242533448
 30
0.0
 11
14.252
 21
31.87497242533448
 31
0.0
  0
SOLID
  5
124
330
11E
100
AcDbEntity
  8
치수문자_일반주서
 62
     0
100
AcDbTrace
 10
45.74800000000001
 20
31.32463909200115
 30
0.0
 11
45.74800000000001
 21
32.42530575866782
 31
0.0
 12
49.05000000000001
 22
31.87497242533448
 32
0.0
 13
49.05000000000001
 23
31.87497242533448
 33
0.0
  0
SOLID
  5
125
330
11E
100
AcDbEntity
  8
치수문자_일반주서
 62
     0
100
AcDbTrace
 10
14.252
 20
32.42530575866782
 30
0.0
 11
14.252
 21
31.32463909200115
 31
0.0
 12
10.95
 22
31.87497242533448
 32
0.0
 13
10.95
 23
31.87497242533448
 33
0.0
  0
MTEXT
  5
126
330
11E
100
AcDbEntity
  8
치수문자_일반주서
 62
     0
100
AcDbMText
 10
29.59763753669839
 20
36.24997242533448
 30
0.0
 40
3.5
 41
0.0
 71
     2
 72
     1
  1
\A1;38.10 [1 1/2]
  7
SLDTEXTSTYLE0
 73
     1
 44
1.0
  0
POINT
  5
127
330
11E
100
AcDbEntity
  8
Defpoints
 62
     0
100
AcDbPoint
 10
49.05000000000001
 20
11.67762197475588
 30
0.0
  0
POINT
  5
128
330
11E
100
AcDbEntity
  8
Defpoints
 62
     0
100
AcDbPoint
 10
10.95
 20
-12.61900128490718
 30
0.0
  0
POINT
  5
129
330
11E
100
AcDbEntity
  8
Defpoints
 62
     0
100
AcDbPoint
 10
10.95
 20
31.87497242533448
 30
0.0
  0
ENDBLK
  5
120
330
11E
100
AcDbEntity
  8
0
100
AcDbBlockEnd
  0
BLOCK
  5
132
330
131
100
AcDbEntity
  8
0
100
AcDbBlockBegin
  2
_D_3
 70
     0
 10
0.0
 20
0.0
 30
0.0
  3
_D_3
  1
_D_3
  0
LINE
  5
134
330
131
100
AcDbEntity
  8
치수문자_일반주서
 62
     0
370
    -2
100
AcDbLine
 10
-52.11249999999998
 20
12.43962197475588
 30
0.0
 11
-65.55000000000004
 21
12.43962197475584
 31
0.0
  0
LINE
  5
135
330
131
100
AcDbEntity
  8
치수문자_일반주서
 62
     0
370
    -2
100
AcDbLine
 10
-52.11249999999998
 20
-12.96037802524412
 30
0.0
 11
-65.54999999999995
 21
-12.96037802524416
 31
0.0
  0
LINE
  5
136
330
131
100
AcDbEntity
  8
치수문자_일반주서
 62
     0
370
    -2
100
AcDbLine
 10
-65.55000000000003
 20
9.137621974755836
 30
0.0
 11
-65.54999999999997
 21
-9.658378025244163
 31
0.0
  0
SOLID
  5
137
330
131
100
AcDbEntity
  8
치수문자_일반주서
 62
     0
100
AcDbTrace
 10
-64.9996666666667
 20
9.137621974755838
 30
0.0
 11
-66.10033333333335
 21
9.137621974755834
 31
0.0
 12
-65.55000000000004
 22
12.43962197475584
 32
0.0
 13
-65.55000000000004
 23
12.43962197475584
 33
0.0
  0
SOLID
  5
138
330
131
100
AcDbEntity
  8
치수문자_일반주서
 62
     0
100
AcDbTrace
 10
-66.1003333333333
 20
-9.658378025244165
 30
0.0
 11
-64.99966666666664
 21
-9.658378025244161
 31
0.0
 12
-65.54999999999995
 22
-12.96037802524416
 32
0.0
 13
-65.54999999999995
 23
-12.96037802524416
 33
0.0
  0
MTEXT
  5
139
330
131
100
AcDbEntity
  8
치수문자_일반주서
 62
     0
100
AcDbMText
 10
-69.925
 20
-0.2603780252442312
 30
0.0
 40
3.5
 41
0.0
 71
     2
 72
     1
  1
\A1;%%c25.40 [1]
  7
SLDTEXTSTYLE0
 11
-3.356894814614646E-15
 21
1.0
 31
0.0
 73
     1
 44
1.0
  0
POINT
  5
13A
330
131
100
AcDbEntity
  8
Defpoints
 62
     0
100
AcDbPoint
 10
-52.04999999999998
 20
12.43962197475588
 30
0.0
  0
POINT
  5
13B
330
131
100
AcDbEntity
  8
Defpoints
 62
     0
100
AcDbPoint
 10
-52.04999999999998
 20
-12.96037802524412
 30
0.0
  0
POINT
  5
13C
330
131
100
AcDbEntity
  8
Defpoints
 62
     0
100
AcDbPoint
 10
-65.55
 20
-12.96037802524417
 30
0.0
  0
ENDBLK
  5
133
330
131
100
AcDbEntity
  8
0
100
AcDbBlockEnd
  0
BLOCK
  5
145
330
144
100
AcDbEntity
  8
0
100
AcDbBlockBegin
  2
SW_DOWELSYMBOL_0
 70
     0
 10
0.0
 20
0.0
 30
0.0
  3
SW_DOWELSYMBOL_0
  1
SW_DOWELSYMBOL_0
  0
CIRCLE
  5
147
330
144
100
AcDbEntity
  8
외형선
 62
     0
100
AcDbCircle
 10
0.0
 20
0.0
 30
0.0
 40
3.000000000000001
  0
HATCH
  5
148
330
144
100
AcDbEntity
  8
0
  6
Continuous
 62
     0
370
    30
100
AcDbHatch
 10
0.0
 20
0.0
 30
0.0
210
0.0
220
0.0
230
1.0
  2
SOLID
 70
     1
 71
     0
 91
        1
 92
        0
 93
        3
 72
     2
 10
0.0000000000000139
 20
-0.0000000000000035
 40
3.000000000000001
 50
0.0
 51
90.0
 73
     1
 72
     1
 10
0.0000000000000139
 20
2.999999999999998
 11
0.0000000000000139
 21
-0.0000000000000036
 72
     1
 10
0.0000000000000139
 20
-0.0000000000000035
 11
3.000000000000015
 21
-0.0000000000000035
 97
        0
 75
     0
 76
     1
 98
        1
 10
0.0
 20
0.0
  0
HATCH
  5
149
330
144
100
AcDbEntity
  8
0
  6
Continuous
 62
     0
370
    30
100
AcDbHatch
 10
0.0
 20
0.0
 30
0.0
210
0.0
220
0.0
230
1.0
  2
SOLID
 70
     1
 71
     0
 91
        1
 92
        0
 93
        3
 72
     2
 10
0.0000000000000139
 20
-0.0000000000000035
 40
3.000000000000001
 50
180.0
 51
270.0000000000007
 73
     1
 72
     1
 10
0.0000000000000139
 20
-3.000000000000005
 11
0.0000000000000139
 21
-0.0000000000000036
 72
     1
 10
0.0000000000000139
 20
-0.0000000000000035
 11
-2.999999999999988
 21
-0.0000000000000035
 97
        0
 75
     0
 76
     1
 98
        1
 10
0.0
 20
0.0
  0
ENDBLK
  5
146
330
144
100
AcDbEntity
  8
0
100
AcDbBlockEnd
  0
BLOCK
  5
177
330
176
100
AcDbEntity
  8
0
100
AcDbBlockBegin
  2
*D7
 70
     1
 10
0.0
 20
0.0
 30
0.0
  3
*D7
  1
*D7
  0
LINE
  5
179
330
176
100
AcDbEntity
  8
치수문자_일반주서
 62
     0
370
    -2
100
AcDbLine
 10
50.63175187219156
 20
14.99770076321838
 30
0.0
 11
70.84529875174752
 21
43.63152033715385
 31
0.0
  0
MTEXT
  5
17A
330
176
100
AcDbEntity
  8
치수문자_일반주서
 62
     0
100
AcDbMText
 10
61.13148227974258
 20
34.42293632286558
 30
0.0
 40
3.5
 41
0.0
 71
     5
 72
     1
  1
\A1;R.76 [R0.03]
  7
SLDTEXTSTYLE0
 11
0.5767105984723289
 21
0.8169485207830959
 31
0.0
 73
     1
 44
1.0
  0
SOLID
  5
17B
330
176
100
AcDbEntity
  8
치수문자_일반주서
 62
     0
100
AcDbTrace
 10
50.18215786958726
 20
15.31508382924432
 30
0.0
 11
51.08134587479586
 21
14.68031769719245
 31
0.0
 12
48.72745347603593
 22
12.3001367475926
 32
0.0
 13
48.72745347603593
 23
12.3001367475926
 33
0.0
  0
LINE
  5
17C
330
176
100
AcDbEntity
  8
치수문자_일반주서
 62
     0
100
AcDbLine
 10
48.19800000000001
 20
11.67762197475588
 30
0.0
 11
48.37800000000001
 21
11.67762197475588
 31
0.0
  0
LINE
  5
17D
330
176
100
AcDbEntity
  8
치수문자_일반주서
 62
     0
100
AcDbLine
 10
48.28800000000001
 20
11.58762197475588
 30
0.0
 11
48.28800000000001
 21
11.76762197475588
 31
0.0
  0
POINT
  5
17E
330
176
100
AcDbEntity
  8
Defpoints
 62
     0
100
AcDbPoint
 10
48.72745347603593
 20
12.3001367475926
 30
0.0
  0
POINT
  5
17F
330
176
100
AcDbEntity
  8
Defpoints
 62
     0
100
AcDbPoint
 10
48.28800000000001
 20
11.67762197475588
 30
0.0
  0
ENDBLK
  5
178
330
176
100
AcDbEntity
  8
0
100
AcDbBlockEnd
  0
ENDSEC
  0
SECTION
  2
ENTITIES
  0
LINE
  5
95
330
1F
100
AcDbEntity
  8
0
  6
Continuous
 62
     4
370
    15
100
AcDbLine
 10
8.225612586799288
 20
12.43962197475588
 30
0.0
 11
-15.11992499999997
 21
12.43962197475588
 31
0.0
  0
LINE
  5
96
330
1F
100
AcDbEntity
  8
0
  6
Continuous
 62
     4
370
    15
100
AcDbLine
 10
-52.04999999999998
 20
-12.96037802524412
 30
0.0
 11
8.22565458152186
 21
-12.96037802524412
 31
0.0
  0
LINE
  5
98
330
1F
100
AcDbEntity
  8
0
  6
Continuous
 62
     4
370
    15
100
AcDbLine
 10
-52.54999999999998
 20
-12.46037802524411
 30
0.0
 11
-52.04999999999998
 21
-12.96037802524412
 31
0.0
  0
ARC
  5
99
330
1F
100
AcDbEntity
  8
0
  6
Continuous
 62
     4
370
    15
100
AcDbCircle
 10
10.43999565963185
 20
7.32421700448856
 30
0.0
 40
2.539999791740225
100
AcDbArc
 50
224.7234467173033
 51
228.3164325861687
  0
LINE
  5
9A
330
1F
100
AcDbEntity
  8
0
  6
Continuous
 62
     1
370
    15
100
AcDbLine
 10
43.55352084175895
 20
-12.96037802524412
 30
0.0
 11
48.29103047453007
 21
-12.96037199912063
 31
0.0
  0
LINE
  5
9B
330
1F
100
AcDbEntity
  8
0
  6
Continuous
 62
     1
370
    15
100
AcDbLine
 10
30.25430614848566
 20
-12.96037802524412
 30
0.0
 11
34.59723426319258
 21
-12.96037802524412
 31
0.0
  0
LINE
  5
9C
330
1F
100
AcDbEntity
  8
0
  6
Continuous
 62
     1
370
    15
100
AcDbLine
 10
21.29754455409493
 20
12.43962197475588
 30
0.0
 11
16.95555682525656
 21
12.43962197475588
 31
0.0
  0
LINE
  5
9D
330
1F
100
AcDbEntity
  8
0
  6
Continuous
 62
     1
370
    15
100
AcDbLine
 10
34.5972342631926
 20
12.43962197475588
 30
0.0
 11
30.25430614848575
 21
12.43962197475588
 31
0.0
  0
LINE
  5
9E
330
1F
100
AcDbEntity
  8
0
  6
Continuous
 62
     1
370
    15
100
AcDbLine
 10
16.95555682525648
 20
-12.96037802524412
 30
0.0
 11
21.29754455409485
 21
-12.96037802524412
 31
0.0
  0
LINE
  5
9F
330
1F
100
AcDbEntity
  8
0
  6
Continuous
 62
     1
370
    15
100
AcDbLine
 10
48.28800000000001
 20
12.43962197475588
 30
0.0
 11
43.55352084175894
 21
12.43962197475588
 31
0.0
  0
SPLINE
  5
A0
330
1F
100
AcDbEntity
  8
0
  6
Continuous
 62
     4
370
    15
100
AcDbSpline
210
0.0
220
0.0
230
1.0
 70
     8
 71
     3
 72
    12
 73
     8
 74
     0
 42
0.000000001
 43
0.00000001
 40
0.0
 40
0.0
 40
0.0
 40
0.0
 40
0.2447870563476883
 40
0.4915377391721544
 40
0.7442266908821029
 40
0.9988375325931729
 40
1.0
 40
1.0
 40
1.0
 40
1.0
 10
8.742386543611671
 20
12.41785610998936
 30
0.0
 10
8.69127953313867
 20
12.42081638799071
 30
0.0
 10
8.588655543298024
 20
12.42676069067492
 30
0.0
 10
8.452007860817265
 20
12.43379725440095
 30
0.0
 10
8.330908830377307
 20
12.43819286784171
 30
0.0
 10
8.255896872615335
 20
12.44019095368396
 30
0.0
 10
8.225749603510922
 20
12.43961675058099
 30
0.0
 10
8.225612586799288
 20
12.43961414087791
 30
0.0
  0
SPLINE
  5
A1
330
1F
100
AcDbEntity
  8
0
  6
Continuous
 62
     4
370
    15
100
AcDbSpline
210
0.0
220
0.0
230
1.0
 70
     8
 71
     3
 72
    10
 73
     6
 74
     0
 42
0.000000001
 43
0.00000001
 40
0.0
 40
0.0
 40
0.0
 40
0.0
 40
0.5000000000000001
 40
0.5000000000000001
 40
1.0
 40
1.0
 40
1.0
 40
1.0
 10
10.95000000000001
 20
12.09824523441896
 30
0.0
 10
10.58168959778074
 20
12.18301019836716
 30
0.0
 10
10.21233664025986
 20
12.25225496000594
 30
0.0
 10
9.475727764597881
 20
12.35892053439471
 30
0.0
 10
9.11001748052508
 20
12.39632966541914
 30
0.0
 10
8.74238654360413
 20
12.4178561099898
 30
0.0
  0
SPLINE
  5
A2
330
1F
100
AcDbEntity
  8
0
  6
Continuous
 62
     4
370
    15
100
AcDbSpline
210
0.0
220
0.0
230
1.0
 70
     8
 71
     3
 72
    24
 73
    20
 74
     0
 42
0.000000001
 43
0.00000001
 40
0.0
 40
0.0
 40
0.0
 40
0.0
 40
0.125
 40
0.125
 40
0.2500000000000001
 40
0.2500000000000001
 40
0.3750000000000001
 40
0.3750000000000001
 40
0.5000000000000001
 40
0.5000000000000001
 40
0.6250000000000001
 40
0.6250000000000001
 40
0.7500000000000002
 40
0.7500000000000002
 40
0.8125000000000002
 40
0.8125000000000002
 40
0.8750000000000002
 40
0.8750000000000002
 40
1.0
 40
1.0
 40
1.0
 40
1.0
 10
7.899995982200688
 20
7.764420366061729
 30
0.0
 10
7.899995982200688
 20
7.93833994083384
 30
0.0
 10
7.900064402858556
 20
8.10821011891002
 30
0.0
 10
7.925604334793333
 20
8.438261528621211
 30
0.0
 10
7.950634087232525
 20
8.598477378721993
 30
0.0
 10
8.042067794581833
 20
8.908469159862229
 30
0.0
 10
8.108844194614708
 20
9.057566830710376
 30
0.0
 10
8.289432413984542
 20
9.331192192387888
 30
0.0
 10
8.405830299251194
 20
9.459094933591151
 30
0.0
 10
8.68273404391661
 20
9.682157753316947
 30
0.0
 10
8.84250419674819
 20
9.778228862128357
 30
0.0
 10
9.20888448975934
 20
9.94061601974345
 30
0.0
 10
9.406195878463395
 20
10.00290874449085
 30
0.0
 10
9.722929415119713
 20
10.07090440972489
 30
0.0
 10
9.832744649689953
 20
10.0892936901855
 30
0.0
 10
10.05286314393789
 20
10.11642898131097
 30
0.0
 10
10.16381044035385
 20
10.1253734700266
 30
0.0
 10
10.49928593090481
 20
10.13870732156228
 30
0.0
 10
10.72802130111258
 20
10.12937199536438
 30
0.0
 10
10.95000000000001
 20
10.10126039284196
 30
0.0
  0
SPLINE
  5
A3
330
1F
100
AcDbEntity
  8
0
  6
Continuous
 62
     4
370
    15
100
AcDbSpline
210
0.0
220
0.0
230
1.0
 70
     8
 71
     3
 72
    16
 73
    12
 74
     0
 42
0.000000001
 43
0.00000001
 40
0.0
 40
0.0
 40
0.0
 40
0.0
 40
0.2499999999999999
 40
0.2499999999999999
 40
0.3750000000000002
 40
0.3750000000000002
 40
0.5000000000000006
 40
0.5000000000000006
 40
0.7500000000000002
 40
0.7500000000000002
 40
1.0
 40
1.0
 40
1.0
 40
1.0
 10
8.742386543619224
 20
5.435089751874193
 30
0.0
 10
8.564516219371304
 20
5.5941604087568
 30
0.0
 10
8.418193243884499
 20
5.771077020426807
 30
0.0
 10
8.240193631979295
 20
6.057574266745886
 30
0.0
 10
8.187803469153973
 20
6.157036306203248
 30
0.0
 10
8.098807320299983
 20
6.356833317502456
 30
0.0
 10
8.061748333426223
 20
6.45780642034396
 30
0.0
 10
7.969969668507653
 20
6.762923794756662
 30
0.0
 10
7.935168430069791
 20
6.969793464063395
 30
0.0
 10
7.900198436362225
 20
7.372858119981715
 30
0.0
 10
7.899995982200688
 20
7.570834109075152
 30
0.0
 10
7.899995982200688
 20
7.764420366061731
 30
0.0
  0
SPLINE
  5
A4
330
1F
100
AcDbEntity
  8
0
  6
Continuous
 62
     4
370
    15
100
AcDbSpline
210
0.0
220
0.0
230
1.0
 70
     8
 71
     3
 72
    10
 73
     6
 74
     0
 42
0.000000001
 43
0.00000001
 40
0.0
 40
0.0
 40
0.0
 40
0.0
 40
0.5
 40
0.5
 40
1.0
 40
1.0
 40
1.0
 40
1.0
 10
10.95000000000001
 20
3.385986044078982
 30
0.0
 10
10.58168959778074
 20
3.73855405991121
 30
0.0
 10
10.21233664025985
 20
4.08685108711078
 30
0.0
 10
9.475727764597872
 20
4.770959598442284
 30
0.0
 10
9.110017480525073
 20
5.106314871234558
 30
0.0
 10
8.742386543604121
 20
5.435089751887696
 30
0.0
  0
SPLINE
  5
A5
330
1F
100
AcDbEntity
  8
0
  6
Continuous
 62
     4
370
    15
100
AcDbSpline
210
0.0
220
0.0
230
1.0
 70
     8
 71
     3
 72
    24
 73
    20
 74
     0
 42
0.000000001
 43
0.00000001
 40
0.0
 40
0.0
 40
0.0
 40
0.0
 40
0.1250000000000002
 40
0.1250000000000002
 40
0.2500000000000003
 40
0.2500000000000003
 40
0.3750000000000002
 40
0.3750000000000002
 40
0.5000000000000002
 40
0.5000000000000002
 40
0.6250000000000001
 40
0.6250000000000001
 40
0.75
 40
0.75
 40
0.8125000000000001
 40
0.8125000000000001
 40
0.8750000000000001
 40
0.8750000000000001
 40
1.0
 40
1.0
 40
1.0
 40
1.0
 10
7.89999598220069
 20
-4.772617125974984
 30
0.0
 10
7.89999598220069
 20
-4.562865953606654
 30
0.0
 10
7.900064402858561
 20
-4.351335462131215
 30
0.0
 10
7.925604334793338
 20
-3.926979319243897
 30
0.0
 10
7.950634087232529
 20
-3.714117101331647
 30
0.0
 10
8.042067794581836
 20
-3.288640471421694
 30
0.0
 10
8.108844194614708
 20
-3.076759786526088
 30
0.0
 10
8.28943241398454
 20
-2.67571821550647
 30
0.0
 10
8.40583029925119
 20
-2.481578095913413
 30
0.0
 10
8.682734043916607
 20
-2.133835484254002
 30
0.0
 10
8.842504196748193
 20
-1.979087851091531
 30
0.0
 10
9.208884489759342
 20
-1.712425117093191
 30
0.0
 10
9.406195878463398
 20
-1.607216416582273
 30
0.0
 10
9.722929415119715
 20
-1.491382947724268
 30
0.0
 10
9.832744649689955
 20
-1.459797788448129
 30
0.0
 10
10.05286314393789
 20
-1.413056483684144
 30
0.0
 10
10.16381044035385
 20
-1.397563036772963
 30
0.0
 10
10.49928593090481
 20
-1.374467205676643
 30
0.0
 10
10.72802130111258
 20
-1.390777206115415
 30
0.0
 10
10.95000000000001
 20
-1.439184353104458
 30
0.0
  0
SPLINE
  5
A6
330
1F
100
AcDbEntity
  8
0
  6
Continuous
 62
     4
370
    15
100
AcDbSpline
210
0.0
220
0.0
230
1.0
 70
     8
 71
     3
 72
    16
 73
    12
 74
     0
 42
0.000000001
 43
0.00000001
 40
0.0
 40
0.0
 40
0.0
 40
0.0
 40
0.249999999999999
 40
0.249999999999999
 40
0.3749999999999989
 40
0.3749999999999989
 40
0.4999999999999989
 40
0.4999999999999989
 40
0.7499999999999994
 40
0.7499999999999994
 40
1.0
 40
1.0
 40
1.0
 40
1.0
 10
8.742386543619226
 20
-7.243144383358933
 30
0.0
 10
8.564516219370676
 20
-7.094488833832742
 30
0.0
 10
8.418193243889291
 20
-6.925542277317667
 30
0.0
 10
8.240193631982565
 20
-6.642843588213053
 30
0.0
 10
8.187803469156755
 20
-6.543259531246112
 30
0.0
 10
8.098807320301923
 20
-6.339905612053161
 30
0.0
 10
8.061748333427813
 20
-6.235518502182118
 30
0.0
 10
7.969969668508367
 20
-5.914753013330467
 30
0.0
 10
7.935168430070159
 20
-5.690030492594606
 30
0.0
 10
7.900198436362235
 20
-5.236603839035117
 30
0.0
 10
7.899995982200696
 20
-5.006086788091397
 30
0.0
 10
7.899995982200696
 20
-4.772617125974984
 30
0.0
  0
SPLINE
  5
A7
330
1F
100
AcDbEntity
  8
0
  6
Continuous
 62
     4
370
    15
100
AcDbSpline
210
0.0
220
0.0
230
1.0
 70
     8
 71
     3
 72
    10
 73
     6
 74
     0
 42
0.000000001
 43
0.00000001
 40
0.0
 40
0.0
 40
0.0
 40
0.0
 40
0.5
 40
0.5
 40
1.0
 40
1.0
 40
1.0
 40
1.0
 10
10.95000000000001
 20
-8.972637215584196
 30
0.0
 10
10.581689597782
 20
-8.704834163701083
 30
0.0
 10
10.21233664026239
 20
-8.425781898141286
 30
0.0
 10
9.475727764602912
 20
-7.848338961200664
 30
0.0
 10
9.110017480531344
 20
-7.550392819433932
 30
0.0
 10
8.742386543611673
 20
-7.243144383352631
 30
0.0
  0
SPLINE
  5
A8
330
1F
100
AcDbEntity
  8
0
  6
Continuous
 62
     4
370
    15
100
AcDbSpline
210
0.0
220
0.0
230
1.0
 70
     8
 71
     3
 72
    24
 73
    20
 74
     0
 42
0.000000001
 43
0.00000001
 40
0.0
 40
0.0
 40
0.0
 40
0.0
 40
0.125
 40
0.125
 40
0.25
 40
0.25
 40
0.375
 40
0.375
 40
0.5
 40
0.5
 40
0.625
 40
0.625
 40
0.75
 40
0.75
 40
0.8125
 40
0.8125
 40
0.875
 40
0.875
 40
1.0
 40
1.0
 40
1.0
 40
1.0
 10
7.89999598220069
 20
-12.79741551728074
 30
0.0
 10
7.89999598220069
 20
-12.76158391968453
 30
0.0
 10
7.900064402858554
 20
-12.71992360628527
 30
0.0
 10
7.925604334793332
 20
-12.62561887310914
 30
0.0
 10
7.950634087232529
 20
-12.57297250529768
 30
0.0
 10
8.042067794581836
 20
-12.45748765652796
 30
0.0
 10
8.108844194614713
 20
-12.39470464248051
 30
0.0
 10
8.289432413984548
 20
-12.26728843313841
 30
0.0
 10
8.405830299251194
 20
-12.20105105474862
 30
0.0
 10
8.68273404391661
 20
-12.07637126281501
 30
0.0
 10
8.842504196748195
 20
-12.01769473846394
 30
0.0
 10
9.208884489759345
 20
-11.9134191620807
 30
0.0
 10
9.406195878463397
 20
-11.87050318631718
 30
0.0
 10
9.722929415119715
 20
-11.82266538269321
 30
0.0
 10
9.832744649689957
 20
-11.80946950387769
 30
0.0
 10
10.05286314393789
 20
-11.78986349023918
 30
0.0
 10
10.16381044035385
 20
-11.78331453204363
 30
0.0
 10
10.49928593090481
 20
-11.77355255248298
 30
0.0
 10
10.72802130111258
 20
-11.78052722672385
 30
0.0
 10
10.95000000000001
 20
-11.80082277119047
 30
0.0
  0
SPLINE
  5
A9
330
1F
100
AcDbEntity
  8
0
  6
Continuous
 62
     4
370
    15
100
AcDbSpline
210
0.0
220
0.0
230
1.0
 70
     8
 71
     3
 72
    16
 73
    12
 74
     0
 42
0.000000001
 43
0.00000001
 40
0.0
 40
0.0
 40
0.0
 40
0.0
 40
0.2499999999999998
 40
0.2499999999999998
 40
0.3749999999999998
 40
0.3749999999999998
 40
0.4999999999999999
 40
0.4999999999999999
 40
0.7499999999999999
 40
0.7499999999999999
 40
1.0
 40
1.0
 40
1.0
 40
1.0
 10
8.742386543619212
 20
-12.93861216047713
 30
0.0
 10
8.564516219371294
 20
-12.94902726783408
 30
0.0
 10
8.418193243884495
 20
-12.95699732298224
 30
0.0
 10
8.24019363197929
 20
-12.96079588019708
 30
0.0
 10
8.18780346915397
 20
-12.96067386268771
 30
0.0
 10
8.09880732029998
 20
-12.95711695479451
 30
0.0
 10
8.061748333426221
 20
-12.95370294776525
 30
0.0
 10
7.969969668507653
 20
-12.93805483332722
 30
0.0
 10
7.935168430069791
 20
-12.92020198189884
 30
0.0
 10
7.900198436362225
 20
-12.86983998425923
 30
0.0
 10
7.899995982200694
 20
-12.83729892240975
 30
0.0
 10
7.899995982200694
 20
-12.79741551728075
 30
0.0
  0
SPLINE
  5
AA
330
1F
100
AcDbEntity
  8
0
  6
Continuous
 62
     4
370
    15
100
AcDbSpline
210
0.0
220
0.0
230
1.0
 70
     8
 71
     3
 72
    10
 73
     6
 74
     0
 42
0.000000001
 43
0.00000001
 40
0.0
 40
0.0
 40
0.0
 40
0.0
 40
0.5000000000000001
 40
0.5000000000000001
 40
1.0
 40
1.0
 40
1.0
 40
1.0
 10
10.95000000000001
 20
-12.61900128490718
 30
0.0
 10
10.58168959778074
 20
-12.70376624885537
 30
0.0
 10
10.21233664025985
 20
-12.77301101049415
 30
0.0
 10
9.475727764597872
 20
-12.87967658488293
 30
0.0
 10
9.110017480525075
 20
-12.91708571590737
 30
0.0
 10
8.742386543604123
 20
-12.93861216047802
 30
0.0
  0
LINE
  5
AB
330
1F
100
AcDbEntity
  8
0
  6
Continuous
 62
     4
370
    15
100
AcDbLine
 10
-52.04999999999998
 20
10.53462197475589
 30
0.0
 11
-52.04999999999998
 21
-12.96037802524411
 31
0.0
  0
LINE
  5
AC
330
1F
100
AcDbEntity
  8
0
  6
Continuous
 62
     4
370
    15
100
AcDbLine
 10
10.95000000000001
 20
3.385986044078983
 30
0.0
 11
10.95000000000001
 21
-1.439184353104456
 31
0.0
  0
LINE
  5
AD
330
1F
100
AcDbEntity
  8
0
  6
Continuous
 62
     1
370
    15
100
AcDbLine
 10
10.95000000000001
 20
12.09824523441897
 30
0.0
 11
10.95000000000001
 21
10.10126039284196
 31
0.0
  0
LINE
  5
AE
330
1F
100
AcDbEntity
  8
0
  6
Continuous
 62
     4
370
    15
100
AcDbLine
 10
10.95000000000001
 20
-8.9726372155842
 30
0.0
 11
10.95000000000001
 21
-11.80082277119047
 31
0.0
  0
SPLINE
  5
B0
330
1F
100
AcDbEntity
  8
0
  6
Continuous
 62
     4
370
    15
100
AcDbSpline
210
0.0
220
0.0
230
1.0
 70
    24
 71
     3
 72
    12
 73
     8
 74
     0
 42
0.000000001
 43
0.00000001
 40
0.0
 40
0.0
 40
0.0
 40
0.0
 40
0.4999999999999999
 40
0.4999999999999999
 40
0.7499999999999999
 40
0.7499999999999999
 40
1.0
 40
1.0
 40
1.0
 40
1.0
 10
10.95000000000001
 20
-1.439184353104462
 30
0.0
 10
10.95000000000001
 20
-1.594469975423008
 30
0.0
 10
10.95000000000001
 20
-1.823252027729167
 30
0.0
 10
10.95000000000001
 20
-2.300444764203995
 30
0.0
 10
10.95000000000001
 20
-2.482269788145425
 30
0.0
 10
10.95000000000001
 20
-2.884873598926609
 30
0.0
 10
10.95000000000001
 20
-3.106958649314498
 30
0.0
 10
10.95000000000001
 20
-3.357833938459345
 30
0.0
  0
LINE
  5
B1
330
1F
100
AcDbEntity
  8
0
  6
Continuous
 62
     4
370
    15
100
AcDbLine
 10
-52.54999999999998
 20
10.53462197475589
 30
0.0
 11
-52.54999999999998
 21
-12.46037802524412
 31
0.0
  0
SPLINE
  5
B3
330
1F
100
AcDbEntity
  8
0
  6
Continuous
 62
     1
370
    15
100
AcDbSpline
210
0.0
220
0.0
230
1.0
 70
    24
 71
     3
 72
    14
 73
    10
 74
     0
 42
0.000000001
 43
0.00000001
 40
0.0
 40
0.0
 40
0.0
 40
0.0
 40
0.25
 40
0.25
 40
0.5
 40
0.5
 40
0.75
 40
0.75
 40
1.0
 40
1.0
 40
1.0
 40
1.0
 10
10.95000000000001
 20
6.687541353940922
 30
0.0
 10
10.95000000000001
 20
6.317006484214649
 30
0.0
 10
10.95000000000001
 20
5.94668374477742
 30
0.0
 10
10.95000000000001
 20
5.239445280871728
 30
0.0
 10
10.95000000000001
 20
4.902768977989739
 30
0.0
 10
10.95000000000001
 20
4.302814209738719
 30
0.0
 10
10.95000000000001
 20
4.039943373088768
 30
0.0
 10
10.95000000000001
 20
3.624540227564683
 30
0.0
 10
10.95000000000001
 20
3.472388985965558
 30
0.0
 10
10.95000000000001
 20
3.385986044078985
 30
0.0
  0
SPLINE
  5
B4
330
1F
100
AcDbEntity
  8
0
  6
Continuous
 62
     1
370
    15
100
AcDbSpline
210
0.0
220
0.0
230
1.0
 70
    24
 71
     3
 72
    12
 73
     8
 74
     0
 42
0.000000001
 43
0.00000001
 40
0.0
 40
0.0
 40
0.0
 40
0.0
 40
0.4999999999999996
 40
0.4999999999999996
 40
0.7499999999999993
 40
0.7499999999999993
 40
1.0
 40
1.0
 40
1.0
 40
1.0
 10
10.95000000000001
 20
10.10126039284201
 30
0.0
 10
10.95000000000001
 20
9.532404443852672
 30
0.0
 10
10.95000000000001
 20
8.956525453657468
 30
0.0
 10
10.95000000000001
 20
8.079900556124173
 30
0.0
 10
10.95000000000001
 20
7.786751089326478
 30
0.0
 10
10.95000000000001
 20
7.223270794346901
 30
0.0
 10
10.95000000000001
 20
6.949728180826428
 30
0.0
 10
10.95000000000001
 20
6.687541353941021
 30
0.0
  0
SPLINE
  5
B5
330
1F
100
AcDbEntity
  8
0
  6
Continuous
 62
     4
370
    15
100
AcDbSpline
210
0.0
220
0.0
230
1.0
 70
    24
 71
     3
 72
    14
 73
    10
 74
     0
 42
0.000000001
 43
0.00000001
 40
0.0
 40
0.0
 40
0.0
 40
0.0
 40
0.2500000000000002
 40
0.2500000000000002
 40
0.5000000000000001
 40
0.5000000000000001
 40
0.75
 40
0.75
 40
1.0
 40
1.0
 40
1.0
 40
1.0
 10
10.95000000000001
 20
-3.357833938459438
 30
0.0
 10
10.95000000000001
 20
-3.712382806093655
 30
0.0
 10
10.95000000000001
 20
-4.107540728741635
 30
0.0
 10
10.95000000000001
 20
-4.969898156049114
 30
0.0
 10
10.95000000000001
 20
-5.437175464968124
 30
0.0
 10
10.95000000000001
 20
-6.41784885368092
 30
0.0
 10
10.95000000000001
 20
-6.93107224875941
 30
0.0
 10
10.95000000000001
 20
-7.961536242263711
 30
0.0
 10
10.95000000000001
 20
-8.478348042662553
 30
0.0
 10
10.95000000000001
 20
-8.972637215584196
 30
0.0
  0
SPLINE
  5
B9
330
1F
100
AcDbEntity
  8
0
  6
Continuous
 62
     1
370
    15
100
AcDbSpline
210
0.0
220
0.0
230
1.0
 70
     8
 71
     3
 72
    27
 73
    23
 74
     0
 42
0.000000001
 43
0.00000001
 40
0.0
 40
0.0
 40
0.0
 40
0.0
 40
0.0083172878959739
 40
0.0616134401811261
 40
0.1149646933997111
 40
0.1682731229544828
 40
0.2187539469848262
 40
0.2692870505206488
 40
0.3198193523774628
 40
0.3703001027921026
 40
0.4208157872988664
 40
0.4713635004526602
 40
0.5218476703880329
 40
0.5723494044878806
 40
0.6229048680133529
 40
0.6733959484460256
 40
0.7238872120276136
 40
0.7744427563717159
 40
0.8308302299229618
 40
0.8871959219132024
 40
0.9435754340163461
 40
1.0
 40
1.0
 40
1.0
 40
1.0
 10
12.47600259404789
 20
11.64216959994345
 30
0.0
 10
12.57008739977407
 20
11.67969692469993
 30
0.0
 10
13.26705600565445
 20
11.95769470570262
 30
0.0
 10
14.56742032767052
 20
12.24429865540022
 30
0.0
 10
16.37846795712735
 20
12.47324080512478
 30
0.0
 10
18.15638390072014
 20
12.42263583003195
 30
0.0
 10
19.90144462676823
 20
12.13700268479101
 30
0.0
 10
21.61668240723836
 20
11.62970123526153
 30
0.0
 10
23.33189703631411
 20
10.90657429607825
 30
0.0
 10
25.04535320434766
 20
9.97940955707702
 30
0.0
 10
26.7599985174114
 20
8.866287266774735
 30
0.0
 10
28.47574647283913
 20
7.587901511748558
 30
0.0
 10
30.18932514035129
 20
6.165258907729471
 30
0.0
 10
31.90350172790538
 20
4.62591932238065
 30
0.0
 10
33.61951838175565
 20
2.999254105595902
 30
0.0
 10
35.33332738842468
 20
1.311426477629178
 30
0.0
 10
37.04717738767607
 20
-0.4050974398443346
 30
0.0
 10
38.82973704015386
 20
-2.18328834461215
 30
0.0
 10
40.67734392669138
 20
-3.992306218031097
 30
0.0
 10
42.59065600403571
 20
-5.777424996622703
 30
0.0
 10
44.50450731990406
 20
-7.451809907109172
 30
0.0
 10
45.78142687621468
 20
-8.423920010788546
 30
0.0
 10
46.42014165481895
 20
-8.910169192721739
 30
0.0
  0
SPLINE
  5
BA
330
1F
100
AcDbEntity
  8
0
  6
Continuous
 62
     1
370
    15
100
AcDbSpline
210
0.0
220
0.0
230
1.0
 70
     8
 71
     3
 72
    10
 73
     6
 74
     0
 42
0.000000001
 43
0.00000001
 40
0.0
 40
0.0
 40
0.0
 40
0.0
 40
0.3521229134693188
 40
0.6727017047629871
 40
0.9999999999999999
 40
0.9999999999999999
 40
0.9999999999999999
 40
0.9999999999999999
 10
45.60857753563211
 20
-8.276968865385282
 30
0.0
 10
45.52932532469371
 20
-8.272149078188031
 30
0.0
 10
45.37792053004625
 20
-8.262941273355786
 30
0.0
 10
45.1090479094723
 20
-8.30370296678231
 30
0.0
 10
44.91630758531924
 20
-8.361186624658975
 30
0.0
 10
44.81893791315422
 20
-8.39022655154969
 30
0.0
  0
SPLINE
  5
BB
330
1F
100
AcDbEntity
  8
0
  6
Continuous
 62
     1
370
    15
100
AcDbSpline
210
0.0
220
0.0
230
1.0
 70
     8
 71
     3
 72
     8
 73
     4
 74
     0
 42
0.000000001
 43
0.00000001
 40
0.0
 40
0.0
 40
0.0
 40
0.0
 40
1.0
 40
1.0
 40
1.0
 40
1.0
 10
49.05000000000001
 20
-9.894796128199754
 30
0.0
 10
47.63401039512491
 20
-9.511004872635707
 30
0.0
 10
46.22303216695042
 20
-9.012480400944119
 30
0.0
 10
44.81893791315422
 20
-8.390226551549693
 30
0.0
  0
LINE
  5
BC
330
1F
100
AcDbEntity
  8
0
  6
Continuous
 62
     1
370
    15
100
AcDbLine
 10
49.05000000000001
 20
-12.19837802524412
 30
0.0
 11
49.05000000000001
 21
-9.894796128199754
 31
0.0
  0
SPLINE
  5
BD
330
1F
100
AcDbEntity
  8
0
  6
Continuous
 62
     1
370
    15
100
AcDbSpline
210
0.0
220
0.0
230
1.0
 70
     8
 71
     3
 72
    26
 73
    22
 74
     0
 42
0.000000001
 43
0.00000001
 40
0.0
 40
0.0
 40
0.0
 40
0.0
 40
0.0554739934815488
 40
0.1109599056374258
 40
0.1665031826390012
 40
0.2220018764962659
 40
0.2745567880162902
 40
0.3271661270310622
 40
0.3797746314285282
 40
0.432329466308227
 40
0.4849206706045483
 40
0.537545219497419
 40
0.590103614394471
 40
0.6426802951085168
 40
0.6953129128098039
 40
0.7478785021332771
 40
0.8004442821306393
 40
0.8530769839711225
 40
0.911781229399885
 40
0.9704627983364664
 40
1.0
 40
1.0
 40
1.0
 40
1.0
 10
10.95000000000001
 20
10.40228588472453
 30
0.0
 10
11.55276012699357
 20
10.05383386599392
 30
0.0
 10
12.75840988493743
 20
9.356854963071054
 30
0.0
 10
14.56742574664291
 20
8.057970013862134
 30
0.0
 10
16.37846650314926
 20
6.607158224771954
 30
0.0
 10
18.15638426723665
 20
5.040003242686818
 30
0.0
 10
19.90144453072269
 20
3.400904199945007
 30
0.0
 10
21.61668243297722
 20
1.725807575282327
 30
0.0
 10
23.33189702945565
 20
0.0146604171900821
 30
0.0
 10
25.04535320607337
 20
-1.702874570919966
 30
0.0
 10
26.75999851736926
 20
-3.393300925812604
 30
0.0
 10
28.47574647127977
 20
-5.025771116980682
 30
0.0
 10
30.18932514662222
 20
-6.573235192158393
 30
0.0
 10
31.90350170435826
 20
-8.005344313986821
 30
0.0
 10
33.61951846972371
 20
-9.295206133181065
 30
0.0
 10
35.33332706059137
 20
-10.4223428049775
 30
0.0
 10
37.04717861188114
 20
-11.36340759330202
 30
0.0
 10
38.82973224177118
 20
-12.13378477901351
 30
0.0
 10
40.67736414483583
 20
-12.67339314676549
 30
0.0
 10
42.27375635616301
 20
-12.95165572150387
 30
0.0
 10
43.23251239551011
 20
-12.93118942313793
 30
0.0
 10
43.55352084175895
 20
-12.92433694516721
 30
0.0
  0
LINE
  5
BE
330
1F
100
AcDbEntity
  8
0
  6
Continuous
 62
     4
370
    15
100
AcDbLine
 10
10.95000000000001
 20
10.4022858847245
 30
0.0
 11
10.95000000000001
 21
12.09824523441897
 31
0.0
  0
SPLINE
  5
BF
330
1F
100
AcDbEntity
  8
0
  6
Continuous
 62
     1
370
    15
100
AcDbSpline
210
0.0
220
0.0
230
1.0
 70
     8
 71
     3
 72
    24
 73
    20
 74
     0
 42
0.000000001
 43
0.00000001
 40
0.0
 40
0.0
 40
0.0
 40
0.0
 40
0.0112912941613111
 40
0.0722921317167399
 40
0.1332154074458066
 40
0.1941384621855164
 40
0.2551392022243587
 40
0.316075111787988
 40
0.3769898282508839
 40
0.4379812166118856
 40
0.498933958879369
 40
0.5598445493135285
 40
0.6208173422457643
 40
0.681791102492102
 40
0.7427017817517234
 40
0.8070242787952159
 40
0.8713984473100311
 40
0.9357061304742662
 40
1.0
 40
1.0
 40
1.0
 40
1.0
 10
39.08106548950344
 20
-12.16161244471543
 30
0.0
 10
38.97521403396287
 20
-12.2030487298592
 30
0.0
 10
38.29750364425683
 20
-12.46834315410065
 30
0.0
 10
37.04707030567378
 20
-12.75083986111651
 30
0.0
 10
35.3333560642717
 20
-12.98071289906754
 30
0.0
 10
33.61951068690976
 20
-12.96036610510595
 30
0.0
 10
31.90350378842979
 20
-12.71409863658465
 30
0.0
 10
30.18932458868654
 20
-12.23966318930697
 30
0.0
 10
28.47574662096905
 20
-11.54720255371347
 30
0.0
 10
26.75999847726631
 20
-10.65012737658787
 30
0.0
 10
25.0453532168074
 20
-9.563553434859871
 30
0.0
 10
23.33189702657707
 20
-8.306971145403194
 30
0.0
 10
21.61668243374882
 20
-6.904978318343588
 30
0.0
 10
19.90144453051655
 20
-5.382131414804722
 30
0.0
 10
18.15638426729532
 20
-3.735149722266254
 30
0.0
 10
16.37846650313317
 20
-1.990383883984683
 30
0.0
 10
14.56742574664719
 20
-0.1820555165430437
 30
0.0
 10
12.75840988493635
 20
1.631484214130455
 30
0.0
 10
11.55276012699321
 20
2.801193981926101
 30
0.0
 10
10.95
 20
3.385986044078985
 30
0.0
  0
SPLINE
  5
C0
330
1F
100
AcDbEntity
  8
0
  6
Continuous
 62
     4
370
    15
100
AcDbSpline
210
0.0
220
0.0
230
1.0
 70
    24
 71
     3
 72
    20
 73
    16
 74
     0
 42
0.000000001
 43
0.00000001
 40
0.0
 40
0.0
 40
0.0
 40
0.0
 40
0.2500000000000007
 40
0.2500000000000007
 40
0.3750000000000006
 40
0.3750000000000006
 40
0.5000000000000006
 40
0.5000000000000006
 40
0.6250000000000004
 40
0.6250000000000004
 40
0.7500000000000002
 40
0.7500000000000002
 40
0.8750000000000001
 40
0.8750000000000001
 40
1.0
 40
1.0
 40
1.0
 40
1.0
 10
10.95000000000001
 20
10.40228588472435
 30
0.0
 10
10.95000000000001
 20
9.883119281508431
 30
0.0
 10
10.95000000000001
 20
9.290797173239367
 30
0.0
 10
10.95000000000001
 20
8.308801696012653
 30
0.0
 10
10.95000000000001
 20
7.966408987472683
 30
0.0
 10
10.95000000000001
 20
7.263869398044971
 30
0.0
 10
10.95000000000001
 20
6.903675495761962
 30
0.0
 10
10.95000000000001
 20
6.187070597544674
 30
0.0
 10
10.95000000000001
 20
5.830717516410897
 30
0.0
 10
10.95000000000001
 20
5.152785158548528
 30
0.0
 10
10.95000000000001
 20
4.831426246056586
 30
0.0
 10
10.95000000000001
 20
4.259924512079746
 30
0.0
 10
10.95000000000001
 20
4.010133659730632
 30
0.0
 10
10.95000000000001
 20
3.614823978868725
 30
0.0
 10
10.95000000000001
 20
3.469625193148828
 30
0.0
 10
10.95000000000001
 20
3.385986044078985
 30
0.0
  0
SPLINE
  5
C1
330
1F
100
AcDbEntity
  8
0
  6
Continuous
 62
     1
370
    15
100
AcDbSpline
210
0.0
220
0.0
230
1.0
 70
     8
 71
     3
 72
    19
 73
    15
 74
     0
 42
0.000000001
 43
0.00000001
 40
0.0
 40
0.0
 40
0.0
 40
0.0
 40
0.093690179051285
 40
0.1874004875841845
 40
0.2812076797616069
 40
0.3749395753448779
 40
0.4636997089013932
 40
0.5525517652023909
 40
0.6414024119159416
 40
0.7301624160344017
 40
0.8189838445598947
 40
0.9078615888655406
 40
0.9966276055070284
 40
1.0
 40
1.0
 40
1.0
 40
1.0
 10
10.95000000000001
 20
-0.9038430339473829
 30
0.0
 10
11.5527601268319
 20
-1.504862131606001
 30
0.0
 10
12.75840988445237
 20
-2.707029456817094
 30
0.0
 10
14.56742574858447
 20
-4.457998832609251
 30
0.0
 10
16.37846649586253
 20
-6.123432443336196
 30
0.0
 10
18.15638429380597
 20
-7.643767852825134
 30
0.0
 10
19.90144443735619
 20
-8.99629936563294
 30
0.0
 10
21.61668278246146
 20
-10.1642392090216
 30
0.0
 10
23.3318957256228
 20
-11.15259887886923
 30
0.0
 10
25.04535806797542
 20
-11.94146776661878
 30
0.0
 10
26.75998035303025
 20
-12.52444186111114
 30
0.0
 10
28.47581427192572
 20
-12.85734118359241
 30
0.0
 10
29.63977852983706
 20
-12.99580894264157
 30
0.0
 10
30.23260777055559
 20
-12.95755612542283
 30
0.0
 10
30.25430614848566
 20
-12.95615601890329
 30
0.0
  0
LINE
  5
C2
330
1F
100
AcDbEntity
  8
0
  6
Continuous
 62
     4
370
    15
100
AcDbLine
 10
10.95000000000001
 20
-0.9038430339473923
 30
0.0
 11
10.95000000000001
 21
3.385986044078983
 31
0.0
  0
SPLINE
  5
C3
330
1F
100
AcDbEntity
  8
0
  6
Continuous
 62
     1
370
    15
100
AcDbSpline
210
0.0
220
0.0
230
1.0
 70
     8
 71
     3
 72
    24
 73
    20
 74
     0
 42
0.000000001
 43
0.00000001
 40
0.0
 40
0.0
 40
0.0
 40
0.0
 40
0.0603709061023261
 40
0.1206565159931527
 40
0.1809512436589221
 40
0.2413214179259122
 40
0.3016047296498904
 40
0.3619027306066616
 40
0.4245962761041826
 40
0.4872101075176882
 40
0.5498237118096188
 40
0.6125171570845723
 40
0.6751439729080256
 40
0.7377490075448866
 40
0.8004328416429504
 40
0.8630769572597706
 40
0.9256777513750146
 40
0.9883424740410701
 40
1.0
 40
1.0
 40
1.0
 40
1.0
 10
48.669
 20
-7.266852967730275
 30
0.0
 10
48.11785907021651
 20
-6.796343735788255
 30
0.0
 10
47.01635590085561
 20
-5.855990040044227
 30
0.0
 10
45.36618229215904
 20
-4.318058351158906
 30
0.0
 10
43.71591668131641
 20
-2.720160531733528
 30
0.0
 10
42.06354158272647
 20
-1.080612499583717
 30
0.0
 10
40.41356400441852
 20
0.5746063906756396
 30
0.0
 10
38.74194817489079
 20
2.236467314204797
 30
0.0
 10
37.04714588172742
 20
3.874039755217837
 30
0.0
 10
35.33333582251437
 20
5.458821538911363
 30
0.0
 10
33.61951612973953
 20
6.939389143955635
 30
0.0
 10
31.90350228918282
 20
8.287412265260778
 30
0.0
 10
30.1893251457171
 20
9.4811128158409
 30
0.0
 10
28.47574589051312
 20
10.4980132949621
 30
0.0
 10
26.76000084420827
 20
11.31668324217899
 30
0.0
 10
25.04534448926877
 20
11.93079092611045
 30
0.0
 10
23.33192956182227
 20
12.30245680110353
 30
0.0
 10
22.08214529008759
 20
12.46268822859176
 30
0.0
 10
21.40392426364282
 20
12.42760683859319
 30
0.0
 10
21.29754455409493
 20
12.42210428421479
 30
0.0
  0
LINE
  5
C4
330
1F
100
AcDbEntity
  8
0
  6
Continuous
 62
     1
370
    15
100
AcDbLine
 10
48.66900000000002
 20
-7.675772758658165
 30
0.0
 11
48.669
 21
-7.266852967730278
 31
0.0
  0
ELLIPSE
  5
C5
330
1F
100
AcDbEntity
  8
0
  6
Continuous
 62
     1
370
    15
100
AcDbEllipse
 10
50.47814800674212
 20
-0.2603780252441124
 30
0.0
 11
17.89316233288198
 21
11.88911657764826
 31
0.0
210
0.0
220
0.0
230
1.0
 40
0.2495534463455959
 41
4.322422312290589
 42
4.448155703112947
  0
SPLINE
  5
C6
330
1F
100
AcDbEntity
  8
0
  6
Continuous
 62
     1
370
    15
100
AcDbSpline
210
0.0
220
0.0
230
1.0
 70
     8
 71
     3
 72
    14
 73
    10
 74
     0
 42
0.000000001
 43
0.00000001
 40
0.0
 40
0.0
 40
0.0
 40
0.0
 40
0.25
 40
0.25
 40
0.5
 40
0.5
 40
0.75
 40
0.75
 40
1.0
 40
1.0
 40
1.0
 40
1.0
 10
49.05000000000001
 20
-7.194704627584017
 30
0.0
 10
49.05
 20
-7.24681693144566
 30
0.0
 10
49.04007034914844
 20
-7.295145114155168
 30
0.0
 10
48.99406683387217
 20
-7.363447445390683
 30
0.0
 10
48.95808616564489
 20
-7.381246977604858
 30
0.0
 10
48.87829560397015
 20
-7.384037341840934
 30
0.0
 10
48.83518706246662
 20
-7.370877137555304
 30
0.0
 10
48.75049160757394
 20
-7.328907324466922
 30
0.0
 10
48.70936669070042
 20
-7.300544829201103
 30
0.0
 10
48.669
 20
-7.26685296773026
 30
0.0
  0
SPLINE
  5
C7
330
1F
100
AcDbEntity
  8
0
  6
Continuous
 62
     1
370
    15
100
AcDbSpline
210
0.0
220
0.0
230
1.0
 70
     8
 71
     3
 72
    19
 73
    15
 74
     0
 42
0.000000001
 43
0.00000001
 40
0.0
 40
0.0
 40
0.0
 40
0.0
 40
0.047667672174659
 40
0.1307815075975868
 40
0.2137908611306608
 40
0.2968290948045847
 40
0.3799556738923782
 40
0.4629763901142752
 40
0.5459974074815229
 40
0.629124119456561
 40
0.7218400684925502
 40
0.8145202028701958
 40
0.9072230611757445
 40
1.0
 40
1.0
 40
1.0
 40
1.0
 10
25.77577837772879
 20
11.63153178839037
 30
0.0
 10
26.10375838486226
 20
11.74829815621607
 30
0.0
 10
27.00360765036899
 20
12.06865954422314
 30
0.0
 10
28.47577625880131
 20
12.34704093483272
 30
0.0
 10
30.18931716063977
 20
12.47979442873743
 30
0.0
 10
31.90350386899737
 20
12.37042412868733
 30
0.0
 10
33.61951780862017
 20
12.03424739637461
 30
0.0
 10
35.3333275418672
 20
11.47319184093466
 30
0.0
 10
37.04717734665251
 20
10.69856512106717
 30
0.0
 10
38.8297370525726
 20
9.687668484601547
 30
0.0
 10
40.67734392321442
 20
8.431021486915625
 30
0.0
 10
42.59065600496298
 20
6.930744823146416
 30
0.0
 10
44.50450731967199
 20
5.273188061623983
 30
0.0
 10
45.78142687613732
 20
4.069811695611193
 30
0.0
 10
46.42014165481895
 20
3.467883198708695
 30
0.0
  0
SPLINE
  5
C8
330
1F
100
AcDbEntity
  8
0
  6
Continuous
 62
     1
370
    15
100
AcDbSpline
210
0.0
220
0.0
230
1.0
 70
     8
 71
     3
 72
    16
 73
    12
 74
     0
 42
0.000000001
 43
0.00000001
 40
0.0
 40
0.0
 40
0.0
 40
0.0
 40
0.250000000000001
 40
0.250000000000001
 40
0.500000000000002
 40
0.500000000000002
 40
0.750000000000003
 40
0.750000000000003
 40
0.8750000000000014
 40
0.8750000000000014
 40
1.0
 40
1.0
 40
1.0
 40
1.0
 10
46.42014165481935
 20
3.467883198708304
 30
0.0
 10
46.37600622329749
 20
3.287976987222644
 30
0.0
 10
46.31529656987891
 20
3.10164059714509
 30
0.0
 10
46.15242258795634
 20
2.712884952531624
 30
0.0
 10
46.05052281464947
 20
2.510568335523757
 30
0.0
 10
45.78880432387056
 20
2.083464716041013
 30
0.0
 10
45.63312189203516
 20
1.865869838996324
 30
0.0
 10
45.35503333123325
 20
1.53644926383721
 30
0.0
 10
45.25468105920316
 20
1.4261207067526
 30
0.0
 10
45.04496470187753
 20
1.212371818624741
 30
0.0
 10
44.93476774640074
 20
1.107914877627409
 30
0.0
 10
44.81893791315421
 20
1.006008614389526
 30
0.0
  0
SPLINE
  5
C9
330
1F
100
AcDbEntity
  8
0
  6
Continuous
 62
     1
370
    15
100
AcDbSpline
210
0.0
220
0.0
230
1.0
 70
     8
 71
     3
 72
     8
 73
     4
 74
     0
 42
0.000000001
 43
0.00000001
 40
0.0
 40
0.0
 40
0.0
 40
0.0
 40
1.0
 40
1.0
 40
1.0
 40
1.0
 10
49.05000000000001
 20
-1.969622244237232
 30
0.0
 10
47.63401039512491
 20
-0.9852963851940647
 30
0.0
 10
46.22303216695042
 20
0.0067098362888267
 30
0.0
 10
44.81893791315421
 20
1.006008614389514
 30
0.0
  0
LINE
  5
CA
330
1F
100
AcDbEntity
  8
0
  6
Continuous
 62
     1
370
    15
100
AcDbLine
 10
49.05000000000001
 20
-7.194704627584025
 30
0.0
 11
49.05000000000001
 21
-1.969622244237228
 31
0.0
  0
SPLINE
  5
CB
330
1F
100
AcDbEntity
  8
0
  6
Continuous
 62
     1
370
    15
100
AcDbSpline
210
0.0
220
0.0
230
1.0
 70
     8
 71
     3
 72
    16
 73
    12
 74
     0
 42
0.000000001
 43
0.00000001
 40
0.0
 40
0.0
 40
0.0
 40
0.0
 40
0.0492806109744756
 40
0.1648519619948623
 40
0.2805413356232763
 40
0.3962325446270631
 40
0.5118040641842934
 40
0.6338491442160946
 40
0.7559922653554837
 40
0.8780092376308603
 40
0.9999999999999999
 40
0.9999999999999999
 40
0.9999999999999999
 40
0.9999999999999999
 10
25.7757783777287
 20
-12.1522878388786
 30
0.0
 10
25.5322090239388
 20
-12.24266727654823
 30
0.0
 10
24.71742842239792
 20
-12.54500175108526
 30
0.0
 10
23.33193555212787
 20
-12.82807576593816
 30
0.0
 10
21.61667210721603
 20
-12.99711745394394
 30
0.0
 10
19.90144728930257
 20
-12.92173059762773
 30
0.0
 10
18.15638348222724
 20
-12.6133818241215
 30
0.0
 10
16.37846671844087
 20
-12.0596159586016
 30
0.0
 10
14.56742568927816
 20
-11.25425245318402
 30
0.0
 10
12.75840989926884
 20
-10.23794755307877
 30
0.0
 10
11.55276013177036
 20
-9.39437712425589
 30
0.0
 10
10.95
 20
-8.972637215584198
 30
0.0
  0
SPLINE
  5
CC
330
1F
100
AcDbEntity
  8
0
  6
Continuous
 62
     4
370
    15
100
AcDbSpline
210
0.0
220
0.0
230
1.0
 70
    24
 71
     3
 72
    15
 73
    11
 74
     0
 42
0.000000001
 43
0.00000001
 40
0.0
 40
0.0
 40
0.0
 40
0.0
 40
0.0875091176601201
 40
0.2143783722589281
 40
0.3412476268577359
 40
0.4681168814565442
 40
0.5949861360553524
 40
0.7218553906541609
 40
0.8487246452529694
 40
1.0
 40
1.0
 40
1.0
 40
1.0
 10
10.95000000000001
 20
-1.512861722688418
 30
0.0
 10
10.95000000000001
 20
-1.653995238149055
 30
0.0
 10
10.95000000000001
 20
-1.999741762907126
 30
0.0
 10
10.95000000000001
 20
-2.705379612998762
 30
0.0
 10
10.95000000000001
 20
-3.587114520288189
 30
0.0
 10
10.95000000000001
 20
-4.564803990211131
 30
0.0
 10
10.95000000000001
 20
-5.602051626876118
 30
0.0
 10
10.95000000000001
 20
-6.671387639716511
 30
0.0
 10
10.95000000000001
 20
-7.816112761267922
 30
0.0
 10
10.95000000000001
 20
-8.565218693555556
 30
0.0
 10
10.95000000000001
 20
-8.9726372155842
 30
0.0
  0
LINE
  5
CD
330
1F
100
AcDbEntity
  8
0
  6
Continuous
 62
     1
370
    15
100
AcDbLine
 10
49.05000000000001
 20
-1.126403429028555
 30
0.0
 11
49.05000000000001
 21
5.012769174018187
 31
0.0
  0
LINE
  5
CE
330
1F
100
AcDbEntity
  8
0
  6
Continuous
 62
     1
370
    15
100
AcDbLine
 10
44.81893791315419
 20
1.006008614389515
 30
0.0
 11
49.05000000000001
 21
-1.126403429028555
 31
0.0
  0
ELLIPSE
  5
CF
330
1F
100
AcDbEntity
  8
0
  6
Continuous
 62
     1
370
    15
100
AcDbEllipse
 10
50.47814800674212
 20
-0.2603780252441149
 30
0.0
 11
17.89316233288198
 21
11.88911657764827
 31
0.0
210
0.0
220
0.0
230
1.0
 40
0.2495534463455927
 41
1.50638811027875
 42
1.63212150110109
  0
SPLINE
  5
D0
330
1F
100
AcDbEntity
  8
0
  6
Continuous
 62
     1
370
    15
100
AcDbSpline
210
0.0
220
0.0
230
1.0
 70
     8
 71
     3
 72
    12
 73
     8
 74
     0
 42
0.000000001
 43
0.00000001
 40
0.0
 40
0.0
 40
0.0
 40
0.0
 40
0.2499999999999931
 40
0.2499999999999931
 40
0.4999999999999862
 40
0.4999999999999862
 40
1.0
 40
1.0
 40
1.0
 40
1.0
 10
49.05000000000001
 20
5.012769174018193
 30
0.0
 10
49.05000000000003
 20
5.040138550885697
 30
0.0
 10
49.0378187329692
 20
5.0599552992246
 30
0.0
 10
48.99352292796452
 20
5.080561009879668
 30
0.0
 10
48.96157198098934
 20
5.081554592208801
 30
0.0
 10
48.85080929475875
 20
5.061334958848346
 30
0.0
 10
48.75906022514587
 20
5.01866409930656
 30
0.0
 10
48.66900000000002
 20
4.960890993401181
 30
0.0
  0
SPLINE
  5
D1
330
1F
100
AcDbEntity
  8
0
  6
Continuous
 62
     1
370
    15
100
AcDbSpline
210
0.0
220
0.0
230
1.0
 70
     8
 71
     3
 72
    16
 73
    12
 74
     0
 42
0.000000001
 43
0.00000001
 40
0.0
 40
0.0
 40
0.0
 40
0.0
 40
0.11742818605291
 40
0.2346904614041218
 40
0.3519704718506225
 40
0.4693972344016912
 40
0.5866550395605261
 40
0.7039414169252921
 40
0.825887397204621
 40
0.9476783246465297
 40
0.9999999999999999
 40
0.9999999999999999
 40
0.9999999999999999
 40
0.9999999999999999
 10
48.669
 20
5.409687161783473
 30
0.0
 10
48.11785906632105
 20
5.892997942532229
 30
0.0
 10
47.0163558891747
 20
6.85893664897196
 30
0.0
 10
45.36618233880863
 20
8.163318714669066
 30
0.0
 10
43.7159165062502
 20
9.33210763660522
 30
0.0
 10
42.0635422368186
 20
10.33615449089073
 30
0.0
 10
40.41356156701396
 20
11.16240656655446
 30
0.0
 10
38.7419574270938
 20
11.80695773693198
 30
0.0
 10
37.04710984099421
 20
12.23305047356019
 30
0.0
 10
35.65914876577896
 20
12.44011501465766
 30
0.0
 10
34.84260853387144
 20
12.41794639410724
 30
0.0
 10
34.5972342631926
 20
12.4112846169076
 30
0.0
  0
LINE
  5
D2
330
1F
100
AcDbEntity
  8
0
  6
Continuous
 62
     1
370
    15
100
AcDbLine
 10
48.66900000000002
 20
4.960890993400632
 30
0.0
 11
48.669
 21
5.40968716178347
 31
0.0
  0
SPLINE
  5
D3
330
1F
100
AcDbEntity
  8
0
  6
Continuous
 62
     1
370
    15
100
AcDbSpline
210
0.0
220
0.0
230
1.0
 70
     8
 71
     3
 72
    14
 73
    10
 74
     0
 42
0.000000001
 43
0.00000001
 40
0.0
 40
0.0
 40
0.0
 40
0.0
 40
0.25
 40
0.25
 40
0.5
 40
0.5
 40
0.75
 40
0.75
 40
1.0
 40
1.0
 40
1.0
 40
1.0
 10
49.05000000000001
 20
5.09031876995066
 30
0.0
 10
49.05000000000001
 20
5.085094060092052
 30
0.0
 10
49.04007034914839
 20
5.088964713712655
 30
0.0
 10
48.99406683387214
 20
5.122748857278253
 30
0.0
 10
48.95808616564487
 20
5.152769000760682
 30
0.0
 10
48.87829560397015
 20
5.222126328332795
 30
0.0
 10
48.8351870624666
 20
5.260637249670913
 30
0.0
 10
48.75049160757394
 20
5.336542397611582
 30
0.0
 10
48.70936669070042
 20
5.373541106113089
 30
0.0
 10
48.669
 20
5.409687161783477
 30
0.0
  0
LINE
  5
D4
330
1F
100
AcDbEntity
  8
0
  6
Continuous
 62
     1
370
    15
100
AcDbLine
 10
49.05000000000001
 20
5.012769174018187
 30
0.0
 11
49.05000000000001
 21
5.090318769950654
 31
0.0
  0
SPLINE
  5
D5
330
1F
100
AcDbEntity
  8
0
  6
Continuous
 62
     1
370
    15
100
AcDbSpline
210
0.0
220
0.0
230
1.0
 70
     8
 71
     3
 72
    11
 73
     7
 74
     0
 42
0.000000001
 43
0.00000001
 40
0.0
 40
0.0
 40
0.0
 40
0.0
 40
0.2175370622608754
 40
0.4782459638707648
 40
0.7390187878122704
 40
1.0
 40
1.0
 40
1.0
 40
1.0
 10
39.08106548950344
 20
11.6408563942272
 30
0.0
 10
39.61325622007403
 20
11.81416150178424
 30
0.0
 10
40.78325486885412
 20
12.19516539760753
 30
0.0
 10
42.59063428141739
 20
12.44307145137405
 30
0.0
 10
44.50451275617714
 20
12.46580125018291
 30
0.0
 10
45.78142868878815
 20
12.23374755488699
 30
0.0
 10
46.42014165481895
 20
12.11767436618631
 30
0.0
  0
SPLINE
  5
D6
330
1F
100
AcDbEntity
  8
0
  6
Continuous
 62
     1
370
    15
100
AcDbSpline
210
0.0
220
0.0
230
1.0
 70
     8
 71
     3
 72
    16
 73
    12
 74
     0
 42
0.000000001
 43
0.00000001
 40
0.0
 40
0.0
 40
0.0
 40
0.0
 40
0.2500000000000011
 40
0.2500000000000011
 40
0.5000000000000022
 40
0.5000000000000022
 40
0.7500000000000033
 40
0.7500000000000033
 40
0.8750000000000017
 40
0.8750000000000017
 40
1.0
 40
1.0
 40
1.0
 40
1.0
 10
46.42014165481935
 20
12.11767436618621
 30
0.0
 10
46.37600622329752
 20
11.81138917530073
 30
0.0
 10
46.31529656987891
 20
11.51234476120744
 30
0.0
 10
46.15242258795635
 20
10.93236622810184
 30
0.0
 10
46.05052281464944
 20
10.65131653291686
 30
0.0
 10
45.78880432387056
 20
10.1145201793563
 30
0.0
 10
45.63312189203514
 20
9.868141305169953
 30
0.0
 10
45.35503333123325
 20
9.546564579854387
 30
0.0
 10
45.25468105920317
 20
9.447614202655403
 30
0.0
 10
45.04496470187752
 20
9.274459382697977
 30
0.0
 10
44.93476774640071
 20
9.199191820849535
 30
0.0
 10
44.81893791315419
 20
9.135857140695082
 30
0.0
  0
SPLINE
  5
D7
330
1F
100
AcDbEntity
  8
0
  6
Continuous
 62
     1
370
    15
100
AcDbSpline
210
0.0
220
0.0
230
1.0
 70
     8
 71
     3
 72
     8
 73
     4
 74
     0
 42
0.000000001
 43
0.00000001
 40
0.0
 40
0.0
 40
0.0
 40
0.0
 40
1.0
 40
1.0
 40
1.0
 40
1.0
 10
49.05000000000001
 20
7.664795858718413
 30
0.0
 10
47.63401039512491
 20
8.26533046219753
 30
0.0
 10
46.22303216695042
 20
8.758812211988825
 30
0.0
 10
44.81893791315422
 20
9.135857140695084
 30
0.0
  0
LINE
  5
D8
330
1F
100
AcDbEntity
  8
0
  6
Continuous
 62
     1
370
    15
100
AcDbLine
 10
49.05000000000001
 20
5.090318769950654
 30
0.0
 11
49.05000000000001
 21
7.664795858718413
 31
0.0
  0
LINE
  5
D9
330
1F
100
AcDbEntity
  8
0
  6
Continuous
 62
     1
370
    15
100
AcDbLine
 10
49.05000000000001
 20
-1.126403429028555
 30
0.0
 11
49.05000000000001
 21
-1.96962224423723
 31
0.0
  0
SPLINE
  5
DA
330
1F
100
AcDbEntity
  8
0
  6
Continuous
 62
     1
370
    15
100
AcDbSpline
210
0.0
220
0.0
230
1.0
 70
     8
 71
     3
 72
    12
 73
     8
 74
     0
 42
0.000000001
 43
0.00000001
 40
0.0
 40
0.0
 40
0.0
 40
0.0
 40
0.2499999999999959
 40
0.2499999999999959
 40
0.4999999999999918
 40
0.4999999999999918
 40
1.0
 40
1.0
 40
1.0
 40
1.0
 10
49.05000000000001
 20
-7.265576032075364
 30
0.0
 10
49.05000000000001
 20
-7.292945408942871
 30
0.0
 10
49.0378187329692
 20
-7.327535537420473
 30
0.0
 10
48.99352292796452
 20
-7.401862980324622
 30
0.0
 10
48.96157198098933
 20
-7.441606512413652
 30
0.0
 10
48.85080929475878
 20
-7.555719314647044
 30
0.0
 10
48.75906022514591
 20
-7.624321270924389
 30
0.0
 10
48.66900000000002
 20
-7.675772758658701
 30
0.0
  0
LINE
  5
DB
330
1F
100
AcDbEntity
  8
0
  6
Continuous
 62
     1
370
    15
100
AcDbLine
 10
49.05000000000001
 20
-7.265576032075367
 30
0.0
 11
49.05000000000001
 21
-7.194704627584025
 31
0.0
  0
SPLINE
  5
DC
330
1F
100
AcDbEntity
  8
0
  6
Continuous
 62
     1
370
    15
100
AcDbSpline
210
0.0
220
0.0
230
1.0
 70
     8
 71
     3
 72
    11
 73
     7
 74
     0
 42
0.000000001
 43
0.00000001
 40
0.0
 40
0.0
 40
0.0
 40
0.0
 40
0.3011700144448848
 40
0.6024047357387688
 40
0.9039508925418591
 40
1.0
 40
1.0
 40
1.0
 40
1.0
 10
10.95000000000001
 20
-11.56650694391598
 30
0.0
 10
11.55276444158153
 20
-11.82003121847305
 30
0.0
 10
12.7584228296283
 20
-12.32713423767439
 30
0.0
 10
14.56737393258915
 20
-12.76485187236378
 30
0.0
 10
15.96744328547337
 20
-12.97297997585526
 30
0.0
 10
16.76329812850905
 20
-12.94029426903583
 30
0.0
 10
16.95555682525648
 20
-12.93239821682183
 30
0.0
  0
LINE
  5
DD
330
1F
100
AcDbEntity
  8
0
  6
Continuous
 62
     4
370
    15
100
AcDbLine
 10
10.95000000000001
 20
-11.56650694391596
 30
0.0
 11
10.95000000000001
 21
-8.9726372155842
 31
0.0
  0
LINE
  5
DE
330
1F
100
AcDbEntity
  8
0
  6
Continuous
 62
     1
370
    15
100
AcDbLine
 10
49.05000000000001
 20
-7.265576032075369
 30
0.0
 11
49.05000000000001
 21
-9.894796128199758
 31
0.0
  0
LINE
  5
E1
330
1F
100
AcDbEntity
  8
0
  6
Continuous
 62
     1
370
    15
100
AcDbLine
 10
12.4760025940478
 20
-12.16292565043168
 30
0.0
 11
10.95
 21
-12.61900128490718
 31
0.0
  0
ELLIPSE
  5
E3
330
1F
100
AcDbEntity
  8
0
  6
Continuous
 62
     1
370
    15
100
AcDbEllipse
 10
50.47814800674212
 20
-0.2603780252441162
 30
0.0
 11
18.1374796856248
 21
0.0
 31
0.0
210
0.0
220
0.0
230
1.0
 40
0.7002075382097117
 41
1.674377381798197
 42
1.796442247995048
  0
LINE
  5
E5
330
1F
100
AcDbEntity
  8
0
  6
Continuous
 62
     1
370
    15
100
AcDbLine
 10
49.05000000000001
 20
7.664795858718413
 30
0.0
 11
49.05000000000001
 21
11.67762197475588
 31
0.0
  0
LINE
  5
E7
330
1F
100
AcDbEntity
  8
0
  6
Continuous
 62
     1
370
    15
100
AcDbLine
 10
49.05000000000001
 20
12.01796718084942
 30
0.0
 11
49.05000000000001
 21
12.02464537229053
 31
0.0
  0
LINE
  5
EA
330
1F
100
AcDbEntity
  8
중심선
100
AcDbLine
 10
-55.54999999999999
 20
-0.2603780252441155
 30
0.0
 11
52.05000000000001
 21
-0.2603780252441159
 31
0.0
  0
CIRCLE
  5
EB
330
1F
100
AcDbEntity
  8
외형선
100
AcDbCircle
 10
0.0000000000000139
 20
-0.0000000000000035
 30
0.0
 40
3.000000000000001
  0
INSERT
  5
EC
330
1F
100
AcDbEntity
  8
0
  6
Continuous
 62
     7
100
AcDbBlockReference
 66
     1
  2
블럭10
 10
-15.67936049909347
 20
-52.04717430164393
 30
0.0
  0
ATTRIB
  5
ED
330
EC
100
AcDbEntity
  8
FORMAT
 62
     2
100
AcDbText
 10
-26.73038085127794
 20
-49.97180738881174
 30
0.0
 40
4.233333333333333
  1
GMG23064[ 6 FLUTE ]
 41
0.75
  7
SLDTEXTSTYLE0
 11
-26.73038085127794
 21
-52.08847405547841
 31
0.0
100
AcDbAttribute
  2
AUTOATTR0
 70
     0
 74
     1
  0
SEQEND
  5
EE
330
EC
100
AcDbEntity
  8
0
  6
Continuous
 62
     7
  0
HATCH
  5
EF
330
1F
100
AcDbEntity
  8
중심선
100
AcDbHatch
 10
0.0
 20
0.0
 30
0.0
210
0.0
220
0.0
230
1.0
  2
SOLID
 70
     1
 71
     0
 91
        1
 92
        0
 93
        4
 72
     1
 10
-9.96445119471262
 20
-35.8
 11
-13.4107264385499
 21
-35.8
 72
     1
 10
-13.4107264385499
 20
-35.8
 11
-15.53895629775393
 21
-38.33632558057259
 72
     1
 10
-15.53895629775393
 20
-38.33632558057259
 11
-12.09264796880349
 21
-38.3362861512701
 72
     1
 10
-12.09264796880349
 20
-38.3362861512701
 11
-9.96445119471262
 21
-35.8
 97
        0
 75
     0
 76
     1
 98
        1
 10
0.0
 20
0.0
  0
HATCH
  5
F0
330
1F
100
AcDbEntity
  8
중심선
100
AcDbHatch
 10
0.0
 20
0.0
 30
0.0
210
0.0
220
0.0
230
1.0
  2
SOLID
 70
     1
 71
     0
 91
        1
 92
        0
 93
        4
 72
     1
 10
-4.951687203676669
 20
-35.8
 11
-8.397962447513951
 21
-35.8
 72
     1
 10
-8.397962447513951
 20
-35.8
 11
-12.92910045587134
 21
-41.20000000000002
 72
     1
 10
-12.92910045587134
 20
-41.20000000000002
 11
-9.482825212034058
 21
-41.20000000000002
 72
     1
 10
-9.482825212034058
 20
-41.20000000000002
 11
-4.951687203676669
 21
-35.8
 97
        0
 75
     0
 76
     1
 98
        1
 10
0.0
 20
0.0
  0
HATCH
  5
F1
330
1F
100
AcDbEntity
  8
중심선
100
AcDbHatch
 10
0.0
 20
0.0
 30
0.0
210
0.0
220
0.0
230
1.0
  2
SOLID
 70
     1
 71
     0
 91
        1
 92
        0
 93
        4
 72
     1
 10
0.0610767873592266
 20
-35.80000000000003
 11
-3.385198456477889
 21
-35.8
 72
     1
 10
-3.385198456477889
 20
-35.8
 11
-10.43363535836714
 21
-44.20000000000002
 72
     1
 10
-10.43363535836714
 20
-44.20000000000002
 11
-6.987360114529856
 21
-44.20000000000002
 72
     1
 10
-6.987360114529856
 20
-44.20000000000002
 11
0.0610767873592266
 21
-35.80000000000003
 97
        0
 75
     0
 76
     1
 98
        1
 10
0.0
 20
0.0
  0
HATCH
  5
F2
330
1F
100
AcDbEntity
  8
중심선
100
AcDbHatch
 10
0.0
 20
0.0
 30
0.0
210
0.0
220
0.0
230
1.0
  2
SOLID
 70
     1
 71
     0
 91
        1
 92
        0
 93
        6
 72
     3
 10
4.860967218371426
 20
-40.00000000005127
 11
3.960054785062284
 21
1.540850780301639E-10
 40
0.3939339440162633
 50
17.09539180608434
 51
320.0019657685079
 73
     0
 72
     1
 10
6.543966874072021
 20
-38.5878940046383
 11
8.84926874777306
 21
-36.65356729459038
 72
     3
 10
4.86096721831858
 20
-40.00000000000015
 11
6.600054785286829
 21
-1.249000902703301E-13
 40
0.6363583540795982
 50
39.99873849337408
 51
368.4976242363724
 73
     1
 72
     1
 10
11.28629971021919
 20
-39.03999999993002
 11
3.541034525154502
 21
-39.03999999992999
 72
     1
 10
3.541034525154502
 20
-39.03999999992999
 11
3.541009480708568
 21
-40.95999999992991
 72
     1
 10
3.541009480708568
 20
-40.95999999992991
 11
7.982389250180605
 21
-40.95999999992988
 97
        0
 75
     0
 76
     1
 98
        1
 10
0.0
 20
0.0
  0
POINT
  5
F3
330
1F
100
AcDbEntity
  8
치수문자_일반주서
100
AcDbPoint
 10
0.0000000000000139
 20
-0.0000000000000035
 30
0.0
  0
DIMENSION
  5
F4
330
1F
100
AcDbEntity
  8
치수문자_일반주서
100
AcDbDimension
  2
_D
 10
49.05000000000001
 20
46.63099845446576
 30
0.0
 11
1.257940153509092
 21
46.63099845446576
 31
0.0
 70
   160
  1
<>
 71
     2
 42
101.6
  3
SLDDIMSTYLE0
100
AcDbAlignedDimension
 13
-52.54999999999998
 23
11.93962197475588
 33
0.0
 14
49.05000000000001
 24
12.01796718084942
 34
0.0
 50
-0.000000000000004
100
AcDbRotatedDimension
1001
ACAD
1000
DSTYLE
1002
{
1070
   273
1070
     7
1002
}
  0
DIMENSION
  5
108
330
1F
100
AcDbEntity
  8
치수문자_일반주서
100
AcDbDimension
  2
_D_1
 10
62.99533187637059
 20
-12.96037199912058
 30
0.0
 11
62.99533187637055
 21
-0.2603780252441171
 31
0.0
 70
   160
  1
%%c<>
 71
     2
 42
25.39999397387652
  3
SLDDIMSTYLE1
100
AcDbAlignedDimension
 13
47.89637552142949
 23
12.43962197475588
 33
0.0
 14
47.89637552142958
 24
-12.96037199912063
 34
0.0
 50
90.0000000000002
100
AcDbRotatedDimension
1001
ACAD
1000
DSTYLE
1002
{
1070
   273
1070
     7
1002
}
  0
DIMENSION
  5
11D
330
1F
100
AcDbEntity
  8
치수문자_일반주서
100
AcDbDimension
  2
_D_2
 10
10.95
 20
31.87497242533448
 30
0.0
 11
29.59763753669839
 21
31.87497242533448
 31
0.0
 70
   160
  1
<>
 71
     2
 42
38.10000000000001
  3
SLDDIMSTYLE0
100
AcDbAlignedDimension
 13
49.05000000000001
 23
11.67762197475588
 33
0.0
 14
10.95
 24
-12.61900128490718
 34
0.0
 50
0.0000000000000053
100
AcDbRotatedDimension
1001
ACAD
1000
DSTYLE
1002
{
1070
   273
1070
     7
1002
}
  0
DIMENSION
  5
130
330
1F
100
AcDbEntity
  8
치수문자_일반주서
100
AcDbDimension
  2
_D_3
 10
-65.54999999999995
 20
-12.96037802524416
 30
0.0
 11
-65.55
 21
-0.2603780252442167
 31
0.0
 70
   160
  1
%%c<>
 71
     2
 42
25.4
  3
SLDDIMSTYLE1
100
AcDbAlignedDimension
 13
-52.04999999999998
 23
12.43962197475588
 33
0.0
 14
-52.04999999999998
 24
-12.96037802524412
 34
0.0
 50
90.0000000000002
100
AcDbRotatedDimension
1001
ACAD
1000
DSTYLE
1002
{
1070
   273
1070
     7
1002
}
  0
INSERT
  5
14A
330
1F
100
AcDbEntity
  8
외형선
100
AcDbBlockReference
  2
SW_DOWELSYMBOL_0
 10
0.0000000000000139
 20
-0.0000000000000035
 30
0.0
  0
ARC
  5
172
330
1F
100
AcDbEntity
  8
0
  6
Continuous
 62
     1
370
    15
100
AcDbCircle
 10
48.28800000000001
 20
11.67762197475588
 30
0.0
 40
0.7619999999999998
100
AcDbArc
 50
0.0
 51
90.0
  0
DIMENSION
  5
173
330
1F
100
AcDbEntity
  8
치수문자_일반주서
100
AcDbDimension
  2
*D7
 10
48.28800000000001
 20
11.67762197475588
 30
0.0
 11
63.2759721467982
 21
32.90907100187572
 31
0.0
 70
   164
  1
<>
 71
     5
 42
0.7620000000000008
  3
SLDDIMSTYLE0
100
AcDbRadialDimension
 15
48.72745347603593
 25
12.3001367475926
 35
0.0
 40
0.0
1001
ACAD
1000
DSTYLE
1002
{
1070
   273
1070
     2
1002
}
1001
ACAD_DSTYLE_DIMRADIAL_EXTENSION
1070
   387
1070
     1
1070
   388
1040
0.0
1070
   390
1040
1.570796326794897
  0
ARC
  5
182
330
1F
100
AcDbEntity
  8
0
  6
Continuous
 62
     1
370
    15
100
AcDbCircle
 10
48.28800000000001
 20
-12.19837802524412
 30
0.0
 40
0.7619999999999998
100
AcDbArc
 50
269.7721340443431
 51
0.0
  0
LINE
  5
235
330
1F
100
AcDbEntity
  8
0
  6
Continuous
 62
     4
370
    15
100
AcDbLine
 10
-37.94499999999999
 20
12.43962197475589
 30
0.0
 11
-32.03632499999986
 21
12.43962197475589
 31
0.0
  0
LINE
  5
236
330
1F
100
AcDbEntity
  8
0
  6
Continuous
 62
     4
370
    15
100
AcDbLine
 10
-30.13132499999989
 20
10.53462197475589
 30
0.0
 11
-17.024925
 21
10.53462197475589
 31
0.0
  0
LINE
  5
237
330
1F
100
AcDbEntity
  8
0
  6
Continuous
 62
     4
370
    15
100
AcDbLine
 10
-30.13132499999989
 20
10.5346219747559
 30
0.0
 11
-32.03632499999986
 21
12.43962197475589
 31
0.0
  0
LINE
  5
238
330
1F
100
AcDbEntity
  8
0
  6
Continuous
 62
     4
370
    15
100
AcDbLine
 10
-17.024925
 20
10.5346219747559
 30
0.0
 11
-15.11992499999997
 21
12.43962197475589
 31
0.0
  0
LINE
  5
239
330
1F
100
AcDbEntity
  8
0
  6
Continuous
 62
     4
370
    15
100
AcDbLine
 10
-52.54999999999998
 20
10.53462197475589
 30
0.0
 11
-39.84999999999997
 21
10.53462197475589
 31
0.0
  0
LINE
  5
23A
330
1F
100
AcDbEntity
  8
0
  6
Continuous
 62
     4
370
    15
100
AcDbLine
 10
-39.84999999999997
 20
10.5346219747559
 30
0.0
 11
-37.94499999999999
 21
12.43962197475588
 31
0.0
  0
ENDSEC
  0
SECTION
  2
OBJECTS
  0
DICTIONARY
  5
C
330
0
100
AcDbDictionary
281
     1
  3
ACAD_GROUP
350
D
  3
ACAD_IMAGE_VARS
350
16E
  3
ACAD_LAYOUT
350
1A
  3
ACAD_MLINESTYLE
350
17
  3
ACAD_PLOTSETTINGS
350
19
  3
ACAD_PLOTSTYLENAME
350
E
  3
ACAD_SCALELIST
350
47
  3
APPDATA
350
16C
  3
DWGPROPS
350
260
  0
DICTIONARY
  5
1F6
330
2
100
AcDbDictionary
280
     1
281
     1
  3
ACAD_LAYERSTATES
360
1F7
  0
DICTIONARY
  5
25E
330
1F
100
AcDbDictionary
280
     1
281
     1
  3
DIM_BOUNDING_BOXES_V1
360
25F
  0
DICTIONARY
  5
D
102
{ACAD_REACTORS
330
C
102
}
330
C
100
AcDbDictionary
281
     1
  0
RASTERVARIABLES
  5
16E
102
{ACAD_REACTORS
330
C
102
}
330
C
100
AcDbRasterVariables
 90
        0
 70
     1
 71
     1
 72
     1
  0
DICTIONARY
  5
1A
102
{ACAD_REACTORS
330
C
102
}
330
C
100
AcDbDictionary
281
     1
  3
Layout1
350
1E
  3
Layout2
350
26
  3
Model
350
22
  0
DICTIONARY
  5
17
102
{ACAD_REACTORS
330
C
102
}
330
C
100
AcDbDictionary
281
     1
  3
Standard
350
18
  0
DICTIONARY
  5
19
102
{ACAD_REACTORS
330
C
102
}
330
C
100
AcDbDictionary
281
     1
  0
ACDBDICTIONARYWDFLT
  5
E
102
{ACAD_REACTORS
330
C
102
}
330
C
100
AcDbDictionary
281
     1
  3
Normal
350
F
100
AcDbDictionaryWithDefault
340
F
  0
DICTIONARY
  5
47
102
{ACAD_REACTORS
330
C
102
}
330
C
100
AcDbDictionary
281
     1
  3
A0
350
48
  3
A1
350
49
  3
A2
350
4A
  3
A3
350
4B
  3
A4
350
4C
  3
A5
350
4D
  3
A6
350
4E
  3
A7
350
4F
  3
A8
350
50
  3
A9
350
51
  3
B0
350
52
  3
B1
350
53
  3
B2
350
54
  3
B3
350
55
  3
B4
350
56
  3
B5
350
57
  3
B6
350
58
  3
B7
350
59
  3
B8
350
5A
  3
B9
350
5B
  3
C0
350
5C
  3
C1
350
5D
  3
C2
350
5E
  3
C3
350
5F
  3
C4
350
60
  3
C5
350
61
  3
C6
350
62
  3
C7
350
63
  3
C8
350
64
  3
C9
350
65
  3
D0
350
66
  3
D1
350
67
  3
D2
350
68
  0
DICTIONARY
  5
16C
102
{ACAD_REACTORS
330
C
102
}
330
C
100
AcDbDictionary
281
     1
  0
XRECORD
  5
260
102
{ACAD_REACTORS
330
C
102
}
330
C
100
AcDbXrecord
280
     1
  1
DWGPROPS COOKIE
  2

  3

  4

  6

  7

  8
12015018
  9

300
=
301
=
302
=
303
=
304
=
305
=
306
=
307
=
308
=
309
=
 40
0.0
 41
2458236.35233257
 42
2459697.055429734
  1

 90
        0
  0
DICTIONARY
  5
1F7
102
{ACAD_REACTORS
330
1F6
102
}
330
1F6
100
AcDbDictionary
281
     1
  0
DICTIONARY
  5
25F
102
{ACAD_REACTORS
330
25E
102
}
330
25E
100
AcDbDictionary
281
     1
  0
LAYOUT
  5
1E
102
{ACAD_REACTORS
330
1A
102
}
330
1A
100
AcDbPlotSettings
  1

  2
none_device
  4

  6

 40
0.0
 41
0.0
 42
0.0
 43
0.0
 44
0.0
 45
0.0
 46
0.0
 47
0.0
 48
0.0
 49
0.0
140
0.0
141
0.0
142
1.0
143
1.0
 70
   688
 72
     1
 73
     0
 74
     5
  7

 75
    16
147
1.0
148
0.0
149
0.0
100
AcDbLayout
  1
Layout1
 70
     1
 71
     1
 10
0.0
 20
0.0
 11
420.0
 21
297.0
 12
0.0
 22
0.0
 32
0.0
 14
1.000000000000000E+20
 24
1.000000000000000E+20
 34
1.000000000000000E+20
 15
-1.000000000000000E+20
 25
-1.000000000000000E+20
 35
-1.000000000000000E+20
146
0.0
 13
0.0
 23
0.0
 33
0.0
 16
1.0
 26
0.0
 36
0.0
 17
0.0
 27
1.0
 37
0.0
 76
     0
330
1B
  0
LAYOUT
  5
26
102
{ACAD_REACTORS
330
1A
102
}
330
1A
100
AcDbPlotSettings
  1

  2
none_device
  4

  6

 40
0.0
 41
0.0
 42
0.0
 43
0.0
 44
0.0
 45
0.0
 46
0.0
 47
0.0
 48
0.0
 49
0.0
140
0.0
141
0.0
142
1.0
143
1.0
 70
   688
 72
     1
 73
     0
 74
     5
  7

 75
    16
147
1.0
148
0.0
149
0.0
100
AcDbLayout
  1
Layout2
 70
     1
 71
     2
 10
0.0
 20
0.0
 11
0.0
 21
0.0
 12
0.0
 22
0.0
 32
0.0
 14
0.0
 24
0.0
 34
0.0
 15
0.0
 25
0.0
 35
0.0
146
0.0
 13
0.0
 23
0.0
 33
0.0
 16
1.0
 26
0.0
 36
0.0
 17
0.0
 27
1.0
 37
0.0
 76
     0
330
23
  0
LAYOUT
  5
22
102
{ACAD_REACTORS
330
1A
102
}
330
1A
100
AcDbPlotSettings
  1

  2
none_device
  4
ANSI_A_(11.00_x_8.50_Inches)
  6

 40
6.35
 41
19.05
 42
6.35000508
 43
19.05000254
 44
279.4
 45
215.9
 46
145.5184805962889
 47
82.28917403205783
 48
0.0
 49
0.0
140
0.0
141
0.0
142
0.077598251546995
143
1.0
 70
  1696
 72
     0
 73
     0
 74
     0
  7

 75
     0
147
0.0235690232323232
148
0.0
149
0.0
100
AcDbLayout
  1
Model
 70
     1
 71
     0
 10
0.0
 20
0.0
 11
420.0
 21
297.0
 12
0.0
 22
0.0
 32
0.0
 14
-69.92500000000003
 24
-49.97180738881174
 34
0.0
 15
70.8452987517475
 25
51.00599845446575
 35
0.0
146
0.0
 13
0.0
 23
0.0
 33
0.0
 16
1.0
 26
0.0
 36
0.0
 17
0.0
 27
1.0
 37
0.0
 76
     0
330
1F
331
29
  0
MLINESTYLE
  5
18
102
{ACAD_REACTORS
330
17
102
}
330
17
100
AcDbMlineStyle
  2
Standard
 70
     0
  3

 62
   256
 51
90.0
 52
90.0
 71
     2
 49
0.5
 62
   256
  6
BYLAYER
 49
-0.5
 62
   256
  6
BYLAYER
  0
ACDBPLACEHOLDER
  5
F
102
{ACAD_REACTORS
330
E
102
}
330
E
  0
SCALE
  5
48
102
{ACAD_REACTORS
330
47
102
}
330
47
100
AcDbScale
 70
     0
300
1:1
140
1.0
141
1.0
290
     1
  0
SCALE
  5
49
102
{ACAD_REACTORS
330
47
102
}
330
47
100
AcDbScale
 70
     0
300
1:2
140
1.0
141
2.0
290
     0
  0
SCALE
  5
4A
102
{ACAD_REACTORS
330
47
102
}
330
47
100
AcDbScale
 70
     0
300
1:4
140
1.0
141
4.0
290
     0
  0
SCALE
  5
4B
102
{ACAD_REACTORS
330
47
102
}
330
47
100
AcDbScale
 70
     0
300
1:5
140
1.0
141
5.0
290
     0
  0
SCALE
  5
4C
102
{ACAD_REACTORS
330
47
102
}
330
47
100
AcDbScale
 70
     0
300
1:8
140
1.0
141
8.0
290
     0
  0
SCALE
  5
4D
102
{ACAD_REACTORS
330
47
102
}
330
47
100
AcDbScale
 70
     0
300
1:10
140
1.0
141
10.0
290
     0
  0
SCALE
  5
4E
102
{ACAD_REACTORS
330
47
102
}
330
47
100
AcDbScale
 70
     0
300
1:16
140
1.0
141
16.0
290
     0
  0
SCALE
  5
4F
102
{ACAD_REACTORS
330
47
102
}
330
47
100
AcDbScale
 70
     0
300
1:20
140
1.0
141
20.0
290
     0
  0
SCALE
  5
50
102
{ACAD_REACTORS
330
47
102
}
330
47
100
AcDbScale
 70
     0
300
1:30
140
1.0
141
30.0
290
     0
  0
SCALE
  5
51
102
{ACAD_REACTORS
330
47
102
}
330
47
100
AcDbScale
 70
     0
300
1:40
140
1.0
141
40.0
290
     0
  0
SCALE
  5
52
102
{ACAD_REACTORS
330
47
102
}
330
47
100
AcDbScale
 70
     0
300
1:50
140
1.0
141
50.0
290
     0
  0
SCALE
  5
53
102
{ACAD_REACTORS
330
47
102
}
330
47
100
AcDbScale
 70
     0
300
1:100
140
1.0
141
100.0
290
     0
  0
SCALE
  5
54
102
{ACAD_REACTORS
330
47
102
}
330
47
100
AcDbScale
 70
     0
300
2:1
140
2.0
141
1.0
290
     0
  0
SCALE
  5
55
102
{ACAD_REACTORS
330
47
102
}
330
47
100
AcDbScale
 70
     0
300
4:1
140
4.0
141
1.0
290
     0
  0
SCALE
  5
56
102
{ACAD_REACTORS
330
47
102
}
330
47
100
AcDbScale
 70
     0
300
8:1
140
8.0
141
1.0
290
     0
  0
SCALE
  5
57
102
{ACAD_REACTORS
330
47
102
}
330
47
100
AcDbScale
 70
     0
300
10:1
140
10.0
141
1.0
290
     0
  0
SCALE
  5
58
102
{ACAD_REACTORS
330
47
102
}
330
47
100
AcDbScale
 70
     0
300
100:1
140
100.0
141
1.0
290
     0
  0
SCALE
  5
59
102
{ACAD_REACTORS
330
47
102
}
330
47
100
AcDbScale
 70
     0
300
1/128" = 1'-0"
140
0.0078125
141
12.0
290
     0
  0
SCALE
  5
5A
102
{ACAD_REACTORS
330
47
102
}
330
47
100
AcDbScale
 70
     0
300
1/64" = 1'-0"
140
0.015625
141
12.0
290
     0
  0
SCALE
  5
5B
102
{ACAD_REACTORS
330
47
102
}
330
47
100
AcDbScale
 70
     0
300
1/32" = 1'-0"
140
0.03125
141
12.0
290
     0
  0
SCALE
  5
5C
102
{ACAD_REACTORS
330
47
102
}
330
47
100
AcDbScale
 70
     0
300
1/16" = 1'-0"
140
0.0625
141
12.0
290
     0
  0
SCALE
  5
5D
102
{ACAD_REACTORS
330
47
102
}
330
47
100
AcDbScale
 70
     0
300
3/32" = 1'-0"
140
0.09375
141
12.0
290
     0
  0
SCALE
  5
5E
102
{ACAD_REACTORS
330
47
102
}
330
47
100
AcDbScale
 70
     0
300
1/8" = 1'-0"
140
0.125
141
12.0
290
     0
  0
SCALE
  5
5F
102
{ACAD_REACTORS
330
47
102
}
330
47
100
AcDbScale
 70
     0
300
3/16" = 1'-0"
140
0.1875
141
12.0
290
     0
  0
SCALE
  5
60
102
{ACAD_REACTORS
330
47
102
}
330
47
100
AcDbScale
 70
     0
300
1/4" = 1'-0"
140
0.25
141
12.0
290
     0
  0
SCALE
  5
61
102
{ACAD_REACTORS
330
47
102
}
330
47
100
AcDbScale
 70
     0
300
3/8" = 1'-0"
140
0.375
141
12.0
290
     0
  0
SCALE
  5
62
102
{ACAD_REACTORS
330
47
102
}
330
47
100
AcDbScale
 70
     0
300
1/2" = 1'-0"
140
0.5
141
12.0
290
     0
  0
SCALE
  5
63
102
{ACAD_REACTORS
330
47
102
}
330
47
100
AcDbScale
 70
     0
300
3/4" = 1'-0"
140
0.75
141
12.0
290
     0
  0
SCALE
  5
64
102
{ACAD_REACTORS
330
47
102
}
330
47
100
AcDbScale
 70
     0
300
1" = 1'-0"
140
1.0
141
12.0
290
     0
  0
SCALE
  5
65
102
{ACAD_REACTORS
330
47
102
}
330
47
100
AcDbScale
 70
     0
300
1-1/2" = 1'-0"
140
1.5
141
12.0
290
     0
  0
SCALE
  5
66
102
{ACAD_REACTORS
330
47
102
}
330
47
100
AcDbScale
 70
     0
300
3" = 1'-0"
140
3.0
141
12.0
290
     0
  0
SCALE
  5
67
102
{ACAD_REACTORS
330
47
102
}
330
47
100
AcDbScale
 70
     0
300
6" = 1'-0"
140
6.0
141
12.0
290
     0
  0
SCALE
  5
68
102
{ACAD_REACTORS
330
47
102
}
330
47
100
AcDbScale
 70
     0
300
1'-0" = 1'-0"
140
12.0
141
12.0
290
     0
  0
ENDSEC
  0
EOF
