  0
SECTION
  2
HEADER
  9
$ACADVER
  1
AC1015
  9
$ACADMAINTVER
 70
     6
  9
$DWGCODEPAGE
  3
ANSI_949
  9
$INSBASE
 10
0.0
 20
0.0
 30
0.0
  9
$EXTMIN
 10
-63.57500000000005
 20
-49.97180738881174
 30
0.0
  9
$EXTMAX
 10
68.0340055564503
 20
46.24349845446576
 30
0.0
  9
$LIMMIN
 10
0.0
 20
0.0
  9
$LIMMAX
 10
420.0
 20
297.0
  9
$ORTHOMODE
 70
     1
  9
$REGENMODE
 70
     1
  9
$FILLMODE
 70
     1
  9
$QTEXTMODE
 70
     0
  9
$MIRRTEXT
 70
     1
  9
$LTSCALE
 40
1.0
  9
$ATTMODE
 70
     1
  9
$TEXTSIZE
 40
3.5
  9
$TRACEWID
 40
1.0
  9
$TEXTSTYLE
  7
Standard
  9
$CLAYER
  8
0
  9
$CELTYPE
  6
ByLayer
  9
$CECOLOR
 62
   256
  9
$CELTSCALE
 40
1.0
  9
$DISPSILH
 70
     0
  9
$DIMSCALE
 40
1.0
  9
$DIMASZ
 40
3.302
  9
$DIMEXO
 40
1.0
  9
$DIMDLI
 40
3.75
  9
$DIMRND
 40
0.0
  9
$DIMDLE
 40
0.0
  9
$DIMEXE
 40
1.0
  9
$DIMTP
 40
0.0
  9
$DIMTM
 40
0.0
  9
$DIMTXT
 40
3.5
  9
$DIMCEN
 40
2.5
  9
$DIMTSZ
 40
0.0
  9
$DIMTOL
 70
     0
  9
$DIMLIM
 70
     0
  9
$DIMTIH
 70
     1
  9
$DIMTOH
 70
     1
  9
$DIMSE1
 70
     0
  9
$DIMSE2
 70
     0
  9
$DIMTAD
 70
     1
  9
$DIMZIN
 70
     0
  9
$DIMBLK
  1

  9
$DIMASO
 70
     1
  9
$DIMSHO
 70
     1
  9
$DIMPOST
  1

  9
$DIMAPOST
  1

  9
$DIMALT
 70
     0
  9
$DIMALTD
 70
     3
  9
$DIMALTF
 40
0.0393700787401575
  9
$DIMLFAC
 40
1.0
  9
$DIMTOFL
 70
     1
  9
$DIMTVP
 40
0.0
  9
$DIMTIX
 70
     0
  9
$DIMSOXD
 70
     0
  9
$DIMSAH
 70
     0
  9
$DIMBLK1
  1

  9
$DIMBLK2
  1

  9
$DIMSTYLE
  2
ISO-25
  9
$DIMCLRD
 70
     0
  9
$DIMCLRE
 70
     0
  9
$DIMCLRT
 70
     0
  9
$DIMTFAC
 40
1.0
  9
$DIMGAP
 40
1.524
  9
$DIMJUST
 70
     0
  9
$DIMSD1
 70
     0
  9
$DIMSD2
 70
     0
  9
$DIMTOLJ
 70
     0
  9
$DIMTZIN
 70
     0
  9
$DIMALTZ
 70
     0
  9
$DIMALTTZ
 70
     0
  9
$DIMUPT
 70
     0
  9
$DIMDEC
 70
     2
  9
$DIMTDEC
 70
     2
  9
$DIMALTU
 70
     2
  9
$DIMALTTD
 70
     3
  9
$DIMTXSTY
  7
Standard
  9
$DIMAUNIT
 70
     0
  9
$DIMADEC
 70
     2
  9
$DIMALTRND
 40
0.0
  9
$DIMAZIN
 70
     0
  9
$DIMDSEP
 70
    44
  9
$DIMATFIT
 70
     3
  9
$DIMFRAC
 70
     0
  9
$DIMLDRBLK
  1

  9
$DIMLUNIT
 70
     2
  9
$DIMLWD
 70
    -2
  9
$DIMLWE
 70
    -2
  9
$DIMTMOVE
 70
     0
  9
$LUNITS
 70
     2
  9
$LUPREC
 70
     2
  9
$SKETCHINC
 40
1.0
  9
$FILLETRAD
 40
10.0
  9
$AUNITS
 70
     0
  9
$AUPREC
 70
     2
  9
$MENU
  1
.
  9
$ELEVATION
 40
0.0
  9
$PELEVATION
 40
0.0
  9
$THICKNESS
 40
0.0
  9
$LIMCHECK
 70
     0
  9
$CHAMFERA
 40
0.0
  9
$CHAMFERB
 40
0.0
  9
$CHAMFERC
 40
0.0
  9
$CHAMFERD
 40
0.0
  9
$SKPOLY
 70
     0
  9
$TDCREATE
 40
2458236.726894595
  9
$TDUCREATE
 40
2458236.351894595
  9
$TDUPDATE
 40
2459697.430033345
  9
$TDUUPDATE
 40
2459697.055033345
  9
$TDINDWG
 40
0.0020951389
  9
$TDUSRTIMER
 40
0.0001254398
  9
$USRTIMER
 70
     1
  9
$ANGBASE
 50
0.0
  9
$ANGDIR
 70
     0
  9
$PDMODE
 70
     0
  9
$PDSIZE
 40
-1.0
  9
$PLINEWID
 40
0.0
  9
$SPLFRAME
 70
     0
  9
$SPLINETYPE
 70
     6
  9
$SPLINESEGS
 70
     8
  9
$HANDSEED
  5
29C
  9
$SURFTAB1
 70
     6
  9
$SURFTAB2
 70
     6
  9
$SURFTYPE
 70
     6
  9
$SURFU
 70
     6
  9
$SURFV
 70
     6
  9
$UCSBASE
  2

  9
$UCSNAME
  2

  9
$UCSORG
 10
0.0
 20
0.0
 30
0.0
  9
$UCSXDIR
 10
1.0
 20
0.0
 30
0.0
  9
$UCSYDIR
 10
0.0
 20
1.0
 30
0.0
  9
$UCSORTHOREF
  2

  9
$UCSORTHOVIEW
 70
     0
  9
$UCSORGTOP
 10
0.0
 20
0.0
 30
0.0
  9
$UCSORGBOTTOM
 10
0.0
 20
0.0
 30
0.0
  9
$UCSORGLEFT
 10
0.0
 20
0.0
 30
0.0
  9
$UCSORGRIGHT
 10
0.0
 20
0.0
 30
0.0
  9
$UCSORGFRONT
 10
0.0
 20
0.0
 30
0.0
  9
$UCSORGBACK
 10
0.0
 20
0.0
 30
0.0
  9
$PUCSBASE
  2

  9
$PUCSNAME
  2

  9
$PUCSORG
 10
0.0
 20
0.0
 30
0.0
  9
$PUCSXDIR
 10
1.0
 20
0.0
 30
0.0
  9
$PUCSYDIR
 10
0.0
 20
1.0
 30
0.0
  9
$PUCSORTHOREF
  2

  9
$PUCSORTHOVIEW
 70
     0
  9
$PUCSORGTOP
 10
0.0
 20
0.0
 30
0.0
  9
$PUCSORGBOTTOM
 10
0.0
 20
0.0
 30
0.0
  9
$PUCSORGLEFT
 10
0.0
 20
0.0
 30
0.0
  9
$PUCSORGRIGHT
 10
0.0
 20
0.0
 30
0.0
  9
$PUCSORGFRONT
 10
0.0
 20
0.0
 30
0.0
  9
$PUCSORGBACK
 10
0.0
 20
0.0
 30
0.0
  9
$USERI1
 70
     0
  9
$USERI2
 70
     0
  9
$USERI3
 70
     0
  9
$USERI4
 70
     0
  9
$USERI5
 70
     0
  9
$USERR1
 40
0.0
  9
$USERR2
 40
0.0
  9
$USERR3
 40
0.0
  9
$USERR4
 40
0.0
  9
$USERR5
 40
0.0
  9
$WORLDVIEW
 70
     1
  9
$SHADEDGE
 70
     3
  9
$SHADEDIF
 70
    70
  9
$TILEMODE
 70
     1
  9
$MAXACTVP
 70
    64
  9
$PINSBASE
 10
0.0
 20
0.0
 30
0.0
  9
$PLIMCHECK
 70
     0
  9
$PEXTMIN
 10
1.000000000000000E+20
 20
1.000000000000000E+20
 30
1.000000000000000E+20
  9
$PEXTMAX
 10
-1.000000000000000E+20
 20
-1.000000000000000E+20
 30
-1.000000000000000E+20
  9
$PLIMMIN
 10
0.0
 20
0.0
  9
$PLIMMAX
 10
0.0
 20
0.0
  9
$UNITMODE
 70
     0
  9
$VISRETAIN
 70
     1
  9
$PLINEGEN
 70
     0
  9
$PSLTSCALE
 70
     1
  9
$TREEDEPTH
 70
  3020
  9
$CMLSTYLE
  2
Standard
  9
$CMLJUST
 70
     0
  9
$CMLSCALE
 40
20.0
  9
$PROXYGRAPHICS
 70
     1
  9
$MEASUREMENT
 70
     1
  9
$CELWEIGHT
370
    -1
  9
$ENDCAPS
280
     0
  9
$JOINSTYLE
280
     0
  9
$LWDISPLAY
290
     1
  9
$INSUNITS
 70
     4
  9
$HYPERLINKBASE
  1

  9
$STYLESHEET
  1

  9
$XEDIT
290
     1
  9
$CEPSNTYPE
380
     0
  9
$PSTYLEMODE
290
     1
  9
$FINGERPRINTGUID
  2
{1C47111A-764B-4FF3-98FF-34113F1B4252}
  9
$VERSIONGUID
  2
{FAEB1C32-E019-11D5-929B-00C0DF256EC4}
  9
$EXTNAMES
290
     1
  9
$PSVPSCALE
 40
0.0
  9
$OLESTARTUP
290
     0
  0
ENDSEC
  0
SECTION
  2
CLASSES
  0
CLASS
  1
ACDBDICTIONARYWDFLT
  2
AcDbDictionaryWithDefault
  3
ObjectDBX Classes
 90
        0
280
     0
281
     0
  0
CLASS
  1
VISUALSTYLE
  2
AcDbVisualStyle
  3
ObjectDBX Classes
 90
     4095
280
     0
281
     0
  0
CLASS
  1
MATERIAL
  2
AcDbMaterial
  3
ObjectDBX Classes
 90
     1153
280
     0
281
     0
  0
CLASS
  1
SCALE
  2
AcDbScale
  3
ObjectDBX Classes
 90
     1153
280
     0
281
     0
  0
CLASS
  1
SUN
  2
AcDbSun
  3
SCENEOE
 90
     1153
280
     0
281
     0
  0
CLASS
  1
ACDBPLACEHOLDER
  2
AcDbPlaceHolder
  3
ObjectDBX Classes
 90
        0
280
     0
281
     0
  0
CLASS
  1
LAYOUT
  2
AcDbLayout
  3
ObjectDBX Classes
 90
        0
280
     0
281
     0
  0
CLASS
  1
TABLESTYLE
  2
AcDbTableStyle
  3
ObjectDBX Classes
 90
     4095
280
     0
281
     0
  0
CLASS
  1
MLEADERSTYLE
  2
AcDbMLeaderStyle
  3
ACDB_MLEADERSTYLE_CLASS
 90
     4095
280
     0
281
     0
  0
CLASS
  1
RASTERVARIABLES
  2
AcDbRasterVariables
  3
ISM
 90
        0
280
     0
281
     0
  0
CLASS
  1
DIMASSOC
  2
AcDbDimAssoc
  3
"AcDbDimAssoc|Product Desc:     AcDim ARX App For Dimension|Company:          Autodesk, Inc.|WEB Address:      www.autodesk.com"
 90
        0
280
     0
281
     0
  0
ENDSEC
  0
SECTION
  2
TABLES
  0
TABLE
  2
VPORT
  5
8
330
0
100
AcDbSymbolTable
 70
     1
  0
VPORT
  5
29
330
8
100
AcDbSymbolTableRecord
100
AcDbViewportTableRecord
  2
*Active
 70
     0
 10
0.0
 20
0.0
 11
1.0
 21
1.0
 12
2.229502778225118
 22
-1.864154467172987
 13
0.0
 23
0.0
 14
10.0
 24
10.0
 15
10.0
 25
10.0
 16
0.0
 26
0.0
 36
1.0
 17
0.0
 27
0.0
 37
0.0
 40
98.13961196014306
 41
1.89119170984456
 42
50.0
 43
0.0
 44
0.0
 50
0.0
 51
0.0
 71
    16
 72
  2000
 73
     1
 74
     3
 75
     0
 76
     0
 77
     0
 78
     0
281
     0
 65
     1
110
0.0
120
0.0
130
0.0
111
1.0
121
0.0
131
0.0
112
0.0
122
1.0
132
0.0
 79
     0
146
0.0
  0
ENDTAB
  0
TABLE
  2
LTYPE
  5
5
330
0
100
AcDbSymbolTable
 70
     6
  0
LTYPE
  5
14
330
5
100
AcDbSymbolTableRecord
100
AcDbLinetypeTableRecord
  2
ByBlock
 70
     0
  3

 72
    65
 73
     0
 40
0.0
  0
LTYPE
  5
15
330
5
100
AcDbSymbolTableRecord
100
AcDbLinetypeTableRecord
  2
ByLayer
 70
     0
  3

 72
    65
 73
     0
 40
0.0
  0
LTYPE
  5
16
330
5
100
AcDbSymbolTableRecord
100
AcDbLinetypeTableRecord
  2
Continuous
 70
     0
  3
Solid line
 72
    65
 73
     0
 40
0.0
  0
LTYPE
  5
6A
330
5
100
AcDbSymbolTableRecord
100
AcDbLinetypeTableRecord
  2
HIDDEN
 70
     0
  3
Hidden __ __ __ __ __ __ __ __ __ __ __ __ __ __
 72
    65
 73
     2
 40
1.905
 49
1.27
 74
     0
 49
-0.635
 74
     0
  0
LTYPE
  5
6B
330
5
100
AcDbSymbolTableRecord
100
AcDbLinetypeTableRecord
  2
PHANTOM
 70
     0
  3
Phantom ______  __  __  ______  __  __  ______
 72
    65
 73
     6
 40
12.7
 49
6.35
 74
     0
 49
-1.27
 74
     0
 49
1.27
 74
     0
 49
-1.27
 74
     0
 49
1.27
 74
     0
 49
-1.27
 74
     0
  0
LTYPE
  5
6C
330
5
100
AcDbSymbolTableRecord
100
AcDbLinetypeTableRecord
  2
CENTER
 70
     0
  3
Center ____ _ ____ _ ____ _ ____ _ ____ _ ____
 72
    65
 73
     4
 40
10.16
 49
6.35
 74
     0
 49
-1.27
 74
     0
 49
1.27
 74
     0
 49
-1.27
 74
     0
  0
LTYPE
  5
6D
330
5
100
AcDbSymbolTableRecord
100
AcDbLinetypeTableRecord
  2
CENTERX2
 70
     0
  3
Center (2x) ________  __  ________  __  _____
 72
    65
 73
     4
 40
20.32
 49
12.7
 74
     0
 49
-2.54
 74
     0
 49
2.54
 74
     0
 49
-2.54
 74
     0
  0
LTYPE
  5
6E
330
5
100
AcDbSymbolTableRecord
100
AcDbLinetypeTableRecord
  2
DOT2
 70
     0
  3
Dot (.5x) ........................................
 72
    65
 73
     2
 40
0.635
 49
0.0
 74
     0
 49
-0.635
 74
     0
  0
ENDTAB
  0
TABLE
  2
LAYER
  5
2
102
{ACAD_XDICTIONARY
360
1F3
102
}
330
0
100
AcDbSymbolTable
 70
    17
  0
LAYER
  5
10
330
2
100
AcDbSymbolTableRecord
100
AcDbLayerTableRecord
  2
0
 70
     0
 62
     7
  6
Continuous
370
    -3
390
F
  0
LAYER
  5
6F
330
2
100
AcDbSymbolTableRecord
100
AcDbLayerTableRecord
  2
FORMAT
 70
     0
 62
     2
  6
Continuous
370
    -3
390
F
  0
LAYER
  5
70
330
2
100
AcDbSymbolTableRecord
100
AcDbLayerTableRecord
  2
외형선
 70
     0
 62
   100
  6
Continuous
370
    30
390
F
  0
LAYER
  5
71
330
2
100
AcDbSymbolTableRecord
100
AcDbLayerTableRecord
  2
숨은선
 70
     0
 62
     2
  6
HIDDEN
370
    15
390
F
  0
LAYER
  5
72
330
2
100
AcDbSymbolTableRecord
100
AcDbLayerTableRecord
  2
중심선
 70
     0
 62
     1
  6
CENTERX2
370
    -3
390
F
  0
LAYER
  5
73
330
2
100
AcDbSymbolTableRecord
100
AcDbLayerTableRecord
  2
파단선
 70
     0
 62
     4
  6
Continuous
370
    -3
390
F
  0
LAYER
  5
74
330
2
100
AcDbSymbolTableRecord
100
AcDbLayerTableRecord
  2
해칭선
 70
     0
 62
     4
  6
Continuous
370
    -3
390
F
  0
LAYER
  5
75
330
2
100
AcDbSymbolTableRecord
100
AcDbLayerTableRecord
  2
가는실선
 70
     0
 62
     4
  6
Continuous
370
    -3
390
F
  0
LAYER
  5
76
330
2
100
AcDbSymbolTableRecord
100
AcDbLayerTableRecord
  2
치수_보조선
 70
     0
 62
     4
  6
Continuous
370
    -3
390
F
  0
LAYER
  5
77
330
2
100
AcDbSymbolTableRecord
100
AcDbLayerTableRecord
  2
치수문자_일반주서
 70
     0
 62
     7
  6
Continuous
370
    15
390
F
  0
LAYER
  5
78
330
2
100
AcDbSymbolTableRecord
100
AcDbLayerTableRecord
  2
개별주서
 70
     0
 62
   100
  6
Continuous
370
    30
390
F
  0
LAYER
  5
79
330
2
100
AcDbSymbolTableRecord
100
AcDbLayerTableRecord
  2
중간선
 70
     0
 62
     2
  6
Continuous
370
    15
390
F
  0
LAYER
  5
7A
330
2
100
AcDbSymbolTableRecord
100
AcDbLayerTableRecord
  2
윤곽선
 70
     0
 62
     3
  6
Continuous
370
    40
390
F
  0
LAYER
  5
7B
330
2
100
AcDbSymbolTableRecord
100
AcDbLayerTableRecord
  2
중심마크
 70
     0
 62
   100
  6
Continuous
370
    30
390
F
  0
LAYER
  5
7C
330
2
100
AcDbSymbolTableRecord
100
AcDbLayerTableRecord
  2
가상선
 70
     0
 62
     4
  6
PHANTOM
370
    -3
390
F
  0
LAYER
  5
7D
330
2
100
AcDbSymbolTableRecord
100
AcDbLayerTableRecord
  2
특수지정선
 70
     0
 62
     5
  6
CENTERX2
370
    60
390
F
  0
LAYER
  5
170
330
2
100
AcDbSymbolTableRecord
100
AcDbLayerTableRecord
  2
Defpoints
 70
     0
 62
     7
  6
Continuous
290
     0
370
    -3
390
F
  0
ENDTAB
  0
TABLE
  2
STYLE
  5
3
330
0
100
AcDbSymbolTable
 70
     2
  0
STYLE
  5
11
330
3
100
AcDbSymbolTableRecord
100
AcDbTextStyleTableRecord
  2
Standard
 70
     0
 40
0.0
 41
1.0
 50
0.0
 71
     0
 42
3.5
  3
txt
  4

  0
STYLE
  5
93
330
3
100
AcDbSymbolTableRecord
100
AcDbTextStyleTableRecord
  2
SLDTEXTSTYLE0
 70
     0
 40
0.0
 41
0.75
 50
0.0
 71
     0
 42
3.5
  3
TXT
  4

  0
ENDTAB
  0
TABLE
  2
VIEW
  5
6
330
0
100
AcDbSymbolTable
 70
     0
  0
ENDTAB
  0
TABLE
  2
UCS
  5
7
330
0
100
AcDbSymbolTable
 70
     0
  0
ENDTAB
  0
TABLE
  2
APPID
  5
9
330
0
100
AcDbSymbolTable
 70
     2
  0
APPID
  5
12
330
9
100
AcDbSymbolTableRecord
100
AcDbRegAppTableRecord
  2
ACAD
 70
     0
  0
APPID
  5
174
330
9
100
AcDbSymbolTableRecord
100
AcDbRegAppTableRecord
  2
ACAD_DSTYLE_DIMRADIAL_EXTENSION
 70
     0
  0
ENDTAB
  0
TABLE
  2
DIMSTYLE
  5
A
330
0
100
AcDbSymbolTable
 70
     5
100
AcDbDimStyleTable
  0
DIMSTYLE
105
27
330
A
100
AcDbSymbolTableRecord
100
AcDbDimStyleTableRecord
  2
ISO-25
 70
     0
 41
2.5
 42
0.625
 43
3.75
 44
1.25
 73
     0
 74
     0
 77
     1
 78
     8
140
2.5
141
2.5
143
0.03937007874016
147
0.625
171
     3
172
     1
178
     0
271
     2
272
     2
274
     3
278
    44
283
     0
284
     8
340
11
  0
DIMSTYLE
105
F4
330
A
100
AcDbSymbolTableRecord
100
AcDbDimStyleTableRecord
  2
SLDDIMSTYLE0
 70
     0
 41
3.302
 44
0.0
 45
0.000000001
 73
     0
 74
     0
 77
     1
 78
     4
 79
     1
140
3.5
143
0.0393700787401575
147
0.875
148
0.000000001
170
     1
173
     1
178
     0
271
     2
272
     2
276
     2
284
    12
340
93
  0
DIMSTYLE
105
108
330
A
100
AcDbSymbolTableRecord
100
AcDbDimStyleTableRecord
  2
SLDDIMSTYLE1
 70
     0
 41
3.302
 44
0.0
 45
0.000000001
 73
     0
 74
     0
 77
     1
 78
     4
 79
     1
140
3.5
143
0.0393700787401575
147
0.875
148
0.000000001
170
     1
172
     1
173
     1
178
     0
271
     2
272
     2
276
     2
284
    12
289
     0
340
93
  0
DIMSTYLE
105
11D
330
A
100
AcDbSymbolTableRecord
100
AcDbDimStyleTableRecord
  2
SLDDIMSTYLE2
 70
     0
 41
3.302
 44
0.0
 45
0.000000001
 73
     0
 74
     0
 77
     1
 78
    12
 79
     3
140
3.5
143
0.0393700787401575
147
0.875
148
0.000000001
170
     1
173
     1
178
     0
271
     2
272
     2
276
     2
284
    12
340
93
  0
DIMSTYLE
105
131
102
{ACAD_REACTORS
330
130
330
107
330
F3
330
11C
330
175
102
}
330
A
100
AcDbSymbolTableRecord
100
AcDbDimStyleTableRecord
  2
SLDDIMSTYLE3
 70
     0
 41
3.302
 44
0.0
 45
0.000000001
 73
     0
 74
     0
 77
     1
 78
    12
 79
     3
140
3.5
143
0.0393700787401575
147
0.875
148
0.000000001
170
     1
172
     1
173
     1
178
     0
271
     2
272
     2
276
     2
284
    12
289
     0
340
93
  0
ENDTAB
  0
TABLE
  2
BLOCK_RECORD
  5
1
330
0
100
AcDbSymbolTable
 70
     8
  0
BLOCK_RECORD
  5
1F
102
{ACAD_XDICTIONARY
360
299
102
}
330
1
100
AcDbSymbolTableRecord
100
AcDbBlockTableRecord
  2
*Model_Space
340
22
  0
BLOCK_RECORD
  5
1B
330
1
100
AcDbSymbolTableRecord
100
AcDbBlockTableRecord
  2
*Paper_Space
340
1E
  0
BLOCK_RECORD
  5
23
330
1
100
AcDbSymbolTableRecord
100
AcDbBlockTableRecord
  2
*Paper_Space0
340
26
  0
BLOCK_RECORD
  5
7E
330
1
100
AcDbSymbolTableRecord
100
AcDbBlockTableRecord
  2
블럭10
340
0
102
{BLKREFS
331
EB
102
}
  0
BLOCK_RECORD
  5
F5
330
1
100
AcDbSymbolTableRecord
100
AcDbBlockTableRecord
  2
_D
340
0
  0
BLOCK_RECORD
  5
109
330
1
100
AcDbSymbolTableRecord
100
AcDbBlockTableRecord
  2
_D_1
340
0
  0
BLOCK_RECORD
  5
11E
330
1
100
AcDbSymbolTableRecord
100
AcDbBlockTableRecord
  2
_D_2
340
0
  0
BLOCK_RECORD
  5
132
330
1
100
AcDbSymbolTableRecord
100
AcDbBlockTableRecord
  2
_D_3
340
0
  0
BLOCK_RECORD
  5
145
330
1
100
AcDbSymbolTableRecord
100
AcDbBlockTableRecord
  2
SW_DOWELSYMBOL_0
340
0
102
{BLKREFS
331
14B
102
}
  0
BLOCK_RECORD
  5
178
330
1
100
AcDbSymbolTableRecord
100
AcDbBlockTableRecord
  2
*D7
340
0
  0
ENDTAB
  0
ENDSEC
  0
SECTION
  2
BLOCKS
  0
BLOCK
  5
20
330
1F
100
AcDbEntity
  8
0
100
AcDbBlockBegin
  2
*Model_Space
 70
     0
 10
0.0
 20
0.0
 30
0.0
  3
*Model_Space
  1
*Model_Space
  0
ENDBLK
  5
21
330
1F
100
AcDbEntity
  8
0
100
AcDbBlockEnd
  0
BLOCK
  5
1C
330
1B
100
AcDbEntity
 67
     1
  8
0
100
AcDbBlockBegin
  2
*Paper_Space
 70
     0
 10
0.0
 20
0.0
 30
0.0
  3
*Paper_Space
  1
*Paper_Space
  0
ENDBLK
  5
1D
330
1B
100
AcDbEntity
 67
     1
  8
0
100
AcDbBlockEnd
  0
BLOCK
  5
24
330
23
100
AcDbEntity
  8
0
100
AcDbBlockBegin
  2
*Paper_Space0
 70
     0
 10
0.0
 20
0.0
 30
0.0
  3
*Paper_Space0
  1
*Paper_Space0
  0
ENDBLK
  5
25
330
23
100
AcDbEntity
  8
0
100
AcDbBlockEnd
  0
BLOCK
  5
7F
330
7E
100
AcDbEntity
  8
0
100
AcDbBlockBegin
  2
블럭10
 70
     2
 10
0.0
 20
0.0
 30
0.0
  3
블럭10
  1
블럭10
  0
ELLIPSE
  5
81
330
7E
100
AcDbEntity
  8
중심선
100
AcDbEllipse
 10
20.54032771741204
 20
12.0471743016438
 30
0.0
 11
6.600054785286829
 21
-1.261213355974178E-13
 31
0.0
210
0.0
220
0.0
230
1.0
 40
0.636358354079598
 41
0.9219305317359503
 42
6.513795318482858
  0
ELLIPSE
  5
82
330
7E
100
AcDbEntity
  8
중심선
100
AcDbEllipse
 10
20.54032771746488
 20
12.04717430159265
 30
0.0
 11
3.960054785062283
 21
1.540847449632565E-10
 31
0.0
210
0.0
220
0.0
230
1.0
 40
0.3939339440162632
 41
1.131841032648279
 42
5.62031148352944
  0
LINE
  5
83
330
7E
100
AcDbEntity
  8
중심선
100
AcDbLine
 10
2.268634060543552
 20
16.24717430164393
 30
0.0
 11
5.714909304380834
 21
16.24717430164393
 31
0.0
  0
LINE
  5
84
330
7E
100
AcDbEntity
  8
중심선
100
AcDbLine
 10
5.245725140726316
 20
7.84717430164391
 30
0.0
 11
8.692000384563599
 21
7.84717430164391
 31
0.0
  0
LINE
  5
85
330
7E
100
AcDbEntity
  8
중심선
100
AcDbLine
 10
15.74043728645272
 20
16.24717430164393
 30
0.0
 11
8.692000384563599
 21
7.84717430164391
 31
0.0
  0
LINE
  5
86
330
7E
100
AcDbEntity
  8
중심선
100
AcDbLine
 10
0.1404042013395286
 20
13.71084872107135
 30
0.0
 11
3.58671253028996
 21
13.71088815037384
 31
0.0
  0
LINE
  5
87
330
7E
100
AcDbEntity
  8
중심선
100
AcDbLine
 10
2.750260043222114
 20
10.84717430164391
 30
0.0
 11
6.196535287059397
 21
10.84717430164391
 31
0.0
  0
LINE
  5
88
330
7E
100
AcDbEntity
  8
중심선
100
AcDbLine
 10
12.29416204261559
 20
16.24717430164393
 30
0.0
 11
5.245725140726316
 21
7.84717430164391
 31
0.0
  0
LINE
  5
89
330
7E
100
AcDbEntity
  8
중심선
100
AcDbLine
 10
10.72767329541681
 20
16.24717430164393
 30
0.0
 11
6.196535287059397
 21
10.84717430164391
 31
0.0
  0
LINE
  5
8A
330
7E
100
AcDbEntity
  8
중심선
100
AcDbLine
 10
7.28139805157953
 20
16.24717430164393
 30
0.0
 11
2.750260043222114
 21
10.84717430164391
 31
0.0
  0
LINE
  5
8B
330
7E
100
AcDbEntity
  8
중심선
100
AcDbLine
 10
5.714909304380834
 20
16.24717430164393
 30
0.0
 11
3.58671253028996
 21
13.71088815037384
 31
0.0
  0
LINE
  5
8C
330
7E
100
AcDbEntity
  8
중심선
100
AcDbLine
 10
2.268634060543552
 20
16.24717430164393
 30
0.0
 11
0.1404042013395286
 21
13.71084872107135
 31
0.0
  0
LINE
  5
8D
330
7E
100
AcDbEntity
  8
중심선
100
AcDbLine
 10
7.28139805157953
 20
16.24717430164393
 30
0.0
 11
10.72767329541681
 21
16.24717430164393
 31
0.0
  0
LINE
  5
8E
330
7E
100
AcDbEntity
  8
중심선
100
AcDbLine
 10
12.29416204261559
 20
16.24717430164393
 30
0.0
 11
15.74043728645272
 21
16.24717430164393
 31
0.0
  0
LINE
  5
8F
330
7E
100
AcDbEntity
  8
중심선
100
AcDbLine
 10
19.22036997980202
 20
11.08717430171403
 30
0.0
 11
23.66174974927406
 21
11.08717430171406
 31
0.0
  0
LINE
  5
90
330
7E
100
AcDbEntity
  8
중심선
100
AcDbLine
 10
19.22039502424796
 20
13.00717430171391
 30
0.0
 11
19.22036997980202
 21
11.08717430171403
 31
0.0
  0
LINE
  5
91
330
7E
100
AcDbEntity
  8
중심선
100
AcDbLine
 10
19.22039502424796
 20
13.00717430171391
 30
0.0
 11
26.96566020931264
 21
13.00717430171391
 31
0.0
  0
LINE
  5
92
330
7E
100
AcDbEntity
  8
중심선
100
AcDbLine
 10
22.22332737316547
 20
13.45928029700563
 30
0.0
 11
24.52862924686651
 21
15.39360700705356
 31
0.0
  0
ATTDEF
  5
94
330
7E
100
AcDbEntity
  8
FORMAT
 62
     2
100
AcDbText
 10
-11.05102035218446
 20
2.075366912832191
 30
0.0
 40
4.233333333333333
  1
GMG22040[ 6 FLUTE ]
 41
0.75
  7
SLDTEXTSTYLE0
 11
-11.05102035218446
 21
-0.0412997538344756
 31
0.0
100
AcDbAttributeDefinition
  3

  2
AUTOATTR0
 70
     0
 74
     1
  0
ENDBLK
  5
80
330
7E
100
AcDbEntity
  8
0
100
AcDbBlockEnd
  0
BLOCK
  5
F6
330
F5
100
AcDbEntity
  8
0
100
AcDbBlockBegin
  2
_D
 70
     0
 10
0.0
 20
0.0
 30
0.0
  3
_D
  1
_D
  0
LINE
  5
F8
330
F5
100
AcDbEntity
  8
치수문자_일반주서
 62
     0
370
    -2
100
AcDbLine
 10
-46.19999999999999
 20
7.239621974755877
 30
0.0
 11
-46.19999999999999
 21
41.86849845446576
 31
0.0
  0
LINE
  5
F9
330
F5
100
AcDbEntity
  8
치수문자_일반주서
 62
     0
370
    -2
100
AcDbLine
 10
42.70000000000002
 20
6.907598753269765
 30
0.0
 11
42.70000000000002
 21
41.86849845446576
 31
0.0
  0
LINE
  5
FA
330
F5
100
AcDbEntity
  8
치수문자_일반주서
 62
     0
370
    -2
100
AcDbLine
 10
-42.89799999999999
 20
41.86849845446576
 30
0.0
 11
39.39800000000002
 21
41.86849845446576
 31
0.0
  0
SOLID
  5
FB
330
F5
100
AcDbEntity
  8
치수문자_일반주서
 62
     0
100
AcDbTrace
 10
-42.89799999999999
 20
42.41883178779909
 30
0.0
 11
-42.89799999999999
 21
41.31816512113242
 31
0.0
 12
-46.19999999999999
 22
41.86849845446576
 32
0.0
 13
-46.19999999999999
 23
41.86849845446576
 33
0.0
  0
SOLID
  5
FC
330
F5
100
AcDbEntity
  8
치수문자_일반주서
 62
     0
100
AcDbTrace
 10
39.39800000000002
 20
41.31816512113242
 30
0.0
 11
39.39800000000002
 21
42.41883178779909
 31
0.0
 12
42.70000000000002
 22
41.86849845446576
 32
0.0
 13
42.70000000000002
 23
41.86849845446576
 33
0.0
  0
MTEXT
  5
FD
330
F5
100
AcDbEntity
  8
치수문자_일반주서
 62
     0
100
AcDbMText
 10
0.8819476343204565
 20
46.24349845446576
 30
0.0
 40
3.5
 41
0.0
 71
     2
 72
     1
  1
\A1;88.9 [3 1/2]
  7
SLDTEXTSTYLE0
 73
     1
 44
1.0
  0
POINT
  5
FE
330
F5
100
AcDbEntity
  8
Defpoints
 62
     0
100
AcDbPoint
 10
-46.19999999999999
 20
7.177121974755877
 30
0.0
  0
POINT
  5
FF
330
F5
100
AcDbEntity
  8
Defpoints
 62
     0
100
AcDbPoint
 10
42.70000000000002
 20
6.845098753269765
 30
0.0
  0
POINT
  5
100
330
F5
100
AcDbEntity
  8
Defpoints
 62
     0
100
AcDbPoint
 10
42.70000000000002
 20
41.86849845446576
 30
0.0
  0
ENDBLK
  5
F7
330
F5
100
AcDbEntity
  8
0
100
AcDbBlockEnd
  0
BLOCK
  5
10A
330
109
100
AcDbEntity
  8
0
100
AcDbBlockBegin
  2
_D_1
 70
     0
 10
0.0
 20
0.0
 30
0.0
  3
_D_1
  1
_D_1
  0
LINE
  5
10C
330
109
100
AcDbEntity
  8
치수문자_일반주서
 62
     0
370
    -2
100
AcDbLine
 10
42.0005
 20
7.677121974755884
 30
0.0
 11
54.71406763087006
 21
7.677121974755929
 31
0.0
  0
LINE
  5
10D
330
109
100
AcDbEntity
  8
치수문자_일반주서
 62
     0
370
    -2
100
AcDbLine
 10
40.66404543526902
 20
-8.197878025244115
 30
0.0
 11
54.71406763087012
 21
-8.197878025244066
 31
0.0
  0
LINE
  5
10E
330
109
100
AcDbEntity
  8
치수문자_일반주서
 62
     0
370
    -2
100
AcDbLine
 10
54.71406763087008
 20
4.375121974755929
 30
0.0
 11
54.7140676308701
 21
-4.895878025244066
 31
0.0
  0
SOLID
  5
10F
330
109
100
AcDbEntity
  8
치수문자_일반주서
 62
     0
100
AcDbTrace
 10
55.26440096420341
 20
4.375121974755931
 30
0.0
 11
54.16373429753674
 21
4.375121974755928
 31
0.0
 12
54.71406763087006
 22
7.677121974755929
 32
0.0
 13
54.71406763087006
 23
7.677121974755929
 33
0.0
  0
SOLID
  5
110
330
109
100
AcDbEntity
  8
치수문자_일반주서
 62
     0
100
AcDbTrace
 10
54.16373429753677
 20
-4.895878025244068
 30
0.0
 11
55.26440096420344
 21
-4.895878025244064
 31
0.0
 12
54.71406763087012
 22
-8.197878025244066
 32
0.0
 13
54.71406763087012
 23
-8.197878025244066
 33
0.0
  0
MTEXT
  5
111
330
109
100
AcDbEntity
  8
치수문자_일반주서
 62
     0
100
AcDbMText
 10
50.33906763087009
 20
-0.2603780252441326
 30
0.0
 40
3.5
 41
0.0
 71
     2
 72
     1
  1
\A1;%%c15.88 [5/8]
  7
SLDTEXTSTYLE0
 11
-3.580687802255625E-15
 21
1.0
 31
0.0
 73
     1
 44
1.0
  0
POINT
  5
112
330
109
100
AcDbEntity
  8
Defpoints
 62
     0
100
AcDbPoint
 10
41.938
 20
7.677121974755884
 30
0.0
  0
POINT
  5
113
330
109
100
AcDbEntity
  8
Defpoints
 62
     0
100
AcDbPoint
 10
40.60154543526902
 20
-8.197878025244115
 30
0.0
  0
POINT
  5
114
330
109
100
AcDbEntity
  8
Defpoints
 62
     0
100
AcDbPoint
 10
54.71406763087012
 20
-8.197878025244066
 30
0.0
  0
ENDBLK
  5
10B
330
109
100
AcDbEntity
  8
0
100
AcDbBlockEnd
  0
BLOCK
  5
11F
330
11E
100
AcDbEntity
  8
0
100
AcDbBlockBegin
  2
_D_2
 70
     0
 10
0.0
 20
0.0
 30
0.0
  3
_D_2
  1
_D_2
  0
LINE
  5
121
330
11E
100
AcDbEntity
  8
치수문자_일반주서
 62
     0
370
    -2
100
AcDbLine
 10
42.70000000000002
 20
6.907598753269765
 30
0.0
 11
42.70000000000002
 21
26.70210399775483
 31
0.0
  0
LINE
  5
122
330
11E
100
AcDbEntity
  8
치수문자_일반주서
 62
     0
370
    -2
100
AcDbLine
 10
10.95000000000001
 20
-7.82698168826539
 30
0.0
 11
10.95000000000001
 21
26.70210399775483
 31
0.0
  0
LINE
  5
123
330
11E
100
AcDbEntity
  8
치수문자_일반주서
 62
     0
370
    -2
100
AcDbLine
 10
39.39800000000002
 20
26.70210399775483
 30
0.0
 11
14.25200000000001
 21
26.70210399775483
 31
0.0
  0
SOLID
  5
124
330
11E
100
AcDbEntity
  8
치수문자_일반주서
 62
     0
100
AcDbTrace
 10
39.39800000000002
 20
26.15177066442149
 30
0.0
 11
39.39800000000002
 21
27.25243733108816
 31
0.0
 12
42.70000000000002
 22
26.70210399775483
 32
0.0
 13
42.70000000000002
 23
26.70210399775483
 33
0.0
  0
SOLID
  5
125
330
11E
100
AcDbEntity
  8
치수문자_일반주서
 62
     0
100
AcDbTrace
 10
14.25200000000001
 20
27.25243733108816
 30
0.0
 11
14.25200000000001
 21
26.15177066442149
 31
0.0
 12
10.95000000000001
 22
26.70210399775483
 32
0.0
 13
10.95000000000001
 23
26.70210399775483
 33
0.0
  0
MTEXT
  5
126
330
11E
100
AcDbEntity
  8
치수문자_일반주서
 62
     0
100
AcDbMText
 10
26.48969794724866
 20
31.07710399775483
 30
0.0
 40
3.5
 41
0.0
 71
     2
 72
     1
  1
\A1;31.75 [1 1/4]
  7
SLDTEXTSTYLE0
 73
     1
 44
1.0
  0
POINT
  5
127
330
11E
100
AcDbEntity
  8
Defpoints
 62
     0
100
AcDbPoint
 10
42.70000000000002
 20
6.845098753269765
 30
0.0
  0
POINT
  5
128
330
11E
100
AcDbEntity
  8
Defpoints
 62
     0
100
AcDbPoint
 10
10.95000000000001
 20
-7.88948168826539
 30
0.0
  0
POINT
  5
129
330
11E
100
AcDbEntity
  8
Defpoints
 62
     0
100
AcDbPoint
 10
10.95000000000001
 20
26.70210399775483
 30
0.0
  0
ENDBLK
  5
120
330
11E
100
AcDbEntity
  8
0
100
AcDbBlockEnd
  0
BLOCK
  5
133
330
132
100
AcDbEntity
  8
0
100
AcDbBlockBegin
  2
_D_3
 70
     0
 10
0.0
 20
0.0
 30
0.0
  3
_D_3
  1
_D_3
  0
LINE
  5
135
330
132
100
AcDbEntity
  8
치수문자_일반주서
 62
     0
370
    -2
100
AcDbLine
 10
-45.76249999999999
 20
7.67712197475588
 30
0.0
 11
-59.20000000000003
 21
7.677121974755831
 31
0.0
  0
LINE
  5
136
330
132
100
AcDbEntity
  8
치수문자_일반주서
 62
     0
370
    -2
100
AcDbLine
 10
-45.76249999999999
 20
-8.197878025244119
 30
0.0
 11
-59.19999999999997
 21
-8.197878025244167
 31
0.0
  0
LINE
  5
137
330
132
100
AcDbEntity
  8
치수문자_일반주서
 62
     0
370
    -2
100
AcDbLine
 10
-59.20000000000002
 20
4.375121974755832
 30
0.0
 11
-59.19999999999999
 21
-4.895878025244167
 31
0.0
  0
SOLID
  5
138
330
132
100
AcDbEntity
  8
치수문자_일반주서
 62
     0
100
AcDbTrace
 10
-58.64966666666668
 20
4.375121974755833
 30
0.0
 11
-59.75033333333335
 21
4.37512197475583
 31
0.0
 12
-59.20000000000003
 22
7.677121974755831
 32
0.0
 13
-59.20000000000003
 23
7.677121974755831
 33
0.0
  0
SOLID
  5
139
330
132
100
AcDbEntity
  8
치수문자_일반주서
 62
     0
100
AcDbTrace
 10
-59.75033333333332
 20
-4.895878025244169
 30
0.0
 11
-58.64966666666665
 21
-4.895878025244166
 31
0.0
 12
-59.19999999999997
 22
-8.197878025244167
 32
0.0
 13
-59.19999999999997
 23
-8.197878025244167
 33
0.0
  0
MTEXT
  5
13A
330
132
100
AcDbEntity
  8
치수문자_일반주서
 62
     0
100
AcDbMText
 10
-63.575
 20
-0.2603780252441975
 30
0.0
 40
3.5
 41
0.0
 71
     2
 72
     1
  1
\A1;%%c15.88 [5/8]
  7
SLDTEXTSTYLE0
 11
-3.580687802255624E-15
 21
1.0
 31
0.0
 73
     1
 44
1.0
  0
POINT
  5
13B
330
132
100
AcDbEntity
  8
Defpoints
 62
     0
100
AcDbPoint
 10
-45.69999999999999
 20
7.67712197475588
 30
0.0
  0
POINT
  5
13C
330
132
100
AcDbEntity
  8
Defpoints
 62
     0
100
AcDbPoint
 10
-45.69999999999999
 20
-8.197878025244119
 30
0.0
  0
POINT
  5
13D
330
132
100
AcDbEntity
  8
Defpoints
 62
     0
100
AcDbPoint
 10
-59.19999999999997
 20
-8.197878025244167
 30
0.0
  0
ENDBLK
  5
134
330
132
100
AcDbEntity
  8
0
100
AcDbBlockEnd
  0
BLOCK
  5
146
330
145
100
AcDbEntity
  8
0
100
AcDbBlockBegin
  2
SW_DOWELSYMBOL_0
 70
     0
 10
0.0
 20
0.0
 30
0.0
  3
SW_DOWELSYMBOL_0
  1
SW_DOWELSYMBOL_0
  0
CIRCLE
  5
148
330
145
100
AcDbEntity
  8
외형선
 62
     0
100
AcDbCircle
 10
0.0
 20
0.0
 30
0.0
 40
3.000000000000001
  0
HATCH
  5
149
330
145
100
AcDbEntity
  8
0
  6
Continuous
 62
     0
370
    30
100
AcDbHatch
 10
0.0
 20
0.0
 30
0.0
210
0.0
220
0.0
230
1.0
  2
SOLID
 70
     1
 71
     0
 91
        1
 92
        0
 93
        3
 72
     2
 10
0.0000000000000139
 20
-0.0000000000000035
 40
3.000000000000001
 50
0.0
 51
90.0
 73
     1
 72
     1
 10
0.0000000000000139
 20
2.999999999999998
 11
0.0000000000000139
 21
-0.0000000000000036
 72
     1
 10
0.0000000000000139
 20
-0.0000000000000035
 11
3.000000000000015
 21
-0.0000000000000035
 97
        0
 75
     0
 76
     1
 98
        1
 10
0.0
 20
0.0
  0
HATCH
  5
14A
330
145
100
AcDbEntity
  8
0
  6
Continuous
 62
     0
370
    30
100
AcDbHatch
 10
0.0
 20
0.0
 30
0.0
210
0.0
220
0.0
230
1.0
  2
SOLID
 70
     1
 71
     0
 91
        1
 92
        0
 93
        3
 72
     2
 10
0.0000000000000139
 20
-0.0000000000000035
 40
3.000000000000001
 50
180.0
 51
270.0000000000007
 73
     1
 72
     1
 10
0.0000000000000139
 20
-3.000000000000005
 11
0.0000000000000139
 21
-0.0000000000000036
 72
     1
 10
0.0000000000000139
 20
-0.0000000000000035
 11
-2.999999999999988
 21
-0.0000000000000035
 97
        0
 75
     0
 76
     1
 98
        1
 10
0.0
 20
0.0
  0
ENDBLK
  5
147
330
145
100
AcDbEntity
  8
0
100
AcDbBlockEnd
  0
BLOCK
  5
179
330
178
100
AcDbEntity
  8
0
100
AcDbBlockBegin
  2
*D7
 70
     1
 10
0.0
 20
0.0
 30
0.0
  3
*D7
  1
*D7
  0
LINE
  5
17B
330
178
100
AcDbEntity
  8
치수문자_일반주서
 62
     0
370
    -2
100
AcDbLine
 10
44.55063963408469
 20
10.02803221156162
 30
0.0
 11
68.03400555645028
 21
38.00801430350349
 31
0.0
  0
MTEXT
  5
17C
330
178
100
AcDbEntity
  8
치수문자_일반주서
 62
     0
100
AcDbMText
 10
57.58560876290296
 20
29.64217576546142
 30
0.0
 40
3.5
 41
0.0
 71
     5
 72
     1
  1
\A1;R.76 [R0.03]
  7
SLDTEXTSTYLE0
 11
0.6428739257098112
 21
0.7659720070880242
 31
0.0
 73
     1
 44
1.0
  0
LINE
  5
17D
330
178
100
AcDbEntity
  8
치수문자_일반주서
 62
     0
370
    -2
100
AcDbLine
 10
41.93800000000002
 20
6.915121974755884
 30
0.0
 11
42.42786993139089
 21
7.498792644156961
 31
0.0
  0
SOLID
  5
17E
330
178
100
AcDbEntity
  8
치수문자_일반주서
 62
     0
100
AcDbTrace
 10
44.12909970618391
 20
10.38182716201058
 30
0.0
 11
44.97217956198546
 21
9.67423726111265
 31
0.0
 12
42.42786993139089
 22
7.498792644156961
 32
0.0
 13
42.42786993139089
 23
7.498792644156961
 33
0.0
  0
POINT
  5
17F
330
178
100
AcDbEntity
  8
Defpoints
 62
     0
100
AcDbPoint
 10
42.42786993139089
 20
7.498792644156961
 30
0.0
  0
POINT
  5
180
330
178
100
AcDbEntity
  8
Defpoints
 62
     0
100
AcDbPoint
 10
41.93800000000002
 20
6.915121974755884
 30
0.0
  0
ENDBLK
  5
17A
330
178
100
AcDbEntity
  8
0
100
AcDbBlockEnd
  0
ENDSEC
  0
SECTION
  2
ENTITIES
  0
LINE
  5
95
330
1F
100
AcDbEntity
  8
0
  6
Continuous
 62
     4
370
    15
100
AcDbLine
 10
8.729732457534872
 20
7.677121974755884
 30
0.0
 11
-15.24692500000005
 21
7.677121974755882
 31
0.0
  0
LINE
  5
96
330
1F
100
AcDbEntity
  8
0
  6
Continuous
 62
     4
370
    15
100
AcDbLine
 10
-45.69999999999999
 20
-8.197878025244119
 30
0.0
 11
8.729732457534878
 21
-8.197878025244115
 31
0.0
  0
LINE
  5
97
330
1F
100
AcDbEntity
  8
0
  6
Continuous
 62
     4
370
    15
100
AcDbLine
 10
-45.69999999999999
 20
7.677121974755876
 30
0.0
 11
-46.19999999999999
 21
7.177121974755876
 31
0.0
  0
LINE
  5
98
330
1F
100
AcDbEntity
  8
0
  6
Continuous
 62
     4
370
    15
100
AcDbLine
 10
-46.19999999999999
 20
-7.697878025244115
 30
0.0
 11
-45.69999999999999
 21
-8.197878025244114
 31
0.0
  0
LINE
  5
99
330
1F
100
AcDbEntity
  8
0
  6
Continuous
 62
     1
370
    15
100
AcDbLine
 10
22.64151787545873
 20
-8.197878025244115
 30
0.0
 11
25.35505488808815
 21
-8.197878025244115
 31
0.0
  0
LINE
  5
9A
330
1F
100
AcDbEntity
  8
0
  6
Continuous
 62
     1
370
    15
100
AcDbLine
 10
25.35505488808819
 20
7.677121974755884
 30
0.0
 11
22.6415178754588
 21
7.677121974755884
 31
0.0
  0
LINE
  5
9B
330
1F
100
AcDbEntity
  8
0
  6
Continuous
 62
     1
370
    15
100
AcDbLine
 10
30.95254063866983
 20
-8.197878025244115
 30
0.0
 11
33.66710800960504
 21
-8.197878025244115
 31
0.0
  0
LINE
  5
9C
330
1F
100
AcDbEntity
  8
0
  6
Continuous
 62
     1
370
    15
100
AcDbLine
 10
39.26509087053803
 20
-8.197878025244115
 30
0.0
 11
41.938
 21
-8.197878025244115
 31
0.0
  0
LINE
  5
9D
330
1F
100
AcDbEntity
  8
0
  6
Continuous
 62
     1
370
    15
100
AcDbLine
 10
17.04190545555583
 20
7.677121974755884
 30
0.0
 11
14.32778314668019
 21
7.677121974755884
 31
0.0
  0
LINE
  5
9E
330
1F
100
AcDbEntity
  8
0
  6
Continuous
 62
     1
370
    15
100
AcDbLine
 10
33.66710800960506
 20
7.677121974755884
 30
0.0
 11
30.95254063866987
 21
7.677121974755884
 31
0.0
  0
LINE
  5
9F
330
1F
100
AcDbEntity
  8
0
  6
Continuous
 62
     1
370
    15
100
AcDbLine
 10
14.32778314668021
 20
-8.197878025244115
 30
0.0
 11
17.04190545555579
 21
-8.197878025244115
 31
0.0
  0
LINE
  5
A0
330
1F
100
AcDbEntity
  8
0
  6
Continuous
 62
     1
370
    15
100
AcDbLine
 10
41.938
 20
7.677121974755884
 30
0.0
 11
39.26509087053805
 21
7.677121974755884
 31
0.0
  0
SPLINE
  5
A1
330
1F
100
AcDbEntity
  8
0
  6
Continuous
 62
     4
370
    15
100
AcDbSpline
210
0.0
220
0.0
230
1.0
 70
     8
 71
     3
 72
    14
 73
    10
 74
     0
 42
0.000000001
 43
0.00000001
 40
0.0
 40
0.0
 40
0.0
 40
0.0
 40
0.25
 40
0.25
 40
0.5
 40
0.5
 40
0.75
 40
0.75
 40
1.0
 40
1.0
 40
1.0
 40
1.0
 10
8.426351367189891
 20
-3.963693177018104
 30
0.0
 10
8.31516555285581
 20
-3.865201739478398
 30
0.0
 10
8.223726914054108
 20
-3.753542437639096
 30
0.0
 10
8.075470285467894
 20
-3.505320359753267
 30
0.0
 10
8.020215016526759
 20
-3.369978489045525
 30
0.0
 10
7.943890706334677
 20
-3.090231742590261
 30
0.0
 10
7.922234207864965
 20
-2.943738077680504
 30
0.0
 10
7.900521067356083
 20
-2.649166914653833
 30
0.0
 10
7.900412640510808
 20
-2.499899773936972
 30
0.0
 10
7.90041264051081
 20
-2.34920460595723
 30
0.0
  0
SPLINE
  5
A2
330
1F
100
AcDbEntity
  8
0
  6
Continuous
 62
     4
370
    15
100
AcDbSpline
210
0.0
220
0.0
230
1.0
 70
     8
 71
     3
 72
    22
 73
    18
 74
     0
 42
0.000000001
 43
0.00000001
 40
0.0
 40
0.0
 40
0.0
 40
0.0
 40
0.1250000000000001
 40
0.1250000000000001
 40
0.2500000000000002
 40
0.2500000000000002
 40
0.3750000000000002
 40
0.3750000000000002
 40
0.5000000000000002
 40
0.5000000000000002
 40
0.6250000000000002
 40
0.6250000000000002
 40
0.7500000000000002
 40
0.7500000000000002
 40
0.8750000000000002
 40
0.8750000000000002
 40
1.0
 40
1.0
 40
1.0
 40
1.0
 10
7.900412640510806
 20
-2.349204605957317
 30
0.0
 10
7.900412640510806
 20
-2.179539792158033
 30
0.0
 10
7.900823511445606
 20
-2.00870604073125
 30
0.0
 10
7.931549483441017
 20
-1.667376434311784
 30
0.0
 10
7.96179271367183
 20
-1.494827873465028
 30
0.0
 10
8.068150414629972
 20
-1.161398371236902
 30
0.0
 10
8.143682397042788
 20
-1.001759184777275
 30
0.0
 10
8.344753623006033
 20
-0.7114379659848538
 30
0.0
 10
8.46632271973512
 20
-0.5853167524575713
 30
0.0
 10
8.754352253156087
 20
-0.3763967422259619
 30
0.0
 10
8.91236964259517
 20
-0.2995679083419286
 30
0.0
 10
9.254845943487712
 20
-0.2030144427375089
 30
0.0
 10
9.430777844096552
 20
-0.1859378055142108
 30
0.0
 10
9.784569173328126
 20
-0.214471224496317
 30
0.0
 10
9.956282102456882
 20
-0.259911797802139
 30
0.0
 10
10.27731747599885
 20
-0.4092560455371966
 30
0.0
 10
10.42239451717486
 20
-0.5111303326092735
 30
0.0
 10
10.54832662658655
 20
-0.6368649623925186
 30
0.0
  0
SPLINE
  5
A4
330
1F
100
AcDbEntity
  8
0
  6
Continuous
 62
     1
370
    15
100
AcDbSpline
210
0.0
220
0.0
230
1.0
 70
    24
 71
     3
 72
    18
 73
    14
 74
     0
 42
0.000000001
 43
0.00000001
 40
0.0
 40
0.0
 40
0.0
 40
0.0
 40
0.25
 40
0.25
 40
0.5
 40
0.5
 40
0.625
 40
0.625
 40
0.75
 40
0.75
 40
0.875
 40
0.875
 40
1.0
 40
1.0
 40
1.0
 40
1.0
 10
10.95000000000001
 20
-1.036788958398094
 30
0.0
 10
10.95000000000001
 20
-1.151178231428164
 30
0.0
 10
10.95000000000001
 20
-1.316938216728962
 30
0.0
 10
10.95000000000001
 20
-1.809817199138189
 30
0.0
 10
10.95000000000001
 20
-2.139176507470698
 30
0.0
 10
10.95000000000001
 20
-2.781887422258051
 30
0.0
 10
10.95000000000001
 20
-3.020476584010326
 30
0.0
 10
10.95000000000001
 20
-3.541064411394059
 30
0.0
 10
10.95000000000001
 20
-3.823102967213552
 30
0.0
 10
10.95000000000001
 20
-4.415910250634978
 30
0.0
 10
10.95000000000001
 20
-4.726586765765498
 30
0.0
 10
10.95000000000001
 20
-5.352949376035992
 30
0.0
 10
10.95000000000001
 20
-5.668409143482822
 30
0.0
 10
10.95000000000001
 20
-5.97243154625513
 30
0.0
  0
SPLINE
  5
A5
330
1F
100
AcDbEntity
  8
0
  6
Continuous
 62
     4
370
    15
100
AcDbSpline
210
0.0
220
0.0
230
1.0
 70
     8
 71
     3
 72
    12
 73
     8
 74
     0
 42
0.000000001
 43
0.00000001
 40
0.0
 40
0.0
 40
0.0
 40
0.0
 40
0.2499999999999999
 40
0.2499999999999999
 40
0.4999999999999998
 40
0.4999999999999998
 40
1.0
 40
1.0
 40
1.0
 40
1.0
 10
10.95000000000001
 20
-5.97243154625513
 30
0.0
 10
10.73902041323904
 20
-5.826280651979442
 30
0.0
 10
10.52820045047942
 20
-5.674132796230251
 30
0.0
 10
10.10886773785306
 20
-5.359353782998493
 30
0.0
 10
9.90052195850756
 20
-5.196788351236278
 30
0.0
 10
9.269848413350646
 20
-4.692580212494361
 30
0.0
 10
8.845871106263319
 20
-4.33531524432133
 30
0.0
 10
8.426351367189891
 20
-3.963693177018104
 30
0.0
  0
SPLINE
  5
A6
330
1F
100
AcDbEntity
  8
0
  6
Continuous
 62
     4
370
    15
100
AcDbSpline
210
0.0
220
0.0
230
1.0
 70
     8
 71
     3
 72
     8
 73
     4
 74
     0
 42
0.000000001
 43
0.00000001
 40
0.0
 40
0.0
 40
0.0
 40
0.0
 40
1.0
 40
1.0
 40
1.0
 40
1.0
 10
10.95000000000001
 20
-1.036788958398071
 30
0.0
 10
10.81595957624903
 20
-0.9037051783477225
 30
0.0
 10
10.68198316752937
 20
-0.7703119106892007
 30
0.0
 10
10.54832662658669
 20
-0.6368649623926506
 30
0.0
  0
SPLINE
  5
A7
330
1F
100
AcDbEntity
  8
0
  6
Continuous
 62
     4
370
    15
100
AcDbSpline
210
0.0
220
0.0
230
1.0
 70
     8
 71
     3
 72
     8
 73
     4
 74
     0
 42
0.000000001
 43
0.00000001
 40
0.0
 40
0.0
 40
0.0
 40
0.0
 40
1.0
 40
1.0
 40
1.0
 40
1.0
 10
10.95000000000001
 20
-7.489695918514489
 30
0.0
 10
10.81595957624903
 20
-7.43448197803302
 30
0.0
 10
10.68198316752937
 20
-7.376197061059173
 30
0.0
 10
10.54832662658669
 20
-7.314961339552561
 30
0.0
  0
SPLINE
  5
A8
330
1F
100
AcDbEntity
  8
0
  6
Continuous
 62
     4
370
    15
100
AcDbSpline
210
0.0
220
0.0
230
1.0
 70
     8
 71
     3
 72
    22
 73
    18
 74
     0
 42
0.000000001
 43
0.00000001
 40
0.0
 40
0.0
 40
0.0
 40
0.0
 40
0.1250000000000001
 40
0.1250000000000001
 40
0.2500000000000001
 40
0.2500000000000001
 40
0.3750000000000002
 40
0.3750000000000002
 40
0.5000000000000002
 40
0.5000000000000002
 40
0.6250000000000002
 40
0.6250000000000002
 40
0.7500000000000002
 40
0.7500000000000002
 40
0.8750000000000001
 40
0.8750000000000001
 40
1.0
 40
1.0
 40
1.0
 40
1.0
 10
7.900412640510806
 20
-7.936573302690022
 30
0.0
 10
7.900412640510806
 20
-7.891820663215518
 30
0.0
 10
7.900823511445604
 20
-7.841492524925619
 30
0.0
 10
7.931549483441016
 20
-7.730777528014223
 30
0.0
 10
7.961792713671822
 20
-7.669602608630329
 30
0.0
 10
8.068150414629969
 20
-7.542087283650896
 30
0.0
 10
8.143682397042788
 20
-7.476255859190093
 30
0.0
 10
8.344753623006035
 20
-7.350034433840788
 30
0.0
 10
8.466322719735121
 20
-7.291757858777914
 30
0.0
 10
8.75435225315609
 20
-7.19232545948088
 30
0.0
 10
8.912369642595177
 20
-7.154092967693853
 30
0.0
 10
9.254845943487718
 20
-7.105720509227208
 30
0.0
 10
9.430777844096554
 20
-7.096943360153221
 30
0.0
 10
9.78456917332813
 20
-7.111397404475663
 30
0.0
 10
9.956282102456884
 20
-7.134525744337675
 30
0.0
 10
10.27731747599885
 20
-7.207988683101726
 30
0.0
 10
10.42239451717486
 20
-7.257264622831527
 30
0.0
 10
10.54832662658655
 20
-7.314961339552497
 30
0.0
  0
SPLINE
  5
A9
330
1F
100
AcDbEntity
  8
0
  6
Continuous
 62
     4
370
    15
100
AcDbSpline
210
0.0
220
0.0
230
1.0
 70
     8
 71
     3
 72
    14
 73
    10
 74
     0
 42
0.000000001
 43
0.00000001
 40
0.0
 40
0.0
 40
0.0
 40
0.0
 40
0.2500000000000001
 40
0.2500000000000001
 40
0.5000000000000002
 40
0.5000000000000002
 40
0.7500000000000001
 40
0.7500000000000001
 40
1.0
 40
1.0
 40
1.0
 40
1.0
 10
8.426351367189893
 20
-8.1920867812184
 30
0.0
 10
8.31516555285581
 20
-8.187833878564394
 30
0.0
 10
8.22372691405411
 20
-8.1807251094583
 30
0.0
 10
8.075470285467894
 20
-8.15738367023744
 30
0.0
 10
8.020215016526759
 20
-8.141139063350556
 30
0.0
 10
7.943890706334677
 20
-8.099006103527508
 30
0.0
 10
7.92223420786497
 20
-8.072817921516815
 30
0.0
 10
7.900521067356086
 20
-8.011548728564243
 30
0.0
 10
7.900412640510812
 20
-7.976322301743435
 30
0.0
 10
7.900412640510812
 20
-7.936573302689775
 30
0.0
  0
SPLINE
  5
AA
330
1F
100
AcDbEntity
  8
0
  6
Continuous
 62
     4
370
    15
100
AcDbSpline
210
0.0
220
0.0
230
1.0
 70
     8
 71
     3
 72
    12
 73
     8
 74
     0
 42
0.000000001
 43
0.00000001
 40
0.0
 40
0.0
 40
0.0
 40
0.0
 40
0.2500000000000001
 40
0.2500000000000001
 40
0.5000000000000001
 40
0.5000000000000001
 40
1.0
 40
1.0
 40
1.0
 40
1.0
 10
10.95000000000001
 20
-7.889481688265388
 30
0.0
 10
10.73902041323904
 20
-7.947582903576612
 30
0.0
 10
10.52820045047942
 20
-7.997609633000032
 30
0.0
 10
10.10886773785306
 20
-8.081142201954105
 30
0.0
 10
9.90052195850756
 20
-8.114673383881867
 30
0.0
 10
9.269848413350646
 20
-8.19069033897964
 30
0.0
 10
8.845871106263319
 20
-8.208133581994208
 30
0.0
 10
8.426351367189891
 20
-8.1920867812184
 30
0.0
  0
SPLINE
  5
AB
330
1F
100
AcDbEntity
  8
0
  6
Continuous
 62
     4
370
    15
100
AcDbSpline
210
0.0
220
0.0
230
1.0
 70
     8
 71
     3
 72
     9
 73
     5
 74
     0
 42
0.000000001
 43
0.00000001
 40
0.0
 40
0.0
 40
0.0
 40
0.0
 40
0.5676403212942739
 40
1.0
 40
1.0
 40
1.0
 40
1.0
 10
10.95000000000001
 20
7.368725637777155
 30
0.0
 10
10.53023280531868
 20
7.471022194968266
 30
0.0
 10
9.790737778389984
 20
7.65123588549304
 30
0.0
 10
9.049998328216525
 20
7.656538732453529
 30
0.0
 10
8.729732457534872
 20
7.658831469661591
 30
0.0
  0
LINE
  5
AC
330
1F
100
AcDbEntity
  8
0
  6
Continuous
 62
     1
370
    15
100
AcDbLine
 10
10.95
 20
7.368725637777155
 30
0.0
 11
10.95000000000001
 21
6.192528934872348
 31
0.0
  0
SPLINE
  5
AD
330
1F
100
AcDbEntity
  8
0
  6
Continuous
 62
     4
370
    15
100
AcDbSpline
210
0.0
220
0.0
230
1.0
 70
     8
 71
     3
 72
     8
 73
     4
 74
     0
 42
0.000000001
 43
0.00000001
 40
0.0
 40
0.0
 40
0.0
 40
0.0
 40
1.0
 40
1.0
 40
1.0
 40
1.0
 10
10.95000000000001
 20
6.192528934872351
 30
0.0
 10
10.81595957624903
 20
6.270398774441232
 30
0.0
 10
10.68198316752937
 20
6.34550712512591
 30
0.0
 10
10.54832662658669
 20
6.417718351915849
 30
0.0
  0
SPLINE
  5
AE
330
1F
100
AcDbEntity
  8
0
  6
Continuous
 62
     4
370
    15
100
AcDbSpline
210
0.0
220
0.0
230
1.0
 70
     8
 71
     3
 72
    22
 73
    18
 74
     0
 42
0.000000001
 43
0.00000001
 40
0.0
 40
0.0
 40
0.0
 40
0.0
 40
0.125
 40
0.125
 40
0.2500000000000001
 40
0.2500000000000001
 40
0.375
 40
0.375
 40
0.5
 40
0.5
 40
0.6249999999999999
 40
0.6249999999999999
 40
0.7499999999999999
 40
0.7499999999999999
 40
0.875
 40
0.875
 40
1.0
 40
1.0
 40
1.0
 40
1.0
 10
7.900412640510806
 20
5.326990671488619
 30
0.0
 10
7.900412640510806
 20
5.451902845813403
 30
0.0
 10
7.900823511445602
 20
5.57240845895029
 30
0.0
 10
7.931549483441014
 20
5.803023068458359
 30
0.0
 10
7.961792713671824
 20
5.914396709921228
 30
0.0
 10
8.068150414629965
 20
6.120310887169925
 30
0.0
 10
8.143682397042786
 20
6.214118649168746
 30
0.0
 10
8.344753623006032
 20
6.378218442611864
 30
0.0
 10
8.466322719735116
 20
6.446063081076282
 30
0.0
 10
8.754352253156084
 20
6.555550692010859
 30
0.0
 10
8.912369642595166
 20
6.594147034107865
 30
0.0
 10
9.254845943487709
 20
6.64232804124564
 30
0.0
 10
9.430777844096548
 20
6.650627529394947
 30
0.0
 10
9.784569173328125
 20
6.636548154735283
 30
0.0
 10
9.95628210245688
 20
6.614235921291473
 30
0.0
 10
10.27731747599885
 20
6.538354612320465
 30
0.0
 10
10.42239451717486
 20
6.48575626497819
 30
0.0
 10
10.54832662658655
 20
6.417718351915914
 30
0.0
  0
SPLINE
  5
AF
330
1F
100
AcDbEntity
  8
0
  6
Continuous
 62
     4
370
    15
100
AcDbSpline
210
0.0
220
0.0
230
1.0
 70
     8
 71
     3
 72
    14
 73
    10
 74
     0
 42
0.000000001
 43
0.00000001
 40
0.0
 40
0.0
 40
0.0
 40
0.0
 40
0.25
 40
0.25
 40
0.5
 40
0.5
 40
0.75
 40
0.75
 40
1.0
 40
1.0
 40
1.0
 40
1.0
 10
8.426351367189893
 20
3.968015578956197
 30
0.0
 10
8.31516555285581
 20
4.062254113841896
 30
0.0
 10
8.223726914054108
 20
4.166804646575112
 30
0.0
 10
8.075470285467892
 20
4.39168528524008
 30
0.0
 10
8.020215016526759
 20
4.510782549060936
 30
0.0
 10
7.943890706334677
 20
4.74839633569316
 30
0.0
 10
7.922234207864968
 20
4.868701818592225
 30
0.0
 10
7.900521067356085
 20
5.102003788666325
 30
0.0
 10
7.90041264051081
 20
5.216044502562378
 30
0.0
 10
7.90041264051081
 20
5.326990671488461
 30
0.0
  0
SPLINE
  5
B0
330
1F
100
AcDbEntity
  8
0
  6
Continuous
 62
     4
370
    15
100
AcDbSpline
210
0.0
220
0.0
230
1.0
 70
     8
 71
     3
 72
    12
 73
     8
 74
     0
 42
0.000000001
 43
0.00000001
 40
0.0
 40
0.0
 40
0.0
 40
0.0
 40
0.2500000000000001
 40
0.2500000000000001
 40
0.5
 40
0.5
 40
1.0
 40
1.0
 40
1.0
 40
1.0
 10
10.95000000000001
 20
1.656672116766133
 30
0.0
 10
10.73902041323904
 20
1.860924226353047
 30
0.0
 10
10.52820045047942
 20
2.063098811525661
 30
0.0
 10
10.10886773785305
 20
2.461410393711495
 30
0.0
 10
9.90052195850756
 20
2.657507007401475
 30
0.0
 10
9.269848413350644
 20
3.237732101241173
 30
0.0
 10
8.845871106263319
 20
3.612440312428774
 30
0.0
 10
8.426351367189891
 20
3.968015578956198
 30
0.0
  0
LINE
  5
B1
330
1F
100
AcDbEntity
  8
0
  6
Continuous
 62
     1
370
    15
100
AcDbLine
 10
10.95000000000001
 20
1.656672116766132
 30
0.0
 11
10.95000000000001
 21
-1.036788958398073
 31
0.0
  0
LINE
  5
B2
330
1F
100
AcDbEntity
  8
0
  6
Continuous
 62
     4
370
    15
100
AcDbLine
 10
10.95000000000001
 20
-5.972431546255132
 30
0.0
 11
10.95000000000001
 21
-7.489695918514489
 31
0.0
  0
LINE
  5
B3
330
1F
100
AcDbEntity
  8
0
  6
Continuous
 62
     4
370
    15
100
AcDbLine
 10
-45.69999999999999
 20
7.677121974755876
 30
0.0
 11
-45.69999999999999
 21
-8.197878025244101
 31
0.0
  0
LINE
  5
B4
330
1F
100
AcDbEntity
  8
0
  6
Continuous
 62
     4
370
    15
100
AcDbLine
 10
-46.19999999999999
 20
7.177121974755877
 30
0.0
 11
-46.19999999999999
 21
-7.697878025244115
 31
0.0
  0
SPLINE
  5
B5
330
1F
100
AcDbEntity
  8
0
  6
Continuous
 62
     1
370
    15
100
AcDbSpline
210
0.0
220
0.0
230
1.0
 70
    24
 71
     3
 72
    18
 73
    14
 74
     0
 42
0.000000001
 43
0.00000001
 40
0.0
 40
0.0
 40
0.0
 40
0.0
 40
0.2499999999999999
 40
0.2499999999999999
 40
0.4999999999999998
 40
0.4999999999999998
 40
0.6249999999999998
 40
0.6249999999999998
 40
0.7499999999999999
 40
0.7499999999999999
 40
0.875
 40
0.875
 40
1.0
 40
1.0
 40
1.0
 40
1.0
 10
10.95000000000001
 20
6.192528934872295
 30
0.0
 10
10.95000000000001
 20
5.870241383702541
 30
0.0
 10
10.95000000000001
 20
5.500665515546279
 30
0.0
 10
10.95000000000001
 20
4.676992182649054
 30
0.0
 10
10.95000000000001
 20
4.221260995504078
 30
0.0
 10
10.95000000000001
 20
3.53239443189104
 30
0.0
 10
10.95000000000001
 20
3.302664318046952
 30
0.0
 10
10.95000000000001
 20
2.862074622038972
 30
0.0
 10
10.95000000000001
 20
2.65134713328622
 30
0.0
 10
10.95000000000001
 20
2.271738967109483
 30
0.0
 10
10.95000000000001
 20
2.103077564448932
 30
0.0
 10
10.95000000000001
 20
1.828996230668173
 30
0.0
 10
10.95000000000001
 20
1.72378326237479
 30
0.0
 10
10.95000000000001
 20
1.656672116766134
 30
0.0
  0
SPLINE
  5
B6
330
1F
100
AcDbEntity
  8
0
  6
Continuous
 62
     4
370
    15
100
AcDbSpline
210
0.0
220
0.0
230
1.0
 70
    24
 71
     3
 72
     9
 73
     5
 74
     0
 42
0.000000001
 43
0.00000001
 40
0.0
 40
0.0
 40
0.0
 40
0.0
 40
0.0669793020179511
 40
1.0
 40
1.0
 40
1.0
 40
1.0
 10
10.95
 20
-7.5523797773153
 30
0.0
 10
10.95
 20
-7.558777550826331
 30
0.0
 10
10.95
 20
-7.654296215821041
 30
0.0
 10
10.95000000000001
 20
-7.775963548555691
 30
0.0
 10
10.95000000000001
 20
-7.889481688265388
 30
0.0
  0
SPLINE
  5
B7
330
1F
100
AcDbEntity
  8
0
  6
Continuous
 62
     1
370
    15
100
AcDbSpline
210
0.0
220
0.0
230
1.0
 70
     8
 71
     3
 72
    16
 73
    12
 74
     0
 42
0.000000001
 43
0.00000001
 40
0.0
 40
0.0
 40
0.0
 40
0.0
 40
0.2500000000000004
 40
0.2500000000000004
 40
0.3750000000000038
 40
0.3750000000000038
 40
0.5000000000000072
 40
0.5000000000000072
 40
0.7500000000000036
 40
0.7500000000000036
 40
1.0
 40
1.0
 40
1.0
 40
1.0
 10
42.70000000000002
 20
-3.976153754485041
 30
0.0
 10
42.69999999999985
 20
-4.088985552482169
 30
0.0
 10
42.68619627883068
 20
-4.199388232766177
 30
0.0
 10
42.62416239104464
 20
-4.328556764604347
 30
0.0
 10
42.59679048303538
 20
-4.36407365770418
 30
0.0
 10
42.5302864582965
 20
-4.414150030460258
 30
0.0
 10
42.49169207109097
 20
-4.428400072604735
 30
0.0
 10
42.3680414545653
 20
-4.442186009531291
 30
0.0
 10
42.27926198055179
 20
-4.414642458630534
 30
0.0
 10
42.10651785092411
 20
-4.326666442341331
 30
0.0
 10
42.02060796665792
 20
-4.264865758740048
 30
0.0
 10
41.938
 20
-4.193263464063254
 30
0.0
  0
SPLINE
  5
B8
330
1F
100
AcDbEntity
  8
0
  6
Continuous
 62
     1
370
    15
100
AcDbSpline
210
0.0
220
0.0
230
1.0
 70
     8
 71
     3
 72
    20
 73
    16
 74
     0
 42
0.000000001
 43
0.00000001
 40
0.0
 40
0.0
 40
0.0
 40
0.0
 40
0.079763554983877
 40
0.1596275829163374
 40
0.2393370213867125
 40
0.3190682380626771
 40
0.3989430014155802
 40
0.4786751244566139
 40
0.5535636309779219
 40
0.6286213689946393
 40
0.7035152183451933
 40
0.7784262811626735
 40
0.853478973155842
 40
0.9283557495194028
 40
1.0
 40
1.0
 40
1.0
 40
1.0
 10
41.938
 20
-4.19326346406324
 30
0.0
 10
41.49720803542101
 20
-3.799612372891845
 30
0.0
 10
40.61506886937065
 20
-3.011814333940719
 30
0.0
 10
39.29057020215139
 20
-1.726924613773414
 30
0.0
 10
37.96872216034024
 20
-0.4070296813700689
 30
0.0
 10
36.64648486102067
 20
0.9187762568428303
 30
0.0
 10
35.32188382975119
 20
2.209271599283384
 30
0.0
 10
34.02618677459813
 20
3.408876505441287
 30
0.0
 10
32.75780229694887
 20
4.488675692766466
 30
0.0
 10
31.51315230124201
 20
5.427425250427848
 30
0.0
 10
30.27123845451982
 20
6.228911937616209
 30
0.0
 10
29.02904505967803
 20
6.872186210513811
 30
0.0
 10
27.78445699891986
 20
7.335904659246486
 30
0.0
 10
26.56112603887646
 20
7.625994047391164
 30
0.0
 10
25.75112187310099
 20
7.657588590549228
 30
0.0
 10
25.35505488808819
 20
7.673037344988028
 30
0.0
  0
SPLINE
  5
B9
330
1F
100
AcDbEntity
  8
0
  6
Continuous
 62
     1
370
    15
100
AcDbSpline
210
0.0
220
0.0
230
1.0
 70
     8
 71
     3
 72
    18
 73
    14
 74
     0
 42
0.000000001
 43
0.00000001
 40
0.0
 40
0.0
 40
0.0
 40
0.0
 40
0.0666600598154192
 40
0.1612926167705862
 40
0.255903428547831
 40
0.3507212752135379
 40
0.4453253375792285
 40
0.5377423722429235
 40
0.6303117652827859
 40
0.7226565433651806
 40
0.8151599351680706
 40
0.9076536374482862
 40
0.9999999999999999
 40
0.9999999999999999
 40
0.9999999999999999
 40
0.9999999999999999
 10
28.15380301326532
 20
7.169585613701882
 30
0.0
 10
28.44572630967303
 20
7.269152404746671
 30
0.0
 10
29.15207239613429
 20
7.510067104126367
 30
0.0
 10
30.27126286820792
 20
7.676120818619513
 30
0.0
 10
31.51314704441783
 20
7.690744260548594
 30
0.0
 10
32.75779884034134
 20
7.504571567649279
 30
0.0
 10
33.98989633392272
 20
7.132603375210386
 30
0.0
 10
35.21269567496324
 20
6.587124688491639
 30
0.0
 10
36.42783121820251
 20
5.887761284987119
 30
0.0
 10
37.63995143600342
 20
5.042776503018209
 30
0.0
 10
38.85424752048348
 20
4.075049092118568
 30
0.0
 10
40.06816764229311
 20
3.009576509774464
 30
0.0
 10
40.87630004799185
 20
2.238977090550095
 30
0.0
 10
41.28004416155459
 20
1.853984511075836
 30
0.0
  0
SPLINE
  5
BA
330
1F
100
AcDbEntity
  8
0
  6
Continuous
 62
     1
370
    15
100
AcDbSpline
210
0.0
220
0.0
230
1.0
 70
     8
 71
     3
 72
    18
 73
    14
 74
     0
 42
0.000000001
 43
0.00000001
 40
0.0
 40
0.0
 40
0.0
 40
0.0
 40
0.2499999999999991
 40
0.2499999999999991
 40
0.4999999999999982
 40
0.4999999999999982
 40
0.6249999999999987
 40
0.6249999999999987
 40
0.7499999999999991
 40
0.7499999999999991
 40
0.8749999999999996
 40
0.8749999999999996
 40
1.0
 40
1.0
 40
1.0
 40
1.0
 10
41.2800441615382
 20
1.85398451109163
 30
0.0
 10
41.2532374771182
 20
1.731760607230692
 30
0.0
 10
41.2140074835181
 20
1.604545723134809
 30
0.0
 10
41.10350971755392
 20
1.337244994535972
 30
0.0
 10
41.03168999582067
 20
1.195946484064974
 30
0.0
 10
40.89109535915182
 20
0.974054367867986
 30
0.0
 10
40.83943097463725
 20
0.899538024732938
 30
0.0
 10
40.7251199295192
 20
0.749241550083418
 30
0.0
 10
40.66172491779741
 20
0.6726829602134039
 30
0.0
 10
40.52542125201091
 20
0.522089774131133
 30
0.0
 10
40.45304306955364
 20
0.4485043043601603
 30
0.0
 10
40.2994696712263
 20
0.3049031194769585
 30
0.0
 10
40.21724271411203
 20
0.2340926559067442
 30
0.0
 10
40.13293193635123
 20
0.1673726354298424
 30
0.0
  0
SPLINE
  5
BB
330
1F
100
AcDbEntity
  8
0
  6
Continuous
 62
     1
370
    15
100
AcDbSpline
210
0.0
220
0.0
230
1.0
 70
     8
 71
     3
 72
     8
 73
     4
 74
     0
 42
0.000000001
 43
0.00000001
 40
0.0
 40
0.0
 40
0.0
 40
0.0
 40
1.0
 40
1.0
 40
1.0
 40
1.0
 10
42.70000000000002
 20
-1.626738301692694
 30
0.0
 10
41.84343154747684
 20
-1.035115187579718
 30
0.0
 10
40.98773586070886
 20
-0.4371244081602191
 30
0.0
 10
40.13293193635124
 20
0.1673726354298555
 30
0.0
  0
LINE
  5
BC
330
1F
100
AcDbEntity
  8
0
  6
Continuous
 62
     1
370
    15
100
AcDbLine
 10
42.70000000000002
 20
-3.976153754481333
 30
0.0
 11
42.70000000000002
 21
-1.626738301692694
 31
0.0
  0
SPLINE
  5
BD
330
1F
100
AcDbEntity
  8
0
  6
Continuous
 62
     1
370
    15
100
AcDbSpline
210
0.0
220
0.0
230
1.0
 70
     8
 71
     3
 72
    22
 73
    18
 74
     0
 42
0.000000001
 43
0.00000001
 40
0.0
 40
0.0
 40
0.0
 40
0.0
 40
0.0214790375115568
 40
0.0936489838632703
 40
0.1658809395507834
 40
0.2382022655449167
 40
0.3103630024754662
 40
0.3826311201955962
 40
0.4549209741991682
 40
0.5270797550187005
 40
0.5993857601746052
 40
0.6716363230002754
 40
0.7372320306288268
 40
0.8030118350813433
 40
0.8686029720433959
 40
0.9343284760654176
 40
1.0
 40
1.0
 40
1.0
 40
1.0
 10
28.15380301326527
 20
-7.690341664190113
 30
0.0
 10
28.03052326409102
 20
-7.738298035624672
 30
0.0
 10
27.49302137487111
 20
-7.947388664206124
 30
0.0
 10
26.54288220510546
 20
-8.13303951477597
 30
0.0
 10
25.30013384539368
 20
-8.23238876427889
 30
0.0
 10
24.05589232089791
 20
-8.123635270298065
 30
0.0
 10
22.8144108963156
 20
-7.825514016327011
 30
0.0
 10
21.57107823604429
 20
-7.341748143495955
 30
0.0
 10
20.32736712957542
 20
-6.685488355596296
 30
0.0
 10
19.08590830368545
 20
-5.870206149238506
 30
0.0
 10
17.84195749070842
 20
-4.919673785793374
 30
0.0
 10
16.63645067839846
 20
-3.886872535032998
 30
0.0
 10
15.47052582864337
 20
-2.805603738994936
 30
0.0
 10
14.33881133258693
 20
-1.7116789080126
 30
0.0
 10
13.21055689034417
 20
-0.5843742231890008
 30
0.0
 10
12.07976609091894
 20
0.5485680324074088
 30
0.0
 10
11.32648554357486
 20
1.287405264193155
 30
0.0
 10
10.95000000000001
 20
1.656672116766128
 30
0.0
  0
SPLINE
  5
BE
330
1F
100
AcDbEntity
  8
0
  6
Continuous
 62
     1
370
    15
100
AcDbSpline
210
0.0
220
0.0
230
1.0
 70
    24
 71
     3
 72
    18
 73
    14
 74
     0
 42
0.000000001
 43
0.00000001
 40
0.0
 40
0.0
 40
0.0
 40
0.0
 40
0.25
 40
0.25
 40
0.5
 40
0.5
 40
0.625
 40
0.625
 40
0.75
 40
0.75
 40
0.875
 40
0.875
 40
1.0
 40
1.0
 40
1.0
 40
1.0
 10
10.95000000000001
 20
6.192528934870826
 30
0.0
 10
10.95000000000001
 20
5.870241383701056
 30
0.0
 10
10.95000000000001
 20
5.500665515544812
 30
0.0
 10
10.95000000000001
 20
4.676992182647715
 30
0.0
 10
10.95000000000001
 20
4.221260995502853
 30
0.0
 10
10.95000000000001
 20
3.532394431890077
 30
0.0
 10
10.95000000000001
 20
3.302664318046091
 30
0.0
 10
10.95000000000001
 20
2.862074622038321
 30
0.0
 10
10.95000000000001
 20
2.651347133285681
 30
0.0
 10
10.95000000000001
 20
2.271738967109152
 30
0.0
 10
10.95000000000001
 20
2.103077564448696
 30
0.0
 10
10.95000000000001
 20
1.828996230668087
 30
0.0
 10
10.95000000000001
 20
1.723783262374757
 30
0.0
 10
10.95000000000001
 20
1.656672116766128
 30
0.0
  0
SPLINE
  5
BF
330
1F
100
AcDbEntity
  8
0
  6
Continuous
 62
     1
370
    15
100
AcDbSpline
210
0.0
220
0.0
230
1.0
 70
     8
 71
     3
 72
    24
 73
    20
 74
     0
 42
0.000000001
 43
0.00000001
 40
0.0
 40
0.0
 40
0.0
 40
0.0
 40
0.0564830443972121
 40
0.1130125162182566
 40
0.1694264210452821
 40
0.22600259581218
 40
0.2824204317975427
 40
0.3445620040240573
 40
0.406751261326424
 40
0.4688138932936463
 40
0.5309892592440295
 40
0.5931459301590437
 40
0.6552102445465724
 40
0.7174126790608273
 40
0.7795382475805959
 40
0.8416104828463578
 40
0.9038285507304327
 40
0.9659292091861006
 40
1.0
 40
1.0
 40
1.0
 40
1.0
 10
10.95000000000034
 20
6.19252893487215
 30
0.0
 10
11.32648554357393
 20
5.960568020489487
 30
0.0
 10
12.0797660909155
 20
5.496455526582094
 30
0.0
 10
13.21055689035914
 20
4.650426453433095
 30
0.0
 10
14.33881133253169
 20
3.711395631965569
 30
0.0
 10
15.47052582885056
 20
2.693749464214128
 30
0.0
 10
16.63645067759491
 20
1.577093741417181
 30
0.0
 10
17.84195749404941
 20
0.3836746190387083
 30
0.0
 10
19.08590829125668
 20
-0.8617871391604299
 30
0.0
 10
20.32736717587876
 20
-2.095474853923521
 30
0.0
 10
21.57107806290178
 20
-3.281610640574306
 30
0.0
 10
22.81441154183354
 20
-4.394347233890342
 30
0.0
 10
24.05588991350067
 20
-5.40761324142272
 30
0.0
 10
25.30014284792977
 20
-6.292673658257064
 30
0.0
 10
26.54284866793432
 20
-7.03079699185272
 30
0.0
 10
27.78446705706245
 20
-7.60610394804001
 30
0.0
 10
29.02908015611566
 20
-7.991160105377922
 30
0.0
 10
30.08442182788862
 20
-8.187981635353426
 30
0.0
 10
30.72544461832509
 20
-8.17751997066483
 30
0.0
 10
30.95254063866981
 20
-8.173813702412895
 30
0.0
  0
SPLINE
  5
C0
330
1F
100
AcDbEntity
  8
0
  6
Continuous
 62
     1
370
    15
100
AcDbSpline
210
0.0
220
0.0
230
1.0
 70
     8
 71
     3
 72
    17
 73
    13
 74
     0
 42
0.000000001
 43
0.00000001
 40
0.0
 40
0.0
 40
0.0
 40
0.0
 40
0.096636405998588
 40
0.1933522443193322
 40
0.2898703599593458
 40
0.3866661019907521
 40
0.4831909434193126
 40
0.5895084811363207
 40
0.6959076028826474
 40
0.8020900823175104
 40
0.9084654374566286
 40
1.0
 40
1.0
 40
1.0
 40
1.0
 10
10.95000000000034
 20
-1.036788958398404
 30
0.0
 10
11.32648554431064
 20
-1.410131739766758
 30
0.0
 10
12.07976609312623
 20
-2.157124179438486
 30
0.0
 10
13.21055688151529
 20
-3.23308264458567
 30
0.0
 10
14.3388113656597
 20
-4.253415365143861
 30
0.0
 10
15.470525704915
 20
-5.188471962201249
 30
0.0
 10
16.63645115842206
 20
-6.055502130144834
 30
0.0
 10
17.84195549490528
 20
-6.81772127058832
 30
0.0
 10
19.08591572822035
 20
-7.444509178111755
 30
0.0
 10
20.3273394694862
 20
-7.891501012530295
 30
0.0
 10
21.51342139613224
 20
-8.157130382856137
 30
0.0
 10
22.28476615001111
 20
-8.177024400228776
 30
0.0
 10
22.64151787545873
 20
-8.186225506463156
 30
0.0
  0
SPLINE
  5
C1
330
1F
100
AcDbEntity
  8
0
  6
Continuous
 62
     1
370
    15
100
AcDbSpline
210
0.0
220
0.0
230
1.0
 70
     8
 71
     3
 72
    25
 73
    21
 74
     0
 42
0.000000001
 43
0.00000001
 40
0.0
 40
0.0
 40
0.0
 40
0.0
 40
0.0226709023603374
 40
0.0806812242784413
 40
0.1386741035164187
 40
0.1965808130663085
 40
0.254616390261644
 40
0.312580250611947
 40
0.3704943504311043
 40
0.4285445137378694
 40
0.4864851327157191
 40
0.544412437786504
 40
0.6024665039844682
 40
0.6603896765970827
 40
0.7169737990682601
 40
0.7736512059111769
 40
0.8301910878885915
 40
0.8868280841936708
 40
0.9434591479005046
 40
1.0
 40
1.0
 40
1.0
 40
1.0
 10
19.84126003390624
 20
7.166942962017079
 30
0.0
 10
20.00316044312315
 20
7.228408420457929
 30
0.0
 10
20.57933174055033
 20
7.447151739935112
 30
0.0
 10
21.57108316207394
 20
7.630120566618874
 30
0.0
 10
22.81441023002823
 20
7.709692505942913
 30
0.0
 10
24.05589007184632
 20
7.582467454114533
 30
0.0
 10
25.30014353058119
 20
7.266924884654872
 30
0.0
 10
26.54284578478308
 20
6.766164652683765
 30
0.0
 10
27.78447790904552
 20
6.092762027971636
 30
0.0
 10
29.02903955661683
 20
5.265878824461022
 30
0.0
 10
30.27123957905849
 20
4.302165554060153
 30
0.0
 10
31.5131533001405
 20
3.226285825004078
 30
0.0
 10
32.75779716548701
 20
2.067846274501
 30
0.0
 10
33.98989677072358
 20
0.8590916352559598
 30
0.0
 10
35.21269555886025
 20
-0.3659220266623795
 30
0.0
 10
36.42783124924724
 20
-1.576234547421095
 30
0.0
 10
37.63995142768045
 20
-2.76017849567235
 30
0.0
 10
38.85424752270443
 20
-3.880566287727952
 30
0.0
 10
40.06816764173894
 20
-4.926301372664824
 30
0.0
 10
40.87630004780722
 20
-5.528198222736377
 30
0.0
 10
41.28004416155458
 20
-5.8289067557375
 30
0.0
  0
ELLIPSE
  5
C3
330
1F
100
AcDbEntity
  8
0
  6
Continuous
 62
     1
370
    15
100
AcDbEllipse
 10
44.12814800674213
 20
-0.260378025244113
 30
0.0
 11
11.18322645805123
 21
7.430697861030162
 31
0.0
210
0.0
220
0.0
230
1.0
 40
0.2495534463455961
 41
4.294101075668088
 42
4.353641424318528
  0
SPLINE
  5
C4
330
1F
100
AcDbEntity
  8
0
  6
Continuous
 62
     1
370
    15
100
AcDbSpline
210
0.0
220
0.0
230
1.0
 70
     8
 71
     3
 72
    28
 73
    24
 74
     0
 42
0.000000001
 43
0.00000001
 40
0.0
 40
0.0
 40
0.0
 40
0.0
 40
0.0442091508125898
 40
0.0960593539479541
 40
0.1447597287471493
 40
0.1935701556442844
 40
0.2422740049123781
 40
0.2909890481851307
 40
0.3397961936276142
 40
0.3884889402458603
 40
0.4372235242913001
 40
0.4860184060910744
 40
0.5347049391532087
 40
0.5834639215636249
 40
0.6322375693492501
 40
0.6809227826318512
 40
0.7297073275291951
 40
0.7784544657292294
 40
0.8227116022834923
 40
0.867092948158334
 40
0.9113470009039348
 40
0.9556917105162184
 40
1.0
 40
1.0
 40
1.0
 40
1.0
 10
36.44955819026663
 20
-7.701944035851437
 30
0.0
 10
36.07345535951714
 20
-7.821792851179111
 30
0.0
 10
35.25624457225398
 20
-8.08220499572827
 30
0.0
 10
34.02616731564122
 20
-8.221099256385093
 30
0.0
 10
32.75780748487965
 20
-8.178801784919328
 30
0.0
 10
31.51315053906279
 20
-7.939054810180775
 30
0.0
 10
30.27124031881988
 20
-7.512210827950401
 30
0.0
 10
29.02903935619134
 20
-6.907309074488697
 30
0.0
 10
27.784477969211
 20
-6.141493364934112
 30
0.0
 10
26.54284574424463
 20
-5.229641755567065
 30
0.0
 10
25.30014363274916
 20
-4.196958354901361
 30
0.0
 10
24.05588970362958
 20
-3.069549409458318
 30
0.0
 10
22.81441159810824
 20
-1.870432864388843
 30
0.0
 10
21.57107804780764
 20
-0.6340116879973517
 30
0.0
 10
20.32736717991538
 20
0.6111347973240511
 30
0.0
 10
19.08590829017318
 20
1.837591875692916
 30
0.0
 10
17.84195749434068
 20
3.009818373442366
 30
0.0
 10
16.63645067752484
 20
4.069972507397271
 30
0.0
 10
15.47052582886856
 20
5.002508435947154
 30
0.0
 10
14.33881133252673
 20
5.796229407767738
 30
0.0
 10
13.21055689036025
 20
6.467662015549529
 30
0.0
 10
12.07976609091492
 20
7.011935469531955
 30
0.0
 10
11.32648554357352
 20
7.249828158454956
 30
0.0
 10
10.95000000000001
 20
7.368725637777156
 30
0.0
  0
SPLINE
  5
C5
330
1F
100
AcDbEntity
  8
0
  6
Continuous
 62
     1
370
    15
100
AcDbSpline
210
0.0
220
0.0
230
1.0
 70
     8
 71
     3
 72
    31
 73
    27
 74
     0
 42
0.000000001
 43
0.00000001
 40
0.0
 40
0.0
 40
0.0
 40
0.0
 40
0.0198498132919483
 40
0.0606184298426336
 40
0.101303700373742
 40
0.1421059987266793
 40
0.1827941043786845
 40
0.2276101242059979
 40
0.2724605341400996
 40
0.3172196228647896
 40
0.3620600144636028
 40
0.4068869233479344
 40
0.4516472254210979
 40
0.4965071386581913
 40
0.5413116167363482
 40
0.5860776312854475
 40
0.6309488191875794
 40
0.6757353323207463
 40
0.7205115541680395
 40
0.7653857588982798
 40
0.810158786468477
 40
0.8538967649176363
 40
0.8977068496337582
 40
0.9414106313917204
 40
0.9851894798677833
 40
1.0
 40
1.0
 40
1.0
 40
1.0
 10
11.52921089143373
 20
7.16981700617812
 30
0.0
 10
11.71268163513988
 20
7.236986408301026
 30
0.0
 10
12.27297448232946
 20
7.442111949295938
 30
0.0
 10
13.21058198778592
 20
7.619851939264418
 30
0.0
 10
14.33880459291525
 20
7.705309971623928
 30
0.0
 10
15.47052762548586
 20
7.621622984078699
 30
0.0
 10
16.63645014210491
 20
7.372231974306269
 30
0.0
 10
17.84195764375259
 20
6.941230544648103
 30
0.0
 10
19.08590825022352
 20
6.321485404238819
 30
0.0
 10
20.32736719061384
 20
5.538864934833459
 30
0.0
 10
21.57107804500902
 20
4.61604396128505
 30
0.0
 10
22.81441159859798
 20
3.573816882673969
 30
0.0
 10
24.05588970446282
 20
2.435716131366207
 30
0.0
 10
25.30014362891701
 20
1.234603999784202
 30
0.0
 10
26.54284575871155
 20
-0.0046362255744471
 30
0.0
 10
27.78447791516459
 20
-1.25141091637618
 30
0.0
 10
29.02903955828167
 20
-2.470744090562802
 30
0.0
 10
30.27123956631926
 20
-3.638493534415234
 30
0.0
 10
31.51315334947413
 20
-4.723730340189007
 30
0.0
 10
32.75779698062445
 20
-5.697356962805218
 30
0.0
 10
33.98989745226172
 20
-6.533980416649846
 30
0.0
 10
35.21269307876966
 20
-7.212831464076468
 30
0.0
 10
36.42784051983961
 20
-7.726663562936282
 30
0.0
 10
37.63991689770944
 20
-8.054785425557622
 30
0.0
 10
38.58638843433987
 20
-8.205333863815602
 30
0.0
 10
39.1281433047095
 20
-8.18280770963451
 30
0.0
 10
39.26509087053805
 20
-8.1771134332167
 30
0.0
  0
SPLINE
  5
C6
330
1F
100
AcDbEntity
  8
0
  6
Continuous
 62
     1
370
    15
100
AcDbSpline
210
0.0
220
0.0
230
1.0
 70
     8
 71
     3
 72
    27
 73
    23
 74
     0
 42
0.000000001
 43
0.00000001
 40
0.0
 40
0.0
 40
0.0
 40
0.0
 40
0.0531298739014433
 40
0.1063266720402755
 40
0.1594204993595555
 40
0.2125288329695471
 40
0.2657327818871345
 40
0.3188417192197389
 40
0.3687243618495561
 40
0.4187197282416611
 40
0.4686059296878346
 40
0.5185035968883539
 40
0.5684956021640328
 40
0.6183704314284342
 40
0.6682881137804729
 40
0.7182675576968375
 40
0.7681360225626019
 40
0.8180786955831085
 40
0.8680363900007524
 40
0.9179035030475405
 40
0.9678723591191101
 40
1.0
 40
1.0
 40
1.0
 40
1.0
 10
41.938
 20
-8.197770315814312
 30
0.0
 10
41.49720803543455
 20
-8.174177156291139
 30
0.0
 10
40.6150688694113
 20
-8.126961118480324
 30
0.0
 10
39.29057020198864
 20
-7.779615299022572
 30
0.0
 10
37.96872216094931
 20
-7.239083827772749
 30
0.0
 10
36.64648485874432
 20
-6.500710136838022
 30
0.0
 10
35.32188383825747
 20
-5.592002010339271
 30
0.0
 10
34.02618674373056
 20
-4.555127338080425
 30
0.0
 10
32.75780240449367
 20
-3.428877344465562
 30
0.0
 10
31.51315189839672
 20
-2.251530874139432
 30
0.0
 10
30.27123995456273
 20
-1.0226734659626
 30
0.0
 10
29.02903945509621
 20
0.2245438008593163
 30
0.0
 10
27.78447793872166
 20
1.457389881747106
 30
0.0
 10
26.54284576743806
 20
2.651378874115774
 30
0.0
 10
25.30014357035553
 20
3.772814827006011
 30
0.0
 10
24.05588993006536
 20
4.79428256787408
 30
0.0
 10
22.8144107563712
 20
5.694636969281714
 30
0.0
 10
21.57108119457339
 20
6.447047241462655
 30
0.0
 10
20.32735544174355
 20
7.037555421304738
 30
0.0
 10
19.08595204629351
 20
7.442495711320543
 30
0.0
 10
17.98968823960857
 20
7.658410852714672
 30
0.0
 10
17.30848680601928
 20
7.655822051086957
 30
0.0
 10
17.04190545555584
 20
7.654808949528493
 30
0.0
  0
LINE
  5
C7
330
1F
100
AcDbEntity
  8
0
  6
Continuous
 62
     1
370
    15
100
AcDbLine
 10
41.938
 20
-8.197878025244115
 30
0.0
 11
41.938
 21
-8.19777031581431
 31
0.0
  0
SPLINE
  5
C9
330
1F
100
AcDbEntity
  8
0
  6
Continuous
 62
     1
370
    15
100
AcDbSpline
210
0.0
220
0.0
230
1.0
 70
     8
 71
     3
 72
    11
 73
     7
 74
     0
 42
0.000000001
 43
0.00000001
 40
0.0
 40
0.0
 40
0.0
 40
0.0
 40
0.1639693671004777
 40
0.525115574040781
 40
0.8996523507538516
 40
1.0
 40
1.0
 40
1.0
 40
1.0
 10
40.72413389110559
 20
-5.404055328251424
 30
0.0
 10
40.69825889762309
 20
-5.402110789774524
 30
0.0
 10
40.61539365092408
 20
-5.395883361709158
 30
0.0
 10
40.44002699058817
 20
-5.426691103993205
 30
0.0
 10
40.2623514310455
 20
-5.480365990755365
 30
0.0
 10
40.15550881031042
 20
-5.524236604970733
 30
0.0
 10
40.13293193635123
 20
-5.533506887942437
 30
0.0
  0
SPLINE
  5
CA
330
1F
100
AcDbEntity
  8
0
  6
Continuous
 62
     1
370
    15
100
AcDbSpline
210
0.0
220
0.0
230
1.0
 70
     8
 71
     3
 72
     8
 73
     4
 74
     0
 42
0.000000001
 43
0.00000001
 40
0.0
 40
0.0
 40
0.0
 40
0.0
 40
1.0
 40
1.0
 40
1.0
 40
1.0
 10
42.70000000000002
 20
-6.329243505033359
 30
0.0
 10
41.84343154747684
 20
-6.13681036317365
 30
0.0
 10
40.98773586070885
 20
-5.872089298109786
 30
0.0
 10
40.13293193635123
 20
-5.533506887942435
 30
0.0
  0
LINE
  5
CB
330
1F
100
AcDbEntity
  8
0
  6
Continuous
 62
     1
370
    15
100
AcDbLine
 10
42.70000000000002
 20
-7.434336641367894
 30
0.0
 11
42.70000000000002
 21
-6.32924350503336
 31
0.0
  0
SPLINE
  5
CD
330
1F
100
AcDbEntity
  8
0
  6
Continuous
 62
     1
370
    15
100
AcDbSpline
210
0.0
220
0.0
230
1.0
 70
     8
 71
     3
 72
    15
 73
    11
 74
     0
 42
0.000000001
 43
0.00000001
 40
0.0
 40
0.0
 40
0.0
 40
0.0
 40
0.0849554566931857
 40
0.2248589946963879
 40
0.3646552583710165
 40
0.4915751671015652
 40
0.618851281336101
 40
0.745762346369465
 40
0.8729333957158915
 40
1.0
 40
1.0
 40
1.0
 40
1.0
 10
19.84126003390619
 20
-7.687699012505306
 30
0.0
 10
19.58965996392916
 20
-7.776753588305562
 30
0.0
 10
18.92372818034882
 20
-8.012462077989484
 30
0.0
 10
17.84196268773586
 20
-8.184914713580367
 30
0.0
 10
16.63644942842762
 20
-8.218414940177219
 30
0.0
 10
15.47052615082949
 20
-8.068182989198238
 30
0.0
 10
14.33881124646647
 20
-7.768368458626099
 30
0.0
 10
13.21055691333489
 20
-7.312392341875563
 30
0.0
 10
12.07976608517187
 20
-6.723750942312697
 30
0.0
 10
11.3264855416597
 20
-6.222802745653578
 30
0.0
 10
10.95000000000001
 20
-5.972431546255137
 30
0.0
  0
SPLINE
  5
CE
330
1F
100
AcDbEntity
  8
0
  6
Continuous
 62
     1
370
    15
100
AcDbSpline
210
0.0
220
0.0
230
1.0
 70
    24
 71
     3
 72
    18
 73
    14
 74
     0
 42
0.000000001
 43
0.00000001
 40
0.0
 40
0.0
 40
0.0
 40
0.0
 40
0.25
 40
0.25
 40
0.5
 40
0.5
 40
0.625
 40
0.625
 40
0.75
 40
0.75
 40
0.875
 40
0.875
 40
1.0
 40
1.0
 40
1.0
 40
1.0
 10
10.95000000000001
 20
-1.036788958398617
 30
0.0
 10
10.95000000000001
 20
-1.151178231428799
 30
0.0
 10
10.95000000000001
 20
-1.316938216729714
 30
0.0
 10
10.95000000000001
 20
-1.809817199139121
 30
0.0
 10
10.95000000000001
 20
-2.139176507471689
 30
0.0
 10
10.95000000000001
 20
-2.781887422259016
 30
0.0
 10
10.95000000000001
 20
-3.020476584011264
 30
0.0
 10
10.95000000000001
 20
-3.541064411394897
 30
0.0
 10
10.95000000000001
 20
-3.823102967214321
 30
0.0
 10
10.95000000000001
 20
-4.415910250635565
 30
0.0
 10
10.95000000000001
 20
-4.726586765765973
 30
0.0
 10
10.95000000000001
 20
-5.352949376036235
 30
0.0
 10
10.95000000000001
 20
-5.668409143482942
 30
0.0
 10
10.95000000000001
 20
-5.972431546255137
 30
0.0
  0
LINE
  5
CF
330
1F
100
AcDbEntity
  8
0
  6
Continuous
 62
     1
370
    15
100
AcDbLine
 10
42.70000000000002
 20
-1.126403429028555
 30
0.0
 11
42.70000000000002
 21
2.426334960228371
 31
0.0
  0
LINE
  5
D0
330
1F
100
AcDbEntity
  8
0
  6
Continuous
 62
     1
370
    15
100
AcDbLine
 10
40.13293193635123
 20
0.167372635429854
 30
0.0
 11
42.70000000000002
 21
-1.126403429028555
 31
0.0
  0
ELLIPSE
  5
D1
330
1F
100
AcDbEntity
  8
0
  6
Continuous
 62
     1
370
    15
100
AcDbEllipse
 10
44.12814800674213
 20
-0.2603780252441151
 30
0.0
 11
11.18322645805124
 21
7.430697861030175
 31
0.0
210
0.0
220
0.0
230
1.0
 40
0.2495534463455929
 41
1.60090238907317
 42
1.660442737725112
  0
SPLINE
  5
D2
330
1F
100
AcDbEntity
  8
0
  6
Continuous
 62
     1
370
    15
100
AcDbSpline
210
0.0
220
0.0
230
1.0
 70
     8
 71
     3
 72
    14
 73
    10
 74
     0
 42
0.000000001
 43
0.00000001
 40
0.0
 40
0.0
 40
0.0
 40
0.0
 40
0.25
 40
0.25
 40
0.5
 40
0.5
 40
0.75
 40
0.75
 40
1.0
 40
1.0
 40
1.0
 40
1.0
 10
42.70000000000002
 20
2.426334960228369
 30
0.0
 10
42.70000000000002
 20
2.480233208436447
 30
0.0
 10
42.67641365806339
 20
2.520349447261589
 30
0.0
 10
42.58730444409864
 20
2.561033525090258
 30
0.0
 10
42.52327775192631
 20
2.561914248059483
 30
0.0
 10
42.3750767424851
 20
2.53188876105081
 30
0.0
 10
42.29093108451313
 20
2.501258048640173
 30
0.0
 10
42.11593975474162
 20
2.417522326546229
 30
0.0
 10
42.02697009230504
 20
2.365579633537786
 30
0.0
 10
41.938
 20
2.305494752680902
 30
0.0
  0
SPLINE
  5
D3
330
1F
100
AcDbEntity
  8
0
  6
Continuous
 62
     1
370
    15
100
AcDbSpline
210
0.0
220
0.0
230
1.0
 70
     8
 71
     3
 72
    14
 73
    10
 74
     0
 42
0.000000001
 43
0.00000001
 40
0.0
 40
0.0
 40
0.0
 40
0.0
 40
0.1599329083742791
 40
0.3200672738035136
 40
0.47989167383213
 40
0.6397597410689074
 40
0.7999156319556573
 40
0.9597855165337197
 40
1.0
 40
1.0
 40
1.0
 40
1.0
 10
41.938
 20
3.744128826506969
 30
0.0
 10
41.49720796709109
 20
4.114170518930986
 30
0.0
 10
40.61506866429483
 20
4.854720021167395
 30
0.0
 10
39.29057102299765
 20
5.792507741564098
 30
0.0
 10
37.96871908859386
 20
6.570946092769939
 30
0.0
 10
36.64649634179833
 20
7.161836879377184
 30
0.0
 10
35.32184092857137
 20
7.530699729867659
 30
0.0
 10
34.32927010716394
 20
7.691537649923172
 30
0.0
 10
33.77792213358809
 20
7.663673365330633
 30
0.0
 10
33.66710800960505
 20
7.658072988734504
 30
0.0
  0
LINE
  5
D4
330
1F
100
AcDbEntity
  8
0
  6
Continuous
 62
     1
370
    15
100
AcDbLine
 10
11.52921089143373
 20
-7.690573056666352
 30
0.0
 11
10.95000000000001
 21
-7.88948168826539
 31
0.0
  0
SPLINE
  5
D6
330
1F
100
AcDbEntity
  8
0
  6
Continuous
 62
     1
370
    15
100
AcDbSpline
210
0.0
220
0.0
230
1.0
 70
     8
 71
     3
 72
    16
 73
    12
 74
     0
 42
0.000000001
 43
0.00000001
 40
0.0
 40
0.0
 40
0.0
 40
0.0
 40
0.2500000000000041
 40
0.2500000000000041
 40
0.375000000000007
 40
0.375000000000007
 40
0.50000000000001
 40
0.50000000000001
 40
0.750000000000005
 40
0.750000000000005
 40
1.0
 40
1.0
 40
1.0
 40
1.0
 10
42.70000000000002
 20
3.197804861640197
 30
0.0
 10
42.69999999999985
 20
3.168061583651515
 30
0.0
 10
42.68619627883068
 20
3.151857153676715
 30
0.0
 10
42.62416239104461
 20
3.174038356150988
 30
0.0
 10
42.5967904830354
 20
3.189331937013845
 30
0.0
 10
42.53028645829652
 20
3.234846598257641
 30
0.0
 10
42.49169207109095
 20
3.264640318908084
 30
0.0
 10
42.3680414545653
 20
3.365650196824971
 30
0.0
 10
42.27926198055178
 20
3.444334023060187
 30
0.0
 10
42.10651785092408
 20
3.596989476714136
 30
0.0
 10
42.02060796665792
 20
3.672955965829976
 30
0.0
 10
41.938
 20
3.744128826506965
 30
0.0
  0
LINE
  5
D7
330
1F
100
AcDbEntity
  8
0
  6
Continuous
 62
     1
370
    15
100
AcDbLine
 10
42.70000000000002
 20
2.426334960228371
 30
0.0
 11
42.70000000000002
 21
3.197804861642461
 31
0.0
  0
SPLINE
  5
D8
330
1F
100
AcDbEntity
  8
0
  6
Continuous
 62
     1
370
    15
100
AcDbSpline
210
0.0
220
0.0
230
1.0
 70
     8
 71
     3
 72
    10
 73
     6
 74
     0
 42
0.000000001
 43
0.00000001
 40
0.0
 40
0.0
 40
0.0
 40
0.0
 40
0.3344294238095674
 40
0.6691337389031812
 40
1.0
 40
1.0
 40
1.0
 40
1.0
 10
10.95000000000034
 20
-7.489695918514622
 30
0.0
 10
11.32650095973767
 20
-7.630457757821938
 30
0.0
 10
12.07981235207834
 20
-7.912097138584756
 30
0.0
 10
13.20681748232625
 20
-8.150578164976665
 30
0.0
 10
13.95556716238116
 20
-8.181671282188645
 30
0.0
 10
14.32778314668021
 20
-8.197128190600457
 30
0.0
  0
SPLINE
  5
D9
330
1F
100
AcDbEntity
  8
0
  6
Continuous
 62
     1
370
    15
100
AcDbSpline
210
0.0
220
0.0
230
1.0
 70
     8
 71
     3
 72
    11
 73
     7
 74
     0
 42
0.000000001
 43
0.00000001
 40
0.0
 40
0.0
 40
0.0
 40
0.0
 40
0.2464800131770649
 40
0.4978043293089187
 40
0.7491023197827371
 40
1.0
 40
1.0
 40
1.0
 40
1.0
 10
36.44955819026661
 20
7.181187985363209
 30
0.0
 10
36.84617753742261
 20
7.303808537428761
 30
0.0
 10
37.64721136388584
 20
7.551459618316329
 30
0.0
 10
38.85420779645627
 20
7.693089743104637
 30
0.0
 10
40.06817755441286
 20
7.676035738973106
 30
0.0
 10
40.87630335027549
 20
7.506975820351517
 30
0.0
 10
41.28004416155459
 20
7.422513241569217
 30
0.0
  0
SPLINE
  5
DA
330
1F
100
AcDbEntity
  8
0
  6
Continuous
 62
     1
370
    15
100
AcDbSpline
210
0.0
220
0.0
230
1.0
 70
     8
 71
     3
 72
    18
 73
    14
 74
     0
 42
0.000000001
 43
0.00000001
 40
0.0
 40
0.0
 40
0.0
 40
0.0
 40
0.2500000000000001
 40
0.2500000000000001
 40
0.5000000000000012
 40
0.5000000000000012
 40
0.6250000000000009
 40
0.6250000000000009
 40
0.7500000000000007
 40
0.7500000000000007
 40
0.8750000000000003
 40
0.8750000000000003
 40
1.0
 40
1.0
 40
1.0
 40
1.0
 10
41.2800441615382
 20
7.422513241573337
 30
0.0
 10
41.25323747711823
 20
7.210576447541114
 30
0.0
 10
41.21400748351786
 20
7.003724620692696
 30
0.0
 10
41.10350971755366
 20
6.603134305106121
 30
0.0
 10
41.03168999582039
 20
6.407639885883507
 30
0.0
 10
40.89109535915154
 20
6.134368130370637
 30
0.0
 10
40.839430974637
 20
6.047993752972343
 30
0.0
 10
40.72511992951895
 20
5.886036671297838
 30
0.0
 10
40.66172491779717
 20
5.809804646829066
 30
0.0
 10
40.52542125201075
 20
5.673926683376854
 30
0.0
 10
40.45304306955349
 20
5.614535643945868
 30
0.0
 10
40.29946967122622
 20
5.513586328721657
 30
0.0
 10
40.21724271411202
 20
5.471689846667743
 30
0.0
 10
40.13293193635124
 20
5.440501498128167
 30
0.0
  0
SPLINE
  5
DB
330
1F
100
AcDbEntity
  8
0
  6
Continuous
 62
     1
370
    15
100
AcDbSpline
210
0.0
220
0.0
230
1.0
 70
     8
 71
     3
 72
     8
 73
     4
 74
     0
 42
0.000000001
 43
0.00000001
 40
0.0
 40
0.0
 40
0.0
 40
0.0
 40
1.0
 40
1.0
 40
1.0
 40
1.0
 10
42.70000000000002
 20
4.442127178096555
 30
0.0
 10
41.84343154747684
 20
4.841317150349819
 30
0.0
 10
40.98773586070884
 20
5.17458686470545
 30
0.0
 10
40.13293193635123
 20
5.440501498128171
 30
0.0
  0
LINE
  5
DC
330
1F
100
AcDbEntity
  8
0
  6
Continuous
 62
     1
370
    15
100
AcDbLine
 10
42.70000000000002
 20
3.197804861642461
 30
0.0
 11
42.70000000000002
 21
4.442127178096555
 31
0.0
  0
SPLINE
  5
DD
330
1F
100
AcDbEntity
  8
0
  6
Continuous
 62
     1
370
    15
100
AcDbSpline
210
0.0
220
0.0
230
1.0
 70
    24
 71
     3
 72
     9
 73
     5
 74
     0
 42
0.000000001
 43
0.00000001
 40
0.0
 40
0.0
 40
0.0
 40
0.0
 40
0.0669469388870213
 40
0.9999999999999999
 40
0.9999999999999999
 40
0.9999999999999999
 40
0.9999999999999999
 10
10.95000000000002
 20
-7.5523897773153
 30
0.0
 10
10.95000000000002
 20
-7.558784256626467
 30
0.0
 10
10.95000000000002
 20
-7.654299890611751
 30
0.0
 10
10.95000000000002
 20
-7.775963285365245
 30
0.0
 10
10.95000000000002
 20
-7.889481688265386
 30
0.0
  0
LINE
  5
DE
330
1F
100
AcDbEntity
  8
0
  6
Continuous
 62
     1
370
    15
100
AcDbLine
 10
42.70000000000002
 20
-4.67914181828552
 30
0.0
 11
42.70000000000002
 21
-3.976153754481333
 31
0.0
  0
SPLINE
  5
DF
330
1F
100
AcDbEntity
  8
0
  6
Continuous
 62
     1
370
    15
100
AcDbSpline
210
0.0
220
0.0
230
1.0
 70
     8
 71
     3
 72
    14
 73
    10
 74
     0
 42
0.000000001
 43
0.00000001
 40
0.0
 40
0.0
 40
0.0
 40
0.0
 40
0.25
 40
0.25
 40
0.5
 40
0.5
 40
0.75
 40
0.75
 40
1.0
 40
1.0
 40
1.0
 40
1.0
 10
42.70000000000002
 20
-4.679141818285522
 30
0.0
 10
42.70000000000002
 20
-4.733040066493599
 30
0.0
 10
42.67641365806339
 20
-4.801761703643048
 30
0.0
 10
42.58730444409864
 20
-4.950516993475534
 30
0.0
 10
42.52327775192631
 20
-5.029048970628182
 30
0.0
 10
42.3750767424851
 20
-5.17876093161044
 30
0.0
 10
42.29093108451313
 20
-5.250181655154396
 30
0.0
 10
42.11593975474162
 20
-5.37867454845428
 30
0.0
 10
42.02697009230504
 20
-5.434633820049604
 30
0.0
 10
41.938
 20
-5.482451425138786
 30
0.0
  0
LINE
  5
E0
330
1F
100
AcDbEntity
  8
0
  6
Continuous
 62
     1
370
    15
100
AcDbLine
 10
42.70000000000002
 20
-1.126403429028555
 30
0.0
 11
42.70000000000002
 21
-1.626738301692694
 31
0.0
  0
ELLIPSE
  5
E1
330
1F
100
AcDbEntity
  8
0
  6
Continuous
 62
     1
370
    15
100
AcDbEllipse
 10
44.12814800674213
 20
-0.2603780252441162
 30
0.0
 11
11.33592480351549
 21
0.0
 31
0.0
210
0.0
220
0.0
230
1.0
 40
0.7002075382097122
 41
1.765223135967118
 42
1.82476348461831
  0
LINE
  5
E2
330
1F
100
AcDbEntity
  8
0
  6
Continuous
 62
     1
370
    15
100
AcDbLine
 10
10.95000000000002
 20
-7.489695918513543
 30
0.0
 11
10.95000000000002
 21
-5.972431546255135
 31
0.0
  0
LINE
  5
E3
330
1F
100
AcDbEntity
  8
0
  6
Continuous
 62
     1
370
    15
100
AcDbLine
 10
42.70000000000002
 20
-4.679141818285521
 30
0.0
 11
42.70000000000002
 21
-6.329243505033361
 31
0.0
  0
SPLINE
  5
E4
330
1F
100
AcDbEntity
  8
0
  6
Continuous
 62
     1
370
    15
100
AcDbSpline
210
0.0
220
0.0
230
1.0
 70
     8
 71
     3
 72
    14
 73
    10
 74
     0
 42
0.000000001
 43
0.00000001
 40
0.0
 40
0.0
 40
0.0
 40
0.0
 40
0.25
 40
0.25
 40
0.5
 40
0.5
 40
0.75
 40
0.75
 40
1.0
 40
1.0
 40
1.0
 40
1.0
 10
42.70000000000002
 20
6.845098753269765
 30
0.0
 10
42.70000000000002
 20
6.952895249685918
 30
0.0
 10
42.67641365806339
 20
7.061733125660511
 30
0.0
 10
42.58730444409864
 20
7.251172493321667
 30
0.0
 10
42.52327775192631
 20
7.33058519344354
 30
0.0
 10
42.3750767424851
 20
7.450271667417122
 30
0.0
 10
42.29093108451315
 20
7.491061678550444
 30
0.0
 10
42.11593975474162
 20
7.535818849756387
 30
0.0
 10
42.02697009230502
 20
7.539835428343264
 30
0.0
 10
41.938
 20
7.527568152575561
 30
0.0
  0
LINE
  5
E5
330
1F
100
AcDbEntity
  8
0
  6
Continuous
 62
     1
370
    15
100
AcDbLine
 10
42.70000000000002
 20
4.442127178096555
 30
0.0
 11
42.70000000000002
 21
6.845098753269765
 31
0.0
  0
LINE
  5
E6
330
1F
100
AcDbEntity
  8
0
  6
Continuous
 62
     1
370
    15
100
AcDbLine
 10
42.70000000000002
 20
6.845098753269765
 30
0.0
 11
42.70000000000002
 21
6.913580590879659
 31
0.0
  0
LINE
  5
E9
330
1F
100
AcDbEntity
  8
중심선
100
AcDbLine
 10
-49.2
 20
-0.2603780252441127
 30
0.0
 11
45.70000000000002
 21
-0.2603780252441131
 31
0.0
  0
CIRCLE
  5
EA
330
1F
100
AcDbEntity
  8
외형선
100
AcDbCircle
 10
0.0000000000000139
 20
-0.0000000000000035
 30
0.0
 40
3.000000000000001
  0
INSERT
  5
EB
330
1F
100
AcDbEntity
  8
0
  6
Continuous
 62
     7
100
AcDbBlockReference
 66
     1
  2
블럭10
 10
-15.67936049909347
 20
-52.04717430164393
 30
0.0
  0
ATTRIB
  5
EC
330
EB
100
AcDbEntity
  8
FORMAT
 62
     2
100
AcDbText
 10
-26.73038085127794
 20
-49.97180738881174
 30
0.0
 40
4.233333333333333
  1
GMG23040[ 6 FLUTE ]
 41
0.75
  7
SLDTEXTSTYLE0
 11
-26.73038085127794
 21
-52.08847405547841
 31
0.0
100
AcDbAttribute
  2
AUTOATTR0
 70
     0
 74
     1
  0
SEQEND
  5
ED
330
EB
100
AcDbEntity
  8
0
  6
Continuous
 62
     7
  0
HATCH
  5
EE
330
1F
100
AcDbEntity
  8
중심선
100
AcDbHatch
 10
0.0
 20
0.0
 30
0.0
210
0.0
220
0.0
230
1.0
  2
SOLID
 70
     1
 71
     0
 91
        1
 92
        0
 93
        4
 72
     1
 10
-9.96445119471262
 20
-35.8
 11
-13.4107264385499
 21
-35.8
 72
     1
 10
-13.4107264385499
 20
-35.8
 11
-15.53895629775393
 21
-38.33632558057259
 72
     1
 10
-15.53895629775393
 20
-38.33632558057259
 11
-12.09264796880349
 21
-38.3362861512701
 72
     1
 10
-12.09264796880349
 20
-38.3362861512701
 11
-9.96445119471262
 21
-35.8
 97
        0
 75
     0
 76
     1
 98
        1
 10
0.0
 20
0.0
  0
HATCH
  5
EF
330
1F
100
AcDbEntity
  8
중심선
100
AcDbHatch
 10
0.0
 20
0.0
 30
0.0
210
0.0
220
0.0
230
1.0
  2
SOLID
 70
     1
 71
     0
 91
        1
 92
        0
 93
        4
 72
     1
 10
-4.951687203676669
 20
-35.8
 11
-8.397962447513951
 21
-35.8
 72
     1
 10
-8.397962447513951
 20
-35.8
 11
-12.92910045587134
 21
-41.20000000000002
 72
     1
 10
-12.92910045587134
 20
-41.20000000000002
 11
-9.482825212034058
 21
-41.20000000000002
 72
     1
 10
-9.482825212034058
 20
-41.20000000000002
 11
-4.951687203676669
 21
-35.8
 97
        0
 75
     0
 76
     1
 98
        1
 10
0.0
 20
0.0
  0
HATCH
  5
F0
330
1F
100
AcDbEntity
  8
중심선
100
AcDbHatch
 10
0.0
 20
0.0
 30
0.0
210
0.0
220
0.0
230
1.0
  2
SOLID
 70
     1
 71
     0
 91
        1
 92
        0
 93
        4
 72
     1
 10
0.0610767873592266
 20
-35.80000000000003
 11
-3.385198456477889
 21
-35.8
 72
     1
 10
-3.385198456477889
 20
-35.8
 11
-10.43363535836714
 21
-44.20000000000002
 72
     1
 10
-10.43363535836714
 20
-44.20000000000002
 11
-6.987360114529856
 21
-44.20000000000002
 72
     1
 10
-6.987360114529856
 20
-44.20000000000002
 11
0.0610767873592266
 21
-35.80000000000003
 97
        0
 75
     0
 76
     1
 98
        1
 10
0.0
 20
0.0
  0
HATCH
  5
F1
330
1F
100
AcDbEntity
  8
중심선
100
AcDbHatch
 10
0.0
 20
0.0
 30
0.0
210
0.0
220
0.0
230
1.0
  2
SOLID
 70
     1
 71
     0
 91
        1
 92
        0
 93
        6
 72
     3
 10
4.860967218371426
 20
-40.00000000005127
 11
3.960054785062284
 21
1.540850780301639E-10
 40
0.3939339440162633
 50
17.09539180608434
 51
320.0019657685079
 73
     0
 72
     1
 10
6.543966874072021
 20
-38.5878940046383
 11
8.84926874777306
 21
-36.65356729459038
 72
     3
 10
4.86096721831858
 20
-40.00000000000015
 11
6.600054785286829
 21
-1.249000902703301E-13
 40
0.6363583540795982
 50
39.99873849337408
 51
368.4976242363724
 73
     1
 72
     1
 10
11.28629971021919
 20
-39.03999999993002
 11
3.541034525154502
 21
-39.03999999992999
 72
     1
 10
3.541034525154502
 20
-39.03999999992999
 11
3.541009480708568
 21
-40.95999999992991
 72
     1
 10
3.541009480708568
 20
-40.95999999992991
 11
7.982389250180605
 21
-40.95999999992988
 97
        0
 75
     0
 76
     1
 98
        1
 10
0.0
 20
0.0
  0
POINT
  5
F2
330
1F
100
AcDbEntity
  8
치수문자_일반주서
100
AcDbPoint
 10
0.0000000000000139
 20
-0.0000000000000035
 30
0.0
  0
DIMENSION
  5
F3
330
1F
100
AcDbEntity
  8
치수문자_일반주서
100
AcDbDimension
  2
_D
 10
42.70000000000002
 20
41.86849845446576
 30
0.0
 11
0.8819476343204565
 21
41.86849845446576
 31
0.0
 70
   160
  1
<>
 71
     2
 42
88.9
  3
SLDDIMSTYLE3
100
AcDbAlignedDimension
 13
-46.19999999999999
 23
7.177121974755877
 33
0.0
 14
42.70000000000002
 24
6.845098753269765
 34
0.0
100
AcDbRotatedDimension
1001
ACAD
1000
DSTYLE
1002
{
1070
   273
1070
     7
1002
}
  0
DIMENSION
  5
107
330
1F
100
AcDbEntity
  8
치수문자_일반주서
100
AcDbDimension
  2
_D_1
 10
54.71406763087012
 20
-8.197878025244066
 30
0.0
 11
54.71406763087009
 21
-0.2603780252441171
 31
0.0
 70
   160
  1
%%c<>
 71
     2
 42
15.87499999999999
  3
SLDDIMSTYLE3
100
AcDbAlignedDimension
 13
41.938
 23
7.677121974755884
 33
0.0
 14
40.60154543526902
 24
-8.197878025244115
 34
0.0
 50
90.0000000000002
100
AcDbRotatedDimension
1001
ACAD
1000
DSTYLE
1002
{
1070
   171
1070
     3
1070
   273
1070
     7
1002
}
  0
DIMENSION
  5
11C
330
1F
100
AcDbEntity
  8
치수문자_일반주서
100
AcDbDimension
  2
_D_2
 10
10.95000000000001
 20
26.70210399775483
 30
0.0
 11
26.48969794724866
 21
26.70210399775483
 31
0.0
 70
   160
  1
<>
 71
     2
 42
31.75000000000001
  3
SLDDIMSTYLE3
100
AcDbAlignedDimension
 13
42.70000000000002
 23
6.845098753269765
 33
0.0
 14
10.95000000000001
 24
-7.88948168826539
 34
0.0
 50
0.0000000000000128
100
AcDbRotatedDimension
1001
ACAD
1000
DSTYLE
1002
{
1070
   273
1070
     7
1002
}
  0
DIMENSION
  5
130
330
1F
100
AcDbEntity
  8
치수문자_일반주서
100
AcDbDimension
  2
_D_3
 10
-59.19999999999997
 20
-8.197878025244167
 30
0.0
 11
-59.2
 21
-0.260378025244182
 31
0.0
 70
   160
  1
%%c<>
 71
     2
 42
15.875
  3
SLDDIMSTYLE3
100
AcDbAlignedDimension
 13
-45.69999999999999
 23
7.67712197475588
 33
0.0
 14
-45.69999999999999
 24
-8.197878025244119
 34
0.0
 50
90.0000000000002
100
AcDbRotatedDimension
1001
ACAD
1000
DSTYLE
1002
{
1070
   171
1070
     3
1070
   273
1070
     7
1002
}
  0
INSERT
  5
14B
330
1F
100
AcDbEntity
  8
외형선
100
AcDbBlockReference
  2
SW_DOWELSYMBOL_0
 10
0.0000000000000139
 20
-0.0000000000000035
 30
0.0
  0
ARC
  5
171
330
1F
100
AcDbEntity
  8
0
  6
Continuous
 62
     1
370
    15
100
AcDbCircle
 10
41.93800000000002
 20
6.915121974755884
 30
0.0
 40
0.7619999999999998
100
AcDbArc
 50
359.9418216800684
 51
90.0
  0
ARC
  5
172
330
1F
100
AcDbEntity
  8
0
  6
Continuous
 62
     1
370
    15
100
AcDbCircle
 10
41.93800000000002
 20
-7.435878025244116
 30
0.0
 40
0.7619999999999998
100
AcDbArc
 50
269.9999999999989
 51
0.0581783200227486
  0
DIMENSION
  5
175
330
1F
100
AcDbEntity
  8
치수문자_일반주서
100
AcDbDimension
  2
*D7
 10
41.93800000000002
 20
6.915121974755884
 30
0.0
 11
59.59628528150902
 21
27.95463171047317
 31
0.0
 70
   164
  1
<>
 71
     5
 42
0.7620000000000027
  3
SLDDIMSTYLE3
100
AcDbRadialDimension
 15
42.42786993139089
 25
7.498792644156961
 35
0.0
 40
0.0
1001
ACAD
1000
DSTYLE
1002
{
1070
   273
1070
     2
1002
}
1001
ACAD_DSTYLE_DIMRADIAL_EXTENSION
1070
   387
1070
     1
1070
   388
1040
6.2821699039435
1070
   390
1040
1.570796326794897
  0
LINE
  5
273
330
1F
100
AcDbEntity
  8
0
  6
Continuous
 62
     4
370
    15
100
AcDbLine
 10
-27.083325
 20
6.026121974755839
 30
0.0
 11
-16.89792499999999
 21
6.026121974755839
 31
0.0
  0
LINE
  5
274
330
1F
100
AcDbEntity
  8
0
  6
Continuous
 62
     4
370
    15
100
AcDbLine
 10
-27.083325
 20
6.026121974755938
 30
0.0
 11
-28.73432499999996
 21
7.677121974755849
 31
0.0
  0
LINE
  5
275
330
1F
100
AcDbEntity
  8
0
  6
Continuous
 62
     4
370
    15
100
AcDbLine
 10
-16.8979250000001
 20
6.026121974755938
 30
0.0
 11
-15.24692500000009
 21
7.677121974755849
 31
0.0
  0
LINE
  5
276
330
1F
100
AcDbEntity
  8
0
  6
Continuous
 62
     4
370
    15
100
AcDbLine
 10
-28.73432499999998
 20
7.677121974755881
 30
0.0
 11
-45.69999999999999
 21
7.67712197475588
 31
0.0
  0
ENDSEC
  0
SECTION
  2
OBJECTS
  0
DICTIONARY
  5
C
330
0
100
AcDbDictionary
281
     1
  3
ACAD_GROUP
350
D
  3
ACAD_IMAGE_VARS
350
16F
  3
ACAD_LAYOUT
350
1A
  3
ACAD_MLINESTYLE
350
17
  3
ACAD_PLOTSETTINGS
350
19
  3
ACAD_PLOTSTYLENAME
350
E
  3
ACAD_SCALELIST
350
47
  3
APPDATA
350
16D
  3
DWGPROPS
350
29B
  0
DICTIONARY
  5
1F3
330
2
100
AcDbDictionary
280
     1
281
     1
  3
ACAD_LAYERSTATES
360
1F4
  0
DICTIONARY
  5
299
330
1F
100
AcDbDictionary
280
     1
281
     1
  3
DIM_BOUNDING_BOXES_V1
360
29A
  0
DICTIONARY
  5
D
102
{ACAD_REACTORS
330
C
102
}
330
C
100
AcDbDictionary
281
     1
  0
RASTERVARIABLES
  5
16F
102
{ACAD_REACTORS
330
C
102
}
330
C
100
AcDbRasterVariables
 90
        0
 70
     1
 71
     1
 72
     1
  0
DICTIONARY
  5
1A
102
{ACAD_REACTORS
330
C
102
}
330
C
100
AcDbDictionary
281
     1
  3
Layout1
350
1E
  3
Layout2
350
26
  3
Model
350
22
  0
DICTIONARY
  5
17
102
{ACAD_REACTORS
330
C
102
}
330
C
100
AcDbDictionary
281
     1
  3
Standard
350
18
  0
DICTIONARY
  5
19
102
{ACAD_REACTORS
330
C
102
}
330
C
100
AcDbDictionary
281
     1
  0
ACDBDICTIONARYWDFLT
  5
E
102
{ACAD_REACTORS
330
C
102
}
330
C
100
AcDbDictionary
281
     1
  3
Normal
350
F
100
AcDbDictionaryWithDefault
340
F
  0
DICTIONARY
  5
47
102
{ACAD_REACTORS
330
C
102
}
330
C
100
AcDbDictionary
281
     1
  3
A0
350
48
  3
A1
350
49
  3
A2
350
4A
  3
A3
350
4B
  3
A4
350
4C
  3
A5
350
4D
  3
A6
350
4E
  3
A7
350
4F
  3
A8
350
50
  3
A9
350
51
  3
B0
350
52
  3
B1
350
53
  3
B2
350
54
  3
B3
350
55
  3
B4
350
56
  3
B5
350
57
  3
B6
350
58
  3
B7
350
59
  3
B8
350
5A
  3
B9
350
5B
  3
C0
350
5C
  3
C1
350
5D
  3
C2
350
5E
  3
C3
350
5F
  3
C4
350
60
  3
C5
350
61
  3
C6
350
62
  3
C7
350
63
  3
C8
350
64
  3
C9
350
65
  3
D0
350
66
  3
D1
350
67
  3
D2
350
68
  0
DICTIONARY
  5
16D
102
{ACAD_REACTORS
330
C
102
}
330
C
100
AcDbDictionary
281
     1
  0
XRECORD
  5
29B
102
{ACAD_REACTORS
330
C
102
}
330
C
100
AcDbXrecord
280
     1
  1
DWGPROPS COOKIE
  2

  3

  4

  6

  7

  8
12015018
  9

300
=
301
=
302
=
303
=
304
=
305
=
306
=
307
=
308
=
309
=
 40
0.0
 41
2458236.351894595
 42
2459697.055033345
  1

 90
        0
  0
DICTIONARY
  5
1F4
102
{ACAD_REACTORS
330
1F3
102
}
330
1F3
100
AcDbDictionary
281
     1
  0
DICTIONARY
  5
29A
102
{ACAD_REACTORS
330
299
102
}
330
299
100
AcDbDictionary
281
     1
  0
LAYOUT
  5
1E
102
{ACAD_REACTORS
330
1A
102
}
330
1A
100
AcDbPlotSettings
  1

  2
none_device
  4

  6

 40
0.0
 41
0.0
 42
0.0
 43
0.0
 44
0.0
 45
0.0
 46
0.0
 47
0.0
 48
0.0
 49
0.0
140
0.0
141
0.0
142
1.0
143
1.0
 70
   688
 72
     1
 73
     0
 74
     5
  7

 75
    16
147
1.0
148
0.0
149
0.0
100
AcDbLayout
  1
Layout1
 70
     1
 71
     1
 10
0.0
 20
0.0
 11
420.0
 21
297.0
 12
0.0
 22
0.0
 32
0.0
 14
1.000000000000000E+20
 24
1.000000000000000E+20
 34
1.000000000000000E+20
 15
-1.000000000000000E+20
 25
-1.000000000000000E+20
 35
-1.000000000000000E+20
146
0.0
 13
0.0
 23
0.0
 33
0.0
 16
1.0
 26
0.0
 36
0.0
 17
0.0
 27
1.0
 37
0.0
 76
     0
330
1B
  0
LAYOUT
  5
26
102
{ACAD_REACTORS
330
1A
102
}
330
1A
100
AcDbPlotSettings
  1

  2
none_device
  4

  6

 40
0.0
 41
0.0
 42
0.0
 43
0.0
 44
0.0
 45
0.0
 46
0.0
 47
0.0
 48
0.0
 49
0.0
140
0.0
141
0.0
142
1.0
143
1.0
 70
   688
 72
     1
 73
     0
 74
     5
  7

 75
    16
147
1.0
148
0.0
149
0.0
100
AcDbLayout
  1
Layout2
 70
     1
 71
     2
 10
0.0
 20
0.0
 11
0.0
 21
0.0
 12
0.0
 22
0.0
 32
0.0
 14
0.0
 24
0.0
 34
0.0
 15
0.0
 25
0.0
 35
0.0
146
0.0
 13
0.0
 23
0.0
 33
0.0
 16
1.0
 26
0.0
 36
0.0
 17
0.0
 27
1.0
 37
0.0
 76
     0
330
23
  0
LAYOUT
  5
22
102
{ACAD_REACTORS
330
1A
102
}
330
1A
100
AcDbPlotSettings
  1

  2
none_device
  4
ANSI_A_(11.00_x_8.50_Inches)
  6

 40
6.35
 41
19.05
 42
6.35000508
 43
19.05000254
 44
279.4
 45
215.9
 46
152.0824706259187
 47
86.88864524477594
 48
0.0
 49
0.0
140
0.0
141
0.0
142
0.0814009646387543
143
1.0
 70
  1696
 72
     0
 73
     0
 74
     0
  7

 75
     0
147
0.0235690232323232
148
0.0
149
0.0
100
AcDbLayout
  1
Model
 70
     1
 71
     0
 10
0.0
 20
0.0
 11
420.0
 21
297.0
 12
0.0
 22
0.0
 32
0.0
 14
-63.57500000000005
 24
-49.97180738881174
 34
0.0
 15
68.0340055564503
 25
46.24349845446576
 35
0.0
146
0.0
 13
0.0
 23
0.0
 33
0.0
 16
1.0
 26
0.0
 36
0.0
 17
0.0
 27
1.0
 37
0.0
 76
     0
330
1F
331
29
  0
MLINESTYLE
  5
18
102
{ACAD_REACTORS
330
17
102
}
330
17
100
AcDbMlineStyle
  2
Standard
 70
     0
  3

 62
   256
 51
90.0
 52
90.0
 71
     2
 49
0.5
 62
   256
  6
BYLAYER
 49
-0.5
 62
   256
  6
BYLAYER
  0
ACDBPLACEHOLDER
  5
F
102
{ACAD_REACTORS
330
E
102
}
330
E
  0
SCALE
  5
48
102
{ACAD_REACTORS
330
47
102
}
330
47
100
AcDbScale
 70
     0
300
1:1
140
1.0
141
1.0
290
     1
  0
SCALE
  5
49
102
{ACAD_REACTORS
330
47
102
}
330
47
100
AcDbScale
 70
     0
300
1:2
140
1.0
141
2.0
290
     0
  0
SCALE
  5
4A
102
{ACAD_REACTORS
330
47
102
}
330
47
100
AcDbScale
 70
     0
300
1:4
140
1.0
141
4.0
290
     0
  0
SCALE
  5
4B
102
{ACAD_REACTORS
330
47
102
}
330
47
100
AcDbScale
 70
     0
300
1:5
140
1.0
141
5.0
290
     0
  0
SCALE
  5
4C
102
{ACAD_REACTORS
330
47
102
}
330
47
100
AcDbScale
 70
     0
300
1:8
140
1.0
141
8.0
290
     0
  0
SCALE
  5
4D
102
{ACAD_REACTORS
330
47
102
}
330
47
100
AcDbScale
 70
     0
300
1:10
140
1.0
141
10.0
290
     0
  0
SCALE
  5
4E
102
{ACAD_REACTORS
330
47
102
}
330
47
100
AcDbScale
 70
     0
300
1:16
140
1.0
141
16.0
290
     0
  0
SCALE
  5
4F
102
{ACAD_REACTORS
330
47
102
}
330
47
100
AcDbScale
 70
     0
300
1:20
140
1.0
141
20.0
290
     0
  0
SCALE
  5
50
102
{ACAD_REACTORS
330
47
102
}
330
47
100
AcDbScale
 70
     0
300
1:30
140
1.0
141
30.0
290
     0
  0
SCALE
  5
51
102
{ACAD_REACTORS
330
47
102
}
330
47
100
AcDbScale
 70
     0
300
1:40
140
1.0
141
40.0
290
     0
  0
SCALE
  5
52
102
{ACAD_REACTORS
330
47
102
}
330
47
100
AcDbScale
 70
     0
300
1:50
140
1.0
141
50.0
290
     0
  0
SCALE
  5
53
102
{ACAD_REACTORS
330
47
102
}
330
47
100
AcDbScale
 70
     0
300
1:100
140
1.0
141
100.0
290
     0
  0
SCALE
  5
54
102
{ACAD_REACTORS
330
47
102
}
330
47
100
AcDbScale
 70
     0
300
2:1
140
2.0
141
1.0
290
     0
  0
SCALE
  5
55
102
{ACAD_REACTORS
330
47
102
}
330
47
100
AcDbScale
 70
     0
300
4:1
140
4.0
141
1.0
290
     0
  0
SCALE
  5
56
102
{ACAD_REACTORS
330
47
102
}
330
47
100
AcDbScale
 70
     0
300
8:1
140
8.0
141
1.0
290
     0
  0
SCALE
  5
57
102
{ACAD_REACTORS
330
47
102
}
330
47
100
AcDbScale
 70
     0
300
10:1
140
10.0
141
1.0
290
     0
  0
SCALE
  5
58
102
{ACAD_REACTORS
330
47
102
}
330
47
100
AcDbScale
 70
     0
300
100:1
140
100.0
141
1.0
290
     0
  0
SCALE
  5
59
102
{ACAD_REACTORS
330
47
102
}
330
47
100
AcDbScale
 70
     0
300
1/128" = 1'-0"
140
0.0078125
141
12.0
290
     0
  0
SCALE
  5
5A
102
{ACAD_REACTORS
330
47
102
}
330
47
100
AcDbScale
 70
     0
300
1/64" = 1'-0"
140
0.015625
141
12.0
290
     0
  0
SCALE
  5
5B
102
{ACAD_REACTORS
330
47
102
}
330
47
100
AcDbScale
 70
     0
300
1/32" = 1'-0"
140
0.03125
141
12.0
290
     0
  0
SCALE
  5
5C
102
{ACAD_REACTORS
330
47
102
}
330
47
100
AcDbScale
 70
     0
300
1/16" = 1'-0"
140
0.0625
141
12.0
290
     0
  0
SCALE
  5
5D
102
{ACAD_REACTORS
330
47
102
}
330
47
100
AcDbScale
 70
     0
300
3/32" = 1'-0"
140
0.09375
141
12.0
290
     0
  0
SCALE
  5
5E
102
{ACAD_REACTORS
330
47
102
}
330
47
100
AcDbScale
 70
     0
300
1/8" = 1'-0"
140
0.125
141
12.0
290
     0
  0
SCALE
  5
5F
102
{ACAD_REACTORS
330
47
102
}
330
47
100
AcDbScale
 70
     0
300
3/16" = 1'-0"
140
0.1875
141
12.0
290
     0
  0
SCALE
  5
60
102
{ACAD_REACTORS
330
47
102
}
330
47
100
AcDbScale
 70
     0
300
1/4" = 1'-0"
140
0.25
141
12.0
290
     0
  0
SCALE
  5
61
102
{ACAD_REACTORS
330
47
102
}
330
47
100
AcDbScale
 70
     0
300
3/8" = 1'-0"
140
0.375
141
12.0
290
     0
  0
SCALE
  5
62
102
{ACAD_REACTORS
330
47
102
}
330
47
100
AcDbScale
 70
     0
300
1/2" = 1'-0"
140
0.5
141
12.0
290
     0
  0
SCALE
  5
63
102
{ACAD_REACTORS
330
47
102
}
330
47
100
AcDbScale
 70
     0
300
3/4" = 1'-0"
140
0.75
141
12.0
290
     0
  0
SCALE
  5
64
102
{ACAD_REACTORS
330
47
102
}
330
47
100
AcDbScale
 70
     0
300
1" = 1'-0"
140
1.0
141
12.0
290
     0
  0
SCALE
  5
65
102
{ACAD_REACTORS
330
47
102
}
330
47
100
AcDbScale
 70
     0
300
1-1/2" = 1'-0"
140
1.5
141
12.0
290
     0
  0
SCALE
  5
66
102
{ACAD_REACTORS
330
47
102
}
330
47
100
AcDbScale
 70
     0
300
3" = 1'-0"
140
3.0
141
12.0
290
     0
  0
SCALE
  5
67
102
{ACAD_REACTORS
330
47
102
}
330
47
100
AcDbScale
 70
     0
300
6" = 1'-0"
140
6.0
141
12.0
290
     0
  0
SCALE
  5
68
102
{ACAD_REACTORS
330
47
102
}
330
47
100
AcDbScale
 70
     0
300
1'-0" = 1'-0"
140
12.0
141
12.0
290
     0
  0
ENDSEC
  0
EOF
