  0
SECTION
  2
HEADER
  9
$ACADVER
  1
AC1015
  9
$ACADMAINTVER
 70
     6
  9
$DWGCODEPAGE
  3
ANSI_949
  9
$INSBASE
 10
0.0
 20
0.0
 30
0.0
  9
$EXTMIN
 10
1.000000000000000E+20
 20
1.000000000000000E+20
 30
1.000000000000000E+20
  9
$EXTMAX
 10
-1.000000000000000E+20
 20
-1.000000000000000E+20
 30
-1.000000000000000E+20
  9
$LIMMIN
 10
0.0
 20
0.0
  9
$LIMMAX
 10
420.0
 20
297.0
  9
$ORTHOMODE
 70
     1
  9
$REGENMODE
 70
     1
  9
$FILLMODE
 70
     1
  9
$QTEXTMODE
 70
     0
  9
$MIRRTEXT
 70
     1
  9
$LTSCALE
 40
1.0
  9
$ATTMODE
 70
     1
  9
$TEXTSIZE
 40
3.5
  9
$TRACEWID
 40
1.0
  9
$TEXTSTYLE
  7
Standard
  9
$CLAYER
  8
0
  9
$CELTYPE
  6
ByLayer
  9
$CECOLOR
 62
   256
  9
$CELTSCALE
 40
1.0
  9
$DISPSILH
 70
     0
  9
$DIMSCALE
 40
1.0
  9
$DIMASZ
 40
3.302
  9
$DIMEXO
 40
1.0
  9
$DIMDLI
 40
3.75
  9
$DIMRND
 40
0.0
  9
$DIMDLE
 40
0.0
  9
$DIMEXE
 40
1.0
  9
$DIMTP
 40
0.0
  9
$DIMTM
 40
0.0
  9
$DIMTXT
 40
3.5
  9
$DIMCEN
 40
2.5
  9
$DIMTSZ
 40
0.0
  9
$DIMTOL
 70
     0
  9
$DIMLIM
 70
     0
  9
$DIMTIH
 70
     1
  9
$DIMTOH
 70
     1
  9
$DIMSE1
 70
     0
  9
$DIMSE2
 70
     0
  9
$DIMTAD
 70
     1
  9
$DIMZIN
 70
     0
  9
$DIMBLK
  1

  9
$DIMASO
 70
     1
  9
$DIMSHO
 70
     1
  9
$DIMPOST
  1

  9
$DIMAPOST
  1

  9
$DIMALT
 70
     0
  9
$DIMALTD
 70
     3
  9
$DIMALTF
 40
0.0393700787401575
  9
$DIMLFAC
 40
1.0
  9
$DIMTOFL
 70
     1
  9
$DIMTVP
 40
0.0
  9
$DIMTIX
 70
     0
  9
$DIMSOXD
 70
     0
  9
$DIMSAH
 70
     0
  9
$DIMBLK1
  1

  9
$DIMBLK2
  1

  9
$DIMSTYLE
  2
ISO-25
  9
$DIMCLRD
 70
     0
  9
$DIMCLRE
 70
     0
  9
$DIMCLRT
 70
     0
  9
$DIMTFAC
 40
1.0
  9
$DIMGAP
 40
1.524
  9
$DIMJUST
 70
     0
  9
$DIMSD1
 70
     0
  9
$DIMSD2
 70
     0
  9
$DIMTOLJ
 70
     0
  9
$DIMTZIN
 70
     0
  9
$DIMALTZ
 70
     0
  9
$DIMALTTZ
 70
     0
  9
$DIMUPT
 70
     0
  9
$DIMDEC
 70
     2
  9
$DIMTDEC
 70
     2
  9
$DIMALTU
 70
     2
  9
$DIMALTTD
 70
     3
  9
$DIMTXSTY
  7
Standard
  9
$DIMAUNIT
 70
     0
  9
$DIMADEC
 70
     2
  9
$DIMALTRND
 40
0.0
  9
$DIMAZIN
 70
     0
  9
$DIMDSEP
 70
    44
  9
$DIMATFIT
 70
     3
  9
$DIMFRAC
 70
     0
  9
$DIMLDRBLK
  1

  9
$DIMLUNIT
 70
     2
  9
$DIMLWD
 70
    -2
  9
$DIMLWE
 70
    -2
  9
$DIMTMOVE
 70
     0
  9
$LUNITS
 70
     2
  9
$LUPREC
 70
     2
  9
$SKETCHINC
 40
1.0
  9
$FILLETRAD
 40
10.0
  9
$AUNITS
 70
     0
  9
$AUPREC
 70
     2
  9
$MENU
  1
.
  9
$ELEVATION
 40
0.0
  9
$PELEVATION
 40
0.0
  9
$THICKNESS
 40
0.0
  9
$LIMCHECK
 70
     0
  9
$CHAMFERA
 40
0.0
  9
$CHAMFERB
 40
0.0
  9
$CHAMFERC
 40
0.0
  9
$CHAMFERD
 40
0.0
  9
$SKPOLY
 70
     0
  9
$TDCREATE
 40
2458236.726597292
  9
$TDUCREATE
 40
2458236.351597292
  9
$TDUPDATE
 40
2458242.487229954
  9
$TDUUPDATE
 40
2458242.112229954
  9
$TDINDWG
 40
0.0023123958
  9
$TDUSRTIMER
 40
2458242.11207647
  9
$USRTIMER
 70
     1
  9
$ANGBASE
 50
0.0
  9
$ANGDIR
 70
     0
  9
$PDMODE
 70
     0
  9
$PDSIZE
 40
-1.0
  9
$PLINEWID
 40
0.0
  9
$SPLFRAME
 70
     0
  9
$SPLINETYPE
 70
     6
  9
$SPLINESEGS
 70
     8
  9
$HANDSEED
  5
216
  9
$SURFTAB1
 70
     6
  9
$SURFTAB2
 70
     6
  9
$SURFTYPE
 70
     6
  9
$SURFU
 70
     6
  9
$SURFV
 70
     6
  9
$UCSBASE
  2

  9
$UCSNAME
  2

  9
$UCSORG
 10
0.0
 20
0.0
 30
0.0
  9
$UCSXDIR
 10
1.0
 20
0.0
 30
0.0
  9
$UCSYDIR
 10
0.0
 20
1.0
 30
0.0
  9
$UCSORTHOREF
  2

  9
$UCSORTHOVIEW
 70
     0
  9
$UCSORGTOP
 10
0.0
 20
0.0
 30
0.0
  9
$UCSORGBOTTOM
 10
0.0
 20
0.0
 30
0.0
  9
$UCSORGLEFT
 10
0.0
 20
0.0
 30
0.0
  9
$UCSORGRIGHT
 10
0.0
 20
0.0
 30
0.0
  9
$UCSORGFRONT
 10
0.0
 20
0.0
 30
0.0
  9
$UCSORGBACK
 10
0.0
 20
0.0
 30
0.0
  9
$PUCSBASE
  2

  9
$PUCSNAME
  2

  9
$PUCSORG
 10
0.0
 20
0.0
 30
0.0
  9
$PUCSXDIR
 10
1.0
 20
0.0
 30
0.0
  9
$PUCSYDIR
 10
0.0
 20
1.0
 30
0.0
  9
$PUCSORTHOREF
  2

  9
$PUCSORTHOVIEW
 70
     0
  9
$PUCSORGTOP
 10
0.0
 20
0.0
 30
0.0
  9
$PUCSORGBOTTOM
 10
0.0
 20
0.0
 30
0.0
  9
$PUCSORGLEFT
 10
0.0
 20
0.0
 30
0.0
  9
$PUCSORGRIGHT
 10
0.0
 20
0.0
 30
0.0
  9
$PUCSORGFRONT
 10
0.0
 20
0.0
 30
0.0
  9
$PUCSORGBACK
 10
0.0
 20
0.0
 30
0.0
  9
$USERI1
 70
     0
  9
$USERI2
 70
     0
  9
$USERI3
 70
     0
  9
$USERI4
 70
     0
  9
$USERI5
 70
     0
  9
$USERR1
 40
0.0
  9
$USERR2
 40
0.0
  9
$USERR3
 40
0.0
  9
$USERR4
 40
0.0
  9
$USERR5
 40
0.0
  9
$WORLDVIEW
 70
     1
  9
$SHADEDGE
 70
     3
  9
$SHADEDIF
 70
    70
  9
$TILEMODE
 70
     1
  9
$MAXACTVP
 70
    64
  9
$PINSBASE
 10
0.0
 20
0.0
 30
0.0
  9
$PLIMCHECK
 70
     0
  9
$PEXTMIN
 10
1.000000000000000E+20
 20
1.000000000000000E+20
 30
1.000000000000000E+20
  9
$PEXTMAX
 10
-1.000000000000000E+20
 20
-1.000000000000000E+20
 30
-1.000000000000000E+20
  9
$PLIMMIN
 10
0.0
 20
0.0
  9
$PLIMMAX
 10
0.0
 20
0.0
  9
$UNITMODE
 70
     0
  9
$VISRETAIN
 70
     1
  9
$PLINEGEN
 70
     0
  9
$PSLTSCALE
 70
     1
  9
$TREEDEPTH
 70
  3020
  9
$CMLSTYLE
  2
Standard
  9
$CMLJUST
 70
     0
  9
$CMLSCALE
 40
20.0
  9
$PROXYGRAPHICS
 70
     1
  9
$MEASUREMENT
 70
     1
  9
$CELWEIGHT
370
    -1
  9
$ENDCAPS
280
     0
  9
$JOINSTYLE
280
     0
  9
$LWDISPLAY
290
     1
  9
$INSUNITS
 70
     4
  9
$HYPERLINKBASE
  1

  9
$STYLESHEET
  1

  9
$XEDIT
290
     1
  9
$CEPSNTYPE
380
     0
  9
$PSTYLEMODE
290
     1
  9
$FINGERPRINTGUID
  2
{78151BEE-CF2E-409B-9660-423A0464FE3A}
  9
$VERSIONGUID
  2
{FAEB1C32-E019-11D5-929B-00C0DF256EC4}
  9
$EXTNAMES
290
     1
  9
$PSVPSCALE
 40
0.0
  9
$OLESTARTUP
290
     0
  0
ENDSEC
  0
SECTION
  2
CLASSES
  0
CLASS
  1
ACDBDICTIONARYWDFLT
  2
AcDbDictionaryWithDefault
  3
ObjectDBX Classes
 90
        0
280
     0
281
     0
  0
CLASS
  1
VISUALSTYLE
  2
AcDbVisualStyle
  3
ObjectDBX Classes
 90
     4095
280
     0
281
     0
  0
CLASS
  1
MATERIAL
  2
AcDbMaterial
  3
ObjectDBX Classes
 90
     1153
280
     0
281
     0
  0
CLASS
  1
SCALE
  2
AcDbScale
  3
ObjectDBX Classes
 90
     1153
280
     0
281
     0
  0
CLASS
  1
SUN
  2
AcDbSun
  3
SCENEOE
 90
     1153
280
     0
281
     0
  0
CLASS
  1
ACDBPLACEHOLDER
  2
AcDbPlaceHolder
  3
ObjectDBX Classes
 90
        0
280
     0
281
     0
  0
CLASS
  1
LAYOUT
  2
AcDbLayout
  3
ObjectDBX Classes
 90
        0
280
     0
281
     0
  0
CLASS
  1
TABLESTYLE
  2
AcDbTableStyle
  3
ObjectDBX Classes
 90
     4095
280
     0
281
     0
  0
CLASS
  1
MLEADERSTYLE
  2
AcDbMLeaderStyle
  3
ACDB_MLEADERSTYLE_CLASS
 90
     4095
280
     0
281
     0
  0
CLASS
  1
RASTERVARIABLES
  2
AcDbRasterVariables
  3
ISM
 90
        0
280
     0
281
     0
  0
CLASS
  1
DIMASSOC
  2
AcDbDimAssoc
  3
"AcDbDimAssoc|Product Desc:     AcDim ARX App For Dimension|Company:          Autodesk, Inc.|WEB Address:      www.autodesk.com"
 90
        0
280
     0
281
     0
  0
ENDSEC
  0
SECTION
  2
TABLES
  0
TABLE
  2
VPORT
  5
8
330
0
100
AcDbSymbolTable
 70
     1
  0
VPORT
  5
29
330
8
100
AcDbSymbolTableRecord
100
AcDbViewportTableRecord
  2
*Active
 70
     0
 10
0.0
 20
0.0
 11
1.0
 21
1.0
 12
-28.18598847186857
 22
-29.96293109468505
 13
0.0
 23
0.0
 14
10.0
 24
10.0
 15
10.0
 25
10.0
 16
0.0
 26
0.0
 36
1.0
 17
0.0
 27
0.0
 37
0.0
 40
129.5079391381331
 41
1.848178137651822
 42
50.0
 43
0.0
 44
0.0
 50
0.0
 51
0.0
 71
    16
 72
  2000
 73
     1
 74
     3
 75
     0
 76
     0
 77
     0
 78
     0
281
     0
 65
     1
110
0.0
120
0.0
130
0.0
111
1.0
121
0.0
131
0.0
112
0.0
122
1.0
132
0.0
 79
     0
146
0.0
  0
ENDTAB
  0
TABLE
  2
LTYPE
  5
5
330
0
100
AcDbSymbolTable
 70
     6
  0
LTYPE
  5
14
330
5
100
AcDbSymbolTableRecord
100
AcDbLinetypeTableRecord
  2
ByBlock
 70
     0
  3

 72
    65
 73
     0
 40
0.0
  0
LTYPE
  5
15
330
5
100
AcDbSymbolTableRecord
100
AcDbLinetypeTableRecord
  2
ByLayer
 70
     0
  3

 72
    65
 73
     0
 40
0.0
  0
LTYPE
  5
16
330
5
100
AcDbSymbolTableRecord
100
AcDbLinetypeTableRecord
  2
Continuous
 70
     0
  3
Solid line
 72
    65
 73
     0
 40
0.0
  0
LTYPE
  5
6A
330
5
100
AcDbSymbolTableRecord
100
AcDbLinetypeTableRecord
  2
HIDDEN
 70
     0
  3
Hidden __ __ __ __ __ __ __ __ __ __ __ __ __ __
 72
    65
 73
     2
 40
1.905
 49
1.27
 74
     0
 49
-0.635
 74
     0
  0
LTYPE
  5
6B
330
5
100
AcDbSymbolTableRecord
100
AcDbLinetypeTableRecord
  2
PHANTOM
 70
     0
  3
Phantom ______  __  __  ______  __  __  ______
 72
    65
 73
     6
 40
12.7
 49
6.35
 74
     0
 49
-1.27
 74
     0
 49
1.27
 74
     0
 49
-1.27
 74
     0
 49
1.27
 74
     0
 49
-1.27
 74
     0
  0
LTYPE
  5
6C
330
5
100
AcDbSymbolTableRecord
100
AcDbLinetypeTableRecord
  2
CENTER
 70
     0
  3
Center ____ _ ____ _ ____ _ ____ _ ____ _ ____
 72
    65
 73
     4
 40
10.16
 49
6.35
 74
     0
 49
-1.27
 74
     0
 49
1.27
 74
     0
 49
-1.27
 74
     0
  0
LTYPE
  5
6D
330
5
100
AcDbSymbolTableRecord
100
AcDbLinetypeTableRecord
  2
CENTERX2
 70
     0
  3
Center (2x) ________  __  ________  __  _____
 72
    65
 73
     4
 40
20.32
 49
12.7
 74
     0
 49
-2.54
 74
     0
 49
2.54
 74
     0
 49
-2.54
 74
     0
  0
LTYPE
  5
6E
330
5
100
AcDbSymbolTableRecord
100
AcDbLinetypeTableRecord
  2
DOT2
 70
     0
  3
Dot (.5x) ........................................
 72
    65
 73
     2
 40
0.635
 49
0.0
 74
     0
 49
-0.635
 74
     0
  0
ENDTAB
  0
TABLE
  2
LAYER
  5
2
102
{ACAD_XDICTIONARY
360
202
102
}
330
0
100
AcDbSymbolTable
 70
    17
  0
LAYER
  5
10
330
2
100
AcDbSymbolTableRecord
100
AcDbLayerTableRecord
  2
0
 70
     0
 62
     7
  6
Continuous
370
    -3
390
F
  0
LAYER
  5
6F
330
2
100
AcDbSymbolTableRecord
100
AcDbLayerTableRecord
  2
FORMAT
 70
     0
 62
     2
  6
Continuous
370
    -3
390
F
  0
LAYER
  5
70
330
2
100
AcDbSymbolTableRecord
100
AcDbLayerTableRecord
  2
외형선
 70
     0
 62
   100
  6
Continuous
370
    30
390
F
  0
LAYER
  5
71
330
2
100
AcDbSymbolTableRecord
100
AcDbLayerTableRecord
  2
숨은선
 70
     0
 62
     2
  6
HIDDEN
370
    15
390
F
  0
LAYER
  5
72
330
2
100
AcDbSymbolTableRecord
100
AcDbLayerTableRecord
  2
중심선
 70
     0
 62
     1
  6
CENTERX2
370
    -3
390
F
  0
LAYER
  5
73
330
2
100
AcDbSymbolTableRecord
100
AcDbLayerTableRecord
  2
파단선
 70
     0
 62
     4
  6
Continuous
370
    -3
390
F
  0
LAYER
  5
74
330
2
100
AcDbSymbolTableRecord
100
AcDbLayerTableRecord
  2
해칭선
 70
     0
 62
     4
  6
Continuous
370
    -3
390
F
  0
LAYER
  5
75
330
2
100
AcDbSymbolTableRecord
100
AcDbLayerTableRecord
  2
가는실선
 70
     0
 62
     4
  6
Continuous
370
    -3
390
F
  0
LAYER
  5
76
330
2
100
AcDbSymbolTableRecord
100
AcDbLayerTableRecord
  2
치수_보조선
 70
     0
 62
     4
  6
Continuous
370
    -3
390
F
  0
LAYER
  5
77
330
2
100
AcDbSymbolTableRecord
100
AcDbLayerTableRecord
  2
치수문자_일반주서
 70
     0
 62
     7
  6
Continuous
370
    15
390
F
  0
LAYER
  5
78
330
2
100
AcDbSymbolTableRecord
100
AcDbLayerTableRecord
  2
개별주서
 70
     0
 62
   100
  6
Continuous
370
    30
390
F
  0
LAYER
  5
79
330
2
100
AcDbSymbolTableRecord
100
AcDbLayerTableRecord
  2
중간선
 70
     0
 62
     2
  6
Continuous
370
    15
390
F
  0
LAYER
  5
7A
330
2
100
AcDbSymbolTableRecord
100
AcDbLayerTableRecord
  2
윤곽선
 70
     0
 62
     3
  6
Continuous
370
    40
390
F
  0
LAYER
  5
7B
330
2
100
AcDbSymbolTableRecord
100
AcDbLayerTableRecord
  2
중심마크
 70
     0
 62
   100
  6
Continuous
370
    30
390
F
  0
LAYER
  5
7C
330
2
100
AcDbSymbolTableRecord
100
AcDbLayerTableRecord
  2
가상선
 70
     0
 62
     4
  6
PHANTOM
370
    -3
390
F
  0
LAYER
  5
7D
330
2
100
AcDbSymbolTableRecord
100
AcDbLayerTableRecord
  2
특수지정선
 70
     0
 62
     5
  6
CENTERX2
370
    60
390
F
  0
LAYER
  5
17E
330
2
100
AcDbSymbolTableRecord
100
AcDbLayerTableRecord
  2
Defpoints
 70
     0
 62
     7
  6
Continuous
290
     0
370
    -3
390
F
  0
ENDTAB
  0
TABLE
  2
STYLE
  5
3
330
0
100
AcDbSymbolTable
 70
     2
  0
STYLE
  5
11
330
3
100
AcDbSymbolTableRecord
100
AcDbTextStyleTableRecord
  2
Standard
 70
     0
 40
0.0
 41
1.0
 50
0.0
 71
     0
 42
3.5
  3
txt
  4

  0
STYLE
  5
93
330
3
100
AcDbSymbolTableRecord
100
AcDbTextStyleTableRecord
  2
SLDTEXTSTYLE0
 70
     0
 40
0.0
 41
0.75
 50
0.0
 71
     0
 42
3.5
  3
TXT
  4

  0
ENDTAB
  0
TABLE
  2
VIEW
  5
6
330
0
100
AcDbSymbolTable
 70
     0
  0
ENDTAB
  0
TABLE
  2
UCS
  5
7
330
0
100
AcDbSymbolTable
 70
     0
  0
ENDTAB
  0
TABLE
  2
APPID
  5
9
330
0
100
AcDbSymbolTable
 70
     2
  0
APPID
  5
12
330
9
100
AcDbSymbolTableRecord
100
AcDbRegAppTableRecord
  2
ACAD
 70
     0
  0
APPID
  5
182
330
9
100
AcDbSymbolTableRecord
100
AcDbRegAppTableRecord
  2
ACAD_DSTYLE_DIMRADIAL_EXTENSION
 70
     0
  0
ENDTAB
  0
TABLE
  2
DIMSTYLE
  5
A
330
0
100
AcDbSymbolTable
 70
     4
100
AcDbDimStyleTable
  0
DIMSTYLE
105
27
330
A
100
AcDbSymbolTableRecord
100
AcDbDimStyleTableRecord
  2
ISO-25
 70
     0
 41
2.5
 42
0.625
 43
3.75
 44
1.25
 73
     0
 74
     0
 77
     1
 78
     8
140
2.5
141
2.5
143
0.03937007874016
147
0.625
171
     3
172
     1
178
     0
271
     2
272
     2
274
     3
278
    44
283
     0
284
     8
340
11
  0
DIMSTYLE
105
101
102
{ACAD_REACTORS
330
100
102
}
330
A
100
AcDbSymbolTableRecord
100
AcDbDimStyleTableRecord
  2
SLDDIMSTYLE0
 70
     0
 41
3.302
 44
0.0
 45
0.000000001
 73
     0
 74
     0
 77
     1
 78
     4
 79
     1
140
3.5
143
0.0393700787401575
147
0.875
148
0.000000001
170
     1
173
     1
178
     0
271
     2
272
     2
276
     2
284
    12
340
93
  0
DIMSTYLE
105
115
102
{ACAD_REACTORS
330
114
330
13F
102
}
330
A
100
AcDbSymbolTableRecord
100
AcDbDimStyleTableRecord
  2
SLDDIMSTYLE1
 70
     0
 41
3.302
 44
0.0
 45
0.000000001
 73
     0
 74
     0
 77
     1
 78
    12
 79
     3
140
3.5
143
0.0393700787401575
147
0.875
148
0.000000001
170
     1
172
     1
173
     1
178
     0
271
     2
272
     2
276
     2
284
    12
289
     0
340
93
  0
DIMSTYLE
105
12A
102
{ACAD_REACTORS
330
129
330
183
102
}
330
A
100
AcDbSymbolTableRecord
100
AcDbDimStyleTableRecord
  2
SLDDIMSTYLE2
 70
     0
 41
3.302
 44
0.0
 45
0.000000001
 73
     0
 74
     0
 77
     1
 78
     4
 79
     1
140
3.5
143
0.0393700787401575
147
0.875
148
0.000000001
170
     1
172
     1
173
     1
178
     0
271
     2
272
     2
276
     2
284
    12
289
     0
340
93
  0
ENDTAB
  0
TABLE
  2
BLOCK_RECORD
  5
1
330
0
100
AcDbSymbolTable
 70
     9
  0
BLOCK_RECORD
  5
1F
330
1
100
AcDbSymbolTableRecord
100
AcDbBlockTableRecord
  2
*Model_Space
340
22
  0
BLOCK_RECORD
  5
1B
330
1
100
AcDbSymbolTableRecord
100
AcDbBlockTableRecord
  2
*Paper_Space
340
1E
  0
BLOCK_RECORD
  5
23
330
1
100
AcDbSymbolTableRecord
100
AcDbBlockTableRecord
  2
*Paper_Space0
340
26
  0
BLOCK_RECORD
  5
7E
330
1
100
AcDbSymbolTableRecord
100
AcDbBlockTableRecord
  2
블럭10
340
0
102
{BLKREFS
331
F8
102
}
  0
BLOCK_RECORD
  5
102
330
1
100
AcDbSymbolTableRecord
100
AcDbBlockTableRecord
  2
_D
340
0
  0
BLOCK_RECORD
  5
116
330
1
100
AcDbSymbolTableRecord
100
AcDbBlockTableRecord
  2
_D_1
340
0
  0
BLOCK_RECORD
  5
12B
330
1
100
AcDbSymbolTableRecord
100
AcDbBlockTableRecord
  2
_D_2
340
0
  0
BLOCK_RECORD
  5
140
330
1
100
AcDbSymbolTableRecord
100
AcDbBlockTableRecord
  2
_D_3
340
0
  0
BLOCK_RECORD
  5
153
330
1
100
AcDbSymbolTableRecord
100
AcDbBlockTableRecord
  2
SW_DOWELSYMBOL_0
340
0
102
{BLKREFS
331
159
102
}
  0
BLOCK_RECORD
  5
186
330
1
100
AcDbSymbolTableRecord
100
AcDbBlockTableRecord
  2
*D7
340
0
  0
ENDTAB
  0
ENDSEC
  0
SECTION
  2
BLOCKS
  0
BLOCK
  5
20
330
1F
100
AcDbEntity
  8
0
100
AcDbBlockBegin
  2
*Model_Space
 70
     0
 10
0.0
 20
0.0
 30
0.0
  3
*Model_Space
  1
*Model_Space
  0
ENDBLK
  5
21
330
1F
100
AcDbEntity
  8
0
100
AcDbBlockEnd
  0
BLOCK
  5
1C
330
1B
100
AcDbEntity
 67
     1
  8
0
100
AcDbBlockBegin
  2
*Paper_Space
 70
     0
 10
0.0
 20
0.0
 30
0.0
  3
*Paper_Space
  1
*Paper_Space
  0
ENDBLK
  5
1D
330
1B
100
AcDbEntity
 67
     1
  8
0
100
AcDbBlockEnd
  0
BLOCK
  5
24
330
23
100
AcDbEntity
  8
0
100
AcDbBlockBegin
  2
*Paper_Space0
 70
     0
 10
0.0
 20
0.0
 30
0.0
  3
*Paper_Space0
  1
*Paper_Space0
  0
ENDBLK
  5
25
330
23
100
AcDbEntity
  8
0
100
AcDbBlockEnd
  0
BLOCK
  5
7F
330
7E
100
AcDbEntity
  8
0
100
AcDbBlockBegin
  2
블럭10
 70
     2
 10
0.0
 20
0.0
 30
0.0
  3
블럭10
  1
블럭10
  0
ELLIPSE
  5
81
330
7E
100
AcDbEntity
  8
중심선
100
AcDbEllipse
 10
20.54032771741204
 20
12.0471743016438
 30
0.0
 11
6.600054785286829
 21
-1.261213355974178E-13
 31
0.0
210
0.0
220
0.0
230
1.0
 40
0.636358354079598
 41
0.9219305317359503
 42
6.513795318482858
  0
ELLIPSE
  5
82
330
7E
100
AcDbEntity
  8
중심선
100
AcDbEllipse
 10
20.54032771746488
 20
12.04717430159265
 30
0.0
 11
3.960054785062283
 21
1.540847449632565E-10
 31
0.0
210
0.0
220
0.0
230
1.0
 40
0.3939339440162632
 41
1.131841032648279
 42
5.62031148352944
  0
LINE
  5
83
330
7E
100
AcDbEntity
  8
중심선
100
AcDbLine
 10
2.268634060543552
 20
16.24717430164393
 30
0.0
 11
5.714909304380834
 21
16.24717430164393
 31
0.0
  0
LINE
  5
84
330
7E
100
AcDbEntity
  8
중심선
100
AcDbLine
 10
5.245725140726316
 20
7.84717430164391
 30
0.0
 11
8.692000384563599
 21
7.84717430164391
 31
0.0
  0
LINE
  5
85
330
7E
100
AcDbEntity
  8
중심선
100
AcDbLine
 10
15.74043728645272
 20
16.24717430164393
 30
0.0
 11
8.692000384563599
 21
7.84717430164391
 31
0.0
  0
LINE
  5
86
330
7E
100
AcDbEntity
  8
중심선
100
AcDbLine
 10
0.1404042013395286
 20
13.71084872107135
 30
0.0
 11
3.58671253028996
 21
13.71088815037384
 31
0.0
  0
LINE
  5
87
330
7E
100
AcDbEntity
  8
중심선
100
AcDbLine
 10
2.750260043222114
 20
10.84717430164391
 30
0.0
 11
6.196535287059397
 21
10.84717430164391
 31
0.0
  0
LINE
  5
88
330
7E
100
AcDbEntity
  8
중심선
100
AcDbLine
 10
12.29416204261559
 20
16.24717430164393
 30
0.0
 11
5.245725140726316
 21
7.84717430164391
 31
0.0
  0
LINE
  5
89
330
7E
100
AcDbEntity
  8
중심선
100
AcDbLine
 10
10.72767329541681
 20
16.24717430164393
 30
0.0
 11
6.196535287059397
 21
10.84717430164391
 31
0.0
  0
LINE
  5
8A
330
7E
100
AcDbEntity
  8
중심선
100
AcDbLine
 10
7.28139805157953
 20
16.24717430164393
 30
0.0
 11
2.750260043222114
 21
10.84717430164391
 31
0.0
  0
LINE
  5
8B
330
7E
100
AcDbEntity
  8
중심선
100
AcDbLine
 10
5.714909304380834
 20
16.24717430164393
 30
0.0
 11
3.58671253028996
 21
13.71088815037384
 31
0.0
  0
LINE
  5
8C
330
7E
100
AcDbEntity
  8
중심선
100
AcDbLine
 10
2.268634060543552
 20
16.24717430164393
 30
0.0
 11
0.1404042013395286
 21
13.71084872107135
 31
0.0
  0
LINE
  5
8D
330
7E
100
AcDbEntity
  8
중심선
100
AcDbLine
 10
7.28139805157953
 20
16.24717430164393
 30
0.0
 11
10.72767329541681
 21
16.24717430164393
 31
0.0
  0
LINE
  5
8E
330
7E
100
AcDbEntity
  8
중심선
100
AcDbLine
 10
12.29416204261559
 20
16.24717430164393
 30
0.0
 11
15.74043728645272
 21
16.24717430164393
 31
0.0
  0
LINE
  5
8F
330
7E
100
AcDbEntity
  8
중심선
100
AcDbLine
 10
19.22036997980202
 20
11.08717430171403
 30
0.0
 11
23.66174974927406
 21
11.08717430171406
 31
0.0
  0
LINE
  5
90
330
7E
100
AcDbEntity
  8
중심선
100
AcDbLine
 10
19.22039502424796
 20
13.00717430171391
 30
0.0
 11
19.22036997980202
 21
11.08717430171403
 31
0.0
  0
LINE
  5
91
330
7E
100
AcDbEntity
  8
중심선
100
AcDbLine
 10
19.22039502424796
 20
13.00717430171391
 30
0.0
 11
26.96566020931264
 21
13.00717430171391
 31
0.0
  0
LINE
  5
92
330
7E
100
AcDbEntity
  8
중심선
100
AcDbLine
 10
22.22332737316547
 20
13.45928029700563
 30
0.0
 11
24.52862924686651
 21
15.39360700705356
 31
0.0
  0
ATTDEF
  5
94
330
7E
100
AcDbEntity
  8
FORMAT
 62
     2
100
AcDbText
 10
-11.05102035218446
 20
2.075366912832191
 30
0.0
 40
4.233333333333333
  1
GMG22024[ 6 FLUTE ]
 41
0.75
  7
SLDTEXTSTYLE0
 11
-11.05102035218446
 21
-0.0412997538344756
 31
0.0
100
AcDbAttributeDefinition
  3

  2
AUTOATTR0
 70
     0
 74
     1
  0
ENDBLK
  5
80
330
7E
100
AcDbEntity
  8
0
100
AcDbBlockEnd
  0
BLOCK
  5
103
330
102
100
AcDbEntity
  8
0
100
AcDbBlockBegin
  2
_D
 70
     0
 10
0.0
 20
0.0
 30
0.0
  3
_D
  1
_D
  0
LINE
  5
105
330
102
100
AcDbEntity
  8
치수문자_일반주서
 62
     0
370
    -2
100
AcDbLine
 10
-39.84999999999999
 20
4.324999999999998
 30
0.0
 11
-39.84999999999999
 21
38.95387647970988
 31
0.0
  0
LINE
  5
106
330
102
100
AcDbEntity
  8
치수문자_일반주서
 62
     0
370
    -2
100
AcDbLine
 10
36.34999999999999
 20
3.935999741835547
 30
0.0
 11
36.34999999999999
 21
38.95387647970988
 31
0.0
  0
LINE
  5
107
330
102
100
AcDbEntity
  8
치수문자_일반주서
 62
     0
370
    -2
100
AcDbLine
 10
-36.54799999999999
 20
38.95387647970988
 30
0.0
 11
33.04799999999999
 21
38.95387647970988
 31
0.0
  0
SOLID
  5
108
330
102
100
AcDbEntity
  8
치수문자_일반주서
 62
     0
100
AcDbTrace
 10
-36.54799999999999
 20
39.50420981304322
 30
0.0
 11
-36.54799999999999
 21
38.40354314637655
 31
0.0
 12
-39.84999999999999
 22
38.95387647970988
 32
0.0
 13
-39.84999999999999
 23
38.95387647970988
 33
0.0
  0
SOLID
  5
109
330
102
100
AcDbEntity
  8
치수문자_일반주서
 62
     0
100
AcDbTrace
 10
33.04799999999999
 20
38.40354314637655
 30
0.0
 11
33.04799999999999
 21
39.50420981304322
 31
0.0
 12
36.34999999999999
 22
38.95387647970988
 32
0.0
 13
36.34999999999999
 23
38.95387647970988
 33
0.0
  0
MTEXT
  5
10A
330
102
100
AcDbEntity
  8
치수문자_일반주서
 62
     0
100
AcDbMText
 10
0.5059551151318145
 20
43.32887647970988
 30
0.0
 40
3.5
 41
0.0
 71
     2
 72
     1
  1
\A1;76.20 [3]
  7
SLDTEXTSTYLE0
 73
     1
 44
1.0
  0
POINT
  5
10B
330
102
100
AcDbEntity
  8
Defpoints
 62
     0
100
AcDbPoint
 10
-39.84999999999999
 20
4.262499999999998
 30
0.0
  0
POINT
  5
10C
330
102
100
AcDbEntity
  8
Defpoints
 62
     0
100
AcDbPoint
 10
36.34999999999999
 20
3.873499741835547
 30
0.0
  0
POINT
  5
10D
330
102
100
AcDbEntity
  8
Defpoints
 62
     0
100
AcDbPoint
 10
36.34999999999999
 20
38.95387647970988
 30
0.0
  0
ENDBLK
  5
104
330
102
100
AcDbEntity
  8
0
100
AcDbBlockEnd
  0
BLOCK
  5
117
330
116
100
AcDbEntity
  8
0
100
AcDbBlockBegin
  2
_D_1
 70
     0
 10
0.0
 20
0.0
 30
0.0
  3
_D_1
  1
_D_1
  0
LINE
  5
119
330
116
100
AcDbEntity
  8
치수문자_일반주서
 62
     0
370
    -2
100
AcDbLine
 10
35.65049999999999
 20
4.762500000000005
 30
0.0
 11
50.68695635494103
 21
4.762500000000061
 31
0.0
  0
LINE
  5
11A
330
116
100
AcDbEntity
  8
치수문자_일반주서
 62
     0
370
    -2
100
AcDbLine
 10
35.65049999999999
 20
-4.762499999999994
 30
0.0
 11
50.68695635494107
 21
-4.762499999999937
 31
0.0
  0
LINE
  5
11B
330
116
100
AcDbEntity
  8
치수문자_일반주서
 62
     0
370
    -2
100
AcDbLine
 10
50.68695635494105
 20
1.460500000000061
 30
0.0
 11
50.68695635494105
 21
-1.460499999999937
 31
0.0
  0
SOLID
  5
11C
330
116
100
AcDbEntity
  8
치수문자_일반주서
 62
     0
100
AcDbTrace
 10
51.23728968827438
 20
1.460500000000063
 30
0.0
 11
50.13662302160771
 21
1.460500000000059
 31
0.0
 12
50.68695635494103
 22
4.762500000000061
 32
0.0
 13
50.68695635494103
 23
4.762500000000061
 33
0.0
  0
SOLID
  5
11D
330
116
100
AcDbEntity
  8
치수문자_일반주서
 62
     0
100
AcDbTrace
 10
50.13662302160772
 20
-1.460499999999939
 30
0.0
 11
51.23728968827439
 21
-1.460499999999935
 31
0.0
 12
50.68695635494107
 22
-4.762499999999937
 32
0.0
 13
50.68695635494107
 23
-4.762499999999937
 33
0.0
  0
MTEXT
  5
11E
330
116
100
AcDbEntity
  8
치수문자_일반주서
 62
     0
100
AcDbMText
 10
46.31195635494105
 20
-0.0000000000000117
 30
0.0
 40
3.5
 41
0.0
 71
     2
 72
     1
  1
\A1;%%c9.53 [3/8]
  7
SLDTEXTSTYLE0
 11
-3.729883127349608E-15
 21
1.0
 31
0.0
 73
     1
 44
1.0
  0
POINT
  5
11F
330
116
100
AcDbEntity
  8
Defpoints
 62
     0
100
AcDbPoint
 10
35.58799999999999
 20
4.762500000000005
 30
0.0
  0
POINT
  5
120
330
116
100
AcDbEntity
  8
Defpoints
 62
     0
100
AcDbPoint
 10
35.58799999999999
 20
-4.762499999999994
 30
0.0
  0
POINT
  5
121
330
116
100
AcDbEntity
  8
Defpoints
 62
     0
100
AcDbPoint
 10
50.68695635494107
 20
-4.762499999999937
 30
0.0
  0
ENDBLK
  5
118
330
116
100
AcDbEntity
  8
0
100
AcDbBlockEnd
  0
BLOCK
  5
12C
330
12B
100
AcDbEntity
  8
0
100
AcDbBlockBegin
  2
_D_2
 70
     0
 10
0.0
 20
0.0
 30
0.0
  3
_D_2
  1
_D_2
  0
LINE
  5
12E
330
12B
100
AcDbEntity
  8
치수문자_일반주서
 62
     0
370
    -2
100
AcDbLine
 10
36.34999999999999
 20
3.935999741835547
 30
0.0
 11
36.34999999999999
 21
23.73050498632061
 31
0.0
  0
LINE
  5
12F
330
12B
100
AcDbEntity
  8
치수문자_일반주서
 62
     0
370
    -2
100
AcDbLine
 10
10.95
 20
-4.699999999999996
 30
0.0
 11
10.95
 21
23.73050498632061
 31
0.0
  0
LINE
  5
130
330
12B
100
AcDbEntity
  8
치수문자_일반주서
 62
     0
370
    -2
100
AcDbLine
 10
33.04799999999999
 20
23.73050498632061
 30
0.0
 11
14.252
 21
23.73050498632061
 31
0.0
  0
SOLID
  5
131
330
12B
100
AcDbEntity
  8
치수문자_일반주서
 62
     0
100
AcDbTrace
 10
33.04799999999999
 20
23.18017165298728
 30
0.0
 11
33.04799999999999
 21
24.28083831965395
 31
0.0
 12
36.34999999999999
 22
23.73050498632061
 32
0.0
 13
36.34999999999999
 23
23.73050498632061
 33
0.0
  0
SOLID
  5
132
330
12B
100
AcDbEntity
  8
치수문자_일반주서
 62
     0
100
AcDbTrace
 10
14.252
 20
24.28083831965395
 30
0.0
 11
14.252
 21
23.18017165298728
 31
0.0
 12
10.95
 22
23.73050498632061
 32
0.0
 13
10.95
 23
23.73050498632061
 33
0.0
  0
MTEXT
  5
133
330
12B
100
AcDbEntity
  8
치수문자_일반주서
 62
     0
100
AcDbMText
 10
23.38175835779893
 20
28.10550498632061
 30
0.0
 40
3.5
 41
0.0
 71
     2
 72
     1
  1
\A1;25.40 [1]
  7
SLDTEXTSTYLE0
 73
     1
 44
1.0
  0
POINT
  5
134
330
12B
100
AcDbEntity
  8
Defpoints
 62
     0
100
AcDbPoint
 10
36.34999999999999
 20
3.873499741835547
 30
0.0
  0
POINT
  5
135
330
12B
100
AcDbEntity
  8
Defpoints
 62
     0
100
AcDbPoint
 10
10.95
 20
-4.762499999999996
 30
0.0
  0
POINT
  5
136
330
12B
100
AcDbEntity
  8
Defpoints
 62
     0
100
AcDbPoint
 10
10.95
 20
23.73050498632061
 30
0.0
  0
ENDBLK
  5
12D
330
12B
100
AcDbEntity
  8
0
100
AcDbBlockEnd
  0
BLOCK
  5
141
330
140
100
AcDbEntity
  8
0
100
AcDbBlockBegin
  2
_D_3
 70
     0
 10
0.0
 20
0.0
 30
0.0
  3
_D_3
  1
_D_3
  0
LINE
  5
143
330
140
100
AcDbEntity
  8
치수문자_일반주서
 62
     0
370
    -2
100
AcDbLine
 10
-39.41249999999999
 20
4.762500000000003
 30
0.0
 11
-52.85000000000002
 21
4.762499999999955
 31
0.0
  0
LINE
  5
144
330
140
100
AcDbEntity
  8
치수문자_일반주서
 62
     0
370
    -2
100
AcDbLine
 10
-39.41249999999999
 20
-4.762499999999998
 30
0.0
 11
-52.84999999999998
 21
-4.762500000000045
 31
0.0
  0
LINE
  5
145
330
140
100
AcDbEntity
  8
치수문자_일반주서
 62
     0
370
    -2
100
AcDbLine
 10
-52.85
 20
1.460499999999955
 30
0.0
 11
-52.84999999999999
 21
-1.460500000000045
 31
0.0
  0
SOLID
  5
146
330
140
100
AcDbEntity
  8
치수문자_일반주서
 62
     0
100
AcDbTrace
 10
-52.29966666666667
 20
1.460499999999957
 30
0.0
 11
-53.40033333333334
 21
1.460499999999953
 31
0.0
 12
-52.85000000000002
 22
4.762499999999955
 32
0.0
 13
-52.85000000000002
 23
4.762499999999955
 33
0.0
  0
SOLID
  5
147
330
140
100
AcDbEntity
  8
치수문자_일반주서
 62
     0
100
AcDbTrace
 10
-53.40033333333333
 20
-1.460500000000047
 30
0.0
 11
-52.29966666666666
 21
-1.460500000000043
 31
0.0
 12
-52.84999999999998
 22
-4.762500000000045
 32
0.0
 13
-52.84999999999998
 23
-4.762500000000045
 33
0.0
  0
MTEXT
  5
148
330
140
100
AcDbEntity
  8
치수문자_일반주서
 62
     0
100
AcDbMText
 10
-57.225
 20
-0.0000000000000496
 30
0.0
 40
3.5
 41
0.0
 71
     2
 72
     1
  1
\A1;%%c9.53 [3/8]
  7
SLDTEXTSTYLE0
 11
-3.729883127349606E-15
 21
1.0
 31
0.0
 73
     1
 44
1.0
  0
POINT
  5
149
330
140
100
AcDbEntity
  8
Defpoints
 62
     0
100
AcDbPoint
 10
-39.34999999999999
 20
4.762500000000003
 30
0.0
  0
POINT
  5
14A
330
140
100
AcDbEntity
  8
Defpoints
 62
     0
100
AcDbPoint
 10
-39.34999999999999
 20
-4.762499999999998
 30
0.0
  0
POINT
  5
14B
330
140
100
AcDbEntity
  8
Defpoints
 62
     0
100
AcDbPoint
 10
-52.84999999999999
 20
-4.762500000000048
 30
0.0
  0
ENDBLK
  5
142
330
140
100
AcDbEntity
  8
0
100
AcDbBlockEnd
  0
BLOCK
  5
154
330
153
100
AcDbEntity
  8
0
100
AcDbBlockBegin
  2
SW_DOWELSYMBOL_0
 70
     0
 10
0.0
 20
0.0
 30
0.0
  3
SW_DOWELSYMBOL_0
  1
SW_DOWELSYMBOL_0
  0
CIRCLE
  5
156
330
153
100
AcDbEntity
  8
외형선
 62
     0
100
AcDbCircle
 10
0.0
 20
0.0
 30
0.0
 40
3.000000000000001
  0
HATCH
  5
157
330
153
100
AcDbEntity
  8
0
  6
Continuous
 62
     0
370
    30
100
AcDbHatch
 10
0.0
 20
0.0
 30
0.0
210
0.0
220
0.0
230
1.0
  2
SOLID
 70
     1
 71
     0
 91
        1
 92
        0
 93
        3
 72
     2
 10
0.0000000000000139
 20
-0.0000000000000035
 40
3.000000000000001
 50
0.0
 51
90.0
 73
     1
 72
     1
 10
0.0000000000000139
 20
2.999999999999998
 11
0.0000000000000139
 21
-0.0000000000000036
 72
     1
 10
0.0000000000000139
 20
-0.0000000000000035
 11
3.000000000000015
 21
-0.0000000000000035
 97
        0
 75
     0
 76
     1
 98
        1
 10
0.0
 20
0.0
  0
HATCH
  5
158
330
153
100
AcDbEntity
  8
0
  6
Continuous
 62
     0
370
    30
100
AcDbHatch
 10
0.0
 20
0.0
 30
0.0
210
0.0
220
0.0
230
1.0
  2
SOLID
 70
     1
 71
     0
 91
        1
 92
        0
 93
        3
 72
     2
 10
0.0000000000000139
 20
-0.0000000000000035
 40
3.000000000000001
 50
180.0
 51
270.0000000000007
 73
     1
 72
     1
 10
0.0000000000000139
 20
-3.000000000000005
 11
0.0000000000000139
 21
-0.0000000000000036
 72
     1
 10
0.0000000000000139
 20
-0.0000000000000035
 11
-2.999999999999988
 21
-0.0000000000000035
 97
        0
 75
     0
 76
     1
 98
        1
 10
0.0
 20
0.0
  0
ENDBLK
  5
155
330
153
100
AcDbEntity
  8
0
100
AcDbBlockEnd
  0
BLOCK
  5
187
330
186
100
AcDbEntity
  8
0
100
AcDbBlockBegin
  2
*D7
 70
     1
 10
0.0
 20
0.0
 30
0.0
  3
*D7
  1
*D7
  0
LINE
  5
189
330
186
100
AcDbEntity
  8
치수문자_일반주서
 62
     0
370
    -2
100
AcDbLine
 10
38.13862669784027
 20
7.357606347565341
 30
0.0
 11
58.75980494636796
 21
35.64395604118315
 31
0.0
  0
MTEXT
  5
18A
330
186
100
AcDbEntity
  8
치수문자_일반주서
 62
     0
100
AcDbMText
 10
48.39134094090422
 20
25.87740193201021
 30
0.0
 40
3.5
 41
0.0
 71
     5
 72
     1
  1
\A1;R.38 [R0.015]
  7
SLDTEXTSTYLE0
 11
0.5890922340049636
 21
0.808065801673998
 31
0.0
 73
     1
 44
1.0
  0
LINE
  5
18B
330
186
100
AcDbEntity
  8
치수문자_일반주서
 62
     0
370
    -2
100
AcDbLine
 10
35.96899999999999
 20
4.381500000000004
 30
0.0
 11
36.19344414115589
 21
4.689373070437799
 31
0.0
  0
SOLID
  5
18C
330
186
100
AcDbEntity
  8
치수문자_일반주서
 62
     0
100
AcDbTrace
 10
37.69392115165235
 20
7.681803440346072
 30
0.0
 11
38.5833322440282
 21
7.033409254784609
 31
0.0
 12
36.19344414115589
 22
4.689373070437799
 32
0.0
 13
36.19344414115589
 23
4.689373070437799
 33
0.0
  0
POINT
  5
18D
330
186
100
AcDbEntity
  8
Defpoints
 62
     0
100
AcDbPoint
 10
36.19344414115589
 20
4.689373070437799
 30
0.0
  0
POINT
  5
18E
330
186
100
AcDbEntity
  8
Defpoints
 62
     0
100
AcDbPoint
 10
35.96899999999999
 20
4.381500000000004
 30
0.0
  0
ENDBLK
  5
188
330
186
100
AcDbEntity
  8
0
100
AcDbBlockEnd
  0
ENDSEC
  0
SECTION
  2
ENTITIES
  0
LINE
  5
95
330
1F
100
AcDbEntity
  8
0
  6
Continuous
 62
     4
370
    15
100
AcDbLine
 10
10.95
 20
4.762500000000006
 30
0.0
 11
-15.16754999999987
 21
4.762500000000005
 31
0.0
  0
LINE
  5
96
330
1F
100
AcDbEntity
  8
0
  6
Continuous
 62
     4
370
    15
100
AcDbLine
 10
-39.34999999999999
 20
-4.762499999999998
 30
0.0
 11
10.95
 21
-4.762499999999996
 31
0.0
  0
LINE
  5
97
330
1F
100
AcDbEntity
  8
0
  6
Continuous
 62
     4
370
    15
100
AcDbLine
 10
-39.34999999999999
 20
4.762499999999998
 30
0.0
 11
-39.84999999999999
 21
4.262499999999998
 31
0.0
  0
LINE
  5
98
330
1F
100
AcDbEntity
  8
0
  6
Continuous
 62
     4
370
    15
100
AcDbLine
 10
-39.84999999999999
 20
-4.262499999999993
 30
0.0
 11
-39.34999999999999
 21
-4.762499999999992
 31
0.0
  0
LINE
  5
99
330
1F
100
AcDbEntity
  8
0
  6
Continuous
 62
     1
370
    15
100
AcDbLine
 10
19.32636739585728
 20
-4.762499999999994
 30
0.0
 11
20.9562890346632
 21
-4.762499999999994
 31
0.0
  0
LINE
  5
9A
330
1F
100
AcDbEntity
  8
0
  6
Continuous
 62
     1
370
    15
100
AcDbLine
 10
35.96899999999999
 20
4.762500000000005
 30
0.0
 11
34.28895622613245
 21
4.762500000000005
 31
0.0
  0
LINE
  5
9B
330
1F
100
AcDbEntity
  8
0
  6
Continuous
 62
     1
370
    15
100
AcDbLine
 10
29.30150356818113
 20
-4.762499999999994
 30
0.0
 11
30.93002339446542
 21
-4.762499999999994
 31
0.0
  0
LINE
  5
9C
330
1F
100
AcDbEntity
  8
0
  6
Continuous
 62
     1
370
    15
100
AcDbLine
 10
15.96781705906302
 20
4.762500000000005
 30
0.0
 11
14.34066822413408
 21
4.762500000000005
 31
0.0
  0
LINE
  5
9D
330
1F
100
AcDbEntity
  8
0
  6
Continuous
 62
     1
370
    15
100
AcDbLine
 10
10.95
 20
-4.762499999999994
 30
0.0
 11
10.98019510389304
 21
-4.762499999999994
 31
0.0
  0
LINE
  5
9E
330
1F
100
AcDbEntity
  8
0
  6
Continuous
 62
     1
370
    15
100
AcDbLine
 10
25.94182638126476
 20
4.762500000000005
 30
0.0
 11
24.3149367005539
 21
4.762500000000005
 31
0.0
  0
LINE
  5
9F
330
1F
100
AcDbEntity
  8
0
  6
Continuous
 62
     1
370
    15
100
AcDbLine
 10
34.28895622613246
 20
-4.762499999999994
 30
0.0
 11
35.96899999999999
 21
-4.762499999999994
 31
0.0
  0
LINE
  5
A0
330
1F
100
AcDbEntity
  8
0
  6
Continuous
 62
     1
370
    15
100
AcDbLine
 10
20.95628903466324
 20
4.762500000000005
 30
0.0
 11
19.32636739585729
 21
4.762500000000005
 31
0.0
  0
LINE
  5
A1
330
1F
100
AcDbEntity
  8
0
  6
Continuous
 62
     1
370
    15
100
AcDbLine
 10
24.31493670055388
 20
-4.762499999999994
 30
0.0
 11
25.94182638126474
 21
-4.762499999999994
 31
0.0
  0
LINE
  5
A2
330
1F
100
AcDbEntity
  8
0
  6
Continuous
 62
     1
370
    15
100
AcDbLine
 10
10.98019510389301
 20
4.762500000000005
 30
0.0
 11
10.95
 21
4.762500000000005
 31
0.0
  0
LINE
  5
A3
330
1F
100
AcDbEntity
  8
0
  6
Continuous
 62
     1
370
    15
100
AcDbLine
 10
14.34066822413412
 20
-4.762499999999994
 30
0.0
 11
15.96781705906302
 21
-4.762499999999994
 31
0.0
  0
LINE
  5
A4
330
1F
100
AcDbEntity
  8
0
  6
Continuous
 62
     1
370
    15
100
AcDbLine
 10
30.93002339446544
 20
4.762500000000005
 30
0.0
 11
29.30150356818116
 21
4.762500000000005
 31
0.0
  0
LINE
  5
A8
330
1F
100
AcDbEntity
  8
0
  6
Continuous
 62
     1
370
    15
100
AcDbLine
 10
36.34968827698543
 20
-4.022293776702858
 30
0.0
 11
36.34999999999999
 21
-4.000499999999995
 31
0.0
  0
SPLINE
  5
AB
330
1F
100
AcDbEntity
  8
0
  6
Continuous
 62
     4
370
    15
100
AcDbSpline
210
0.0
220
0.0
230
1.0
 70
     8
 71
     3
 72
    12
 73
     8
 74
     0
 42
0.000000001
 43
0.00000001
 40
0.0
 40
0.0
 40
0.0
 40
0.0
 40
0.5
 40
0.5
 40
0.75
 40
0.75
 40
1.0
 40
1.0
 40
1.0
 40
1.0
 10
9.74679466709985
 20
-1.245118916981158
 30
0.0
 10
9.612771886899427
 20
-1.11617872315859
 30
0.0
 10
9.524945961696632
 20
-0.9493205962689093
 30
0.0
 10
9.455855606022688
 20
-0.6808918024866019
 30
0.0
 10
9.44277616236132
 20
-0.58779708864647
 30
0.0
 10
9.429639398325557
 20
-0.4019273868146408
 30
0.0
 10
9.429549740049918
 20
-0.3083711640461384
 30
0.0
 10
9.429549740049925
 20
-0.2145546632358511
 30
0.0
  0
SPLINE
  5
AC
330
1F
100
AcDbEntity
  8
0
  6
Continuous
 62
     4
370
    15
100
AcDbSpline
210
0.0
220
0.0
230
1.0
 70
     8
 71
     3
 72
    14
 73
    10
 74
     0
 42
0.000000001
 43
0.00000001
 40
0.0
 40
0.0
 40
0.0
 40
0.0
 40
0.2499999999999999
 40
0.2499999999999999
 40
0.4999999999999999
 40
0.4999999999999999
 40
0.7499999999999998
 40
0.7499999999999998
 40
1.0
 40
1.0
 40
1.0
 40
1.0
 10
9.429549740049929
 20
-0.2145546632369273
 30
0.0
 10
9.42954974004994
 20
-0.0114028494717768
 30
0.0
 10
9.433699237397587
 20
0.1929744422420688
 30
0.0
 10
9.549527436909516
 20
0.583905091059761
 30
0.0
 10
9.659697744681543
 20
0.7617607606769404
 30
0.0
 10
9.977800351554077
 20
1.013780762260743
 30
0.0
 10
10.18011797457478
 20
1.083415360943816
 30
0.0
 10
10.58872027556024
 20
1.082360480635943
 30
0.0
 10
10.7905645826437
 20
1.012099409515423
 30
0.0
 10
10.94999999999991
 20
0.884062034152101
 30
0.0
  0
SPLINE
  5
AD
330
1F
100
AcDbEntity
  8
0
  6
Continuous
 62
     1
370
    15
100
AcDbSpline
210
0.0
220
0.0
230
1.0
 70
    24
 71
     3
 72
     8
 73
     4
 74
     0
 42
0.000000001
 43
0.00000001
 40
0.0
 40
0.0
 40
0.0
 40
0.0
 40
1.0
 40
1.0
 40
1.0
 40
1.0
 10
10.95
 20
0.8840620341523386
 30
0.0
 10
10.95
 20
0.8142578328862649
 30
0.0
 10
10.95
 20
0.7367335138787907
 30
0.0
 10
10.95
 20
0.6504568584155985
 30
0.0
  0
SPLINE
  5
AE
330
1F
100
AcDbEntity
  8
0
  6
Continuous
 62
     4
370
    15
100
AcDbSpline
210
0.0
220
0.0
230
1.0
 70
     8
 71
     3
 72
    10
 73
     6
 74
     0
 42
0.000000001
 43
0.00000001
 40
0.0
 40
0.0
 40
0.0
 40
0.0
 40
0.4999999999999998
 40
0.4999999999999998
 40
1.0
 40
1.0
 40
1.0
 40
1.0
 10
10.95
 20
-2.355017216327829
 30
0.0
 10
10.74870135893626
 20
-2.180431351541739
 30
0.0
 10
10.55007432071011
 20
-2.000355330165182
 30
0.0
 10
10.15036695942038
 20
-1.629841072335914
 30
0.0
 10
9.948422802385474
 20
-1.439100647586474
 30
0.0
 10
9.74679466709985
 20
-1.245118916981158
 30
0.0
  0
LINE
  5
AF
330
1F
100
AcDbEntity
  8
0
  6
Continuous
 62
     4
370
    15
100
AcDbLine
 10
10.95
 20
-2.355017216327836
 30
0.0
 11
10.95
 21
-3.610731056785057
 31
0.0
  0
SPLINE
  5
B0
330
1F
100
AcDbEntity
  8
0
  6
Continuous
 62
     4
370
    15
100
AcDbSpline
210
0.0
220
0.0
230
1.0
 70
     8
 71
     3
 72
    14
 73
    10
 74
     0
 42
0.000000001
 43
0.00000001
 40
0.0
 40
0.0
 40
0.0
 40
0.0
 40
0.25
 40
0.25
 40
0.5
 40
0.5
 40
0.75
 40
0.75
 40
1.0
 40
1.0
 40
1.0
 40
1.0
 10
9.429549740049929
 20
-4.227535747048011
 30
0.0
 10
9.42954974004994
 20
-4.133893899985288
 30
0.0
 10
9.433699237397587
 20
-4.028069998338389
 30
0.0
 10
9.549527436909516
 20
-3.804899018975441
 30
0.0
 10
9.659697744681548
 20
-3.691978897134117
 30
0.0
 10
9.977800351554084
 20
-3.52455833006854
 30
0.0
 10
10.18011797457478
 20
-3.474598243418118
 30
0.0
 10
10.58872027556024
 20
-3.475338992797815
 30
0.0
 10
10.7905645826437
 20
-3.525764991651773
 30
0.0
 10
10.94999999999991
 20
-3.610731056785205
 30
0.0
  0
SPLINE
  5
B1
330
1F
100
AcDbEntity
  8
0
  6
Continuous
 62
     4
370
    15
100
AcDbSpline
210
0.0
220
0.0
230
1.0
 70
     8
 71
     3
 72
    12
 73
     8
 74
     0
 42
0.000000001
 43
0.00000001
 40
0.0
 40
0.0
 40
0.0
 40
0.0
 40
0.4999999999999997
 40
0.4999999999999997
 40
0.7499999999999998
 40
0.7499999999999998
 40
1.0
 40
1.0
 40
1.0
 40
1.0
 10
9.74679466709985
 20
-4.60355353653588
 30
0.0
 10
9.612771886899427
 20
-4.569329504679003
 30
0.0
 10
9.524945961696634
 20
-4.519386595686037
 30
0.0
 10
9.455855606022688
 20
-4.42327706173733
 30
0.0
 10
9.44277616236132
 20
-4.387610062165324
 30
0.0
 10
9.429639398325557
 20
-4.31149210666214
 30
0.0
 10
9.429549740049923
 20
-4.270780009831337
 30
0.0
 10
9.429549740049929
 20
-4.227535747040777
 30
0.0
  0
SPLINE
  5
B2
330
1F
100
AcDbEntity
  8
0
  6
Continuous
 62
     4
370
    15
100
AcDbSpline
210
0.0
220
0.0
230
1.0
 70
     8
 71
     3
 72
    10
 73
     6
 74
     0
 42
0.000000001
 43
0.00000001
 40
0.0
 40
0.0
 40
0.0
 40
0.0
 40
0.5
 40
0.5
 40
1.0
 40
1.0
 40
1.0
 40
1.0
 10
10.95
 20
-4.762404020947895
 30
0.0
 10
10.74870135893626
 20
-4.761128810822115
 30
0.0
 10
10.55007432071011
 20
-4.747190210583267
 30
0.0
 10
10.15036695942038
 20
-4.694209473656994
 30
0.0
 10
9.948422802385474
 20
-4.655041259107661
 30
0.0
 10
9.74679466709985
 20
-4.60355353653588
 30
0.0
  0
LINE
  5
B3
330
1F
100
AcDbEntity
  8
0
  6
Continuous
 62
     1
370
    15
100
AcDbLine
 10
10.95
 20
-4.762404020947901
 30
0.0
 11
10.95
 21
-4.762499999999996
 31
0.0
  0
LINE
  5
B4
330
1F
100
AcDbEntity
  8
0
  6
Continuous
 62
     1
370
    15
100
AcDbLine
 10
10.95
 20
4.762500000000006
 30
0.0
 11
10.95
 21
4.49479309093736
 31
0.0
  0
SPLINE
  5
B5
330
1F
100
AcDbEntity
  8
0
  6
Continuous
 62
     4
370
    15
100
AcDbSpline
210
0.0
220
0.0
230
1.0
 70
     8
 71
     3
 72
    14
 73
    10
 74
     0
 42
0.000000001
 43
0.00000001
 40
0.0
 40
0.0
 40
0.0
 40
0.0
 40
0.25
 40
0.25
 40
0.5
 40
0.5
 40
0.75
 40
0.75
 40
1.0
 40
1.0
 40
1.0
 40
1.0
 10
9.429549740049927
 20
4.012981083811052
 30
0.0
 10
9.42954974004994
 20
4.122491050513483
 30
0.0
 10
9.433699237397587
 20
4.221044440580433
 30
0.0
 10
9.549527436909514
 20
4.38880411003518
 30
0.0
 10
9.65969774468154
 20
4.453739657811035
 30
0.0
 10
9.977800351554073
 20
4.538339092329266
 30
0.0
 10
10.18011797457476
 20
4.558013604361913
 30
0.0
 10
10.58872027556024
 20
4.557699473433739
 30
0.0
 10
10.7905645826437
 20
4.537864401167179
 30
0.0
 10
10.94999999999991
 20
4.494793090937286
 30
0.0
  0
SPLINE
  5
B6
330
1F
100
AcDbEntity
  8
0
  6
Continuous
 62
     4
370
    15
100
AcDbSpline
210
0.0
220
0.0
230
1.0
 70
     8
 71
     3
 72
    12
 73
     8
 74
     0
 42
0.000000001
 43
0.00000001
 40
0.0
 40
0.0
 40
0.0
 40
0.0
 40
0.5000000000000008
 40
0.5000000000000008
 40
0.7500000000000007
 40
0.7500000000000007
 40
1.0
 40
1.0
 40
1.0
 40
1.0
 10
9.74679466709985
 20
3.358434619554685
 30
0.0
 10
9.612771886899427
 20
3.453150781520378
 30
0.0
 10
9.524945961696634
 20
3.570065999417093
 30
0.0
 10
9.455855606022688
 20
3.742385259250697
 30
0.0
 10
9.44277616236132
 20
3.79981297351882
 30
0.0
 10
9.429639398325559
 20
3.90956471984747
 30
0.0
 10
9.429549740049922
 20
3.962408845785168
 30
0.0
 10
9.429549740049927
 20
4.012981083804895
 30
0.0
  0
SPLINE
  5
B7
330
1F
100
AcDbEntity
  8
0
  6
Continuous
 62
     4
370
    15
100
AcDbSpline
210
0.0
220
0.0
230
1.0
 70
     8
 71
     3
 72
    10
 73
     6
 74
     0
 42
0.000000001
 43
0.00000001
 40
0.0
 40
0.0
 40
0.0
 40
0.0
 40
0.5
 40
0.5
 40
1.0
 40
1.0
 40
1.0
 40
1.0
 10
10.95
 20
2.407386804620023
 30
0.0
 10
10.74870135893626
 20
2.580697459280335
 30
0.0
 10
10.55007432071011
 20
2.74683488041804
 30
0.0
 10
10.15036695942038
 20
3.064368401321039
 30
0.0
 10
9.948422802385474
 20
3.215940611521149
 30
0.0
 10
9.74679466709985
 20
3.358434619554683
 30
0.0
  0
LINE
  5
B8
330
1F
100
AcDbEntity
  8
0
  6
Continuous
 62
     4
370
    15
100
AcDbLine
 10
10.95
 20
2.407386804620023
 30
0.0
 11
10.95
 21
0.8840620341523235
 31
0.0
  0
LINE
  5
B9
330
1F
100
AcDbEntity
  8
0
  6
Continuous
 62
     4
370
    15
100
AcDbLine
 10
-39.34999999999999
 20
4.762499999999998
 30
0.0
 11
-39.34999999999999
 21
-4.762499999999998
 31
0.0
  0
LINE
  5
BA
330
1F
100
AcDbEntity
  8
0
  6
Continuous
 62
     4
370
    15
100
AcDbLine
 10
-39.84999999999999
 20
4.262499999999998
 30
0.0
 11
-39.84999999999999
 21
-4.2625
 31
0.0
  0
SPLINE
  5
BB
330
1F
100
AcDbEntity
  8
0
  6
Continuous
 62
     4
370
    15
100
AcDbSpline
210
0.0
220
0.0
230
1.0
 70
    24
 71
     3
 72
    14
 73
    10
 74
     0
 42
0.000000001
 43
0.00000001
 40
0.0
 40
0.0
 40
0.0
 40
0.0
 40
0.25
 40
0.25
 40
0.5
 40
0.5
 40
0.75
 40
0.75
 40
1.0
 40
1.0
 40
1.0
 40
1.0
 10
10.95
 20
0.650456858415545
 30
0.0
 10
10.95
 20
0.5126766278297925
 30
0.0
 10
10.95
 20
0.3440387122387688
 30
0.0
 10
10.95
 20
-0.0663897501159646
 30
0.0
 10
10.95
 20
-0.308951736703959
 30
0.0
 10
10.95
 20
-0.8555881384117854
 30
0.0
 10
10.95
 20
-1.15989341295116
 30
0.0
 10
10.95
 20
-1.77482762676124
 30
0.0
 10
10.95
 20
-2.083898041264872
 30
0.0
 10
10.95
 20
-2.355017216327839
 30
0.0
  0
SPLINE
  5
BC
330
1F
100
AcDbEntity
  8
0
  6
Continuous
 62
     1
370
    15
100
AcDbSpline
210
0.0
220
0.0
230
1.0
 70
    24
 71
     3
 72
    14
 73
    10
 74
     0
 42
0.000000001
 43
0.00000001
 40
0.0
 40
0.0
 40
0.0
 40
0.0
 40
0.2441566209910089
 40
0.3923005474637152
 40
0.5404444739364214
 40
0.6885884004091287
 40
0.836732326881836
 40
0.9848762533545425
 40
0.9999999999999999
 40
0.9999999999999999
 40
0.9999999999999999
 40
0.9999999999999999
 10
10.95
 20
4.140186950526022
 30
0.0
 10
10.95
 20
3.931780819866994
 30
0.0
 10
10.95
 20
3.596922650465389
 30
0.0
 10
10.95
 20
3.20464225640127
 30
0.0
 10
10.95
 20
2.924620879424374
 30
0.0
 10
10.95
 20
2.6970421282151
 30
0.0
 10
10.95
 20
2.534201768088398
 30
0.0
 10
10.95
 20
2.447720977979061
 30
0.0
 10
10.95
 20
2.435174181489593
 30
0.0
 10
10.95
 20
2.434011951590099
 30
0.0
  0
SPLINE
  5
BD
330
1F
100
AcDbEntity
  8
0
  6
Continuous
 62
     4
370
    15
100
AcDbSpline
210
0.0
220
0.0
230
1.0
 70
    24
 71
     3
 72
    15
 73
    11
 74
     0
 42
0.000000001
 43
0.00000001
 40
0.0
 40
0.0
 40
0.0
 40
0.0
 40
0.0281616641049624
 40
0.1780470970905705
 40
0.3279325300761786
 40
0.4778179630617875
 40
0.6277033960473966
 40
0.777588829033005
 40
0.927474262018613
 40
0.9999999999999999
 40
0.9999999999999999
 40
0.9999999999999999
 40
0.9999999999999999
 10
10.95
 20
-3.424612365752375
 30
0.0
 10
10.95
 20
-3.421396266454838
 30
0.0
 10
10.95
 20
-3.401063052417936
 30
0.0
 10
10.95
 20
-3.457075902117608
 30
0.0
 10
10.95000000000001
 20
-3.559851578718037
 30
0.0
 10
10.95
 20
-3.737916363439777
 30
0.0
 10
10.95
 20
-3.970327040105576
 30
0.0
 10
10.95
 20
-4.256712385876649
 30
0.0
 10
10.95
 20
-4.528135121520125
 30
0.0
 10
10.95
 20
-4.704796701207325
 30
0.0
 10
10.95
 20
-4.762404020947901
 30
0.0
  0
SPLINE
  5
BE
330
1F
100
AcDbEntity
  8
0
  6
Continuous
 62
     1
370
    15
100
AcDbSpline
210
0.0
220
0.0
230
1.0
 70
    24
 71
     3
 72
     8
 73
     4
 74
     0
 42
0.000000001
 43
0.00000001
 40
0.0
 40
0.0
 40
0.0
 40
0.0
 40
1.0
 40
1.0
 40
1.0
 40
1.0
 10
10.95
 20
4.494793090937438
 30
0.0
 10
10.95
 20
4.374681775294195
 30
0.0
 10
10.95
 20
4.256398266170828
 30
0.0
 10
10.95
 20
4.14018695052609
 30
0.0
  0
SPLINE
  5
BF
330
1F
100
AcDbEntity
  8
0
  6
Continuous
 62
     1
370
    15
100
AcDbSpline
210
0.0
220
0.0
230
1.0
 70
     8
 71
     3
 72
    26
 73
    22
 74
     0
 42
0.000000001
 43
0.00000001
 40
0.0
 40
0.0
 40
0.0
 40
0.0
 40
0.0259149061995201
 40
0.0772315019058556
 40
0.1283826571136383
 40
0.1796912837817312
 40
0.2374743618169957
 40
0.2951685592558426
 40
0.3529424661576827
 40
0.4107950963685371
 40
0.4685054474638563
 40
0.5262262347497074
 40
0.5840891558636808
 40
0.6418441039269321
 40
0.6995401631689628
 40
0.7573458691358209
 40
0.8151727908901528
 40
0.8728726363009006
 40
0.9306129843799004
 40
0.988479842361388
 40
1.0
 40
1.0
 40
1.0
 40
1.0
 10
32.60991361208951
 20
-4.451537074111044
 30
0.0
 10
32.4662365888255
 20
-4.504554556071319
 30
0.0
 10
32.03805088710575
 20
-4.662557048055434
 30
0.0
 10
31.32460721496322
 20
-4.766816461742887
 30
0.0
 10
30.47354465869926
 20
-4.76711773947529
 30
0.0
 10
29.5834891325175
 20
-4.601046799205402
 30
0.0
 10
28.65817026381865
 20
-4.260229219226133
 30
0.0
 10
27.69803241765793
 20
-3.731931108872216
 30
0.0
 10
26.7365677991224
 20
-3.052454000420625
 30
0.0
 10
25.77373662990365
 20
-2.250014656415536
 30
0.0
 10
24.81332482562035
 20
-1.354669075610909
 30
0.0
 10
23.85273746512707
 20
-0.4042525209039119
 30
0.0
 10
22.88972874268758
 20
0.560669302834009
 30
0.0
 10
21.92857884892932
 20
1.504416051640923
 30
0.0
 10
20.96841714107573
 20
2.387242466645735
 30
0.0
 10
20.00640135341495
 20
3.172464030855538
 30
0.0
 10
19.04402980646483
 20
3.827696167555537
 30
0.0
 10
18.08375756346238
 20
4.332338555017349
 30
0.0
 10
17.12300177756881
 20
4.645682198794812
 30
0.0
 10
16.41625605265088
 20
4.777932887122383
 30
0.0
 10
16.03166909701413
 20
4.753039219330097
 30
0.0
 10
15.96781705906302
 20
4.748906184141778
 30
0.0
  0
SPLINE
  5
C0
330
1F
100
AcDbEntity
  8
0
  6
Continuous
 62
     1
370
    15
100
AcDbSpline
210
0.0
220
0.0
230
1.0
 70
     8
 71
     3
 72
    26
 73
    22
 74
     0
 42
0.000000001
 43
0.00000001
 40
0.0
 40
0.0
 40
0.0
 40
0.0
 40
0.026196081697151
 40
0.0838964731282114
 40
0.141723942105394
 40
0.1995301950943355
 40
0.2572268003208499
 40
0.3149822949258563
 40
0.3728457636033466
 40
0.4305670971076857
 40
0.4882779943227341
 40
0.5461311719997215
 40
0.6039056256227269
 40
0.661600369028439
 40
0.7193839938716562
 40
0.770693106079219
 40
0.8218447453363015
 40
0.8731618266575192
 40
0.9243890377351647
 40
0.9755607681757058
 40
1.0
 40
1.0
 40
1.0
 40
1.0
 10
17.64809037581886
 20
4.446882633577904
 30
0.0
 10
17.79338905582316
 20
4.502069913264481
 30
0.0
 10
18.25872761078235
 20
4.678814595189471
 30
0.0
 10
19.04397895482699
 20
4.780148568002132
 30
0.0
 10
20.00641498699994
 20
4.748011295167821
 30
0.0
 10
20.96841349635983
 20
4.513005397567794
 30
0.0
 10
21.92857982589252
 20
4.097042537194678
 30
0.0
 10
22.88972847987868
 20
3.513910748824693
 30
0.0
 10
23.85273753672843
 20
2.789496655180009
 30
0.0
 10
24.81332480155347
 20
1.950293481693115
 30
0.0
 10
25.77373665469824
 20
1.031684435855936
 30
0.0
 10
26.73656772390668
 20
0.0729605068393753
 30
0.0
 10
27.69803269308422
 20
-0.8898896829435243
 30
0.0
 10
28.65816923803412
 20
-1.817104382837192
 30
0.0
 10
29.58349278558662
 20
-2.637729913536271
 30
0.0
 10
30.47353273000807
 20
-3.330732468467885
 30
0.0
 10
31.32465181785301
 20
-3.890776433168294
 30
0.0
 10
32.1785458597589
 20
-4.326414983757934
 30
0.0
 10
33.03090254738527
 20
-4.616595163248102
 30
0.0
 10
33.73330017817668
 20
-4.759741793487919
 30
0.0
 10
34.15322628483454
 20
-4.74742070328241
 30
0.0
 10
34.28895622613246
 20
-4.743438238692081
 30
0.0
  0
SPLINE
  5
C2
330
1F
100
AcDbEntity
  8
0
  6
Continuous
 62
     1
370
    15
100
AcDbSpline
210
0.0
220
0.0
230
1.0
 70
     8
 71
     3
 72
    20
 73
    16
 74
     0
 42
0.000000001
 43
0.00000001
 40
0.0
 40
0.0
 40
0.0
 40
0.0
 40
0.0603775005504567
 40
0.1425533719145468
 40
0.2248854119194987
 40
0.3072476693404275
 40
0.3894289333035538
 40
0.4716678847777494
 40
0.5540870229338379
 40
0.6283285920608249
 40
0.702593052043584
 40
0.7770523977993902
 40
0.8512588134698579
 40
0.925593902717015
 40
1.0
 40
1.0
 40
1.0
 40
1.0
 10
22.63376311218322
 20
-4.451671637527392
 30
0.0
 10
22.3985906241752
 20
-4.530569877123287
 30
0.0
 10
21.84334022723204
 20
-4.716851355985063
 30
0.0
 10
20.96844570515563
 20
-4.791045066826193
 30
0.0
 10
20.00639517497567
 20
-4.701031370570155
 30
0.0
 10
19.04402591858091
 20
-4.414177756956972
 30
0.0
 10
18.08377922819303
 20
-3.949186067571731
 30
0.0
 10
17.12291884680377
 20
-3.323204186587573
 30
0.0
 10
16.19081525398926
 20
-2.588447966711386
 30
0.0
 10
15.29246651717185
 20
-1.783791339667608
 30
0.0
 10
14.42489950873388
 20
-0.9477822322835334
 30
0.0
 10
13.5549784645104
 20
-0.0825665415052105
 30
0.0
 10
12.68810311781145
 20
0.7873889420235513
 30
0.0
 10
11.8195103160892
 20
1.634869629065654
 30
0.0
 10
11.23992900142882
 20
2.149799138147632
 30
0.0
 10
10.95000000000001
 20
2.40738680462002
 30
0.0
  0
SPLINE
  5
C3
330
1F
100
AcDbEntity
  8
0
  6
Continuous
 62
     1
370
    15
100
AcDbSpline
210
0.0
220
0.0
230
1.0
 70
    24
 71
     3
 72
    16
 73
    12
 74
     0
 42
0.000000001
 43
0.00000001
 40
0.0
 40
0.0
 40
0.0
 40
0.0
 40
0.0681945968267829
 40
0.1886208437673931
 40
0.3125394600275332
 40
0.4329657069681574
 40
0.5568843232283125
 40
0.677310570168936
 40
0.8012291864290914
 40
0.9216554333697152
 40
0.9999999999999999
 40
0.9999999999999999
 40
0.9999999999999999
 40
0.9999999999999999
 10
10.95
 20
4.496886805115585
 30
0.0
 10
10.95
 20
4.423011849897649
 30
0.0
 10
10.95
 20
4.218679585541288
 30
0.0
 10
10.95
 20
3.890228229182583
 30
0.0
 10
10.95
 20
3.531695464606704
 30
0.0
 10
10.95
 20
3.205561829003522
 30
0.0
 10
10.95
 20
2.927106118307543
 30
0.0
 10
10.95
 20
2.698261437753311
 30
0.0
 10
10.95
 20
2.533186508993859
 30
0.0
 10
10.95
 20
2.434217761012681
 30
0.0
 10
10.95
 20
2.420239861901709
 30
0.0
 10
10.95
 20
2.414730539740284
 30
0.0
  0
SPLINE
  5
C4
330
1F
100
AcDbEntity
  8
0
  6
Continuous
 62
     1
370
    15
100
AcDbSpline
210
0.0
220
0.0
230
1.0
 70
     8
 71
     3
 72
    22
 73
    18
 74
     0
 42
0.000000001
 43
0.00000001
 40
0.0
 40
0.0
 40
0.0
 40
0.0
 40
0.0650498353320949
 40
0.1300375915980053
 40
0.1949128544624213
 40
0.2600092424899972
 40
0.3249352508321955
 40
0.3898412467499697
 40
0.4618965158884324
 40
0.5337942560821687
 40
0.6056415627330527
 40
0.6776471036558064
 40
0.7496262268788659
 40
0.8214688190279534
 40
0.893384738985225
 40
0.9654351059731611
 40
1.0
 40
1.0
 40
1.0
 40
1.0
 10
10.95000000000126
 20
4.496886805120836
 30
0.0
 10
11.23992900141387
 20
4.38708933783772
 30
0.0
 10
11.81951031604188
 20
4.167599186384368
 30
0.0
 10
12.68810311800537
 20
3.660624533676786
 30
0.0
 10
13.55497846378729
 20
3.041433900732514
 30
0.0
 10
14.42489951144362
 20
2.321323914003073
 30
0.0
 10
15.29246650709234
 20
1.522915315831176
 30
0.0
 10
16.19081529334822
 20
0.643295247242613
 30
0.0
 10
17.12291868194233
 20
-0.2896420643092749
 30
0.0
 10
18.08377983966245
 20
-1.24391212660659
 30
0.0
 10
19.04402363660859
 20
-2.147726810758792
 30
0.0
 10
20.00640371106282
 20
-2.96326755654695
 30
0.0
 10
20.96841388889172
 20
-3.658119475014912
 30
0.0
 10
21.92858948706141
 20
-4.20782836910038
 30
0.0
 10
22.88968935944354
 20
-4.575794226815898
 30
0.0
 10
23.68639352182121
 20
-4.758533067867683
 30
0.0
 10
24.16105155743455
 20
-4.743266197507197
 30
0.0
 10
24.31493670055388
 20
-4.738316645715933
 30
0.0
  0
SPLINE
  5
C6
330
1F
100
AcDbEntity
  8
0
  6
Continuous
 62
     1
370
    15
100
AcDbSpline
210
0.0
220
0.0
230
1.0
 70
     8
 71
     3
 72
    24
 73
    20
 74
     0
 42
0.000000001
 43
0.00000001
 40
0.0
 40
0.0
 40
0.0
 40
0.0
 40
0.0581958885982606
 40
0.1165911007756502
 40
0.1747871147496581
 40
0.2330462251228775
 40
0.2914075421227978
 40
0.3495807070201132
 40
0.4079329609954767
 40
0.473648476376612
 40
0.539262909669365
 40
0.6049679949076264
 40
0.6707626105586018
 40
0.7363954150751882
 40
0.8020400884582791
 40
0.8678464077433494
 40
0.9335299314814061
 40
0.9991464821649234
 40
1.0
 40
1.0
 40
1.0
 40
1.0
 10
35.58800000000014
 20
-4.751136430038762
 30
0.0
 10
35.30454344044168
 20
-4.716791239340153
 30
0.0
 10
34.73665946964881
 20
-4.647983224094553
 30
0.0
 10
33.8823308381612
 20
-4.35647037885868
 30
0.0
 10
33.03089641310213
 20
-3.935388776234709
 30
0.0
 10
32.17854750756375
 20
-3.385902339153598
 30
0.0
 10
31.3246513776318
 20
-2.730523170196537
 30
0.0
 10
30.47353284819603
 20
-1.984552983324595
 30
0.0
 10
29.58349274761166
 20
-1.143994355453999
 30
0.0
 10
28.65816925637388
 20
-0.2241645452656438
 30
0.0
 10
27.69803265985011
 20
0.7413365803614451
 30
0.0
 10
26.73656783875228
 20
1.67621809242607
 30
0.0
 10
25.77373622843782
 20
2.541886948351736
 30
0.0
 10
24.81332638739337
 20
3.306366209221783
 30
0.0
 10
23.85273161065681
 20
3.934578222928137
 30
0.0
 10
22.88975063936363
 20
4.408312864968779
 30
0.0
 10
21.92849733967214
 20
4.68048721980998
 30
0.0
 10
21.2847853768548
 20
4.79382166435808
 30
0.0
 10
20.96045365960381
 20
4.761672596523693
 30
0.0
 10
20.95628903466323
 20
4.76125978210377
 30
0.0
  0
SPLINE
  5
C7
330
1F
100
AcDbEntity
  8
0
  6
Continuous
 62
     1
370
    15
100
AcDbSpline
210
0.0
220
0.0
230
1.0
 70
     8
 71
     3
 72
    22
 73
    18
 74
     0
 42
0.000000001
 43
0.00000001
 40
0.0
 40
0.0
 40
0.0
 40
0.0
 40
0.0197360896460481
 40
0.0940667077056674
 40
0.1682147408717466
 40
0.2423493677237739
 40
0.316666766105325
 40
0.3908830366471114
 40
0.4649969125372723
 40
0.5392249643027268
 40
0.6051359459574123
 40
0.6708446400202123
 40
0.7367658586889737
 40
0.8025716312757327
 40
0.8683061341971813
 40
0.9342656386949929
 40
0.9999999999999999
 40
0.9999999999999999
 40
0.9999999999999999
 40
0.9999999999999999
 10
22.63376311218326
 20
4.451671637527407
 30
0.0
 10
22.71896861242827
 20
4.486311687047855
 30
0.0
 10
23.12507747341368
 20
4.651414069109754
 30
0.0
 10
23.85280047265056
 20
4.763496362767784
 30
0.0
 10
24.81330796021748
 20
4.771072454993192
 30
0.0
 10
25.77374117940633
 20
4.570495364780505
 30
0.0
 10
26.73656651269199
 20
4.188706735519211
 30
0.0
 10
27.69803301449971
 20
3.635430197687932
 30
0.0
 10
28.65816916086202
 20
2.934320490658643
 30
0.0
 10
29.58349277004934
 20
2.145146460092681
 30
0.0
 10
30.47353284250847
 20
1.313627588739391
 30
0.0
 10
31.32465137915936
 20
0.4706252747697424
 30
0.0
 10
32.17854750715467
 20
-0.3836456878959785
 30
0.0
 10
33.03089641321147
 20
-1.227995096440265
 30
0.0
 10
33.88233083813194
 20
-2.032060509493177
 30
0.0
 10
34.73665946965612
 20
-2.775960323247305
 30
0.0
 10
35.30454344044413
 20
-3.195201649074745
 30
0.0
 10
35.58800000000014
 20
-3.404463945522125
 30
0.0
  0
SPLINE
  5
C8
330
1F
100
AcDbEntity
  8
0
  6
Continuous
 62
     1
370
    15
100
AcDbSpline
210
0.0
220
0.0
230
1.0
 70
     8
 71
     3
 72
     8
 73
     4
 74
     0
 42
0.000000001
 43
0.00000001
 40
0.0
 40
0.0
 40
0.0
 40
0.0
 40
1.0
 40
1.0
 40
1.0
 40
1.0
 10
35.58799999999999
 20
-3.404463945520107
 30
0.0
 10
35.63965520043896
 20
-3.440468035682363
 30
0.0
 10
35.68941567855722
 20
-3.472595934007713
 30
0.0
 10
35.73767641168729
 20
-3.501122098161781
 30
0.0
  0
SPLINE
  5
C9
330
1F
100
AcDbEntity
  8
0
  6
Continuous
 62
     1
370
    15
100
AcDbSpline
210
0.0
220
0.0
230
1.0
 70
     8
 71
     3
 72
    10
 73
     6
 74
     0
 42
0.000000001
 43
0.00000001
 40
0.0
 40
0.0
 40
0.0
 40
0.0
 40
0.2059157869573189
 40
0.5096591337635621
 40
1.0
 40
1.0
 40
1.0
 40
1.0
 10
35.34912784791675
 20
-3.222835082567835
 30
0.0
 10
35.32219055604826
 20
-3.225127078408323
 30
0.0
 10
35.25551846139007
 20
-3.230799963581013
 30
0.0
 10
35.10063794534024
 20
-3.275489810261312
 30
0.0
 10
34.96480849474228
 20
-3.3451064111156
 30
0.0
 10
34.88093485845447
 20
-3.388094124265734
 30
0.0
  0
SPLINE
  5
CA
330
1F
100
AcDbEntity
  8
0
  6
Continuous
 62
     1
370
    15
100
AcDbSpline
210
0.0
220
0.0
230
1.0
 70
     8
 71
     3
 72
     8
 73
     4
 74
     0
 42
0.000000001
 43
0.00000001
 40
0.0
 40
0.0
 40
0.0
 40
0.0
 40
1.0
 40
1.0
 40
1.0
 40
1.0
 10
36.34999999999999
 20
-3.726477509433519
 30
0.0
 10
35.86232526839262
 20
-3.654487337456451
 30
0.0
 10
35.37256731793491
 20
-3.540283120497247
 30
0.0
 10
34.88093485845447
 20
-3.388094124265738
 30
0.0
  0
LINE
  5
CB
330
1F
100
AcDbEntity
  8
0
  6
Continuous
 62
     1
370
    15
100
AcDbLine
 10
36.34999999999999
 20
-4.381499999999994
 30
0.0
 11
36.34999999999999
 21
-3.72647750943352
 31
0.0
  0
SPLINE
  5
CC
330
1F
100
AcDbEntity
  8
0
  6
Continuous
 62
     1
370
    15
100
AcDbSpline
210
0.0
220
0.0
230
1.0
 70
     8
 71
     3
 72
    25
 73
    21
 74
     0
 42
0.000000001
 43
0.00000001
 40
0.0
 40
0.0
 40
0.0
 40
0.0
 40
0.0532144698447126
 40
0.1110661351167239
 40
0.1687755236463098
 40
0.2264953481923596
 40
0.2843573041958454
 40
0.3421112889495191
 40
0.399806385864194
 40
0.4576111276748704
 40
0.5154370849191572
 40
0.5731359679393987
 40
0.6308753529523379
 40
0.6887412457576737
 40
0.7408657253010794
 40
0.793006276352098
 40
0.845283655323242
 40
0.8973834538739537
 40
0.9495735932309654
 40
0.9999999999999999
 40
0.9999999999999999
 40
0.9999999999999999
 40
0.9999999999999999
 10
27.622450080606
 20
-4.46282160218052
 30
0.0
 10
27.32730587804821
 20
-4.552576388606273
 30
0.0
 10
26.71129812722669
 20
-4.739907339485337
 30
0.0
 10
25.77372235382725
 20
-4.789324676510851
 30
0.0
 10
24.81332864533034
 20
-4.661464167609594
 30
0.0
 10
23.8527364463317
 20
-4.339690751076438
 30
0.0
 10
22.88972898680654
 20
-3.843765274734008
 30
0.0
 10
21.92857889004398
 20
-3.190684132606809
 30
0.0
 10
20.9684167331161
 20
-2.407658143048721
 30
0.0
 10
20.00640294797337
 20
-1.527700461902125
 30
0.0
 10
19.04402384061973
 20
-0.5860884027613682
 30
0.0
 10
18.08377978494924
 20
0.3807206148104255
 30
0.0
 10
17.12291869686986
 20
1.331830316130127
 30
0.0
 10
16.19081528914973
 20
2.198138611284564
 30
0.0
 10
15.29246651025226
 20
2.957082984653542
 30
0.0
 10
14.42489950272845
 20
3.591297176506174
 30
0.0
 10
13.55497849552582
 20
4.105877780450653
 30
0.0
 10
12.68810300014554
 20
4.48291584253909
 30
0.0
 10
11.82957443888561
 20
4.719896763438108
 30
0.0
 10
11.26005867838187
 20
4.746686544875026
 30
0.0
 10
10.980195103893
 20
4.759851209512365
 30
0.0
  0
SPLINE
  5
CD
330
1F
100
AcDbEntity
  8
0
  6
Continuous
 62
     1
370
    15
100
AcDbSpline
210
0.0
220
0.0
230
1.0
 70
     8
 71
     3
 72
    26
 73
    22
 74
     0
 42
0.000000001
 43
0.00000001
 40
0.0
 40
0.0
 40
0.0
 40
0.0
 40
0.0016549727571456
 40
0.0537568262379646
 40
0.1060362671433766
 40
0.1581788747318706
 40
0.2103054101788555
 40
0.2681735853416931
 40
0.3259152477223892
 40
0.3836164065129004
 40
0.4414446445395423
 40
0.499251666295791
 40
0.5569490388314032
 40
0.6147053015286794
 40
0.6725695397343902
 40
0.7302916408766893
 40
0.7880033055909051
 40
0.8458572526592529
 40
0.9036324746266645
 40
0.9613279853167143
 40
1.0
 40
1.0
 40
1.0
 40
1.0
 10
12.66074326114146
 20
4.467147768271897
 30
0.0
 10
12.66992350941939
 20
4.47105722143096
 30
0.0
 10
12.96811634030855
 20
4.598044081637419
 30
0.0
 10
13.55488201787606
 20
4.71378147349002
 30
0.0
 10
14.42492530940963
 20
4.791018843333512
 30
0.0
 10
15.29245962938692
 20
4.692798204300932
 30
0.0
 10
16.19081736014619
 20
4.434211882420242
 30
0.0
 10
17.12291811894373
 20
4.00006567788804
 30
0.0
 10
18.08377993992918
 20
3.388485439083992
 30
0.0
 10
19.04402379750857
 20
2.638798189100715
 30
0.0
 10
20.00640296512285
 20
1.783151324208376
 30
0.0
 10
20.9684167076929
 20
0.8548750415998185
 30
0.0
 10
21.92857897448068
 20
-0.109156664223674
 30
0.0
 10
22.88972867382407
 20
-1.06840311957161
 30
0.0
 10
23.85273761483677
 20
-1.982753215904098
 30
0.0
 10
24.81332429714298
 20
-2.818519909359631
 30
0.0
 10
25.77373859632513
 20
-3.539106588969631
 30
0.0
 10
26.73656044641081
 20
-4.116831753395721
 30
0.0
 10
27.69805979803695
 20
-4.520693225310476
 30
0.0
 10
28.55216628638476
 20
-4.741460338660692
 30
0.0
 10
29.08691173565407
 20
-4.741159895458973
 30
0.0
 10
29.30150356818113
 20
-4.741039328454026
 30
0.0
  0
SPLINE
  5
CE
330
1F
100
AcDbEntity
  8
0
  6
Continuous
 62
     1
370
    15
100
AcDbSpline
210
0.0
220
0.0
230
1.0
 70
     8
 71
     3
 72
    20
 73
    16
 74
     0
 42
0.000000001
 43
0.00000001
 40
0.0
 40
0.0
 40
0.0
 40
0.0
 40
0.1249999999999992
 40
0.1249999999999992
 40
0.2499999999999983
 40
0.2499999999999983
 40
0.3749999999999975
 40
0.3749999999999975
 40
0.4999999999999967
 40
0.4999999999999967
 40
0.6249999999999964
 40
0.6249999999999964
 40
0.7499999999999963
 40
0.7499999999999963
 40
1.0
 40
1.0
 40
1.0
 40
1.0
 10
36.34999999999999
 20
-1.738631853122177
 30
0.0
 10
36.34999999999999
 20
-1.800768796350263
 30
0.0
 10
36.34828212545003
 20
-1.862286716867207
 30
0.0
 10
36.33794548140528
 20
-1.983373584255007
 30
0.0
 10
36.32920317419712
 20
-2.043833870163798
 30
0.0
 10
36.29916414674196
 20
-2.155621224619964
 30
0.0
 10
36.2772695267055
 20
-2.207628382676819
 30
0.0
 10
36.2174736312196
 20
-2.287890066511624
 30
0.0
 10
36.17911484786128
 20
-2.31614191403924
 30
0.0
 10
36.0930905651761
 20
-2.343695523501571
 30
0.0
 10
36.04716229125808
 20
-2.343598681325974
 30
0.0
 10
35.95360850339419
 20
-2.325454458146746
 30
0.0
 10
35.90701351045504
 20
-2.307770626754715
 30
0.0
 10
35.76624808492885
 20
-2.237131821693732
 30
0.0
 10
35.67619975754111
 20
-2.16980795944942
 30
0.0
 10
35.58799999999999
 20
-2.090819808757058
 30
0.0
  0
SPLINE
  5
CF
330
1F
100
AcDbEntity
  8
0
  6
Continuous
 62
     1
370
    15
100
AcDbSpline
210
0.0
220
0.0
230
1.0
 70
     8
 71
     3
 72
    18
 73
    14
 74
     0
 42
0.000000001
 43
0.00000001
 40
0.0
 40
0.0
 40
0.0
 40
0.0
 40
0.0882753114106389
 40
0.1768529697987522
 40
0.2651284713874846
 40
0.3534996817010678
 40
0.4420259256779829
 40
0.5302667683000933
 40
0.6187792648915084
 40
0.7184608356090961
 40
0.817989078436262
 40
0.9176548280343098
 40
0.9999999999999999
 40
0.9999999999999999
 40
0.9999999999999999
 40
0.9999999999999999
 10
35.58800000000014
 20
-2.09081980875719
 30
0.0
 10
35.3045434405936
 20
-1.829024342006818
 30
0.0
 10
34.73665947010507
 20
-1.304536747063323
 30
0.0
 10
33.8823308363315
 20
-0.4615122606866621
 30
0.0
 10
33.03089641993972
 20
0.3948742731309657
 30
0.0
 10
32.17854748198425
 20
1.238672462495852
 30
0.0
 10
31.32465147315149
 20
2.040933820607877
 30
0.0
 10
30.47353249254963
 20
2.781375007197653
 30
0.0
 10
29.58349415064763
 20
3.457215585278095
 30
0.0
 10
28.65816328397862
 20
4.036886195715109
 30
0.0
 10
27.69805483623199
 20
4.469848456663955
 30
0.0
 10
26.79262466175852
 20
4.725693241919156
 30
0.0
 10
26.20684440971272
 20
4.74139752799207
 30
0.0
 10
25.94182638126476
 20
4.748502443049707
 30
0.0
  0
SPLINE
  5
D0
330
1F
100
AcDbEntity
  8
0
  6
Continuous
 62
     1
370
    15
100
AcDbSpline
210
0.0
220
0.0
230
1.0
 70
     8
 71
     3
 72
     9
 73
     5
 74
     0
 42
0.000000001
 43
0.00000001
 40
0.0
 40
0.0
 40
0.0
 40
0.0
 40
0.4917063586342342
 40
1.0
 40
1.0
 40
1.0
 40
1.0
 10
12.6607432611415
 20
-4.467147768271889
 30
0.0
 10
12.3804496078542
 20
-4.553396417300558
 30
0.0
 10
11.81040684073228
 20
-4.728803237883954
 30
0.0
 10
11.23995635474258
 20
-4.751080586367312
 30
0.0
 10
10.95000000000001
 20
-4.762404020947892
 30
0.0
  0
SPLINE
  5
D1
330
1F
100
AcDbEntity
  8
0
  6
Continuous
 62
     1
370
    15
100
AcDbSpline
210
0.0
220
0.0
230
1.0
 70
    24
 71
     3
 72
    15
 73
    11
 74
     0
 42
0.000000001
 43
0.00000001
 40
0.0
 40
0.0
 40
0.0
 40
0.0
 40
0.0427970220358238
 40
0.1883157796976191
 40
0.3380545911897465
 40
0.4835733488515414
 40
0.6333121603436686
 40
0.7788309180054636
 40
0.9285697294975919
 40
0.9999999999999999
 40
0.9999999999999999
 40
0.9999999999999999
 40
0.9999999999999999
 10
10.95
 20
-3.422935601407264
 30
0.0
 10
10.95
 20
-3.420045144138437
 30
0.0
 10
10.95
 20
-3.407326532226467
 30
0.0
 10
10.95
 20
-3.452944210464994
 30
0.0
 10
10.95
 20
-3.559607089483476
 30
0.0
 10
10.95
 20
-3.736270572857921
 30
0.0
 10
10.95
 20
-3.968104660495159
 30
0.0
 10
10.95
 20
-4.25488876366888
 30
0.0
 10
10.95
 20
-4.52646375438745
 30
0.0
 10
10.95
 20
-4.704805543989552
 30
0.0
 10
10.95
 20
-4.762404020947901
 30
0.0
  0
SPLINE
  5
D2
330
1F
100
AcDbEntity
  8
0
  6
Continuous
 62
     1
370
    15
100
AcDbSpline
210
0.0
220
0.0
230
1.0
 70
     8
 71
     3
 72
    11
 73
     7
 74
     0
 42
0.000000001
 43
0.00000001
 40
0.0
 40
0.0
 40
0.0
 40
0.0
 40
0.2564186088227632
 40
0.5125925094505438
 40
0.7683229746512291
 40
1.0
 40
1.0
 40
1.0
 40
1.0
 10
10.95000000000126
 20
-3.606589743712303
 30
0.0
 10
11.23993093702057
 20
-3.784320883897079
 30
0.0
 10
11.81951612101478
 20
-4.139613549952338
 30
0.0
 10
12.68807994069115
 20
-4.499637956566989
 30
0.0
 10
13.52694626786913
 20
-4.726064034844221
 30
0.0
 10
14.07850059554463
 20
-4.746056852506755
 30
0.0
 10
14.34066822413412
 20
-4.755559941019357
 30
0.0
  0
SPLINE
  5
D3
330
1F
100
AcDbEntity
  8
0
  6
Continuous
 62
     1
370
    15
100
AcDbSpline
210
0.0
220
0.0
230
1.0
 70
     8
 71
     3
 72
    17
 73
    13
 74
     0
 42
0.000000001
 43
0.00000001
 40
0.0
 40
0.0
 40
0.0
 40
0.0
 40
0.0095222176723604
 40
0.1300379016016289
 40
0.2507392455511562
 40
0.3579163016308582
 40
0.4647644202856364
 40
0.5719581226510436
 40
0.67896409952831
 40
0.7858541856583301
 40
0.8931101441507759
 40
0.9999999999999999
 40
0.9999999999999999
 40
0.9999999999999999
 40
0.9999999999999999
 10
27.62245008060604
 20
4.462821602180537
 30
0.0
 10
27.64774013092903
 20
4.473678504747761
 30
0.0
 10
27.99310769010052
 20
4.621943213276026
 30
0.0
 10
28.65809769957555
 20
4.739420353650156
 30
0.0
 10
29.58350955774512
 20
4.78572760324715
 30
0.0
 10
30.47352858710527
 20
4.643536947906859
 30
0.0
 10
31.32465252207782
 20
4.362000433256818
 30
0.0
 10
32.17854720108931
 20
3.94119449333362
 30
0.0
 10
33.03089649502508
 20
3.394285176816981
 30
0.0
 10
33.8823308162391
 20
2.736872920837365
 30
0.0
 10
34.73665947511529
 20
1.997671743517571
 30
0.0
 10
35.30454344226177
 20
1.453520338201385
 30
0.0
 10
35.58800000000014
 20
1.181909774841978
 30
0.0
  0
SPLINE
  5
D4
330
1F
100
AcDbEntity
  8
0
  6
Continuous
 62
     1
370
    15
100
AcDbSpline
210
0.0
220
0.0
230
1.0
 70
     8
 71
     3
 72
     8
 73
     4
 74
     0
 42
0.000000001
 43
0.00000001
 40
0.0
 40
0.0
 40
0.0
 40
0.0
 40
1.0
 40
1.0
 40
1.0
 40
1.0
 10
35.58799999999999
 20
1.181909774838406
 30
0.0
 10
35.63965520043896
 20
1.132033093147257
 30
0.0
 10
35.68941567855722
 20
1.080081208787548
 30
0.0
 10
35.73767641168729
 20
1.026448284697355
 30
0.0
  0
SPLINE
  5
D5
330
1F
100
AcDbEntity
  8
0
  6
Continuous
 62
     1
370
    15
100
AcDbSpline
210
0.0
220
0.0
230
1.0
 70
     8
 71
     3
 72
    16
 73
    12
 74
     0
 42
0.000000001
 43
0.00000001
 40
0.0
 40
0.0
 40
0.0
 40
0.0
 40
0.2500000000000011
 40
0.2500000000000011
 40
0.5000000000000021
 40
0.5000000000000021
 40
0.7500000000000031
 40
0.7500000000000031
 40
0.8750000000000016
 40
0.8750000000000016
 40
1.0
 40
1.0
 40
1.0
 40
1.0
 10
35.73767641168727
 20
1.026448284697362
 30
0.0
 10
35.72285083019428
 20
0.9432215861339854
 30
0.0
 10
35.69817610501826
 20
0.8557974234653547
 30
0.0
 10
35.62159547663055
 20
0.6693438361858464
 30
0.0
 10
35.56838363457164
 20
0.5681863383953919
 30
0.0
 10
35.42622209978226
 20
0.3603991801805249
 30
0.0
 10
35.33542222429069
 20
0.2519689677727573
 30
0.0
 10
35.17768304965575
 20
0.0999207669863228
 30
0.0
 10
35.12032975221289
 20
0.0498371440620634
 30
0.0
 10
35.00284744639809
 20
-0.0429269819494839
 30
0.0
 10
34.94259762145536
 20
-0.0858834131382606
 30
0.0
 10
34.88093485845447
 20
-0.1256315886861794
 30
0.0
  0
SPLINE
  5
D6
330
1F
100
AcDbEntity
  8
0
  6
Continuous
 62
     1
370
    15
100
AcDbSpline
210
0.0
220
0.0
230
1.0
 70
     8
 71
     3
 72
     8
 73
     4
 74
     0
 42
0.000000001
 43
0.00000001
 40
0.0
 40
0.0
 40
0.0
 40
0.0
 40
1.0
 40
1.0
 40
1.0
 40
1.0
 10
36.34999999999999
 20
-1.141102845938065
 30
0.0
 10
35.86232526839262
 20
-0.8078837043871874
 30
0.0
 10
35.37256731793492
 20
-0.4692111669241963
 30
0.0
 10
34.88093485845447
 20
-0.1256315886861813
 30
0.0
  0
LINE
  5
D7
330
1F
100
AcDbEntity
  8
0
  6
Continuous
 62
     1
370
    15
100
AcDbLine
 10
36.34999999999999
 20
-1.738631853122202
 30
0.0
 11
36.34999999999999
 21
-1.141102845938065
 31
0.0
  0
LINE
  5
D8
330
1F
100
AcDbEntity
  8
0
  6
Continuous
 62
     1
370
    15
100
AcDbLine
 10
36.34999999999999
 20
-0.8660254037844333
 30
0.0
 11
36.34999999999999
 21
1.070724467133329
 31
0.0
  0
LINE
  5
D9
330
1F
100
AcDbEntity
  8
0
  6
Continuous
 62
     1
370
    15
100
AcDbLine
 10
34.88093485845447
 20
-0.1256315886861802
 30
0.0
 11
36.34999999999999
 21
-0.8660254037844333
 31
0.0
  0
SPLINE
  5
DA
330
1F
100
AcDbEntity
  8
0
  6
Continuous
 62
     1
370
    15
100
AcDbSpline
210
0.0
220
0.0
230
1.0
 70
     8
 71
     3
 72
    14
 73
    10
 74
     0
 42
0.000000001
 43
0.00000001
 40
0.0
 40
0.0
 40
0.0
 40
0.0
 40
0.25
 40
0.25
 40
0.5
 40
0.5
 40
0.75
 40
0.75
 40
1.0
 40
1.0
 40
1.0
 40
1.0
 10
36.35000000000001
 20
1.070724467133459
 30
0.0
 10
36.34999999999997
 20
1.117391287396622
 30
0.0
 10
36.33377157645396
 20
1.153217962024023
 30
0.0
 10
36.26849687992095
 20
1.197280667807817
 30
0.0
 10
36.21984704382257
 20
1.204731666895362
 30
0.0
 10
36.10281799962337
 20
1.192178569066113
 30
0.0
 10
36.03412305568032
 20
1.172333725590195
 30
0.0
 10
35.88953102376963
 20
1.112612424259158
 30
0.0
 10
35.81363746788551
 20
1.07292472872035
 30
0.0
 10
35.73767641168727
 20
1.02644828469737
 30
0.0
  0
SPLINE
  5
DB
330
1F
100
AcDbEntity
  8
0
  6
Continuous
 62
     1
370
    15
100
AcDbSpline
210
0.0
220
0.0
230
1.0
 70
     8
 71
     3
 72
    20
 73
    16
 74
     0
 42
0.000000001
 43
0.00000001
 40
0.0
 40
0.0
 40
0.0
 40
0.0
 40
0.1249999999999994
 40
0.1249999999999994
 40
0.2499999999999988
 40
0.2499999999999988
 40
0.3749999999999982
 40
0.3749999999999982
 40
0.4999999999999977
 40
0.4999999999999977
 40
0.6249999999999971
 40
0.6249999999999971
 40
0.7499999999999964
 40
0.7499999999999964
 40
1.0
 40
1.0
 40
1.0
 40
1.0
 10
36.34999999999999
 20
2.250919584899822
 30
0.0
 10
36.35000000000001
 20
2.222934465777474
 30
0.0
 10
36.34828212545003
 20
2.197907698322033
 30
0.0
 10
36.33794548140526
 20
2.156593745859748
 30
0.0
 10
36.32920317419712
 20
2.140092150184666
 30
0.0
 10
36.29916414674196
 20
2.123114161549766
 30
0.0
 10
36.27726952670552
 20
2.122942277597071
 30
0.0
 10
36.21747363121962
 20
2.145424868626879
 30
0.0
 10
36.17911484786129
 20
2.168389960364117
 30
0.0
 10
36.09309056517611
 20
2.230247638827964
 30
0.0
 10
36.0471622912581
 20
2.26743901524426
 30
0.0
 10
35.95360850339419
 20
2.34598618414004
 30
0.0
 10
35.90701351045504
 20
2.38648247892508
 30
0.0
 10
35.76624808492885
 20
2.50898568341566
 30
0.0
 10
35.67619975754111
 20
2.587397928188962
 30
0.0
 10
35.58799999999999
 20
2.660316621281711
 30
0.0
  0
SPLINE
  5
DC
330
1F
100
AcDbEntity
  8
0
  6
Continuous
 62
     1
370
    15
100
AcDbSpline
210
0.0
220
0.0
230
1.0
 70
     8
 71
     3
 72
    13
 73
     9
 74
     0
 42
0.000000001
 43
0.00000001
 40
0.0
 40
0.0
 40
0.0
 40
0.0
 40
0.1827887098720292
 40
0.3662034794323574
 40
0.5489925830997504
 40
0.7319798675955017
 40
0.9152881750687348
 40
1.0
 40
1.0
 40
1.0
 40
1.0
 10
35.58800000000014
 20
2.660316621281585
 30
0.0
 10
35.30454339433081
 20
2.887798387408797
 30
0.0
 10
34.73665933115824
 20
3.343541055112532
 30
0.0
 10
33.882331393547
 20
3.894578833704205
 30
0.0
 10
33.03089433762366
 20
4.331680436637327
 30
0.0
 10
32.17855527194568
 20
4.619272344253213
 30
0.0
 10
31.47705983135058
 20
4.760556119963352
 30
0.0
 10
31.0613992278956
 20
4.747647479123597
 30
0.0
 10
30.93002339446544
 20
4.743567507544196
 30
0.0
  0
SPLINE
  5
DD
330
1F
100
AcDbEntity
  8
0
  6
Continuous
 62
     1
370
    15
100
AcDbSpline
210
0.0
220
0.0
230
1.0
 70
     8
 71
     3
 72
    15
 73
    11
 74
     0
 42
0.000000001
 43
0.00000001
 40
0.0
 40
0.0
 40
0.0
 40
0.0
 40
0.0783736185399174
 40
0.2221461621224724
 40
0.3516536948599827
 40
0.4812011585726615
 40
0.6110885824441807
 40
0.7405347932366602
 40
0.8702054631514548
 40
1.0
 40
1.0
 40
1.0
 40
1.0
 10
17.64809037581886
 20
-4.446882633577892
 30
0.0
 10
17.47319473153534
 20
-4.510875610608659
 30
0.0
 10
16.97746164081764
 20
-4.692260552570167
 30
0.0
 10
16.19078115563958
 20
-4.781649943936908
 30
0.0
 10
15.29247524967632
 20
-4.742135614186092
 30
0.0
 10
14.42489716152627
 20
-4.538751591762543
 30
0.0
 10
13.55497909150519
 20
-4.188489991263411
 30
0.0
 10
12.68810295053508
 20
-3.695670552071572
 30
0.0
 10
11.81951035798512
 20
-3.087183048963546
 30
0.0
 10
11.23992901539857
 20
-2.599150155073311
 30
0.0
 10
10.95000000000001
 20
-2.355017216327828
 30
0.0
  0
SPLINE
  5
DE
330
1F
100
AcDbEntity
  8
0
  6
Continuous
 62
     1
370
    15
100
AcDbSpline
210
0.0
220
0.0
230
1.0
 70
    24
 71
     3
 72
    14
 73
    10
 74
     0
 42
0.000000001
 43
0.00000001
 40
0.0
 40
0.0
 40
0.0
 40
0.0
 40
0.2500000000000001
 40
0.2500000000000001
 40
0.5000000000000002
 40
0.5000000000000002
 40
0.7500000000000001
 40
0.7500000000000001
 40
1.0
 40
1.0
 40
1.0
 40
1.0
 10
10.95
 20
0.8902970614063389
 30
0.0
 10
10.95
 20
0.7726345461815189
 30
0.0
 10
10.95
 20
0.6211790746006537
 30
0.0
 10
10.95
 20
0.2246348371757455
 30
0.0
 10
10.95
 20
-0.0218438937969562
 30
0.0
 10
10.95
 20
-0.6109067794803797
 30
0.0
 10
10.95
 20
-0.9546959292494612
 30
0.0
 10
10.95
 20
-1.669693013512119
 30
0.0
 10
10.95
 20
-2.038201887840721
 30
0.0
 10
10.95
 20
-2.355017216327839
 30
0.0
  0
SPLINE
  5
DF
330
1F
100
AcDbEntity
  8
0
  6
Continuous
 62
     1
370
    15
100
AcDbSpline
210
0.0
220
0.0
230
1.0
 70
     8
 71
     3
 72
    17
 73
    13
 74
     0
 42
0.000000001
 43
0.00000001
 40
0.0
 40
0.0
 40
0.0
 40
0.0
 40
0.1037830131340669
 40
0.2074669829345376
 40
0.3109714764288009
 40
0.414828761526538
 40
0.5184142163108689
 40
0.6219677425023548
 40
0.7369274945939355
 40
0.8516359189387805
 40
0.9662638796665617
 40
1.0
 40
1.0
 40
1.0
 40
1.0
 10
10.95000000000125
 20
0.8902970614085528
 30
0.0
 10
11.23992900031818
 20
0.6029661968214046
 30
0.0
 10
11.81951031275586
 20
0.0285786763621421
 30
0.0
 10
12.68810313112533
 20
-0.8413812328750223
 30
0.0
 10
13.55497841461032
 20
-1.683344849746152
 30
0.0
 10
14.42489969554176
 20
-2.466716231209771
 30
0.0
 10
15.29246582217731
 20
-3.170814913567257
 30
0.0
 10
16.19081796777828
 20
-3.790101132053696
 30
0.0
 10
17.12290747963404
 20
-4.292201574987137
 30
0.0
 10
18.08382138891065
 20
-4.623374414996733
 30
0.0
 10
18.81755088703354
 20
-4.773753721278738
 30
0.0
 10
19.232103387153
 20
-4.748190308031853
 30
0.0
 10
19.32636739585728
 20
-4.74237751035696
 30
0.0
  0
SPLINE
  5
E0
330
1F
100
AcDbEntity
  8
0
  6
Continuous
 62
     1
370
    15
100
AcDbSpline
210
0.0
220
0.0
230
1.0
 70
     8
 71
     3
 72
    11
 73
     7
 74
     0
 42
0.000000001
 43
0.00000001
 40
0.0
 40
0.0
 40
0.0
 40
0.0
 40
0.141406340936126
 40
0.4272782637746114
 40
0.7141286930354132
 40
1.0
 40
1.0
 40
1.0
 40
1.0
 10
32.60991361208951
 20
4.451537074111056
 30
0.0
 10
32.75031212350336
 20
4.503591215512721
 30
0.0
 10
33.17454509492681
 20
4.660879799696001
 30
0.0
 10
33.88228583192168
 20
4.764210031281672
 30
0.0
 10
34.73667069236986
 20
4.774809889895289
 30
0.0
 10
35.30454717708265
 20
4.649114147264305
 30
0.0
 10
35.58800000000014
 20
4.586373720364104
 30
0.0
  0
SPLINE
  5
E1
330
1F
100
AcDbEntity
  8
0
  6
Continuous
 62
     1
370
    15
100
AcDbSpline
210
0.0
220
0.0
230
1.0
 70
     8
 71
     3
 72
     8
 73
     4
 74
     0
 42
0.000000001
 43
0.00000001
 40
0.0
 40
0.0
 40
0.0
 40
0.0
 40
1.0
 40
1.0
 40
1.0
 40
1.0
 10
35.58799999999999
 20
4.586373720358515
 30
0.0
 10
35.63965520043835
 20
4.572501128829785
 30
0.0
 10
35.68941567855779
 20
4.552677142794971
 30
0.0
 10
35.73767641168729
 20
4.527570382859141
 30
0.0
  0
SPLINE
  5
E2
330
1F
100
AcDbEntity
  8
0
  6
Continuous
 62
     1
370
    15
100
AcDbSpline
210
0.0
220
0.0
230
1.0
 70
     8
 71
     3
 72
    16
 73
    12
 74
     0
 42
0.000000001
 43
0.00000001
 40
0.0
 40
0.0
 40
0.0
 40
0.0
 40
0.2500000000000009
 40
0.2500000000000009
 40
0.5000000000000019
 40
0.5000000000000019
 40
0.7500000000000029
 40
0.7500000000000029
 40
0.8750000000000014
 40
0.8750000000000014
 40
1.0
 40
1.0
 40
1.0
 40
1.0
 10
35.73767641168727
 20
4.527570382859142
 30
0.0
 10
35.72285083019428
 20
4.379097377313927
 30
0.0
 10
35.69817610501826
 20
4.234174436086654
 30
0.0
 10
35.62159547663057
 20
3.954143867185349
 30
0.0
 10
35.56838363457164
 20
3.816363929298233
 30
0.0
 10
35.42622209978226
 20
3.573202416005676
 30
0.0
 10
35.33542222429069
 20
3.466463629094525
 30
0.0
 10
35.17768304965575
 20
3.353672514874164
 30
0.0
 10
35.12032975221287
 20
3.323063063234454
 30
0.0
 10
35.00284744639809
 20
3.280016768054004
 30
0.0
 10
34.94259762145538
 20
3.267174594047165
 30
0.0
 10
34.88093485845447
 20
3.262462535579563
 30
0.0
  0
SPLINE
  5
E3
330
1F
100
AcDbEntity
  8
0
  6
Continuous
 62
     1
370
    15
100
AcDbSpline
210
0.0
220
0.0
230
1.0
 70
     8
 71
     3
 72
     8
 73
     4
 74
     0
 42
0.000000001
 43
0.00000001
 40
0.0
 40
0.0
 40
0.0
 40
0.0
 40
1.0
 40
1.0
 40
1.0
 40
1.0
 10
36.34999999999999
 20
2.585374663495466
 30
0.0
 10
35.86232526839262
 20
2.846603633069274
 30
0.0
 10
35.37256731793492
 20
3.071071953573058
 30
0.0
 10
34.88093485845447
 20
3.26246253557956
 30
0.0
  0
LINE
  5
E4
330
1F
100
AcDbEntity
  8
0
  6
Continuous
 62
     1
370
    15
100
AcDbLine
 10
36.34999999999999
 20
2.250919584899809
 30
0.0
 11
36.34999999999999
 21
2.585374663495467
 31
0.0
  0
LINE
  5
E5
330
1F
100
AcDbEntity
  8
0
  6
Continuous
 62
     1
370
    15
100
AcDbLine
 10
10.95
 20
0.8902970614063583
 30
0.0
 11
10.95
 21
2.407386804620023
 31
0.0
  0
LINE
  5
E7
330
1F
100
AcDbEntity
  8
0
  6
Continuous
 62
     1
370
    15
100
AcDbLine
 10
10.95
 20
4.496886805115585
 30
0.0
 11
10.95
 21
4.762500000000005
 31
0.0
  0
LINE
  5
E9
330
1F
100
AcDbEntity
  8
0
  6
Continuous
 62
     1
370
    15
100
AcDbLine
 10
36.34999999999999
 20
1.070724467133329
 30
0.0
 11
36.34999999999999
 21
2.250919584899809
 31
0.0
  0
LINE
  5
EA
330
1F
100
AcDbEntity
  8
0
  6
Continuous
 62
     1
370
    15
100
AcDbLine
 10
10.95
 20
-3.606589743709246
 30
0.0
 11
10.95
 21
-2.355017216327836
 31
0.0
  0
LINE
  5
EB
330
1F
100
AcDbEntity
  8
0
  6
Continuous
 62
     1
370
    15
100
AcDbLine
 10
36.34999999999999
 20
-2.802775274702215
 30
0.0
 11
36.34999999999999
 21
-1.738631853122202
 31
0.0
  0
SPLINE
  5
EC
330
1F
100
AcDbEntity
  8
0
  6
Continuous
 62
     1
370
    15
100
AcDbSpline
210
0.0
220
0.0
230
1.0
 70
     8
 71
     3
 72
    14
 73
    10
 74
     0
 42
0.000000001
 43
0.00000001
 40
0.0
 40
0.0
 40
0.0
 40
0.0
 40
0.25
 40
0.25
 40
0.5
 40
0.5
 40
0.75
 40
0.75
 40
1.0
 40
1.0
 40
1.0
 40
1.0
 10
36.35000000000001
 20
-2.802775274702342
 30
0.0
 10
36.34999999999997
 20
-2.849442094965542
 30
0.0
 10
36.33377157645396
 20
-2.904950521047099
 30
0.0
 10
36.26849687992095
 20
-3.028178054502846
 30
0.0
 10
36.21984704382257
 20
-3.094631333119209
 30
0.0
 10
36.10281799962337
 20
-3.224010478697011
 30
0.0
 10
36.03412305568032
 20
-3.287478521960275
 30
0.0
 10
35.88953102376961
 20
-3.40311771860048
 30
0.0
 10
35.81363746788551
 20
-3.455473350600388
 30
0.0
 10
35.73767641168727
 20
-3.501122098161775
 30
0.0
  0
LINE
  5
ED
330
1F
100
AcDbEntity
  8
0
  6
Continuous
 62
     1
370
    15
100
AcDbLine
 10
36.34999999999999
 20
-0.8660254037844333
 30
0.0
 11
36.34999999999999
 21
-1.141102845938064
 31
0.0
  0
SPLINE
  5
EE
330
1F
100
AcDbEntity
  8
0
  6
Continuous
 62
     1
370
    15
100
AcDbSpline
210
0.0
220
0.0
230
1.0
 70
     8
 71
     3
 72
    14
 73
    10
 74
     0
 42
0.000000001
 43
0.00000001
 40
0.0
 40
0.0
 40
0.0
 40
0.0
 40
0.25
 40
0.25
 40
0.5
 40
0.5
 40
0.75
 40
0.75
 40
1.0
 40
1.0
 40
1.0
 40
1.0
 10
36.35000000000001
 20
3.873499741835546
 30
0.0
 10
36.35000000000001
 20
3.966833382361924
 30
0.0
 10
36.33377157645402
 20
4.058168483070915
 30
0.0
 10
36.26849687992105
 20
4.225458722310527
 30
0.0
 10
36.21984704382265
 20
4.299363000014464
 30
0.0
 10
36.10281799962347
 20
4.416189047763072
 30
0.0
 10
36.03412305568038
 20
4.459812247550436
 30
0.0
 10
35.88953102376966
 20
4.51573014285963
 30
0.0
 10
35.81363746788555
 20
4.528398079320739
 30
0.0
 10
35.73767641168729
 20
4.527570382859146
 30
0.0
  0
LINE
  5
EF
330
1F
100
AcDbEntity
  8
0
  6
Continuous
 62
     1
370
    15
100
AcDbLine
 10
36.34999999999999
 20
2.585374663495466
 30
0.0
 11
36.34999999999999
 21
4.381500000000004
 31
0.0
  0
LINE
  5
F0
330
1F
100
AcDbEntity
  8
0
  6
Continuous
 62
     1
370
    15
100
AcDbLine
 10
36.34999999999999
 20
-2.802775274702216
 30
0.0
 11
36.34999999999999
 21
-3.72647750943352
 31
0.0
  0
LINE
  5
F1
330
1F
100
AcDbEntity
  8
0
  6
Continuous
 62
     1
370
    15
100
AcDbLine
 10
36.34999999999999
 20
3.873499741835547
 30
0.0
 11
36.35000000000001
 21
4.000500000000006
 31
0.0
  0
LINE
  5
F2
330
1F
100
AcDbEntity
  8
0
  6
Continuous
 62
     1
370
    15
100
AcDbLine
 10
36.35000000000001
 20
-4.000499999999995
 30
0.0
 11
36.34999999999999
 21
-3.989551438021994
 31
0.0
  0
LINE
  5
F5
330
1F
100
AcDbEntity
  8
0
  6
Continuous
 62
     8
370
    15
100
AcDbLine
 10
35.58799999999999
 20
-4.762499999999994
 30
0.0
 11
35.58799999999999
 21
-4.75113643003875
 31
0.0
  0
LINE
  5
F6
330
1F
100
AcDbEntity
  8
중심선
100
AcDbLine
 10
-42.84999999999999
 20
0.0
 30
0.0
 11
39.35000000000001
 21
-0.0000000000000004
 31
0.0
  0
CIRCLE
  5
F7
330
1F
100
AcDbEntity
  8
외형선
100
AcDbCircle
 10
0.0
 20
0.0
 30
0.0
 40
3.000000000000001
  0
INSERT
  5
F8
330
1F
100
AcDbEntity
  8
0
  6
Continuous
 62
     7
100
AcDbBlockReference
 66
     1
  2
블럭10
 10
-15.67936049909348
 20
-51.78679627639981
 30
0.0
  0
ATTRIB
  5
F9
330
F8
100
AcDbEntity
  8
FORMAT
 62
     2
100
AcDbText
 10
-26.73038085127795
 20
-49.71142936356761
 30
0.0
 40
4.233333333333333
  1
GMG23024[ 6 FLUTE ]
 41
0.75
  7
SLDTEXTSTYLE0
 11
-26.73038085127795
 21
-51.82809603023428
 31
0.0
100
AcDbAttribute
  2
AUTOATTR0
 70
     0
 74
     1
  0
SEQEND
  5
FA
330
F8
100
AcDbEntity
  8
0
  6
Continuous
 62
     7
  0
HATCH
  5
FB
330
1F
100
AcDbEntity
  8
중심선
100
AcDbHatch
 10
0.0
 20
0.0
 30
0.0
210
0.0
220
0.0
230
1.0
  2
SOLID
 70
     1
 71
     0
 91
        1
 92
        0
 93
        4
 72
     1
 10
-9.964451194712634
 20
-35.53962197475587
 11
-13.41072643854991
 21
-35.53962197475587
 72
     1
 10
-13.41072643854991
 20
-35.53962197475587
 11
-15.53895629775394
 21
-38.07594755532847
 72
     1
 10
-15.53895629775394
 20
-38.07594755532847
 11
-12.0926479688035
 21
-38.07590812602598
 72
     1
 10
-12.0926479688035
 20
-38.07590812602598
 11
-9.964451194712634
 21
-35.53962197475587
 97
        0
 75
     0
 76
     1
 98
        1
 10
-0.0000000000000139
 20
0.2603780252441217
  0
HATCH
  5
FC
330
1F
100
AcDbEntity
  8
중심선
100
AcDbHatch
 10
0.0
 20
0.0
 30
0.0
210
0.0
220
0.0
230
1.0
  2
SOLID
 70
     1
 71
     0
 91
        1
 92
        0
 93
        4
 72
     1
 10
-4.951687203676683
 20
-35.53962197475587
 11
-8.397962447513965
 21
-35.53962197475587
 72
     1
 10
-8.397962447513965
 20
-35.53962197475587
 11
-12.92910045587135
 21
-40.93962197475589
 72
     1
 10
-12.92910045587135
 20
-40.93962197475589
 11
-9.482825212034072
 21
-40.93962197475589
 72
     1
 10
-9.482825212034072
 20
-40.93962197475589
 11
-4.951687203676683
 21
-35.53962197475587
 97
        0
 75
     0
 76
     1
 98
        1
 10
-0.0000000000000139
 20
0.2603780252441217
  0
HATCH
  5
FD
330
1F
100
AcDbEntity
  8
중심선
100
AcDbHatch
 10
0.0
 20
0.0
 30
0.0
210
0.0
220
0.0
230
1.0
  2
SOLID
 70
     1
 71
     0
 91
        1
 92
        0
 93
        4
 72
     1
 10
0.0610767873592127
 20
-35.53962197475591
 11
-3.385198456477903
 21
-35.53962197475587
 72
     1
 10
-3.385198456477903
 20
-35.53962197475587
 11
-10.43363535836715
 21
-43.93962197475589
 72
     1
 10
-10.43363535836715
 20
-43.93962197475589
 11
-6.98736011452987
 21
-43.93962197475589
 72
     1
 10
-6.98736011452987
 20
-43.93962197475589
 11
0.0610767873592124
 21
-35.53962197475591
 97
        0
 75
     0
 76
     1
 98
        1
 10
-0.0000000000000139
 20
0.2603780252441217
  0
HATCH
  5
FE
330
1F
100
AcDbEntity
  8
중심선
100
AcDbHatch
 10
0.0
 20
0.0
 30
0.0
210
0.0
220
0.0
230
1.0
  2
SOLID
 70
     1
 71
     0
 91
        1
 92
        0
 93
        6
 72
     3
 10
4.860967218371412
 20
-39.73962197480715
 11
3.960054785062285
 21
1.540882976769353E-10
 40
0.3939339440162626
 50
17.09539180608438
 51
320.0019657685078
 73
     0
 72
     1
 10
6.543966874072007
 20
-38.32751597939418
 11
8.849268747773046
 21
-36.39318926934626
 72
     3
 10
4.860967218318565
 20
-39.73962197475603
 11
6.600054785286829
 21
-1.278976924368180E-13
 40
0.636358354079598
 50
39.99873849337411
 51
368.4976242363724
 73
     1
 72
     1
 10
11.28629971021918
 20
-38.7796219746859
 11
3.541034525154489
 21
-38.77962197468587
 72
     1
 10
3.541034525154488
 20
-38.77962197468587
 11
3.541009480708554
 21
-40.69962197468579
 72
     1
 10
3.541009480708554
 20
-40.69962197468579
 11
7.98238925018059
 21
-40.69962197468575
 97
        0
 75
     0
 76
     1
 98
        1
 10
-0.0000000000000139
 20
0.2603780252441217
  0
POINT
  5
FF
330
1F
100
AcDbEntity
  8
치수문자_일반주서
100
AcDbPoint
 10
0.0
 20
0.0
 30
0.0
  0
DIMENSION
  5
100
330
1F
100
AcDbEntity
  8
치수문자_일반주서
100
AcDbDimension
  2
_D
 10
36.34999999999999
 20
38.95387647970988
 30
0.0
 11
0.5059551151318145
 21
38.95387647970988
 31
0.0
 70
   160
  1
<>
 71
     2
 42
76.19999999999999
  3
SLDDIMSTYLE0
100
AcDbAlignedDimension
 13
-39.84999999999999
 23
4.262499999999998
 33
0.0
 14
36.34999999999999
 24
3.873499741835547
 34
0.0
100
AcDbRotatedDimension
1001
ACAD
1000
DSTYLE
1002
{
1070
   273
1070
     7
1002
}
  0
DIMENSION
  5
114
330
1F
100
AcDbEntity
  8
치수문자_일반주서
100
AcDbDimension
  2
_D_1
 10
50.68695635494107
 20
-4.762499999999937
 30
0.0
 11
50.68695635494105
 21
0.0000000000000046
 31
0.0
 70
   160
  1
%%c<>
 71
     2
 42
9.524999999999999
 52
-270.0
  3
SLDDIMSTYLE1
100
AcDbAlignedDimension
 13
35.58799999999999
 23
4.762500000000005
 33
0.0
 14
35.58799999999999
 24
-4.762499999999994
 34
0.0
 50
90.0000000000002
100
AcDbRotatedDimension
1001
ACAD
1000
DSTYLE
1002
{
1070
   171
1070
     3
1070
   273
1070
     7
1002
}
  0
DIMENSION
  5
129
330
1F
100
AcDbEntity
  8
치수문자_일반주서
100
AcDbDimension
  2
_D_2
 10
10.95
 20
23.73050498632061
 30
0.0
 11
23.38175835779893
 21
23.73050498632061
 31
0.0
 70
   160
  1
<>
 71
     2
 42
25.4
  3
SLDDIMSTYLE2
100
AcDbAlignedDimension
 13
36.34999999999999
 23
3.873499741835547
 33
0.0
 14
10.95
 24
-4.762499999999996
 34
0.0
100
AcDbRotatedDimension
1001
ACAD
1000
DSTYLE
1002
{
1070
   273
1070
     7
1002
}
  0
DIMENSION
  5
13F
330
1F
100
AcDbEntity
  8
치수문자_일반주서
100
AcDbDimension
  2
_D_3
 10
-52.84999999999998
 20
-4.762500000000045
 30
0.0
 11
-52.85
 21
-0.0000000000000333
 31
0.0
 70
   160
  1
%%c<>
 71
     2
 42
9.525
 52
-270.0
  3
SLDDIMSTYLE1
100
AcDbAlignedDimension
 13
-39.34999999999999
 23
4.762500000000003
 33
0.0
 14
-39.34999999999999
 24
-4.762499999999998
 34
0.0
 50
90.0000000000002
100
AcDbRotatedDimension
1001
ACAD
1000
DSTYLE
1002
{
1070
   171
1070
     3
1070
   273
1070
     7
1002
}
  0
INSERT
  5
159
330
1F
100
AcDbEntity
  8
외형선
100
AcDbBlockReference
  2
SW_DOWELSYMBOL_0
 10
0.0
 20
0.0
 30
0.0
  0
ARC
  5
180
330
1F
100
AcDbEntity
  8
0
  6
Continuous
 62
     1
370
    15
100
AcDbCircle
 10
35.96899999999999
 20
4.381500000000004
 30
0.0
 40
0.3809999999999999
100
AcDbArc
 50
0.0
 51
90.0
  0
ARC
  5
181
330
1F
100
AcDbEntity
  8
0
  6
Continuous
 62
     1
370
    15
100
AcDbCircle
 10
35.96899999999999
 20
-4.381499999999994
 30
0.0
 40
0.3809999999999999
100
AcDbArc
 50
270.0
 51
0.0
  0
DIMENSION
  5
183
330
1F
100
AcDbEntity
  8
치수문자_일반주서
100
AcDbDimension
  2
*D7
 10
35.96899999999999
 20
4.381500000000004
 30
0.0
 11
50.51251367029847
 21
24.33103481774718
 31
0.0
 70
   164
  1
<>
 71
     5
 42
0.3810000000000021
  3
SLDDIMSTYLE2
100
AcDbRadialDimension
 15
36.19344414115589
 25
4.689373070437799
 35
0.0
 40
0.0
1001
ACAD
1000
DSTYLE
1002
{
1070
   171
1070
     3
1070
   273
1070
     2
1002
}
1001
ACAD_DSTYLE_DIMRADIAL_EXTENSION
1070
   387
1070
     1
1070
   388
1040
0.0
1070
   390
1040
1.570796326794897
  0
LINE
  5
211
330
1F
100
AcDbEntity
  8
0
  6
Continuous
 62
     4
370
    15
100
AcDbLine
 10
-23.57495000000011
 20
3.492500000000007
 30
0.0
 11
-16.43754999999999
 21
3.492500000000007
 31
0.0
  0
LINE
  5
212
330
1F
100
AcDbEntity
  8
0
  6
Continuous
 62
     4
370
    15
100
AcDbLine
 10
-23.57495000000011
 20
3.492500000000007
 30
0.0
 11
-24.8449500000001
 21
4.762499999999989
 31
0.0
  0
LINE
  5
213
330
1F
100
AcDbEntity
  8
0
  6
Continuous
 62
     4
370
    15
100
AcDbLine
 10
-16.43754999999999
 20
3.492500000000007
 30
0.0
 11
-15.16754999999989
 21
4.762499999999989
 31
0.0
  0
LINE
  5
214
330
1F
100
AcDbEntity
  8
0
  6
Continuous
 62
     4
370
    15
100
AcDbLine
 10
-24.84495000000011
 20
4.762500000000004
 30
0.0
 11
-39.34999999999998
 21
4.762500000000003
 31
0.0
  0
ENDSEC
  0
SECTION
  2
OBJECTS
  0
DICTIONARY
  5
C
330
0
100
AcDbDictionary
281
     1
  3
ACAD_GROUP
350
D
  3
ACAD_IMAGE_VARS
350
17D
  3
ACAD_LAYOUT
350
1A
  3
ACAD_MLINESTYLE
350
17
  3
ACAD_PLOTSETTINGS
350
19
  3
ACAD_PLOTSTYLENAME
350
E
  3
ACAD_SCALELIST
350
47
  3
APPDATA
350
17B
  3
DWGPROPS
350
215
  0
DICTIONARY
  5
202
330
2
100
AcDbDictionary
280
     1
281
     1
  3
ACAD_LAYERSTATES
360
203
  0
DICTIONARY
  5
D
102
{ACAD_REACTORS
330
C
102
}
330
C
100
AcDbDictionary
281
     1
  0
RASTERVARIABLES
  5
17D
102
{ACAD_REACTORS
330
C
102
}
330
C
100
AcDbRasterVariables
 90
        0
 70
     1
 71
     1
 72
     1
  0
DICTIONARY
  5
1A
102
{ACAD_REACTORS
330
C
102
}
330
C
100
AcDbDictionary
281
     1
  3
Layout1
350
1E
  3
Layout2
350
26
  3
Model
350
22
  0
DICTIONARY
  5
17
102
{ACAD_REACTORS
330
C
102
}
330
C
100
AcDbDictionary
281
     1
  3
Standard
350
18
  0
DICTIONARY
  5
19
102
{ACAD_REACTORS
330
C
102
}
330
C
100
AcDbDictionary
281
     1
  0
ACDBDICTIONARYWDFLT
  5
E
102
{ACAD_REACTORS
330
C
102
}
330
C
100
AcDbDictionary
281
     1
  3
Normal
350
F
100
AcDbDictionaryWithDefault
340
F
  0
DICTIONARY
  5
47
102
{ACAD_REACTORS
330
C
102
}
330
C
100
AcDbDictionary
281
     1
  3
A0
350
48
  3
A1
350
49
  3
A2
350
4A
  3
A3
350
4B
  3
A4
350
4C
  3
A5
350
4D
  3
A6
350
4E
  3
A7
350
4F
  3
A8
350
50
  3
A9
350
51
  3
B0
350
52
  3
B1
350
53
  3
B2
350
54
  3
B3
350
55
  3
B4
350
56
  3
B5
350
57
  3
B6
350
58
  3
B7
350
59
  3
B8
350
5A
  3
B9
350
5B
  3
C0
350
5C
  3
C1
350
5D
  3
C2
350
5E
  3
C3
350
5F
  3
C4
350
60
  3
C5
350
61
  3
C6
350
62
  3
C7
350
63
  3
C8
350
64
  3
C9
350
65
  3
D0
350
66
  3
D1
350
67
  3
D2
350
68
  0
DICTIONARY
  5
17B
102
{ACAD_REACTORS
330
C
102
}
330
C
100
AcDbDictionary
281
     1
  0
XRECORD
  5
215
102
{ACAD_REACTORS
330
C
102
}
330
C
100
AcDbXrecord
280
     1
  1
DWGPROPS COOKIE
  2

  3

  4

  6

  7

  8
12016016
  9

300
=
301
=
302
=
303
=
304
=
305
=
306
=
307
=
308
=
309
=
 40
0.0
 41
2458236.351597292
 42
2458242.112229954
  1

 90
        0
  0
DICTIONARY
  5
203
102
{ACAD_REACTORS
330
202
102
}
330
202
100
AcDbDictionary
281
     1
  0
LAYOUT
  5
1E
102
{ACAD_REACTORS
330
1A
102
}
330
1A
100
AcDbPlotSettings
  1

  2
none_device
  4

  6

 40
0.0
 41
0.0
 42
0.0
 43
0.0
 44
0.0
 45
0.0
 46
0.0
 47
0.0
 48
0.0
 49
0.0
140
0.0
141
0.0
142
1.0
143
1.0
 70
   688
 72
     1
 73
     0
 74
     5
  7

 75
    16
147
1.0
148
0.0
149
0.0
100
AcDbLayout
  1
Layout1
 70
     1
 71
     1
 10
0.0
 20
0.0
 11
420.0
 21
297.0
 12
0.0
 22
0.0
 32
0.0
 14
1.000000000000000E+20
 24
1.000000000000000E+20
 34
1.000000000000000E+20
 15
-1.000000000000000E+20
 25
-1.000000000000000E+20
 35
-1.000000000000000E+20
146
0.0
 13
0.0
 23
0.0
 33
0.0
 16
1.0
 26
0.0
 36
0.0
 17
0.0
 27
1.0
 37
0.0
 76
     0
330
1B
  0
LAYOUT
  5
26
102
{ACAD_REACTORS
330
1A
102
}
330
1A
100
AcDbPlotSettings
  1

  2
none_device
  4

  6

 40
0.0
 41
0.0
 42
0.0
 43
0.0
 44
0.0
 45
0.0
 46
0.0
 47
0.0
 48
0.0
 49
0.0
140
0.0
141
0.0
142
1.0
143
1.0
 70
   688
 72
     1
 73
     0
 74
     5
  7

 75
    16
147
1.0
148
0.0
149
0.0
100
AcDbLayout
  1
Layout2
 70
     1
 71
     2
 10
0.0
 20
0.0
 11
0.0
 21
0.0
 12
0.0
 22
0.0
 32
0.0
 14
0.0
 24
0.0
 34
0.0
 15
0.0
 25
0.0
 35
0.0
146
0.0
 13
0.0
 23
0.0
 33
0.0
 16
1.0
 26
0.0
 36
0.0
 17
0.0
 27
1.0
 37
0.0
 76
     0
330
23
  0
LAYOUT
  5
22
102
{ACAD_REACTORS
330
1A
102
}
330
1A
100
AcDbPlotSettings
  1

  2
none_device
  4
ANSI_A_(11.00_x_8.50_Inches)
  6

 40
6.35
 41
19.05
 42
6.35000508
 43
19.05000254
 44
279.4
 45
215.9
 46
146.1015769346838
 47
90.21120647953273
 48
0.0
 49
0.0
140
0.0
141
0.0
142
0.0839802311936506
143
1.0
 70
  1696
 72
     0
 73
     0
 74
     0
  7

 75
     0
147
0.0235690232323232
148
0.0
149
0.0
100
AcDbLayout
  1
Model
 70
     1
 71
     0
 10
0.0
 20
0.0
 11
420.0
 21
297.0
 12
0.0
 22
0.0
 32
0.0
 14
1.000000000000000E+20
 24
1.000000000000000E+20
 34
1.000000000000000E+20
 15
-1.000000000000000E+20
 25
-1.000000000000000E+20
 35
-1.000000000000000E+20
146
0.0
 13
0.0
 23
0.0
 33
0.0
 16
1.0
 26
0.0
 36
0.0
 17
0.0
 27
1.0
 37
0.0
 76
     0
330
1F
331
29
  0
MLINESTYLE
  5
18
102
{ACAD_REACTORS
330
17
102
}
330
17
100
AcDbMlineStyle
  2
Standard
 70
     0
  3

 62
   256
 51
90.0
 52
90.0
 71
     2
 49
0.5
 62
   256
  6
BYLAYER
 49
-0.5
 62
   256
  6
BYLAYER
  0
ACDBPLACEHOLDER
  5
F
102
{ACAD_REACTORS
330
E
102
}
330
E
  0
SCALE
  5
48
102
{ACAD_REACTORS
330
47
102
}
330
47
100
AcDbScale
 70
     0
300
1:1
140
1.0
141
1.0
290
     1
  0
SCALE
  5
49
102
{ACAD_REACTORS
330
47
102
}
330
47
100
AcDbScale
 70
     0
300
1:2
140
1.0
141
2.0
290
     0
  0
SCALE
  5
4A
102
{ACAD_REACTORS
330
47
102
}
330
47
100
AcDbScale
 70
     0
300
1:4
140
1.0
141
4.0
290
     0
  0
SCALE
  5
4B
102
{ACAD_REACTORS
330
47
102
}
330
47
100
AcDbScale
 70
     0
300
1:5
140
1.0
141
5.0
290
     0
  0
SCALE
  5
4C
102
{ACAD_REACTORS
330
47
102
}
330
47
100
AcDbScale
 70
     0
300
1:8
140
1.0
141
8.0
290
     0
  0
SCALE
  5
4D
102
{ACAD_REACTORS
330
47
102
}
330
47
100
AcDbScale
 70
     0
300
1:10
140
1.0
141
10.0
290
     0
  0
SCALE
  5
4E
102
{ACAD_REACTORS
330
47
102
}
330
47
100
AcDbScale
 70
     0
300
1:16
140
1.0
141
16.0
290
     0
  0
SCALE
  5
4F
102
{ACAD_REACTORS
330
47
102
}
330
47
100
AcDbScale
 70
     0
300
1:20
140
1.0
141
20.0
290
     0
  0
SCALE
  5
50
102
{ACAD_REACTORS
330
47
102
}
330
47
100
AcDbScale
 70
     0
300
1:30
140
1.0
141
30.0
290
     0
  0
SCALE
  5
51
102
{ACAD_REACTORS
330
47
102
}
330
47
100
AcDbScale
 70
     0
300
1:40
140
1.0
141
40.0
290
     0
  0
SCALE
  5
52
102
{ACAD_REACTORS
330
47
102
}
330
47
100
AcDbScale
 70
     0
300
1:50
140
1.0
141
50.0
290
     0
  0
SCALE
  5
53
102
{ACAD_REACTORS
330
47
102
}
330
47
100
AcDbScale
 70
     0
300
1:100
140
1.0
141
100.0
290
     0
  0
SCALE
  5
54
102
{ACAD_REACTORS
330
47
102
}
330
47
100
AcDbScale
 70
     0
300
2:1
140
2.0
141
1.0
290
     0
  0
SCALE
  5
55
102
{ACAD_REACTORS
330
47
102
}
330
47
100
AcDbScale
 70
     0
300
4:1
140
4.0
141
1.0
290
     0
  0
SCALE
  5
56
102
{ACAD_REACTORS
330
47
102
}
330
47
100
AcDbScale
 70
     0
300
8:1
140
8.0
141
1.0
290
     0
  0
SCALE
  5
57
102
{ACAD_REACTORS
330
47
102
}
330
47
100
AcDbScale
 70
     0
300
10:1
140
10.0
141
1.0
290
     0
  0
SCALE
  5
58
102
{ACAD_REACTORS
330
47
102
}
330
47
100
AcDbScale
 70
     0
300
100:1
140
100.0
141
1.0
290
     0
  0
SCALE
  5
59
102
{ACAD_REACTORS
330
47
102
}
330
47
100
AcDbScale
 70
     0
300
1/128" = 1'-0"
140
0.0078125
141
12.0
290
     0
  0
SCALE
  5
5A
102
{ACAD_REACTORS
330
47
102
}
330
47
100
AcDbScale
 70
     0
300
1/64" = 1'-0"
140
0.015625
141
12.0
290
     0
  0
SCALE
  5
5B
102
{ACAD_REACTORS
330
47
102
}
330
47
100
AcDbScale
 70
     0
300
1/32" = 1'-0"
140
0.03125
141
12.0
290
     0
  0
SCALE
  5
5C
102
{ACAD_REACTORS
330
47
102
}
330
47
100
AcDbScale
 70
     0
300
1/16" = 1'-0"
140
0.0625
141
12.0
290
     0
  0
SCALE
  5
5D
102
{ACAD_REACTORS
330
47
102
}
330
47
100
AcDbScale
 70
     0
300
3/32" = 1'-0"
140
0.09375
141
12.0
290
     0
  0
SCALE
  5
5E
102
{ACAD_REACTORS
330
47
102
}
330
47
100
AcDbScale
 70
     0
300
1/8" = 1'-0"
140
0.125
141
12.0
290
     0
  0
SCALE
  5
5F
102
{ACAD_REACTORS
330
47
102
}
330
47
100
AcDbScale
 70
     0
300
3/16" = 1'-0"
140
0.1875
141
12.0
290
     0
  0
SCALE
  5
60
102
{ACAD_REACTORS
330
47
102
}
330
47
100
AcDbScale
 70
     0
300
1/4" = 1'-0"
140
0.25
141
12.0
290
     0
  0
SCALE
  5
61
102
{ACAD_REACTORS
330
47
102
}
330
47
100
AcDbScale
 70
     0
300
3/8" = 1'-0"
140
0.375
141
12.0
290
     0
  0
SCALE
  5
62
102
{ACAD_REACTORS
330
47
102
}
330
47
100
AcDbScale
 70
     0
300
1/2" = 1'-0"
140
0.5
141
12.0
290
     0
  0
SCALE
  5
63
102
{ACAD_REACTORS
330
47
102
}
330
47
100
AcDbScale
 70
     0
300
3/4" = 1'-0"
140
0.75
141
12.0
290
     0
  0
SCALE
  5
64
102
{ACAD_REACTORS
330
47
102
}
330
47
100
AcDbScale
 70
     0
300
1" = 1'-0"
140
1.0
141
12.0
290
     0
  0
SCALE
  5
65
102
{ACAD_REACTORS
330
47
102
}
330
47
100
AcDbScale
 70
     0
300
1-1/2" = 1'-0"
140
1.5
141
12.0
290
     0
  0
SCALE
  5
66
102
{ACAD_REACTORS
330
47
102
}
330
47
100
AcDbScale
 70
     0
300
3" = 1'-0"
140
3.0
141
12.0
290
     0
  0
SCALE
  5
67
102
{ACAD_REACTORS
330
47
102
}
330
47
100
AcDbScale
 70
     0
300
6" = 1'-0"
140
6.0
141
12.0
290
     0
  0
SCALE
  5
68
102
{ACAD_REACTORS
330
47
102
}
330
47
100
AcDbScale
 70
     0
300
1'-0" = 1'-0"
140
12.0
141
12.0
290
     0
  0
ENDSEC
  0
EOF
