  0
SECTION
  2
HEADER
  9
$ACADVER
  1
AC1015
  9
$ACADMAINTVER
 70
     6
  9
$DWGCODEPAGE
  3
ANSI_949
  9
$INSBASE
 10
0.0
 20
0.0
 30
0.0
  9
$EXTMIN
 10
-83.57500000000006
 20
-49.71142936356762
 30
0.0
  9
$EXTMAX
 10
139.9651370784312
 20
49.73055141807178
 30
0.0
  9
$LIMMIN
 10
0.0
 20
0.0
  9
$LIMMAX
 10
420.0
 20
297.0
  9
$ORTHOMODE
 70
     0
  9
$REGENMODE
 70
     1
  9
$FILLMODE
 70
     1
  9
$QTEXTMODE
 70
     0
  9
$MIRRTEXT
 70
     1
  9
$LTSCALE
 40
1.0
  9
$ATTMODE
 70
     1
  9
$TEXTSIZE
 40
3.5
  9
$TRACEWID
 40
1.0
  9
$TEXTSTYLE
  7
Standard
  9
$CLAYER
  8
0
  9
$CELTYPE
  6
ByLayer
  9
$CECOLOR
 62
   256
  9
$CELTSCALE
 40
1.0
  9
$DISPSILH
 70
     0
  9
$DIMSCALE
 40
1.0
  9
$DIMASZ
 40
3.302
  9
$DIMEXO
 40
1.0
  9
$DIMDLI
 40
3.75
  9
$DIMRND
 40
0.0
  9
$DIMDLE
 40
0.0
  9
$DIMEXE
 40
1.0
  9
$DIMTP
 40
0.0
  9
$DIMTM
 40
0.0
  9
$DIMTXT
 40
3.5
  9
$DIMCEN
 40
2.5
  9
$DIMTSZ
 40
0.0
  9
$DIMTOL
 70
     0
  9
$DIMLIM
 70
     0
  9
$DIMTIH
 70
     1
  9
$DIMTOH
 70
     1
  9
$DIMSE1
 70
     0
  9
$DIMSE2
 70
     0
  9
$DIMTAD
 70
     1
  9
$DIMZIN
 70
     0
  9
$DIMBLK
  1

  9
$DIMASO
 70
     1
  9
$DIMSHO
 70
     1
  9
$DIMPOST
  1

  9
$DIMAPOST
  1

  9
$DIMALT
 70
     0
  9
$DIMALTD
 70
     3
  9
$DIMALTF
 40
0.0393700787401575
  9
$DIMLFAC
 40
1.0
  9
$DIMTOFL
 70
     1
  9
$DIMTVP
 40
0.0
  9
$DIMTIX
 70
     0
  9
$DIMSOXD
 70
     0
  9
$DIMSAH
 70
     0
  9
$DIMBLK1
  1

  9
$DIMBLK2
  1

  9
$DIMSTYLE
  2
ISO-25
  9
$DIMCLRD
 70
     0
  9
$DIMCLRE
 70
     0
  9
$DIMCLRT
 70
     0
  9
$DIMTFAC
 40
1.0
  9
$DIMGAP
 40
1.524
  9
$DIMJUST
 70
     0
  9
$DIMSD1
 70
     0
  9
$DIMSD2
 70
     0
  9
$DIMTOLJ
 70
     0
  9
$DIMTZIN
 70
     0
  9
$DIMALTZ
 70
     0
  9
$DIMALTTZ
 70
     0
  9
$DIMUPT
 70
     0
  9
$DIMDEC
 70
     2
  9
$DIMTDEC
 70
     2
  9
$DIMALTU
 70
     2
  9
$DIMALTTD
 70
     3
  9
$DIMTXSTY
  7
Standard
  9
$DIMAUNIT
 70
     0
  9
$DIMADEC
 70
     2
  9
$DIMALTRND
 40
0.0
  9
$DIMAZIN
 70
     0
  9
$DIMDSEP
 70
    44
  9
$DIMATFIT
 70
     3
  9
$DIMFRAC
 70
     0
  9
$DIMLDRBLK
  1

  9
$DIMLUNIT
 70
     2
  9
$DIMLWD
 70
    -2
  9
$DIMLWE
 70
    -2
  9
$DIMTMOVE
 70
     0
  9
$LUNITS
 70
     2
  9
$LUPREC
 70
     2
  9
$SKETCHINC
 40
1.0
  9
$FILLETRAD
 40
10.0
  9
$AUNITS
 70
     0
  9
$AUPREC
 70
     2
  9
$MENU
  1
.
  9
$ELEVATION
 40
0.0
  9
$PELEVATION
 40
0.0
  9
$THICKNESS
 40
0.0
  9
$LIMCHECK
 70
     0
  9
$CHAMFERA
 40
0.0
  9
$CHAMFERB
 40
0.0
  9
$CHAMFERC
 40
0.0
  9
$CHAMFERD
 40
0.0
  9
$SKPOLY
 70
     0
  9
$TDCREATE
 40
2458236.752509907
  9
$TDUCREATE
 40
2458236.377509907
  9
$TDUPDATE
 40
2458242.458594815
  9
$TDUUPDATE
 40
2458242.083594815
  9
$TDINDWG
 40
0.0019437384
  9
$TDUSRTIMER
 40
2458241.971029421
  9
$USRTIMER
 70
     1
  9
$ANGBASE
 50
0.0
  9
$ANGDIR
 70
     0
  9
$PDMODE
 70
     0
  9
$PDSIZE
 40
-1.0
  9
$PLINEWID
 40
0.0
  9
$SPLFRAME
 70
     0
  9
$SPLINETYPE
 70
     6
  9
$SPLINESEGS
 70
     8
  9
$HANDSEED
  5
178
  9
$SURFTAB1
 70
     6
  9
$SURFTAB2
 70
     6
  9
$SURFTYPE
 70
     6
  9
$SURFU
 70
     6
  9
$SURFV
 70
     6
  9
$UCSBASE
  2

  9
$UCSNAME
  2

  9
$UCSORG
 10
0.0
 20
0.0
 30
0.0
  9
$UCSXDIR
 10
1.0
 20
0.0
 30
0.0
  9
$UCSYDIR
 10
0.0
 20
1.0
 30
0.0
  9
$UCSORTHOREF
  2

  9
$UCSORTHOVIEW
 70
     0
  9
$UCSORGTOP
 10
0.0
 20
0.0
 30
0.0
  9
$UCSORGBOTTOM
 10
0.0
 20
0.0
 30
0.0
  9
$UCSORGLEFT
 10
0.0
 20
0.0
 30
0.0
  9
$UCSORGRIGHT
 10
0.0
 20
0.0
 30
0.0
  9
$UCSORGFRONT
 10
0.0
 20
0.0
 30
0.0
  9
$UCSORGBACK
 10
0.0
 20
0.0
 30
0.0
  9
$PUCSBASE
  2

  9
$PUCSNAME
  2

  9
$PUCSORG
 10
0.0
 20
0.0
 30
0.0
  9
$PUCSXDIR
 10
1.0
 20
0.0
 30
0.0
  9
$PUCSYDIR
 10
0.0
 20
1.0
 30
0.0
  9
$PUCSORTHOREF
  2

  9
$PUCSORTHOVIEW
 70
     0
  9
$PUCSORGTOP
 10
0.0
 20
0.0
 30
0.0
  9
$PUCSORGBOTTOM
 10
0.0
 20
0.0
 30
0.0
  9
$PUCSORGLEFT
 10
0.0
 20
0.0
 30
0.0
  9
$PUCSORGRIGHT
 10
0.0
 20
0.0
 30
0.0
  9
$PUCSORGFRONT
 10
0.0
 20
0.0
 30
0.0
  9
$PUCSORGBACK
 10
0.0
 20
0.0
 30
0.0
  9
$USERI1
 70
     0
  9
$USERI2
 70
     0
  9
$USERI3
 70
     0
  9
$USERI4
 70
     0
  9
$USERI5
 70
     0
  9
$USERR1
 40
0.0
  9
$USERR2
 40
0.0
  9
$USERR3
 40
0.0
  9
$USERR4
 40
0.0
  9
$USERR5
 40
0.0
  9
$WORLDVIEW
 70
     1
  9
$SHADEDGE
 70
     3
  9
$SHADEDIF
 70
    70
  9
$TILEMODE
 70
     1
  9
$MAXACTVP
 70
    64
  9
$PINSBASE
 10
0.0
 20
0.0
 30
0.0
  9
$PLIMCHECK
 70
     0
  9
$PEXTMIN
 10
1.000000000000000E+20
 20
1.000000000000000E+20
 30
1.000000000000000E+20
  9
$PEXTMAX
 10
-1.000000000000000E+20
 20
-1.000000000000000E+20
 30
-1.000000000000000E+20
  9
$PLIMMIN
 10
0.0
 20
0.0
  9
$PLIMMAX
 10
0.0
 20
0.0
  9
$UNITMODE
 70
     0
  9
$VISRETAIN
 70
     1
  9
$PLINEGEN
 70
     0
  9
$PSLTSCALE
 70
     1
  9
$TREEDEPTH
 70
  3020
  9
$CMLSTYLE
  2
Standard
  9
$CMLJUST
 70
     0
  9
$CMLSCALE
 40
20.0
  9
$PROXYGRAPHICS
 70
     1
  9
$MEASUREMENT
 70
     1
  9
$CELWEIGHT
370
    -1
  9
$ENDCAPS
280
     0
  9
$JOINSTYLE
280
     0
  9
$LWDISPLAY
290
     1
  9
$INSUNITS
 70
     4
  9
$HYPERLINKBASE
  1

  9
$STYLESHEET
  1

  9
$XEDIT
290
     1
  9
$CEPSNTYPE
380
     0
  9
$PSTYLEMODE
290
     1
  9
$FINGERPRINTGUID
  2
{A6C371D5-903D-422F-9D59-1C8400022E62}
  9
$VERSIONGUID
  2
{FAEB1C32-E019-11D5-929B-00C0DF256EC4}
  9
$EXTNAMES
290
     1
  9
$PSVPSCALE
 40
0.0
  9
$OLESTARTUP
290
     0
  0
ENDSEC
  0
SECTION
  2
CLASSES
  0
CLASS
  1
ACDBDICTIONARYWDFLT
  2
AcDbDictionaryWithDefault
  3
ObjectDBX Classes
 90
        0
280
     0
281
     0
  0
CLASS
  1
VISUALSTYLE
  2
AcDbVisualStyle
  3
ObjectDBX Classes
 90
     4095
280
     0
281
     0
  0
CLASS
  1
MATERIAL
  2
AcDbMaterial
  3
ObjectDBX Classes
 90
     1153
280
     0
281
     0
  0
CLASS
  1
SCALE
  2
AcDbScale
  3
ObjectDBX Classes
 90
     1153
280
     0
281
     0
  0
CLASS
  1
SUN
  2
AcDbSun
  3
SCENEOE
 90
     1153
280
     0
281
     0
  0
CLASS
  1
ACDBPLACEHOLDER
  2
AcDbPlaceHolder
  3
ObjectDBX Classes
 90
        0
280
     0
281
     0
  0
CLASS
  1
LAYOUT
  2
AcDbLayout
  3
ObjectDBX Classes
 90
        0
280
     0
281
     0
  0
CLASS
  1
TABLESTYLE
  2
AcDbTableStyle
  3
ObjectDBX Classes
 90
     4095
280
     0
281
     0
  0
CLASS
  1
MLEADERSTYLE
  2
AcDbMLeaderStyle
  3
ACDB_MLEADERSTYLE_CLASS
 90
     4095
280
     0
281
     0
  0
CLASS
  1
RASTERVARIABLES
  2
AcDbRasterVariables
  3
ISM
 90
        0
280
     0
281
     0
  0
CLASS
  1
DIMASSOC
  2
AcDbDimAssoc
  3
"AcDbDimAssoc|Product Desc:     AcDim ARX App For Dimension|Company:          Autodesk, Inc.|WEB Address:      www.autodesk.com"
 90
        0
280
     0
281
     0
  0
ENDSEC
  0
SECTION
  2
TABLES
  0
TABLE
  2
VPORT
  5
8
330
0
100
AcDbSymbolTable
 70
     1
  0
VPORT
  5
29
330
8
100
AcDbSymbolTableRecord
100
AcDbViewportTableRecord
  2
*Active
 70
     0
 10
0.0
 20
0.0
 11
1.0
 21
1.0
 12
-85.08440250337762
 22
32.98532653108446
 13
0.0
 23
0.0
 14
10.0
 24
10.0
 15
10.0
 25
10.0
 16
0.0
 26
0.0
 36
1.0
 17
0.0
 27
0.0
 37
0.0
 40
196.3802146245165
 41
1.328320802005013
 42
50.0
 43
0.0
 44
0.0
 50
0.0
 51
0.0
 71
    16
 72
  2000
 73
     1
 74
     3
 75
     0
 76
     0
 77
     0
 78
     0
281
     0
 65
     1
110
0.0
120
0.0
130
0.0
111
1.0
121
0.0
131
0.0
112
0.0
122
1.0
132
0.0
 79
     0
146
0.0
  0
ENDTAB
  0
TABLE
  2
LTYPE
  5
5
330
0
100
AcDbSymbolTable
 70
     6
  0
LTYPE
  5
14
330
5
100
AcDbSymbolTableRecord
100
AcDbLinetypeTableRecord
  2
ByBlock
 70
     0
  3

 72
    65
 73
     0
 40
0.0
  0
LTYPE
  5
15
330
5
100
AcDbSymbolTableRecord
100
AcDbLinetypeTableRecord
  2
ByLayer
 70
     0
  3

 72
    65
 73
     0
 40
0.0
  0
LTYPE
  5
16
330
5
100
AcDbSymbolTableRecord
100
AcDbLinetypeTableRecord
  2
Continuous
 70
     0
  3
Solid line
 72
    65
 73
     0
 40
0.0
  0
LTYPE
  5
6A
330
5
100
AcDbSymbolTableRecord
100
AcDbLinetypeTableRecord
  2
HIDDEN
 70
     0
  3
Hidden __ __ __ __ __ __ __ __ __ __ __ __ __ __
 72
    65
 73
     2
 40
1.905
 49
1.27
 74
     0
 49
-0.635
 74
     0
  0
LTYPE
  5
6B
330
5
100
AcDbSymbolTableRecord
100
AcDbLinetypeTableRecord
  2
PHANTOM
 70
     0
  3
Phantom ______  __  __  ______  __  __  ______
 72
    65
 73
     6
 40
12.7
 49
6.35
 74
     0
 49
-1.27
 74
     0
 49
1.27
 74
     0
 49
-1.27
 74
     0
 49
1.27
 74
     0
 49
-1.27
 74
     0
  0
LTYPE
  5
6C
330
5
100
AcDbSymbolTableRecord
100
AcDbLinetypeTableRecord
  2
CENTER
 70
     0
  3
Center ____ _ ____ _ ____ _ ____ _ ____ _ ____
 72
    65
 73
     4
 40
10.16
 49
6.35
 74
     0
 49
-1.27
 74
     0
 49
1.27
 74
     0
 49
-1.27
 74
     0
  0
LTYPE
  5
6D
330
5
100
AcDbSymbolTableRecord
100
AcDbLinetypeTableRecord
  2
CENTERX2
 70
     0
  3
Center (2x) ________  __  ________  __  _____
 72
    65
 73
     4
 40
20.32
 49
12.7
 74
     0
 49
-2.54
 74
     0
 49
2.54
 74
     0
 49
-2.54
 74
     0
  0
LTYPE
  5
6E
330
5
100
AcDbSymbolTableRecord
100
AcDbLinetypeTableRecord
  2
DOT2
 70
     0
  3
Dot (.5x) ........................................
 72
    65
 73
     2
 40
0.635
 49
0.0
 74
     0
 49
-0.635
 74
     0
  0
ENDTAB
  0
TABLE
  2
LAYER
  5
2
330
0
100
AcDbSymbolTable
 70
    17
  0
LAYER
  5
10
330
2
100
AcDbSymbolTableRecord
100
AcDbLayerTableRecord
  2
0
 70
     0
 62
     7
  6
Continuous
370
    -3
390
F
  0
LAYER
  5
6F
330
2
100
AcDbSymbolTableRecord
100
AcDbLayerTableRecord
  2
FORMAT
 70
     0
 62
     2
  6
Continuous
370
    -3
390
F
  0
LAYER
  5
70
330
2
100
AcDbSymbolTableRecord
100
AcDbLayerTableRecord
  2
외형선
 70
     0
 62
   100
  6
Continuous
370
    30
390
F
  0
LAYER
  5
71
330
2
100
AcDbSymbolTableRecord
100
AcDbLayerTableRecord
  2
숨은선
 70
     0
 62
     2
  6
HIDDEN
370
    15
390
F
  0
LAYER
  5
72
330
2
100
AcDbSymbolTableRecord
100
AcDbLayerTableRecord
  2
중심선
 70
     0
 62
     1
  6
CENTERX2
370
    -3
390
F
  0
LAYER
  5
73
330
2
100
AcDbSymbolTableRecord
100
AcDbLayerTableRecord
  2
파단선
 70
     0
 62
     4
  6
Continuous
370
    -3
390
F
  0
LAYER
  5
74
330
2
100
AcDbSymbolTableRecord
100
AcDbLayerTableRecord
  2
해칭선
 70
     0
 62
     4
  6
Continuous
370
    -3
390
F
  0
LAYER
  5
75
330
2
100
AcDbSymbolTableRecord
100
AcDbLayerTableRecord
  2
가는실선
 70
     0
 62
     4
  6
Continuous
370
    -3
390
F
  0
LAYER
  5
76
330
2
100
AcDbSymbolTableRecord
100
AcDbLayerTableRecord
  2
치수_보조선
 70
     0
 62
     4
  6
Continuous
370
    -3
390
F
  0
LAYER
  5
77
330
2
100
AcDbSymbolTableRecord
100
AcDbLayerTableRecord
  2
치수문자_일반주서
 70
     0
 62
     7
  6
Continuous
370
    15
390
F
  0
LAYER
  5
78
330
2
100
AcDbSymbolTableRecord
100
AcDbLayerTableRecord
  2
개별주서
 70
     0
 62
   100
  6
Continuous
370
    30
390
F
  0
LAYER
  5
79
330
2
100
AcDbSymbolTableRecord
100
AcDbLayerTableRecord
  2
중간선
 70
     0
 62
     2
  6
Continuous
370
    15
390
F
  0
LAYER
  5
7A
330
2
100
AcDbSymbolTableRecord
100
AcDbLayerTableRecord
  2
윤곽선
 70
     0
 62
     3
  6
Continuous
370
    40
390
F
  0
LAYER
  5
7B
330
2
100
AcDbSymbolTableRecord
100
AcDbLayerTableRecord
  2
중심마크
 70
     0
 62
   100
  6
Continuous
370
    30
390
F
  0
LAYER
  5
7C
330
2
100
AcDbSymbolTableRecord
100
AcDbLayerTableRecord
  2
가상선
 70
     0
 62
     4
  6
PHANTOM
370
    -3
390
F
  0
LAYER
  5
7D
330
2
100
AcDbSymbolTableRecord
100
AcDbLayerTableRecord
  2
특수지정선
 70
     0
 62
     5
  6
CENTERX2
370
    60
390
F
  0
LAYER
  5
156
330
2
100
AcDbSymbolTableRecord
100
AcDbLayerTableRecord
  2
Defpoints
 70
     0
 62
     7
  6
Continuous
290
     0
370
    -3
390
F
  0
ENDTAB
  0
TABLE
  2
STYLE
  5
3
330
0
100
AcDbSymbolTable
 70
     2
  0
STYLE
  5
11
330
3
100
AcDbSymbolTableRecord
100
AcDbTextStyleTableRecord
  2
Standard
 70
     0
 40
0.0
 41
1.0
 50
0.0
 71
     0
 42
3.5
  3
txt
  4

  0
STYLE
  5
93
330
3
100
AcDbSymbolTableRecord
100
AcDbTextStyleTableRecord
  2
SLDTEXTSTYLE0
 70
     0
 40
0.0
 41
0.75
 50
0.0
 71
     0
 42
3.5
  3
TXT
  4

  0
ENDTAB
  0
TABLE
  2
VIEW
  5
6
330
0
100
AcDbSymbolTable
 70
     0
  0
ENDTAB
  0
TABLE
  2
UCS
  5
7
330
0
100
AcDbSymbolTable
 70
     0
  0
ENDTAB
  0
TABLE
  2
APPID
  5
9
330
0
100
AcDbSymbolTable
 70
     3
  0
APPID
  5
12
330
9
100
AcDbSymbolTableRecord
100
AcDbRegAppTableRecord
  2
ACAD
 70
     0
  0
APPID
  5
155
330
9
100
AcDbSymbolTableRecord
100
AcDbRegAppTableRecord
  2
ACAD_DSTYLE_DIMRADIAL_EXTENSION
 70
     0
  0
APPID
  5
175
330
9
100
AcDbSymbolTableRecord
100
AcDbRegAppTableRecord
  2
PE_DIMMEASUREMENT
 70
     0
  0
ENDTAB
  0
TABLE
  2
DIMSTYLE
  5
A
330
0
100
AcDbSymbolTable
 70
     3
100
AcDbDimStyleTable
  0
DIMSTYLE
105
27
330
A
100
AcDbSymbolTableRecord
100
AcDbDimStyleTableRecord
  2
ISO-25
 70
     0
 41
2.5
 42
0.625
 43
3.75
 44
1.25
 73
     0
 74
     0
 77
     1
 78
     8
140
2.5
141
2.5
143
0.03937007874016
147
0.625
171
     3
172
     1
178
     0
271
     2
272
     2
274
     3
278
    44
283
     0
284
     8
340
11
  0
DIMSTYLE
105
EF
102
{ACAD_REACTORS
330
EE
330
102
330
165
330
157
102
}
330
A
100
AcDbSymbolTableRecord
100
AcDbDimStyleTableRecord
  2
SLDDIMSTYLE0
 70
     0
 41
3.302
 44
0.0
 45
0.000000001
 73
     0
 74
     0
 77
     1
 78
     4
 79
     1
140
3.5
143
0.0393700787401575
147
0.875
148
0.000000001
170
     1
173
     1
178
     0
271
     2
272
     2
276
     2
284
    12
340
93
  0
DIMSTYLE
105
116
102
{ACAD_REACTORS
330
115
102
}
330
A
100
AcDbSymbolTableRecord
100
AcDbDimStyleTableRecord
  2
SLDDIMSTYLE1
 70
     0
 41
3.302
 44
0.0
 45
0.000000001
 73
     0
 74
     0
 77
     1
 78
     4
 79
     1
140
3.5
143
0.0393700787401575
147
0.875
148
0.000000001
170
     1
172
     1
173
     1
178
     0
271
     2
272
     2
276
     2
284
    12
289
     0
340
93
  0
ENDTAB
  0
TABLE
  2
BLOCK_RECORD
  5
1
330
0
100
AcDbSymbolTable
 70
     8
  0
BLOCK_RECORD
  5
1F
330
1
100
AcDbSymbolTableRecord
100
AcDbBlockTableRecord
  2
*Model_Space
340
22
  0
BLOCK_RECORD
  5
1B
330
1
100
AcDbSymbolTableRecord
100
AcDbBlockTableRecord
  2
*Paper_Space
340
1E
  0
BLOCK_RECORD
  5
23
330
1
100
AcDbSymbolTableRecord
100
AcDbBlockTableRecord
  2
*Paper_Space0
340
26
  0
BLOCK_RECORD
  5
7E
330
1
100
AcDbSymbolTableRecord
100
AcDbBlockTableRecord
  2
블럭10
340
0
102
{BLKREFS
331
E6
102
}
  0
BLOCK_RECORD
  5
F0
330
1
100
AcDbSymbolTableRecord
100
AcDbBlockTableRecord
  2
_D
340
0
  0
BLOCK_RECORD
  5
103
330
1
100
AcDbSymbolTableRecord
100
AcDbBlockTableRecord
  2
_D_1
340
0
  0
BLOCK_RECORD
  5
117
330
1
100
AcDbSymbolTableRecord
100
AcDbBlockTableRecord
  2
_D_2
340
0
  0
BLOCK_RECORD
  5
12A
330
1
100
AcDbSymbolTableRecord
100
AcDbBlockTableRecord
  2
SW_DOWELSYMBOL_0
340
0
102
{BLKREFS
331
130
102
}
  0
BLOCK_RECORD
  5
15A
330
1
100
AcDbSymbolTableRecord
100
AcDbBlockTableRecord
  2
*D6
340
0
  0
BLOCK_RECORD
  5
168
330
1
100
AcDbSymbolTableRecord
100
AcDbBlockTableRecord
  2
*D7
340
0
  0
ENDTAB
  0
ENDSEC
  0
SECTION
  2
BLOCKS
  0
BLOCK
  5
20
330
1F
100
AcDbEntity
  8
0
100
AcDbBlockBegin
  2
*Model_Space
 70
     0
 10
0.0
 20
0.0
 30
0.0
  3
*Model_Space
  1
*Model_Space
  0
ENDBLK
  5
21
330
1F
100
AcDbEntity
  8
0
100
AcDbBlockEnd
  0
BLOCK
  5
1C
330
1B
100
AcDbEntity
 67
     1
  8
0
100
AcDbBlockBegin
  2
*Paper_Space
 70
     0
 10
0.0
 20
0.0
 30
0.0
  3
*Paper_Space
  1
*Paper_Space
  0
ENDBLK
  5
1D
330
1B
100
AcDbEntity
 67
     1
  8
0
100
AcDbBlockEnd
  0
BLOCK
  5
24
330
23
100
AcDbEntity
  8
0
100
AcDbBlockBegin
  2
*Paper_Space0
 70
     0
 10
0.0
 20
0.0
 30
0.0
  3
*Paper_Space0
  1
*Paper_Space0
  0
ENDBLK
  5
25
330
23
100
AcDbEntity
  8
0
100
AcDbBlockEnd
  0
BLOCK
  5
7F
330
7E
100
AcDbEntity
  8
0
100
AcDbBlockBegin
  2
블럭10
 70
     2
 10
0.0
 20
0.0
 30
0.0
  3
블럭10
  1
블럭10
  0
ELLIPSE
  5
81
330
7E
100
AcDbEntity
  8
중심선
100
AcDbEllipse
 10
20.54032771741204
 20
12.0471743016438
 30
0.0
 11
6.600054785286829
 21
-1.261213355974178E-13
 31
0.0
210
0.0
220
0.0
230
1.0
 40
0.636358354079598
 41
0.9219305317359503
 42
6.513795318482858
  0
ELLIPSE
  5
82
330
7E
100
AcDbEntity
  8
중심선
100
AcDbEllipse
 10
20.54032771746488
 20
12.04717430159265
 30
0.0
 11
3.960054785062283
 21
1.540847449632565E-10
 31
0.0
210
0.0
220
0.0
230
1.0
 40
0.3939339440162632
 41
1.131841032648279
 42
5.62031148352944
  0
LINE
  5
83
330
7E
100
AcDbEntity
  8
중심선
100
AcDbLine
 10
2.268634060543552
 20
16.24717430164393
 30
0.0
 11
5.714909304380834
 21
16.24717430164393
 31
0.0
  0
LINE
  5
84
330
7E
100
AcDbEntity
  8
중심선
100
AcDbLine
 10
5.245725140726316
 20
7.84717430164391
 30
0.0
 11
8.692000384563599
 21
7.84717430164391
 31
0.0
  0
LINE
  5
85
330
7E
100
AcDbEntity
  8
중심선
100
AcDbLine
 10
15.74043728645272
 20
16.24717430164393
 30
0.0
 11
8.692000384563599
 21
7.84717430164391
 31
0.0
  0
LINE
  5
86
330
7E
100
AcDbEntity
  8
중심선
100
AcDbLine
 10
0.1404042013395286
 20
13.71084872107135
 30
0.0
 11
3.58671253028996
 21
13.71088815037384
 31
0.0
  0
LINE
  5
87
330
7E
100
AcDbEntity
  8
중심선
100
AcDbLine
 10
2.750260043222114
 20
10.84717430164391
 30
0.0
 11
6.196535287059397
 21
10.84717430164391
 31
0.0
  0
LINE
  5
88
330
7E
100
AcDbEntity
  8
중심선
100
AcDbLine
 10
12.29416204261559
 20
16.24717430164393
 30
0.0
 11
5.245725140726316
 21
7.84717430164391
 31
0.0
  0
LINE
  5
89
330
7E
100
AcDbEntity
  8
중심선
100
AcDbLine
 10
10.72767329541681
 20
16.24717430164393
 30
0.0
 11
6.196535287059397
 21
10.84717430164391
 31
0.0
  0
LINE
  5
8A
330
7E
100
AcDbEntity
  8
중심선
100
AcDbLine
 10
7.28139805157953
 20
16.24717430164393
 30
0.0
 11
2.750260043222114
 21
10.84717430164391
 31
0.0
  0
LINE
  5
8B
330
7E
100
AcDbEntity
  8
중심선
100
AcDbLine
 10
5.714909304380834
 20
16.24717430164393
 30
0.0
 11
3.58671253028996
 21
13.71088815037384
 31
0.0
  0
LINE
  5
8C
330
7E
100
AcDbEntity
  8
중심선
100
AcDbLine
 10
2.268634060543552
 20
16.24717430164393
 30
0.0
 11
0.1404042013395286
 21
13.71084872107135
 31
0.0
  0
LINE
  5
8D
330
7E
100
AcDbEntity
  8
중심선
100
AcDbLine
 10
7.28139805157953
 20
16.24717430164393
 30
0.0
 11
10.72767329541681
 21
16.24717430164393
 31
0.0
  0
LINE
  5
8E
330
7E
100
AcDbEntity
  8
중심선
100
AcDbLine
 10
12.29416204261559
 20
16.24717430164393
 30
0.0
 11
15.74043728645272
 21
16.24717430164393
 31
0.0
  0
LINE
  5
8F
330
7E
100
AcDbEntity
  8
중심선
100
AcDbLine
 10
19.22036997980202
 20
11.08717430171403
 30
0.0
 11
23.66174974927406
 21
11.08717430171406
 31
0.0
  0
LINE
  5
90
330
7E
100
AcDbEntity
  8
중심선
100
AcDbLine
 10
19.22039502424796
 20
13.00717430171391
 30
0.0
 11
19.22036997980202
 21
11.08717430171403
 31
0.0
  0
LINE
  5
91
330
7E
100
AcDbEntity
  8
중심선
100
AcDbLine
 10
19.22039502424796
 20
13.00717430171391
 30
0.0
 11
26.96566020931264
 21
13.00717430171391
 31
0.0
  0
LINE
  5
92
330
7E
100
AcDbEntity
  8
중심선
100
AcDbLine
 10
22.22332737316547
 20
13.45928029700563
 30
0.0
 11
24.52862924686651
 21
15.39360700705356
 31
0.0
  0
ATTDEF
  5
94
330
7E
100
AcDbEntity
  8
FORMAT
 62
     2
100
AcDbText
 10
-11.05102035218446
 20
2.075366912832191
 30
0.0
 40
4.233333333333333
  1
GMG22955[ 6 FLUTE ]
 41
0.75
  7
SLDTEXTSTYLE0
 11
-11.05102035218446
 21
-0.0412997538344756
 31
0.0
100
AcDbAttributeDefinition
  3

  2
AUTOATTR0
 70
     0
 74
     1
  0
ENDBLK
  5
80
330
7E
100
AcDbEntity
  8
0
100
AcDbBlockEnd
  0
BLOCK
  5
F1
330
F0
100
AcDbEntity
  8
0
100
AcDbBlockBegin
  2
_D
 70
     0
 10
0.0
 20
0.0
 30
0.0
  3
_D
  1
_D
  0
LINE
  5
F3
330
F0
100
AcDbEntity
  8
치수문자_일반주서
 62
     0
370
    -2
100
AcDbLine
 10
-66.20000000000002
 20
12.2625
 30
0.0
 11
-66.20000000000002
 21
45.35555141807178
 31
0.0
  0
LINE
  5
F4
330
F0
100
AcDbEntity
  8
치수문자_일반주서
 62
     0
370
    -2
100
AcDbLine
 10
111.6
 20
9.714500000000008
 30
0.0
 11
111.6
 21
45.35555141807178
 31
0.0
  0
LINE
  5
F5
330
F0
100
AcDbEntity
  8
치수문자_일반주서
 62
     0
370
    -2
100
AcDbLine
 10
-62.89800000000002
 20
45.35555141807178
 30
0.0
 11
108.298
 21
45.35555141807178
 31
0.0
  0
SOLID
  5
F6
330
F0
100
AcDbEntity
  8
치수문자_일반주서
 62
     0
100
AcDbTrace
 10
-62.89800000000002
 20
45.90588475140512
 30
0.0
 11
-62.89800000000002
 21
44.80521808473845
 31
0.0
 12
-66.20000000000002
 22
45.35555141807178
 32
0.0
 13
-66.20000000000002
 23
45.35555141807178
 33
0.0
  0
SOLID
  5
F7
330
F0
100
AcDbEntity
  8
치수문자_일반주서
 62
     0
100
AcDbTrace
 10
108.298
 20
44.80521808473845
 30
0.0
 11
108.298
 21
45.90588475140512
 31
0.0
 12
111.6
 22
45.35555141807178
 32
0.0
 13
111.6
 23
45.35555141807178
 33
0.0
  0
MTEXT
  5
F8
330
F0
100
AcDbEntity
  8
치수문자_일반주서
 62
     0
100
AcDbMText
 10
22.7
 20
49.73055141807178
 30
0.0
 40
3.5
 41
0.0
 71
     2
 72
     1
  1
\A1;177.80 [7]
  7
SLDTEXTSTYLE0
 73
     1
 44
1.0
  0
POINT
  5
F9
330
F0
100
AcDbEntity
  8
Defpoints
 62
     0
100
AcDbPoint
 10
-66.20000000000002
 20
12.2
 30
0.0
  0
POINT
  5
FA
330
F0
100
AcDbEntity
  8
Defpoints
 62
     0
100
AcDbPoint
 10
111.6
 20
9.652000000000008
 30
0.0
  0
POINT
  5
FB
330
F0
100
AcDbEntity
  8
Defpoints
 62
     0
100
AcDbPoint
 10
111.6
 20
45.35555141807178
 30
0.0
  0
ENDBLK
  5
F2
330
F0
100
AcDbEntity
  8
0
100
AcDbBlockEnd
  0
BLOCK
  5
104
330
103
100
AcDbEntity
  8
0
100
AcDbBlockBegin
  2
_D_1
 70
     0
 10
0.0
 20
0.0
 30
0.0
  3
_D_1
  1
_D_1
  0
LINE
  5
106
330
103
100
AcDbEntity
  8
치수문자_일반주서
 62
     0
370
    -2
100
AcDbLine
 10
111.6
 20
9.714500000000008
 30
0.0
 11
111.6
 21
27.27899453033794
 31
0.0
  0
LINE
  5
107
330
103
100
AcDbEntity
  8
치수문자_일반주서
 62
     0
370
    -2
100
AcDbLine
 10
10.0
 20
12.40806544055946
 30
0.0
 11
10.0
 21
27.27899453033794
 31
0.0
  0
LINE
  5
108
330
103
100
AcDbEntity
  8
치수문자_일반주서
 62
     0
370
    -2
100
AcDbLine
 10
108.298
 20
27.27899453033794
 30
0.0
 11
13.302
 21
27.27899453033794
 31
0.0
  0
SOLID
  5
109
330
103
100
AcDbEntity
  8
치수문자_일반주서
 62
     0
100
AcDbTrace
 10
108.298
 20
26.72866119700461
 30
0.0
 11
108.298
 21
27.82932786367127
 31
0.0
 12
111.6
 22
27.27899453033794
 32
0.0
 13
111.6
 23
27.27899453033794
 33
0.0
  0
SOLID
  5
10A
330
103
100
AcDbEntity
  8
치수문자_일반주서
 62
     0
100
AcDbTrace
 10
13.302
 20
27.82932786367127
 30
0.0
 11
13.302
 21
26.72866119700461
 31
0.0
 12
10.0
 22
27.27899453033794
 32
0.0
 13
10.0
 23
27.27899453033794
 33
0.0
  0
MTEXT
  5
10B
330
103
100
AcDbEntity
  8
치수문자_일반주서
 62
     0
100
AcDbMText
 10
59.68240452760595
 20
31.65399453033794
 30
0.0
 40
3.5
 41
0.0
 71
     2
 72
     1
  1
\A1;101.60 [4]
  7
SLDTEXTSTYLE0
 73
     1
 44
1.0
  0
POINT
  5
10C
330
103
100
AcDbEntity
  8
Defpoints
 62
     0
100
AcDbPoint
 10
111.6
 20
9.652000000000008
 30
0.0
  0
POINT
  5
10D
330
103
100
AcDbEntity
  8
Defpoints
 62
     0
100
AcDbPoint
 10
10.0
 20
12.34556544055946
 30
0.0
  0
POINT
  5
10E
330
103
100
AcDbEntity
  8
Defpoints
 62
     0
100
AcDbPoint
 10
10.0
 20
27.27899453033794
 30
0.0
  0
ENDBLK
  5
105
330
103
100
AcDbEntity
  8
0
100
AcDbBlockEnd
  0
BLOCK
  5
118
330
117
100
AcDbEntity
  8
0
100
AcDbBlockBegin
  2
_D_2
 70
     0
 10
0.0
 20
0.0
 30
0.0
  3
_D_2
  1
_D_2
  0
LINE
  5
11A
330
117
100
AcDbEntity
  8
치수문자_일반주서
 62
     0
370
    -2
100
AcDbLine
 10
-65.7625
 20
12.7
 30
0.0
 11
-79.20000000000006
 21
12.69999999999995
 31
0.0
  0
LINE
  5
11B
330
117
100
AcDbEntity
  8
치수문자_일반주서
 62
     0
370
    -2
100
AcDbLine
 10
-65.7625
 20
-12.7
 30
0.0
 11
-79.19999999999997
 21
-12.70000000000005
 31
0.0
  0
LINE
  5
11C
330
117
100
AcDbEntity
  8
치수문자_일반주서
 62
     0
370
    -2
100
AcDbLine
 10
-79.20000000000005
 20
9.39799999999995
 30
0.0
 11
-79.19999999999999
 21
-9.39800000000005
 31
0.0
  0
SOLID
  5
11D
330
117
100
AcDbEntity
  8
치수문자_일반주서
 62
     0
100
AcDbTrace
 10
-78.64966666666672
 20
9.397999999999952
 30
0.0
 11
-79.75033333333337
 21
9.397999999999948
 31
0.0
 12
-79.20000000000006
 22
12.69999999999995
 32
0.0
 13
-79.20000000000006
 23
12.69999999999995
 33
0.0
  0
SOLID
  5
11E
330
117
100
AcDbEntity
  8
치수문자_일반주서
 62
     0
100
AcDbTrace
 10
-79.75033333333332
 20
-9.398000000000051
 30
0.0
 11
-78.64966666666666
 21
-9.398000000000048
 31
0.0
 12
-79.19999999999997
 22
-12.70000000000005
 32
0.0
 13
-79.19999999999997
 23
-12.70000000000005
 33
0.0
  0
MTEXT
  5
11F
330
117
100
AcDbEntity
  8
치수문자_일반주서
 62
     0
100
AcDbMText
 10
-83.57500000000002
 20
-0.0000000000000178
 30
0.0
 40
3.5
 41
0.0
 71
     2
 72
     1
  1
\A1;%%c25.40 [1]
  7
SLDTEXTSTYLE0
 11
-3.356894814614647E-15
 21
1.0
 31
0.0
 73
     1
 44
1.0
  0
POINT
  5
120
330
117
100
AcDbEntity
  8
Defpoints
 62
     0
100
AcDbPoint
 10
-65.7
 20
12.7
 30
0.0
  0
POINT
  5
121
330
117
100
AcDbEntity
  8
Defpoints
 62
     0
100
AcDbPoint
 10
-65.7
 20
-12.7
 30
0.0
  0
POINT
  5
122
330
117
100
AcDbEntity
  8
Defpoints
 62
     0
100
AcDbPoint
 10
-79.19999999999997
 20
-12.70000000000005
 30
0.0
  0
ENDBLK
  5
119
330
117
100
AcDbEntity
  8
0
100
AcDbBlockEnd
  0
BLOCK
  5
12B
330
12A
100
AcDbEntity
  8
0
100
AcDbBlockBegin
  2
SW_DOWELSYMBOL_0
 70
     0
 10
0.0
 20
0.0
 30
0.0
  3
SW_DOWELSYMBOL_0
  1
SW_DOWELSYMBOL_0
  0
CIRCLE
  5
12D
330
12A
100
AcDbEntity
  8
외형선
 62
     0
100
AcDbCircle
 10
0.0
 20
0.0
 30
0.0
 40
3.000000000000004
  0
HATCH
  5
12E
330
12A
100
AcDbEntity
  8
0
  6
Continuous
 62
     0
370
    30
100
AcDbHatch
 10
0.0
 20
0.0
 30
0.0
210
0.0
220
0.0
230
1.0
  2
SOLID
 70
     1
 71
     0
 91
        1
 92
        0
 93
        3
 72
     2
 10
0.0
 20
0.0
 40
3.000000000000004
 50
0.0
 51
90.0
 73
     1
 72
     1
 10
0.0
 20
3.000000000000004
 11
0.0
 21
0.0
 72
     1
 10
0.0
 20
0.0
 11
3.000000000000006
 21
0.0
 97
        0
 75
     0
 76
     1
 98
        1
 10
0.0
 20
0.0
  0
HATCH
  5
12F
330
12A
100
AcDbEntity
  8
0
  6
Continuous
 62
     0
370
    30
100
AcDbHatch
 10
0.0
 20
0.0
 30
0.0
210
0.0
220
0.0
230
1.0
  2
SOLID
 70
     1
 71
     0
 91
        1
 92
        0
 93
        3
 72
     2
 10
0.0
 20
0.0
 40
3.000000000000004
 50
180.0
 51
270.0000000000008
 73
     1
 72
     1
 10
0.0
 20
-3.000000000000004
 11
0.0
 21
0.0
 72
     1
 10
0.0
 20
0.0
 11
-3.000000000000006
 21
0.0
 97
        0
 75
     0
 76
     1
 98
        1
 10
0.0
 20
0.0
  0
ENDBLK
  5
12C
330
12A
100
AcDbEntity
  8
0
100
AcDbBlockEnd
  0
BLOCK
  5
15B
330
15A
100
AcDbEntity
  8
0
100
AcDbBlockBegin
  2
*D6
 70
     1
 10
0.0
 20
0.0
 30
0.0
  3
*D6
  1
*D6
  0
LINE
  5
15D
330
15A
100
AcDbEntity
  8
치수문자_일반주서
 62
     0
370
    -2
100
AcDbLine
 10
113.4287520479354
 20
13.71891399748725
 30
0.0
 11
139.9651370784312
 21
35.84864187014431
 31
0.0
  0
MTEXT
  5
15E
330
15A
100
AcDbEntity
  8
치수문자_일반주서
 62
     0
100
AcDbMText
 10
126.6920464537179
 20
28.19769556719273
 30
0.0
 40
3.5
 41
0.0
 71
     5
 72
     1
  1
\A1;R3.05 [R0.120]
  7
SLDTEXTSTYLE0
 11
0.767992448493768
 21
0.6404588972420846
 31
0.0
 73
     1
 44
1.0
  0
SOLID
  5
15F
330
15A
100
AcDbEntity
  8
치수문자_일반주서
 62
     0
100
AcDbTrace
 10
113.0762861681532
 20
14.14156584164166
 30
0.0
 11
113.7812179277177
 21
13.29626215333285
 31
0.0
 12
110.892840983009
 22
11.60411871879389
 32
0.0
 13
110.892840983009
 23
11.60411871879389
 33
0.0
  0
LINE
  5
160
330
15A
100
AcDbEntity
  8
치수문자_일반주서
 62
     0
100
AcDbLine
 10
108.462
 20
9.652000000000008
 30
0.0
 11
108.642
 21
9.652000000000008
 31
0.0
  0
LINE
  5
161
330
15A
100
AcDbEntity
  8
치수문자_일반주서
 62
     0
100
AcDbLine
 10
108.552
 20
9.562000000000008
 30
0.0
 11
108.552
 21
9.742000000000008
 31
0.0
  0
POINT
  5
162
330
15A
100
AcDbEntity
  8
Defpoints
 62
     0
100
AcDbPoint
 10
110.892840983009
 20
11.60411871879389
 30
0.0
  0
POINT
  5
163
330
15A
100
AcDbEntity
  8
Defpoints
 62
     0
100
AcDbPoint
 10
108.552
 20
9.652000000000008
 30
0.0
  0
ENDBLK
  5
15C
330
15A
100
AcDbEntity
  8
0
100
AcDbBlockEnd
  0
BLOCK
  5
169
330
168
100
AcDbEntity
  8
0
100
AcDbBlockBegin
  2
*D7
 70
     1
 10
0.0
 20
0.0
 30
0.0
  3
*D7
  1
*D7
  0
LINE
  5
16B
330
168
100
AcDbEntity
  8
치수문자_일반주서
 62
     0
370
    -2
100
AcDbLine
 10
108.6145
 20
12.70000000000002
 30
0.0
 11
125.5313821377397
 21
12.70000000000002
 31
0.0
  0
LINE
  5
16C
330
168
100
AcDbEntity
  8
치수문자_일반주서
 62
     0
370
    -2
100
AcDbLine
 10
108.6145
 20
-12.7
 30
0.0
 11
125.5313821377397
 21
-12.7
 31
0.0
  0
LINE
  5
16D
330
168
100
AcDbEntity
  8
치수문자_일반주서
 62
     0
370
    -2
100
AcDbLine
 10
125.5313821377397
 20
9.398000000000023
 30
0.0
 11
125.5313821377397
 21
-9.397999999999998
 31
0.0
  0
SOLID
  5
16E
330
168
100
AcDbEntity
  8
치수문자_일반주서
 62
     0
100
AcDbTrace
 10
126.081715471073
 20
9.398000000000023
 30
0.0
 11
124.9810488044063
 21
9.398000000000023
 31
0.0
 12
125.5313821377397
 22
12.70000000000002
 32
0.0
 13
125.5313821377397
 23
12.70000000000002
 33
0.0
  0
SOLID
  5
16F
330
168
100
AcDbEntity
  8
치수문자_일반주서
 62
     0
100
AcDbTrace
 10
124.9810488044063
 20
-9.397999999999998
 30
0.0
 11
126.081715471073
 21
-9.397999999999998
 31
0.0
 12
125.5313821377397
 22
-12.7
 32
0.0
 13
125.5313821377397
 23
-12.7
 33
0.0
  0
MTEXT
  5
170
330
168
100
AcDbEntity
  8
치수문자_일반주서
 62
     0
100
AcDbMText
 10
122.9063821377397
 20
0.0000000000000124
 30
0.0
 40
3.5
 41
0.0
 71
     5
 72
     1
  1
\A1;{%%c25.40 [1]}
  7
SLDTEXTSTYLE0
 11
0.0
 21
1.0
 31
0.0
 73
     1
 44
1.0
  0
POINT
  5
171
330
168
100
AcDbEntity
  8
Defpoints
 62
     0
100
AcDbPoint
 10
108.552
 20
12.70000000000002
 30
0.0
  0
POINT
  5
172
330
168
100
AcDbEntity
  8
Defpoints
 62
     0
100
AcDbPoint
 10
108.552
 20
-12.7
 30
0.0
  0
POINT
  5
173
330
168
100
AcDbEntity
  8
Defpoints
 62
     0
100
AcDbPoint
 10
125.5313821377397
 20
-12.7
 30
0.0
  0
ENDBLK
  5
16A
330
168
100
AcDbEntity
  8
0
100
AcDbBlockEnd
  0
ENDSEC
  0
SECTION
  2
ENTITIES
  0
LINE
  5
95
330
1F
100
AcDbEntity
  8
0
  6
Continuous
 62
     4
370
    15
100
AcDbLine
 10
7.000376964194359
 20
12.70000000000001
 30
0.0
 11
-65.7
 21
12.7
 31
0.0
  0
LINE
  5
96
330
1F
100
AcDbEntity
  8
0
  6
Continuous
 62
     4
370
    15
100
AcDbLine
 10
-65.7
 20
-12.7
 30
0.0
 11
7.000376964194373
 21
-12.7
 31
0.0
  0
LINE
  5
97
330
1F
100
AcDbEntity
  8
0
  6
Continuous
 62
     4
370
    15
100
AcDbLine
 10
-65.7
 20
12.7
 30
0.0
 11
-66.20000000000002
 21
12.2
 31
0.0
  0
LINE
  5
98
330
1F
100
AcDbEntity
  8
0
  6
Continuous
 62
     4
370
    15
100
AcDbLine
 10
-66.20000000000002
 20
-12.2
 30
0.0
 11
-65.7
 21
-12.7
 31
0.0
  0
LINE
  5
99
330
1F
100
AcDbEntity
  8
0
  6
Continuous
 62
     1
370
    15
100
AcDbLine
 10
66.20577099965455
 20
-12.7
 30
0.0
 11
70.547021276551
 21
-12.7
 31
0.0
  0
LINE
  5
9A
330
1F
100
AcDbEntity
  8
0
  6
Continuous
 62
     1
370
    15
100
AcDbLine
 10
30.65079951915657
 20
12.70000000000001
 30
0.0
 11
26.30852380691506
 21
12.70000000000001
 31
0.0
  0
LINE
  5
9B
330
1F
100
AcDbEntity
  8
0
  6
Continuous
 62
     1
370
    15
100
AcDbLine
 10
108.552
 20
12.70000000000001
 30
0.0
 11
106.1044646800046
 21
12.70000000000001
 31
0.0
  0
LINE
  5
9C
330
1F
100
AcDbEntity
  8
0
  6
Continuous
 62
     1
370
    15
100
AcDbLine
 10
92.80391994536848
 20
-12.7
 30
0.0
 11
97.14717939575078
 21
-12.7
 31
0.0
  0
LINE
  5
9D
330
1F
100
AcDbEntity
  8
0
  6
Continuous
 62
     1
370
    15
100
AcDbLine
 10
13.00834188843374
 20
-12.7
 30
0.0
 11
17.35080477666295
 21
-12.7
 31
0.0
  0
LINE
  5
9E
330
1F
100
AcDbEntity
  8
0
  6
Continuous
 62
     1
370
    15
100
AcDbLine
 10
57.2476294397717
 20
12.70000000000001
 30
0.0
 11
52.90567261591086
 21
12.70000000000001
 31
0.0
  0
LINE
  5
9F
330
1F
100
AcDbEntity
  8
0
  6
Continuous
 62
     1
370
    15
100
AcDbLine
 10
79.50543836519545
 20
-12.7
 30
0.0
 11
83.84729703454941
 21
-12.7
 31
0.0
  0
LINE
  5
A0
330
1F
100
AcDbEntity
  8
0
  6
Continuous
 62
     1
370
    15
100
AcDbLine
 10
43.94989467863989
 20
12.70000000000001
 30
0.0
 11
39.60641852985914
 21
12.70000000000001
 31
0.0
  0
LINE
  5
A1
330
1F
100
AcDbEntity
  8
0
  6
Continuous
 62
     1
370
    15
100
AcDbLine
 10
52.90567261591096
 20
-12.7
 30
0.0
 11
57.24762943977173
 21
-12.7
 31
0.0
  0
LINE
  5
A2
330
1F
100
AcDbEntity
  8
0
  6
Continuous
 62
     1
370
    15
100
AcDbLine
 10
17.35080477666298
 20
12.70000000000001
 30
0.0
 11
13.00834188843385
 21
12.70000000000001
 31
0.0
  0
LINE
  5
A3
330
1F
100
AcDbEntity
  8
0
  6
Continuous
 62
     1
370
    15
100
AcDbLine
 10
97.1471793957508
 20
12.70000000000001
 30
0.0
 11
92.80391994536858
 21
12.70000000000001
 31
0.0
  0
LINE
  5
A4
102
{ACAD_REACTORS
102
}
330
1F
100
AcDbEntity
  8
0
  6
Continuous
 62
     1
370
    15
100
AcDbLine
 10
106.1044646800046
 20
-12.7
 30
0.0
 11
108.552
 21
-12.7
 31
0.0
  0
LINE
  5
A5
330
1F
100
AcDbEntity
  8
0
  6
Continuous
 62
     1
370
    15
100
AcDbLine
 10
26.30852380691505
 20
-12.7
 30
0.0
 11
30.65079951915662
 21
-12.7
 31
0.0
  0
LINE
  5
A6
330
1F
100
AcDbEntity
  8
0
  6
Continuous
 62
     1
370
    15
100
AcDbLine
 10
70.54702127655109
 20
12.70000000000001
 30
0.0
 11
66.20577099965458
 21
12.70000000000001
 31
0.0
  0
LINE
  5
A7
330
1F
100
AcDbEntity
  8
0
  6
Continuous
 62
     1
370
    15
100
AcDbLine
 10
39.60641852985921
 20
-12.7
 30
0.0
 11
43.94989467863996
 21
-12.7
 31
0.0
  0
LINE
  5
A8
330
1F
100
AcDbEntity
  8
0
  6
Continuous
 62
     1
370
    15
100
AcDbLine
 10
83.8472970345495
 20
12.70000000000001
 30
0.0
 11
79.50543836519556
 21
12.70000000000001
 31
0.0
  0
ARC
  5
A9
330
1F
100
AcDbEntity
  8
0
  6
Continuous
 62
     1
370
    15
100
AcDbCircle
 10
108.552
 20
-9.651999999999994
 30
0.0
 40
3.048000000000016
100
AcDbArc
 50
270.0000000000008
 51
0.0
  0
ARC
  5
AA
102
{ACAD_REACTORS
102
}
330
1F
100
AcDbEntity
  8
0
  6
Continuous
 62
     1
370
    15
100
AcDbCircle
 10
108.552
 20
9.652000000000008
 30
0.0
 40
3.048000000000016
100
AcDbArc
 50
0.0
 51
90.0
  0
SPLINE
  5
AB
330
1F
100
AcDbEntity
  8
0
  6
Continuous
 62
     4
370
    15
100
AcDbSpline
210
0.0
220
0.0
230
1.0
 70
     8
 71
     3
 72
    24
 73
    20
 74
     0
 42
0.000000001
 43
0.00000001
 40
0.0
 40
0.0
 40
0.0
 40
0.0
 40
0.125
 40
0.125
 40
0.2500000000000001
 40
0.2500000000000001
 40
0.3750000000000001
 40
0.3750000000000001
 40
0.5
 40
0.5
 40
0.625
 40
0.625
 40
0.75
 40
0.75
 40
0.8125000000000001
 40
0.8125000000000001
 40
0.8750000000000001
 40
0.8750000000000001
 40
1.0
 40
1.0
 40
1.0
 40
1.0
 10
6.949878257436445
 20
12.66368464237691
 30
0.0
 10
6.949878257436444
 20
12.68064837075662
 30
0.0
 10
6.949962936362214
 20
12.69163399326562
 30
0.0
 10
6.975411170679529
 20
12.70178345286318
 30
0.0
 10
7.000368575426551
 20
12.70095474015566
 30
0.0
 10
7.091659686408628
 20
12.68793380577554
 30
0.0
 10
7.158362266569766
 20
12.67560533028069
 30
0.0
 10
7.338841351527934
 20
12.64275453600276
 30
0.0
 10
7.455203170403479
 20
12.62179954929093
 30
0.0
 10
7.732071802164517
 20
12.5775726325053
 30
0.0
 10
7.891848410414902
 20
12.55434946289266
 30
0.0
 10
8.258307083869019
 20
12.51081939799007
 30
0.0
 10
8.455648366374648
 20
12.49167849766287
 30
0.0
 10
8.772489673679017
 20
12.46994888450408
 30
0.0
 10
8.882341518412664
 20
12.46385568161444
 30
0.0
 10
9.102527872549754
 20
12.45475187669409
 30
0.0
 10
9.213513503429716
 20
12.45167822624667
 30
0.0
 10
9.549117491428433
 20
12.44709575670793
 30
0.0
 10
9.777942031586583
 20
12.45041876202058
 30
0.0
 10
10.0
 20
12.45983467034423
 30
0.0
  0
SPLINE
  5
AC
330
1F
100
AcDbEntity
  8
0
  6
Continuous
 62
     4
370
    15
100
AcDbSpline
210
0.0
220
0.0
230
1.0
 70
     8
 71
     3
 72
    16
 73
    12
 74
     0
 42
0.000000001
 43
0.00000001
 40
0.0
 40
0.0
 40
0.0
 40
0.0
 40
0.2499999999999996
 40
0.2499999999999996
 40
0.3749999999999995
 40
0.3749999999999995
 40
0.4999999999999994
 40
0.4999999999999994
 40
0.7499999999999997
 40
0.7499999999999997
 40
1.0
 40
1.0
 40
1.0
 40
1.0
 10
7.794012053335731
 20
12.15224846255266
 30
0.0
 10
7.615783062310095
 20
12.20396016532632
 30
0.0
 10
7.469155569396641
 20
12.25847038130654
 30
0.0
 10
7.290779584117331
 20
12.33912918516594
 30
0.0
 10
7.238283851113284
 20
12.36592377668816
 30
0.0
 10
7.149113826457983
 20
12.41697150870445
 30
0.0
 10
7.111983153663873
 20
12.44141621056101
 30
0.0
 10
7.020030158728142
 20
12.51081348422713
 30
0.0
 10
6.985176683834062
 20
12.55178748113088
 30
0.0
 10
6.950138878641699
 20
12.61854688534988
 30
0.0
 10
6.949878257436449
 20
12.64478980999619
 30
0.0
 10
6.949878257436447
 20
12.66368464237691
 30
0.0
  0
SPLINE
  5
AD
330
1F
100
AcDbEntity
  8
0
  6
Continuous
 62
     4
370
    15
100
AcDbSpline
210
0.0
220
0.0
230
1.0
 70
     8
 71
     3
 72
    10
 73
     6
 74
     0
 42
0.000000001
 43
0.00000001
 40
0.0
 40
0.0
 40
0.0
 40
0.0
 40
0.5
 40
0.5
 40
1.0
 40
1.0
 40
1.0
 40
1.0
 10
10.0
 20
11.33160463603815
 30
0.0
 10
9.632012609274344
 20
11.49768739689427
 30
0.0
 10
9.266632128723973
 20
11.64915294303435
 30
0.0
 10
8.531502417336974
 20
11.92305740026531
 30
0.0
 10
8.16245543515025
 20
12.0453475900309
 30
0.0
 10
7.794012053335733
 20
12.15224846255266
 30
0.0
  0
SPLINE
  5
AE
330
1F
100
AcDbEntity
  8
0
  6
Continuous
 62
     4
370
    15
100
AcDbSpline
210
0.0
220
0.0
230
1.0
 70
     8
 71
     3
 72
    24
 73
    20
 74
     0
 42
0.000000001
 43
0.00000001
 40
0.0
 40
0.0
 40
0.0
 40
0.0
 40
0.1249999999999999
 40
0.1249999999999999
 40
0.2499999999999998
 40
0.2499999999999998
 40
0.3749999999999998
 40
0.3749999999999998
 40
0.4999999999999997
 40
0.4999999999999997
 40
0.6249999999999996
 40
0.6249999999999996
 40
0.7499999999999996
 40
0.7499999999999996
 40
0.8124999999999997
 40
0.8124999999999997
 40
0.8749999999999999
 40
0.8749999999999999
 40
1.0
 40
1.0
 40
1.0
 40
1.0
 10
6.949878257436445
 20
5.500687426586709
 30
0.0
 10
6.949878257436445
 20
5.703017009133406
 30
0.0
 10
6.949962936362208
 20
5.902433009170763
 30
0.0
 10
6.975411170679523
 20
6.293513489897533
 30
0.0
 10
7.00036857542654
 20
6.485213777316487
 30
0.0
 10
7.091659686408621
 20
6.85981008471831
 30
0.0
 10
7.158362266569764
 20
7.041933178090343
 30
0.0
 10
7.338841351527934
 20
7.379486880864603
 30
0.0
 10
7.455203170403481
 20
7.53908548664594
 30
0.0
 10
7.732071802164519
 20
7.819899651562216
 30
0.0
 10
7.891848410414905
 20
7.942196498254445
 30
0.0
 10
8.25830708386902
 20
8.150301201014702
 30
0.0
 10
8.455648366374653
 20
8.230908916207909
 30
0.0
 10
8.77248967367902
 20
8.319179914646387
 30
0.0
 10
8.882341518412666
 20
8.3431218282523
 30
0.0
 10
9.102527872549754
 20
8.37848743224908
 30
0.0
 10
9.213513503429718
 20
8.390169709195302
 30
0.0
 10
9.549117491428433
 20
8.407588877016043
 30
0.0
 10
9.777942031586583
 20
8.395365917414473
 30
0.0
 10
10.0
 20
8.358740951812543
 30
0.0
  0
SPLINE
  5
AF
330
1F
100
AcDbEntity
  8
0
  6
Continuous
 62
     4
370
    15
100
AcDbSpline
210
0.0
220
0.0
230
1.0
 70
     8
 71
     3
 72
    16
 73
    12
 74
     0
 42
0.000000001
 43
0.00000001
 40
0.0
 40
0.0
 40
0.0
 40
0.0
 40
0.2500000000000007
 40
0.2500000000000007
 40
0.375000000000001
 40
0.375000000000001
 40
0.5000000000000013
 40
0.5000000000000013
 40
0.7500000000000007
 40
0.7500000000000007
 40
1.0
 40
1.0
 40
1.0
 40
1.0
 10
7.794012053335731
 20
2.880871036568568
 30
0.0
 10
7.615783062310095
 20
3.054230095581006
 30
0.0
 10
7.469155569396641
 20
3.24809093512892
 30
0.0
 10
7.290779584117329
 20
3.564582004179418
 30
0.0
 10
7.238283851113282
 20
3.674849867967561
 30
0.0
 10
7.149113826457981
 20
3.897253840649071
 30
0.0
 10
7.11198315366387
 20
4.010098011472199
 30
0.0
 10
7.020030158728138
 20
4.352551153063315
 30
0.0
 10
6.985176683834059
 20
4.586694844128232
 30
0.0
 10
6.950138878641697
 20
5.047082681735737
 30
0.0
 10
6.949878257436447
 20
5.27532520300531
 30
0.0
 10
6.949878257436447
 20
5.500687426586709
 30
0.0
  0
SPLINE
  5
B0
330
1F
100
AcDbEntity
  8
0
  6
Continuous
 62
     4
370
    15
100
AcDbSpline
210
0.0
220
0.0
230
1.0
 70
     8
 71
     3
 72
    10
 73
     6
 74
     0
 42
0.000000001
 43
0.00000001
 40
0.0
 40
0.0
 40
0.0
 40
0.0
 40
0.5
 40
0.5
 40
1.0
 40
1.0
 40
1.0
 40
1.0
 10
10.0
 20
0.6995610553145182
 30
0.0
 10
9.632012609274348
 20
1.06681902178771
 30
0.0
 10
9.266632128723977
 20
1.432331508427443
 30
0.0
 10
8.531502417336974
 20
2.160289993352278
 30
0.0
 10
8.16245543515025
 20
2.52249500804952
 30
0.0
 10
7.794012053335734
 20
2.88087103656857
 30
0.0
  0
SPLINE
  5
B1
330
1F
100
AcDbEntity
  8
0
  6
Continuous
 62
     4
370
    15
100
AcDbSpline
210
0.0
220
0.0
230
1.0
 70
     8
 71
     3
 72
    24
 73
    20
 74
     0
 42
0.000000001
 43
0.00000001
 40
0.0
 40
0.0
 40
0.0
 40
0.0
 40
0.1250000000000001
 40
0.1250000000000001
 40
0.2500000000000001
 40
0.2500000000000001
 40
0.3750000000000002
 40
0.3750000000000002
 40
0.5000000000000002
 40
0.5000000000000002
 40
0.6250000000000002
 40
0.6250000000000002
 40
0.7500000000000003
 40
0.7500000000000003
 40
0.8125000000000002
 40
0.8125000000000002
 40
0.8750000000000001
 40
0.8750000000000001
 40
1.0
 40
1.0
 40
1.0
 40
1.0
 10
6.949878257436447
 20
-7.162997215790156
 30
0.0
 10
6.949878257436445
 20
-6.977631361623169
 30
0.0
 10
6.949962936362216
 20
-6.789200984094815
 30
0.0
 10
6.97541117067953
 20
-6.408269962965592
 30
0.0
 10
7.000368575426547
 20
-6.21574096283912
 30
0.0
 10
7.091659686408626
 20
-5.828123721057178
 30
0.0
 10
7.158362266569764
 20
-5.633672152190294
 30
0.0
 10
7.338841351527934
 20
-5.26326765513811
 30
0.0
 10
7.455203170403479
 20
-5.082714062644933
 30
0.0
 10
7.732071802164517
 20
-4.757672980943034
 30
0.0
 10
7.891848410414902
 20
-4.612152964638168
 30
0.0
 10
8.258307083869019
 20
-4.360518196975315
 30
0.0
 10
8.455648366374648
 20
-4.260769581454906
 30
0.0
 10
8.772489673679017
 20
-4.150768969857641
 30
0.0
 10
8.882341518412664
 20
-4.120733853362083
 30
0.0
 10
9.102527872549754
 20
-4.076264444444949
 30
0.0
 10
9.213513503429716
 20
-4.06150851705131
 30
0.0
 10
9.549117491428433
 20
-4.039506879691822
 30
0.0
 10
9.777942031586583
 20
-4.055052844606056
 30
0.0
 10
10.0
 20
-4.101093718531627
 30
0.0
  0
SPLINE
  5
B2
330
1F
100
AcDbEntity
  8
0
  6
Continuous
 62
     4
370
    15
100
AcDbSpline
210
0.0
220
0.0
230
1.0
 70
     8
 71
     3
 72
    16
 73
    12
 74
     0
 42
0.000000001
 43
0.00000001
 40
0.0
 40
0.0
 40
0.0
 40
0.0
 40
0.2499999999999993
 40
0.2499999999999993
 40
0.3749999999999996
 40
0.3749999999999996
 40
0.4999999999999998
 40
0.4999999999999998
 40
0.7500000000000002
 40
0.7500000000000002
 40
1.0
 40
1.0
 40
1.0
 40
1.0
 10
7.794012053335733
 20
-9.271377425984038
 30
0.0
 10
7.615783062310097
 20
-9.149730069745253
 30
0.0
 10
7.469155569396644
 20
-9.010379446177573
 30
0.0
 10
7.290779584117333
 20
-8.774547180986467
 30
0.0
 10
7.238283851113286
 20
-8.691073908720554
 30
0.0
 10
7.149113826457983
 20
-8.519717668055328
 30
0.0
 10
7.111983153663873
 20
-8.431318199088768
 30
0.0
 10
7.020030158728142
 20
-8.158262331163769
 30
0.0
 10
6.985176683834064
 20
-7.965092637002608
 30
0.0
 10
6.950138878641702
 20
-7.571464203614101
 30
0.0
 10
6.94987825743644
 20
-7.369464606990833
 30
0.0
 10
6.94987825743644
 20
-7.16299721579016
 30
0.0
  0
SPLINE
  5
B3
330
1F
100
AcDbEntity
  8
0
  6
Continuous
 62
     4
370
    15
100
AcDbSpline
210
0.0
220
0.0
230
1.0
 70
     8
 71
     3
 72
    10
 73
     6
 74
     0
 42
0.000000001
 43
0.00000001
 40
0.0
 40
0.0
 40
0.0
 40
0.0
 40
0.5
 40
0.5
 40
1.0
 40
1.0
 40
1.0
 40
1.0
 10
10.0
 20
-10.63204358072358
 30
0.0
 10
9.632012609274348
 20
-10.4308683751065
 30
0.0
 10
9.266632128723977
 20
-10.21682143460685
 30
0.0
 10
8.531502417336974
 20
-9.762767406912985
 30
0.0
 10
8.16245543515025
 20
-9.522852581981326
 30
0.0
 10
7.794012053335734
 20
-9.271377425984035
 30
0.0
  0
SPLINE
  5
B4
330
1F
100
AcDbEntity
  8
0
  6
Continuous
 62
     4
370
    15
100
AcDbSpline
210
0.0
220
0.0
230
1.0
 70
     8
 71
     3
 72
    14
 73
    10
 74
     0
 42
0.000000001
 43
0.00000001
 40
0.0
 40
0.0
 40
0.0
 40
0.0
 40
0.1278056238894915
 40
0.3342696832551178
 40
0.436693377592779
 40
0.5426588576832096
 40
0.7324291842682651
 40
0.9146650406088354
 40
1.0
 40
1.0
 40
1.0
 40
1.0
 10
7.000376964194377
 20
-12.69554669857053
 30
0.0
 10
7.022779258436984
 20
-12.69486942804921
 30
0.0
 10
7.081371420290044
 20
-12.69309805840405
 30
0.0
 10
7.346526346428849
 20
-12.63940536097983
 30
0.0
 10
7.719097942196301
 20
-12.57898795375175
 30
0.0
 10
8.158529663428993
 20
-12.51885324386262
 30
0.0
 10
8.802285032523953
 20
-12.45989486612068
 30
0.0
 10
9.48699327206707
 20
-12.44279316782556
 30
0.0
 10
9.8759515672978
 20
-12.45571392189547
 30
0.0
 10
10.0
 20
-12.45983467034423
 30
0.0
  0
LINE
  5
B5
330
1F
100
AcDbEntity
  8
0
  6
Continuous
 62
     4
370
    15
100
AcDbLine
 10
-65.7
 20
12.7
 30
0.0
 11
-65.7
 21
-12.7
 31
0.0
  0
LINE
  5
B6
330
1F
100
AcDbEntity
  8
0
  6
Continuous
 62
     1
370
    15
100
AcDbLine
 10
10.0
 20
-10.63204358072364
 30
0.0
 11
10.0
 21
-12.45983467034423
 31
0.0
  0
LINE
  5
B7
330
1F
100
AcDbEntity
  8
0
  6
Continuous
 62
     1
370
    15
100
AcDbLine
 10
10.0
 20
0.6995610553144969
 30
0.0
 11
10.0
 21
-4.101093718531613
 31
0.0
  0
LINE
  5
B8
330
1F
100
AcDbEntity
  8
0
  6
Continuous
 62
     1
370
    15
100
AcDbLine
 10
10.0
 20
11.33160463603819
 30
0.0
 11
10.0
 21
8.358740951812553
 31
0.0
  0
LINE
  5
B9
330
1F
100
AcDbEntity
  8
0
  6
Continuous
 62
     4
370
    15
100
AcDbLine
 10
-66.20000000000002
 20
12.2
 30
0.0
 11
-66.20000000000002
 21
-12.20000000000001
 31
0.0
  0
SPLINE
  5
BA
330
1F
100
AcDbEntity
  8
0
  6
Continuous
 62
     1
370
    15
100
AcDbSpline
210
0.0
220
0.0
230
1.0
 70
    24
 71
     3
 72
    14
 73
    10
 74
     0
 42
0.000000001
 43
0.00000001
 40
0.0
 40
0.0
 40
0.0
 40
0.0
 40
0.2499999999999998
 40
0.2499999999999998
 40
0.4999999999999999
 40
0.4999999999999999
 40
0.75
 40
0.75
 40
1.0
 40
1.0
 40
1.0
 40
1.0
 10
10.0
 20
4.980250188701404
 30
0.0
 10
10.0
 20
4.574269293222406
 30
0.0
 10
10.0
 20
4.157496862036312
 30
0.0
 10
10.0
 20
3.332461261405395
 30
0.0
 10
10.0
 20
2.924377523880901
 30
0.0
 10
10.0
 20
2.157202480563764
 30
0.0
 10
10.0
 20
1.798499099043653
 30
0.0
 10
10.0
 20
1.172384501295468
 30
0.0
 10
10.0
 20
0.9054081535411455
 30
0.0
 10
10.0
 20
0.6995610553144926
 30
0.0
  0
SPLINE
  5
BB
330
1F
100
AcDbEntity
  8
0
  6
Continuous
 62
     1
370
    15
100
AcDbSpline
210
0.0
220
0.0
230
1.0
 70
    24
 71
     3
 72
    12
 73
     8
 74
     0
 42
0.000000001
 43
0.00000001
 40
0.0
 40
0.0
 40
0.0
 40
0.0
 40
0.4999999999999996
 40
0.4999999999999996
 40
0.7499999999999998
 40
0.7499999999999998
 40
1.0
 40
1.0
 40
1.0
 40
1.0
 10
10.0
 20
8.358740951812592
 30
0.0
 10
10.0
 20
7.840173194589608
 30
0.0
 10
10.0
 20
7.295847830348849
 30
0.0
 10
10.0
 20
6.432313805905739
 30
0.0
 10
10.0
 20
6.137622372602014
 30
0.0
 10
10.0
 20
5.556814252939406
 30
0.0
 10
10.0
 20
5.267662872633626
 30
0.0
 10
10.0
 20
4.980250188701525
 30
0.0
  0
SPLINE
  5
BD
330
1F
100
AcDbEntity
  8
0
  6
Continuous
 62
     1
370
    15
100
AcDbSpline
210
0.0
220
0.0
230
1.0
 70
    24
 71
     3
 72
    12
 73
     8
 74
     0
 42
0.000000001
 43
0.00000001
 40
0.0
 40
0.0
 40
0.0
 40
0.0
 40
0.4999999999999993
 40
0.4999999999999993
 40
0.7499999999999997
 40
0.7499999999999997
 40
1.0
 40
1.0
 40
1.0
 40
1.0
 10
10.0
 20
-4.101093718531631
 30
0.0
 10
10.0
 20
-4.119578455966296
 30
0.0
 10
10.0
 20
-4.217692552099284
 30
0.0
 10
10.0
 20
-4.510305819918089
 30
0.0
 10
10.0
 20
-4.632892873297743
 30
0.0
 10
10.0
 20
-4.927140525577659
 30
0.0
 10
10.0
 20
-5.099373030492684
 30
0.0
 10
10.0
 20
-5.306455924390037
 30
0.0
  0
SPLINE
  5
BE
330
1F
100
AcDbEntity
  8
0
  6
Continuous
 62
     1
370
    15
100
AcDbSpline
210
0.0
220
0.0
230
1.0
 70
    24
 71
     3
 72
    14
 73
    10
 74
     0
 42
0.000000001
 43
0.00000001
 40
0.0
 40
0.0
 40
0.0
 40
0.0
 40
0.25
 40
0.25
 40
0.5
 40
0.5
 40
0.75
 40
0.75
 40
1.0
 40
1.0
 40
1.0
 40
1.0
 10
10.0
 20
-5.306455924390118
 30
0.0
 10
10.0
 20
-5.598968062520725
 30
0.0
 10
10.0
 20
-5.93650485068946
 30
0.0
 10
10.0
 20
-6.700375548644642
 30
0.0
 10
10.0
 20
-7.126860289303096
 30
0.0
 10
10.0
 20
-8.050723910094074
 30
0.0
 10
10.0
 20
-8.5480216776993
 30
0.0
 10
10.0
 20
-9.576869040403018
 30
0.0
 10
10.0
 20
-10.10804673850655
 30
0.0
 10
10.0
 20
-10.63204358072365
 30
0.0
  0
SPLINE
  5
BF
330
1F
100
AcDbEntity
  8
0
  6
Continuous
 62
     1
370
    15
100
AcDbSpline
210
0.0
220
0.0
230
1.0
 70
    24
 71
     3
 72
     9
 73
     5
 74
     0
 42
0.000000001
 43
0.00000001
 40
0.0
 40
0.0
 40
0.0
 40
0.0
 40
0.7502101654114838
 40
1.0
 40
1.0
 40
1.0
 40
1.0
 10
10.0
 20
12.45983467034429
 30
0.0
 10
10.0
 20
12.18514106427017
 30
0.0
 10
10.0
 20
11.81898552714353
 30
0.0
 10
10.0
 20
11.52813392342852
 30
0.0
 10
10.0
 20
11.45548214944674
 30
0.0
  0
SPLINE
  5
C0
330
1F
100
AcDbEntity
  8
0
  6
Continuous
 62
     1
370
    15
100
AcDbSpline
210
0.0
220
0.0
230
1.0
 70
     8
 71
     3
 72
    29
 73
    25
 74
     0
 42
0.000000001
 43
0.00000001
 40
0.0
 40
0.0
 40
0.0
 40
0.0
 40
0.0110761037813842
 40
0.0602065053654397
 40
0.1093287637214484
 40
0.1584471836978461
 40
0.2075660804209837
 40
0.2566897677401292
 40
0.3058225466798299
 40
0.3549683944066211
 40
0.404110583290675
 40
0.4532405344788014
 40
0.5023625322488856
 40
0.5514808821468291
 40
0.600599899486717
 40
0.6497238977947394
 40
0.6988571772634127
 40
0.7480034807324858
 40
0.7971450389140241
 40
0.8462745480702049
 40
0.8953962936598794
 40
0.9445145819039586
 40
0.9936337282816952
 40
1.0
 40
1.0
 40
1.0
 40
1.0
 10
75.02710252923063
 20
-11.88782779027445
 30
0.0
 10
74.86323719355613
 20
-11.95367616332496
 30
0.0
 10
73.97251249412913
 20
-12.31160892593
 30
0.0
 10
72.35534005920964
 20
-12.61531288880566
 30
0.0
 10
70.17553552083594
 20
-12.76189429506575
 30
0.0
 10
67.99601200360443
 20
-12.50441086148691
 30
0.0
 10
65.81645228906756
 20
-11.88712781359839
 30
0.0
 10
63.6365660154392
 20
-10.91831288263093
 30
0.0
 10
61.45611423897161
 20
-9.628933634625664
 30
0.0
 10
59.27495921176772
 20
-8.05640023347863
 30
0.0
 10
57.09399247427754
 20
-6.246967139949636
 30
0.0
 10
54.91370878881189
 20
-4.253870458919135
 30
0.0
 10
52.73393894044089
 20
-2.135902118960833
 30
0.0
 10
50.55441542576655
 20
0.0447722980726258
 30
0.0
 10
48.374848990487
 20
2.224150055543338
 30
0.0
 10
46.19494144448301
 20
4.338237372995275
 30
0.0
 10
44.01446078920007
 20
6.325048669422008
 30
0.0
 10
41.83328232286142
 20
8.125555467224562
 30
0.0
 10
39.65234874091871
 20
9.687976015381494
 30
0.0
 10
37.47209104379156
 20
10.96287770856363
 30
0.0
 10
35.29234166224406
 20
11.9252425118931
 30
0.0
 10
33.11281095931933
 20
12.50031463668772
 30
0.0
 10
31.56568436722283
 20
12.74502421870879
 30
0.0
 10
30.74496680142859
 20
12.68573046259424
 30
0.0
 10
30.65079951915655
 20
12.67892723076185
 30
0.0
  0
SPLINE
  5
C1
330
1F
100
AcDbEntity
  8
0
  6
Continuous
 62
     1
370
    15
100
AcDbSpline
210
0.0
220
0.0
230
1.0
 70
     8
 71
     3
 72
    29
 73
    25
 74
     0
 42
0.000000001
 43
0.00000001
 40
0.0
 40
0.0
 40
0.0
 40
0.0
 40
0.0037160049821166
 40
0.05283703094403
 40
0.1019658203587147
 40
0.1511066586222402
 40
0.200252242103782
 40
0.2493848017757248
 40
0.298508080422984
 40
0.3476263781750795
 40
0.3967440084950088
 40
0.4458652866336376
 40
0.4949945180737921
 40
0.544135987030593
 40
0.5932811147765299
 40
0.6424131739268325
 40
0.6915361415897711
 40
0.7406543187268835
 40
0.7897720191242401
 40
0.8388935578449759
 40
0.8880232396744611
 40
0.9371653476246512
 40
0.9863099613469354
 40
1.0
 40
1.0
 40
1.0
 40
1.0
 10
35.12741279869812
 20
11.90620663762618
 30
0.0
 10
35.18237562721761
 20
11.92915115615426
 30
0.0
 10
35.96387960399697
 20
12.25539405445455
 30
0.0
 10
37.47209474636061
 20
12.55948796277825
 30
0.0
 10
39.65234774848371
 20
12.7686939129073
 30
0.0
 10
41.8332825888421
 20
12.56524463920166
 30
0.0
 10
44.01446071794889
 20
12.00237410761028
 30
0.0
 10
46.19494146356679
 20
11.08388568521537
 30
0.0
 10
48.37484898538122
 20
9.84035722426723
 30
0.0
 10
50.55441542710949
 20
8.307447436761745
 30
0.0
 10
52.73393894017457
 20
6.530414312346282
 30
0.0
 10
54.91370878853414
 20
4.561343960665405
 30
0.0
 10
57.09399247565537
 20
2.458001401984224
 30
0.0
 10
59.27495920653261
 20
0.2823644978880993
 30
0.0
 10
61.45611425853299
 20
-1.901474270215081
 30
0.0
 10
63.6365659424561
 20
-4.029546149466705
 30
0.0
 10
65.81645256138103
 20
-6.038967655841367
 30
0.0
 10
67.99601098742396
 20
-7.870641661708887
 30
0.0
 10
70.17553931337162
 20
-9.471507135994838
 30
0.0
 10
72.35532590304251
 20
-10.79197405704208
 30
0.0
 10
74.53564183439092
 20
-11.80291327718857
 30
0.0
 10
76.71662276986558
 20
-12.4383235335131
 30
0.0
 10
78.373429815388
 20
-12.72397891855354
 30
0.0
 10
79.30292541683595
 20
-12.6734324901567
 30
0.0
 10
79.50543836519545
 20
-12.66241973632791
 30
0.0
  0
SPLINE
  5
C2
330
1F
100
AcDbEntity
  8
0
  6
Continuous
 62
     1
370
    15
100
AcDbSpline
210
0.0
220
0.0
230
1.0
 70
     8
 71
     3
 72
    40
 73
    36
 74
     0
 42
0.000000001
 43
0.00000001
 40
0.0
 40
0.0
 40
0.0
 40
0.0
 40
0.0625000000000004
 40
0.0625000000000004
 40
0.1250000000000009
 40
0.1250000000000009
 40
0.1875000000000013
 40
0.1875000000000013
 40
0.2500000000000017
 40
0.2500000000000017
 40
0.3125000000000023
 40
0.3125000000000023
 40
0.3750000000000029
 40
0.3750000000000029
 40
0.5000000000000032
 40
0.5000000000000032
 40
0.5625000000000034
 40
0.5625000000000034
 40
0.6250000000000037
 40
0.6250000000000037
 40
0.6875000000000039
 40
0.6875000000000039
 40
0.7187500000000041
 40
0.7187500000000041
 40
0.7500000000000042
 40
0.7500000000000042
 40
0.7812500000000044
 40
0.7812500000000044
 40
0.8125000000000047
 40
0.8125000000000047
 40
0.8750000000000031
 40
0.8750000000000031
 40
0.9375000000000016
 40
0.9375000000000016
 40
1.0
 40
1.0
 40
1.0
 40
1.0
 10
108.552
 20
-8.338691912844808
 30
0.0
 10
108.7679350811415
 20
-8.501540429882539
 30
0.0
 10
108.9746926847869
 20
-8.647576591392095
 30
0.0
 10
109.3750097391536
 20
-8.907302246199663
 30
0.0
 10
109.5698166090801
 20
-9.021242239849062
 30
0.0
 10
109.9416628863158
 20
-9.213305566364582
 30
0.0
 10
110.1160714196458
 20
-9.290200395019006
 30
0.0
 10
110.4409538377491
 20
-9.410270245701913
 30
0.0
 10
110.592321815073
 20
-9.45349716001547
 30
0.0
 10
110.8619796426181
 20
-9.511096113490105
 30
0.0
 10
110.9797813897506
 20
-9.525567747312344
 30
0.0
 10
111.1802825999444
 20
-9.539211813096301
 30
0.0
 10
111.2630902256278
 20
-9.538352325334127
 30
0.0
 10
111.4582216163261
 20
-9.539661246221083
 30
0.0
 10
111.5155893389488
 20
-9.548782768571812
 30
0.0
 10
111.5531800993317
 20
-9.676343407331263
 30
0.0
 10
111.5580043967826
 20
-9.73729322561283
 30
0.0
 10
111.5566105404667
 20
-9.900748605988795
 30
0.0
 10
111.5506780806583
 20
-10.00355195015158
 30
0.0
 10
111.5175793272711
 20
-10.2582255942022
 30
0.0
 10
111.4915246792143
 20
-10.40753056937433
 30
0.0
 10
111.4091954178347
 20
-10.68296873973325
 30
0.0
 10
111.3748186988722
 20
-10.78153579299216
 30
0.0
 10
111.2832033479161
 20
-10.99615940330505
 30
0.0
 10
111.2258495533899
 20
-11.1118198562343
 30
0.0
 10
111.0832748541792
 20
-11.35037453490665
 30
0.0
 10
110.9974581055224
 20
-11.47352735860517
 30
0.0
 10
110.8050422137412
 20
-11.70701624112327
 30
0.0
 10
110.6974042454578
 20
-11.81862053694291
 30
0.0
 10
110.3629857053764
 20
-12.11561882609763
 30
0.0
 10
110.1262067977406
 20
-12.26408190442618
 30
0.0
 10
109.6634173763674
 20
-12.47274219854394
 30
0.0
 10
109.4351689087898
 20
-12.53517294229158
 30
0.0
 10
108.9857792422467
 20
-12.59439668448967
 30
0.0
 10
108.7675842121927
 20
-12.59092832745896
 30
0.0
 10
108.552
 20
-12.55888367947279
 30
0.0
  0
SPLINE
  5
C3
330
1F
100
AcDbEntity
  8
0
  6
Continuous
 62
     1
370
    15
100
AcDbSpline
210
0.0
220
0.0
230
1.0
 70
     8
 71
     3
 72
    25
 73
    21
 74
     0
 42
0.000000001
 43
0.00000001
 40
0.0
 40
0.0
 40
0.0
 40
0.0
 40
0.0528128942120302
 40
0.1056357209511057
 40
0.158427431410168
 40
0.2112059155981744
 40
0.2639900928582669
 40
0.3213588214640107
 40
0.3787426809944658
 40
0.4361250387030903
 40
0.4934926666935437
 40
0.5508505646653397
 40
0.6082037583323003
 40
0.6655572860043013
 40
0.722916185096501
 40
0.7802854786437238
 40
0.8376700064397514
 40
0.8950516083292044
 40
0.9524187006515865
 40
1.0
 40
1.0
 40
1.0
 40
1.0
 10
108.552
 20
-12.55888367947279
 30
0.0
 10
107.8829409232595
 20
-12.42919859034015
 30
0.0
 10
106.5446969397616
 20
-12.16980402218535
 30
0.0
 10
104.5371334569619
 20
-11.39395757308287
 30
0.0
 10
102.530989670164
 20
-10.35656623586804
 30
0.0
 10
100.5254750909589
 20
-9.055340006698014
 30
0.0
 10
98.46196078151677
 20
-7.486304565947431
 30
0.0
 10
96.3393897531041
 20
-5.665456245073142
 30
0.0
 10
94.15832539856973
 20
-3.62854896836342
 30
0.0
 10
91.97728265912433
 20
-1.484887676088334
 30
0.0
 10
89.79694679467103
 20
0.702457279812668
 30
0.0
 10
87.61713945476777
 20
2.868941734607291
 30
0.0
 10
85.43760668978307
 20
4.951026679787884
 30
0.0
 10
83.25805542939374
 20
6.887534671435591
 30
0.0
 10
81.07818937769325
 20
8.621869989334698
 30
0.0
 10
78.89776658216826
 20
10.10213244046661
 30
0.0
 10
76.71663723056551
 20
11.28813269635938
 30
0.0
 10
74.53563973408203
 20
12.13171901211648
 30
0.0
 10
72.47917022795097
 20
12.62816118479317
 30
0.0
 10
71.14975086334807
 20
12.6594125128616
 30
0.0
 10
70.54702127655109
 20
12.67358117969095
 30
0.0
  0
SPLINE
  5
C4
330
1F
100
AcDbEntity
  8
0
  6
Continuous
 62
     1
370
    15
100
AcDbSpline
210
0.0
220
0.0
230
1.0
 70
     8
 71
     3
 72
    19
 73
    15
 74
     0
 42
0.000000001
 43
0.00000001
 40
0.0
 40
0.0
 40
0.0
 40
0.0
 40
0.0801813077866477
 40
0.1669267715249977
 40
0.2536813679149407
 40
0.3404526896795586
 40
0.4272468153285948
 40
0.5140307596221558
 40
0.6007937583861908
 40
0.6806104180269948
 40
0.7604233628167871
 40
0.8402612592766512
 40
0.9201454617365122
 40
1.0
 40
1.0
 40
1.0
 40
1.0
 10
35.12741279869822
 20
-11.90620663762618
 30
0.0
 10
34.45588483117383
 20
-12.11429947194051
 30
0.0
 10
33.05785331108609
 20
-12.54752095420924
 30
0.0
 10
30.93324586124605
 20
-12.75429387190889
 30
0.0
 10
28.75331506492547
 20
-12.62174032249927
 30
0.0
 10
26.57280815778919
 20
-12.10996120325083
 30
0.0
 10
24.39159931595871
 20
-11.24436449491914
 30
0.0
 10
22.21073544735811
 20
-10.04753440000389
 30
0.0
 10
20.08843993683858
 20
-8.595192602404403
 30
0.0
 10
18.02527871219734
 20
-6.954208404225554
 30
0.0
 10
16.02005237478831
 20
-5.186064000541148
 30
0.0
 10
14.01405894397057
 20
-3.288809404262559
 30
0.0
 10
12.00669173918274
 20
-1.309055722862478
 30
0.0
 10
10.66881442980043
 20
0.0301050252961055
 30
0.0
 10
10.00000000000002
 20
0.6995610553144982
 30
0.0
  0
SPLINE
  5
C5
330
1F
100
AcDbEntity
  8
0
  6
Continuous
 62
     1
370
    15
100
AcDbSpline
210
0.0
220
0.0
230
1.0
 70
    24
 71
     3
 72
    20
 73
    16
 74
     0
 42
0.000000001
 43
0.00000001
 40
0.0
 40
0.0
 40
0.0
 40
0.0
 40
0.25
 40
0.25
 40
0.375
 40
0.375
 40
0.5
 40
0.5
 40
0.625
 40
0.625
 40
0.75
 40
0.75
 40
0.875
 40
0.875
 40
1.0
 40
1.0
 40
1.0
 40
1.0
 10
10.0
 20
8.753046362748755
 30
0.0
 10
10.0
 20
8.262764661149898
 30
0.0
 10
10.0
 20
7.688551473294629
 30
0.0
 10
10.0
 20
6.696633057823559
 30
0.0
 10
10.0
 20
6.344639496606687
 30
0.0
 10
10.0
 20
5.605985995630655
 30
0.0
 10
10.0
 20
5.219243497467557
 30
0.0
 10
10.0
 20
4.428554953147802
 30
0.0
 10
10.0
 20
4.024615001580203
 30
0.0
 10
10.0
 20
3.228065969735831
 30
0.0
 10
10.0
 20
2.835627746053831
 30
0.0
 10
10.0
 20
2.099297465865483
 30
0.0
 10
10.0
 20
1.755743970836332
 30
0.0
 10
10.0
 20
1.155322365543288
 30
0.0
 10
10.0
 20
0.8988221106026841
 30
0.0
 10
10.0
 20
0.6995610553144966
 30
0.0
  0
SPLINE
  5
C6
330
1F
100
AcDbEntity
  8
0
  6
Continuous
 62
     1
370
    15
100
AcDbSpline
210
0.0
220
0.0
230
1.0
 70
     8
 71
     3
 72
    21
 73
    17
 74
     0
 42
0.000000001
 43
0.00000001
 40
0.0
 40
0.0
 40
0.0
 40
0.0
 40
0.0677736398948836
 40
0.1355724561993561
 40
0.2033319719676662
 40
0.2710703109119786
 40
0.3388118027012028
 40
0.4124487476050921
 40
0.486103469266651
 40
0.5597668319839924
 40
0.6334108407324249
 40
0.7070406544263874
 40
0.78066271711391
 40
0.8542834935907677
 40
0.9279094520981148
 40
1.0
 40
1.0
 40
1.0
 40
1.0
 10
10.0
 20
8.753046362748833
 30
0.0
 10
10.66881442980172
 20
8.247401083061717
 30
0.0
 10
12.00669173918668
 20
7.235922687639605
 30
0.0
 10
14.01405894395469
 20
5.480967675238318
 30
0.0
 10
16.02005237484777
 20
3.604623336114845
 30
0.0
 10
18.02527871197545
 20
1.634622875996992
 30
0.0
 10
20.08843993769725
 20
-0.432946196395793
 30
0.0
 10
22.21073544384116
 20
-2.548951544090948
 30
0.0
 10
24.39159932905195
 20
-4.647885595321918
 30
0.0
 10
26.57280810893374
 20
-6.610017523433935
 30
0.0
 10
28.75331524718493
 20
-8.378108689023655
 30
0.0
 10
30.93324518121565
 20
-9.899159866738529
 30
0.0
 10
33.11281863506927
 20
-11.13118426476577
 30
0.0
 10
35.29234320194051
 20
-12.02844961014967
 30
0.0
 10
37.45681061467009
 20
-12.59639255141555
 30
0.0
 10
38.89493371193014
 20
-12.66313854056428
 30
0.0
 10
39.60641852985921
 20
-12.69615988486189
 30
0.0
  0
SPLINE
  5
C7
330
1F
100
AcDbEntity
  8
0
  6
Continuous
 62
     1
370
    15
100
AcDbSpline
210
0.0
220
0.0
230
1.0
 70
     8
 71
     3
 72
    23
 73
    19
 74
     0
 42
0.000000001
 43
0.00000001
 40
0.0
 40
0.0
 40
0.0
 40
0.0
 40
0.050388455744783
 40
0.1154415311059829
 40
0.1804773363985142
 40
0.2455013581791494
 40
0.3105192907330117
 40
0.3755368446472663
 40
0.4405597315233621
 40
0.505593648683426
 40
0.5706442639588716
 40
0.6356965817512233
 40
0.7007317466066535
 40
0.7605697062982463
 40
0.8204012121274182
 40
0.8802477117125866
 40
0.9401294857835154
 40
1.0
 40
1.0
 40
1.0
 40
1.0
 10
75.02710252923073
 20
11.88782779027447
 30
0.0
 10
75.5902668228134
 20
12.07432629967731
 30
0.0
 10
76.88049386697385
 20
12.50160022891805
 30
0.0
 10
78.89777179653649
 20
12.74093778393984
 30
0.0
 10
81.0781879809417
 20
12.66674117178354
 30
0.0
 10
83.2580558035845
 20
12.20902248356976
 30
0.0
 10
85.43760658952391
 20
11.39543914519234
 30
0.0
 10
87.61713948163433
 20
10.24610466765511
 30
0.0
 10
89.79694678747059
 20
8.79575583438552
 30
0.0
 10
91.97728266105435
 20
7.086615454838476
 30
0.0
 10
94.15832539805241
 20
5.16915055578556
 30
0.0
 10
96.33938975324305
 20
3.099773304018271
 30
0.0
 10
98.46196078148283
 20
0.996472242368847
 30
0.0
 10
100.5254750909677
 20
-1.073850019425086
 30
0.0
 10
102.5309896701617
 20
-3.060536597758228
 30
0.0
 10
104.5371334569626
 20
-4.967282208558872
 30
0.0
 10
106.5446969397614
 20
-6.764746892795191
 30
0.0
 10
107.8829409232595
 20
-7.814076460990926
 30
0.0
 10
108.552
 20
-8.33869191284483
 30
0.0
  0
SPLINE
  5
C8
330
1F
100
AcDbEntity
  8
0
  6
Continuous
 62
     1
370
    15
100
AcDbSpline
210
0.0
220
0.0
230
1.0
 70
     8
 71
     3
 72
    40
 73
    36
 74
     0
 42
0.000000001
 43
0.00000001
 40
0.0
 40
0.0
 40
0.0
 40
0.0
 40
0.0624999999999996
 40
0.0624999999999996
 40
0.1249999999999993
 40
0.1249999999999993
 40
0.1874999999999989
 40
0.1874999999999989
 40
0.2499999999999985
 40
0.2499999999999985
 40
0.3124999999999982
 40
0.3124999999999982
 40
0.3749999999999978
 40
0.3749999999999978
 40
0.4999999999999967
 40
0.4999999999999967
 40
0.5624999999999961
 40
0.5624999999999961
 40
0.6249999999999954
 40
0.6249999999999954
 40
0.6874999999999948
 40
0.6874999999999948
 40
0.7187499999999947
 40
0.7187499999999947
 40
0.7499999999999947
 40
0.7499999999999947
 40
0.7812499999999946
 40
0.7812499999999946
 40
0.8124999999999944
 40
0.8124999999999944
 40
0.8749999999999963
 40
0.8749999999999963
 40
0.9374999999999981
 40
0.9374999999999981
 40
1.0
 40
1.0
 40
1.0
 40
1.0
 10
108.552
 20
4.1262651052772
 30
0.0
 10
108.7679350811415
 20
3.922070179057538
 30
0.0
 10
108.9746926847869
 20
3.706763504325179
 30
0.0
 10
109.3750097391536
 20
3.259083808829203
 30
0.0
 10
109.5698166090801
 20
3.02547464985083
 30
0.0
 10
109.9416628863159
 20
2.547397806546195
 30
0.0
 10
110.1160714196458
 20
2.306472406178407
 30
0.0
 10
110.4409538377491
 20
1.819123329591577
 30
0.0
 10
110.592321815073
 20
1.57093081315378
 30
0.0
 10
110.8619796426182
 20
1.074075629661503
 30
0.0
 10
110.9797813897506
 20
0.8266003794258483
 30
0.0
 10
111.1802825999444
 20
0.3270610912510813
 30
0.0
 10
111.2630902256277
 20
0.0739256783867484
 30
0.0
 10
111.458221616326
 20
-0.696842199245437
 30
0.0
 10
111.5155893389488
 20
-1.221836971666362
 30
0.0
 10
111.5531800993318
 20
-2.065317312451454
 30
0.0
 10
111.5580043967827
 20
-2.354807508466005
 30
0.0
 10
111.5566105404668
 20
-2.941017803111953
 30
0.0
 10
111.5506780806584
 20
-3.240623031232748
 30
0.0
 10
111.5175793272712
 20
-3.845739080032405
 30
0.0
 10
111.4915246792142
 20
-4.147663409173178
 30
0.0
 10
111.4091954178346
 20
-4.595596653984078
 30
0.0
 10
111.3748186988722
 20
-4.740584348174507
 30
0.0
 10
111.2832033479161
 20
-5.01783962469502
 30
0.0
 10
111.2258495533899
 20
-5.148925616406921
 30
0.0
 10
111.0832748541792
 20
-5.375886754262164
 30
0.0
 10
110.9974581055223
 20
-5.471425592438769
 30
0.0
 10
110.8050422137411
 20
-5.610263428987554
 30
0.0
 10
110.6974042454579
 20
-5.654573055887659
 30
0.0
 10
110.3629857053765
 20
-5.716690947751747
 30
0.0
 10
110.1262067977405
 20
-5.668597685198011
 30
0.0
 10
109.6634173763674
 20
-5.48545728270704
 30
0.0
 10
109.4351689087899
 20
-5.349958722073534
 30
0.0
 10
108.9857792422467
 20
-5.028623773337872
 30
0.0
 10
108.7675842121927
 20
-4.84503604453101
 30
0.0
 10
108.552
 20
-4.644409563570628
 30
0.0
  0
SPLINE
  5
C9
330
1F
100
AcDbEntity
  8
0
  6
Continuous
 62
     1
370
    15
100
AcDbSpline
210
0.0
220
0.0
230
1.0
 70
     8
 71
     3
 72
    19
 73
    15
 74
     0
 42
0.000000001
 43
0.00000001
 40
0.0
 40
0.0
 40
0.0
 40
0.0
 40
0.0812440148681532
 40
0.1625033093074592
 40
0.243714736430389
 40
0.3249058170947809
 40
0.4061056556210572
 40
0.4943580778628659
 40
0.5826337765618838
 40
0.6709071649532208
 40
0.7591578940781051
 40
0.8473936551579263
 40
0.9356221794328409
 40
1.0
 40
1.0
 40
1.0
 40
1.0
 10
108.552
 20
-4.644409563570611
 30
0.0
 10
107.8829409232626
 20
-4.010635579518446
 30
0.0
 10
106.5446969397709
 20
-2.742968417468572
 30
0.0
 10
104.5371334569247
 20
-0.7429579324718238
 30
0.0
 10
102.5309896703035
 20
1.267773688118478
 30
0.0
 10
100.5254750904383
 20
3.2488407275883
 30
0.0
 10
98.46196078353145
 20
5.203143787447742
 30
0.0
 10
96.33938974485368
 20
7.071201998995345
 30
0.0
 10
94.15832542928415
 20
8.782442024411989
 30
0.0
 10
91.97728254453627
 20
10.23459953638985
 30
0.0
 10
89.79694722216057
 20
11.38931092258304
 30
0.0
 10
87.61713785969961
 20
12.19620140316738
 30
0.0
 10
85.63400720693168
 20
12.64794890585287
 30
0.0
 10
84.37740256859252
 20
12.65862685677682
 30
0.0
 10
83.8472970345495
 20
12.66313140872922
 30
0.0
  0
SPLINE
  5
CA
330
1F
100
AcDbEntity
  8
0
  6
Continuous
 62
     1
370
    15
100
AcDbSpline
210
0.0
220
0.0
230
1.0
 70
     8
 71
     3
 72
    26
 73
    22
 74
     0
 42
0.000000001
 43
0.00000001
 40
0.0
 40
0.0
 40
0.0
 40
0.0
 40
0.0013967873146502
 40
0.0581241478692129
 40
0.1148622261129855
 40
0.1716153441986273
 40
0.2283629825259801
 40
0.2850967068921462
 40
0.3418214660549179
 40
0.3985422327476769
 40
0.4552639903951434
 40
0.5119917197675625
 40
0.5687303856501805
 40
0.6254839627033618
 40
0.6822308822974334
 40
0.7389641058756169
 40
0.7911552064734741
 40
0.8433438779774088
 40
0.8955488650616831
 40
0.9477841310515767
 40
1.0
 40
1.0
 40
1.0
 40
1.0
 10
48.42857398839435
 20
-11.9142537935146
 30
0.0
 10
48.41068353996971
 20
-11.92180447904484
 30
0.0
 10
47.6662129546677
 20
-12.23600919559024
 30
0.0
 10
46.19493522986421
 20
-12.53824945115623
 30
0.0
 10
44.01446244385484
 20
-12.76918941598749
 30
0.0
 10
41.83328192122073
 20
-12.58403539396305
 30
0.0
 10
39.65234869280793
 20
-12.03978347413992
 30
0.0
 10
37.47209163754536
 20
-11.13863289608202
 30
0.0
 10
35.29233933577576
 20
-9.910902590920603
 30
0.0
 10
33.11281967099018
 20
-8.391686852688863
 30
0.0
 10
30.93324490360882
 20
-6.625849094074177
 30
0.0
 10
28.75331532158818
 20
-4.665137714716232
 30
0.0
 10
26.57280808898961
 20
-2.56705688225413
 30
0.0
 10
24.39159933439698
 20
-0.3936789333055065
 30
0.0
 10
22.21073544240544
 20
1.791392262636492
 30
0.0
 10
20.08843993804777
 20
3.867051885957848
 30
0.0
 10
18.02527871188486
 20
5.780455652483756
 30
0.0
 10
16.02005237487204
 20
7.497743357302337
 30
0.0
 10
14.01405894394823
 20
9.023138729737674
 30
0.0
 10
12.00669173918833
 20
10.34369812647896
 30
0.0
 10
10.66881442980229
 20
11.00234323729633
 30
0.0
 10
10.00000000000002
 20
11.33160463603815
 30
0.0
  0
SPLINE
  5
CB
330
1F
100
AcDbEntity
  8
0
  6
Continuous
 62
     1
370
    15
100
AcDbSpline
210
0.0
220
0.0
230
1.0
 70
    24
 71
     3
 72
     9
 73
     5
 74
     0
 42
0.000000001
 43
0.00000001
 40
0.0
 40
0.0
 40
0.0
 40
0.0
 40
0.2963180064180948
 40
1.0
 40
1.0
 40
1.0
 40
1.0
 10
10.0
 20
12.34556544055946
 30
0.0
 10
10.0
 20
12.24909031045105
 30
0.0
 10
9.999999999999993
 20
11.92351060210119
 30
0.0
 10
9.999999999999993
 20
11.6487947487802
 30
0.0
 10
9.999999999999996
 20
11.45548214944674
 30
0.0
  0
SPLINE
  5
CC
330
1F
100
AcDbEntity
  8
0
  6
Continuous
 62
     1
370
    15
100
AcDbSpline
210
0.0
220
0.0
230
1.0
 70
     8
 71
     3
 72
    28
 73
    24
 74
     0
 42
0.000000001
 43
0.00000001
 40
0.0
 40
0.0
 40
0.0
 40
0.0
 40
0.0467667939931273
 40
0.093550960816791
 40
0.1403080085410324
 40
0.1870504433248022
 40
0.2337950537103059
 40
0.2846077861818791
 40
0.3354327853985332
 40
0.3862637473239379
 40
0.4370813541590994
 40
0.487889165782005
 40
0.5386916288693743
 40
0.5894932044147833
 40
0.640298355789272
 40
0.6911115367882545
 40
0.7419371797335679
 40
0.7927677305877634
 40
0.8435848111081213
 40
0.8943922924017791
 40
0.9451946220291632
 40
0.9959962613413192
 40
1.0
 40
1.0
 40
1.0
 40
1.0
 10
10.0
 20
12.34556544055946
 30
0.0
 10
10.66881442980226
 20
12.47274351801761
 30
0.0
 10
12.0066917391883
 20
12.72714691677935
 30
0.0
 10
14.0140589439482
 20
12.70933182431942
 30
0.0
 10
16.02005237487209
 20
12.39713126877902
 30
0.0
 10
18.02527871188465
 20
11.77035727032177
 30
0.0
 10
20.08843993804862
 20
10.8256630372755
 30
0.0
 10
22.21073544240198
 20
9.555519209533262
 30
0.0
 10
24.39159933440985
 20
7.969738481730285
 30
0.0
 10
26.5728080889415
 20
6.149732898281352
 30
0.0
 10
28.75331532176771
 20
4.148758632180471
 30
0.0
 10
30.93324490293901
 20
2.026025730945793
 30
0.0
 10
33.11281967348967
 20
-0.1561543552392707
 30
0.0
 10
35.29233932644739
 20
-2.333728287605519
 30
0.0
 10
37.47209167236436
 20
-4.442762535163143
 30
0.0
 10
39.65234856282554
 20
-6.4214184372038
 30
0.0
 10
41.8332824064712
 20
-8.211107606866218
 30
0.0
 10
44.01446063289913
 20
-9.76006089917917
 30
0.0
 10
46.19494198588374
 20
-11.01928452499887
 30
0.0
 10
48.37484698161788
 20
-11.96517349214494
 30
0.0
 10
50.55442291913728
 20
-12.51917801717009
 30
0.0
 10
52.06463663173763
 20
-12.75185841363894
 30
0.0
 10
52.84841468591364
 20
-12.69089632455751
 30
0.0
 10
52.90567261591094
 20
-12.68644281503334
 30
0.0
  0
SPLINE
  5
CD
330
1F
100
AcDbEntity
  8
0
  6
Continuous
 62
     1
370
    15
100
AcDbSpline
210
0.0
220
0.0
230
1.0
 70
     8
 71
     3
 72
    17
 73
    13
 74
     0
 42
0.000000001
 43
0.00000001
 40
0.0
 40
0.0
 40
0.0
 40
0.0
 40
0.0727102924414054
 40
0.1805060401249919
 40
0.2883294654560439
 40
0.3961557127620111
 40
0.5039535285396131
 40
0.6031368145308272
 40
0.7023094030436258
 40
0.8015068441750091
 40
0.9007627538676101
 40
1.0
 40
1.0
 40
1.0
 40
1.0
 10
88.32631476319331
 20
11.87994977735307
 30
0.0
 10
88.81648753308356
 20
12.04918012645143
 30
0.0
 10
90.03335990010491
 20
12.469300843327
 30
0.0
 10
91.97728555153358
 20
12.72708526131436
 30
0.0
 10
94.15832462328316
 20
12.69236920004915
 30
0.0
 10
96.33938996135886
 20
12.27099835293923
 30
0.0
 10
98.46196073066258
 20
11.5131418034316
 30
0.0
 10
100.5254751041007
 20
10.46797563846873
 30
0.0
 10
102.5309896666432
 20
9.192163531176195
 30
0.0
 10
104.5371334579016
 20
7.685112568180905
 30
0.0
 10
106.5446969395267
 20
5.994474623946138
 30
0.0
 10
107.8829409231813
 20
4.748962574572106
 30
0.0
 10
108.552
 20
4.126265105277165
 30
0.0
  0
SPLINE
  5
CE
330
1F
100
AcDbEntity
  8
0
  6
Continuous
 62
     1
370
    15
100
AcDbSpline
210
0.0
220
0.0
230
1.0
 70
     8
 71
     3
 72
    29
 73
    25
 74
     0
 42
0.000000001
 43
0.00000001
 40
0.0
 40
0.0
 40
0.0
 40
0.0
 40
0.015982784398007
 40
0.0651011646825023
 40
0.1142198310153506
 40
0.1633430975359674
 40
0.2124752660681729
 40
0.2616204815046274
 40
0.3107631911383075
 40
0.3598934744991406
 40
0.409015614651522
 40
0.4581339164335288
 40
0.5072526949611285
 40
0.5563762640732083
 40
0.6055089247839659
 40
0.6546546542503664
 40
0.7037967248828337
 40
0.7529265578488216
 40
0.8020484374159056
 40
0.8511666691196269
 40
0.9002855682636864
 40
0.9494094483638947
 40
0.9985426096024206
 40
1.0
 40
1.0
 40
1.0
 40
1.0
 10
88.32631476319321
 20
-11.87994977735305
 30
0.0
 10
88.08990718469202
 20
-11.97226219214748
 30
0.0
 10
87.12697054505887
 20
-12.34826962415166
 30
0.0
 10
85.43761209960081
 20
-12.6472682728144
 30
0.0
 10
83.25805397055704
 20
-12.75286960704281
 30
0.0
 10
81.07818980277803
 20
-12.45905650087585
 30
0.0
 10
78.89776634092323
 20
-11.80547634215103
 30
0.0
 10
76.71663777044277
 20
-10.80308206936238
 30
0.0
 10
74.53563781619405
 20
-9.483508963855662
 30
0.0
 10
72.35532697940205
 20
-7.884972015343693
 30
0.0
 10
70.1755390250152
 20
-6.054819818612598
 30
0.0
 10
67.99601106465764
 20
-4.04675324136045
 30
0.0
 10
65.81645254079311
 20
-1.919728807662513
 30
0.0
 10
63.63656594756711
 20
0.2638228234911041
 30
0.0
 10
61.45611425868179
 20
2.439854057177731
 30
0.0
 10
59.27495920082301
 20
4.543985464966469
 30
0.0
 10
57.09399249834031
 20
6.514678597663012
 30
0.0
 10
54.91370870353218
 20
8.293579911353092
 30
0.0
 10
52.73393925744088
 20
9.829360394969164
 30
0.0
 10
50.55441424311297
 20
11.07302109554064
 30
0.0
 10
48.37485340439265
 20
12.00294439715248
 30
0.0
 10
46.19492496841475
 20
12.53628855736923
 30
0.0
 10
44.71993952679505
 20
12.75836359574555
 30
0.0
 10
43.97145664484944
 20
12.69641009718544
 30
0.0
 10
43.94989467863988
 20
12.69462536800226
 30
0.0
  0
SPLINE
  5
CF
330
1F
100
AcDbEntity
  8
0
  6
Continuous
 62
     1
370
    15
100
AcDbSpline
210
0.0
220
0.0
230
1.0
 70
     8
 71
     3
 72
     9
 73
     5
 74
     0
 42
0.000000001
 43
0.00000001
 40
0.0
 40
0.0
 40
0.0
 40
0.0
 40
0.6670461943760768
 40
1.0
 40
1.0
 40
1.0
 40
1.0
 10
10.0
 20
-12.34556544055947
 30
0.0
 10
10.66881830315264
 20
-12.48561679414546
 30
0.0
 10
11.67147495390861
 20
-12.69557429748897
 30
0.0
 10
12.67441063621409
 20
-12.66917854800485
 30
0.0
 10
13.00834188843374
 20
-12.66038998276182
 30
0.0
  0
SPLINE
  5
D0
330
1F
100
AcDbEntity
  8
0
  6
Continuous
 62
     1
370
    15
100
AcDbSpline
210
0.0
220
0.0
230
1.0
 70
     8
 71
     3
 72
    28
 73
    24
 74
     0
 42
0.000000001
 43
0.00000001
 40
0.0
 40
0.0
 40
0.0
 40
0.0
 40
0.0479105728543969
 40
0.0970300778269087
 40
0.1461532307573447
 40
0.1952843372928569
 40
0.2444276818120798
 40
0.2935746852600821
 40
0.3427086196136664
 40
0.3918334621328956
 40
0.4409535139434606
 40
0.4900730889960743
 40
0.5391965025185627
 40
0.5883280594605953
 40
0.6374720429975957
 40
0.6866185324023268
 40
0.7357519745646005
 40
0.784876514484523
 40
0.8339964540974283
 40
0.8831161076545652
 40
0.932239790173456
 40
0.9813718058838397
 40
1.0
 40
1.0
 40
1.0
 40
1.0
 10
48.42857398839426
 20
11.91425379351463
 30
0.0
 10
49.13719279092638
 20
12.12856568247701
 30
0.0
 10
50.57231104276313
 20
12.56259721302139
 30
0.0
 10
52.73393747406651
 20
12.75686908528645
 30
0.0
 10
54.91370918148296
 20
12.60453038963417
 30
0.0
 10
57.0939923702299
 20
12.07443953976919
 30
0.0
 10
59.27495923515622
 20
11.19124882653979
 30
0.0
 10
61.45611424948687
 20
9.978566476951062
 30
0.0
 10
63.63656595002159
 20
8.472543907902452
 30
0.0
 10
65.81645254016722
 20
6.717562981903896
 30
0.0
 10
67.9960110647071
 20
4.765215709239174
 30
0.0
 10
70.17553902544314
 20
2.672808834322188
 30
0.0
 10
72.35532697764052
 20
0.5017583383653796
 30
0.0
 10
74.53563782281422
 20
-1.684246047029988
 30
0.0
 10
76.71663774571678
 20
-3.820716965332805
 30
0.0
 10
78.8977664331991
 20
-5.844822968550323
 30
0.0
 10
81.07818945852787
 20
-7.697070502629164
 30
0.0
 10
83.25805525501747
 20
-9.323304909635947
 30
0.0
 10
85.43760730640886
 20
-10.67369407871452
 30
0.0
 10
87.617137162551
 20
-11.71678019251138
 30
0.0
 10
89.79695534829045
 20
-12.3914550684284
 30
0.0
 10
91.52586200685799
 20
-12.70876996440969
 30
0.0
 10
92.52832842748302
 20
-12.66735731280724
 30
0.0
 10
92.80391994536849
 20
-12.65597241723371
 30
0.0
  0
SPLINE
  5
D1
330
1F
100
AcDbEntity
  8
0
  6
Continuous
 62
     1
370
    15
100
AcDbSpline
210
0.0
220
0.0
230
1.0
 70
     8
 71
     3
 72
    40
 73
    36
 74
     0
 42
0.000000001
 43
0.00000001
 40
0.0
 40
0.0
 40
0.0
 40
0.0
 40
0.0625000000000007
 40
0.0625000000000007
 40
0.1250000000000013
 40
0.1250000000000013
 40
0.187500000000002
 40
0.187500000000002
 40
0.2500000000000027
 40
0.2500000000000027
 40
0.3125000000000033
 40
0.3125000000000033
 40
0.375000000000004
 40
0.375000000000004
 40
0.5000000000000051
 40
0.5000000000000051
 40
0.5625000000000056
 40
0.5625000000000056
 40
0.625000000000006
 40
0.625000000000006
 40
0.6875000000000067
 40
0.6875000000000067
 40
0.7187500000000067
 40
0.7187500000000067
 40
0.7500000000000067
 40
0.7500000000000067
 40
0.7812500000000067
 40
0.7812500000000067
 40
0.8125000000000067
 40
0.8125000000000067
 40
0.8750000000000044
 40
0.8750000000000044
 40
0.9375000000000022
 40
0.9375000000000022
 40
1.0
 40
1.0
 40
1.0
 40
1.0
 10
108.552
 20
12.464957018122
 30
0.0
 10
108.7679350811415
 20
12.42361060894007
 30
0.0
 10
108.9746926847868
 20
12.35434009571726
 30
0.0
 10
109.3750097391537
 20
12.16638605502886
 30
0.0
 10
109.5698166090801
 20
12.0467168896999
 30
0.0
 10
109.9416628863159
 20
11.76070337291079
 30
0.0
 10
110.1160714196458
 20
11.59667280119742
 30
0.0
 10
110.4409538377491
 20
11.2293935752935
 30
0.0
 10
110.592321815073
 20
11.02442797316927
 30
0.0
 10
110.8619796426182
 20
10.58517174315163
 30
0.0
 10
110.9797813897506
 20
10.35216812673821
 30
0.0
 10
111.1802825999444
 20
9.866272904347401
 30
0.0
 10
111.2630902256278
 20
9.612278003720888
 30
0.0
 10
111.4582216163261
 20
8.842819046975663
 30
0.0
 10
111.5155893389487
 20
8.32694579690546
 30
0.0
 10
111.5531800993317
 20
7.611026094879824
 30
0.0
 10
111.5580043967827
 20
7.382485717146847
 30
0.0
 10
111.5566105404668
 20
6.959730802876869
 30
0.0
 10
111.5506780806584
 20
6.762928918918853
 30
0.0
 10
111.5175793272711
 20
6.412486514169822
 30
0.0
 10
111.4915246792143
 20
6.259867160201183
 30
0.0
 10
111.4091954178346
 20
6.087372085749204
 30
0.0
 10
111.3748186988722
 20
6.040951444817675
 30
0.0
 10
111.2832033479161
 20
5.978319778610056
 30
0.0
 10
111.2258495533898
 20
5.962894239827415
 30
0.0
 10
111.0832748541791
 20
5.974487780644534
 30
0.0
 10
110.9974581055223
 20
6.002101766166402
 30
0.0
 10
110.8050422137411
 20
6.09675281213572
 30
0.0
 10
110.6974042454578
 20
6.164047481055324
 30
0.0
 10
110.3629857053765
 20
6.398927878345971
 30
0.0
 10
110.1262067977406
 20
6.595484219228184
 30
0.0
 10
109.6634173763674
 20
6.987284915836911
 30
0.0
 10
109.4351689087899
 20
7.185214220218064
 30
0.0
 10
108.9857792422467
 20
7.565772911151819
 30
0.0
 10
108.7675842121927
 20
7.745892282927977
 30
0.0
 10
108.552
 20
7.91447411590219
 30
0.0
  0
SPLINE
  5
D2
330
1F
100
AcDbEntity
  8
0
  6
Continuous
 62
     1
370
    15
100
AcDbSpline
210
0.0
220
0.0
230
1.0
 70
     8
 71
     3
 72
    13
 73
     9
 74
     0
 42
0.000000001
 43
0.00000001
 40
0.0
 40
0.0
 40
0.0
 40
0.0
 40
0.1759792108096125
 40
0.3519915180494964
 40
0.5279001419279262
 40
0.7037646942064726
 40
0.8796482165177688
 40
1.0
 40
1.0
 40
1.0
 40
1.0
 10
108.552
 20
7.91447411590221
 30
0.0
 10
107.8829409876978
 20
8.418614377825783
 30
0.0
 10
106.5446971330885
 20
9.426989715389556
 30
0.0
 10
104.5371326836744
 20
10.65038321399981
 30
0.0
 10
102.53099256776
 20
11.62664974445348
 30
0.0
 10
100.5254642755844
 20
12.29555925172773
 30
0.0
 10
98.73112687460714
 20
12.66708679459697
 30
0.0
 10
97.60478096077759
 20
12.65947899967626
 30
0.0
 10
97.1471793957508
 20
12.65638817400772
 30
0.0
  0
SPLINE
  5
D3
330
1F
100
AcDbEntity
  8
0
  6
Continuous
 62
     1
370
    15
100
AcDbSpline
210
0.0
220
0.0
230
1.0
 70
     8
 71
     3
 72
    29
 73
    25
 74
     0
 42
0.000000001
 43
0.00000001
 40
0.0
 40
0.0
 40
0.0
 40
0.0
 40
0.0061399412226519
 40
0.0552846185900114
 40
0.1044256372017651
 40
0.1535544184090201
 40
0.2026752463876356
 40
0.2517924265809808
 40
0.300910274200376
 40
0.3500331026692888
 40
0.399165212077831
 40
0.4483103451766192
 40
0.4974507331008771
 40
0.5465790722867129
 40
0.5956996480909241
 40
0.6448167666318734
 40
0.6939347432860442
 40
0.7430578911312883
 40
0.7921905094033123
 40
0.8413360399431854
 40
0.890475805483265
 40
0.9396037110137724
 40
0.9847983835176406
 40
1.0
 40
1.0
 40
1.0
 40
1.0
 10
61.72872356553654
 20
-11.8992873579036
 30
0.0
 10
61.63789514670465
 20
-11.93675918110812
 30
0.0
 10
60.82006736787693
 20
-12.27415906469196
 30
0.0
 10
59.27493851306552
 20
-12.57899251095988
 30
0.0
 10
57.09399801879277
 20
-12.76734119008544
 30
0.0
 10
54.91370730359947
 20
-12.54605564848449
 30
0.0
 10
52.73393933828437
 20
-11.96514760286007
 30
0.0
 10
50.55441531938172
 20
-11.03010282191143
 30
0.0
 10
48.37484901819397
 20
-9.771492682765253
 30
0.0
 10
46.1949414400506
 20
-8.225408953204973
 30
0.0
 10
44.0144607792128
 20
-6.437362542165435
 30
0.0
 10
41.83328236725599
 20
-4.460186243065356
 30
0.0
 10
39.65234857336759
 20
-2.351760532400893
 30
0.0
 10
37.47209166940021
 20
-0.1742376328353606
 30
0.0
 10
35.29233932776476
 20
2.008223971178882
 30
0.0
 10
33.11281967118403
 20
4.131572840211224
 30
0.0
 10
30.9332449108448
 20
6.133532773154629
 30
0.0
 10
28.75331529244458
 20
7.955164617911874
 30
0.0
 10
26.57280819836188
 20
9.543567244779101
 30
0.0
 10
24.39159892596439
 20
10.8494721336988
 30
0.0
 10
22.21073696636905
 20
11.84311636869466
 30
0.0
 10
20.08843444443413
 20
12.44722944319508
 30
0.0
 10
18.46880081910706
 20
12.71294843077185
 30
0.0
 10
17.57561718331214
 20
12.67437744802789
 30
0.0
 10
17.35080477666295
 20
12.6646692143456
 30
0.0
  0
SPLINE
  5
D4
330
1F
100
AcDbEntity
  8
0
  6
Continuous
 62
     1
370
    15
100
AcDbSpline
210
0.0
220
0.0
230
1.0
 70
     8
 71
     3
 72
    29
 73
    25
 74
     0
 42
0.000000001
 43
0.00000001
 40
0.0
 40
0.0
 40
0.0
 40
0.0
 40
0.0086375927669796
 40
0.0577773511784755
 40
0.1069228745889286
 40
0.1560554857334058
 40
0.2051786264524769
 40
0.2542965959812251
 40
0.3034137073968758
 40
0.352534276075287
 40
0.4016626081341969
 40
0.450802988929781
 40
0.4999481148992068
 40
0.5490802171802762
 40
0.5982030385230623
 40
0.6473208790170534
 40
0.6964380520850916
 40
0.7455588729378706
 40
0.7946876470181355
 40
0.8438286585011238
 40
0.8929733287391871
 40
0.942104930503276
 40
0.9912274408646364
 40
1.0
 40
1.0
 40
1.0
 40
1.0
 10
21.82726254526693
 20
11.89304837000865
 30
0.0
 10
21.95503407696464
 20
11.94509450669128
 30
0.0
 10
22.80970514755881
 20
12.29323408651624
 30
0.0
 10
24.39162114034748
 20
12.59795384533681
 30
0.0
 10
26.57280224744199
 20
12.76504244489557
 30
0.0
 10
28.75331688647536
 20
12.52536530397037
 30
0.0
 10
30.93324448380951
 20
11.92590318919592
 30
0.0
 10
33.11281978560275
 20
10.97366141386778
 30
0.0
 10
35.29233929709468
 20
9.699477848256507
 30
0.0
 10
37.47209167765591
 20
8.139975714690078
 30
0.0
 10
39.65234857102003
 20
6.341075644027247
 30
0.0
 10
41.83328236838801
 20
4.355678557766917
 30
0.0
 10
44.01446077703291
 20
2.24234840667583
 30
0.0
 10
46.19494144763529
 20
0.062919897978696
 30
0.0
 10
48.37484899004116
 20
-2.118128014979063
 30
0.0
 10
50.55441542439837
 20
-4.236799945901643
 30
0.0
 10
52.73393894635959
 20
-6.230968141370407
 30
0.0
 10
54.91370876650197
 20
-8.04187587098997
 30
0.0
 10
57.09399255762122
 20
-9.617166311274584
 30
0.0
 10
59.27495890061482
 20
-10.90728216028066
 30
0.0
 10
61.45611540016979
 20
-11.88572083828026
 30
0.0
 10
63.63656168342266
 20
-12.48097974892821
 30
0.0
 10
65.21968759004919
 20
-12.73828166994015
 30
0.0
 10
66.07601574660809
 20
-12.68123388159807
 30
0.0
 10
66.20577099965456
 20
-12.67258970686742
 30
0.0
  0
SPLINE
  5
D5
330
1F
100
AcDbEntity
  8
0
  6
Continuous
 62
     1
370
    15
100
AcDbSpline
210
0.0
220
0.0
230
1.0
 70
     8
 71
     3
 72
    11
 73
     7
 74
     0
 42
0.000000001
 43
0.00000001
 40
0.0
 40
0.0
 40
0.0
 40
0.0
 40
0.1307944587467998
 40
0.4204339918428768
 40
0.7102442431205798
 40
1.0
 40
1.0
 40
1.0
 40
1.0
 10
101.6250701666561
 20
11.8816572891013
 30
0.0
 10
101.9269931542628
 20
11.99425038991473
 30
0.0
 10
102.8975135274109
 20
12.3561767840642
 30
0.0
 10
104.5371354989962
 20
12.64182077535953
 30
0.0
 10
106.5446964292397
 20
12.76186508604322
 30
0.0
 10
107.8829407530962
 20
12.56392017009196
 30
0.0
 10
108.552
 20
12.46495701812199
 30
0.0
  0
SPLINE
  5
D6
330
1F
100
AcDbEntity
  8
0
  6
Continuous
 62
     1
370
    15
100
AcDbSpline
210
0.0
220
0.0
230
1.0
 70
     8
 71
     3
 72
    28
 73
    24
 74
     0
 42
0.000000001
 43
0.00000001
 40
0.0
 40
0.0
 40
0.0
 40
0.0
 40
0.0247836118921531
 40
0.0699884745141097
 40
0.1191195897466221
 40
0.1682636632444408
 40
0.2174064505680107
 40
0.2665366232233042
 40
0.3156584629997019
 40
0.3647762739654816
 40
0.4138943709762987
 40
0.4630170681215646
 40
0.5121486671752384
 40
0.5612933129819377
 40
0.6104354530149069
 40
0.6595651669190589
 40
0.7086867377091449
 40
0.7578044701733458
 40
0.8069226793776139
 40
0.8560456791108357
 40
0.9051777703373568
 40
0.9543229301680441
 40
1.0
 40
1.0
 40
1.0
 40
1.0
 10
101.6250701666561
 20
-11.88165728910128
 30
0.0
 10
101.2585606096833
 20
-12.01397452921904
 30
0.0
 10
100.2235442085636
 20
-12.38763603699514
 30
0.0
 10
98.46196269115595
 20
-12.67961638703842
 30
0.0
 10
96.339389223372
 20
-12.73942445745473
 30
0.0
 10
94.15832554053658
 20
-12.41010573886697
 30
0.0
 10
91.97728262104842
 20
-11.72026161255864
 30
0.0
 10
89.79694680504609
 20
-10.68464184820926
 30
0.0
 10
87.61713945133286
 20
-9.335330976891555
 30
0.0
 10
85.43760669314904
 20
-7.711588523091546
 30
0.0
 10
83.2580554193641
 20
-5.861190734032079
 30
0.0
 10
81.07818941445221
 20
-3.838415131799514
 30
0.0
 10
78.89776644512136
 20
-1.70257432665026
 30
0.0
 10
76.71663774211952
 20
0.4832009200966083
 30
0.0
 10
74.53563782527965
 20
2.654838005873046
 30
0.0
 10
72.35532697137724
 20
4.748433469467385
 30
0.0
 10
70.17553904802686
 20
6.702201907498407
 30
0.0
 10
67.99601098064066
 20
8.45905811077401
 30
0.0
 10
65.8164528538683
 20
9.96666942656837
 30
0.0
 10
63.63656477906983
 20
11.18365367803765
 30
0.0
 10
61.45611862091195
 20
12.06344385225217
 30
0.0
 10
59.32620188512165
 20
12.60716249376213
 30
0.0
 10
57.92338440138757
 20
12.6615559953373
 30
0.0
 10
57.24762943977173
 20
12.68775803444452
 30
0.0
  0
SPLINE
  5
D7
330
1F
100
AcDbEntity
  8
0
  6
Continuous
 62
     1
370
    15
100
AcDbSpline
210
0.0
220
0.0
230
1.0
 70
     8
 71
     3
 72
    13
 73
     9
 74
     0
 42
0.000000001
 43
0.00000001
 40
0.0
 40
0.0
 40
0.0
 40
0.0
 40
0.1519146510828549
 40
0.3214794839552744
 40
0.4910364248901737
 40
0.6606463738785882
 40
0.8303546966800107
 40
1.0
 40
1.0
 40
1.0
 40
1.0
 10
21.82726254526693
 20
-11.89304837000865
 30
0.0
 10
21.22826950298358
 20
-12.08748309814779
 30
0.0
 10
19.96068949833329
 20
-12.49894292522571
 30
0.0
 10
18.02528347734328
 20
-12.72910588986904
 30
0.0
 10
16.02005109801427
 20
-12.68529661404682
 30
0.0
 10
14.01405928471336
 20
-12.31155068443196
 30
0.0
 10
12.00669165401338
 20
-11.65285319268278
 30
0.0
 10
10.66881440141416
 20
-10.97227132234739
 30
0.0
 10
10.00000000000002
 20
-10.6320435807236
 30
0.0
  0
SPLINE
  5
D8
330
1F
100
AcDbEntity
  8
0
  6
Continuous
 62
     1
370
    15
100
AcDbSpline
210
0.0
220
0.0
230
1.0
 70
    24
 71
     3
 72
    20
 73
    16
 74
     0
 42
0.000000001
 43
0.00000001
 40
0.0
 40
0.0
 40
0.0
 40
0.0
 40
0.2499999999999998
 40
0.2499999999999998
 40
0.3749999999999997
 40
0.3749999999999997
 40
0.4999999999999997
 40
0.4999999999999997
 40
0.6249999999999997
 40
0.6249999999999997
 40
0.7499999999999996
 40
0.7499999999999996
 40
0.8749999999999998
 40
0.8749999999999998
 40
1.0
 40
1.0
 40
1.0
 40
1.0
 10
10.0
 20
-3.592519077810585
 30
0.0
 10
10.0
 20
-3.680360857988819
 30
0.0
 10
10.0
 20
-3.841443522095132
 30
0.0
 10
10.0
 20
-4.272257607949205
 30
0.0
 10
10.0
 20
-4.44764539025419
 30
0.0
 10
10.0
 20
-4.874807640708585
 30
0.0
 10
10.0
 20
-5.126746477165205
 30
0.0
 10
10.0
 20
-5.71515719825203
 30
0.0
 10
10.0
 20
-6.05181851592473
 30
0.0
 10
10.0
 20
-6.807432483921809
 30
0.0
 10
10.0
 20
-7.226500547637956
 30
0.0
 10
10.0
 20
-8.129280935544653
 30
0.0
 10
10.0
 20
-8.612908392923305
 30
0.0
 10
10.0
 20
-9.610835469792057
 30
0.0
 10
10.0
 20
-10.12481192845671
 30
0.0
 10
10.0
 20
-10.63204358072364
 30
0.0
  0
SPLINE
  5
D9
330
1F
100
AcDbEntity
  8
0
  6
Continuous
 62
     1
370
    15
100
AcDbSpline
210
0.0
220
0.0
230
1.0
 70
     8
 71
     3
 72
    15
 73
    11
 74
     0
 42
0.000000001
 43
0.00000001
 40
0.0
 40
0.0
 40
0.0
 40
0.0
 40
0.1230372865124598
 40
0.2461202786580354
 40
0.3691319240184096
 40
0.4921051246535827
 40
0.6150840490108891
 40
0.7487656677360186
 40
0.8824795586547332
 40
1.0
 40
1.0
 40
1.0
 40
1.0
 10
10.0
 20
-3.592519077810571
 30
0.0
 10
10.6688144316786
 20
-4.22534467774399
 30
0.0
 10
12.006691744818
 20
-5.491230958337299
 30
0.0
 10
14.01405892142512
 20
-7.228337227128909
 30
0.0
 10
16.0200524592668
 20
-8.792608810077102
 30
0.0
 10
18.02527839690869
 20
-10.13535790202576
 30
0.0
 10
20.08844115690054
 20
-11.26006613329533
 30
0.0
 10
22.21073045018268
 20
-12.09850352959714
 30
0.0
 10
24.30349004120546
 20
-12.61796447908822
 30
0.0
 10
25.66952881641754
 20
-12.66029287793838
 30
0.0
 10
26.30852380691504
 20
-12.68009292703789
 30
0.0
  0
SPLINE
  5
DA
330
1F
100
AcDbEntity
  8
0
  6
Continuous
 62
     1
370
    15
100
AcDbSpline
210
0.0
220
0.0
230
1.0
 70
     8
 71
     3
 72
    28
 73
    24
 74
     0
 42
0.000000001
 43
0.00000001
 40
0.0
 40
0.0
 40
0.0
 40
0.0
 40
0.0429927860018983
 40
0.0921165813028872
 40
0.1412355859973377
 40
0.1903541139440003
 40
0.239476480278711
 40
0.2886069898593687
 40
0.3377499257700904
 40
0.386895367495124
 40
0.4360277622558345
 40
0.4851512549639674
 40
0.53427014746315
 40
0.5833887539126622
 40
0.6325113892380411
 40
0.68164235757727
 40
0.7307859407890755
 40
0.7799308101959601
 40
0.8290627211276733
 40
0.8742683158615091
 40
0.9194690349162514
 40
0.9646810812565598
 40
1.0
 40
1.0
 40
1.0
 40
1.0
 10
61.72872356553654
 20
11.89928735790362
 30
0.0
 10
62.36471944489786
 20
12.10083626895057
 30
0.0
 10
63.72740773699647
 20
12.53267608156811
 30
0.0
 10
65.81644650041096
 20
12.7508549118486
 30
0.0
 10
67.99601268295065
 20
12.63746324164522
 30
0.0
 10
70.17553859185935
 20
12.14356785959357
 30
0.0
 10
72.35532709363225
 20
11.295119073176
 30
0.0
 10
74.535637792511
 20
10.11386738050603
 30
0.0
 10
76.71663775089769
 20
8.635424178460362
 30
0.0
 10
78.89776644278366
 20
6.903103239323642
 30
0.0
 10
81.07818941502698
 20
4.96772681719325
 30
0.0
 10
83.25805541940186
 20
2.886506573378073
 30
0.0
 10
85.4376066924235
 20
0.7205326795898581
 30
0.0
 10
87.61713945419739
 20
-1.466614792329995
 30
0.0
 10
89.79694679431171
 20
-3.610732189444838
 30
0.0
 10
91.97728266113273
 20
-5.64891319471326
 30
0.0
 10
94.1583253908932
 20
-7.520916582567087
 30
0.0
 10
96.33938978179854
 20
-9.171988483982833
 30
0.0
 10
98.46196067806255
 20
-10.5159578004458
 30
0.0
 10
100.5254754428632
 20
-11.54378074928815
 30
0.0
 10
102.5309883532033
 20
-12.24551654480946
 30
0.0
 10
104.390434761833
 20
-12.64747519564918
 30
0.0
 10
105.5819118607542
 20
-12.66513610554363
 30
0.0
 10
106.1044646800046
 20
-12.67288175022638
 30
0.0
  0
LINE
  5
DB
330
1F
100
AcDbEntity
  8
0
  6
Continuous
 62
     1
370
    15
100
AcDbLine
 10
10.0
 20
-12.34556544055947
 30
0.0
 11
10.0
 21
-10.63204358072363
 31
0.0
  0
LINE
  5
DC
330
1F
100
AcDbEntity
  8
0
  6
Continuous
 62
     1
370
    15
100
AcDbLine
 10
108.552
 20
4.126265105277165
 30
0.0
 11
108.552
 21
7.914474115902206
 31
0.0
  0
LINE
  5
DD
330
1F
100
AcDbEntity
  8
0
  6
Continuous
 62
     1
370
    15
100
AcDbLine
 10
10.0
 20
-3.592519077810567
 30
0.0
 11
10.0
 21
0.6995610553144985
 31
0.0
  0
LINE
  5
DE
330
1F
100
AcDbEntity
  8
0
  6
Continuous
 62
     1
370
    15
100
AcDbLine
 10
108.552
 20
-8.33869191284483
 30
0.0
 11
108.552
 21
-4.644409563570613
 31
0.0
  0
LINE
  5
DF
330
1F
100
AcDbEntity
  8
0
  6
Continuous
 62
     1
370
    15
100
AcDbLine
 10
10.0
 20
8.753046362748833
 30
0.0
 11
10.0
 21
11.33160463603818
 31
0.0
  0
LINE
  5
E0
330
1F
100
AcDbEntity
  8
0
  6
Continuous
 62
     1
370
    15
100
AcDbLine
 10
111.6
 20
0.0000000000000055
 30
0.0
 11
111.6
 21
9.652000000000008
 31
0.0
  0
LINE
  5
E1
330
1F
100
AcDbEntity
  8
0
  6
Continuous
 62
     1
370
    15
100
AcDbLine
 10
111.6
 20
-9.651999999999994
 30
0.0
 11
111.6
 21
0.0000000000000055
 31
0.0
  0
LINE
  5
E2
330
1F
100
AcDbEntity
  8
0
  6
Continuous
 62
     8
370
    15
100
AcDbLine
 10
108.552
 20
12.46495701812199
 30
0.0
 11
108.552
 21
12.70000000000001
 31
0.0
  0
LINE
  5
E3
330
1F
100
AcDbEntity
  8
0
  6
Continuous
 62
     8
370
    15
100
AcDbLine
 10
108.552
 20
-12.7
 30
0.0
 11
108.552
 21
-12.55888367947279
 31
0.0
  0
LINE
  5
E4
330
1F
100
AcDbEntity
  8
중심선
100
AcDbLine
 10
-69.20000000000002
 20
-0.0000000000000008
 30
0.0
 11
114.6
 21
-0.0000000000000008
 31
0.0
  0
CIRCLE
  5
E5
330
1F
100
AcDbEntity
  8
외형선
100
AcDbCircle
 10
0.0
 20
0.0
 30
0.0
 40
3.000000000000004
  0
INSERT
  5
E6
330
1F
100
AcDbEntity
  8
0
  6
Continuous
 62
     7
100
AcDbBlockReference
 66
     1
  2
블럭10
 10
-16.62936049909348
 20
-51.78679627639981
 30
0.0
  0
ATTRIB
  5
E7
330
E6
100
AcDbEntity
  8
FORMAT
 62
     2
100
AcDbText
 10
-27.68038085127795
 20
-49.71142936356762
 30
0.0
 40
4.233333333333333
  1
GMG22955[ 6 FLUTE ]
 41
0.75
  7
SLDTEXTSTYLE0
 11
-27.68038085127795
 21
-51.82809603023428
 31
0.0
100
AcDbAttribute
  2
AUTOATTR0
 70
     0
 74
     1
  0
SEQEND
  5
E8
330
E6
100
AcDbEntity
  8
0
  6
Continuous
 62
     7
  0
HATCH
  5
E9
330
1F
100
AcDbEntity
  8
중심선
100
AcDbHatch
 10
0.0
 20
0.0
 30
0.0
210
0.0
220
0.0
230
1.0
  2
SOLID
 70
     1
 71
     0
 91
        1
 92
        0
 93
        4
 72
     1
 10
-10.91445119471263
 20
-35.53962197475587
 11
-14.36072643854991
 21
-35.53962197475587
 72
     1
 10
-14.36072643854991
 20
-35.53962197475587
 11
-16.48895629775393
 21
-38.07594755532847
 72
     1
 10
-16.48895629775394
 20
-38.07594755532847
 11
-13.0426479688035
 21
-38.07590812602598
 72
     1
 10
-13.0426479688035
 20
-38.07590812602598
 11
-10.91445119471263
 21
-35.53962197475587
 97
        0
 75
     0
 76
     1
 98
        1
 10
-6.386651720807965
 20
0.2603780252441217
  0
HATCH
  5
EA
330
1F
100
AcDbEntity
  8
중심선
100
AcDbHatch
 10
0.0
 20
0.0
 30
0.0
210
0.0
220
0.0
230
1.0
  2
SOLID
 70
     1
 71
     0
 91
        1
 92
        0
 93
        4
 72
     1
 10
-5.901687203676678
 20
-35.53962197475587
 11
-9.34796244751396
 21
-35.53962197475587
 72
     1
 10
-9.34796244751396
 20
-35.53962197475587
 11
-13.87910045587135
 21
-40.93962197475589
 72
     1
 10
-13.87910045587135
 20
-40.93962197475589
 11
-10.43282521203407
 21
-40.93962197475589
 72
     1
 10
-10.43282521203407
 20
-40.93962197475589
 11
-5.901687203676678
 21
-35.53962197475587
 97
        0
 75
     0
 76
     1
 98
        1
 10
-6.386651720807965
 20
0.2603780252441217
  0
HATCH
  5
EB
330
1F
100
AcDbEntity
  8
중심선
100
AcDbHatch
 10
0.0
 20
0.0
 30
0.0
210
0.0
220
0.0
230
1.0
  2
SOLID
 70
     1
 71
     0
 91
        1
 92
        0
 93
        4
 72
     1
 10
-0.8889232126407824
 20
-35.5396219747559
 11
-4.335198456477898
 21
-35.53962197475587
 72
     1
 10
-4.335198456477898
 20
-35.53962197475587
 11
-11.38363535836715
 21
-43.93962197475589
 72
     1
 10
-11.38363535836715
 20
-43.93962197475589
 11
-7.937360114529865
 21
-43.93962197475589
 72
     1
 10
-7.937360114529865
 20
-43.93962197475589
 11
-0.8889232126407816
 21
-35.5396219747559
 97
        0
 75
     0
 76
     1
 98
        1
 10
-6.386651720807965
 20
0.2603780252441217
  0
HATCH
  5
EC
330
1F
100
AcDbEntity
  8
중심선
100
AcDbHatch
 10
0.0
 20
0.0
 30
0.0
210
0.0
220
0.0
230
1.0
  2
SOLID
 70
     1
 71
     0
 91
        1
 92
        0
 93
        6
 72
     3
 10
3.910967218371416
 20
-39.73962197480715
 11
3.960054785062283
 21
1.540882976769353E-10
 40
0.3939339440162628
 50
17.09539180608437
 51
320.0019657685081
 73
     0
 72
     1
 10
5.593966874072013
 20
-38.32751597939418
 11
7.89926874777305
 21
-36.39318926934626
 72
     3
 10
3.91096721831857
 20
-39.73962197475603
 11
6.600054785286831
 21
-1.278976924368180E-13
 40
0.6363583540795978
 50
39.99873849337411
 51
368.4976242363725
 73
     1
 72
     1
 10
10.33629971021918
 20
-38.7796219746859
 11
2.591034525154493
 21
-38.77962197468587
 72
     1
 10
2.591034525154493
 20
-38.77962197468587
 11
2.591009480708559
 21
-40.69962197468579
 72
     1
 10
2.591009480708559
 20
-40.69962197468579
 11
7.032389250180596
 21
-40.69962197468576
 97
        0
 75
     0
 76
     1
 98
        1
 10
-6.386651720807965
 20
0.2603780252441217
  0
POINT
  5
ED
330
1F
100
AcDbEntity
  8
치수문자_일반주서
100
AcDbPoint
 10
0.0
 20
0.0
 30
0.0
  0
DIMENSION
  5
EE
330
1F
100
AcDbEntity
  8
치수문자_일반주서
100
AcDbDimension
  2
_D
 10
111.6
 20
45.35555141807178
 30
0.0
 11
22.7
 21
45.35555141807178
 31
0.0
 70
   160
  1
<>
 71
     2
 42
177.8
  3
SLDDIMSTYLE0
100
AcDbAlignedDimension
 13
-66.20000000000002
 23
12.2
 33
0.0
 14
111.6
 24
9.652000000000008
 34
0.0
 50
-0.0000000000000023
100
AcDbRotatedDimension
1001
ACAD
1000
DSTYLE
1002
{
1070
   273
1070
     7
1002
}
  0
DIMENSION
  5
102
330
1F
100
AcDbEntity
  8
치수문자_일반주서
100
AcDbDimension
  2
_D_1
 10
10.0
 20
27.27899453033794
 30
0.0
 11
59.68240452760595
 21
27.27899453033794
 31
0.0
 70
   160
  1
<>
 71
     2
 42
101.6
  3
SLDDIMSTYLE0
100
AcDbAlignedDimension
 13
111.6
 23
9.652000000000008
 33
0.0
 14
10.0
 24
12.34556544055946
 34
0.0
 50
0.000000000000008
100
AcDbRotatedDimension
1001
ACAD
1000
DSTYLE
1002
{
1070
   273
1070
     7
1002
}
  0
DIMENSION
  5
115
330
1F
100
AcDbEntity
  8
치수문자_일반주서
100
AcDbDimension
  2
_D_2
 10
-79.19999999999997
 20
-12.70000000000005
 30
0.0
 11
-79.20000000000002
 21
-0.0000000000000032
 31
0.0
 70
   160
  1
%%c<>
 71
     2
 42
25.4
 52
-270.0
  3
SLDDIMSTYLE1
100
AcDbAlignedDimension
 13
-65.7
 23
12.7
 33
0.0
 14
-65.7
 24
-12.7
 34
0.0
 50
90.0000000000002
100
AcDbRotatedDimension
1001
ACAD
1000
DSTYLE
1002
{
1070
   273
1070
     7
1002
}
  0
INSERT
  5
130
330
1F
100
AcDbEntity
  8
외형선
100
AcDbBlockReference
  2
SW_DOWELSYMBOL_0
 10
0.0
 20
0.0
 30
0.0
  0
DIMENSION
  5
157
102
{ACAD_REACTORS
102
}
102
{ACAD_XDICTIONARY
360
158
102
}
330
1F
100
AcDbEntity
  8
치수문자_일반주서
100
AcDbDimension
  2
*D6
 10
108.552
 20
9.652000000000008
 30
0.0
 11
128.3732510589784
 21
26.18171538989659
 31
0.0
 70
   164
  1
<>
 71
     5
 42
3.048000000000015
  3
SLDDIMSTYLE0
100
AcDbRadialDimension
 15
110.892840983009
 25
11.60411871879389
 35
0.0
 40
0.0
1001
ACAD
1000
DSTYLE
1002
{
1070
   171
1070
     3
1070
   273
1070
     2
1002
}
1001
ACAD_DSTYLE_DIMRADIAL_EXTENSION
1070
   387
1070
     1
1070
   388
1040
0.0
1070
   390
1040
1.570796326794897
  0
DIMENSION
  5
165
102
{ACAD_REACTORS
102
}
102
{ACAD_XDICTIONARY
360
166
102
}
330
1F
100
AcDbEntity
  8
치수문자_일반주서
100
AcDbDimension
  2
*D7
 10
125.5313821377397
 20
-12.7
 30
0.0
 11
122.9063821377397
 21
0.0000000000000124
 31
0.0
 70
    32
  1
{%%c<>}
 71
     5
 42
25.40000000000002
  3
SLDDIMSTYLE0
100
AcDbAlignedDimension
 13
108.552
 23
12.70000000000002
 33
0.0
 14
108.552
 24
-12.7
 34
0.0
 50
90.0
100
AcDbRotatedDimension
1001
ACAD
1000
DSTYLE
1002
{
1070
   273
1070
     7
1002
}
  0
ENDSEC
  0
SECTION
  2
OBJECTS
  0
DICTIONARY
  5
C
330
0
100
AcDbDictionary
281
     1
  3
ACAD_GROUP
350
D
  3
ACAD_IMAGE_VARS
350
154
  3
ACAD_LAYOUT
350
1A
  3
ACAD_MLINESTYLE
350
17
  3
ACAD_PLOTSETTINGS
350
19
  3
ACAD_PLOTSTYLENAME
350
E
  3
ACAD_SCALELIST
350
47
  3
APPDATA
350
152
  3
DWGPROPS
350
177
  0
DICTIONARY
  5
158
330
157
100
AcDbDictionary
280
     1
281
     1
  0
DICTIONARY
  5
166
330
165
100
AcDbDictionary
280
     1
281
     1
  0
DICTIONARY
  5
D
102
{ACAD_REACTORS
330
C
102
}
330
C
100
AcDbDictionary
281
     1
  0
RASTERVARIABLES
  5
154
102
{ACAD_REACTORS
330
C
102
}
330
C
100
AcDbRasterVariables
 90
        0
 70
     1
 71
     1
 72
     1
  0
DICTIONARY
  5
1A
102
{ACAD_REACTORS
330
C
102
}
330
C
100
AcDbDictionary
281
     1
  3
Layout1
350
1E
  3
Layout2
350
26
  3
Model
350
22
  0
DICTIONARY
  5
17
102
{ACAD_REACTORS
330
C
102
}
330
C
100
AcDbDictionary
281
     1
  3
Standard
350
18
  0
DICTIONARY
  5
19
102
{ACAD_REACTORS
330
C
102
}
330
C
100
AcDbDictionary
281
     1
  0
ACDBDICTIONARYWDFLT
  5
E
102
{ACAD_REACTORS
330
C
102
}
330
C
100
AcDbDictionary
281
     1
  3
Normal
350
F
100
AcDbDictionaryWithDefault
340
F
  0
DICTIONARY
  5
47
102
{ACAD_REACTORS
330
C
102
}
330
C
100
AcDbDictionary
281
     1
  3
A0
350
48
  3
A1
350
49
  3
A2
350
4A
  3
A3
350
4B
  3
A4
350
4C
  3
A5
350
4D
  3
A6
350
4E
  3
A7
350
4F
  3
A8
350
50
  3
A9
350
51
  3
B0
350
52
  3
B1
350
53
  3
B2
350
54
  3
B3
350
55
  3
B4
350
56
  3
B5
350
57
  3
B6
350
58
  3
B7
350
59
  3
B8
350
5A
  3
B9
350
5B
  3
C0
350
5C
  3
C1
350
5D
  3
C2
350
5E
  3
C3
350
5F
  3
C4
350
60
  3
C5
350
61
  3
C6
350
62
  3
C7
350
63
  3
C8
350
64
  3
C9
350
65
  3
D0
350
66
  3
D1
350
67
  3
D2
350
68
  0
DICTIONARY
  5
152
102
{ACAD_REACTORS
330
C
102
}
330
C
100
AcDbDictionary
281
     1
  0
XRECORD
  5
177
102
{ACAD_REACTORS
330
C
102
}
330
C
100
AcDbXrecord
280
     1
  1
DWGPROPS COOKIE
  2

  3

  4

  6

  7

  8
12016016
  9

300
=
301
=
302
=
303
=
304
=
305
=
306
=
307
=
308
=
309
=
 40
0.0
 41
2458236.377509907
 42
2458242.083594815
  1

 90
        0
  0
LAYOUT
  5
1E
102
{ACAD_REACTORS
330
1A
102
}
330
1A
100
AcDbPlotSettings
  1

  2
none_device
  4

  6

 40
0.0
 41
0.0
 42
0.0
 43
0.0
 44
0.0
 45
0.0
 46
0.0
 47
0.0
 48
0.0
 49
0.0
140
0.0
141
0.0
142
1.0
143
1.0
 70
   688
 72
     1
 73
     0
 74
     5
  7

 75
    16
147
1.0
148
0.0
149
0.0
100
AcDbLayout
  1
Layout1
 70
     1
 71
     1
 10
0.0
 20
0.0
 11
420.0
 21
297.0
 12
0.0
 22
0.0
 32
0.0
 14
1.000000000000000E+20
 24
1.000000000000000E+20
 34
1.000000000000000E+20
 15
-1.000000000000000E+20
 25
-1.000000000000000E+20
 35
-1.000000000000000E+20
146
0.0
 13
0.0
 23
0.0
 33
0.0
 16
1.0
 26
0.0
 36
0.0
 17
0.0
 27
1.0
 37
0.0
 76
     0
330
1B
  0
LAYOUT
  5
26
102
{ACAD_REACTORS
330
1A
102
}
330
1A
100
AcDbPlotSettings
  1

  2
none_device
  4

  6

 40
0.0
 41
0.0
 42
0.0
 43
0.0
 44
0.0
 45
0.0
 46
0.0
 47
0.0
 48
0.0
 49
0.0
140
0.0
141
0.0
142
1.0
143
1.0
 70
   688
 72
     1
 73
     0
 74
     5
  7

 75
    16
147
1.0
148
0.0
149
0.0
100
AcDbLayout
  1
Layout2
 70
     1
 71
     2
 10
0.0
 20
0.0
 11
0.0
 21
0.0
 12
0.0
 22
0.0
 32
0.0
 14
0.0
 24
0.0
 34
0.0
 15
0.0
 25
0.0
 35
0.0
146
0.0
 13
0.0
 23
0.0
 33
0.0
 16
1.0
 26
0.0
 36
0.0
 17
0.0
 27
1.0
 37
0.0
 76
     0
330
23
  0
LAYOUT
  5
22
102
{ACAD_REACTORS
330
1A
102
}
330
1A
100
AcDbPlotSettings
  1

  2
none_device
  4
ANSI_A_(11.00_x_8.50_Inches)
  6

 40
6.35
 41
19.05
 42
6.35000508
 43
19.05000254
 44
279.4
 45
215.9
 46
108.0811590598097
 47
85.40358131321564
 48
0.0
 49
0.0
140
0.0
141
0.0
142
0.0532276583068729
143
1.0
 70
  1696
 72
     0
 73
     0
 74
     0
  7

 75
     0
147
0.0235690232323232
148
0.0
149
0.0
100
AcDbLayout
  1
Model
 70
     1
 71
     0
 10
0.0
 20
0.0
 11
420.0
 21
297.0
 12
0.0
 22
0.0
 32
0.0
 14
-83.57500000000006
 24
-49.71142936356762
 34
0.0
 15
139.9651370784312
 25
49.73055141807178
 35
0.0
146
0.0
 13
0.0
 23
0.0
 33
0.0
 16
1.0
 26
0.0
 36
0.0
 17
0.0
 27
1.0
 37
0.0
 76
     0
330
1F
331
29
  0
MLINESTYLE
  5
18
102
{ACAD_REACTORS
330
17
102
}
330
17
100
AcDbMlineStyle
  2
Standard
 70
     0
  3

 62
   256
 51
90.0
 52
90.0
 71
     2
 49
0.5
 62
   256
  6
BYLAYER
 49
-0.5
 62
   256
  6
BYLAYER
  0
ACDBPLACEHOLDER
  5
F
102
{ACAD_REACTORS
330
E
102
}
330
E
  0
SCALE
  5
48
102
{ACAD_REACTORS
330
47
102
}
330
47
100
AcDbScale
 70
     0
300
1:1
140
1.0
141
1.0
290
     1
  0
SCALE
  5
49
102
{ACAD_REACTORS
330
47
102
}
330
47
100
AcDbScale
 70
     0
300
1:2
140
1.0
141
2.0
290
     0
  0
SCALE
  5
4A
102
{ACAD_REACTORS
330
47
102
}
330
47
100
AcDbScale
 70
     0
300
1:4
140
1.0
141
4.0
290
     0
  0
SCALE
  5
4B
102
{ACAD_REACTORS
330
47
102
}
330
47
100
AcDbScale
 70
     0
300
1:5
140
1.0
141
5.0
290
     0
  0
SCALE
  5
4C
102
{ACAD_REACTORS
330
47
102
}
330
47
100
AcDbScale
 70
     0
300
1:8
140
1.0
141
8.0
290
     0
  0
SCALE
  5
4D
102
{ACAD_REACTORS
330
47
102
}
330
47
100
AcDbScale
 70
     0
300
1:10
140
1.0
141
10.0
290
     0
  0
SCALE
  5
4E
102
{ACAD_REACTORS
330
47
102
}
330
47
100
AcDbScale
 70
     0
300
1:16
140
1.0
141
16.0
290
     0
  0
SCALE
  5
4F
102
{ACAD_REACTORS
330
47
102
}
330
47
100
AcDbScale
 70
     0
300
1:20
140
1.0
141
20.0
290
     0
  0
SCALE
  5
50
102
{ACAD_REACTORS
330
47
102
}
330
47
100
AcDbScale
 70
     0
300
1:30
140
1.0
141
30.0
290
     0
  0
SCALE
  5
51
102
{ACAD_REACTORS
330
47
102
}
330
47
100
AcDbScale
 70
     0
300
1:40
140
1.0
141
40.0
290
     0
  0
SCALE
  5
52
102
{ACAD_REACTORS
330
47
102
}
330
47
100
AcDbScale
 70
     0
300
1:50
140
1.0
141
50.0
290
     0
  0
SCALE
  5
53
102
{ACAD_REACTORS
330
47
102
}
330
47
100
AcDbScale
 70
     0
300
1:100
140
1.0
141
100.0
290
     0
  0
SCALE
  5
54
102
{ACAD_REACTORS
330
47
102
}
330
47
100
AcDbScale
 70
     0
300
2:1
140
2.0
141
1.0
290
     0
  0
SCALE
  5
55
102
{ACAD_REACTORS
330
47
102
}
330
47
100
AcDbScale
 70
     0
300
4:1
140
4.0
141
1.0
290
     0
  0
SCALE
  5
56
102
{ACAD_REACTORS
330
47
102
}
330
47
100
AcDbScale
 70
     0
300
8:1
140
8.0
141
1.0
290
     0
  0
SCALE
  5
57
102
{ACAD_REACTORS
330
47
102
}
330
47
100
AcDbScale
 70
     0
300
10:1
140
10.0
141
1.0
290
     0
  0
SCALE
  5
58
102
{ACAD_REACTORS
330
47
102
}
330
47
100
AcDbScale
 70
     0
300
100:1
140
100.0
141
1.0
290
     0
  0
SCALE
  5
59
102
{ACAD_REACTORS
330
47
102
}
330
47
100
AcDbScale
 70
     0
300
1/128" = 1'-0"
140
0.0078125
141
12.0
290
     0
  0
SCALE
  5
5A
102
{ACAD_REACTORS
330
47
102
}
330
47
100
AcDbScale
 70
     0
300
1/64" = 1'-0"
140
0.015625
141
12.0
290
     0
  0
SCALE
  5
5B
102
{ACAD_REACTORS
330
47
102
}
330
47
100
AcDbScale
 70
     0
300
1/32" = 1'-0"
140
0.03125
141
12.0
290
     0
  0
SCALE
  5
5C
102
{ACAD_REACTORS
330
47
102
}
330
47
100
AcDbScale
 70
     0
300
1/16" = 1'-0"
140
0.0625
141
12.0
290
     0
  0
SCALE
  5
5D
102
{ACAD_REACTORS
330
47
102
}
330
47
100
AcDbScale
 70
     0
300
3/32" = 1'-0"
140
0.09375
141
12.0
290
     0
  0
SCALE
  5
5E
102
{ACAD_REACTORS
330
47
102
}
330
47
100
AcDbScale
 70
     0
300
1/8" = 1'-0"
140
0.125
141
12.0
290
     0
  0
SCALE
  5
5F
102
{ACAD_REACTORS
330
47
102
}
330
47
100
AcDbScale
 70
     0
300
3/16" = 1'-0"
140
0.1875
141
12.0
290
     0
  0
SCALE
  5
60
102
{ACAD_REACTORS
330
47
102
}
330
47
100
AcDbScale
 70
     0
300
1/4" = 1'-0"
140
0.25
141
12.0
290
     0
  0
SCALE
  5
61
102
{ACAD_REACTORS
330
47
102
}
330
47
100
AcDbScale
 70
     0
300
3/8" = 1'-0"
140
0.375
141
12.0
290
     0
  0
SCALE
  5
62
102
{ACAD_REACTORS
330
47
102
}
330
47
100
AcDbScale
 70
     0
300
1/2" = 1'-0"
140
0.5
141
12.0
290
     0
  0
SCALE
  5
63
102
{ACAD_REACTORS
330
47
102
}
330
47
100
AcDbScale
 70
     0
300
3/4" = 1'-0"
140
0.75
141
12.0
290
     0
  0
SCALE
  5
64
102
{ACAD_REACTORS
330
47
102
}
330
47
100
AcDbScale
 70
     0
300
1" = 1'-0"
140
1.0
141
12.0
290
     0
  0
SCALE
  5
65
102
{ACAD_REACTORS
330
47
102
}
330
47
100
AcDbScale
 70
     0
300
1-1/2" = 1'-0"
140
1.5
141
12.0
290
     0
  0
SCALE
  5
66
102
{ACAD_REACTORS
330
47
102
}
330
47
100
AcDbScale
 70
     0
300
3" = 1'-0"
140
3.0
141
12.0
290
     0
  0
SCALE
  5
67
102
{ACAD_REACTORS
330
47
102
}
330
47
100
AcDbScale
 70
     0
300
6" = 1'-0"
140
6.0
141
12.0
290
     0
  0
SCALE
  5
68
102
{ACAD_REACTORS
330
47
102
}
330
47
100
AcDbScale
 70
     0
300
1'-0" = 1'-0"
140
12.0
141
12.0
290
     0
  0
ENDSEC
  0
EOF
