  0
SECTION
  2
HEADER
  9
$ACADVER
  1
AC1015
  9
$ACADMAINTVER
 70
     6
  9
$DWGCODEPAGE
  3
ANSI_949
  9
$INSBASE
 10
0.0
 20
0.0
 30
0.0
  9
$EXTMIN
 10
-70.87500000000006
 20
-49.71142936356765
 30
0.0
  9
$EXTMAX
 10
74.83192212415653
 20
49.73055141807176
 30
0.0
  9
$LIMMIN
 10
0.0
 20
0.0
  9
$LIMMAX
 10
420.0
 20
297.0
  9
$ORTHOMODE
 70
     0
  9
$REGENMODE
 70
     1
  9
$FILLMODE
 70
     1
  9
$QTEXTMODE
 70
     0
  9
$MIRRTEXT
 70
     1
  9
$LTSCALE
 40
1.0
  9
$ATTMODE
 70
     1
  9
$TEXTSIZE
 40
3.5
  9
$TRACEWID
 40
1.0
  9
$TEXTSTYLE
  7
Standard
  9
$CLAYER
  8
0
  9
$CELTYPE
  6
ByLayer
  9
$CECOLOR
 62
   256
  9
$CELTSCALE
 40
1.0
  9
$DISPSILH
 70
     0
  9
$DIMSCALE
 40
1.0
  9
$DIMASZ
 40
3.302
  9
$DIMEXO
 40
1.0
  9
$DIMDLI
 40
3.75
  9
$DIMRND
 40
0.0
  9
$DIMDLE
 40
0.0
  9
$DIMEXE
 40
1.0
  9
$DIMTP
 40
0.0
  9
$DIMTM
 40
0.0
  9
$DIMTXT
 40
3.5
  9
$DIMCEN
 40
2.5
  9
$DIMTSZ
 40
0.0
  9
$DIMTOL
 70
     0
  9
$DIMLIM
 70
     0
  9
$DIMTIH
 70
     1
  9
$DIMTOH
 70
     1
  9
$DIMSE1
 70
     0
  9
$DIMSE2
 70
     0
  9
$DIMTAD
 70
     1
  9
$DIMZIN
 70
     0
  9
$DIMBLK
  1

  9
$DIMASO
 70
     1
  9
$DIMSHO
 70
     1
  9
$DIMPOST
  1

  9
$DIMAPOST
  1

  9
$DIMALT
 70
     0
  9
$DIMALTD
 70
     3
  9
$DIMALTF
 40
0.0393700787401575
  9
$DIMLFAC
 40
1.0
  9
$DIMTOFL
 70
     1
  9
$DIMTVP
 40
0.0
  9
$DIMTIX
 70
     0
  9
$DIMSOXD
 70
     0
  9
$DIMSAH
 70
     0
  9
$DIMBLK1
  1

  9
$DIMBLK2
  1

  9
$DIMSTYLE
  2
ISO-25
  9
$DIMCLRD
 70
     0
  9
$DIMCLRE
 70
     0
  9
$DIMCLRT
 70
     0
  9
$DIMTFAC
 40
1.0
  9
$DIMGAP
 40
1.524
  9
$DIMJUST
 70
     0
  9
$DIMSD1
 70
     0
  9
$DIMSD2
 70
     0
  9
$DIMTOLJ
 70
     0
  9
$DIMTZIN
 70
     0
  9
$DIMALTZ
 70
     0
  9
$DIMALTTZ
 70
     0
  9
$DIMUPT
 70
     0
  9
$DIMDEC
 70
     2
  9
$DIMTDEC
 70
     2
  9
$DIMALTU
 70
     2
  9
$DIMALTTD
 70
     3
  9
$DIMTXSTY
  7
Standard
  9
$DIMAUNIT
 70
     0
  9
$DIMADEC
 70
     2
  9
$DIMALTRND
 40
0.0
  9
$DIMAZIN
 70
     0
  9
$DIMDSEP
 70
    44
  9
$DIMATFIT
 70
     3
  9
$DIMFRAC
 70
     0
  9
$DIMLDRBLK
  1

  9
$DIMLUNIT
 70
     2
  9
$DIMLWD
 70
    -2
  9
$DIMLWE
 70
    -2
  9
$DIMTMOVE
 70
     0
  9
$LUNITS
 70
     2
  9
$LUPREC
 70
     2
  9
$SKETCHINC
 40
1.0
  9
$FILLETRAD
 40
10.0
  9
$AUNITS
 70
     0
  9
$AUPREC
 70
     2
  9
$MENU
  1
.
  9
$ELEVATION
 40
0.0
  9
$PELEVATION
 40
0.0
  9
$THICKNESS
 40
0.0
  9
$LIMCHECK
 70
     0
  9
$CHAMFERA
 40
0.0
  9
$CHAMFERB
 40
0.0
  9
$CHAMFERC
 40
0.0
  9
$CHAMFERD
 40
0.0
  9
$SKPOLY
 70
     0
  9
$TDCREATE
 40
2458236.751809711
  9
$TDUCREATE
 40
2458236.376809711
  9
$TDUPDATE
 40
2458242.431460856
  9
$TDUUPDATE
 40
2458242.056460856
  9
$TDINDWG
 40
0.0164846065
  9
$TDUSRTIMER
 40
2458241.971010046
  9
$USRTIMER
 70
     1
  9
$ANGBASE
 50
0.0
  9
$ANGDIR
 70
     0
  9
$PDMODE
 70
     0
  9
$PDSIZE
 40
-1.0
  9
$PLINEWID
 40
0.0
  9
$SPLFRAME
 70
     0
  9
$SPLINETYPE
 70
     6
  9
$SPLINESEGS
 70
     8
  9
$HANDSEED
  5
169
  9
$SURFTAB1
 70
     6
  9
$SURFTAB2
 70
     6
  9
$SURFTYPE
 70
     6
  9
$SURFU
 70
     6
  9
$SURFV
 70
     6
  9
$UCSBASE
  2

  9
$UCSNAME
  2

  9
$UCSORG
 10
0.0
 20
0.0
 30
0.0
  9
$UCSXDIR
 10
1.0
 20
0.0
 30
0.0
  9
$UCSYDIR
 10
0.0
 20
1.0
 30
0.0
  9
$UCSORTHOREF
  2

  9
$UCSORTHOVIEW
 70
     0
  9
$UCSORGTOP
 10
0.0
 20
0.0
 30
0.0
  9
$UCSORGBOTTOM
 10
0.0
 20
0.0
 30
0.0
  9
$UCSORGLEFT
 10
0.0
 20
0.0
 30
0.0
  9
$UCSORGRIGHT
 10
0.0
 20
0.0
 30
0.0
  9
$UCSORGFRONT
 10
0.0
 20
0.0
 30
0.0
  9
$UCSORGBACK
 10
0.0
 20
0.0
 30
0.0
  9
$PUCSBASE
  2

  9
$PUCSNAME
  2

  9
$PUCSORG
 10
0.0
 20
0.0
 30
0.0
  9
$PUCSXDIR
 10
1.0
 20
0.0
 30
0.0
  9
$PUCSYDIR
 10
0.0
 20
1.0
 30
0.0
  9
$PUCSORTHOREF
  2

  9
$PUCSORTHOVIEW
 70
     0
  9
$PUCSORGTOP
 10
0.0
 20
0.0
 30
0.0
  9
$PUCSORGBOTTOM
 10
0.0
 20
0.0
 30
0.0
  9
$PUCSORGLEFT
 10
0.0
 20
0.0
 30
0.0
  9
$PUCSORGRIGHT
 10
0.0
 20
0.0
 30
0.0
  9
$PUCSORGFRONT
 10
0.0
 20
0.0
 30
0.0
  9
$PUCSORGBACK
 10
0.0
 20
0.0
 30
0.0
  9
$USERI1
 70
     0
  9
$USERI2
 70
     0
  9
$USERI3
 70
     0
  9
$USERI4
 70
     0
  9
$USERI5
 70
     0
  9
$USERR1
 40
0.0
  9
$USERR2
 40
0.0
  9
$USERR3
 40
0.0
  9
$USERR4
 40
0.0
  9
$USERR5
 40
0.0
  9
$WORLDVIEW
 70
     1
  9
$SHADEDGE
 70
     3
  9
$SHADEDIF
 70
    70
  9
$TILEMODE
 70
     1
  9
$MAXACTVP
 70
    64
  9
$PINSBASE
 10
0.0
 20
0.0
 30
0.0
  9
$PLIMCHECK
 70
     0
  9
$PEXTMIN
 10
1.000000000000000E+20
 20
1.000000000000000E+20
 30
1.000000000000000E+20
  9
$PEXTMAX
 10
-1.000000000000000E+20
 20
-1.000000000000000E+20
 30
-1.000000000000000E+20
  9
$PLIMMIN
 10
0.0
 20
0.0
  9
$PLIMMAX
 10
0.0
 20
0.0
  9
$UNITMODE
 70
     0
  9
$VISRETAIN
 70
     1
  9
$PLINEGEN
 70
     0
  9
$PSLTSCALE
 70
     1
  9
$TREEDEPTH
 70
  3020
  9
$CMLSTYLE
  2
Standard
  9
$CMLJUST
 70
     0
  9
$CMLSCALE
 40
20.0
  9
$PROXYGRAPHICS
 70
     1
  9
$MEASUREMENT
 70
     1
  9
$CELWEIGHT
370
    -1
  9
$ENDCAPS
280
     0
  9
$JOINSTYLE
280
     0
  9
$LWDISPLAY
290
     1
  9
$INSUNITS
 70
     4
  9
$HYPERLINKBASE
  1

  9
$STYLESHEET
  1

  9
$XEDIT
290
     1
  9
$CEPSNTYPE
380
     0
  9
$PSTYLEMODE
290
     1
  9
$FINGERPRINTGUID
  2
{7B474A67-951E-4B23-AFEB-477AECF6AAEF}
  9
$VERSIONGUID
  2
{FAEB1C32-E019-11D5-929B-00C0DF256EC4}
  9
$EXTNAMES
290
     1
  9
$PSVPSCALE
 40
0.0
  9
$OLESTARTUP
290
     0
  0
ENDSEC
  0
SECTION
  2
CLASSES
  0
CLASS
  1
ACDBDICTIONARYWDFLT
  2
AcDbDictionaryWithDefault
  3
ObjectDBX Classes
 90
        0
280
     0
281
     0
  0
CLASS
  1
VISUALSTYLE
  2
AcDbVisualStyle
  3
ObjectDBX Classes
 90
     4095
280
     0
281
     0
  0
CLASS
  1
MATERIAL
  2
AcDbMaterial
  3
ObjectDBX Classes
 90
     1153
280
     0
281
     0
  0
CLASS
  1
SCALE
  2
AcDbScale
  3
ObjectDBX Classes
 90
     1153
280
     0
281
     0
  0
CLASS
  1
SUN
  2
AcDbSun
  3
SCENEOE
 90
     1153
280
     0
281
     0
  0
CLASS
  1
ACDBPLACEHOLDER
  2
AcDbPlaceHolder
  3
ObjectDBX Classes
 90
        0
280
     0
281
     0
  0
CLASS
  1
LAYOUT
  2
AcDbLayout
  3
ObjectDBX Classes
 90
        0
280
     0
281
     0
  0
CLASS
  1
TABLESTYLE
  2
AcDbTableStyle
  3
ObjectDBX Classes
 90
     4095
280
     0
281
     0
  0
CLASS
  1
MLEADERSTYLE
  2
AcDbMLeaderStyle
  3
ACDB_MLEADERSTYLE_CLASS
 90
     4095
280
     0
281
     0
  0
CLASS
  1
RASTERVARIABLES
  2
AcDbRasterVariables
  3
ISM
 90
        0
280
     0
281
     0
  0
CLASS
  1
DIMASSOC
  2
AcDbDimAssoc
  3
"AcDbDimAssoc|Product Desc:     AcDim ARX App For Dimension|Company:          Autodesk, Inc.|WEB Address:      www.autodesk.com"
 90
        0
280
     0
281
     0
  0
ENDSEC
  0
SECTION
  2
TABLES
  0
TABLE
  2
VPORT
  5
8
330
0
100
AcDbSymbolTable
 70
     1
  0
VPORT
  5
29
330
8
100
AcDbSymbolTableRecord
100
AcDbViewportTableRecord
  2
*Active
 70
     0
 10
0.0
 20
0.0
 11
1.0
 21
1.0
 12
5.081348950715125
 22
5.585337021835381
 13
0.0
 23
0.0
 14
10.0
 24
10.0
 15
10.0
 25
10.0
 16
0.0
 26
0.0
 36
1.0
 17
0.0
 27
0.0
 37
0.0
 40
172.0875933556808
 41
1.328320802005013
 42
50.0
 43
0.0
 44
0.0
 50
0.0
 51
0.0
 71
    16
 72
  2000
 73
     1
 74
     3
 75
     0
 76
     0
 77
     0
 78
     0
281
     0
 65
     1
110
0.0
120
0.0
130
0.0
111
1.0
121
0.0
131
0.0
112
0.0
122
1.0
132
0.0
 79
     0
146
0.0
  0
ENDTAB
  0
TABLE
  2
LTYPE
  5
5
330
0
100
AcDbSymbolTable
 70
     6
  0
LTYPE
  5
14
330
5
100
AcDbSymbolTableRecord
100
AcDbLinetypeTableRecord
  2
ByBlock
 70
     0
  3

 72
    65
 73
     0
 40
0.0
  0
LTYPE
  5
15
330
5
100
AcDbSymbolTableRecord
100
AcDbLinetypeTableRecord
  2
ByLayer
 70
     0
  3

 72
    65
 73
     0
 40
0.0
  0
LTYPE
  5
16
330
5
100
AcDbSymbolTableRecord
100
AcDbLinetypeTableRecord
  2
Continuous
 70
     0
  3
Solid line
 72
    65
 73
     0
 40
0.0
  0
LTYPE
  5
6A
330
5
100
AcDbSymbolTableRecord
100
AcDbLinetypeTableRecord
  2
HIDDEN
 70
     0
  3
Hidden __ __ __ __ __ __ __ __ __ __ __ __ __ __
 72
    65
 73
     2
 40
1.905
 49
1.27
 74
     0
 49
-0.635
 74
     0
  0
LTYPE
  5
6B
330
5
100
AcDbSymbolTableRecord
100
AcDbLinetypeTableRecord
  2
PHANTOM
 70
     0
  3
Phantom ______  __  __  ______  __  __  ______
 72
    65
 73
     6
 40
12.7
 49
6.35
 74
     0
 49
-1.27
 74
     0
 49
1.27
 74
     0
 49
-1.27
 74
     0
 49
1.27
 74
     0
 49
-1.27
 74
     0
  0
LTYPE
  5
6C
330
5
100
AcDbSymbolTableRecord
100
AcDbLinetypeTableRecord
  2
CENTER
 70
     0
  3
Center ____ _ ____ _ ____ _ ____ _ ____ _ ____
 72
    65
 73
     4
 40
10.16
 49
6.35
 74
     0
 49
-1.27
 74
     0
 49
1.27
 74
     0
 49
-1.27
 74
     0
  0
LTYPE
  5
6D
330
5
100
AcDbSymbolTableRecord
100
AcDbLinetypeTableRecord
  2
CENTERX2
 70
     0
  3
Center (2x) ________  __  ________  __  _____
 72
    65
 73
     4
 40
20.32
 49
12.7
 74
     0
 49
-2.54
 74
     0
 49
2.54
 74
     0
 49
-2.54
 74
     0
  0
LTYPE
  5
6E
330
5
100
AcDbSymbolTableRecord
100
AcDbLinetypeTableRecord
  2
DOT2
 70
     0
  3
Dot (.5x) ........................................
 72
    65
 73
     2
 40
0.635
 49
0.0
 74
     0
 49
-0.635
 74
     0
  0
ENDTAB
  0
TABLE
  2
LAYER
  5
2
330
0
100
AcDbSymbolTable
 70
    17
  0
LAYER
  5
10
330
2
100
AcDbSymbolTableRecord
100
AcDbLayerTableRecord
  2
0
 70
     0
 62
     7
  6
Continuous
370
    -3
390
F
  0
LAYER
  5
6F
330
2
100
AcDbSymbolTableRecord
100
AcDbLayerTableRecord
  2
FORMAT
 70
     0
 62
     2
  6
Continuous
370
    -3
390
F
  0
LAYER
  5
70
330
2
100
AcDbSymbolTableRecord
100
AcDbLayerTableRecord
  2
외형선
 70
     0
 62
   100
  6
Continuous
370
    30
390
F
  0
LAYER
  5
71
330
2
100
AcDbSymbolTableRecord
100
AcDbLayerTableRecord
  2
숨은선
 70
     0
 62
     2
  6
HIDDEN
370
    15
390
F
  0
LAYER
  5
72
330
2
100
AcDbSymbolTableRecord
100
AcDbLayerTableRecord
  2
중심선
 70
     0
 62
     1
  6
CENTERX2
370
    -3
390
F
  0
LAYER
  5
73
330
2
100
AcDbSymbolTableRecord
100
AcDbLayerTableRecord
  2
파단선
 70
     0
 62
     4
  6
Continuous
370
    -3
390
F
  0
LAYER
  5
74
330
2
100
AcDbSymbolTableRecord
100
AcDbLayerTableRecord
  2
해칭선
 70
     0
 62
     4
  6
Continuous
370
    -3
390
F
  0
LAYER
  5
75
330
2
100
AcDbSymbolTableRecord
100
AcDbLayerTableRecord
  2
가는실선
 70
     0
 62
     4
  6
Continuous
370
    -3
390
F
  0
LAYER
  5
76
330
2
100
AcDbSymbolTableRecord
100
AcDbLayerTableRecord
  2
치수_보조선
 70
     0
 62
     4
  6
Continuous
370
    -3
390
F
  0
LAYER
  5
77
330
2
100
AcDbSymbolTableRecord
100
AcDbLayerTableRecord
  2
치수문자_일반주서
 70
     0
 62
     7
  6
Continuous
370
    15
390
F
  0
LAYER
  5
78
330
2
100
AcDbSymbolTableRecord
100
AcDbLayerTableRecord
  2
개별주서
 70
     0
 62
   100
  6
Continuous
370
    30
390
F
  0
LAYER
  5
79
330
2
100
AcDbSymbolTableRecord
100
AcDbLayerTableRecord
  2
중간선
 70
     0
 62
     2
  6
Continuous
370
    15
390
F
  0
LAYER
  5
7A
330
2
100
AcDbSymbolTableRecord
100
AcDbLayerTableRecord
  2
윤곽선
 70
     0
 62
     3
  6
Continuous
370
    40
390
F
  0
LAYER
  5
7B
330
2
100
AcDbSymbolTableRecord
100
AcDbLayerTableRecord
  2
중심마크
 70
     0
 62
   100
  6
Continuous
370
    30
390
F
  0
LAYER
  5
7C
330
2
100
AcDbSymbolTableRecord
100
AcDbLayerTableRecord
  2
가상선
 70
     0
 62
     4
  6
PHANTOM
370
    -3
390
F
  0
LAYER
  5
7D
330
2
100
AcDbSymbolTableRecord
100
AcDbLayerTableRecord
  2
특수지정선
 70
     0
 62
     5
  6
CENTERX2
370
    60
390
F
  0
LAYER
  5
148
330
2
100
AcDbSymbolTableRecord
100
AcDbLayerTableRecord
  2
Defpoints
 70
     0
 62
     7
  6
Continuous
290
     0
370
    -3
390
F
  0
ENDTAB
  0
TABLE
  2
STYLE
  5
3
330
0
100
AcDbSymbolTable
 70
     2
  0
STYLE
  5
11
330
3
100
AcDbSymbolTableRecord
100
AcDbTextStyleTableRecord
  2
Standard
 70
     0
 40
0.0
 41
1.0
 50
0.0
 71
     0
 42
3.5
  3
txt
  4

  0
STYLE
  5
93
330
3
100
AcDbSymbolTableRecord
100
AcDbTextStyleTableRecord
  2
SLDTEXTSTYLE0
 70
     0
 40
0.0
 41
0.75
 50
0.0
 71
     0
 42
3.5
  3
TXT
  4

  0
ENDTAB
  0
TABLE
  2
VIEW
  5
6
330
0
100
AcDbSymbolTable
 70
     0
  0
ENDTAB
  0
TABLE
  2
UCS
  5
7
330
0
100
AcDbSymbolTable
 70
     0
  0
ENDTAB
  0
TABLE
  2
APPID
  5
9
330
0
100
AcDbSymbolTable
 70
     3
  0
APPID
  5
12
330
9
100
AcDbSymbolTableRecord
100
AcDbRegAppTableRecord
  2
ACAD
 70
     0
  0
APPID
  5
147
330
9
100
AcDbSymbolTableRecord
100
AcDbRegAppTableRecord
  2
ACAD_DSTYLE_DIMRADIAL_EXTENSION
 70
     0
  0
APPID
  5
15A
330
9
100
AcDbSymbolTableRecord
100
AcDbRegAppTableRecord
  2
PE_DIMMEASUREMENT
 70
     0
  0
ENDTAB
  0
TABLE
  2
DIMSTYLE
  5
A
330
0
100
AcDbSymbolTable
 70
     3
100
AcDbDimStyleTable
  0
DIMSTYLE
105
27
330
A
100
AcDbSymbolTableRecord
100
AcDbDimStyleTableRecord
  2
ISO-25
 70
     0
 41
2.5
 42
0.625
 43
3.75
 44
1.25
 73
     0
 74
     0
 77
     1
 78
     8
140
2.5
141
2.5
143
0.03937007874016
147
0.625
171
     3
172
     1
178
     0
271
     2
272
     2
274
     3
278
    44
283
     0
284
     8
340
11
  0
DIMSTYLE
105
E1
102
{ACAD_REACTORS
330
E0
330
F4
330
14A
330
15B
102
}
330
A
100
AcDbSymbolTableRecord
100
AcDbDimStyleTableRecord
  2
SLDDIMSTYLE0
 70
     0
 41
3.302
 44
0.0
 45
0.000000001
 73
     0
 74
     0
 77
     1
 78
     4
 79
     1
140
3.5
143
0.0393700787401575
147
0.875
148
0.000000001
170
     1
173
     1
178
     0
271
     2
272
     2
276
     2
284
    12
340
93
  0
DIMSTYLE
105
108
102
{ACAD_REACTORS
330
107
102
}
330
A
100
AcDbSymbolTableRecord
100
AcDbDimStyleTableRecord
  2
SLDDIMSTYLE1
 70
     0
 41
3.302
 44
0.0
 45
0.000000001
 73
     0
 74
     0
 77
     1
 78
     4
 79
     1
140
3.5
143
0.0393700787401575
147
0.875
148
0.000000001
170
     1
172
     1
173
     1
178
     0
271
     2
272
     2
276
     2
284
    12
289
     0
340
93
  0
ENDTAB
  0
TABLE
  2
BLOCK_RECORD
  5
1
330
0
100
AcDbSymbolTable
 70
     8
  0
BLOCK_RECORD
  5
1F
330
1
100
AcDbSymbolTableRecord
100
AcDbBlockTableRecord
  2
*Model_Space
340
22
  0
BLOCK_RECORD
  5
1B
330
1
100
AcDbSymbolTableRecord
100
AcDbBlockTableRecord
  2
*Paper_Space
340
1E
  0
BLOCK_RECORD
  5
23
330
1
100
AcDbSymbolTableRecord
100
AcDbBlockTableRecord
  2
*Paper_Space0
340
26
  0
BLOCK_RECORD
  5
7E
330
1
100
AcDbSymbolTableRecord
100
AcDbBlockTableRecord
  2
블럭10
340
0
102
{BLKREFS
331
D8
102
}
  0
BLOCK_RECORD
  5
E2
330
1
100
AcDbSymbolTableRecord
100
AcDbBlockTableRecord
  2
_D
340
0
  0
BLOCK_RECORD
  5
F5
330
1
100
AcDbSymbolTableRecord
100
AcDbBlockTableRecord
  2
_D_1
340
0
  0
BLOCK_RECORD
  5
109
330
1
100
AcDbSymbolTableRecord
100
AcDbBlockTableRecord
  2
_D_2
340
0
  0
BLOCK_RECORD
  5
11C
330
1
100
AcDbSymbolTableRecord
100
AcDbBlockTableRecord
  2
SW_DOWELSYMBOL_0
340
0
102
{BLKREFS
331
122
102
}
  0
BLOCK_RECORD
  5
14D
330
1
100
AcDbSymbolTableRecord
100
AcDbBlockTableRecord
  2
*D6
340
0
  0
BLOCK_RECORD
  5
15E
330
1
100
AcDbSymbolTableRecord
100
AcDbBlockTableRecord
  2
*D7
340
0
  0
ENDTAB
  0
ENDSEC
  0
SECTION
  2
BLOCKS
  0
BLOCK
  5
20
330
1F
100
AcDbEntity
  8
0
100
AcDbBlockBegin
  2
*Model_Space
 70
     0
 10
0.0
 20
0.0
 30
0.0
  3
*Model_Space
  1
*Model_Space
  0
ENDBLK
  5
21
330
1F
100
AcDbEntity
  8
0
100
AcDbBlockEnd
  0
BLOCK
  5
1C
330
1B
100
AcDbEntity
 67
     1
  8
0
100
AcDbBlockBegin
  2
*Paper_Space
 70
     0
 10
0.0
 20
0.0
 30
0.0
  3
*Paper_Space
  1
*Paper_Space
  0
ENDBLK
  5
1D
330
1B
100
AcDbEntity
 67
     1
  8
0
100
AcDbBlockEnd
  0
BLOCK
  5
24
330
23
100
AcDbEntity
  8
0
100
AcDbBlockBegin
  2
*Paper_Space0
 70
     0
 10
0.0
 20
0.0
 30
0.0
  3
*Paper_Space0
  1
*Paper_Space0
  0
ENDBLK
  5
25
330
23
100
AcDbEntity
  8
0
100
AcDbBlockEnd
  0
BLOCK
  5
7F
330
7E
100
AcDbEntity
  8
0
100
AcDbBlockBegin
  2
블럭10
 70
     2
 10
0.0
 20
0.0
 30
0.0
  3
블럭10
  1
블럭10
  0
ELLIPSE
  5
81
330
7E
100
AcDbEntity
  8
중심선
100
AcDbEllipse
 10
20.54032771741204
 20
12.0471743016438
 30
0.0
 11
6.600054785286829
 21
-1.261213355974178E-13
 31
0.0
210
0.0
220
0.0
230
1.0
 40
0.636358354079598
 41
0.9219305317359503
 42
6.513795318482858
  0
ELLIPSE
  5
82
330
7E
100
AcDbEntity
  8
중심선
100
AcDbEllipse
 10
20.54032771746488
 20
12.04717430159265
 30
0.0
 11
3.960054785062283
 21
1.540847449632565E-10
 31
0.0
210
0.0
220
0.0
230
1.0
 40
0.3939339440162632
 41
1.131841032648279
 42
5.62031148352944
  0
LINE
  5
83
330
7E
100
AcDbEntity
  8
중심선
100
AcDbLine
 10
2.268634060543552
 20
16.24717430164393
 30
0.0
 11
5.714909304380834
 21
16.24717430164393
 31
0.0
  0
LINE
  5
84
330
7E
100
AcDbEntity
  8
중심선
100
AcDbLine
 10
5.245725140726316
 20
7.84717430164391
 30
0.0
 11
8.692000384563599
 21
7.84717430164391
 31
0.0
  0
LINE
  5
85
330
7E
100
AcDbEntity
  8
중심선
100
AcDbLine
 10
15.74043728645272
 20
16.24717430164393
 30
0.0
 11
8.692000384563599
 21
7.84717430164391
 31
0.0
  0
LINE
  5
86
330
7E
100
AcDbEntity
  8
중심선
100
AcDbLine
 10
0.1404042013395286
 20
13.71084872107135
 30
0.0
 11
3.58671253028996
 21
13.71088815037384
 31
0.0
  0
LINE
  5
87
330
7E
100
AcDbEntity
  8
중심선
100
AcDbLine
 10
2.750260043222114
 20
10.84717430164391
 30
0.0
 11
6.196535287059397
 21
10.84717430164391
 31
0.0
  0
LINE
  5
88
330
7E
100
AcDbEntity
  8
중심선
100
AcDbLine
 10
12.29416204261559
 20
16.24717430164393
 30
0.0
 11
5.245725140726316
 21
7.84717430164391
 31
0.0
  0
LINE
  5
89
330
7E
100
AcDbEntity
  8
중심선
100
AcDbLine
 10
10.72767329541681
 20
16.24717430164393
 30
0.0
 11
6.196535287059397
 21
10.84717430164391
 31
0.0
  0
LINE
  5
8A
330
7E
100
AcDbEntity
  8
중심선
100
AcDbLine
 10
7.28139805157953
 20
16.24717430164393
 30
0.0
 11
2.750260043222114
 21
10.84717430164391
 31
0.0
  0
LINE
  5
8B
330
7E
100
AcDbEntity
  8
중심선
100
AcDbLine
 10
5.714909304380834
 20
16.24717430164393
 30
0.0
 11
3.58671253028996
 21
13.71088815037384
 31
0.0
  0
LINE
  5
8C
330
7E
100
AcDbEntity
  8
중심선
100
AcDbLine
 10
2.268634060543552
 20
16.24717430164393
 30
0.0
 11
0.1404042013395286
 21
13.71084872107135
 31
0.0
  0
LINE
  5
8D
330
7E
100
AcDbEntity
  8
중심선
100
AcDbLine
 10
7.28139805157953
 20
16.24717430164393
 30
0.0
 11
10.72767329541681
 21
16.24717430164393
 31
0.0
  0
LINE
  5
8E
330
7E
100
AcDbEntity
  8
중심선
100
AcDbLine
 10
12.29416204261559
 20
16.24717430164393
 30
0.0
 11
15.74043728645272
 21
16.24717430164393
 31
0.0
  0
LINE
  5
8F
330
7E
100
AcDbEntity
  8
중심선
100
AcDbLine
 10
19.22036997980202
 20
11.08717430171403
 30
0.0
 11
23.66174974927406
 21
11.08717430171406
 31
0.0
  0
LINE
  5
90
330
7E
100
AcDbEntity
  8
중심선
100
AcDbLine
 10
19.22039502424796
 20
13.00717430171391
 30
0.0
 11
19.22036997980202
 21
11.08717430171403
 31
0.0
  0
LINE
  5
91
330
7E
100
AcDbEntity
  8
중심선
100
AcDbLine
 10
19.22039502424796
 20
13.00717430171391
 30
0.0
 11
26.96566020931264
 21
13.00717430171391
 31
0.0
  0
LINE
  5
92
330
7E
100
AcDbEntity
  8
중심선
100
AcDbLine
 10
22.22332737316547
 20
13.45928029700563
 30
0.0
 11
24.52862924686651
 21
15.39360700705356
 31
0.0
  0
ATTDEF
  5
94
330
7E
100
AcDbEntity
  8
FORMAT
 62
     2
100
AcDbText
 10
-11.05102035218446
 20
2.075366912832191
 30
0.0
 40
4.233333333333333
  1
GMG22951[ 6 FLUTE ]
 41
0.75
  7
SLDTEXTSTYLE0
 11
-11.05102035218446
 21
-0.0412997538344756
 31
0.0
100
AcDbAttributeDefinition
  3

  2
AUTOATTR0
 70
     0
 74
     1
  0
ENDBLK
  5
80
330
7E
100
AcDbEntity
  8
0
100
AcDbBlockEnd
  0
BLOCK
  5
E3
330
E2
100
AcDbEntity
  8
0
100
AcDbBlockBegin
  2
_D
 70
     0
 10
0.0
 20
0.0
 30
0.0
  3
_D
  1
_D
  0
LINE
  5
E5
330
E2
100
AcDbEntity
  8
치수문자_일반주서
 62
     0
370
    -2
100
AcDbLine
 10
-53.5
 20
12.26249999999997
 30
0.0
 11
-53.5
 21
45.35555141807176
 31
0.0
  0
LINE
  5
E6
330
E2
100
AcDbEntity
  8
치수문자_일반주서
 62
     0
370
    -2
100
AcDbLine
 10
48.09999999999999
 20
9.714499999999985
 30
0.0
 11
48.09999999999999
 21
45.35555141807176
 31
0.0
  0
LINE
  5
E7
330
E2
100
AcDbEntity
  8
치수문자_일반주서
 62
     0
370
    -2
100
AcDbLine
 10
-50.198
 20
45.35555141807176
 30
0.0
 11
44.79799999999999
 21
45.35555141807176
 31
0.0
  0
SOLID
  5
E8
330
E2
100
AcDbEntity
  8
치수문자_일반주서
 62
     0
100
AcDbTrace
 10
-50.198
 20
45.9058847514051
 30
0.0
 11
-50.198
 21
44.80521808473843
 31
0.0
 12
-53.5
 22
45.35555141807176
 32
0.0
 13
-53.5
 23
45.35555141807176
 33
0.0
  0
SOLID
  5
E9
330
E2
100
AcDbEntity
  8
치수문자_일반주서
 62
     0
100
AcDbTrace
 10
44.79799999999999
 20
44.80521808473843
 30
0.0
 11
44.79799999999999
 21
45.9058847514051
 31
0.0
 12
48.09999999999999
 22
45.35555141807176
 32
0.0
 13
48.09999999999999
 23
45.35555141807176
 33
0.0
  0
MTEXT
  5
EA
330
E2
100
AcDbEntity
  8
치수문자_일반주서
 62
     0
100
AcDbMText
 10
-2.699999999999999
 20
49.73055141807176
 30
0.0
 40
3.5
 41
0.0
 71
     2
 72
     1
  1
\A1;101.60 [4]
  7
SLDTEXTSTYLE0
 73
     1
 44
1.0
  0
POINT
  5
EB
330
E2
100
AcDbEntity
  8
Defpoints
 62
     0
100
AcDbPoint
 10
-53.5
 20
12.19999999999997
 30
0.0
  0
POINT
  5
EC
330
E2
100
AcDbEntity
  8
Defpoints
 62
     0
100
AcDbPoint
 10
48.09999999999999
 20
9.651999999999985
 30
0.0
  0
POINT
  5
ED
330
E2
100
AcDbEntity
  8
Defpoints
 62
     0
100
AcDbPoint
 10
48.09999999999999
 20
45.35555141807176
 30
0.0
  0
ENDBLK
  5
E4
330
E2
100
AcDbEntity
  8
0
100
AcDbBlockEnd
  0
BLOCK
  5
F6
330
F5
100
AcDbEntity
  8
0
100
AcDbBlockBegin
  2
_D_1
 70
     0
 10
0.0
 20
0.0
 30
0.0
  3
_D_1
  1
_D_1
  0
LINE
  5
F8
330
F5
100
AcDbEntity
  8
치수문자_일반주서
 62
     0
370
    -2
100
AcDbLine
 10
48.09999999999999
 20
9.714499999999985
 30
0.0
 11
48.09999999999999
 21
27.27899453033791
 31
0.0
  0
LINE
  5
F9
330
F5
100
AcDbEntity
  8
치수문자_일반주서
 62
     0
370
    -2
100
AcDbLine
 10
10.0
 20
-12.29612325966309
 30
0.0
 11
10.0
 21
27.27899453033791
 31
0.0
  0
LINE
  5
FA
330
F5
100
AcDbEntity
  8
치수문자_일반주서
 62
     0
370
    -2
100
AcDbLine
 10
44.79799999999999
 20
27.27899453033791
 30
0.0
 11
13.302
 21
27.27899453033791
 31
0.0
  0
SOLID
  5
FB
330
F5
100
AcDbEntity
  8
치수문자_일반주서
 62
     0
100
AcDbTrace
 10
44.79799999999999
 20
26.72866119700458
 30
0.0
 11
44.79799999999999
 21
27.82932786367125
 31
0.0
 12
48.09999999999999
 22
27.27899453033791
 32
0.0
 13
48.09999999999999
 23
27.27899453033791
 33
0.0
  0
SOLID
  5
FC
330
F5
100
AcDbEntity
  8
치수문자_일반주서
 62
     0
100
AcDbTrace
 10
13.302
 20
27.82932786367125
 30
0.0
 11
13.302
 21
26.72866119700458
 31
0.0
 12
10.0
 22
27.27899453033791
 32
0.0
 13
10.0
 23
27.27899453033791
 33
0.0
  0
MTEXT
  5
FD
330
F5
100
AcDbEntity
  8
치수문자_일반주서
 62
     0
100
AcDbMText
 10
28.63090169785223
 20
31.65399453033791
 30
0.0
 40
3.5
 41
0.0
 71
     2
 72
     1
  1
\A1;38.10 [1 1/2]
  7
SLDTEXTSTYLE0
 73
     1
 44
1.0
  0
POINT
  5
FE
330
F5
100
AcDbEntity
  8
Defpoints
 62
     0
100
AcDbPoint
 10
48.09999999999999
 20
9.651999999999985
 30
0.0
  0
POINT
  5
FF
330
F5
100
AcDbEntity
  8
Defpoints
 62
     0
100
AcDbPoint
 10
10.0
 20
-12.35862325966309
 30
0.0
  0
POINT
  5
100
330
F5
100
AcDbEntity
  8
Defpoints
 62
     0
100
AcDbPoint
 10
10.0
 20
27.27899453033791
 30
0.0
  0
ENDBLK
  5
F7
330
F5
100
AcDbEntity
  8
0
100
AcDbBlockEnd
  0
BLOCK
  5
10A
330
109
100
AcDbEntity
  8
0
100
AcDbBlockBegin
  2
_D_2
 70
     0
 10
0.0
 20
0.0
 30
0.0
  3
_D_2
  1
_D_2
  0
LINE
  5
10C
330
109
100
AcDbEntity
  8
치수문자_일반주서
 62
     0
370
    -2
100
AcDbLine
 10
-53.0625
 20
12.69999999999998
 30
0.0
 11
-66.50000000000006
 21
12.69999999999993
 31
0.0
  0
LINE
  5
10D
330
109
100
AcDbEntity
  8
치수문자_일반주서
 62
     0
370
    -2
100
AcDbLine
 10
-53.0625
 20
-12.70000000000002
 30
0.0
 11
-66.49999999999997
 21
-12.70000000000007
 31
0.0
  0
LINE
  5
10E
330
109
100
AcDbEntity
  8
치수문자_일반주서
 62
     0
370
    -2
100
AcDbLine
 10
-66.50000000000004
 20
9.39799999999993
 30
0.0
 11
-66.49999999999999
 21
-9.398000000000069
 31
0.0
  0
SOLID
  5
10F
330
109
100
AcDbEntity
  8
치수문자_일반주서
 62
     0
100
AcDbTrace
 10
-65.94966666666672
 20
9.397999999999932
 30
0.0
 11
-67.05033333333337
 21
9.397999999999929
 31
0.0
 12
-66.50000000000006
 22
12.69999999999993
 32
0.0
 13
-66.50000000000006
 23
12.69999999999993
 33
0.0
  0
SOLID
  5
110
330
109
100
AcDbEntity
  8
치수문자_일반주서
 62
     0
100
AcDbTrace
 10
-67.05033333333331
 20
-9.39800000000007
 30
0.0
 11
-65.94966666666666
 21
-9.398000000000067
 31
0.0
 12
-66.49999999999997
 22
-12.70000000000007
 32
0.0
 13
-66.49999999999997
 23
-12.70000000000007
 33
0.0
  0
MTEXT
  5
111
330
109
100
AcDbEntity
  8
치수문자_일반주서
 62
     0
100
AcDbMText
 10
-70.87500000000001
 20
-0.0000000000000371
 30
0.0
 40
3.5
 41
0.0
 71
     2
 72
     1
  1
\A1;%%c25.40 [1]
  7
SLDTEXTSTYLE0
 11
-3.356894814614647E-15
 21
1.0
 31
0.0
 73
     1
 44
1.0
  0
POINT
  5
112
330
109
100
AcDbEntity
  8
Defpoints
 62
     0
100
AcDbPoint
 10
-53.0
 20
12.69999999999998
 30
0.0
  0
POINT
  5
113
330
109
100
AcDbEntity
  8
Defpoints
 62
     0
100
AcDbPoint
 10
-53.0
 20
-12.70000000000002
 30
0.0
  0
POINT
  5
114
330
109
100
AcDbEntity
  8
Defpoints
 62
     0
100
AcDbPoint
 10
-66.49999999999997
 20
-12.70000000000007
 30
0.0
  0
ENDBLK
  5
10B
330
109
100
AcDbEntity
  8
0
100
AcDbBlockEnd
  0
BLOCK
  5
11D
330
11C
100
AcDbEntity
  8
0
100
AcDbBlockBegin
  2
SW_DOWELSYMBOL_0
 70
     0
 10
0.0
 20
0.0
 30
0.0
  3
SW_DOWELSYMBOL_0
  1
SW_DOWELSYMBOL_0
  0
CIRCLE
  5
11F
330
11C
100
AcDbEntity
  8
외형선
 62
     0
100
AcDbCircle
 10
0.0
 20
0.0
 30
0.0
 40
3.000000000000004
  0
HATCH
  5
120
330
11C
100
AcDbEntity
  8
0
  6
Continuous
 62
     0
370
    30
100
AcDbHatch
 10
0.0
 20
0.0
 30
0.0
210
0.0
220
0.0
230
1.0
  2
SOLID
 70
     1
 71
     0
 91
        1
 92
        0
 93
        3
 72
     2
 10
0.0
 20
0.0
 40
3.000000000000004
 50
0.0
 51
90.0
 73
     1
 72
     1
 10
0.0
 20
3.000000000000004
 11
0.0
 21
0.0
 72
     1
 10
0.0
 20
0.0
 11
3.000000000000006
 21
0.0
 97
        0
 75
     0
 76
     1
 98
        1
 10
0.0
 20
0.0
  0
HATCH
  5
121
330
11C
100
AcDbEntity
  8
0
  6
Continuous
 62
     0
370
    30
100
AcDbHatch
 10
0.0
 20
0.0
 30
0.0
210
0.0
220
0.0
230
1.0
  2
SOLID
 70
     1
 71
     0
 91
        1
 92
        0
 93
        3
 72
     2
 10
0.0
 20
0.0
 40
3.000000000000004
 50
180.0
 51
270.0000000000008
 73
     1
 72
     1
 10
0.0
 20
-3.000000000000004
 11
0.0
 21
0.0
 72
     1
 10
0.0
 20
0.0
 11
-3.000000000000006
 21
0.0
 97
        0
 75
     0
 76
     1
 98
        1
 10
0.0
 20
0.0
  0
ENDBLK
  5
11E
330
11C
100
AcDbEntity
  8
0
100
AcDbBlockEnd
  0
BLOCK
  5
14E
330
14D
100
AcDbEntity
  8
0
100
AcDbBlockBegin
  2
*D6
 70
     1
 10
0.0
 20
0.0
 30
0.0
  3
*D6
  1
*D6
  0
LINE
  5
150
330
14D
100
AcDbEntity
  8
치수문자_일반주서
 62
     0
370
    -2
100
AcDbLine
 10
45.11449999999999
 20
12.69999999999999
 30
0.0
 11
63.70164358785734
 21
12.69999999999999
 31
0.0
  0
LINE
  5
151
330
14D
100
AcDbEntity
  8
치수문자_일반주서
 62
     0
370
    -2
100
AcDbLine
 10
45.11449999999999
 20
-12.70000000000002
 30
0.0
 11
63.70164358785734
 21
-12.70000000000002
 31
0.0
  0
LINE
  5
152
330
14D
100
AcDbEntity
  8
치수문자_일반주서
 62
     0
370
    -2
100
AcDbLine
 10
63.70164358785734
 20
9.397999999999994
 30
0.0
 11
63.70164358785734
 21
-9.39800000000002
 31
0.0
  0
SOLID
  5
153
330
14D
100
AcDbEntity
  8
치수문자_일반주서
 62
     0
100
AcDbTrace
 10
64.25197692119067
 20
9.397999999999994
 30
0.0
 11
63.15131025452401
 21
9.397999999999994
 31
0.0
 12
63.70164358785734
 22
12.69999999999999
 32
0.0
 13
63.70164358785734
 23
12.69999999999999
 33
0.0
  0
SOLID
  5
154
330
14D
100
AcDbEntity
  8
치수문자_일반주서
 62
     0
100
AcDbTrace
 10
63.15131025452401
 20
-9.39800000000002
 30
0.0
 11
64.25197692119067
 21
-9.39800000000002
 31
0.0
 12
63.70164358785734
 22
-12.70000000000002
 32
0.0
 13
63.70164358785734
 23
-12.70000000000002
 33
0.0
  0
MTEXT
  5
155
330
14D
100
AcDbEntity
  8
치수문자_일반주서
 62
     0
100
AcDbMText
 10
61.07664358785734
 20
-0.0000000000000124
 30
0.0
 40
3.5
 41
0.0
 71
     5
 72
     1
  1
\A1;{%%c25.40 [1]}
  7
SLDTEXTSTYLE0
 11
0.0
 21
1.0
 31
0.0
 73
     1
 44
1.0
  0
POINT
  5
156
330
14D
100
AcDbEntity
  8
Defpoints
 62
     0
100
AcDbPoint
 10
45.05199999999999
 20
12.69999999999999
 30
0.0
  0
POINT
  5
157
330
14D
100
AcDbEntity
  8
Defpoints
 62
     0
100
AcDbPoint
 10
45.05199999999999
 20
-12.70000000000002
 30
0.0
  0
POINT
  5
158
330
14D
100
AcDbEntity
  8
Defpoints
 62
     0
100
AcDbPoint
 10
63.70164358785734
 20
-12.70000000000002
 30
0.0
  0
ENDBLK
  5
14F
330
14D
100
AcDbEntity
  8
0
100
AcDbBlockEnd
  0
BLOCK
  5
15F
330
15E
100
AcDbEntity
  8
0
100
AcDbBlockBegin
  2
*D7
 70
     1
 10
0.0
 20
0.0
 30
0.0
  3
*D7
  1
*D7
  0
LINE
  5
161
330
15E
100
AcDbEntity
  8
치수문자_일반주서
 62
     0
370
    -2
100
AcDbLine
 10
49.36081058755114
 20
14.31640256845473
 30
0.0
 11
74.83192212415653
 21
41.88956125312602
 31
0.0
  0
MTEXT
  5
162
330
15E
100
AcDbEntity
  8
치수문자_일반주서
 62
     0
100
AcDbMText
 10
62.66181715596067
 20
32.5836244853635
 30
0.0
 40
3.5
 41
0.0
 71
     5
 72
     1
  1
\A1;R3.05 [R0.120]
  7
SLDTEXTSTYLE0
 11
0.6785528484332507
 21
0.7345515855834237
 31
0.0
 73
     1
 44
1.0
  0
SOLID
  5
163
330
15E
100
AcDbEntity
  8
치수문자_일반주서
 62
     0
100
AcDbTrace
 10
48.95656236495172
 20
14.68983281937583
 30
0.0
 11
49.76505881015055
 21
13.94297231753363
 31
0.0
 12
47.12022908202454
 22
11.89091323285826
 32
0.0
 13
47.12022908202454
 23
11.89091323285826
 33
0.0
  0
LINE
  5
164
330
15E
100
AcDbEntity
  8
치수문자_일반주서
 62
     0
100
AcDbLine
 10
44.96199999999999
 20
9.651999999999985
 30
0.0
 11
45.142
 21
9.651999999999985
 31
0.0
  0
LINE
  5
165
330
15E
100
AcDbEntity
  8
치수문자_일반주서
 62
     0
100
AcDbLine
 10
45.05199999999999
 20
9.561999999999985
 30
0.0
 11
45.05199999999999
 21
9.741999999999985
 31
0.0
  0
POINT
  5
166
330
15E
100
AcDbEntity
  8
Defpoints
 62
     0
100
AcDbPoint
 10
47.12022908202454
 20
11.89091323285826
 30
0.0
  0
POINT
  5
167
330
15E
100
AcDbEntity
  8
Defpoints
 62
     0
100
AcDbPoint
 10
45.05199999999999
 20
9.651999999999985
 30
0.0
  0
ENDBLK
  5
160
330
15E
100
AcDbEntity
  8
0
100
AcDbBlockEnd
  0
ENDSEC
  0
SECTION
  2
ENTITIES
  0
LINE
  5
95
330
1F
100
AcDbEntity
  8
0
  6
Continuous
 62
     4
370
    15
100
AcDbLine
 10
7.275612586799285
 20
12.69999999999998
 30
0.0
 11
-53.0
 21
12.69999999999998
 31
0.0
  0
LINE
  5
96
330
1F
100
AcDbEntity
  8
0
  6
Continuous
 62
     4
370
    15
100
AcDbLine
 10
-53.0
 20
-12.70000000000002
 30
0.0
 11
7.275654798895179
 21
-12.70000000000002
 31
0.0
  0
LINE
  5
97
330
1F
100
AcDbEntity
  8
0
  6
Continuous
 62
     4
370
    15
100
AcDbLine
 10
-53.0
 20
12.69999999999998
 30
0.0
 11
-53.5
 21
12.19999999999997
 31
0.0
  0
LINE
  5
98
330
1F
100
AcDbEntity
  8
0
  6
Continuous
 62
     4
370
    15
100
AcDbLine
 10
-53.5
 20
-12.20000000000001
 30
0.0
 11
-53.0
 21
-12.70000000000002
 31
0.0
  0
ARC
  5
99
330
1F
100
AcDbEntity
  8
0
  6
Continuous
 62
     4
370
    15
100
AcDbCircle
 10
9.489995659648491
 20
7.5845950297506
 30
0.0
 40
2.539999791764693
100
AcDbArc
 50
224.7253340271411
 51
228.3164192348178
  0
LINE
  5
9A
330
1F
100
AcDbEntity
  8
0
  6
Continuous
 62
     1
370
    15
100
AcDbLine
 10
29.30430614848565
 20
-12.70000000000002
 30
0.0
 11
33.64723426319259
 21
-12.70000000000002
 31
0.0
  0
LINE
  5
9B
330
1F
100
AcDbEntity
  8
0
  6
Continuous
 62
     1
370
    15
100
AcDbLine
 10
20.34754455409493
 20
12.69999999999998
 30
0.0
 11
16.00555682525656
 21
12.69999999999998
 31
0.0
  0
LINE
  5
9C
102
{ACAD_REACTORS
102
}
330
1F
100
AcDbEntity
  8
0
  6
Continuous
 62
     1
370
    15
100
AcDbLine
 10
42.6038320947147
 20
-12.70000000000002
 30
0.0
 11
45.05199999999999
 21
-12.70000000000002
 31
0.0
  0
ARC
  5
9D
330
1F
100
AcDbEntity
  8
0
  6
Continuous
 62
     1
370
    15
100
AcDbCircle
 10
45.05199999999999
 20
-9.652000000000017
 30
0.0
 40
3.048000000000009
100
AcDbArc
 50
270.0000000000008
 51
0.0
  0
ARC
  5
9E
102
{ACAD_REACTORS
102
}
330
1F
100
AcDbEntity
  8
0
  6
Continuous
 62
     1
370
    15
100
AcDbCircle
 10
45.05199999999999
 20
9.651999999999985
 30
0.0
 40
3.048000000000009
100
AcDbArc
 50
0.0
 51
90.0
  0
LINE
  5
9F
330
1F
100
AcDbEntity
  8
0
  6
Continuous
 62
     1
370
    15
100
AcDbLine
 10
33.6472342631926
 20
12.69999999999998
 30
0.0
 11
29.30430614848574
 21
12.69999999999998
 31
0.0
  0
LINE
  5
A0
330
1F
100
AcDbEntity
  8
0
  6
Continuous
 62
     1
370
    15
100
AcDbLine
 10
16.00555682525648
 20
-12.70000000000002
 30
0.0
 11
20.34754455409485
 21
-12.70000000000002
 31
0.0
  0
LINE
  5
A1
330
1F
100
AcDbEntity
  8
0
  6
Continuous
 62
     1
370
    15
100
AcDbLine
 10
45.05199999999999
 20
12.69999999999998
 30
0.0
 11
42.6038320947147
 21
12.69999999999998
 31
0.0
  0
SPLINE
  5
A2
330
1F
100
AcDbEntity
  8
0
  6
Continuous
 62
     4
370
    15
100
AcDbSpline
210
0.0
220
0.0
230
1.0
 70
     8
 71
     3
 72
    12
 73
     8
 74
     0
 42
0.000000001
 43
0.00000001
 40
0.0
 40
0.0
 40
0.0
 40
0.0
 40
0.24478705634769
 40
0.4915377391721551
 40
0.744226690882103
 40
0.9988375325931727
 40
1.0
 40
1.0
 40
1.0
 40
1.0
 10
7.79238654361167
 20
12.67823413523346
 30
0.0
 10
7.74127953313867
 20
12.68119441323481
 30
0.0
 10
7.638655543298025
 20
12.68713871591901
 30
0.0
 10
7.502007860817251
 20
12.69417527964506
 30
0.0
 10
7.380908830377335
 20
12.69857089308578
 30
0.0
 10
7.305896872615266
 20
12.70056897892812
 30
0.0
 10
7.275749603510921
 20
12.69999477582509
 30
0.0
 10
7.275612586799287
 20
12.69999216612201
 30
0.0
  0
SPLINE
  5
A3
330
1F
100
AcDbEntity
  8
0
  6
Continuous
 62
     4
370
    15
100
AcDbSpline
210
0.0
220
0.0
230
1.0
 70
     8
 71
     3
 72
    10
 73
     6
 74
     0
 42
0.000000001
 43
0.00000001
 40
0.0
 40
0.0
 40
0.0
 40
0.0
 40
0.5
 40
0.5
 40
1.0
 40
1.0
 40
1.0
 40
1.0
 10
10.0
 20
12.35862325966307
 30
0.0
 10
9.631689597780731
 20
12.44338822361126
 30
0.0
 10
9.262336640259845
 20
12.51263298525004
 30
0.0
 10
8.525727764597873
 20
12.61929855963881
 30
0.0
 10
8.160017480525076
 20
12.65670769066324
 30
0.0
 10
7.792386543604128
 20
12.6782341352339
 30
0.0
  0
SPLINE
  5
A4
330
1F
100
AcDbEntity
  8
0
  6
Continuous
 62
     4
370
    15
100
AcDbSpline
210
0.0
220
0.0
230
1.0
 70
     8
 71
     3
 72
    24
 73
    20
 74
     0
 42
0.000000001
 43
0.00000001
 40
0.0
 40
0.0
 40
0.0
 40
0.0
 40
0.1249999999999997
 40
0.1249999999999997
 40
0.2499999999999993
 40
0.2499999999999993
 40
0.374999999999999
 40
0.374999999999999
 40
0.4999999999999987
 40
0.4999999999999987
 40
0.6249999999999989
 40
0.6249999999999989
 40
0.7499999999999991
 40
0.7499999999999991
 40
0.8124999999999993
 40
0.8124999999999993
 40
0.8749999999999997
 40
0.8749999999999997
 40
1.0
 40
1.0
 40
1.0
 40
1.0
 10
6.949995982200686
 20
8.024798391305819
 30
0.0
 10
6.949995982200688
 20
8.198717966077929
 30
0.0
 10
6.950064402858553
 20
8.368588144154108
 30
0.0
 10
6.975604334793331
 20
8.6986395538653
 30
0.0
 10
7.000634087232521
 20
8.858855403966087
 30
0.0
 10
7.092067794581826
 20
9.16884718510632
 30
0.0
 10
7.158844194614701
 20
9.317944855954472
 30
0.0
 10
7.339432413984531
 20
9.591570217631991
 30
0.0
 10
7.455830299251186
 20
9.719472958835254
 30
0.0
 10
7.732734043916601
 20
9.942535778561046
 30
0.0
 10
7.892504196748183
 20
10.03860688737245
 30
0.0
 10
8.25888448975933
 20
10.20099404498755
 30
0.0
 10
8.456195878463387
 20
10.26328676973496
 30
0.0
 10
8.772929415119703
 20
10.33128243496899
 30
0.0
 10
8.882744649689945
 20
10.3496717154296
 30
0.0
 10
9.10286314393788
 20
10.37680700655507
 30
0.0
 10
9.213810440353837
 20
10.3857514952707
 30
0.0
 10
9.5492859309048
 20
10.39908534680638
 30
0.0
 10
9.77802130111257
 20
10.38975002060848
 30
0.0
 10
10.0
 20
10.36163841808606
 30
0.0
  0
SPLINE
  5
A5
330
1F
100
AcDbEntity
  8
0
  6
Continuous
 62
     4
370
    15
100
AcDbSpline
210
0.0
220
0.0
230
1.0
 70
     8
 71
     3
 72
    16
 73
    12
 74
     0
 42
0.000000001
 43
0.00000001
 40
0.0
 40
0.0
 40
0.0
 40
0.0
 40
0.2499999999999986
 40
0.2499999999999986
 40
0.3749999999999982
 40
0.3749999999999982
 40
0.4999999999999979
 40
0.4999999999999979
 40
0.7499999999999989
 40
0.7499999999999989
 40
1.0
 40
1.0
 40
1.0
 40
1.0
 10
7.792386543619221
 20
5.695467777118291
 30
0.0
 10
7.614516219371302
 20
5.8545384340009
 30
0.0
 10
7.468193243884498
 20
6.031455045670904
 30
0.0
 10
7.290193631979294
 20
6.317952291989981
 30
0.0
 10
7.237803469153974
 20
6.417414331447342
 30
0.0
 10
7.148807320299984
 20
6.617211342746553
 30
0.0
 10
7.111748333426227
 20
6.718184445588054
 30
0.0
 10
7.019969668507658
 20
7.023301820000756
 30
0.0
 10
6.985168430069793
 20
7.230171489307488
 30
0.0
 10
6.950198436362228
 20
7.633236145225806
 30
0.0
 10
6.949995982200686
 20
7.83121213431924
 30
0.0
 10
6.949995982200688
 20
8.024798391305822
 30
0.0
  0
SPLINE
  5
A6
330
1F
100
AcDbEntity
  8
0
  6
Continuous
 62
     4
370
    15
100
AcDbSpline
210
0.0
220
0.0
230
1.0
 70
     8
 71
     3
 72
    10
 73
     6
 74
     0
 42
0.000000001
 43
0.00000001
 40
0.0
 40
0.0
 40
0.0
 40
0.0
 40
0.5
 40
0.5
 40
1.0
 40
1.0
 40
1.0
 40
1.0
 10
10.0
 20
3.646364069323089
 30
0.0
 10
9.631689597780731
 20
3.998932085155315
 30
0.0
 10
9.262336640259848
 20
4.347229112354879
 30
0.0
 10
8.525727764597873
 20
5.031337623686382
 30
0.0
 10
8.160017480525068
 20
5.366692896478658
 30
0.0
 10
7.792386543604119
 20
5.695467777131794
 30
0.0
  0
SPLINE
  5
A7
330
1F
100
AcDbEntity
  8
0
  6
Continuous
 62
     4
370
    15
100
AcDbSpline
210
0.0
220
0.0
230
1.0
 70
     8
 71
     3
 72
    24
 73
    20
 74
     0
 42
0.000000001
 43
0.00000001
 40
0.0
 40
0.0
 40
0.0
 40
0.0
 40
0.125
 40
0.125
 40
0.2500000000000001
 40
0.2500000000000001
 40
0.3750000000000001
 40
0.3750000000000001
 40
0.5000000000000001
 40
0.5000000000000001
 40
0.625
 40
0.625
 40
0.7499999999999999
 40
0.7499999999999999
 40
0.8125
 40
0.8125
 40
0.875
 40
0.875
 40
1.0
 40
1.0
 40
1.0
 40
1.0
 10
6.949995982200688
 20
-4.512239100730875
 30
0.0
 10
6.949995982200688
 20
-4.302487928362549
 30
0.0
 10
6.950064402858555
 20
-4.090957436887107
 30
0.0
 10
6.975604334793333
 20
-3.666601293999794
 30
0.0
 10
7.000634087232527
 20
-3.453739076087544
 30
0.0
 10
7.092067794581832
 20
-3.028262446177593
 30
0.0
 10
7.158844194614709
 20
-2.816381761281986
 30
0.0
 10
7.339432413984539
 20
-2.415340190262369
 30
0.0
 10
7.45583029925119
 20
-2.221200070669312
 30
0.0
 10
7.732734043916604
 20
-1.873457459009903
 30
0.0
 10
7.892504196748193
 20
-1.718709825847433
 30
0.0
 10
8.258884489759339
 20
-1.452047091849095
 30
0.0
 10
8.456195878463394
 20
-1.346838391338175
 30
0.0
 10
8.77292941511971
 20
-1.23100492248017
 30
0.0
 10
8.882744649689952
 20
-1.19941976320403
 30
0.0
 10
9.102863143937885
 20
-1.152678458440046
 30
0.0
 10
9.213810440353841
 20
-1.137185011528864
 30
0.0
 10
9.549285930904803
 20
-1.114089180432543
 30
0.0
 10
9.778021301112574
 20
-1.130399180871317
 30
0.0
 10
10.0
 20
-1.178806327860358
 30
0.0
  0
SPLINE
  5
A8
330
1F
100
AcDbEntity
  8
0
  6
Continuous
 62
     4
370
    15
100
AcDbSpline
210
0.0
220
0.0
230
1.0
 70
     8
 71
     3
 72
    16
 73
    12
 74
     0
 42
0.000000001
 43
0.00000001
 40
0.0
 40
0.0
 40
0.0
 40
0.0
 40
0.2500000000000002
 40
0.2500000000000002
 40
0.3750000000000007
 40
0.3750000000000007
 40
0.5000000000000012
 40
0.5000000000000012
 40
0.7500000000000007
 40
0.7500000000000007
 40
1.0
 40
1.0
 40
1.0
 40
1.0
 10
7.792386543619209
 20
-6.982766358114826
 30
0.0
 10
7.61451621937066
 20
-6.83411080858864
 30
0.0
 10
7.468193243889278
 20
-6.665164252073555
 30
0.0
 10
7.290193631982554
 20
-6.382465562968942
 30
0.0
 10
7.237803469156747
 20
-6.282881506002002
 30
0.0
 10
7.148807320301916
 20
-6.07952758680905
 30
0.0
 10
7.111748333427805
 20
-5.975140476938006
 30
0.0
 10
7.019969668508359
 20
-5.654374988086356
 30
0.0
 10
6.985168430070145
 20
-5.429652467350494
 30
0.0
 10
6.950198436362221
 20
-4.976225813791007
 30
0.0
 10
6.949995982200688
 20
-4.745708762847292
 30
0.0
 10
6.949995982200688
 20
-4.512239100730877
 30
0.0
  0
SPLINE
  5
A9
330
1F
100
AcDbEntity
  8
0
  6
Continuous
 62
     4
370
    15
100
AcDbSpline
210
0.0
220
0.0
230
1.0
 70
     8
 71
     3
 72
    10
 73
     6
 74
     0
 42
0.000000001
 43
0.00000001
 40
0.0
 40
0.0
 40
0.0
 40
0.0
 40
0.5000000000000003
 40
0.5000000000000003
 40
1.0
 40
1.0
 40
1.0
 40
1.0
 10
10.0
 20
-8.71225919034009
 30
0.0
 10
9.631689597781989
 20
-8.444456138456973
 30
0.0
 10
9.262336640262374
 20
-8.16540387289718
 30
0.0
 10
8.525727764602905
 20
-7.587960935956558
 30
0.0
 10
8.160017480531339
 20
-7.290014794189831
 30
0.0
 10
7.79238654361167
 20
-6.982766358108532
 30
0.0
  0
SPLINE
  5
AA
330
1F
100
AcDbEntity
  8
0
  6
Continuous
 62
     4
370
    15
100
AcDbSpline
210
0.0
220
0.0
230
1.0
 70
     8
 71
     3
 72
    24
 73
    20
 74
     0
 42
0.000000001
 43
0.00000001
 40
0.0
 40
0.0
 40
0.0
 40
0.0
 40
0.1249999999999999
 40
0.1249999999999999
 40
0.2499999999999997
 40
0.2499999999999997
 40
0.3749999999999996
 40
0.3749999999999996
 40
0.4999999999999997
 40
0.4999999999999997
 40
0.6249999999999998
 40
0.6249999999999998
 40
0.7499999999999998
 40
0.7499999999999998
 40
0.8124999999999999
 40
0.8124999999999999
 40
0.8749999999999999
 40
0.8749999999999999
 40
1.0
 40
1.0
 40
1.0
 40
1.0
 10
6.949995982200688
 20
-12.53703749203664
 30
0.0
 10
6.94999598220069
 20
-12.50120589444043
 30
0.0
 10
6.950064402858551
 20
-12.45954558104117
 30
0.0
 10
6.975604334793328
 20
-12.36524084786505
 30
0.0
 10
7.00063408723253
 20
-12.31259448005358
 30
0.0
 10
7.092067794581837
 20
-12.19710963128386
 30
0.0
 10
7.158844194614709
 20
-12.13432661723641
 30
0.0
 10
7.339432413984539
 20
-12.00691040789431
 30
0.0
 10
7.45583029925119
 20
-11.94067302950452
 30
0.0
 10
7.732734043916604
 20
-11.81599323757091
 30
0.0
 10
7.89250419674819
 20
-11.75731671321984
 30
0.0
 10
8.258884489759337
 20
-11.6530411368366
 30
0.0
 10
8.45619587846339
 20
-11.61012516107309
 30
0.0
 10
8.772929415119707
 20
-11.56228735744912
 30
0.0
 10
8.882744649689949
 20
-11.54909147863359
 30
0.0
 10
9.102863143937883
 20
-11.52948546499508
 30
0.0
 10
9.213810440353841
 20
-11.52293650679953
 30
0.0
 10
9.549285930904803
 20
-11.51317452723888
 30
0.0
 10
9.778021301112574
 20
-11.52014920147975
 30
0.0
 10
10.0
 20
-11.54044474594637
 30
0.0
  0
SPLINE
  5
AB
330
1F
100
AcDbEntity
  8
0
  6
Continuous
 62
     4
370
    15
100
AcDbSpline
210
0.0
220
0.0
230
1.0
 70
     8
 71
     3
 72
    16
 73
    12
 74
     0
 42
0.000000001
 43
0.00000001
 40
0.0
 40
0.0
 40
0.0
 40
0.0
 40
0.2500000000000001
 40
0.2500000000000001
 40
0.375
 40
0.375
 40
0.5
 40
0.5
 40
0.75
 40
0.75
 40
1.0
 40
1.0
 40
1.0
 40
1.0
 10
7.792386543619209
 20
-12.67823413523303
 30
0.0
 10
7.614516219371291
 20
-12.68864924258998
 30
0.0
 10
7.468193243884491
 20
-12.69661929773814
 30
0.0
 10
7.290193631979289
 20
-12.70041785495298
 30
0.0
 10
7.237803469153967
 20
-12.70029583744362
 30
0.0
 10
7.148807320299976
 20
-12.69673892955041
 30
0.0
 10
7.11174833342622
 20
-12.69332492252115
 30
0.0
 10
7.019969668507651
 20
-12.67767680808312
 30
0.0
 10
6.985168430069789
 20
-12.65982395665474
 30
0.0
 10
6.950198436362221
 20
-12.60946195901513
 30
0.0
 10
6.949995982200686
 20
-12.57692089716565
 30
0.0
 10
6.949995982200686
 20
-12.53703749203665
 30
0.0
  0
SPLINE
  5
AC
330
1F
100
AcDbEntity
  8
0
  6
Continuous
 62
     4
370
    15
100
AcDbSpline
210
0.0
220
0.0
230
1.0
 70
     8
 71
     3
 72
    10
 73
     6
 74
     0
 42
0.000000001
 43
0.00000001
 40
0.0
 40
0.0
 40
0.0
 40
0.0
 40
0.5
 40
0.5
 40
1.0
 40
1.0
 40
1.0
 40
1.0
 10
10.0
 20
-12.35862325966308
 30
0.0
 10
9.631689597780731
 20
-12.44338822361127
 30
0.0
 10
9.262336640259852
 20
-12.51263298525005
 30
0.0
 10
8.525727764597873
 20
-12.61929855963883
 30
0.0
 10
8.16001748052507
 20
-12.65670769066326
 30
0.0
 10
7.79238654360412
 20
-12.67823413523393
 30
0.0
  0
LINE
  5
AD
330
1F
100
AcDbEntity
  8
0
  6
Continuous
 62
     4
370
    15
100
AcDbLine
 10
-53.0
 20
12.69999999999998
 30
0.0
 11
-53.0
 21
-12.70000000000001
 31
0.0
  0
LINE
  5
AE
330
1F
100
AcDbEntity
  8
0
  6
Continuous
 62
     1
370
    15
100
AcDbLine
 10
9.999999999999996
 20
3.64636406932309
 30
0.0
 11
10.0
 21
-1.178806327860354
 31
0.0
  0
LINE
  5
AF
330
1F
100
AcDbEntity
  8
0
  6
Continuous
 62
     1
370
    15
100
AcDbLine
 10
9.999999999999996
 20
12.35862325966307
 30
0.0
 11
10.0
 21
10.36163841808606
 31
0.0
  0
LINE
  5
B0
330
1F
100
AcDbEntity
  8
0
  6
Continuous
 62
     1
370
    15
100
AcDbLine
 10
10.0
 20
-8.71225919034009
 30
0.0
 11
10.0
 21
-11.54044474594637
 31
0.0
  0
SPLINE
  5
B2
330
1F
100
AcDbEntity
  8
0
  6
Continuous
 62
     1
370
    15
100
AcDbSpline
210
0.0
220
0.0
230
1.0
 70
    24
 71
     3
 72
    12
 73
     8
 74
     0
 42
0.000000001
 43
0.00000001
 40
0.0
 40
0.0
 40
0.0
 40
0.0
 40
0.5000000000000002
 40
0.5000000000000002
 40
0.7500000000000001
 40
0.7500000000000001
 40
1.0
 40
1.0
 40
1.0
 40
1.0
 10
10.0
 20
-1.17880632786036
 30
0.0
 10
10.0
 20
-1.334091950178909
 30
0.0
 10
10.0
 20
-1.562874002485071
 30
0.0
 10
10.0
 20
-2.040066738959898
 30
0.0
 10
10.0
 20
-2.221891762901328
 30
0.0
 10
10.0
 20
-2.624495573682511
 30
0.0
 10
10.0
 20
-2.846580624070399
 30
0.0
 10
10.0
 20
-3.09745591321525
 30
0.0
  0
LINE
  5
B3
330
1F
100
AcDbEntity
  8
0
  6
Continuous
 62
     4
370
    15
100
AcDbLine
 10
-53.5
 20
12.19999999999997
 30
0.0
 11
-53.5
 21
-12.20000000000002
 31
0.0
  0
LINE
  5
B4
330
1F
100
AcDbEntity
  8
0
  6
Continuous
 62
     4
370
    15
100
AcDbLine
 10
7.891963510752426
 20
5.641576625447172
 30
0.0
 11
7.792386543619219
 21
5.695467777118291
 31
0.0
  0
SPLINE
  5
B5
330
1F
100
AcDbEntity
  8
0
  6
Continuous
 62
     1
370
    15
100
AcDbSpline
210
0.0
220
0.0
230
1.0
 70
    24
 71
     3
 72
    14
 73
    10
 74
     0
 42
0.000000001
 43
0.00000001
 40
0.0
 40
0.0
 40
0.0
 40
0.0
 40
0.25
 40
0.25
 40
0.5
 40
0.5
 40
0.75
 40
0.75
 40
1.0
 40
1.0
 40
1.0
 40
1.0
 10
10.0
 20
6.947919379185012
 30
0.0
 10
10.0
 20
6.57738450945874
 30
0.0
 10
10.0
 20
6.207061770021513
 30
0.0
 10
10.0
 20
5.499823306115823
 30
0.0
 10
10.0
 20
5.163147003233831
 30
0.0
 10
10.0
 20
4.563192234982816
 30
0.0
 10
10.0
 20
4.300321398332863
 30
0.0
 10
10.0
 20
3.884918252808784
 30
0.0
 10
10.0
 20
3.732767011209659
 30
0.0
 10
10.0
 20
3.646364069323087
 30
0.0
  0
SPLINE
  5
B6
330
1F
100
AcDbEntity
  8
0
  6
Continuous
 62
     1
370
    15
100
AcDbSpline
210
0.0
220
0.0
230
1.0
 70
    24
 71
     3
 72
    12
 73
     8
 74
     0
 42
0.000000001
 43
0.00000001
 40
0.0
 40
0.0
 40
0.0
 40
0.0
 40
0.4999999999999997
 40
0.4999999999999997
 40
0.7499999999999996
 40
0.7499999999999996
 40
1.0
 40
1.0
 40
1.0
 40
1.0
 10
10.0
 20
10.36163841808611
 30
0.0
 10
10.0
 20
9.792782469096766
 30
0.0
 10
10.0
 20
9.21690347890156
 30
0.0
 10
10.0
 20
8.340278581368255
 30
0.0
 10
10.0
 20
8.047129114570561
 30
0.0
 10
10.0
 20
7.483648819590987
 30
0.0
 10
10.0
 20
7.210106206070515
 30
0.0
 10
10.0
 20
6.947919379185109
 30
0.0
  0
SPLINE
  5
B7
330
1F
100
AcDbEntity
  8
0
  6
Continuous
 62
     1
370
    15
100
AcDbSpline
210
0.0
220
0.0
230
1.0
 70
    24
 71
     3
 72
    14
 73
    10
 74
     0
 42
0.000000001
 43
0.00000001
 40
0.0
 40
0.0
 40
0.0
 40
0.0
 40
0.2499999999999998
 40
0.2499999999999998
 40
0.4999999999999999
 40
0.4999999999999999
 40
0.75
 40
0.75
 40
1.0
 40
1.0
 40
1.0
 40
1.0
 10
10.0
 20
-3.097455913215335
 30
0.0
 10
10.0
 20
-3.452004780849554
 30
0.0
 10
10.0
 20
-3.847162703497536
 30
0.0
 10
10.0
 20
-4.709520130805018
 30
0.0
 10
10.0
 20
-5.176797439724023
 30
0.0
 10
10.0
 20
-6.157470828436818
 30
0.0
 10
10.0
 20
-6.670694223515302
 30
0.0
 10
10.0
 20
-7.701158217019605
 30
0.0
 10
10.0
 20
-8.217970017418452
 30
0.0
 10
10.0
 20
-8.712259190340095
 30
0.0
  0
SPLINE
  5
B8
330
1F
100
AcDbEntity
  8
0
  6
Continuous
 62
     1
370
    15
100
AcDbSpline
210
0.0
220
0.0
230
1.0
 70
    24
 71
     3
 72
     9
 73
     5
 74
     0
 42
0.000000001
 43
0.00000001
 40
0.0
 40
0.0
 40
0.0
 40
0.0
 40
0.386271615133331
 40
1.0
 40
1.0
 40
1.0
 40
1.0
 10
9.999999999999996
 20
-11.61410826343448
 30
0.0
 10
9.999999999999996
 20
-11.70221665576742
 30
0.0
 10
10.0
 20
-11.93031623358011
 30
0.0
 10
10.0
 20
-12.19573080402429
 30
0.0
 10
10.0
 20
-12.35862325966308
 30
0.0
  0
SPLINE
  5
B9
330
1F
100
AcDbEntity
  8
0
  6
Continuous
 62
     1
370
    15
100
AcDbSpline
210
0.0
220
0.0
230
1.0
 70
     8
 71
     3
 72
    40
 73
    36
 74
     0
 42
0.000000001
 43
0.00000001
 40
0.0
 40
0.0
 40
0.0
 40
0.0
 40
0.0624999999999999
 40
0.0624999999999999
 40
0.1249999999999998
 40
0.1249999999999998
 40
0.1874999999999996
 40
0.1874999999999996
 40
0.2499999999999995
 40
0.2499999999999995
 40
0.3124999999999994
 40
0.3124999999999994
 40
0.3749999999999992
 40
0.3749999999999992
 40
0.4999999999999993
 40
0.4999999999999993
 40
0.5624999999999993
 40
0.5624999999999993
 40
0.6249999999999993
 40
0.6249999999999993
 40
0.6874999999999993
 40
0.6874999999999993
 40
0.7187499999999993
 40
0.7187499999999993
 40
0.7499999999999993
 40
0.7499999999999993
 40
0.7812499999999994
 40
0.7812499999999994
 40
0.8124999999999994
 40
0.8124999999999994
 40
0.8749999999999997
 40
0.8749999999999997
 40
0.9374999999999999
 40
0.9374999999999999
 40
1.0
 40
1.0
 40
1.0
 40
1.0
 10
45.05199999999999
 20
-8.338691912844835
 30
0.0
 10
45.26793508114152
 20
-8.501540429882564
 30
0.0
 10
45.47469268478683
 20
-8.647576591392102
 30
0.0
 10
45.87500973915361
 20
-8.907302246199666
 30
0.0
 10
46.06981660908006
 20
-9.021242239849078
 30
0.0
 10
46.44166288631583
 20
-9.213305566364607
 30
0.0
 10
46.61607141964579
 20
-9.290200395019012
 30
0.0
 10
46.94095383774906
 20
-9.410270245701913
 30
0.0
 10
47.09232181507298
 20
-9.453497160015484
 30
0.0
 10
47.36197964261808
 20
-9.511096113490122
 30
0.0
 10
47.47978138975056
 20
-9.525567747312365
 30
0.0
 10
47.68028259994441
 20
-9.539211813096326
 30
0.0
 10
47.76309022562781
 20
-9.53835232533415
 30
0.0
 10
47.95822161632604
 20
-9.539661246221108
 30
0.0
 10
48.01558933894876
 20
-9.548782768571826
 30
0.0
 10
48.05318009933168
 20
-9.676343407331274
 30
0.0
 10
48.05800439678265
 20
-9.737293225612836
 30
0.0
 10
48.05661054046674
 20
-9.9007486059888
 30
0.0
 10
48.05067808065833
 20
-10.00355195015158
 30
0.0
 10
48.01757932727106
 20
-10.2582255942022
 30
0.0
 10
47.99152467921421
 20
-10.40753056937432
 30
0.0
 10
47.90919541783458
 20
-10.68296873973323
 30
0.0
 10
47.87481869887223
 20
-10.78153579299214
 30
0.0
 10
47.78320334791613
 20
-10.99615940330503
 30
0.0
 10
47.72584955338985
 20
-11.11181985623429
 30
0.0
 10
47.58327485417917
 20
-11.35037453490664
 30
0.0
 10
47.49745810552226
 20
-11.47352735860514
 30
0.0
 10
47.30504221374113
 20
-11.70701624112325
 30
0.0
 10
47.19740424545786
 20
-11.81862053694292
 30
0.0
 10
46.86298570537646
 20
-12.11561882609765
 30
0.0
 10
46.62620679774056
 20
-12.26408190442618
 30
0.0
 10
46.16341737636739
 20
-12.47274219854394
 30
0.0
 10
45.93516890878986
 20
-12.5351729422916
 30
0.0
 10
45.48577924224671
 20
-12.5943966844897
 30
0.0
 10
45.26758421219267
 20
-12.590928327459
 30
0.0
 10
45.05199999999999
 20
-12.55888367947283
 30
0.0
  0
SPLINE
  5
BA
330
1F
100
AcDbEntity
  8
0
  6
Continuous
 62
     1
370
    15
100
AcDbSpline
210
0.0
220
0.0
230
1.0
 70
     8
 71
     3
 72
    56
 73
    52
 74
     0
 42
0.000000001
 43
0.00000001
 40
0.0
 40
0.0
 40
0.0
 40
0.0
 40
0.0312499999999999
 40
0.0312499999999999
 40
0.0624999999999998
 40
0.0624999999999998
 40
0.1249999999999998
 40
0.1249999999999998
 40
0.1874999999999996
 40
0.1874999999999996
 40
0.2187499999999995
 40
0.2187499999999995
 40
0.2499999999999994
 40
0.2499999999999994
 40
0.2812499999999994
 40
0.2812499999999994
 40
0.3124999999999993
 40
0.3124999999999993
 40
0.3749999999999992
 40
0.3749999999999992
 40
0.437499999999999
 40
0.437499999999999
 40
0.468749999999999
 40
0.468749999999999
 40
0.499999999999999
 40
0.499999999999999
 40
0.531249999999999
 40
0.531249999999999
 40
0.562499999999999
 40
0.562499999999999
 40
0.624999999999999
 40
0.624999999999999
 40
0.6874999999999991
 40
0.6874999999999991
 40
0.7187499999999992
 40
0.7187499999999992
 40
0.7499999999999993
 40
0.7499999999999993
 40
0.7812499999999994
 40
0.7812499999999994
 40
0.8124999999999996
 40
0.8124999999999996
 40
0.8437499999999997
 40
0.8437499999999997
 40
0.8749999999999997
 40
0.8749999999999997
 40
0.9374999999999998
 40
0.9374999999999998
 40
0.9687499999999999
 40
0.9687499999999999
 40
1.0
 40
1.0
 40
1.0
 40
1.0
 10
45.05199999999999
 20
-12.55888367947282
 30
0.0
 10
44.68680834091266
 20
-12.50460123437208
 30
0.0
 10
44.3203275716123
 20
-12.43465312296515
 30
0.0
 10
43.58887335232004
 20
-12.26416023342065
 30
0.0
 10
43.2252978396409
 20
-12.16377070983696
 30
0.0
 10
42.13232382784541
 20
-11.8176686869489
 30
0.0
 10
41.39627581326769
 20
-11.52605477683757
 30
0.0
 10
39.94198093331346
 20
-10.83422048381262
 30
0.0
 10
39.20685742646617
 20
-10.43139114410356
 30
0.0
 10
38.11291716200101
 20
-9.754252928828585
 30
0.0
 10
37.74982859427854
 20
-9.51652079489115
 30
0.0
 10
37.01868553372749
 20
-9.016969576541985
 30
0.0
 10
36.65217261932702
 20
-8.755460195031198
 30
0.0
 10
35.92135075163245
 20
-8.211899493798468
 30
0.0
 10
35.55852033406298
 20
-7.930258361093411
 30
0.0
 10
34.82872908913524
 20
-7.346985842865341
 30
0.0
 10
34.46232859133126
 20
-7.045464945099241
 30
0.0
 10
33.36473632631133
 20
-6.116219132140797
 30
0.0
 10
32.63842361757833
 20
-5.464832354319316
 30
0.0
 10
31.17440389903721
 20
-4.111015239592364
 30
0.0
 10
30.44801625285341
 20
-3.412080595167584
 30
0.0
 10
29.35051708240446
 20
-2.341019627514357
 30
0.0
 10
28.98409138508199
 20
-1.980452019628812
 30
0.0
 10
28.25413821135587
 20
-1.256254299795553
 30
0.0
 10
27.89136332927766
 20
-0.8928812308396191
 30
0.0
 10
27.16066541106057
 20
-0.163114466199848
 30
0.0
 10
26.79415847968973
 20
0.2028096506420108
 30
0.0
 10
26.06291518035099
 20
0.932659171868236
 30
0.0
 10
25.69970196278347
 20
1.296078401736598
 30
0.0
 10
24.60603992391015
 20
2.381512573387574
 30
0.0
 10
23.87039483170662
 20
3.098994793699453
 30
0.0
 10
22.41659293642094
 20
4.490637410511729
 30
0.0
 10
21.68056918168156
 20
5.170440429414045
 30
0.0
 10
20.58729556957177
 20
6.143441185509985
 30
0.0
 10
20.22388660356334
 20
6.460279218594207
 30
0.0
 10
19.49251822059819
 20
7.078459467250614
 30
0.0
 10
19.12602421133248
 20
7.379359713233749
 30
0.0
 10
18.39550258693699
 20
7.961446180421265
 30
0.0
 10
18.03277418056344
 20
8.242326961792454
 30
0.0
 10
17.30261292945734
 20
8.784192358953216
 30
0.0
 10
16.93615822842025
 20
9.044890470702976
 30
0.0
 10
16.20458525047424
 20
9.542868468559472
 30
0.0
 10
15.84072220585551
 20
9.779891719490205
 30
0.0
 10
15.11238825949532
 20
10.22931499842086
 30
0.0
 10
14.74628685881299
 20
10.44201853032417
 30
0.0
 10
13.6482866387221
 20
11.04035867918574
 30
0.0
 10
12.92205123723959
 20
11.38539479249852
 30
0.0
 10
11.82434836483883
 20
11.81716840564994
 30
0.0
 10
11.45798661929879
 20
11.94663246322509
 30
0.0
 10
10.7284226880895
 20
12.17528667541521
 30
0.0
 10
10.3654894234399
 20
12.27450753115078
 30
0.0
 10
10.0
 20
12.35862325966307
 30
0.0
  0
SPLINE
  5
BB
330
1F
100
AcDbEntity
  8
0
  6
Continuous
 62
     1
370
    15
100
AcDbSpline
210
0.0
220
0.0
230
1.0
 70
     8
 71
     3
 72
    27
 73
    23
 74
     0
 42
0.000000001
 43
0.00000001
 40
0.0
 40
0.0
 40
0.0
 40
0.0
 40
0.0084209750486276
 40
0.0623815417855788
 40
0.11639789636965
 40
0.170370893430335
 40
0.2214810347300571
 40
0.2726441072757215
 40
0.3238063681482765
 40
0.3749164349145676
 40
0.4260618712775112
 40
0.4772397355713925
 40
0.5283532644877416
 40
0.5794845765315526
 40
0.6306702878168257
 40
0.6817908133799259
 40
0.7329115243751605
 40
0.7840973174865861
 40
0.8380640171604156
 40
0.8920090520699109
 40
0.9459917224792153
 40
1.0
 40
1.0
 40
1.0
 40
1.0
 10
11.52600259404788
 20
11.90254762518755
 30
0.0
 10
11.62008739977406
 20
11.94007494994403
 30
0.0
 10
12.31705600565442
 20
12.21807273094672
 30
0.0
 10
13.61742032767095
 20
12.50467668064417
 30
0.0
 10
15.42846795712574
 20
12.73361883036939
 30
0.0
 10
17.20638390072593
 20
12.68301385527422
 30
0.0
 10
18.95144462674791
 20
12.39738071004153
 30
0.0
 10
20.66668240731442
 20
11.89007926048161
 30
0.0
 10
22.38189703603032
 20
11.16695232141197
 30
0.0
 10
24.09535320540589
 20
10.23978758198695
 30
0.0
 10
25.80999851345782
 20
9.126665293267312
 30
0.0
 10
27.52574648759635
 20
7.848279532332566
 30
0.0
 10
29.23932508534682
 20
6.425636950343086
 30
0.0
 10
30.95350193336502
 20
4.886297282743967
 30
0.0
 10
32.66951761448148
 20
3.259632373132558
 30
0.0
 10
34.38333024777289
 20
1.571803599938181
 30
0.0
 10
36.09716671023251
 20
-0.1447160428393353
 30
0.0
 10
37.84484476609124
 20
-1.888075729386123
 30
0.0
 10
39.62248353178978
 20
-3.629667342669054
 30
0.0
 10
41.43101801532055
 20
-5.325287110136607
 30
0.0
 10
43.24095066873744
 20
-6.92469551245209
 30
0.0
 10
44.44822146578521
 20
-7.867285276218904
 30
0.0
 10
45.05199999999999
 20
-8.33869191284483
 30
0.0
  0
SPLINE
  5
BC
330
1F
100
AcDbEntity
  8
0
  6
Continuous
 62
     1
370
    15
100
AcDbSpline
210
0.0
220
0.0
230
1.0
 70
     8
 71
     3
 72
    24
 73
    20
 74
     0
 42
0.000000001
 43
0.00000001
 40
0.0
 40
0.0
 40
0.0
 40
0.0
 40
0.0111336214473742
 40
0.0721441870122289
 40
0.1330771783816752
 40
0.1940099487265226
 40
0.2550204167592394
 40
0.3159660439780087
 40
0.376890474716309
 40
0.4378915895798416
 40
0.4988540521868332
 40
0.5597743562384053
 40
0.6207568727076962
 40
0.6817403566453498
 40
0.7426607495365493
 40
0.8069935043057158
 40
0.8713779387864291
 40
0.935695877313919
 40
1.0
 40
1.0
 40
1.0
 40
1.0
 10
38.12662814983827
 20
-11.90116445651613
 30
0.0
 10
38.02225425711588
 20
-11.94265256447917
 30
0.0
 10
37.34592718138853
 20
-12.21148924388462
 30
0.0
 10
36.09710293085068
 20
-12.48915922788665
 30
0.0
 10
34.38334732746682
 20
-12.72068370355866
 30
0.0
 10
32.66951303133384
 20
-12.69989447529541
 30
0.0
 10
30.95350316064304
 20
-12.45374567664651
 30
0.0
 10
29.23932475675401
 20
-11.97927845372276
 30
0.0
 10
27.52574657587801
 20
-11.28682632879515
 30
0.0
 10
25.80999848934656
 20
-10.38974886902199
 30
0.0
 10
24.09535321357398
 20
-9.303175538714955
 30
0.0
 10
22.38189702744419
 20
-8.046593085538131
 30
0.0
 10
20.66668243351639
 20
-6.644600302379416
 30
0.0
 10
18.95144453057864
 20
-5.121753387081449
 30
0.0
 10
17.20638426727764
 20
-3.474771697727653
 30
0.0
 10
15.42846650313802
 20
-1.730005858547099
 30
0.0
 10
13.6174257466459
 20
0.0783225086495013
 30
0.0
 10
11.80840988493667
 20
1.891862239387432
 30
0.0
 10
10.60276012699331
 20
3.061572007174493
 30
0.0
 10
10.0
 20
3.646364069323084
 30
0.0
  0
SPLINE
  5
BD
330
1F
100
AcDbEntity
  8
0
  6
Continuous
 62
     1
370
    15
100
AcDbSpline
210
0.0
220
0.0
230
1.0
 70
    24
 71
     3
 72
    20
 73
    16
 74
     0
 42
0.000000001
 43
0.00000001
 40
0.0
 40
0.0
 40
0.0
 40
0.0
 40
0.2500000000000001
 40
0.2500000000000001
 40
0.3750000000000002
 40
0.3750000000000002
 40
0.5000000000000004
 40
0.5000000000000004
 40
0.6250000000000002
 40
0.6250000000000002
 40
0.7500000000000002
 40
0.7500000000000002
 40
0.875
 40
0.875
 40
1.0
 40
1.0
 40
1.0
 40
1.0
 10
10.0
 20
10.6626639099685
 30
0.0
 10
10.0
 20
10.14349730675258
 30
0.0
 10
10.0
 20
9.551175198483502
 30
0.0
 10
10.0
 20
8.569179721256782
 30
0.0
 10
10.0
 20
8.22678701271681
 30
0.0
 10
10.0
 20
7.5242474232891
 30
0.0
 10
10.0
 20
7.164053521006093
 30
0.0
 10
10.0
 20
6.447448622788795
 30
0.0
 10
10.0
 20
6.091095541655016
 30
0.0
 10
10.0
 20
5.413163183792643
 30
0.0
 10
10.0
 20
5.091804271300703
 30
0.0
 10
10.0
 20
4.520302537323858
 30
0.0
 10
10.0
 20
4.270511684974738
 30
0.0
 10
10.0
 20
3.875202004112827
 30
0.0
 10
10.0
 20
3.730003218392929
 30
0.0
 10
10.0
 20
3.646364069323086
 30
0.0
  0
SPLINE
  5
BE
330
1F
100
AcDbEntity
  8
0
  6
Continuous
 62
     1
370
    15
100
AcDbSpline
210
0.0
220
0.0
230
1.0
 70
     8
 71
     3
 72
    26
 73
    22
 74
     0
 42
0.000000001
 43
0.00000001
 40
0.0
 40
0.0
 40
0.0
 40
0.0
 40
0.055473147460757
 40
0.1109582134140734
 40
0.1665006433382304
 40
0.2219984907980042
 40
0.2745526008154673
 40
0.3271611374976173
 40
0.3797688395751897
 40
0.4323228729534961
 40
0.4849132751937638
 40
0.5375370215220501
 40
0.590094614863417
 40
0.6426704937429045
 40
0.6953023087565519
 40
0.7478670964146192
 40
0.8004320747436677
 40
0.853063973895228
 40
0.908555346053756
 40
0.9640244413729059
 40
1.0
 40
1.0
 40
1.0
 40
1.0
 10
10.0
 20
10.66266390996864
 30
0.0
 10
10.60276012699352
 20
10.31421189123755
 30
0.0
 10
11.80840988493731
 20
9.617232988313758
 30
0.0
 10
13.61742574664333
 20
8.318348039111896
 30
0.0
 10
15.42846650314763
 20
6.867536249994844
 30
0.0
 10
17.20638426724253
 20
5.300381268008276
 30
0.0
 10
18.95144453070201
 20
3.661282224917275
 30
0.0
 10
20.66668243305459
 20
1.98618560154393
 30
0.0
 10
22.381897029167
 20
0.2750384386381494
 30
0.0
 10
24.09535320714971
 20
-1.442496531520735
 30
0.0
 10
25.80999851334797
 20
-3.132922953452879
 30
0.0
 10
27.52574648628973
 20
-4.765392894339104
 30
0.0
 10
29.23932509067567
 20
-6.312857902672377
 30
0.0
 10
30.95350191333681
 20
-7.744963540446617
 30
0.0
 10
32.66951768930846
 20
-9.034838371249398
 30
0.0
 10
34.38332996891137
 20
-10.16192653214895
 30
0.0
 10
36.09716775156591
 20
-11.10317239306369
 30
0.0
 10
37.84484078488546
 20
-11.85776350777795
 30
0.0
 10
39.62249928792912
 20
-12.38689545218172
 30
0.0
 10
41.21876712129725
 20
-12.67469657117491
 30
0.0
 10
42.21277572188974
 20
-12.67176342527936
 30
0.0
 10
42.6038320947147
 20
-12.67060948617441
 30
0.0
  0
SPLINE
  5
BF
330
1F
100
AcDbEntity
  8
0
  6
Continuous
 62
     1
370
    15
100
AcDbSpline
210
0.0
220
0.0
230
1.0
 70
     8
 71
     3
 72
    40
 73
    36
 74
     0
 42
0.000000001
 43
0.00000001
 40
0.0
 40
0.0
 40
0.0
 40
0.0
 40
0.0624999999999999
 40
0.0624999999999999
 40
0.1249999999999998
 40
0.1249999999999998
 40
0.1874999999999996
 40
0.1874999999999996
 40
0.2499999999999995
 40
0.2499999999999995
 40
0.3124999999999993
 40
0.3124999999999993
 40
0.3749999999999992
 40
0.3749999999999992
 40
0.4999999999999991
 40
0.4999999999999991
 40
0.5624999999999992
 40
0.5624999999999992
 40
0.6249999999999993
 40
0.6249999999999993
 40
0.6874999999999994
 40
0.6874999999999994
 40
0.7187499999999996
 40
0.7187499999999996
 40
0.7499999999999997
 40
0.7499999999999997
 40
0.7812499999999999
 40
0.7812499999999999
 40
0.8125
 40
0.8125
 40
0.875
 40
0.875
 40
0.9375
 40
0.9375
 40
1.0
 40
1.0
 40
1.0
 40
1.0
 10
45.05199999999999
 20
4.12626510527718
 30
0.0
 10
45.2679350811415
 20
3.922070179057519
 30
0.0
 10
45.47469268478683
 20
3.706763504325179
 30
0.0
 10
45.87500973915361
 20
3.259083808829209
 30
0.0
 10
46.06981660908006
 20
3.025474649850831
 30
0.0
 10
46.44166288631583
 20
2.547397806546196
 30
0.0
 10
46.61607141964578
 20
2.306472406178421
 30
0.0
 10
46.94095383774909
 20
1.819123329591595
 30
0.0
 10
47.09232181507299
 20
1.570930813153784
 30
0.0
 10
47.36197964261812
 20
1.074075629661514
 30
0.0
 10
47.47978138975056
 20
0.826600379425869
 30
0.0
 10
47.68028259994439
 20
0.3270610912511067
 30
0.0
 10
47.76309022562779
 20
0.0739256783867682
 30
0.0
 10
47.95822161632603
 20
-0.6968421992454088
 30
0.0
 10
48.01558933894876
 20
-1.221836971666332
 30
0.0
 10
48.0531800993317
 20
-2.065317312451423
 30
0.0
 10
48.05800439678266
 20
-2.354807508465966
 30
0.0
 10
48.05661054046675
 20
-2.941017803111914
 30
0.0
 10
48.05067808065832
 20
-3.240623031232704
 30
0.0
 10
48.01757932727106
 20
-3.845739080032355
 30
0.0
 10
47.99152467921422
 20
-4.147663409173135
 30
0.0
 10
47.9091954178346
 20
-4.595596653984037
 30
0.0
 10
47.87481869887223
 20
-4.740584348174465
 30
0.0
 10
47.78320334791614
 20
-5.017839624694984
 30
0.0
 10
47.72584955338984
 20
-5.148925616406873
 30
0.0
 10
47.58327485417919
 20
-5.375886754262122
 30
0.0
 10
47.49745810552233
 20
-5.47142559243879
 30
0.0
 10
47.30504221374119
 20
-5.610263428987583
 30
0.0
 10
47.19740424545785
 20
-5.654573055887631
 30
0.0
 10
46.86298570537647
 20
-5.71669094775173
 30
0.0
 10
46.62620679774059
 20
-5.66859768519804
 30
0.0
 10
46.16341737636741
 20
-5.485457282707076
 30
0.0
 10
45.93516890878989
 20
-5.349958722073585
 30
0.0
 10
45.48577924224669
 20
-5.028623773337924
 30
0.0
 10
45.26758421219266
 20
-4.84503604453103
 30
0.0
 10
45.05199999999999
 20
-4.644409563570647
 30
0.0
  0
SPLINE
  5
C0
330
1F
100
AcDbEntity
  8
0
  6
Continuous
 62
     1
370
    15
100
AcDbSpline
210
0.0
220
0.0
230
1.0
 70
     8
 71
     3
 72
    22
 73
    18
 74
     0
 42
0.000000001
 43
0.00000001
 40
0.0
 40
0.0
 40
0.0
 40
0.0
 40
0.0732938138524453
 40
0.1465528766824867
 40
0.2197608649468526
 40
0.2929982541341353
 40
0.3624617172255998
 40
0.4318368583647973
 40
0.5012117478568592
 40
0.5706750999032941
 40
0.6400646275646448
 40
0.7094300220135742
 40
0.7788827250270686
 40
0.8482914205875786
 40
0.9176521166052023
 40
0.9870836444523955
 40
1.0
 40
1.0
 40
1.0
 40
1.0
 10
45.05199999999998
 20
-4.644409563570631
 30
0.0
 10
44.44822146578669
 20
-4.073752349698303
 30
0.0
 10
43.24095066874192
 20
-2.932708489421513
 30
0.0
 10
41.43101801530261
 20
-1.13661919711067
 30
0.0
 10
39.622483531857
 20
0.6761976926283041
 30
0.0
 10
37.84484476584565
 20
2.445719450846817
 30
0.0
 10
36.09716671109624
 20
4.134401709326692
 30
0.0
 10
34.38333024454825
 20
5.719203867898351
 30
0.0
 10
32.6695176265245
 20
7.199766014338357
 30
0.0
 10
30.95350188837571
 20
8.547790599752139
 30
0.0
 10
29.23932525301899
 20
9.741490758295003
 30
0.0
 10
27.5257458617245
 20
10.75839134241839
 30
0.0
 10
25.81000085192269
 20
11.57706126147094
 30
0.0
 10
24.09534448719752
 20
12.19116895295264
 30
0.0
 10
22.38192956240156
 20
12.56283482590068
 30
0.0
 10
21.13214529006679
 20
12.72306625385188
 30
0.0
 10
20.45392426364001
 20
12.68798486383947
 30
0.0
 10
20.34754455409493
 20
12.6824823094589
 30
0.0
  0
SPLINE
  5
C1
330
1F
100
AcDbEntity
  8
0
  6
Continuous
 62
     1
370
    15
100
AcDbSpline
210
0.0
220
0.0
230
1.0
 70
     8
 71
     3
 72
    19
 73
    15
 74
     0
 42
0.000000001
 43
0.00000001
 40
0.0
 40
0.0
 40
0.0
 40
0.0
 40
0.0486526833960092
 40
0.1334839943491257
 40
0.2182086643844931
 40
0.3029628113438445
 40
0.38780712929864
 40
0.4725433968229683
 40
0.5572799717155555
 40
0.6421244253035956
 40
0.7315784489192588
 40
0.8209965614943713
 40
0.9104770578526142
 40
1.0
 40
1.0
 40
1.0
 40
1.0
 10
24.82577837772878
 20
11.89190981363447
 30
0.0
 10
25.15375838434035
 20
12.008676181659
 30
0.0
 10
26.05360764841514
 20
12.32903757021159
 30
0.0
 10
27.52577627377338
 20
12.60741895437295
 30
0.0
 10
29.23931710557735
 20
12.74017247495852
 30
0.0
 10
30.95350407447406
 20
12.63080207565152
 30
0.0
 10
32.66951704133589
 20
12.29462571392894
 30
0.0
 10
34.38333040123874
 20
11.73356877685168
 30
0.0
 10
36.09716666912564
 20
10.95894721409992
 30
0.0
 10
37.84484477778
 20
9.967841654923086
 30
0.0
 10
39.62248352859065
 20
8.764525343574581
 30
0.0
 10
41.43101801617415
 20
7.360487704980043
 30
0.0
 10
43.24095066852385
 20
5.813635203789333
 30
0.0
 10
44.44822146571398
 20
4.688810711943394
 30
0.0
 10
45.05199999999998
 20
4.126265105277185
 30
0.0
  0
SPLINE
  5
C2
330
1F
100
AcDbEntity
  8
0
  6
Continuous
 62
     1
370
    15
100
AcDbSpline
210
0.0
220
0.0
230
1.0
 70
     8
 71
     3
 72
    19
 73
    15
 74
     0
 42
0.000000001
 43
0.00000001
 40
0.0
 40
0.0
 40
0.0
 40
0.0
 40
0.0936901790512849
 40
0.1874004875841843
 40
0.2812076797616066
 40
0.3749395753448784
 40
0.4636997089013935
 40
0.552551765202391
 40
0.6414024119159416
 40
0.7301624160344016
 40
0.8189838445598947
 40
0.9078615888655405
 40
0.9966276055070283
 40
0.9999999999999999
 40
0.9999999999999999
 40
0.9999999999999999
 40
0.9999999999999999
 10
9.999999999999993
 20
-0.6434650087032663
 30
0.0
 10
10.60276012683188
 20
-1.244484106361885
 30
0.0
 10
11.80840988445235
 20
-2.446651431572979
 30
0.0
 10
13.61742574858445
 20
-4.197620807365134
 30
0.0
 10
15.42846649586252
 20
-5.863054418092092
 30
0.0
 10
17.20638429380596
 20
-7.383389827581024
 30
0.0
 10
18.95144443735619
 20
-8.735921340388845
 30
0.0
 10
20.66668278246146
 20
-9.903861183777499
 30
0.0
 10
22.38189572562279
 20
-10.89222085362513
 30
0.0
 10
24.09535806797542
 20
-11.68108974137469
 30
0.0
 10
25.80998035303024
 20
-12.26406383586704
 30
0.0
 10
27.5258142719257
 20
-12.59696315834831
 30
0.0
 10
28.6897785298371
 20
-12.73543091739747
 30
0.0
 10
29.28260777055559
 20
-12.69717810017873
 30
0.0
 10
29.30430614848565
 20
-12.69577799365919
 30
0.0
  0
LINE
  5
C3
330
1F
100
AcDbEntity
  8
0
  6
Continuous
 62
     1
370
    15
100
AcDbLine
 10
10.0
 20
-0.6434650087032656
 30
0.0
 11
10.0
 21
3.646364069323086
 31
0.0
  0
LINE
  5
C5
330
1F
100
AcDbEntity
  8
0
  6
Continuous
 62
     1
370
    15
100
AcDbLine
 10
10.0
 20
10.66266390996864
 30
0.0
 11
10.0
 21
12.35862325966307
 31
0.0
  0
SPLINE
  5
C6
330
1F
100
AcDbEntity
  8
0
  6
Continuous
 62
     1
370
    15
100
AcDbSpline
210
0.0
220
0.0
230
1.0
 70
     8
 71
     3
 72
    16
 73
    12
 74
     0
 42
0.000000001
 43
0.00000001
 40
0.0
 40
0.0
 40
0.0
 40
0.0
 40
0.0492806109744754
 40
0.1648519619948622
 40
0.2805413356232762
 40
0.3962325446270631
 40
0.5118040641842933
 40
0.6338491442160945
 40
0.7559922653554837
 40
0.8780092376308601
 40
0.9999999999999999
 40
0.9999999999999999
 40
0.9999999999999999
 40
0.9999999999999999
 10
24.8257783777287
 20
-11.8919098136345
 30
0.0
 10
24.5822090239388
 20
-11.98228925130413
 30
0.0
 10
23.76742842239791
 20
-12.28462372584117
 30
0.0
 10
22.38193555212787
 20
-12.56769774069406
 30
0.0
 10
20.66667210721603
 20
-12.73673942869984
 30
0.0
 10
18.95144728930256
 20
-12.66135257238364
 30
0.0
 10
17.20638348222724
 20
-12.35300379887739
 30
0.0
 10
15.42846671844086
 20
-11.7992379333575
 30
0.0
 10
13.61742568927816
 20
-10.99387442793993
 30
0.0
 10
11.80840989926883
 20
-9.977569527834662
 30
0.0
 10
10.60276013177036
 20
-9.133999099011792
 30
0.0
 10
10.0
 20
-8.712259190340099
 30
0.0
  0
SPLINE
  5
C7
330
1F
100
AcDbEntity
  8
0
  6
Continuous
 62
     1
370
    15
100
AcDbSpline
210
0.0
220
0.0
230
1.0
 70
    24
 71
     3
 72
    15
 73
    11
 74
     0
 42
0.000000001
 43
0.00000001
 40
0.0
 40
0.0
 40
0.0
 40
0.0
 40
0.0875116335076565
 40
0.214380538312612
 40
0.3412494431175672
 40
0.4681183479225229
 40
0.5949872527274783
 40
0.7218561575324338
 40
0.8487250623373892
 40
1.0
 40
1.0
 40
1.0
 40
1.0
 10
10.0
 20
-1.252469845348463
 30
0.0
 10
10.0
 20
-1.393607712443123
 30
0.0
 10
10.00000000000001
 20
-1.739358451073776
 30
0.0
 10
10.0
 20
-2.445001459884101
 30
0.0
 10
10.0
 20
-3.326736529306791
 30
0.0
 10
10.00000000000001
 20
-4.304425955786894
 30
0.0
 10
10.00000000000001
 20
-5.341673604089991
 30
0.0
 10
10.00000000000001
 20
-6.411009613820787
 30
0.0
 10
10.0
 20
-7.555734736223762
 30
0.0
 10
10.0
 20
-8.304840668381885
 30
0.0
 10
10.00000000000001
 20
-8.712259190340095
 30
0.0
  0
SPLINE
  5
C9
330
1F
100
AcDbEntity
  8
0
  6
Continuous
 62
     1
370
    15
100
AcDbSpline
210
0.0
220
0.0
230
1.0
 70
     8
 71
     3
 72
    40
 73
    36
 74
     0
 42
0.000000001
 43
0.00000001
 40
0.0
 40
0.0
 40
0.0
 40
0.0
 40
0.0624999999999999
 40
0.0624999999999999
 40
0.1249999999999998
 40
0.1249999999999998
 40
0.1874999999999997
 40
0.1874999999999997
 40
0.2499999999999996
 40
0.2499999999999996
 40
0.3124999999999994
 40
0.3124999999999994
 40
0.3749999999999993
 40
0.3749999999999993
 40
0.4999999999999996
 40
0.4999999999999996
 40
0.5624999999999997
 40
0.5624999999999997
 40
0.6249999999999998
 40
0.6249999999999998
 40
0.6875000000000001
 40
0.6875000000000001
 40
0.71875
 40
0.71875
 40
0.75
 40
0.75
 40
0.7812499999999999
 40
0.7812499999999999
 40
0.8124999999999999
 40
0.8124999999999999
 40
0.8749999999999999
 40
0.8749999999999999
 40
0.9374999999999999
 40
0.9374999999999999
 40
1.0
 40
1.0
 40
1.0
 40
1.0
 10
45.05199999999999
 20
12.46495701812198
 30
0.0
 10
45.2679350811415
 20
12.42361060894006
 30
0.0
 10
45.47469268478685
 20
12.35434009571725
 30
0.0
 10
45.87500973915361
 20
12.16638605502885
 30
0.0
 10
46.06981660908006
 20
12.04671688969989
 30
0.0
 10
46.44166288631583
 20
11.76070337291078
 30
0.0
 10
46.61607141964575
 20
11.59667280119741
 30
0.0
 10
46.94095383774906
 20
11.22939357529349
 30
0.0
 10
47.09232181507298
 20
11.02442797316925
 30
0.0
 10
47.36197964261811
 20
10.58517174315163
 30
0.0
 10
47.47978138975056
 20
10.35216812673822
 30
0.0
 10
47.68028259994439
 20
9.866272904347413
 30
0.0
 10
47.76309022562779
 20
9.612278003720899
 30
0.0
 10
47.95822161632603
 20
8.842819046975688
 30
0.0
 10
48.01558933894874
 20
8.326945796905486
 30
0.0
 10
48.05318009933166
 20
7.611026094879843
 30
0.0
 10
48.05800439678264
 20
7.382485717146875
 30
0.0
 10
48.05661054046674
 20
6.95973080287689
 30
0.0
 10
48.05067808065834
 20
6.762928918918878
 30
0.0
 10
48.01757932727109
 20
6.412486514169847
 30
0.0
 10
47.99152467921422
 20
6.259867160201199
 30
0.0
 10
47.9091954178346
 20
6.087372085749211
 30
0.0
 10
47.87481869887223
 20
6.040951444817686
 30
0.0
 10
47.78320334791614
 20
5.978319778610056
 30
0.0
 10
47.72584955338985
 20
5.962894239827414
 30
0.0
 10
47.58327485417919
 20
5.97448778064452
 30
0.0
 10
47.49745810552231
 20
6.002101766166383
 30
0.0
 10
47.30504221374115
 20
6.096752812135693
 30
0.0
 10
47.19740424545785
 20
6.164047481055297
 30
0.0
 10
46.86298570537646
 20
6.398927878345935
 30
0.0
 10
46.62620679774056
 20
6.595484219228156
 30
0.0
 10
46.16341737636739
 20
6.987284915836877
 30
0.0
 10
45.93516890878988
 20
7.18521422021803
 30
0.0
 10
45.48577924224671
 20
7.565772911151784
 30
0.0
 10
45.26758421219269
 20
7.745892282927971
 30
0.0
 10
45.05199999999999
 20
7.91447411590219
 30
0.0
  0
LINE
  5
CA
330
1F
100
AcDbEntity
  8
0
  6
Continuous
 62
     1
370
    15
100
AcDbLine
 10
48.09999999999999
 20
-0.0000000000000175
 30
0.0
 11
48.09999999999999
 21
9.651999999999985
 31
0.0
  0
LINE
  5
CB
330
1F
100
AcDbEntity
  8
0
  6
Continuous
 62
     1
370
    15
100
AcDbLine
 10
48.09999999999999
 20
-9.652000000000017
 30
0.0
 11
48.09999999999999
 21
-0.0000000000000175
 31
0.0
  0
SPLINE
  5
CC
330
1F
100
AcDbEntity
  8
0
  6
Continuous
 62
     1
370
    15
100
AcDbSpline
210
0.0
220
0.0
230
1.0
 70
     8
 71
     3
 72
    14
 73
    10
 74
     0
 42
0.000000001
 43
0.00000001
 40
0.0
 40
0.0
 40
0.0
 40
0.0
 40
0.158768132824936
 40
0.3174609884245406
 40
0.4760432069457756
 40
0.6346891133744822
 40
0.7851599888127339
 40
0.9354395423547458
 40
1.0
 40
1.0
 40
1.0
 40
1.0
 10
45.05199999999998
 20
7.91447411590219
 30
0.0
 10
44.44822140443939
 20
8.370834130530916
 30
0.0
 10
43.24095048472913
 20
9.283337784404697
 30
0.0
 10
41.43101875073303
 20
10.42110066867821
 30
0.0
 10
39.6224807756291
 20
11.3583590894049
 30
0.0
 10
37.84485483641291
 20
12.05379320967521
 30
0.0
 10
36.09713129508286
 20
12.49348832227697
 30
0.0
 10
34.70914676918937
 20
12.70048747252837
 30
0.0
 10
33.89260807252386
 20
12.6783231329105
 30
0.0
 10
33.6472342631926
 20
12.6716626421517
 30
0.0
  0
SPLINE
  5
CD
330
1F
100
AcDbEntity
  8
0
  6
Continuous
 62
     1
370
    15
100
AcDbSpline
210
0.0
220
0.0
230
1.0
 70
     8
 71
     3
 72
    11
 73
     7
 74
     0
 42
0.000000001
 43
0.00000001
 40
0.0
 40
0.0
 40
0.0
 40
0.0
 40
0.2160415740834834
 40
0.4771982602756624
 40
0.7385371460424608
 40
1.0
 40
1.0
 40
1.0
 40
1.0
 10
38.12662814983827
 20
11.9011644565161
 30
0.0
 10
38.62534148721576
 20
12.06469201436333
 30
0.0
 10
39.72691250650878
 20
12.42589594672162
 30
0.0
 10
41.43099412875722
 20
12.68149137466916
 30
0.0
 10
43.24095664541927
 20
12.73940248032884
 30
0.0
 10
44.44822345832739
 20
12.5564532993291
 30
0.0
 10
45.05199999999998
 20
12.46495701812198
 30
0.0
  0
SPLINE
  5
CE
330
1F
100
AcDbEntity
  8
0
  6
Continuous
 62
     1
370
    15
100
AcDbSpline
210
0.0
220
0.0
230
1.0
 70
     8
 71
     3
 72
    11
 73
     7
 74
     0
 42
0.000000001
 43
0.00000001
 40
0.0
 40
0.0
 40
0.0
 40
0.0
 40
0.3011700144448841
 40
0.6024047357387674
 40
0.9039508925418571
 40
1.0
 40
1.0
 40
1.0
 40
1.0
 10
10.0
 20
-11.30612891867187
 30
0.0
 10
10.60276444158152
 20
-11.55965319322894
 30
0.0
 10
11.80842282962828
 20
-12.0667562124303
 30
0.0
 10
13.61737393258913
 20
-12.50447384711968
 30
0.0
 10
15.01744328547336
 20
-12.71260195061117
 30
0.0
 10
15.81329812850904
 20
-12.67991624379173
 30
0.0
 10
16.00555682525648
 20
-12.67202019157773
 30
0.0
  0
LINE
  5
CF
330
1F
100
AcDbEntity
  8
0
  6
Continuous
 62
     1
370
    15
100
AcDbLine
 10
10.0
 20
-11.30612891867188
 30
0.0
 11
10.00000000000001
 21
-8.712259190340095
 31
0.0
  0
LINE
  5
D0
330
1F
100
AcDbEntity
  8
0
  6
Continuous
 62
     1
370
    15
100
AcDbLine
 10
11.5260025940478
 20
-11.90254762518758
 30
0.0
 11
10.0
 21
-12.35862325966309
 31
0.0
  0
SPLINE
  5
D1
330
1F
100
AcDbEntity
  8
0
  6
Continuous
 62
     1
370
    15
100
AcDbSpline
210
0.0
220
0.0
230
1.0
 70
    24
 71
     3
 72
     9
 73
     5
 74
     0
 42
0.000000001
 43
0.00000001
 40
0.0
 40
0.0
 40
0.0
 40
0.0
 40
0.3862716151333215
 40
1.0
 40
1.0
 40
1.0
 40
1.0
 10
10.00000000000001
 20
-11.61410826343448
 30
0.0
 10
10.00000000000001
 20
-11.70221665576742
 30
0.0
 10
10.00000000000001
 20
-11.93031623358011
 30
0.0
 10
10.00000000000001
 20
-12.19573080402429
 30
0.0
 10
10.00000000000001
 20
-12.35862325966308
 30
0.0
  0
LINE
  5
D4
330
1F
100
AcDbEntity
  8
0
  6
Continuous
 62
     8
370
    15
100
AcDbLine
 10
45.05199999999999
 20
-12.70000000000002
 30
0.0
 11
45.05200000000001
 21
-12.55888367947282
 31
0.0
  0
LINE
  5
D5
330
1F
100
AcDbEntity
  8
0
  6
Continuous
 62
     8
370
    15
100
AcDbLine
 10
45.05199999999999
 20
12.46495701812198
 30
0.0
 11
45.05199999999999
 21
12.69999999999999
 31
0.0
  0
LINE
  5
D6
330
1F
100
AcDbEntity
  8
중심선
100
AcDbLine
 10
-56.5
 20
-0.0000000000000167
 30
0.0
 11
51.10000000000002
 21
-0.0000000000000167
 31
0.0
  0
CIRCLE
  5
D7
330
1F
100
AcDbEntity
  8
외형선
100
AcDbCircle
 10
0.0
 20
0.0
 30
0.0
 40
3.000000000000004
  0
INSERT
  5
D8
330
1F
100
AcDbEntity
  8
0
  6
Continuous
 62
     7
100
AcDbBlockReference
 66
     1
  2
블럭10
 10
-16.62936049909348
 20
-51.78679627639983
 30
0.0
  0
ATTRIB
  5
D9
330
D8
100
AcDbEntity
  8
FORMAT
 62
     2
100
AcDbText
 10
-27.68038085127795
 20
-49.71142936356764
 30
0.0
 40
4.233333333333333
  1
GMG22951[ 6 FLUTE ]
 41
0.75
  7
SLDTEXTSTYLE0
 11
-27.68038085127795
 21
-51.82809603023431
 31
0.0
100
AcDbAttribute
  2
AUTOATTR0
 70
     0
 74
     1
  0
SEQEND
  5
DA
330
D8
100
AcDbEntity
  8
0
  6
Continuous
 62
     7
  0
HATCH
  5
DB
330
1F
100
AcDbEntity
  8
중심선
100
AcDbHatch
 10
0.0
 20
0.0
 30
0.0
210
0.0
220
0.0
230
1.0
  2
SOLID
 70
     1
 71
     0
 91
        1
 92
        0
 93
        4
 72
     1
 10
-10.91445119471263
 20
-35.5396219747559
 11
-14.36072643854991
 21
-35.5396219747559
 72
     1
 10
-14.36072643854991
 20
-35.5396219747559
 11
-16.48895629775393
 21
-38.07594755532849
 72
     1
 10
-16.48895629775394
 20
-38.07594755532849
 11
-13.0426479688035
 21
-38.075908126026
 72
     1
 10
-13.0426479688035
 20
-38.075908126026
 11
-10.91445119471263
 21
-35.5396219747559
 97
        0
 75
     0
 76
     1
 98
        1
 10
-6.386651720807965
 20
0.2603780252440987
  0
HATCH
  5
DC
330
1F
100
AcDbEntity
  8
중심선
100
AcDbHatch
 10
0.0
 20
0.0
 30
0.0
210
0.0
220
0.0
230
1.0
  2
SOLID
 70
     1
 71
     0
 91
        1
 92
        0
 93
        4
 72
     1
 10
-5.901687203676678
 20
-35.5396219747559
 11
-9.34796244751396
 21
-35.5396219747559
 72
     1
 10
-9.34796244751396
 20
-35.5396219747559
 11
-13.87910045587135
 21
-40.93962197475592
 72
     1
 10
-13.87910045587135
 20
-40.93962197475592
 11
-10.43282521203407
 21
-40.93962197475592
 72
     1
 10
-10.43282521203407
 20
-40.93962197475592
 11
-5.901687203676678
 21
-35.5396219747559
 97
        0
 75
     0
 76
     1
 98
        1
 10
-6.386651720807965
 20
0.2603780252440987
  0
HATCH
  5
DD
330
1F
100
AcDbEntity
  8
중심선
100
AcDbHatch
 10
0.0
 20
0.0
 30
0.0
210
0.0
220
0.0
230
1.0
  2
SOLID
 70
     1
 71
     0
 91
        1
 92
        0
 93
        4
 72
     1
 10
-0.8889232126407824
 20
-35.53962197475592
 11
-4.335198456477898
 21
-35.5396219747559
 72
     1
 10
-4.335198456477898
 20
-35.5396219747559
 11
-11.38363535836715
 21
-43.93962197475592
 72
     1
 10
-11.38363535836715
 20
-43.93962197475592
 11
-7.937360114529865
 21
-43.93962197475592
 72
     1
 10
-7.937360114529865
 20
-43.93962197475592
 11
-0.8889232126407816
 21
-35.53962197475592
 97
        0
 75
     0
 76
     1
 98
        1
 10
-6.386651720807965
 20
0.2603780252440987
  0
HATCH
  5
DE
330
1F
100
AcDbEntity
  8
중심선
100
AcDbHatch
 10
0.0
 20
0.0
 30
0.0
210
0.0
220
0.0
230
1.0
  2
SOLID
 70
     1
 71
     0
 91
        1
 92
        0
 93
        6
 72
     3
 10
3.910967218371416
 20
-39.73962197480717
 11
3.960054785062283
 21
1.540882976769353E-10
 40
0.3939339440162628
 50
17.09539180608437
 51
320.0019657685081
 73
     0
 72
     1
 10
5.593966874072013
 20
-38.3275159793942
 11
7.89926874777305
 21
-36.39318926934628
 72
     3
 10
3.91096721831857
 20
-39.73962197475605
 11
6.600054785286831
 21
-1.278976924368180E-13
 40
0.6363583540795978
 50
39.99873849337411
 51
368.4976242363725
 73
     1
 72
     1
 10
10.33629971021918
 20
-38.77962197468592
 11
2.591034525154493
 21
-38.77962197468589
 72
     1
 10
2.591034525154493
 20
-38.77962197468589
 11
2.591009480708559
 21
-40.69962197468581
 72
     1
 10
2.591009480708559
 20
-40.69962197468581
 11
7.032389250180596
 21
-40.69962197468578
 97
        0
 75
     0
 76
     1
 98
        1
 10
-6.386651720807965
 20
0.2603780252440987
  0
POINT
  5
DF
330
1F
100
AcDbEntity
  8
치수문자_일반주서
100
AcDbPoint
 10
0.0
 20
0.0
 30
0.0
  0
DIMENSION
  5
E0
330
1F
100
AcDbEntity
  8
치수문자_일반주서
100
AcDbDimension
  2
_D
 10
48.09999999999999
 20
45.35555141807176
 30
0.0
 11
-2.699999999999999
 21
45.35555141807176
 31
0.0
 70
   160
  1
<>
 71
     2
 42
101.6
  3
SLDDIMSTYLE0
100
AcDbAlignedDimension
 13
-53.5
 23
12.19999999999997
 33
0.0
 14
48.09999999999999
 24
9.651999999999985
 34
0.0
100
AcDbRotatedDimension
1001
ACAD
1000
DSTYLE
1002
{
1070
   273
1070
     7
1002
}
  0
DIMENSION
  5
F4
330
1F
100
AcDbEntity
  8
치수문자_일반주서
100
AcDbDimension
  2
_D_1
 10
10.0
 20
27.27899453033791
 30
0.0
 11
28.63090169785223
 21
27.27899453033791
 31
0.0
 70
   160
  1
<>
 71
     2
 42
38.09999999999999
  3
SLDDIMSTYLE0
100
AcDbAlignedDimension
 13
48.09999999999999
 23
9.651999999999985
 33
0.0
 14
10.0
 24
-12.35862325966309
 34
0.0
 50
0.0000000000000053
100
AcDbRotatedDimension
1001
ACAD
1000
DSTYLE
1002
{
1070
   273
1070
     7
1002
}
  0
DIMENSION
  5
107
330
1F
100
AcDbEntity
  8
치수문자_일반주서
100
AcDbDimension
  2
_D_2
 10
-66.49999999999997
 20
-12.70000000000007
 30
0.0
 11
-66.50000000000001
 21
-0.0000000000000226
 31
0.0
 70
   160
  1
%%c<>
 71
     2
 42
25.4
 52
-270.0
  3
SLDDIMSTYLE1
100
AcDbAlignedDimension
 13
-53.0
 23
12.69999999999998
 33
0.0
 14
-53.0
 24
-12.70000000000002
 34
0.0
 50
90.0000000000002
100
AcDbRotatedDimension
1001
ACAD
1000
DSTYLE
1002
{
1070
   273
1070
     7
1002
}
  0
INSERT
  5
122
330
1F
100
AcDbEntity
  8
외형선
100
AcDbBlockReference
  2
SW_DOWELSYMBOL_0
 10
0.0
 20
0.0
 30
0.0
  0
DIMENSION
  5
14A
102
{ACAD_REACTORS
102
}
102
{ACAD_XDICTIONARY
360
14B
102
}
330
1F
100
AcDbEntity
  8
치수문자_일반주서
100
AcDbDimension
  2
*D6
 10
63.70164358785734
 20
-12.70000000000002
 30
0.0
 11
61.07664358785734
 21
-0.0000000000000124
 31
0.0
 70
    32
  1
{%%c<>}
 71
     5
 42
25.40000000000001
  3
SLDDIMSTYLE0
100
AcDbAlignedDimension
 13
45.05199999999999
 23
12.69999999999999
 33
0.0
 14
45.05199999999999
 24
-12.70000000000002
 34
0.0
 50
90.0
100
AcDbRotatedDimension
1001
ACAD
1000
DSTYLE
1002
{
1070
   273
1070
     7
1002
}
  0
DIMENSION
  5
15B
102
{ACAD_REACTORS
102
}
102
{ACAD_XDICTIONARY
360
15C
102
}
330
1F
100
AcDbEntity
  8
치수문자_일반주서
100
AcDbDimension
  2
*D7
 10
45.05199999999999
 20
9.651999999999985
 30
0.0
 11
64.59001506811715
 21
30.80242325822622
 31
0.0
 70
   164
  1
<>
 71
     5
 42
3.048000000000004
  3
SLDDIMSTYLE0
100
AcDbRadialDimension
 15
47.12022908202454
 25
11.89091323285826
 35
0.0
 40
0.0
1001
ACAD
1000
DSTYLE
1002
{
1070
   171
1070
     3
1070
   273
1070
     2
1002
}
1001
ACAD_DSTYLE_DIMRADIAL_EXTENSION
1070
   387
1070
     1
1070
   388
1040
0.0
1070
   390
1040
1.570796326794897
  0
ENDSEC
  0
SECTION
  2
OBJECTS
  0
DICTIONARY
  5
C
330
0
100
AcDbDictionary
281
     1
  3
ACAD_GROUP
350
D
  3
ACAD_IMAGE_VARS
350
146
  3
ACAD_LAYOUT
350
1A
  3
ACAD_MLINESTYLE
350
17
  3
ACAD_PLOTSETTINGS
350
19
  3
ACAD_PLOTSTYLENAME
350
E
  3
ACAD_SCALELIST
350
47
  3
APPDATA
350
144
  3
DWGPROPS
350
168
  0
DICTIONARY
  5
14B
330
14A
100
AcDbDictionary
280
     1
281
     1
  0
DICTIONARY
  5
15C
330
15B
100
AcDbDictionary
280
     1
281
     1
  0
DICTIONARY
  5
D
102
{ACAD_REACTORS
330
C
102
}
330
C
100
AcDbDictionary
281
     1
  0
RASTERVARIABLES
  5
146
102
{ACAD_REACTORS
330
C
102
}
330
C
100
AcDbRasterVariables
 90
        0
 70
     1
 71
     1
 72
     1
  0
DICTIONARY
  5
1A
102
{ACAD_REACTORS
330
C
102
}
330
C
100
AcDbDictionary
281
     1
  3
Layout1
350
1E
  3
Layout2
350
26
  3
Model
350
22
  0
DICTIONARY
  5
17
102
{ACAD_REACTORS
330
C
102
}
330
C
100
AcDbDictionary
281
     1
  3
Standard
350
18
  0
DICTIONARY
  5
19
102
{ACAD_REACTORS
330
C
102
}
330
C
100
AcDbDictionary
281
     1
  0
ACDBDICTIONARYWDFLT
  5
E
102
{ACAD_REACTORS
330
C
102
}
330
C
100
AcDbDictionary
281
     1
  3
Normal
350
F
100
AcDbDictionaryWithDefault
340
F
  0
DICTIONARY
  5
47
102
{ACAD_REACTORS
330
C
102
}
330
C
100
AcDbDictionary
281
     1
  3
A0
350
48
  3
A1
350
49
  3
A2
350
4A
  3
A3
350
4B
  3
A4
350
4C
  3
A5
350
4D
  3
A6
350
4E
  3
A7
350
4F
  3
A8
350
50
  3
A9
350
51
  3
B0
350
52
  3
B1
350
53
  3
B2
350
54
  3
B3
350
55
  3
B4
350
56
  3
B5
350
57
  3
B6
350
58
  3
B7
350
59
  3
B8
350
5A
  3
B9
350
5B
  3
C0
350
5C
  3
C1
350
5D
  3
C2
350
5E
  3
C3
350
5F
  3
C4
350
60
  3
C5
350
61
  3
C6
350
62
  3
C7
350
63
  3
C8
350
64
  3
C9
350
65
  3
D0
350
66
  3
D1
350
67
  3
D2
350
68
  0
DICTIONARY
  5
144
102
{ACAD_REACTORS
330
C
102
}
330
C
100
AcDbDictionary
281
     1
  0
XRECORD
  5
168
102
{ACAD_REACTORS
330
C
102
}
330
C
100
AcDbXrecord
280
     1
  1
DWGPROPS COOKIE
  2

  3

  4

  6

  7

  8
12016016
  9

300
=
301
=
302
=
303
=
304
=
305
=
306
=
307
=
308
=
309
=
 40
0.0
 41
2458236.376809711
 42
2458242.056460856
  1

 90
        0
  0
LAYOUT
  5
1E
102
{ACAD_REACTORS
330
1A
102
}
330
1A
100
AcDbPlotSettings
  1

  2
none_device
  4

  6

 40
0.0
 41
0.0
 42
0.0
 43
0.0
 44
0.0
 45
0.0
 46
0.0
 47
0.0
 48
0.0
 49
0.0
140
0.0
141
0.0
142
1.0
143
1.0
 70
   688
 72
     1
 73
     0
 74
     5
  7

 75
    16
147
1.0
148
0.0
149
0.0
100
AcDbLayout
  1
Layout1
 70
     1
 71
     1
 10
0.0
 20
0.0
 11
420.0
 21
297.0
 12
0.0
 22
0.0
 32
0.0
 14
1.000000000000000E+20
 24
1.000000000000000E+20
 34
1.000000000000000E+20
 15
-1.000000000000000E+20
 25
-1.000000000000000E+20
 35
-1.000000000000000E+20
146
0.0
 13
0.0
 23
0.0
 33
0.0
 16
1.0
 26
0.0
 36
0.0
 17
0.0
 27
1.0
 37
0.0
 76
     0
330
1B
  0
LAYOUT
  5
26
102
{ACAD_REACTORS
330
1A
102
}
330
1A
100
AcDbPlotSettings
  1

  2
none_device
  4

  6

 40
0.0
 41
0.0
 42
0.0
 43
0.0
 44
0.0
 45
0.0
 46
0.0
 47
0.0
 48
0.0
 49
0.0
140
0.0
141
0.0
142
1.0
143
1.0
 70
   688
 72
     1
 73
     0
 74
     5
  7

 75
    16
147
1.0
148
0.0
149
0.0
100
AcDbLayout
  1
Layout2
 70
     1
 71
     2
 10
0.0
 20
0.0
 11
0.0
 21
0.0
 12
0.0
 22
0.0
 32
0.0
 14
0.0
 24
0.0
 34
0.0
 15
0.0
 25
0.0
 35
0.0
146
0.0
 13
0.0
 23
0.0
 33
0.0
 16
1.0
 26
0.0
 36
0.0
 17
0.0
 27
1.0
 37
0.0
 76
     0
330
23
  0
LAYOUT
  5
22
102
{ACAD_REACTORS
330
1A
102
}
330
1A
100
AcDbPlotSettings
  1

  2
none_device
  4
ANSI_A_(11.00_x_8.50_Inches)
  6

 40
6.35
 41
19.05
 42
6.35000508
 43
19.05000254
 44
279.4
 45
215.9
 46
146.8031450975141
 47
83.71477817342067
 48
0.0
 49
0.0
140
0.0
141
0.0
142
0.078937127674307
143
1.0
 70
  1696
 72
     0
 73
     0
 74
     0
  7

 75
     0
147
0.0235690232323232
148
0.0
149
0.0
100
AcDbLayout
  1
Model
 70
     1
 71
     0
 10
0.0
 20
0.0
 11
420.0
 21
297.0
 12
0.0
 22
0.0
 32
0.0
 14
-70.87500000000006
 24
-49.71142936356765
 34
0.0
 15
74.83192212415653
 25
49.73055141807176
 35
0.0
146
0.0
 13
0.0
 23
0.0
 33
0.0
 16
1.0
 26
0.0
 36
0.0
 17
0.0
 27
1.0
 37
0.0
 76
     0
330
1F
331
29
  0
MLINESTYLE
  5
18
102
{ACAD_REACTORS
330
17
102
}
330
17
100
AcDbMlineStyle
  2
Standard
 70
     0
  3

 62
   256
 51
90.0
 52
90.0
 71
     2
 49
0.5
 62
   256
  6
BYLAYER
 49
-0.5
 62
   256
  6
BYLAYER
  0
ACDBPLACEHOLDER
  5
F
102
{ACAD_REACTORS
330
E
102
}
330
E
  0
SCALE
  5
48
102
{ACAD_REACTORS
330
47
102
}
330
47
100
AcDbScale
 70
     0
300
1:1
140
1.0
141
1.0
290
     1
  0
SCALE
  5
49
102
{ACAD_REACTORS
330
47
102
}
330
47
100
AcDbScale
 70
     0
300
1:2
140
1.0
141
2.0
290
     0
  0
SCALE
  5
4A
102
{ACAD_REACTORS
330
47
102
}
330
47
100
AcDbScale
 70
     0
300
1:4
140
1.0
141
4.0
290
     0
  0
SCALE
  5
4B
102
{ACAD_REACTORS
330
47
102
}
330
47
100
AcDbScale
 70
     0
300
1:5
140
1.0
141
5.0
290
     0
  0
SCALE
  5
4C
102
{ACAD_REACTORS
330
47
102
}
330
47
100
AcDbScale
 70
     0
300
1:8
140
1.0
141
8.0
290
     0
  0
SCALE
  5
4D
102
{ACAD_REACTORS
330
47
102
}
330
47
100
AcDbScale
 70
     0
300
1:10
140
1.0
141
10.0
290
     0
  0
SCALE
  5
4E
102
{ACAD_REACTORS
330
47
102
}
330
47
100
AcDbScale
 70
     0
300
1:16
140
1.0
141
16.0
290
     0
  0
SCALE
  5
4F
102
{ACAD_REACTORS
330
47
102
}
330
47
100
AcDbScale
 70
     0
300
1:20
140
1.0
141
20.0
290
     0
  0
SCALE
  5
50
102
{ACAD_REACTORS
330
47
102
}
330
47
100
AcDbScale
 70
     0
300
1:30
140
1.0
141
30.0
290
     0
  0
SCALE
  5
51
102
{ACAD_REACTORS
330
47
102
}
330
47
100
AcDbScale
 70
     0
300
1:40
140
1.0
141
40.0
290
     0
  0
SCALE
  5
52
102
{ACAD_REACTORS
330
47
102
}
330
47
100
AcDbScale
 70
     0
300
1:50
140
1.0
141
50.0
290
     0
  0
SCALE
  5
53
102
{ACAD_REACTORS
330
47
102
}
330
47
100
AcDbScale
 70
     0
300
1:100
140
1.0
141
100.0
290
     0
  0
SCALE
  5
54
102
{ACAD_REACTORS
330
47
102
}
330
47
100
AcDbScale
 70
     0
300
2:1
140
2.0
141
1.0
290
     0
  0
SCALE
  5
55
102
{ACAD_REACTORS
330
47
102
}
330
47
100
AcDbScale
 70
     0
300
4:1
140
4.0
141
1.0
290
     0
  0
SCALE
  5
56
102
{ACAD_REACTORS
330
47
102
}
330
47
100
AcDbScale
 70
     0
300
8:1
140
8.0
141
1.0
290
     0
  0
SCALE
  5
57
102
{ACAD_REACTORS
330
47
102
}
330
47
100
AcDbScale
 70
     0
300
10:1
140
10.0
141
1.0
290
     0
  0
SCALE
  5
58
102
{ACAD_REACTORS
330
47
102
}
330
47
100
AcDbScale
 70
     0
300
100:1
140
100.0
141
1.0
290
     0
  0
SCALE
  5
59
102
{ACAD_REACTORS
330
47
102
}
330
47
100
AcDbScale
 70
     0
300
1/128" = 1'-0"
140
0.0078125
141
12.0
290
     0
  0
SCALE
  5
5A
102
{ACAD_REACTORS
330
47
102
}
330
47
100
AcDbScale
 70
     0
300
1/64" = 1'-0"
140
0.015625
141
12.0
290
     0
  0
SCALE
  5
5B
102
{ACAD_REACTORS
330
47
102
}
330
47
100
AcDbScale
 70
     0
300
1/32" = 1'-0"
140
0.03125
141
12.0
290
     0
  0
SCALE
  5
5C
102
{ACAD_REACTORS
330
47
102
}
330
47
100
AcDbScale
 70
     0
300
1/16" = 1'-0"
140
0.0625
141
12.0
290
     0
  0
SCALE
  5
5D
102
{ACAD_REACTORS
330
47
102
}
330
47
100
AcDbScale
 70
     0
300
3/32" = 1'-0"
140
0.09375
141
12.0
290
     0
  0
SCALE
  5
5E
102
{ACAD_REACTORS
330
47
102
}
330
47
100
AcDbScale
 70
     0
300
1/8" = 1'-0"
140
0.125
141
12.0
290
     0
  0
SCALE
  5
5F
102
{ACAD_REACTORS
330
47
102
}
330
47
100
AcDbScale
 70
     0
300
3/16" = 1'-0"
140
0.1875
141
12.0
290
     0
  0
SCALE
  5
60
102
{ACAD_REACTORS
330
47
102
}
330
47
100
AcDbScale
 70
     0
300
1/4" = 1'-0"
140
0.25
141
12.0
290
     0
  0
SCALE
  5
61
102
{ACAD_REACTORS
330
47
102
}
330
47
100
AcDbScale
 70
     0
300
3/8" = 1'-0"
140
0.375
141
12.0
290
     0
  0
SCALE
  5
62
102
{ACAD_REACTORS
330
47
102
}
330
47
100
AcDbScale
 70
     0
300
1/2" = 1'-0"
140
0.5
141
12.0
290
     0
  0
SCALE
  5
63
102
{ACAD_REACTORS
330
47
102
}
330
47
100
AcDbScale
 70
     0
300
3/4" = 1'-0"
140
0.75
141
12.0
290
     0
  0
SCALE
  5
64
102
{ACAD_REACTORS
330
47
102
}
330
47
100
AcDbScale
 70
     0
300
1" = 1'-0"
140
1.0
141
12.0
290
     0
  0
SCALE
  5
65
102
{ACAD_REACTORS
330
47
102
}
330
47
100
AcDbScale
 70
     0
300
1-1/2" = 1'-0"
140
1.5
141
12.0
290
     0
  0
SCALE
  5
66
102
{ACAD_REACTORS
330
47
102
}
330
47
100
AcDbScale
 70
     0
300
3" = 1'-0"
140
3.0
141
12.0
290
     0
  0
SCALE
  5
67
102
{ACAD_REACTORS
330
47
102
}
330
47
100
AcDbScale
 70
     0
300
6" = 1'-0"
140
6.0
141
12.0
290
     0
  0
SCALE
  5
68
102
{ACAD_REACTORS
330
47
102
}
330
47
100
AcDbScale
 70
     0
300
1'-0" = 1'-0"
140
12.0
141
12.0
290
     0
  0
ENDSEC
  0
EOF
